0
SECTION
2
HEADER
9
$ACADVER
1
AC1015
9
$DWGCODEPAGE
3
ANSI_1252
9
$HANDSEED
5
207
9
$ANGBASE
50
0
9
$ANGDIR
70
0
9
$ATTMODE
70
1
9
$AUNITS
70
0
9
$AUPREC
70
0
9
$CECOLOR
62
256
9
$CELTSCALE
40
1
9
$CELTYPE
6
ByLayer
9
$CELWEIGHT
370
18
9
$CLAYER
8
0
9
$CMLJUST
70
0
9
$CMLSCALE
40
1
9
$CMLSTYLE
2
Standard
9
$DIMSTYLE
2
Standard
9
$TEXTSIZE
40
0.2
9
$TEXTSTYLE
7
Standard
9
$LUNITS
70
2
9
$LUPREC
70
4
9
$EXTNAMES
290
1
9
$INSUNITS
70
4
9
$LTSCALE
40
1
9
$LWDISPLAY
290
1
9
$PDMODE
70
0
9
$PDSIZE
40
0
9
$PLINEGEN
70
0
0
ENDSEC
0
SECTION
2
CLASSES
0
CLASS
1
RASTERVARIABLES
2
AcDbRasterVariables
3
ISM
90
0
280
0
281
0
0
ENDSEC
0
SECTION
2
TABLES
0
TABLE
2
VPORT
5
1fd
100
AcDbSymbolTable
0
VPORT
5
1
100
AcDbSymbolTableRecord
100
AcDbViewportTableRecord
2
*Active
70
0
10
0
20
0
11
1
21
1
12
-1
22
1
13
0
23
0
14
0.5
24
0.5
15
10
25
10
16
0
26
0
36
1
17
0
27
0
37
0
0
ENDTAB
0
TABLE
2
LTYPE
5
1fe
100
AcDbSymbolTable
0
LTYPE
5
14
100
AcDbSymbolTableRecord
100
AcDbLinetypeTableRecord
70
0
2
ByBlock
3

72
65
73
0
40
0
0
LTYPE
5
15
100
AcDbSymbolTableRecord
100
AcDbLinetypeTableRecord
70
0
2
ByLayer
3

72
65
73
0
40
0
0
LTYPE
5
16
100
AcDbSymbolTableRecord
100
AcDbLinetypeTableRecord
70
0
2
Continuous
3
Solid line
72
65
73
0
40
0
0
LTYPE
5
6E
100
AcDbSymbolTableRecord
100
AcDbLinetypeTableRecord
70
0
2
CENTER
3
____ _ ____ _ ____ _ ____
72
65
73
4
40
47.5
49
22
74
0
49
-8.5
74
0
49
8.5
74
0
49
-8.5
74
0
0
LTYPE
5
6F
100
AcDbSymbolTableRecord
100
AcDbLinetypeTableRecord
70
0
2
DASHED
3
__ __ __ __ __ __ __ __ __
72
65
73
2
40
25.72
49
12.86
74
0
49
-12.86
74
0
0
ENDTAB
0
TABLE
2
LAYER
5
1ff
100
AcDbSymbolTable
0
LAYER
5
10
100
AcDbSymbolTableRecord
100
AcDbLayerTableRecord
2
0
70
0
62
7
6
Continuous
290
1
370
-3
390
0
0
LAYER
5
71
100
AcDbSymbolTableRecord
100
AcDbLayerTableRecord
2
81
70
0
62
-3
6
Continuous
290
1
370
-3
390
0
0
LAYER
5
73
100
AcDbSymbolTableRecord
100
AcDbLayerTableRecord
2
80
70
0
62
-6
6
Continuous
290
1
370
-3
390
0
0
LAYER
5
75
100
AcDbSymbolTableRecord
100
AcDbLayerTableRecord
2
1
70
0
62
4
6
Continuous
290
1
370
-3
390
0
0
LAYER
5
79
100
AcDbSymbolTableRecord
100
AcDbLayerTableRecord
2
4
70
0
62
-2
6
CENTER
290
1
370
-3
390
0
0
LAYER
5
CD
100
AcDbSymbolTableRecord
100
AcDbLayerTableRecord
2
2
70
0
62
7
6
Continuous
290
1
370
-3
390
0
0
LAYER
5
174
100
AcDbSymbolTableRecord
100
AcDbLayerTableRecord
2
Defpoints
70
0
62
7
6
Continuous
290
0
370
-3
390
0
0
LAYER
5
1e9
100
AcDbSymbolTableRecord
100
AcDbLayerTableRecord
2
SK4
70
0
62
2
6
CENTER
290
1
370
-3
390
0
0
LAYER
5
1ea
100
AcDbSymbolTableRecord
100
AcDbLayerTableRecord
2
SK1
70
0
62
4
6
Continuous
290
1
370
-3
390
0
0
LAYER
5
1eb
100
AcDbSymbolTableRecord
100
AcDbLayerTableRecord
2
SK2
70
0
62
7
6
Continuous
290
1
370
-3
390
0
0
LAYER
5
1ec
100
AcDbSymbolTableRecord
100
AcDbLayerTableRecord
2
SK6
70
0
62
5
6
Continuous
290
1
370
-3
390
0
0
ENDTAB
0
TABLE
2
STYLE
5
200
100
AcDbSymbolTable
0
STYLE
5
11
100
AcDbSymbolTableRecord
100
AcDbTextStyleTableRecord
2
Standard
3
txt
70
0
71
0
40
0
41
1
42
0
50
0
0
STYLE
5
150
100
AcDbSymbolTableRecord
100
AcDbTextStyleTableRecord
2
iso_b_vert
3
simplex.shx
70
0
71
0
40
0
41
1
42
0
50
0
0
STYLE
5
151
100
AcDbSymbolTableRecord
100
AcDbTextStyleTableRecord
2
DWGDirectTextStyle
3
simplex
70
0
71
0
40
0
41
1
42
0
50
0
0
ENDTAB
0
TABLE
2
DIMSTYLE
5
201
100
AcDbSymbolTable
100
AcDbDimStyleTable
0
DIMSTYLE
105
27
100
AcDbSymbolTableRecord
100
AcDbDimStyleTableRecord
2
Standard
70
0
3
<>
41
0.18
42
0.0625
44
0.18
140
0.18
147
0.09
73
0
74
0
77
1
271
2
275
0
278
52
280
0
340
11
0
ENDTAB
0
TABLE
2
VIEW
5
202
100
AcDbSymbolTable
0
ENDTAB
0
TABLE
2
UCS
5
203
100
AcDbSymbolTable
0
ENDTAB
0
TABLE
2
APPID
5
204
100
AcDbSymbolTable
0
APPID
5
12
100
AcDbSymbolTableRecord
100
AcDbRegAppTableRecord
2
ACAD
70
0
0
APPID
5
170
100
AcDbSymbolTableRecord
100
AcDbRegAppTableRecord
2
ACAD_DSTYLE_DIMBREAK
70
0
0
APPID
5
1A8
100
AcDbSymbolTableRecord
100
AcDbRegAppTableRecord
2
ACAD_DSTYLE_DIM_LINETYPE
70
0
0
APPID
5
1A9
100
AcDbSymbolTableRecord
100
AcDbRegAppTableRecord
2
ACAD_DSTYLE_DIM_EXT1_LINETYPE
70
0
0
APPID
5
1AA
100
AcDbSymbolTableRecord
100
AcDbRegAppTableRecord
2
ACAD_DSTYLE_DIM_EXT2_LINETYPE
70
0
0
APPID
5
1E5
100
AcDbSymbolTableRecord
100
AcDbRegAppTableRecord
2
ACAD_MLEADERVER
70
0
0
ENDTAB
0
TABLE
2
BLOCK_RECORD
5
205
100
AcDbSymbolTable
0
BLOCK_RECORD
5
1F
100
AcDbSymbolTableRecord
100
AcDbBlockTableRecord
2
*Model_Space
340
0
70
0
0
BLOCK_RECORD
5
1B
100
AcDbSymbolTableRecord
100
AcDbBlockTableRecord
2
*Paper_Space
340
0
70
0
0
BLOCK_RECORD
5
23
100
AcDbSymbolTableRecord
100
AcDbBlockTableRecord
2
*Paper_Space0
340
0
70
0
0
BLOCK_RECORD
5
175
100
AcDbSymbolTableRecord
100
AcDbBlockTableRecord
2
*D1
340
0
70
0
0
BLOCK_RECORD
5
181
100
AcDbSymbolTableRecord
100
AcDbBlockTableRecord
2
_U0
340
0
70
0
0
ENDTAB
0
ENDSEC
0
SECTION
2
BLOCKS
0
BLOCK
5
20
100
AcDbEntity
8
0
100
AcDbBlockBegin
2
*Model_Space
70
0
10
0
20
0
30
0
3
*Model_Space
0
ENDBLK
5
21
100
AcDbEntity
8
0
100
AcDbBlockEnd
0
BLOCK
5
1C
100
AcDbEntity
8
0
100
AcDbBlockBegin
2
*Paper_Space
70
0
10
0
20
0
30
0
3
*Paper_Space
0
ENDBLK
5
1D
100
AcDbEntity
8
0
100
AcDbBlockEnd
0
BLOCK
5
24
100
AcDbEntity
8
0
100
AcDbBlockBegin
2
*Paper_Space0
70
0
10
0
20
0
30
0
3
*Paper_Space0
0
ENDBLK
5
25
100
AcDbEntity
8
0
100
AcDbBlockEnd
0
BLOCK
5
176
100
AcDbEntity
8
0
100
AcDbBlockBegin
2
*D1
70
1
10
0
20
0
30
0
3
*D1
0
LINE
5
178
100
AcDbEntity
8
0
62
256
6
ByLayer
370
-2
48
1
60
0
100
AcDbLine
10
52
20
-9.5876
30
0
11
52
21
-25.362798
31
0
39
0
210
0
220
0
230
1
0
LINE
5
179
100
AcDbEntity
8
0
62
256
6
ByLayer
370
-2
48
1
60
0
100
AcDbLine
10
20
20
-9.5876
30
0
11
20
21
-25.362798
31
0
39
0
210
0
220
0
230
1
0
LINE
5
17A
100
AcDbEntity
8
0
62
256
6
ByLayer
370
-2
48
1
60
0
100
AcDbLine
10
48.5
20
-23.362798
30
0
11
23.5
21
-23.362798
31
0
39
0
210
0
220
0
230
1
0
SOLID
5
17B
100
AcDbEntity
8
0
62
256
6
ByLayer
370
-1
48
1
60
0
100
AcDbTrace
10
48.5
20
-23.946132
30
0
11
48.5
21
-22.779465
31
0
12
52
22
-23.362798
32
0
13
52
23
-23.362798
33
0
39
0
210
0
220
0
230
1
0
SOLID
5
17C
100
AcDbEntity
8
0
62
256
6
ByLayer
370
-1
48
1
60
0
100
AcDbTrace
10
23.5
20
-22.779465
30
0
11
23.5
21
-23.946132
31
0
12
20
22
-23.362798
32
0
13
20
23
-23.362798
33
0
39
0
210
0
220
0
230
1
0
MTEXT
5
17D
100
AcDbEntity
8
0
62
256
6
ByLayer
370
18
48
1
60
0
100
AcDbMText
10
36
20
-16.362798
30
0
210
0
220
0
230
1
1
\A1;32
40
3.5
41
0
44
1
50
0
71
5
72
5
7
iso_b_vert
0
POINT
5
17E
100
AcDbEntity
8
Defpoints
62
0
6
ByLayer
370
-1
48
1
60
0
100
AcDbPoint
10
52
20
-8.0001
30
0
39
0
210
0
220
0
230
1
50
360
0
POINT
5
17F
100
AcDbEntity
8
Defpoints
62
0
6
ByLayer
370
-1
48
1
60
0
100
AcDbPoint
10
20
20
-8.0001
30
0
39
0
210
0
220
0
230
1
50
360
0
POINT
5
180
100
AcDbEntity
8
Defpoints
62
0
6
ByLayer
370
-1
48
1
60
0
100
AcDbPoint
10
20
20
-23.362798
30
0
39
0
210
0
220
0
230
1
50
360
0
ENDBLK
5
177
100
AcDbEntity
8
0
100
AcDbBlockEnd
0
BLOCK
5
188
100
AcDbEntity
8
0
100
AcDbBlockBegin
2
_U0
70
0
10
0
20
0
30
0
3
_U0
0
MTEXT
5
182
100
AcDbEntity
8
2
62
256
6
ByLayer
370
18
48
1
60
0
100
AcDbMText
10
34.095034
20
-22.330165
30
0
210
0
220
0
230
1
1
\W0.6740;32
40
3.5
41
0
44
1.084337
50
0
71
7
72
5
7
iso_b_vert
0
LINE
5
183
100
AcDbEntity
8
2
62
256
6
ByLayer
370
13
48
1
60
0
100
AcDbLine
10
52
20
-9.5876
30
0
11
52
21
-25.362798
31
0
39
0
210
0
220
0
230
1
0
LINE
5
184
100
AcDbEntity
8
2
62
256
6
ByLayer
370
13
48
1
60
0
100
AcDbLine
10
20
20
-9.5876
30
0
11
20
21
-25.362798
31
0
39
0
210
0
220
0
230
1
0
LINE
5
185
100
AcDbEntity
8
2
62
256
6
ByLayer
370
13
48
1
60
0
100
AcDbLine
10
52
20
-23.362798
30
0
11
20
21
-23.362798
31
0
39
0
210
0
220
0
230
1
0
SOLID
5
186
100
AcDbEntity
8
2
62
256
6
ByLayer
370
18
48
1
60
0
100
AcDbTrace
10
52
20
-23.362798
30
0
11
48.500002
21
-23.823582
31
0
12
48.499998
22
-22.902015
32
0
13
48.499998
23
-22.902015
33
0
39
0
210
0
220
0
230
1
0
SOLID
5
187
100
AcDbEntity
8
2
62
256
6
ByLayer
370
18
48
1
60
0
100
AcDbTrace
10
20
20
-23.362798
30
0
11
23.499998
21
-22.902015
31
0
12
23.500002
22
-23.823582
32
0
13
23.500002
23
-23.823582
33
0
39
0
210
0
220
0
230
1
0
ENDBLK
5
189
100
AcDbEntity
8
0
100
AcDbBlockEnd
0
ENDSEC
0
SECTION
2
ENTITIES
0
ELLIPSE
5
DF
100
AcDbEntity
8
1
62
256
6
ByLayer
370
18
48
1
60
0
100
AcDbEllipse
10
51.618684
20
-0.322712
30
0
11
0.0387609412254178
21
-1.37164760025941
31
0
210
0
220
0
230
1
40
0.078733
41
0.845992160036448
42
1.48808525504576
0
ELLIPSE
5
E0
100
AcDbEntity
8
1
62
256
6
ByLayer
370
18
48
1
60
0
100
AcDbEllipse
10
51.476133
20
-0.991634
30
0
11
0.552407173489438
21
-0.925349664184167
31
0
210
0
220
0
230
1
40
0.508864
41
2.84775019139601
42
-2.48389945411631
0
ELLIPSE
5
E1
100
AcDbEntity
8
1
62
256
6
ByLayer
370
18
48
1
60
0
100
AcDbEllipse
10
51.55103
20
-1.003988
30
0
11
0.058474028318876
21
-0.916970668906955
31
0
210
0
220
0
230
1
40
0.179612
41
0.765587517804423
42
1.31052622062944
0
ELLIPSE
5
E2
100
AcDbEntity
8
1
62
256
6
ByLayer
370
18
48
1
60
0
100
AcDbEllipse
10
27.923823
20
0
30
0
11
15.7218226288809
21
5.05037367843594
31
0
210
0
220
0
230
1
40
0.394632
41
-2.78067200218313
42
-2.35999854940131
0
ELLIPSE
5
E3
100
AcDbEntity
8
1
62
256
6
ByLayer
370
18
48
1
60
0
100
AcDbEllipse
10
25.365915
20
0
30
0
11
30.8945085468572
21
-7.56591223845717
31
0
210
0
220
0
230
1
40
0.084139
41
-1.75452419548287
42
-1.72472706431338
0
ELLIPSE
5
E4
100
AcDbEntity
8
1
62
256
6
ByLayer
370
18
48
1
60
0
100
AcDbEllipse
10
23.934177
20
0
30
0
11
22.6324500136132
21
-3.18674979181697
31
0
210
0
220
0
230
1
40
0.32422
41
1.79094917606982
42
1.83004220413314
0
ELLIPSE
5
E5
100
AcDbEntity
8
1
62
256
6
ByLayer
370
18
48
1
60
0
100
AcDbEllipse
10
27.348852
20
0
30
0
11
14.6300827158523
21
-7.51565529932272
31
0
210
0
220
0
230
1
40
0.187377
41
-2.55881723403095
42
-2.14071440027118
0
POINT
5
70
100
AcDbEntity
8
81
62
256
6
ByLayer
370
18
48
1
60
0
100
AcDbPoint
10
52
20
0
30
0
39
0
210
0
220
0
230
1
50
360
0
POINT
5
72
100
AcDbEntity
8
80
62
256
6
ByLayer
370
18
48
1
60
0
100
AcDbPoint
10
0
20
0
30
0
39
0
210
0
220
0
230
1
50
360
0
POINT
5
74
100
AcDbEntity
8
1
62
256
6
ByLayer
370
18
48
1
60
1
100
AcDbPoint
10
52
20
-8.0001
30
0
39
0
210
0
220
0
230
1
50
360
0
POINT
5
76
100
AcDbEntity
8
1
62
256
6
ByLayer
370
18
48
1
60
1
100
AcDbPoint
10
20
20
-8.0001
30
0
39
0
210
0
220
0
230
1
50
360
0
SPLINE
5
E6
100
AcDbEntity
8
1
62
256
6
ByLayer
370
18
48
1
60
0
100
AcDbSpline
70
4
71
3
72
8
73
4
40
0
40
0
40
0
40
0
40
1
40
1
40
1
40
1
41
1
10
17.9807757854668
20
7.99980151231625
30
0
41
0.999999985168667
10
17.9815734605691
20
7.99951081771101
30
0
41
0.999999985168667
10
17.9823711641405
20
7.99922033068755
30
0
41
1
10
17.9831688961457
20
7.99893005125884
30
0
0
SPLINE
5
E7
100
AcDbEntity
8
1
62
256
6
ByLayer
370
18
48
1
60
0
100
AcDbSpline
70
4
71
3
72
8
73
4
40
0
40
0
40
0
40
0
40
1
40
1
40
1
40
1
41
1
10
51.4180436485608
20
7.9893329847489
30
0
41
1
10
51.4527792454107
20
7.98910552175755
30
0
41
1
10
51.4875158282323
20
7.98896468008206
30
0
41
1
10
51.5222533978263
20
7.98891053027501
30
0
0
SPLINE
5
E8
100
AcDbEntity
8
1
62
256
6
ByLayer
370
18
48
1
60
0
100
AcDbSpline
70
4
71
3
72
8
73
4
40
0
40
0
40
0
40
0
40
1
40
1
40
1
40
1
41
1
10
51.5222533969696
20
7.98891053064909
30
0
41
1
10
51.6225044441333
20
7.98109866938128
30
0
41
1
10
51.7228095840173
20
7.97402325133191
30
0
41
1
10
51.8231682274997
20
7.96767628056537
30
0
0
SPLINE
5
E9
100
AcDbEntity
8
1
62
256
6
ByLayer
370
18
48
1
60
0
100
AcDbSpline
70
4
71
3
72
8
73
4
40
0
40
0
40
0
40
0
40
1
40
1
40
1
40
1
41
1
10
51.4180436485603
20
7.98933298474867
30
0
41
1
10
51.4795643711324
20
7.80474902299829
30
0
41
1
10
51.5454638045212
20
7.62177828008501
30
0
41
1
10
51.616660434937
20
7.44075914757374
30
0
0
SPLINE
5
EA
100
AcDbEntity
8
1
62
256
6
ByLayer
370
18
48
1
60
0
100
AcDbSpline
70
4
71
3
72
19
73
15
40
0
40
0
40
0
40
0
40
0.125937821480742
40
0.125937821480742
40
0.417291880987161
40
0.417291880987161
40
0.562968910740371
40
0.562968910740371
40
0.599388168178675
40
0.599388168178675
40
0.635807425616978
40
0.708645940493581
40
0.708645940493581
40
1
40
1
40
1
40
1
41
1
10
44.6700330624776
20
6.35145101969698
30
0
41
1
10
44.9513875328732
20
6.4734612462083
30
0
41
1
10
45.2325674657305
20
6.58940657704176
30
0
41
1
10
46.1645575047935
20
6.95284328608457
30
0
41
1
10
46.8157813483257
20
7.17305529319856
30
0
41
1
10
47.7984875171219
20
7.44838301032732
30
0
41
1
10
48.1270275979957
20
7.53101292138913
30
0
41
1
10
48.5394421631951
20
7.62238845764858
30
0
41
1
10
48.6219348819833
20
7.64004988360978
30
0
41
1
10
48.7867820635079
20
7.67410559623306
30
0
41
1
10
49.0339254668329
20
7.72330621772426
30
0
41
1
10
49.2807485074241
20
7.76685017002677
30
0
41
1
10
50.1030543741799
20
7.89937509939753
30
0
41
1
10
50.7595053774538
20
7.96503559488519
30
0
41
1
10
51.4180436485607
20
7.9893329847489
30
0
0
SPLINE
5
EB
100
AcDbEntity
8
1
62
256
6
ByLayer
370
18
48
1
60
0
100
AcDbSpline
70
4
71
3
72
8
73
4
40
0
40
0
40
0
40
0
40
1
40
1
40
1
40
1
41
1
10
18.0862852702378
20
-7.99603354492427
30
0
41
0.999949609297417
10
18.1343380437213
20
-7.97443759254967
30
0
41
0.999949609297417
10
18.1825002046415
20
-7.9535325417472
30
0
41
1
10
18.2307644722228
20
-7.93332155277753
30
0
0
SPLINE
5
EC
100
AcDbEntity
8
1
62
256
6
ByLayer
370
13
48
1
60
0
100
AcDbSpline
70
4
71
3
72
8
73
4
40
0
40
0
40
0
40
0
40
1
40
1
40
1
40
1
41
1
10
23.9844933547031
20
-6.82993925221407
30
0
41
1
10
22.6563289031354
20
-7.1018845647439
30
0
41
1
10
21.3281644515677
20
-7.22906129420588
30
0
41
1
10
20.0000000000001
20
-7.2011853795232
30
0
0
SPLINE
5
ED
100
AcDbEntity
8
1
62
256
6
ByLayer
370
18
48
1
60
0
100
AcDbSpline
70
4
71
3
72
26
73
22
40
0
40
0
40
0
40
0
40
0.0571967498563397
40
0.0571967498563397
40
0.135763687368312
40
0.135763687368312
40
0.214330624880283
40
0.214330624880283
40
0.371464499904227
40
0.371464499904227
40
0.52859837492817
40
0.52859837492817
40
0.567881843684156
40
0.567881843684156
40
0.607165312440141
40
0.607165312440141
40
0.685732249952113
40
0.685732249952113
40
0.842866124976056
40
0.842866124976056
40
1
40
1
40
1
40
1
41
1
10
26.2473530800325
20
-6.48429596525168
30
0
41
1
10
26.1290689829784
20
-6.5278591801671
30
0
41
1
10
26.0108213688101
20
-6.57032945785267
30
0
41
1
10
25.7301998015853
20
-6.66849075895001
30
0
41
1
10
25.5678440973487
20
-6.72318928227051
30
0
41
1
10
25.24310040365
20
-6.82828920682294
30
0
41
1
10
25.0807115772315
20
-6.87869016526849
30
0
41
1
10
24.5932593589481
20
-7.02352339908549
30
0
41
1
10
24.2678802855839
20
-7.11170541305853
30
0
41
1
10
23.615588148614
20
-7.27029778915988
30
0
41
1
10
23.2886743459186
20
-7.34072228196129
30
0
41
1
10
22.8785785751415
20
-7.41696750325576
30
0
41
1
10
22.7964864387494
20
-7.43162665846535
30
0
41
1
10
22.6321426576413
20
-7.45974482612564
30
0
41
1
10
22.5498644521651
20
-7.47320781940522
30
0
41
1
10
22.3029501465629
20
-7.51173176039686
30
0
41
1
10
22.1384947923986
20
-7.53485921863034
30
0
41
1
10
21.6452523258999
20
-7.59701561318724
30
0
41
1
10
21.3165757044208
20
-7.62887886616082
30
0
41
1
10
20.6587885137353
20
-7.67316085681716
30
0
41
1
10
20.3296778315706
20
-7.68558308013201
30
0
41
1
10
20
20
-7.68802099286171
30
0
0
SPLINE
5
EE
100
AcDbEntity
8
1
62
256
6
ByLayer
370
18
48
1
60
0
100
AcDbSpline
70
4
71
3
72
23
73
19
40
0
40
0
40
0
40
0
40
0.0253574682234993
40
0.0901867328277736
40
0.155034222904686
40
0.219900610930278
40
0.284786557107405
40
0.349692709595555
40
0.41461970473538
40
0.479568167268066
40
0.544538710549667
40
0.609531936760446
40
0.674548437109274
40
0.739588792033303
40
0.804653571392862
40
0.869743334661744
40
0.934858631112962
40
1
40
1
40
1
40
1
41
1
10
18.6214347364023
20
-7.73482001599749
30
0
41
1
10
18.6180248754779
20
-7.73625089214707
30
0
41
1
10
18.6059069507697
20
-7.74136311391081
30
0
41
1
10
18.5851347692514
20
-7.75029234589863
30
0
41
1
10
18.5591755795382
20
-7.76174984269147
30
0
41
1
10
18.533315653607
20
-7.77346168590407
30
0
41
1
10
18.5075550006673
20
-7.78542632811423
30
0
41
1
10
18.4818936313484
20
-7.797642230473
30
0
41
1
10
18.4563315557496
20
-7.81010785785179
30
0
41
1
10
18.430868785422
20
-7.82282168309456
30
0
41
1
10
18.4055053273526
20
-7.83578217432651
30
0
41
1
10
18.3802412060193
20
-7.84898784096274
30
0
41
1
10
18.3550763811073
20
-7.86243706175821
30
0
41
1
10
18.3300110547082
20
-7.87612872640483
30
0
41
1
10
18.3050445241799
20
-7.89005983934743
30
0
41
1
10
18.2801794657269
20
-7.90423446712398
30
0
41
1
10
18.255405938577
20
-7.91863032670574
30
0
41
1
10
18.2389793903303
20
-7.9284238239913
30
0
41
1
10
18.2307644722215
20
-7.9333215527771
30
0
0
SPLINE
5
EF
100
AcDbEntity
8
1
62
256
6
ByLayer
370
18
48
1
60
0
100
AcDbSpline
70
4
71
3
72
11
73
7
40
0
40
0
40
0
40
0
40
0.208394297951259
40
0.372938304555977
40
0.537482311160695
40
1
40
1
40
1
40
1
41
1
10
18.2307644722215
20
-7.9333215527771
30
0
41
1
10
18.4009535317648
20
-7.92803647459371
30
0
41
1
10
18.7054744291476
20
-7.91368936929933
30
0
41
1
10
19.1442083567655
20
-7.88049911526727
30
0
41
1
10
19.7901952713011
20
-7.81513529962007
30
0
41
1
10
20.3016683879002
20
-7.73876437614354
30
0
41
1
10
20.6788526115439
20
-7.66948505483737
30
0
0
SPLINE
5
F0
100
AcDbEntity
8
1
62
256
6
ByLayer
370
18
48
1
60
0
100
AcDbSpline
70
4
71
3
72
49
73
45
40
0
40
0
40
0
40
0
40
0.0490942125215759
40
0.0490942125215759
40
0.0981884250431518
40
0.0981884250431518
40
0.147282637564728
40
0.147282637564728
40
0.171829743825516
40
0.171829743825516
40
0.196376850086304
40
0.196376850086304
40
0.24547106260788
40
0.24547106260788
40
0.270018168868668
40
0.270018168868668
40
0.282291721999062
40
0.282291721999062
40
0.294565275129456
40
0.392753700172623
40
0.392753700172623
40
0.417300806433411
40
0.417300806433411
40
0.441847912694199
40
0.441847912694199
40
0.490942125215774
40
0.490942125215774
40
0.54003633773735
40
0.54003633773735
40
0.564583443998134
40
0.564583443998134
40
0.589130550258917
40
0.589130550258917
40
0.687318975302034
40
0.687318975302034
40
0.785507400345151
40
0.785507400345151
40
0.834601612866714
40
0.834601612866714
40
0.883695825388277
40
0.883695825388277
40
0.981884250431394
40
0.981884250431394
40
1
40
1
40
1
40
1
41
1
10
51.6166604365075
20
7.44075914816369
30
0
41
1
10
51.6404163395855
20
7.38035842075402
30
0
41
1
10
51.6618494284552
20
7.31936164575311
30
0
41
1
10
51.6994974900798
20
7.19602909713171
30
0
41
1
10
51.7157148311616
20
7.13369393118455
30
0
41
1
10
51.7421599233833
20
7.00748663592611
30
0
41
1
10
51.752391590355
20
6.94361551143979
30
0
41
1
10
51.7624484513741
20
6.84645121608122
30
0
41
1
10
51.7648978564306
20
6.81396701838122
30
0
41
1
10
51.7678705213183
20
6.74923773018079
30
0
41
1
10
51.7684008811542
20
6.71692768350709
30
0
41
1
10
51.7669986458621
20
6.62016849742645
30
0
41
1
10
51.7620785423807
20
6.55588998034304
30
0
41
1
10
51.7481225329106
20
6.45984776434747
30
0
41
1
10
51.7423731598299
20
6.42789636524694
30
0
41
1
10
51.7320144765522
20
6.38006833427508
30
0
41
1
10
51.7282633658732
20
6.36410860183156
30
0
41
1
10
51.7202222664197
20
6.33243442528882
30
0
41
1
10
51.6816139445039
20
6.19096376252014
30
0
41
1
10
51.6214858887496
20
6.0589337833249
30
0
41
1
10
51.5349566308803
20
5.92088508345279
30
0
41
1
10
51.5166002385702
20
5.89362969538303
30
0
41
1
10
51.4784907642725
20
5.84069080136425
30
0
41
1
10
51.4586979699631
20
5.81493121086683
30
0
41
1
10
51.3972781785049
20
5.73961584711051
30
0
41
1
10
51.3536153786088
20
5.69201808999776
30
0
41
1
10
51.2616167989254
20
5.60131700436594
30
0
41
1
10
51.2132792066626
20
5.55821541906886
30
0
41
1
10
51.1377152925048
20
5.49650374096299
30
0
41
1
10
51.111959880604
20
5.47638297703372
30
0
41
1
10
51.0598337495316
20
5.43731427208411
30
0
41
1
10
51.0334624611133
20
5.41836066534697
30
0
41
1
10
50.9002087813249
20
5.32622527149124
30
0
41
1
10
50.7891931179886
20
5.2608312905833
30
0
41
1
10
50.5608955053592
20
5.14185010584092
30
0
41
1
10
50.4435898363513
20
5.08830759409156
30
0
41
1
10
50.2640512865533
20
5.01473925888234
30
0
41
1
10
50.2034982254064
20
4.99131546440088
30
0
41
1
10
50.0820948072241
20
4.94675020532716
30
0
41
1
10
50.0211898033969
20
4.92558178791458
30
0
41
1
10
49.8379455428155
20
4.86497722939228
30
0
41
1
10
49.7150807317111
20
4.82842153191925
30
0
41
1
10
49.5688981738352
20
4.78867947330082
30
0
41
1
10
49.5461097956166
20
4.78259176374246
30
0
41
1
10
49.5233033482882
20
4.77660308685859
30
0
0
SPLINE
5
F1
100
AcDbEntity
8
1
62
256
6
ByLayer
370
13
48
1
60
0
100
AcDbSpline
70
4
71
3
72
11
73
7
40
0
40
0
40
0
40
0
40
0.261383678427331
40
0.584746176283087
40
0.908108674138844
40
1
40
1
40
1
40
1
41
1
10
51.6166604362632
20
7.44075914819899
30
0
41
1
10
51.0777736241755
20
7.42371707756391
30
0
41
1
10
49.872220145421
20
7.32770104173582
30
0
41
1
10
48
20
6.98303683810897
30
0
41
1
10
46.4772171036726
20
6.53260245757769
30
0
41
1
10
45.6211008740119
20
6.22412534032276
30
0
41
1
10
45.4316513110178
20
6.1532412289952
30
0
0
SPLINE
5
F2
100
AcDbEntity
8
1
62
256
6
ByLayer
370
13
48
1
60
0
100
AcDbSpline
70
4
71
3
72
8
73
4
40
0
40
0
40
0
40
0
40
1
40
1
40
1
40
1
41
1
10
21.3982718284216
20
-7.02580480825554
30
0
41
1
10
20.9321812189477
20
-7.04083673672338
30
0
41
1
10
20.4660906094738
20
-7.03759541401232
30
0
41
1
10
19.9999999999999
20
-7.01573465464529
30
0
0
SPLINE
5
F3
100
AcDbEntity
8
1
62
256
6
ByLayer
370
18
48
1
60
0
100
AcDbSpline
70
4
71
3
72
10
73
6
40
0
40
0
40
0
40
0
40
0.189488273240277
40
0.459658848826852
40
1
40
1
40
1
40
1
41
1
10
27.4027306476945
20
-6.19736617021263
30
0
41
1
10
26.9351537651297
20
-6.28467760811208
30
0
41
1
10
25.8009102158982
20
-6.45722102795679
30
0
41
1
10
23.3333333333333
20
-6.62084890254431
30
0
41
1
10
21.3333333333333
20
-6.4431613094867
30
0
41
1
10
20
20
-6.18498209614785
30
0
0
SPLINE
5
F4
100
AcDbEntity
8
1
62
256
6
ByLayer
370
13
48
1
60
0
100
AcDbSpline
70
4
71
3
72
8
73
4
40
0
40
0
40
0
40
0
40
1
40
1
40
1
40
1
41
1
10
23.7059812738462
20
-4.06967731774253
30
0
41
1
10
22.4706541825641
20
-3.80383657226241
30
0
41
1
10
21.2353270912821
20
-3.44904562042441
30
0
41
1
10
20
20
-3.02758059795181
30
0
0
SPLINE
5
F5
100
AcDbEntity
8
1
62
256
6
ByLayer
370
18
48
1
60
0
100
AcDbSpline
70
4
71
3
72
8
73
4
40
0
40
0
40
0
40
0
40
1
40
1
40
1
40
1
41
1
10
18.1685262899191
20
-7.95511656695851
30
0
41
1
10
18.3744563238028
20
-7.85093612641055
30
0
41
1
10
18.5836573056461
20
-7.75528244393686
30
0
41
1
10
18.7962615884283
20
-7.66850053934468
30
0
0
SPLINE
5
F6
100
AcDbEntity
8
1
62
256
6
ByLayer
370
18
48
1
60
0
100
AcDbSpline
70
4
71
3
72
10
73
6
40
0
40
0
40
0
40
0
40
0.5
40
0.5
40
1
40
1
40
1
40
1
41
1
10
20.0000000000001
20
-7.68802099286213
30
0
41
1
10
19.7975476479142
20
-7.69071583565443
30
0
41
1
10
19.5959663301861
20
-7.69059614681518
30
0
41
1
10
19.1947346883461
20
-7.68411724188323
30
0
41
1
10
18.9951030527176
20
-7.6776976385888
30
0
41
1
10
18.7964894115738
20
-7.66798863843817
30
0
0
SPLINE
5
F7
100
AcDbEntity
8
1
62
256
6
ByLayer
370
18
48
1
60
0
100
AcDbSpline
70
4
71
3
72
47
73
43
40
0
40
0
40
0
40
0
40
0.062500000000004
40
0.062500000000004
40
0.125000000000008
40
0.125000000000008
40
0.15625000000001
40
0.15625000000001
40
0.187500000000012
40
0.187500000000012
40
0.250000000000016
40
0.250000000000016
40
0.375000000000023
40
0.375000000000023
40
0.437500000000027
40
0.437500000000027
40
0.500000000000031
40
0.500000000000031
40
0.562500000000035
40
0.562500000000035
40
0.625000000000039
40
0.625000000000039
40
0.687500000000042
40
0.687500000000042
40
0.718750000000036
40
0.718750000000036
40
0.75000000000003
40
0.75000000000003
40
0.781250000000024
40
0.781250000000024
40
0.812500000000018
40
0.812500000000018
40
0.843750000000012
40
0.843750000000012
40
0.875000000000006
40
0.875000000000006
40
0.937500000000009
40
0.937500000000009
40
0.95312500000001
40
0.95312500000001
40
0.968750000000011
40
1
40
1
40
1
40
1
41
1
10
50.7511112755585
20
-0.431142886911829
30
0
41
1
10
50.7497795772049
20
-0.461153903790176
30
0
41
1
10
50.7519123231343
20
-0.490847193640718
30
0
41
1
10
50.7613162131967
20
-0.549713464793882
30
0
41
1
10
50.7686067430517
20
-0.578885130572246
30
0
41
1
10
50.7826602187
20
-0.622289447133824
30
0
41
1
10
50.7878685258852
20
-0.636698319842708
30
0
41
1
10
50.7992444887044
20
-0.665400333706742
30
0
41
1
10
50.8054226594038
20
-0.679715519050319
30
0
41
1
10
50.8252215413806
20
-0.722340850535829
30
0
41
1
10
50.8399820606617
20
-0.750101174892222
30
0
41
1
10
50.888077859495
20
-0.831679667883066
30
0
41
1
10
50.9251785115034
20
-0.883825696915181
30
0
41
1
10
50.9865345247232
20
-0.958995649350328
30
0
41
1
10
51.007953367793
20
-0.983535833424128
30
0
41
1
10
51.052560688363
20
-1.03153075361072
30
0
41
1
10
51.0757988692415
20
-1.05503077084157
30
0
41
1
10
51.1236031957965
20
-1.10048614245554
30
0
41
1
10
51.1481844996502
20
-1.12246647102847
30
0
41
1
10
51.1986097248434
20
-1.16469365563623
30
0
41
1
10
51.2244531451269
20
-1.18494569572704
30
0
41
1
10
51.2773640861784
20
-1.22323312597067
30
0
41
1
10
51.3044292616281
20
-1.24128135893136
30
0
41
1
10
51.3459861574554
20
-1.26595724124729
30
0
41
1
10
51.3600335781517
20
-1.27379492378222
30
0
41
1
10
51.3882618146402
20
-1.28833571733509
30
0
41
1
10
51.4024434899377
20
-1.29504305046689
30
0
41
1
10
51.4309191504553
20
-1.30704546899625
30
0
41
1
10
51.4452128166009
20
-1.31234169732664
30
0
41
1
10
51.4738979733508
20
-1.32112675091631
30
0
41
1
10
51.488371305623
20
-1.32462309775289
30
0
41
1
10
51.5168379380079
20
-1.32919943711775
30
0
41
1
10
51.5308575099142
20
-1.33029682969516
30
0
41
1
10
51.5584331892668
20
-1.32975954674217
30
0
41
1
10
51.5720041570703
20
-1.32811904215967
30
0
41
1
10
51.6119820103935
20
-1.31868766289875
30
0
41
1
10
51.6363482601238
20
-1.30669058336341
30
0
41
1
10
51.665317609258
20
-1.28603626984733
30
0
41
1
10
51.6710542529136
20
-1.28160987198163
30
0
41
1
10
51.6823306112498
20
-1.27230380040447
30
0
41
1
10
51.6989287501985
20
-1.25768725913761
30
0
41
1
10
51.714807620087
20
-1.24133405844233
30
0
41
1
10
51.7252298009914
20
-1.22981407608268
30
0
0
SPLINE
5
F8
100
AcDbEntity
8
1
62
256
6
ByLayer
370
18
48
1
60
0
100
AcDbSpline
70
4
71
3
72
18
73
14
40
0
40
0
40
0
40
0
40
0.25
40
0.25
40
0.375
40
0.375
40
0.5
40
0.5
40
0.625
40
0.625
40
0.75
40
0.75
40
1
40
1
40
1
40
1
41
1
10
47.4271307723699
20
-0.655756715835025
30
0
41
1
10
47.4372240357162
20
-0.60732793603691
30
0
41
1
10
47.4511540848542
20
-0.55863003279498
30
0
41
1
10
47.4768027958367
20
-0.484636414588806
30
0
41
1
10
47.4861888294255
20
-0.459753741420172
30
0
41
1
10
47.5063956271074
20
-0.410032864203828
30
0
41
1
10
47.5172133514486
20
-0.385190733009495
30
0
41
1
10
47.5402626079559
20
-0.335525772316942
30
0
41
1
10
47.5525362559794
20
-0.310625804495544
30
0
41
1
10
47.5782933124603
20
-0.261314634368119
30
0
41
1
10
47.5917722044005
20
-0.236901062945066
30
0
41
1
10
47.6340375875689
20
-0.164408738510559
30
0
41
1
10
47.6646307629533
20
-0.117066270869827
30
0
41
1
10
47.6979748399102
20
-0.0709114284135239
30
0
0
SPLINE
5
F9
100
AcDbEntity
8
1
62
256
6
ByLayer
370
18
48
1
60
0
100
AcDbSpline
70
4
71
2
72
6
73
3
40
0
40
0
40
0
40
1
40
1
40
1
41
0.500000298053736
10
51.7073183920472
20
-1.65782364868311
30
0
41
0.499999701946264
10
51.7067036498516
20
-1.65873532647315
30
0
41
0.500000298053736
10
51.7060859319632
20
-1.659643511932
30
0
0
SPLINE
5
FA
100
AcDbEntity
8
1
62
256
6
ByLayer
370
18
48
1
60
0
100
AcDbSpline
70
4
71
3
72
10
73
6
40
0
40
0
40
0
40
0
40
0.029243586815167
40
0.029243586815167
40
1
40
1
40
1
40
1
41
1
10
49.3363458375071
20
4.86502243359283
30
0
41
1
10
49.3422235718989
20
4.86264613445277
30
0
41
1
10
49.3481021169216
20
4.86026416509898
30
0
41
1
10
49.5491497178681
20
4.77861820192299
30
0
41
1
10
49.7452089062273
20
4.69312789583648
30
0
41
1
10
49.9420920253158
20
4.60187434621184
30
0
0
SPLINE
5
FB
100
AcDbEntity
8
1
62
256
6
ByLayer
370
18
48
1
60
0
100
AcDbSpline
70
4
71
3
72
16
73
12
40
0
40
0
40
0
40
0
40
0.125
40
0.125
40
0.250000000000001
40
0.250000000000001
40
0.500000000000001
40
0.500000000000001
40
0.75
40
0.75
40
1
40
1
40
1
40
1
41
1
10
50.6615080682526
20
4.18965733613612
30
0
41
1
10
50.6797182464573
20
4.15047000074111
30
0
41
1
10
50.6985434639847
20
4.10943330981965
30
0
41
1
10
50.7373738050697
20
4.02381208045458
30
0
41
1
10
50.7574086865176
20
3.97915944079603
30
0
41
1
10
50.8188360676507
20
3.84092624287263
30
0
41
1
10
50.8616397665502
20
3.74288677174852
30
0
41
1
10
50.9506822022993
20
3.53587337934584
30
0
41
1
10
50.9964300956434
20
3.42804074857324
30
0
41
1
10
51.0901960866096
20
3.20436949407193
30
0
41
1
10
51.1382152681623
20
3.08852704779704
30
0
41
1
10
51.187343527376
20
2.9687733817216
30
0
0
SPLINE
5
FC
100
AcDbEntity
8
1
62
256
6
ByLayer
370
18
48
1
60
0
100
AcDbSpline
70
4
71
3
72
8
73
4
40
0
40
0
40
0
40
0
40
1
40
1
40
1
40
1
41
1
10
49.9420920300867
20
4.6018743413257
30
0
41
1
10
50.182748051582
20
4.47192007879411
30
0
41
1
10
50.4225433096318
20
4.33442606193105
30
0
41
1
10
50.6615080682526
20
4.18965733613612
30
0
0
SPLINE
5
FD
100
AcDbEntity
8
1
62
256
6
ByLayer
370
18
48
1
60
0
100
AcDbSpline
70
4
71
3
72
10
73
6
40
0
40
0
40
0
40
0
40
0.416572288245811
40
0.845565643104837
40
1
40
1
40
1
40
1
41
1
10
49.942092032557
20
4.60187434393271
30
0
41
1
10
49.2947280217047
20
4.88902848083256
30
0
41
1
10
47.9806973441857
20
5.42457695758219
30
0
41
1
10
46.4266717185772
20
5.91627937532655
30
0
41
1
10
45.5200101038212
20
6.14468514681729
30
0
41
1
10
45.2800151557317
20
6.20080275329164
30
0
0
SPLINE
5
FE
100
AcDbEntity
8
1
62
256
6
ByLayer
370
18
48
1
60
0
100
AcDbSpline
70
4
71
3
72
8
73
4
40
0
40
0
40
0
40
0
40
1
40
1
40
1
40
1
41
1
10
50.4043491472325
20
-3.57349195543594
30
0
41
1
10
50.413868022151
20
-3.92412721368021
30
0
41
1
10
50.4304571560796
20
-4.27464024345124
30
0
41
1
10
50.4547012321193
20
-4.6250209369266
30
0
0
SPLINE
5
FF
100
AcDbEntity
8
1
62
256
6
ByLayer
370
18
48
1
60
0
100
AcDbSpline
70
4
71
3
72
24
73
20
40
0
40
0
40
0
40
0
40
0.125
40
0.125
40
0.25
40
0.25
40
0.3125
40
0.3125
40
0.375
40
0.375
40
0.5
40
0.5
40
0.625
40
0.625
40
0.75
40
0.75
40
0.875
40
0.875
40
1
40
1
40
1
40
1
41
1
10
47.5120273671869
20
-0.967846175663794
30
0
41
1
10
47.6130897899555
20
-1.09379093443081
30
0
41
1
10
47.7180639485879
20
-1.2175870570853
30
0
41
1
10
47.9350214615807
20
-1.46132929524012
30
0
41
1
10
48.047008025578
20
-1.58127364775271
30
0
41
1
10
48.2197725271555
20
-1.75856206354936
30
0
41
1
10
48.2781668681555
20
-1.8172274959914
30
0
41
1
10
48.3964514330604
20
-1.93368786069641
30
0
41
1
10
48.4559942639908
20
-1.99114169759224
30
0
41
1
10
48.6357354446625
20
-2.16134658997333
30
0
41
1
10
48.7570433574095
20
-2.27194708380193
30
0
41
1
10
49.0022355098818
20
-2.48815461909578
30
0
41
1
10
49.1261207418968
20
-2.59375973729925
30
0
41
1
10
49.3761740848325
20
-2.80054528415192
30
0
41
1
10
49.5023428362668
20
-2.90172447135416
30
0
41
1
10
49.7567340864377
20
-3.10010226045009
30
0
41
1
10
49.8849569972748
20
-3.19730006360791
30
0
41
1
10
50.1432762669938
20
-3.38806454171413
30
0
41
1
10
50.2733731164273
20
-3.4816302658723
30
0
41
1
10
50.4043491472325
20
-3.57349195543594
30
0
0
SPLINE
5
100
100
AcDbEntity
8
1
62
256
6
ByLayer
370
18
48
1
60
0
100
AcDbSpline
70
4
71
3
72
18
73
14
40
0
40
0
40
0
40
0
40
0.249999999999998
40
0.249999999999998
40
0.374999999999998
40
0.374999999999998
40
0.499999999999997
40
0.499999999999997
40
0.75
40
0.75
40
0.875
40
0.875
40
1
40
1
40
1
40
1
41
1
10
47.5120273671869
20
-0.967846175663794
30
0
41
1
10
47.4933531658013
20
-0.944574244076819
30
0
41
1
10
47.4770186098297
20
-0.920328913016249
30
0
41
1
10
47.4566170821917
20
-0.882251433153158
30
0
41
1
10
47.4505021782071
20
-0.869273040724465
30
0
41
1
10
47.4397768562544
20
-0.842687430535648
30
0
41
1
10
47.4352630708899
20
-0.82930888950375
30
0
41
1
10
47.4242970036315
20
-0.789149196524505
30
0
41
1
10
47.4203734224979
20
-0.762242883118574
30
0
41
1
10
47.4194027519326
20
-0.721668787691868
30
0
41
1
10
47.4199069438322
20
-0.708231608433493
30
0
41
1
10
47.4224219653895
20
-0.681761456484566
30
0
41
1
10
47.4244317255938
20
-0.66868683715569
30
0
41
1
10
47.427130772369
20
-0.655756715834656
30
0
0
SPLINE
5
101
100
AcDbEntity
8
1
62
256
6
ByLayer
370
13
48
1
60
0
100
AcDbSpline
70
4
71
3
72
14
73
10
40
0
40
0
40
0
40
0
40
0.123608873058925
40
0.29683598784345
40
0.470063102627974
40
0.643290217412499
40
0.816517332197023
40
0.989744446981548
40
1
40
1
40
1
40
1
41
1
10
47.4271307723699
20
-0.655756715835025
30
0
41
1
10
46.9514205149133
20
-0.46015305882807
30
0
41
1
10
45.80904359079
20
0.0149454619194955
30
0
41
1
10
44
20
0.765221812708176
30
0
41
1
10
42
20
1.5779592893426
30
0
41
1
10
40.0000000000001
20
2.33966910783249
30
0
41
1
10
38
20
3.02925082339973
30
0
41
1
10
36.6271980456362
20
3.43688116607865
30
0
41
1
10
35.9210627579391
20
3.62524032473633
30
0
41
1
10
35.8815941369086
20
3.63570127845506
30
0
0
SPLINE
5
102
100
AcDbEntity
8
1
62
256
6
ByLayer
370
18
48
1
60
0
100
AcDbSpline
70
4
71
3
72
18
73
14
40
0
40
0
40
0
40
0
40
0.249999999999995
40
0.249999999999995
40
0.374999999999993
40
0.374999999999993
40
0.499999999999991
40
0.499999999999991
40
0.749999999999986
40
0.749999999999986
40
0.874999999999993
40
0.874999999999993
40
1
40
1
40
1
40
1
41
1
10
51.1873435279781
20
2.96877338182682
30
0
41
1
10
51.2001462902191
20
2.93756575347621
30
0
41
1
10
51.2125980941698
20
2.90762467760612
30
0
41
1
10
51.2306921254791
20
2.86481945954841
30
0
41
1
10
51.2366078619114
20
2.85094737625514
30
0
41
1
10
51.2480683532394
20
2.82433740796438
30
0
41
1
10
51.2536314077496
20
2.81155602624409
30
0
41
1
10
51.2697795636061
20
2.77490618670339
30
0
41
1
10
51.2798385532992
20
2.7526853838084
30
0
41
1
10
51.2935187427688
20
2.72376462030888
30
0
41
1
10
51.2977853236623
20
2.71498965130905
30
0
41
1
10
51.3055572508476
20
2.69959492063387
30
0
41
1
10
51.309079260289
20
2.69293909000609
30
0
41
1
10
51.3121721483854
20
2.68751128412939
30
0
0
SPLINE
5
103
100
AcDbEntity
8
1
62
256
6
ByLayer
370
13
48
1
60
0
100
AcDbSpline
70
4
71
3
72
10
73
6
40
0
40
0
40
0
40
0
40
0.297069604388793
40
0.79746329387085
40
1
40
1
40
1
40
1
41
1
10
51.1873435282379
20
2.9687733822216
30
0
41
1
10
50.7915623521586
20
3.19787029945491
30
0
41
1
10
49.7291145094125
20
3.79711835395625
30
0
41
1
10
48.3968301887277
20
4.48752255226654
30
0
41
1
10
47.4603270441219
20
4.91928181610462
30
0
41
1
10
47.1904905661829
20
5.03913927075374
30
0
0
SPLINE
5
104
100
AcDbEntity
8
1
62
256
6
ByLayer
370
13
48
1
60
0
100
AcDbSpline
70
4
71
3
72
16
73
12
40
0
40
0
40
0
40
0
40
0.0979388243080177
40
0.198167843829349
40
0.29839686335068
40
0.398625882872012
40
0.498854902393343
40
0.599083921914675
40
0.699312941436006
40
0.799541960957337
40
1
40
1
40
1
40
1
41
1
10
39.9543007559237
20
-3.69706526477856
30
0
41
1
10
39.3028671706158
20
-3.54371221021441
30
0
41
1
10
37.9847669186412
20
-3.1920356914832
30
0
41
1
10
36
20
-2.55496593169693
30
0
41
1
10
34
20
-1.82296719960996
30
0
41
1
10
32
20
-1.02913253645588
30
0
41
1
10
30
20
-0.197126766613508
30
0
41
1
10
28
20
0.640895988416588
30
0
41
1
10
26
20
1.45921907237536
30
0
41
1
10
23.3333333333334
20
2.48359113145094
30
0
41
1
10
21.3333333333334
20
3.13952336536491
30
0
41
1
10
20
20
3.49452050478814
30
0
0
SPLINE
5
105
100
AcDbEntity
8
1
62
256
6
ByLayer
370
18
48
1
60
0
100
AcDbSpline
70
4
71
3
72
28
73
24
40
0
40
0
40
0
40
0
40
0.124999999999991
40
0.124999999999991
40
0.249999999999981
40
0.249999999999981
40
0.374999999999972
40
0.374999999999972
40
0.406249999999972
40
0.406249999999972
40
0.437499999999971
40
0.437499999999971
40
0.499999999999974
40
0.499999999999974
40
0.624999999999981
40
0.624999999999981
40
0.749999999999987
40
0.749999999999987
40
0.81249999999999
40
0.81249999999999
40
0.874999999999994
40
0.874999999999994
40
1
40
1
40
1
40
1
41
1
10
50.4547012378969
20
-4.62502093725018
30
0
41
1
10
50.4720973243365
20
-4.73151658450004
30
0
41
1
10
50.4917232386784
20
-4.83398196159177
30
0
41
1
10
50.5348764928557
20
-5.03186116277266
30
0
41
1
10
50.5584074602963
20
-5.12726842433676
30
0
41
1
10
50.6090620337886
20
-5.31158949428314
30
0
41
1
10
50.6361872774881
20
-5.40050034272713
30
0
41
1
10
50.6722474573278
20
-5.50774637023952
30
0
41
1
10
50.6795675218372
20
-5.52900032140329
30
0
41
1
10
50.6944227042161
20
-5.57111952921503
30
0
41
1
10
50.7019673960907
20
-5.59200956285451
30
0
41
1
10
50.7247862452235
20
-5.65373395608597
30
0
41
1
10
50.7402789804462
20
-5.69372504127864
30
0
41
1
10
50.7875536262905
20
-5.81040498567285
30
0
41
1
10
50.8201293262067
20
-5.88381149518816
30
0
41
1
10
50.8872413981823
20
-6.02251705845362
30
0
41
1
10
50.9217784994234
20
-6.0878130970089
30
0
41
1
10
50.9749954822341
20
-6.17992124633469
30
0
41
1
10
50.9929702329713
20
-6.20964910059266
30
0
41
1
10
51.0293871852771
20
-6.26717188169303
30
0
41
1
10
51.0478510477246
20
-6.29499755109319
30
0
41
1
10
51.1037903694848
20
-6.37535980626009
30
0
41
1
10
51.1416787723211
20
-6.42461203984203
30
0
41
1
10
51.1801441185786
20
-6.46967652077893
30
0
0
SPLINE
5
106
100
AcDbEntity
8
1
62
256
6
ByLayer
370
18
48
1
60
0
100
AcDbSpline
70
4
71
3
72
18
73
14
40
0
40
0
40
0
40
0
40
0.0231872452200239
40
0.125176169902114
40
0.227165094584204
40
0.329154019266294
40
0.431142943948384
40
0.533131868630474
40
0.635120793312564
40
0.737109717994654
40
0.839098642676744
40
0.941087567358834
40
1
40
1
40
1
40
1
41
1
10
50.4547012392237
20
-4.62502093627037
30
0
41
1
10
50.3031341594825
20
-4.56218534782715
30
0
41
1
10
49.4849004130745
20
-4.21540566439984
30
0
41
1
10
48
20
-3.51383722783677
30
0
41
1
10
46
20
-2.45091357983804
30
0
41
1
10
44
20
-1.29846054133196
30
0
41
1
10
42
20
-0.103824978205608
30
0
41
1
10
40
20
1.09499972843503
30
0
41
1
10
38
20
2.25631645122206
30
0
41
1
10
36
20
3.33926461310315
30
0
41
1
10
34
20
4.30584593616214
30
0
41
1
10
32.2815762736016
20
5.0080410508217
30
0
41
1
10
31.2298192138698
20
5.36338808738554
30
0
41
1
10
30.8447288208048
20
5.48292224543837
30
0
0
SPLINE
5
107
100
AcDbEntity
8
1
62
256
6
ByLayer
370
18
48
1
60
0
100
AcDbSpline
70
4
71
3
72
19
73
15
40
0
40
0
40
0
40
0
40
0.0152772572604541
40
0.097337485822083
40
0.179397714383712
40
0.261457942945341
40
0.343518171506969
40
0.425578400068598
40
0.507638628630227
40
0.589698857191856
40
0.671759085753485
40
0.753819314315114
40
0.835879542876742
40
1
40
1
40
1
40
1
41
1
10
44.3723425471324
20
-6.23952988793482
30
0
41
1
10
44.2482283647549
20
-6.26775845539322
30
0
41
1
10
43.4574475157108
20
-6.43895309800666
30
0
41
1
10
41.9999999999999
20
-6.64935390546171
30
0
41
1
10
40
20
-6.696359147165
30
0
41
1
10
37.9999999999999
20
-6.50050176154374
30
0
41
1
10
36
20
-6.06804111476532
30
0
41
1
10
34
20
-5.40735992548713
30
0
41
1
10
32
20
-4.54794861795995
30
0
41
1
10
30
20
-3.52589792289328
30
0
41
1
10
28
20
-2.37357852894942
30
0
41
1
10
26
20
-1.13193517869215
30
0
41
1
10
23.3333333333334
20
0.576228911096735
30
0
41
1
10
21.3333333333334
20
1.84915666331537
30
0
41
1
10
20
20
2.63383622436882
30
0
0
SPLINE
5
108
100
AcDbEntity
8
1
62
256
6
ByLayer
370
18
48
1
60
0
100
AcDbSpline
70
4
71
3
72
20
73
16
40
0
40
0
40
0
40
0
40
0.249999999999993
40
0.249999999999993
40
0.374999999999989
40
0.374999999999989
40
0.499999999999986
40
0.499999999999986
40
0.749999999999978
40
0.749999999999978
40
0.812499999999979
40
0.812499999999979
40
0.87499999999998
40
0.87499999999998
40
1
40
1
40
1
40
1
41
1
10
51.1801441197393
20
-6.46967652041346
30
0
41
1
10
51.1930089061168
20
-6.48474863472941
30
0
41
1
10
51.2055227080043
20
-6.502105153695
30
0
41
1
10
51.2237086780219
20
-6.53194572519868
30
0
41
1
10
51.229659235705
20
-6.54251683524191
30
0
41
1
10
51.2411865920673
20
-6.56473502892234
30
0
41
1
10
51.2467827176475
20
-6.57641226574131
30
0
41
1
10
51.2630282027303
20
-6.61328482162193
30
0
41
1
10
51.2731497888842
20
-6.64026972275559
30
0
41
1
10
51.2846206798097
20
-6.67800571351125
30
0
41
1
10
51.2868520908113
20
-6.68575276658316
30
0
41
1
10
51.2911260856841
20
-6.70148294849119
30
0
41
1
10
51.2931760121281
20
-6.70948947647645
30
0
41
1
10
51.2990480308487
20
-6.73396025129375
30
0
41
1
10
51.3025947962966
20
-6.75087173608091
30
0
41
1
10
51.3057062519779
20
-6.76849033210885
30
0
0
SPLINE
5
109
100
AcDbEntity
8
1
62
256
6
ByLayer
370
13
48
1
60
0
100
AcDbSpline
70
4
71
3
72
18
73
14
40
0
40
0
40
0
40
0
40
0.0561665285694166
40
0.151352409014246
40
0.246538289459074
40
0.341724169903903
40
0.436910050348732
40
0.532095930793561
40
0.62728181123839
40
0.722467691683219
40
0.817653572128048
40
0.912839452572877
40
1
40
1
40
1
40
1
41
1
10
51.180144120261
20
-6.46967652021243
30
0
41
1
10
50.7867627468407
20
-6.3684880744064
30
0
41
1
10
49.7267147067536
20
-6.06133352670051
30
0
41
1
10
48
20
-5.40735573606205
30
0
41
1
10
46
20
-4.4749499679161
30
0
41
1
10
44
20
-3.37084135920253
30
0
41
1
10
41.9999999999999
20
-2.16266906811003
30
0
41
1
10
40
20
-0.87629108727225
30
0
41
1
10
38
20
0.444809826821626
30
0
41
1
10
36
20
1.74952309802316
30
0
41
1
10
34
20
2.99005822341513
30
0
41
1
10
32.0562081475404
20
4.09712225457551
30
0
41
1
10
30.7790829617474
20
4.73539531374311
30
0
41
1
10
30.1686244426211
20
5.01626986753675
30
0
0
SPLINE
5
10A
100
AcDbEntity
8
1
62
256
6
ByLayer
370
13
48
1
60
0
100
AcDbSpline
70
4
71
3
72
16
73
12
40
0
40
0
40
0
40
0
40
0.0438486558935595
40
0.150087694127608
40
0.256326732361657
40
0.362565770595706
40
0.468804808829755
40
0.575043847063804
40
0.681282885297853
40
0.787521923531902
40
1
40
1
40
1
40
1
41
1
10
38.8254716274248
20
-7.0258065559791
30
0
41
1
10
38.5503144182832
20
-7.03515966184653
30
0
41
1
10
37.6084905424749
20
-7.04201702650687
30
0
41
1
10
36
20
-6.90558328543071
30
0
41
1
10
34
20
-6.48350601852764
30
0
41
1
10
31.9999999999999
20
-5.82248738420728
30
0
41
1
10
30
20
-4.94985940548258
30
0
41
1
10
28
20
-3.89381385041645
30
0
41
1
10
25.9999999999999
20
-2.69453690367689
30
0
41
1
10
23.3333333333334
20
-0.967187814725321
30
0
41
1
10
21.3333333333333
20
0.409596403213641
30
0
41
1
10
20
20
1.29367140183578
30
0
0
SPLINE
5
10B
100
AcDbEntity
8
1
62
256
6
ByLayer
370
13
48
1
60
0
100
AcDbSpline
70
4
71
3
72
8
73
4
40
0
40
0
40
0
40
0
40
1
40
1
40
1
40
1
41
1
10
20
20
-2.42537751432349
30
0
41
1
10
20.8220263995872
20
-2.71491313202861
30
0
41
1
10
21.6440527991745
20
-2.98138907324517
30
0
41
1
10
22.4660791987618
20
-3.21801138298949
30
0
0
SPLINE
5
10C
100
AcDbEntity
8
1
62
256
6
ByLayer
370
13
48
1
60
0
100
AcDbSpline
70
4
71
3
72
14
73
10
40
0
40
0
40
0
40
0
40
0.103221922331143
40
0.256543858810121
40
0.4098657952891
40
0.563187731768078
40
0.716509668247057
40
0.869831604726035
40
1
40
1
40
1
40
1
41
1
10
34.6535270203127
20
4.04882402823637
30
0
41
1
10
35.1023513468751
20
3.97858383817405
30
0
41
1
10
36.2178423401042
20
3.77894332577432
30
0
41
1
10
38
20
3.36642704428161
30
0
41
1
10
40.0000000000001
20
2.79208487738279
30
0
41
1
10
42
20
2.12664195876661
30
0
41
1
10
44
20
1.39038875048678
30
0
41
1
10
45.8993249466374
20
0.648627215031467
30
0
41
1
10
47.1319832266082
20
0.15525351482961
30
0
41
1
10
47.6979748399122
20
-0.0709114284143482
30
0
0
SPLINE
5
10D
100
AcDbEntity
8
1
62
256
6
ByLayer
370
18
48
1
60
0
100
AcDbSpline
70
4
71
3
72
30
73
26
40
0
40
0
40
0
40
0
40
0.124999999999931
40
0.124999999999931
40
0.249999999999862
40
0.249999999999862
40
0.281249999999852
40
0.281249999999852
40
0.312499999999842
40
0.312499999999842
40
0.374999999999821
40
0.374999999999821
40
0.499999999999811
40
0.499999999999811
40
0.562499999999822
40
0.562499999999822
40
0.624999999999833
40
0.624999999999833
40
0.749999999999889
40
0.749999999999889
40
0.874999999999944
40
0.874999999999944
40
0.937499999999972
40
0.937499999999972
40
1
40
1
40
1
40
1
41
1
10
47.6979748399099
20
-0.0709114284133818
30
0
41
1
10
47.7262974143814
20
-0.0317129788683701
30
0
41
1
10
47.7569599816645
20
0.004963913172304
30
0
41
1
10
47.8225699246057
20
0.0737095351485948
30
0
41
1
10
47.8575224467843
20
0.105772926318736
30
0
41
1
10
47.9039008682048
20
0.142984635826821
30
0
41
1
10
47.913311748064
20
0.150282792719054
30
0
41
1
10
47.932407108927
20
0.16458809532935
30
0
41
1
10
47.9421044896787
20
0.17160348205465
30
0
41
1
10
47.971397185191
20
0.192060826841015
30
0
41
1
10
47.9912517978763
20
0.204961509740571
30
0
41
1
10
48.0517800937467
20
0.241522637755196
30
0
41
1
10
48.0934144065353
20
0.263049867353175
30
0
41
1
10
48.1578158007586
20
0.2911857448251
30
0
41
1
10
48.1796089444538
20
0.299869784019648
30
0
41
1
10
48.2238628679519
20
0.31584576638059
30
0
41
1
10
48.2463694261189
20
0.323146218918083
30
0
41
1
10
48.3140483658391
20
0.342710981156443
30
0
41
1
10
48.3596333830511
20
0.352750232521487
30
0
41
1
10
48.4517824504609
20
0.367230143080889
30
0
41
1
10
48.498346651201
20
0.371668628863574
30
0
41
1
10
48.5689762984307
20
0.374298411039632
30
0
41
1
10
48.5926859083557
20
0.374500254377409
30
0
41
1
10
48.6400639141959
20
0.373587505752596
30
0
41
1
10
48.6637601239077
20
0.372475986102984
30
0
41
1
10
48.6874683038965
20
0.370733977093351
30
0
0
SPLINE
5
10E
100
AcDbEntity
8
1
62
256
6
ByLayer
370
13
48
1
60
0
100
AcDbSpline
70
4
71
3
72
16
73
12
40
0
40
0
40
0
40
0
40
0.208085717797437
40
0.312128576696156
40
0.416171435594875
40
0.520214294493593
40
0.624257153392312
40
0.728300012291031
40
0.832342871189749
40
0.936385730088468
40
1
40
1
40
1
40
1
41
1
10
20
20
3.64044297376989
30
0
41
1
10
21.3333333333334
20
3.33373448709972
30
0
41
1
10
23.3333333333334
20
2.74274884177942
30
0
41
1
10
26
20
1.78210488101746
30
0
41
1
10
28
20
0.998771354936593
30
0
41
1
10
30
20
0.181751558737858
30
0
41
1
10
32
20
-0.642673865033231
30
0
41
1
10
34
20
-1.44368222152838
30
0
41
1
10
36
20
-2.19553825270111
30
0
41
1
10
37.7409491343912
20
-2.78278437797908
30
0
41
1
10
38.8152316021158
20
-3.10235324648917
30
0
41
1
10
39.2228474031737
20
-3.21662488119284
30
0
0
SPLINE
5
10F
100
AcDbEntity
8
1
62
256
6
ByLayer
370
18
48
1
60
0
100
AcDbSpline
70
4
71
3
72
8
73
4
40
0
40
0
40
0
40
0
40
1
40
1
40
1
40
1
41
1
10
51.7286158339877
20
0.882768154461075
30
0
41
1
10
51.7586777962371
20
0.714332453403756
30
0
41
1
10
51.7900502425246
20
0.545916267549273
30
0
41
1
10
51.8228929139538
20
0.377558106390865
30
0
0
SPLINE
5
110
100
AcDbEntity
8
1
62
256
6
ByLayer
370
18
48
1
60
0
100
AcDbSpline
70
4
71
3
72
8
73
4
40
0
40
0
40
0
40
0
40
1
40
1
40
1
40
1
41
1
10
51.5321830353037
20
0.404831129885906
30
0
41
1
10
51.6290328090416
20
0.395685291938719
30
0
41
1
10
51.7259362984489
20
0.386594491306795
30
0
41
1
10
51.8228929139671
20
0.377558106391092
30
0
0
SPLINE
5
111
100
AcDbEntity
8
1
62
256
6
ByLayer
370
18
48
1
60
0
100
AcDbSpline
70
4
71
3
72
48
73
44
40
0
40
0
40
0
40
0
40
0.0624999999999998
40
0.0624999999999998
40
0.125
40
0.125
40
0.156249999999999
40
0.156249999999999
40
0.187499999999999
40
0.218749999999999
40
0.218749999999999
40
0.234374999999999
40
0.234374999999999
40
0.249999999999999
40
0.312499999999999
40
0.312499999999999
40
0.328124999999999
40
0.328124999999999
40
0.343749999999999
40
0.343749999999999
40
0.374999999999999
40
0.374999999999999
40
0.437499999999994
40
0.437499999999994
40
0.453124999999995
40
0.453124999999995
40
0.468749999999995
40
0.468749999999995
40
0.49999999999999
40
0.49999999999999
40
0.562499999999985
40
0.562499999999985
40
0.62499999999998
40
0.62499999999998
40
0.656249999999982
40
0.656249999999982
40
0.687499999999984
40
0.687499999999984
40
0.749999999999987
40
0.749999999999987
40
0.874999999999993
40
0.874999999999993
40
1
40
1
40
1
40
1
41
1
10
51.6246903425001
20
0.351015348512362
30
0
41
1
10
51.6610205886746
20
0.339964092109398
30
0
41
1
10
51.6918010686366
20
0.32928541223913
30
0
41
1
10
51.7399938639423
20
0.308825550233081
30
0
41
1
10
51.7574331452162
20
0.299042547991888
30
0
41
1
10
51.7708440556829
20
0.285223888609153
30
0
41
1
10
51.7731154827962
20
0.280814770199527
30
0
41
1
10
51.7729530759373
20
0.272443898627216
30
0
41
1
10
51.7680942750233
20
0.264511574012545
30
0
41
1
10
51.7531699747792
20
0.25751916075464
30
0
41
1
10
51.737900930919
20
0.252655448746509
30
0
41
1
10
51.7321134038294
20
0.25109371889414
30
0
41
1
10
51.7192081283316
20
0.248121814642929
30
0
41
1
10
51.6837423846967
20
0.241093257617962
30
0
41
1
10
51.6325480515233
20
0.23603511702899
30
0
41
1
10
51.5694954204628
20
0.23246253781241
30
0
41
1
10
51.5562914632695
20
0.231822364691084
30
0
41
1
10
51.528712994734
20
0.230688660912932
30
0
41
1
10
51.5142975052639
20
0.230194254854155
30
0
41
1
10
51.4697772912735
20
0.228939275845079
30
0
41
1
10
51.4383326799059
20
0.228401412010669
30
0
41
1
10
51.3393237441723
20
0.22757948554576
30
0
41
1
10
51.2671100752194
20
0.228082726347054
30
0
41
1
10
51.1706297440424
20
0.229763906096935
30
0
41
1
10
51.1510208968396
20
0.230153107260605
30
0
41
1
10
51.1112086364541
20
0.23103219127043
30
0
41
1
10
51.0909728735114
20
0.231522990919615
30
0
41
1
10
51.0297617679789
20
0.233129699625238
30
0
41
1
10
50.9882317537476
20
0.234380081963394
30
0
41
1
10
50.8617723553115
20
0.238594921779338
30
0
41
1
10
50.7749872716639
20
0.242019684620146
30
0
41
1
10
50.5975958322595
20
0.24981707502846
30
0
41
1
10
50.5069827139998
20
0.254191380031585
30
0
41
1
10
50.368760382142
20
0.261324009880496
30
0
41
1
10
50.3223002341278
20
0.263797309555429
30
0
41
1
10
50.2286811500532
20
0.268917242947339
30
0
41
1
10
50.1814548720908
20
0.271567813032931
30
0
41
1
10
50.0394189346435
20
0.279721740910134
30
0
41
1
10
49.9442571770431
20
0.285424951997356
30
0
41
1
10
49.6576313779151
20
0.303181571045457
30
0
41
1
10
49.4650410958911
20
0.315873860876906
30
0
41
1
10
49.0777363713954
20
0.342463411950206
30
0
41
1
10
48.8830126438791
20
0.356365940314674
30
0
41
1
10
48.6874683038965
20
0.370733977093323
30
0
0
SPLINE
5
112
100
AcDbEntity
8
1
62
256
6
ByLayer
370
18
48
1
60
0
100
AcDbSpline
70
4
71
3
72
8
73
4
40
0
40
0
40
0
40
0
40
1
40
1
40
1
40
1
41
1
10
51.7272041601648
20
-7.91745051062927
30
0
41
1
10
51.7575312148594
20
-7.93870429184449
30
0
41
1
10
51.7892341619412
20
-7.95851091572945
30
0
41
1
10
51.8224872563219
20
-7.97667484368941
30
0
0
SPLINE
5
113
100
AcDbEntity
8
1
62
256
6
ByLayer
370
18
48
1
60
0
100
AcDbSpline
70
4
71
3
72
8
73
4
40
0
40
0
40
0
40
0
40
1
40
1
40
1
40
1
41
1
10
51.546365625263
20
-7.99821477873849
30
0
41
1
10
51.6383532432968
20
-7.99034742234554
30
0
41
1
10
51.730393962294
20
-7.98316972079672
30
0
41
1
10
51.8224872563382
20
-7.97667484368802
30
0
0
SPLINE
5
114
100
AcDbEntity
8
1
62
256
6
ByLayer
370
18
48
1
60
0
100
AcDbSpline
70
4
71
3
72
36
73
32
40
0
40
0
40
0
40
0
40
0.249999999999967
40
0.249999999999967
40
0.374999999999949
40
0.374999999999949
40
0.437499999999942
40
0.437499999999942
40
0.499999999999935
40
0.499999999999935
40
0.562499999999928
40
0.562499999999928
40
0.624999999999921
40
0.624999999999921
40
0.656249999999917
40
0.656249999999917
40
0.687499999999914
40
0.687499999999914
40
0.71874999999991
40
0.71874999999991
40
0.749999999999907
40
0.749999999999907
40
0.781249999999903
40
0.781249999999903
40
0.8124999999999
40
0.8124999999999
40
0.874999999999933
40
0.874999999999933
40
0.937499999999967
40
0.937499999999967
40
1
40
1
40
1
40
1
41
1
10
13.9187376093016
20
-6.91595969364008
30
0
41
1
10
13.8909978079351
20
-6.90091966433832
30
0
41
1
10
13.8644505161365
20
-6.88525365647467
30
0
41
1
10
13.8280680488891
20
-6.86007458230202
30
0
41
1
10
13.8164923825204
20
-6.85136963179022
30
0
41
1
10
13.8007249244877
20
-6.83779659880904
30
0
41
1
10
13.7957344242247
20
-6.83318346084459
30
0
41
1
10
13.7864627130368
20
-6.82372490206777
30
0
41
1
10
13.782164143823
20
-6.81886096116392
30
0
41
1
10
13.7746569207909
20
-6.80890945872301
30
0
41
1
10
13.7714479969748
20
-6.80383544845856
30
0
41
1
10
13.7666521278101
20
-6.79340487122909
30
0
41
1
10
13.7650577116384
20
-6.78799108410135
30
0
41
1
10
13.7646995142584
20
-6.7798818017871
30
0
41
1
10
13.7649156923886
20
-6.77717447794262
30
0
41
1
10
13.766194817987
20
-6.77175131640232
30
0
41
1
10
13.76726066533
20
-6.76906189570823
30
0
41
1
10
13.7703083427259
20
-6.76387598808873
30
0
41
1
10
13.7723060645451
20
-6.76134824831323
30
0
41
1
10
13.7772864307744
20
-6.75651806788065
30
0
41
1
10
13.7802002146656
20
-6.75427695296921
30
0
41
1
10
13.786804766717
20
-6.75011579670945
30
0
41
1
10
13.7905372278112
20
-6.7481795961472
30
0
41
1
10
13.7984782587823
20
-6.74470584950646
30
0
41
1
10
13.8026797500183
20
-6.74316199781353
30
0
41
1
10
13.8158390536793
20
-6.73899572474491
30
0
41
1
10
13.8254011516257
20
-6.73683327384646
30
0
41
1
10
13.8447421686871
20
-6.73347567523911
30
0
41
1
10
13.8546310602076
20
-6.73224842535001
30
0
41
1
10
13.8747015817519
20
-6.73040124726793
30
0
41
1
10
13.8848891721267
20
-6.72978638646961
30
0
41
1
10
13.8950885526562
20
-6.72939977169622
30
0
0
SPLINE
5
115
100
AcDbEntity
8
1
62
256
6
ByLayer
370
18
48
1
60
0
100
AcDbSpline
70
4
71
3
72
37
73
33
40
0
40
0
40
0
40
0
40
0.125000000000002
40
0.125000000000002
40
0.187499999999998
40
0.187499999999998
40
0.249999999999994
40
0.249999999999994
40
0.31249999999999
40
0.31249999999999
40
0.374999999999976
40
0.374999999999976
40
0.437499999999962
40
0.437499999999962
40
0.499999999999948
40
0.499999999999948
40
0.531249999999947
40
0.531249999999947
40
0.562499999999946
40
0.624999999999954
40
0.624999999999954
40
0.656249999999958
40
0.656249999999958
40
0.687499999999961
40
0.687499999999961
40
0.749999999999969
40
0.749999999999969
40
0.812499999999977
40
0.812499999999977
40
0.874999999999985
40
0.874999999999985
40
1
40
1
40
1
40
1
41
1
10
13.8950885526563
20
-6.72939977169602
30
0
41
1
10
13.9748066199572
20
-6.72637800165461
30
0
41
1
10
14.0539207728974
20
-6.72130771954394
30
0
41
1
10
14.1712823284177
20
-6.70919076328013
30
0
41
1
10
14.2101950658033
20
-6.70439017625469
30
0
41
1
10
14.2874207799445
20
-6.69288089831301
30
0
41
1
10
14.3253057791661
20
-6.68623476851377
30
0
41
1
10
14.3993465045356
20
-6.67078942331651
30
0
41
1
10
14.435503421105
20
-6.6619920735898
30
0
41
1
10
14.5057263479799
20
-6.64174222776907
30
0
41
1
10
14.5397944225833
20
-6.63029300214984
30
0
41
1
10
14.6053416412226
20
-6.60402927017017
30
0
41
1
10
14.6359706219126
20
-6.58953711198751
30
0
41
1
10
14.6924193582802
20
-6.55766103318811
30
0
41
1
10
14.7182786561944
20
-6.5402616365086
30
0
41
1
10
14.7532975180811
20
-6.51174095299314
30
0
41
1
10
14.7642139881098
20
-6.50193083784811
30
0
41
1
10
14.7844817423159
20
-6.4818329193416
30
0
41
1
10
14.8126023129711
20
-6.45091388126497
30
0
41
1
10
14.8342621198916
20
-6.41773450058471
30
0
41
1
10
14.8520483494318
20
-6.38310565937078
30
0
41
1
10
14.8572850174644
20
-6.3714056927073
30
0
41
1
10
14.8664568262294
20
-6.34784471324522
30
0
41
1
10
14.8704035661093
20
-6.3359609955009
30
0
41
1
10
14.8805218700561
20
-6.30001099545686
30
0
41
1
10
14.8849794335198
20
-6.27564634906398
30
0
41
1
10
14.8901218086427
20
-6.22616425559121
30
0
41
1
10
14.8908026610589
20
-6.2010242670456
30
0
41
1
10
14.8889715400496
20
-6.15011355962892
30
0
41
1
10
14.8864719198098
20
-6.12455334647922
30
0
41
1
10
14.8750836763024
20
-6.04750895172322
30
0
41
1
10
14.8623511215295
20
-5.99565835239056
30
0
41
1
10
14.8458926599181
20
-5.94324218973651
30
0
0
SPLINE
5
116
100
AcDbEntity
8
1
62
256
6
ByLayer
370
18
48
1
60
0
100
AcDbSpline
70
4
71
3
72
19
73
15
40
0
40
0
40
0
40
0
40
0.249999999999999
40
0.249999999999999
40
0.499999999999997
40
0.499999999999997
40
0.562499999999996
40
0.562499999999996
40
0.593749999999996
40
0.593749999999996
40
0.624999999999997
40
0.749999999999997
40
0.749999999999997
40
1
40
1
40
1
40
1
41
1
10
14.845892659918
20
-5.94324218973654
30
0
41
1
10
14.665223021249
20
-5.7403245987465
30
0
41
1
10
14.5009670765575
20
-5.52115885923101
30
0
41
1
10
14.2025643417137
20
-5.0486231495548
30
0
41
1
10
14.0684026611319
20
-4.7952740890982
30
0
41
1
10
13.9181692364355
20
-4.45556527608233
30
0
41
1
10
13.8889980615539
20
-4.3864690711724
30
0
41
1
10
13.8465366642945
20
-4.28105034731257
30
0
41
1
10
13.8325870400096
20
-4.24558356748437
30
0
41
1
10
13.8052027047806
20
-4.17427664187704
30
0
41
1
10
13.7380012183965
20
-3.99501060278399
30
0
41
1
10
13.6769622784718
20
-3.8107674914705
30
0
41
1
10
13.5415090416784
20
-3.35903321155098
30
0
41
1
10
13.4658592163343
20
-3.04518684241191
30
0
41
1
10
13.4035614627518
20
-2.7181919241379
30
0
0
SPLINE
5
117
100
AcDbEntity
8
1
62
256
6
ByLayer
370
18
48
1
60
0
100
AcDbSpline
70
4
71
3
72
20
73
16
40
0
40
0
40
0
40
0
40
0.249999999999995
40
0.249999999999995
40
0.374999999999994
40
0.374999999999994
40
0.437499999999994
40
0.437499999999994
40
0.499999999999994
40
0.499999999999994
40
0.749999999999997
40
0.749999999999997
40
0.874999999999999
40
0.874999999999999
40
1
40
1
40
1
40
1
41
1
10
13.4035614627518
20
-2.71819192413796
30
0
41
1
10
13.3938967511565
20
-2.66746278229084
30
0
41
1
10
13.3886339146318
20
-2.61647370322586
30
0
41
1
10
13.3880736087039
20
-2.53958352184608
30
0
41
1
10
13.3891115804393
20
-2.51388564735856
30
0
41
1
10
13.3926240346094
20
-2.47523444076595
30
0
41
1
10
13.3941209849061
20
-2.46233330138392
30
0
41
1
10
13.397789786466
20
-2.43649570630686
30
0
41
1
10
13.3999620853853
20
-2.42357276999357
30
0
41
1
10
13.4123990076507
20
-2.35960433301588
30
0
41
1
10
13.4274547863588
20
-2.30991506424351
30
0
41
1
10
13.4573395737688
20
-2.23753643947043
30
0
41
1
10
13.4685200628863
20
-2.2137700400234
30
0
41
1
10
13.4932824756904
20
-2.16695161269092
30
0
41
1
10
13.5068629590527
20
-2.14392178092004
30
0
41
1
10
13.5214327322002
20
-2.12151728370353
30
0
0
SPLINE
5
118
100
AcDbEntity
8
1
62
256
6
ByLayer
370
18
48
1
60
0
100
AcDbSpline
70
4
71
3
72
44
73
40
40
0
40
0
40
0
40
0
40
0.0312500000000037
40
0.0312500000000037
40
0.0625000000000073
40
0.0625000000000073
40
0.0937500000000109
40
0.0937500000000109
40
0.109375000000011
40
0.109375000000011
40
0.125000000000012
40
0.125000000000012
40
0.187500000000013
40
0.187500000000013
40
0.250000000000015
40
0.250000000000015
40
0.281250000000019
40
0.281250000000019
40
0.312500000000024
40
0.312500000000024
40
0.375000000000025
40
0.375000000000025
40
0.437500000000027
40
0.437500000000027
40
0.468750000000028
40
0.468750000000028
40
0.500000000000029
40
0.500000000000029
40
0.562500000000023
40
0.562500000000023
40
0.625000000000018
40
0.625000000000018
40
0.750000000000014
40
0.750000000000014
40
0.812500000000009
40
0.812500000000009
40
0.875000000000004
40
0.875000000000004
40
1
40
1
40
1
40
1
41
1
10
13.5214327322002
20
-2.12151728370353
30
0
41
1
10
13.554927149882
20
-2.07001163703856
30
0
41
1
10
13.5914691097436
20
-2.02126148448954
30
0
41
1
10
13.6695900592153
20
-1.92834306366387
30
0
41
1
10
13.711174193322
20
-1.88417932161829
30
0
41
1
10
13.7986527350647
20
-1.79979674462325
30
0
41
1
10
13.8445499864067
20
-1.75958041193974
30
0
41
1
10
13.9162333249751
20
-1.70186915659494
30
0
41
1
10
13.9406020063787
20
-1.68306878276005
30
0
41
1
10
13.9902348542557
20
-1.64629528357114
30
0
41
1
10
14.0155493765625
20
-1.62828820256837
30
0
41
1
10
14.1436192175752
20
-1.5406462445558
30
0
41
1
10
14.2500835499694
20
-1.47852181445455
30
0
41
1
10
14.4689431639528
20
-1.36618218925781
30
0
41
1
10
14.5813622804207
20
-1.31601351741017
30
0
41
1
10
14.7536124765265
20
-1.24808247118554
30
0
41
1
10
14.8116378782802
20
-1.22666905507438
30
0
41
1
10
14.9288097062495
20
-1.18611556732057
30
0
41
1
10
14.9880389781053
20
-1.16695267308441
30
0
41
1
10
15.1663966474851
20
-1.11291859076331
30
0
41
1
10
15.2863450702127
20
-1.08141496193485
30
0
41
1
10
15.5280360638402
20
-1.02621004063417
30
0
41
1
10
15.649780453248
20
-1.00251644253731
30
0
41
1
10
15.8336078458754
20
-0.972258349111883
30
0
41
1
10
15.8951263150414
20
-0.963050346021816
30
0
41
1
10
16.0183454603702
20
-0.946360009609293
30
0
41
1
10
16.080019612414
20
-0.938879901737181
30
0
41
1
10
16.2652272739815
20
-0.918922757652638
30
0
41
1
10
16.3889455501739
20
-0.908923194966917
30
0
41
1
10
16.6368423706581
20
-0.895103460470636
30
0
41
1
10
16.7610508930316
20
-0.891284986195359
30
0
41
1
10
17.1341518103054
20
-0.88870267355324
30
0
41
1
10
17.3822822930049
20
-0.89876839334687
30
0
41
1
10
17.7536335505549
20
-0.93034042513375
30
0
41
1
10
17.8773770131712
20
-0.94363906834289
30
0
41
1
10
18.1237039252954
20
-0.975541092815632
30
0
41
1
10
18.2463674668827
20
-0.994147217995675
30
0
41
1
10
18.6128879687021
20
-1.05775116957108
30
0
41
1
10
18.8552777108844
20
-1.11052105374216
30
0
41
1
10
19.0957414548405
20
-1.17340986481628
30
0
0
SPLINE
5
119
100
AcDbEntity
8
1
62
256
6
ByLayer
370
18
48
1
60
0
100
AcDbSpline
70
4
71
3
72
36
73
32
40
0
40
0
40
0
40
0
40
0.25000000000003
40
0.25000000000003
40
0.375000000000057
40
0.375000000000057
40
0.437500000000061
40
0.437500000000061
40
0.500000000000064
40
0.500000000000064
40
0.562500000000067
40
0.562500000000067
40
0.62500000000007
40
0.62500000000007
40
0.656250000000073
40
0.656250000000073
40
0.687500000000076
40
0.687500000000076
40
0.718750000000079
40
0.718750000000079
40
0.750000000000082
40
0.750000000000082
40
0.781250000000086
40
0.781250000000086
40
0.812500000000089
40
0.812500000000089
40
0.875000000000059
40
0.875000000000059
40
0.93750000000003
40
0.93750000000003
40
1
40
1
40
1
40
1
41
1
10
14.3586080520648
20
4.76643316961483
30
0
41
1
10
14.332833920306
20
4.79051774907245
30
0
41
1
10
14.3082608376287
20
4.81520952935722
30
0
41
1
10
14.274757333888
20
4.85402908728622
30
0
41
1
10
14.2641371743738
20
4.86729750081204
30
0
41
1
10
14.249623332371
20
4.88784296757331
30
0
41
1
10
14.24503694552
20
4.89478201532091
30
0
41
1
10
14.2365226258509
20
4.90890059964315
30
0
41
1
10
14.232579655376
20
4.9161076514068
30
0
41
1
10
14.2256791735794
20
4.93070358830644
30
0
41
1
10
14.2227195283232
20
4.93808097139015
30
0
41
1
10
14.2181906275844
20
4.9530671719782
30
0
41
1
10
14.2166077390129
20
4.96067355353222
30
0
41
1
10
14.2158755031485
20
4.97236332219123
30
0
41
1
10
14.2159167265682
20
4.97631333581606
30
0
41
1
10
14.2167006342812
20
4.98408091392429
30
0
41
1
10
14.2174394021025
20
4.98792631708022
30
0
41
1
10
14.2197599832838
20
4.99552541208286
30
0
41
1
10
14.2213517896417
20
4.99926894692533
30
0
41
1
10
14.2253550880056
20
5.00634073033251
30
0
41
1
10
14.2277759166133
20
5.00970752085305
30
0
41
1
10
14.2334956667301
20
5.0160884368546
30
0
41
1
10
14.2367896914467
20
5.0190802821011
30
0
41
1
10
14.2439225488448
20
5.02447875626325
30
0
41
1
10
14.2477920258119
20
5.0269223879319
30
0
41
1
10
14.2601986466534
20
5.03358154593249
30
0
41
1
10
14.2691322118388
20
5.03694132204333
30
0
41
1
10
14.2877839326641
20
5.04227514085255
30
0
41
1
10
14.297521066411
20
5.04423242166231
30
0
41
1
10
14.3170586498564
20
5.04710907803235
30
0
41
1
10
14.326938446074
20
5.04804580308166
30
0
41
1
10
14.3368969414466
20
5.04862727335149
30
0
0
SPLINE
5
11A
100
AcDbEntity
8
1
62
256
6
ByLayer
370
18
48
1
60
0
100
AcDbSpline
70
4
71
3
72
36
73
32
40
0
40
0
40
0
40
0
40
0.124999999999974
40
0.124999999999974
40
0.187499999999954
40
0.187499999999954
40
0.249999999999934
40
0.249999999999934
40
0.374999999999895
40
0.374999999999895
40
0.40624999999989
40
0.40624999999989
40
0.437499999999886
40
0.437499999999886
40
0.499999999999897
40
0.562499999999908
40
0.562499999999908
40
0.593749999999914
40
0.593749999999914
40
0.62499999999992
40
0.687499999999932
40
0.687499999999932
40
0.718749999999938
40
0.718749999999938
40
0.749999999999944
40
0.749999999999944
40
0.874999999999972
40
0.874999999999972
40
0.937499999999986
40
0.937499999999986
40
1
40
1
40
1
40
1
41
1
10
14.3368969414466
20
5.04862727335149
30
0
41
1
10
14.4014220348315
20
5.05239485289601
30
0
41
1
10
14.4654540277836
20
5.05840800008707
30
0
41
1
10
14.5604953589753
20
5.07198136771706
30
0
41
1
10
14.5920068198472
20
5.07726993495115
30
0
41
1
10
14.6546258739102
20
5.08966374059844
30
0
41
1
10
14.6857758722983
20
5.09678865831344
30
0
41
1
10
14.7770561352699
20
5.12102586806236
30
0
41
1
10
14.8354803240271
20
5.14104095100046
30
0
41
1
10
14.9044279015245
20
5.17241113476962
30
0
41
1
10
14.9180113341272
20
5.17900536688515
30
0
41
1
10
14.9447308444027
20
5.19288458166974
30
0
41
1
10
14.9579186768962
20
5.20020149453183
30
0
41
1
10
14.9963008669358
20
5.22299884625832
30
0
41
1
10
15.0442935916047
20
5.25559393213362
30
0
41
1
10
15.0857492176471
20
5.2926107194607
30
0
41
1
10
15.1143282529631
20
5.32203213364105
30
0
41
1
10
15.1234638085253
20
5.33215253591621
30
0
41
1
10
15.1406576288606
20
5.35265711296495
30
0
41
1
10
15.1649038854203
20
5.38386888412168
30
0
41
1
10
15.1847796129554
20
5.41633359971652
30
0
41
1
10
15.2020401575665
20
5.44950447326525
30
0
41
1
10
15.20735725136
20
5.4606793375419
30
0
41
1
10
15.217162137921
20
5.48324573888999
30
0
41
1
10
15.2216523456894
20
5.49465109977982
30
0
41
1
10
15.2419264924244
20
5.5515343297815
30
0
41
1
10
15.2515163942146
20
5.5970764705948
30
0
41
1
10
15.2588825679902
20
5.66515246525609
30
0
41
1
10
15.2601494049559
20
5.68780669980538
30
0
41
1
10
15.2606250243461
20
5.73300711661983
30
0
41
1
10
15.2598290977908
20
5.75557796170474
30
0
41
1
10
15.2581414220704
20
5.77795518618089
30
0
0
SPLINE
5
11B
100
AcDbEntity
8
1
62
256
6
ByLayer
370
18
48
1
60
0
100
AcDbSpline
70
4
71
3
72
19
73
15
40
0
40
0
40
0
40
0
40
0.249999999999998
40
0.249999999999998
40
0.499999999999996
40
0.499999999999996
40
0.562499999999996
40
0.562499999999996
40
0.593749999999997
40
0.593749999999997
40
0.624999999999997
40
0.749999999999999
40
0.749999999999999
40
1
40
1
40
1
40
1
41
1
10
15.2581414220704
20
5.77795518618089
30
0
41
1
10
15.0618096448025
20
5.99199299579345
30
0
41
1
10
14.881477399893
20
6.19686882599405
30
0
41
1
10
14.5502831799239
20
6.58393779477794
30
0
41
1
10
14.3994070589661
20
6.76614748314307
30
0
41
1
10
14.227871612253
20
6.97643652775898
30
0
41
1
10
14.1944190496366
20
7.01761756714617
30
0
41
1
10
14.145502247483
20
7.07800106295039
30
0
41
1
10
14.1293934567637
20
7.0979142815749
30
0
41
1
10
14.0976645544818
20
7.13717733516822
30
0
41
1
10
14.0196021717906
20
7.23387970490271
30
0
41
1
10
13.9477041711413
20
7.32325189132695
30
0
41
1
10
13.7861648646812
20
7.52312862963799
30
0
41
1
10
13.6930962065533
20
7.63695152273104
30
0
41
1
10
13.6132152818529
20
7.72931802295997
30
0
0
SPLINE
5
11C
100
AcDbEntity
8
1
62
256
6
ByLayer
370
18
48
1
60
0
100
AcDbSpline
70
4
71
3
72
19
73
15
40
0
40
0
40
0
40
0
40
0.249999999999989
40
0.249999999999989
40
0.374999999999984
40
0.374999999999984
40
0.49999999999998
40
0.49999999999998
40
0.74999999999998
40
0.74999999999998
40
0.812499999999985
40
0.812499999999985
40
0.874999999999989
40
1
40
1
40
1
40
1
41
1
10
13.6132152818529
20
7.72931802295997
30
0
41
1
10
13.6056378687933
20
7.73807980341925
30
0
41
1
10
13.6010485054515
20
7.74668875483195
30
0
41
1
10
13.5994906542179
20
7.75937516138822
30
0
41
1
10
13.599862894222
20
7.76356616527511
30
0
41
1
10
13.6025959611417
20
7.77187361166864
30
0
41
1
10
13.6049449881649
20
7.77593181758186
30
0
41
1
10
13.6149202348007
20
7.78772593626411
30
0
41
1
10
13.6254765077336
20
7.79512821977448
30
0
41
1
10
13.6437697367815
20
7.80384143682991
30
0
41
1
10
13.6476889283382
20
7.80555803455692
30
0
41
1
10
13.6559442816286
20
7.80889918951303
30
0
41
1
10
13.6689834998496
20
7.81378833958806
30
0
41
1
10
13.6839281573578
20
7.818328721244
30
0
41
1
10
13.6946955078941
20
7.8212145188979
30
0
0
SPLINE
5
11D
100
AcDbEntity
8
1
62
256
6
ByLayer
370
18
48
1
60
0
100
AcDbSpline
70
4
71
3
72
46
73
42
40
0
40
0
40
0
40
0
40
0.0312500000000033
40
0.0312500000000033
40
0.0625000000000066
40
0.0625000000000066
40
0.125000000000016
40
0.125000000000016
40
0.140625000000016
40
0.140625000000016
40
0.156250000000016
40
0.156250000000016
40
0.187500000000016
40
0.187500000000016
40
0.250000000000009
40
0.250000000000009
40
0.312500000000002
40
0.312500000000002
40
0.343749999999999
40
0.343749999999999
40
0.374999999999995
40
0.374999999999995
40
0.437499999999989
40
0.437499999999989
40
0.468749999999989
40
0.468749999999989
40
0.499999999999989
40
0.499999999999989
40
0.62499999999999
40
0.62499999999999
40
0.65624999999999
40
0.65624999999999
40
0.687499999999991
40
0.749999999999991
40
0.812499999999992
40
0.812499999999992
40
0.843749999999992
40
0.843749999999992
40
0.874999999999992
40
0.874999999999992
40
1
40
1
40
1
40
1
41
1
10
13.6946955078941
20
7.82121451889788
30
0
41
1
10
13.7322279421309
20
7.83127372615601
30
0
41
1
10
13.7721804574712
20
7.84030710309702
30
0
41
1
10
13.8561215875522
20
7.8567813903731
30
0
41
1
10
13.900113977954
20
7.86422016202366
30
0
41
1
10
14.0373127409546
20
7.88462903275922
30
0
41
1
10
14.1356949800351
20
7.89571632315969
30
0
41
1
10
14.2655563683358
20
7.9074769915978
30
0
41
1
10
14.2918406465632
20
7.9097182988489
30
0
41
1
10
14.3446624266257
20
7.91397583811334
30
0
41
1
10
14.3712482026937
20
7.91599649974995
30
0
41
1
10
14.4514933842496
20
7.92176979233648
30
0
41
1
10
14.5056392540935
20
7.92523507028437
30
0
41
1
10
14.6697908435732
20
7.93470603874647
30
0
41
1
10
14.7814983585136
20
7.9397985194712
30
0
41
1
10
15.0086435754549
20
7.94833344641452
30
0
41
1
10
15.1240878327938
20
7.95176959410259
30
0
41
1
10
15.2996978424277
20
7.95603392918912
30
0
41
1
10
15.3585537052965
20
7.95730267565483
30
0
41
1
10
15.4764000173398
20
7.95957155556189
30
0
41
1
10
15.5354612928612
20
7.96057335915526
30
0
41
1
10
15.713033166731
20
7.96323675575556
30
0
41
1
10
15.8319305041984
20
7.96455972286614
30
0
41
1
10
16.0109754943906
20
7.96601266999406
30
0
41
1
10
16.070774017169
20
7.9664074746434
30
0
41
1
10
16.190595885211
20
7.96703310576314
30
0
41
1
10
16.2506331263814
20
7.96726381756139
30
0
41
1
10
16.5504964607673
20
7.96803122113269
30
0
41
1
10
16.7900493265215
20
7.967451015807
30
0
41
1
10
17.0891160842658
20
7.96529800230209
30
0
41
1
10
17.1489414174258
20
7.96479348852276
30
0
41
1
10
17.2683281682976
20
7.96363326904836
30
0
41
1
10
17.4470572653688
20
7.9616655016718
30
0
41
1
10
17.743228895638
20
7.95719804825004
30
0
41
1
10
17.9784125538798
20
7.95217801942471
30
0
41
1
10
18.1541616912677
20
7.94777793909569
30
0
41
1
10
18.2126211531008
20
7.94620545124184
30
0
41
1
10
18.3291158758575
20
7.94283681040602
30
0
41
1
10
18.3871769171077
20
7.9410400269791
30
0
41
1
10
18.6765671652152
20
7.93144835972905
30
0
41
1
10
18.9051559076219
20
7.92184387206945
30
0
41
1
10
19.1309911737677
20
7.90961241043016
30
0
0
SPLINE
5
11E
100
AcDbEntity
8
1
62
256
6
ByLayer
370
18
48
1
60
0
100
AcDbSpline
70
4
71
3
72
8
73
4
40
0
40
0
40
0
40
0
40
1
40
1
40
1
40
1
41
1
10
17.9521833814935
20
7.99999008999711
30
0
41
1
10
17.9614392797182
20
7.99996684649579
30
0
41
1
10
17.9709727000977
20
7.99990301681052
30
0
41
1
10
17.9807757854686
20
7.99980151231554
30
0
0
SPLINE
5
11F
100
AcDbEntity
8
1
62
256
6
ByLayer
370
18
48
1
60
0
100
AcDbSpline
70
4
71
3
72
8
73
4
40
0
40
0
40
0
40
0
40
1
40
1
40
1
40
1
41
1
10
18.0010692717499
20
0.182771570308773
30
0
41
0.999999985975579
10
18.0018368095552
20
0.182178704227748
30
0
41
0.999999985975579
10
18.0026043742722
20
0.181585780382243
30
0
41
1
10
18.0033719658685
20
0.180992798797263
30
0
0
SPLINE
5
120
100
AcDbEntity
8
1
62
256
6
ByLayer
370
18
48
1
60
0
100
AcDbSpline
70
4
71
3
72
18
73
14
40
0
40
0
40
0
40
0
40
0.0911627255424319
40
0.182271358505649
40
0.27332705677206
40
0.364330959915477
40
0.455284189425572
40
0.546187848928974
40
0.637043024406897
40
0.727850784409249
40
0.818612180265687
40
0.909328246293097
40
1
40
1
40
1
40
1
41
1
10
18.2883554198495
20
0.586355600457694
30
0
41
1
10
18.2795623155373
20
0.574057542382604
30
0
41
1
10
18.2619813244147
20
0.549468723443852
30
0
41
1
10
18.2357131333462
20
0.51257721041847
30
0
41
1
10
18.2095306963275
20
0.475694692054191
30
0
41
1
10
18.1834408470962
20
0.438820439003081
30
0
41
1
10
18.1574417799157
20
0.401955552357947
30
0
41
1
10
18.1315339580193
20
0.365100627972282
30
0
41
1
10
18.1057174007805
20
0.328256372181102
30
0
41
1
10
18.0799916359446
20
0.291423473128162
30
0
41
1
10
18.0543585989882
20
0.254602500752952
30
0
41
1
10
18.0288110922335
20
0.217794435429568
30
0
41
1
10
18.0118502956765
20
0.193258011436143
30
0
41
1
10
18.0033719691255
20
0.18099279651463
30
0
0
SPLINE
5
121
100
AcDbEntity
8
1
62
256
6
ByLayer
370
18
48
1
60
0
100
AcDbSpline
70
4
71
3
72
8
73
4
40
0
40
0
40
0
40
0
40
1
40
1
40
1
40
1
41
1
10
18.1541137301714
20
0.68968930132948
30
0
41
0.999954026956424
10
18.1987639034822
20
0.655443370688949
30
0
41
0.999954026956424
10
18.2435131906355
20
0.620997220137619
30
0
41
1
10
18.2883554198484
20
0.586355600458603
30
0
0
SPLINE
5
122
100
AcDbEntity
8
1
62
256
6
ByLayer
370
18
48
1
60
0
100
AcDbSpline
70
4
71
3
72
8
73
4
40
0
40
0
40
0
40
0
40
1
40
1
40
1
40
1
41
1
10
18.2693232411841
20
1.74711506772457
30
0
41
1
10
18.4664938332532
20
1.67405026192452
30
0
41
1
10
18.6657913741225
20
1.59529382493724
30
0
41
1
10
18.8672362498054
20
1.51079120459494
30
0
0
SPLINE
5
123
100
AcDbEntity
8
1
62
256
6
ByLayer
370
18
48
1
60
0
100
AcDbSpline
70
4
71
3
72
8
73
4
40
0
40
0
40
0
40
0
40
1
40
1
40
1
40
1
41
1
10
51.3121721510598
20
2.68751128162992
30
0
41
1
10
51.346396140131
20
2.62745310676317
30
0
41
1
10
51.3813863880069
20
2.56525615791577
30
0
41
1
10
51.4171917057519
20
2.50078420471397
30
0
0
SPLINE
5
124
100
AcDbEntity
8
1
62
256
6
ByLayer
370
13
48
1
60
0
100
AcDbSpline
70
4
71
3
72
9
73
5
40
0
40
0
40
0
40
0
40
0.57876416124314
40
1
40
1
40
1
40
1
41
1
10
51.3121721518219
20
2.68751128276418
30
0
41
1
10
50.874781434548
20
2.95292174121616
30
0
41
1
10
50.1190492269171
20
3.4001627684714
30
0
41
1
10
49.3633170192862
20
3.824053829745
30
0
41
1
10
49.0449755289292
20
3.99755839563417
30
0
0
SPLINE
5
125
100
AcDbEntity
8
1
62
256
6
ByLayer
370
18
48
1
60
0
100
AcDbSpline
70
4
71
3
72
8
73
4
40
0
40
0
40
0
40
0
40
1
40
1
40
1
40
1
41
1
10
51.766013042151
20
1.63319893408604
30
0
41
1
10
51.7546075902291
20
1.38262605320347
30
0
41
1
10
51.7422420743024
20
1.13244188200395
30
0
41
1
10
51.7286158203744
20
0.882768157331071
30
0
0
SPLINE
5
126
100
AcDbEntity
8
1
62
256
6
ByLayer
370
18
48
1
60
0
100
AcDbSpline
70
4
71
3
72
8
73
4
40
0
40
0
40
0
40
0
40
1
40
1
40
1
40
1
41
1
10
51.7660130421541
20
1.63319893408561
30
0
41
1
10
51.6492032109861
20
1.92504566101567
30
0
41
1
10
51.5329307969253
20
2.21423400040231
30
0
41
1
10
51.4171917057513
20
2.50078420471678
30
0
0
SPLINE
5
127
100
AcDbEntity
8
1
62
256
6
ByLayer
370
18
48
1
60
0
100
AcDbSpline
70
4
71
3
72
46
73
42
40
0
40
0
40
0
40
0
40
0.0761788653956684
40
0.0761788653956684
40
0.152357730791337
40
0.152357730791337
40
0.19044716348917
40
0.19044716348917
40
0.209491879838088
40
0.209491879838088
40
0.228536596187005
40
0.266626028884841
40
0.266626028884841
40
0.304715461582676
40
0.304715461582676
40
0.342804894280511
40
0.342804894280511
40
0.380894326978347
40
0.418983759676182
40
0.418983759676182
40
0.457073192374017
40
0.533252057769688
40
0.533252057769688
40
0.571341490467523
40
0.571341490467523
40
0.609430923165359
40
0.609430923165359
40
0.647520355863194
40
0.666565072212111
40
0.666565072212111
40
0.685609788561029
40
0.685609788561029
40
0.761788653956695
40
0.761788653956695
40
0.837967519352362
40
0.837967519352362
40
0.914146384748028
40
0.914146384748028
40
0.990325250143695
40
0.990325250143695
40
1
40
1
40
1
40
1
41
1
10
51.4171917057334
20
2.50078420472377
30
0
41
1
10
51.0883376569667
20
2.71786997267751
30
0
41
1
10
50.7598136293364
20
2.931210977706
30
0
41
1
10
50.102859275233
20
3.34970983087592
30
0
41
1
10
49.7744733610123
20
3.55492447477098
30
0
41
1
10
49.281343895682
20
3.85575283535596
30
0
41
1
10
49.1168664339113
20
3.95485180794074
30
0
41
1
10
48.8698821210733
20
4.10157992116294
30
0
41
1
10
48.7875479549806
20
4.15014584467272
30
0
41
1
10
48.6230996302094
20
4.24642136648842
30
0
41
1
10
48.3766475667688
20
4.38961573437047
30
0
41
1
10
48.13076789666
20
4.52906437529512
30
0
41
1
10
47.8032850323759
20
4.71151435249078
30
0
41
1
10
47.6397274289896
20
4.80100287882692
30
0
41
1
10
47.3129553655686
20
4.97650369026655
30
0
41
1
10
47.149743490764
20
5.06251204121429
30
0
41
1
10
46.8235892368347
20
5.23108704400553
30
0
41
1
10
46.4977039492274
20
5.39622447602372
30
0
41
1
10
46.1723199769532
20
5.55441268623582
30
0
41
1
10
45.8471619618238
20
5.70906356307239
30
0
41
1
10
45.3597678117153
20
5.93573393509323
30
0
41
1
10
44.8726079717599
20
6.14558231991313
30
0
41
1
10
44.3845368367479
20
6.34304925375196
30
0
41
1
10
44.2216941370715
20
6.40680755077477
30
0
41
1
10
43.8955022080097
20
6.53008771739948
30
0
41
1
10
43.7321466762178
20
6.58960913074071
30
0
41
1
10
43.4048506909892
20
6.70438731021912
30
0
41
1
10
43.1589435023122
20
6.78726776620857
30
0
41
1
10
42.9123216197214
20
6.86524977085887
30
0
41
1
10
42.7477402334634
20
6.91613610342185
30
0
41
1
10
42.6653261846828
20
6.94104030624055
30
0
41
1
10
42.2532751253326
20
7.06263832671493
30
0
41
1
10
41.9250271017488
20
7.15020068390956
30
0
41
1
10
41.2707218278548
20
7.30567622440267
30
0
41
1
10
40.9446799646172
20
7.37349052708666
30
0
41
1
10
40.2936922655
20
7.48975746421831
30
0
41
1
10
39.968721625596
20
7.53830438822172
30
0
41
1
10
39.3191754895646
20
7.61551573209212
30
0
41
1
10
38.9945861028271
20
7.64421633392021
30
0
41
1
10
38.6284875752541
20
7.66520444114434
30
0
41
1
10
38.5872285264454
20
7.66740590475899
30
0
41
1
10
38.5459649071236
20
7.66944235794145
30
0
0
SPLINE
5
128
100
AcDbEntity
8
1
62
256
6
ByLayer
370
18
48
1
60
0
100
AcDbSpline
70
4
71
3
72
24
73
20
40
0
40
0
40
0
40
0
40
0.0557791891719045
40
0.0824772948582734
40
0.109175400544643
40
0.162571611917381
40
0.215967823290119
40
0.269364034662858
40
0.322760246035596
40
0.376156457408334
40
0.482948880153811
40
0.536345091526549
40
0.589741302899288
40
0.696533725644764
40
0.723231831331134
40
0.749929937017503
40
0.803326148390241
40
0.910118571135717
40
1
40
1
40
1
40
1
41
1
10
36.4583690218849
20
7.92001895441635
30
0
41
1
10
36.739589471314
20
7.90525271718968
30
0
41
1
10
37.1552218179674
20
7.87201686110086
30
0
41
1
10
37.7050365867943
20
7.80600229200633
30
0
41
1
10
38.2426288647686
20
7.72762152470847
30
0
41
1
10
38.9142212160878
20
7.60334154228994
30
0
41
1
10
39.7194629252906
20
7.41369278468016
30
0
41
1
10
40.5240953977538
20
7.18463411378755
30
0
41
1
10
41.3281102737091
20
6.91772177484697
30
0
41
1
10
42.3997144947343
20
6.51254292309903
30
0
41
1
10
43.4720670147351
20
6.03658717422809
30
0
41
1
10
44.547833829863
20
5.49592053471108
30
0
41
1
10
45.6266257307384
20
4.91395819270562
30
0
41
1
10
46.5758880662076
20
4.35401349545111
30
0
41
1
10
47.3951893403564
20
3.84238631234302
30
0
41
1
10
47.9429085514954
20
3.49308444732833
30
0
41
1
10
48.9057463596596
20
2.86130733249911
30
0
41
1
10
50.2076701518617
20
1.96682904781048
30
0
41
1
10
51.2486268600785
20
1.22676462907458
30
0
41
1
10
51.7286158374281
20
0.882768155586064
30
0
0
SPLINE
5
129
100
AcDbEntity
8
1
62
256
6
ByLayer
370
13
48
1
60
0
100
AcDbSpline
70
4
71
3
72
17
73
13
40
0
40
0
40
0
40
0
40
0.052397983230517
40
0.147158184907465
40
0.241918386584414
40
0.336678588261362
40
0.43143878993831
40
0.526198991615259
40
0.620959193292207
40
0.715719394969155
40
0.810479596646103
40
1
40
1
40
1
40
1
41
1
10
41.1059069588973
20
-6.85878152118488
30
0
41
1
10
40.7372713059316
20
-6.9366775289181
30
0
41
1
10
39.7019689862992
20
-7.11974705402329
30
0
41
1
10
38
20
-7.24868846464651
30
0
41
1
10
36.0000000000001
20
-7.13297194532106
30
0
41
1
10
34.0000000000001
20
-6.75662416522667
30
0
41
1
10
32.0000000000001
20
-6.13131256013114
30
0
41
1
10
30.0000000000001
20
-5.28295166540826
30
0
41
1
10
28.0000000000001
20
-4.23901913819015
30
0
41
1
10
26.0000000000001
20
-3.0391751537893
30
0
41
1
10
23.3333333333335
20
-1.29421622849227
30
0
41
1
10
21.3333333333335
20
0.11400519643027
30
0
41
1
10
20.0000000000001
20
1.02587298566655
30
0
0
SPLINE
5
12A
100
AcDbEntity
8
1
62
256
6
ByLayer
370
18
48
1
60
0
100
AcDbSpline
70
4
71
3
72
80
73
76
40
0
40
0
40
0
40
0
40
0.0124598203670192
40
0.0124598203670192
40
0.0229655669588597
40
0.0229655669588597
40
0.0334713135507002
40
0.0334713135507002
40
0.0754942999180623
40
0.0754942999180623
40
0.159540272652788
40
0.159540272652788
40
0.20156325902015
40
0.20156325902015
40
0.222574752203831
40
0.222574752203831
40
0.243586245387513
40
0.243586245387513
40
0.264597738571194
40
0.264597738571194
40
0.275103485163035
40
0.275103485163035
40
0.285609231754875
40
0.285609231754875
40
0.306620724938557
40
0.306620724938557
40
0.327632218122238
40
0.327632218122238
40
0.369655204489601
40
0.369655204489601
40
0.390666697673283
40
0.390666697673283
40
0.411678190856964
40
0.411678190856964
40
0.432689684040646
40
0.432689684040646
40
0.453701177224328
40
0.453701177224328
40
0.495724163591692
40
0.495724163591692
40
0.516735656775374
40
0.516735656775374
40
0.527241403367215
40
0.527241403367215
40
0.537747149959056
40
0.537747149959056
40
0.579770136326417
40
0.579770136326417
40
0.621793122693779
40
0.621793122693779
40
0.642804615877459
40
0.642804615877459
40
0.66381610906114
40
0.66381610906114
40
0.705839095428499
40
0.705839095428499
40
0.726850588612178
40
0.726850588612178
40
0.747862081795857
40
0.747862081795857
40
0.768873574979536
40
0.768873574979536
40
0.779379321571376
40
0.779379321571376
40
0.789885068163215
40
0.789885068163215
40
0.831908054530572
40
0.831908054530572
40
0.873931040897929
40
0.873931040897929
40
0.915954027265286
40
0.915954027265286
40
0.957977013632643
40
0.957977013632643
40
1
40
1
40
1
40
1
41
1
10
43.3473059444234
20
-6.48538569150955
30
0
41
1
10
43.2497170508175
20
-6.52399886286983
30
0
41
1
10
43.1519914764369
20
-6.56179478291739
30
0
41
1
10
42.9716016584124
20
-6.62992951303738
30
0
41
1
10
42.8890366985199
20
-6.66048455977466
30
0
41
1
10
42.7241983303661
20
-6.72022151477927
30
0
41
1
10
42.6418679483208
20
-6.7494256677345
30
0
41
1
10
42.2306240156013
20
-6.89214669226791
30
0
41
1
10
41.9029285959641
20
-6.99582014324952
30
0
41
1
10
40.9224737639451
20
-7.27538563966132
30
0
41
1
10
40.2723971301808
20
-7.41966162906147
30
0
41
1
10
39.2967223206429
20
-7.56960766115614
30
0
41
1
10
38.9713651230895
20
-7.60858466051349
30
0
41
1
10
38.4822228355755
20
-7.65059147983669
30
0
41
1
10
38.3189999583034
20
-7.66181874042349
30
0
41
1
10
37.9920894681132
20
-7.67851362077582
30
0
41
1
10
37.8284040037702
20
-7.68395651430379
30
0
41
1
10
37.5003757932807
20
-7.68926560316623
30
0
41
1
10
37.3360361518479
20
-7.68912729156256
30
0
41
1
10
37.0889501182775
20
-7.68460593821373
30
0
41
1
10
37.0064335195672
20
-7.68237670239657
30
0
41
1
10
36.841658757925
20
-7.67647413717228
30
0
41
1
10
36.7593645804211
20
-7.67280120134052
30
0
41
1
10
36.512744281549
20
-7.65960905033606
30
0
41
1
10
36.348694917801
20
-7.64787674536026
30
0
41
1
10
36.0210990711917
20
-7.61883991377587
30
0
41
1
10
35.8575283919216
20
-7.60159920547173
30
0
41
1
10
35.3673859939819
20
-7.54170063951346
30
0
41
1
10
35.0414230908806
20
-7.49079169086272
30
0
41
1
10
34.5531560789099
20
-7.39782147265797
30
0
41
1
10
34.3904842322146
20
-7.36415144563779
30
0
41
1
10
34.0651621870626
20
-7.29162127903334
30
0
41
1
10
33.9025253675923
20
-7.25271629861138
30
0
41
1
10
33.5772059026886
20
-7.16956137536042
30
0
41
1
10
33.4145220328383
20
-7.12531576176798
30
0
41
1
10
33.0889909066639
20
-7.03143644675947
30
0
41
1
10
32.9261407352686
20
-6.98180763907902
30
0
41
1
10
32.4370089058457
20
-6.82548020973877
30
0
41
1
10
32.1102031281145
20
-6.7111090550641
30
0
41
1
10
31.6181732810419
20
-6.52397060878539
30
0
41
1
10
31.4538673262242
20
-6.45895999193709
30
0
41
1
10
31.2068424591052
20
-6.35774372843565
30
0
41
1
10
31.1243735661269
20
-6.32338564308048
30
0
41
1
10
30.9593722616964
20
-6.25349180498483
30
0
41
1
10
30.8769642190126
20
-6.2180064424293
30
0
41
1
10
30.4653871137968
20
-6.03784412395012
30
0
41
1
10
30.137579629461
20
-5.88502929931951
30
0
41
1
10
29.483876267664
20
-5.56326780815104
30
0
41
1
10
29.1580069802156
20
-5.39423022569292
30
0
41
1
10
28.6697363940369
20
-5.12972388661123
30
0
41
1
10
28.5070768975369
20
-5.03970793837101
30
0
41
1
10
28.1818543150593
20
-4.85601240878856
30
0
41
1
10
28.019286395813
20
-4.76234492737655
30
0
41
1
10
27.5314735737269
20
-4.47622482781387
30
0
41
1
10
27.2061164717818
20
-4.27870198833605
30
0
41
1
10
26.7171835215278
20
-3.97270322497849
30
0
41
1
10
26.5540480419225
20
-3.86910908215313
30
0
41
1
10
26.2273007934302
20
-3.65897048931936
30
0
41
1
10
26.0636898624131
20
-3.55242425284354
30
0
41
1
10
25.7358841772185
20
-3.33638193833076
30
0
41
1
10
25.5716857870493
20
-3.2269087119997
30
0
41
1
10
25.324852131603
20
-3.06064204520283
30
0
41
1
10
25.2424855635402
20
-3.00487357600122
30
0
41
1
10
25.0775615263519
20
-2.8926496118865
30
0
41
1
10
24.9950496895186
20
-2.83622511296582
30
0
41
1
10
24.5831564508986
20
-2.55324187868806
30
0
41
1
10
24.2549207210622
20
-2.3234811350743
30
0
41
1
10
23.5998989472685
20
-1.85878111322313
30
0
41
1
10
23.2731282730301
20
-1.62381704287057
30
0
41
1
10
22.6201141950264
20
-1.14991850074986
30
0
41
1
10
22.2938686082394
20
-0.910985076247101
30
0
41
1
10
21.6407380400363
20
-0.430766227843037
30
0
41
1
10
21.3138583875512
20
-0.189473368135481
30
0
41
1
10
20.658459910826
20
0.294165431868322
30
0
41
1
10
20.3299224828873
20
0.536476675893169
30
0
41
1
10
20.0000000000001
20
0.778534260154743
30
0
0
SPLINE
5
12B
100
AcDbEntity
8
1
62
256
6
ByLayer
370
18
48
1
60
0
100
AcDbSpline
70
4
71
3
72
8
73
4
40
0
40
0
40
0
40
0
40
1
40
1
40
1
40
1
41
1
10
20.0000000000001
20
0.778534260154743
30
0
41
1
10
19.6185994754354
20
1.01894381058733
30
0
41
1
10
19.2408408042896
20
1.26282252986002
30
0
41
1
10
18.867476246867
20
1.51088700859503
30
0
0
SPLINE
5
12C
100
AcDbEntity
8
1
62
256
6
ByLayer
370
18
48
1
60
0
100
AcDbSpline
70
4
71
3
72
29
73
25
40
0
40
0
40
0
40
0
40
0.045298633146881
40
0.0906078524108628
40
0.135928345857552
40
0.181260791971435
40
0.226605860459954
40
0.271964214589216
40
0.317336506350834
40
0.362723375220996
40
0.408125448345824
40
0.453543340724394
40
0.498977655389378
40
0.544428983585222
40
0.589897904944047
40
0.635384987659115
40
0.680890788655973
40
0.726415853761365
40
0.771960717869647
40
0.81752590510712
40
0.863111928993962
40
0.908719292604009
40
0.954348488722198
40
1
40
1
40
1
40
1
41
1
10
18.8673872090195
20
1.51075065882108
30
0
41
1
10
18.8582183274233
20
1.49669424701329
30
0
41
1
10
18.8398784214987
20
1.4685781384681
30
0
41
1
10
18.8125135296193
20
1.42642396750603
30
0
41
1
10
18.7852508979836
20
1.38427940125325
30
0
41
1
10
18.7581011582355
20
1.34214681373749
30
0
41
1
10
18.7310614673585
20
1.30002638702157
30
0
41
1
10
18.7041326030894
20
1.25791881593454
30
0
41
1
10
18.6773143734873
20
1.21582461984607
30
0
41
1
10
18.6506068457704
20
1.17374434266279
30
0
41
1
10
18.6240100175346
20
1.1316785002806
30
0
41
1
10
18.5975239049724
20
1.08962759487943
30
0
41
1
10
18.5711485191894
20
1.04759211116772
30
0
41
1
10
18.5448838726704
20
1.00557251751539
30
0
41
1
10
18.5187299771011
20
0.963569265591218
30
0
41
1
10
18.492686845602
20
0.921582791094266
30
0
41
1
10
18.4667544859597
20
0.879613511603992
30
0
41
1
10
18.4409329254729
20
0.837661834868214
30
0
41
1
10
18.4152221182711
20
0.795728128200295
30
0
41
1
10
18.3896222913996
20
0.753812833088631
30
0
41
1
10
18.3641326523402
20
0.711916037512736
30
0
41
1
10
18.3387562159313
20
0.670039073512925
30
0
41
1
10
18.3134817773298
20
0.628178551100802
30
0
41
1
10
18.2967322372469
20
0.600298855899126
30
0
41
1
10
18.288355419847
20
0.586355600459626
30
0
0
SPLINE
5
12D
100
AcDbEntity
8
1
62
256
6
ByLayer
370
18
48
1
60
0
100
AcDbSpline
70
4
71
3
72
46
73
42
40
0
40
0
40
0
40
0
40
0.0236651208217504
40
0.0439263857483503
40
0.0641876506749502
40
0.10471018052815
40
0.14523271038135
40
0.18575524023455
40
0.226277770087749
40
0.266800299940949
40
0.287061564867549
40
0.307322829794149
40
0.327584094720749
40
0.347845359647349
40
0.368106624573948
40
0.388367889500548
40
0.408629154427148
40
0.428890419353748
40
0.449151684280348
40
0.469412949206948
40
0.509935479060148
40
0.530196743986748
40
0.550458008913347
40
0.570719273839947
40
0.590980538766547
40
0.631503068619747
40
0.651764333546347
40
0.672025598472947
40
0.712548128326147
40
0.732809393252746
40
0.753070658179346
40
0.793593188032546
40
0.813854452959146
40
0.834115717885746
40
0.874638247738946
40
0.894899512665545
40
0.915160777592145
40
0.955683307445345
40
0.975944572371945
40
0.996205837298545
40
1
40
1
40
1
40
1
41
1
10
18.288355419847
20
0.586355600459626
30
0
41
1
10
18.4447984400725
20
0.467519197252614
30
0
41
1
10
18.7351316758891
20
0.246612551434566
30
0
41
1
10
19.159218268021
20
-0.0764380279319994
30
0
41
1
10
19.694495507569
20
-0.484061739098905
30
0
41
1
10
20.3633011941157
20
-0.991954517309438
30
0
41
1
10
21.1655872920574
20
-1.5953516869624
30
0
41
1
10
21.9677526370526
20
-2.18917591678155
30
0
41
1
10
22.7699763099269
20
-2.77012207608635
30
0
41
1
10
23.4386748047625
20
-3.24070487078444
30
0
41
1
10
23.9738187185747
20
-3.60732282739224
30
0
41
1
10
24.3752952833532
20
-3.87713331460319
30
0
41
1
10
24.7769084089168
20
-4.14127785882158
30
0
41
1
10
25.1786839260916
20
-4.39931956817162
30
0
41
1
10
25.5806466769621
20
-4.65091784134955
30
0
41
1
10
25.9828010975903
20
-4.89581655616925
30
0
41
1
10
26.3851317836388
20
-5.13347825402366
30
0
41
1
10
26.7876457134128
20
-5.3636228664358
30
0
41
1
10
27.1903377428482
20
-5.58586202390737
30
0
41
1
10
27.7274905724389
20
-5.87116921478855
30
0
41
1
10
28.2649906443036
20
-6.13942341018191
30
0
41
1
10
28.8028257169153
20
-6.38909063330945
30
0
41
1
10
29.2063684479308
20
-6.56693285544273
30
0
41
1
10
29.6100707092802
20
-6.73509436034226
30
0
41
1
10
30.1485375898957
20
-6.94571227290297
30
0
41
1
10
30.6873192073814
20
-7.13586679051721
30
0
41
1
10
31.2262994238827
20
-7.30441211030899
30
0
41
1
10
31.7653842144427
20
-7.45850263808185
30
0
41
1
10
32.3045894485923
20
-7.59014923681022
30
0
41
1
10
32.8438119943094
20
-7.69888380030363
30
0
41
1
10
33.3830124879806
20
-7.79231863261194
30
0
41
1
10
33.9221497431517
20
-7.86218922013438
30
0
41
1
10
34.4611290473421
20
-7.90839631330513
30
0
41
1
10
34.9999721220477
20
-7.93888615757979
30
0
41
1
10
35.5385800909467
20
-7.94535493962797
30
0
41
1
10
36.0768535687287
20
-7.92806433190671
30
0
41
1
10
36.6148722349351
20
-7.89506873266274
30
0
41
1
10
37.1524789135776
20
-7.83822383737453
30
0
41
1
10
37.6895343125762
20
-7.75817698623507
30
0
41
1
10
37.9829793558254
20
-7.70606104421799
30
0
41
1
10
38.1421872989855
20
-7.67507884296631
30
0
41
1
10
38.1672965706639
20
-7.67012541385608
30
0
0
SPLINE
5
12E
100
AcDbEntity
8
1
62
256
6
ByLayer
370
18
48
1
60
0
100
AcDbSpline
70
4
71
3
72
8
73
4
40
0
40
0
40
0
40
0
40
1
40
1
40
1
40
1
41
1
10
51.3057062542544
20
-6.7684903300644
30
0
41
1
10
51.3400109089406
20
-6.96277429834825
30
0
41
1
10
51.3751110708973
20
-7.15612883501169
30
0
41
1
10
51.4110600862187
20
-7.34849161626326
30
0
0
SPLINE
5
12F
100
AcDbEntity
8
1
62
256
6
ByLayer
370
13
48
1
60
0
100
AcDbSpline
70
4
71
3
72
18
73
14
40
0
40
0
40
0
40
0
40
0.0673664468142042
40
0.170554199129328
40
0.273741951444452
40
0.376929703759575
40
0.480117456074699
40
0.583305208389823
40
0.686492960704946
40
0.78968071302007
40
0.892868465335194
40
0.996056217650318
40
1
40
1
40
1
40
1
41
1
10
51.3057062549144
20
-6.76849032984188
30
0
41
1
10
50.8704708366097
20
-6.66838226703521
30
0
41
1
10
49.7685687516382
20
-6.37363243832752
30
0
41
1
10
48.0000000000001
20
-5.72968765177646
30
0
41
1
10
46.0000000000001
20
-4.81518316646665
30
0
41
1
10
44.0000000000001
20
-3.71726419996534
30
0
41
1
10
42.0000000000001
20
-2.50319374689536
30
0
41
1
10
40.0000000000001
20
-1.19910058970964
30
0
41
1
10
38.0000000000001
20
0.150953666868048
30
0
41
1
10
36.0000000000001
20
1.49474977311166
30
0
41
1
10
34.0000000000001
20
2.78330919786737
30
0
41
1
10
32.641187012598
20
3.59476923258316
30
0
41
1
10
31.9490406918626
20
3.9828491594231
30
0
41
1
10
31.9235610377939
20
3.99710083506591
30
0
0
SPLINE
5
130
100
AcDbEntity
8
1
62
256
6
ByLayer
370
18
48
1
60
0
100
AcDbSpline
70
4
71
3
72
8
73
4
40
0
40
0
40
0
40
0
40
1
40
1
40
1
40
1
41
1
10
51.7652897912338
20
-7.64564814128806
30
0
41
1
10
51.753701415538
20
-7.73522939771399
30
0
41
1
10
51.7411136478698
20
-7.82573121933621
30
0
41
1
10
51.7272041601976
20
-7.91745051062409
30
0
0
SPLINE
5
131
100
AcDbEntity
8
1
62
256
6
ByLayer
370
18
48
1
60
0
100
AcDbSpline
70
4
71
3
72
8
73
4
40
0
40
0
40
0
40
0
40
1
40
1
40
1
40
1
41
1
10
51.7652897912378
20
-7.64564814128778
30
0
41
1
10
51.6466435137075
20
-7.5552908836753
30
0
41
1
10
51.5285684372727
20
-7.45621593917198
30
0
41
1
10
51.4110600862182
20
-7.34849161627059
30
0
0
SPLINE
5
132
100
AcDbEntity
8
1
62
256
6
ByLayer
370
18
48
1
60
0
100
AcDbSpline
70
4
71
3
72
100
73
96
40
0
40
0
40
0
40
0
40
0.0330409216637445
40
0.0330409216637445
40
0.0495613824956167
40
0.0495613824956167
40
0.066081843327489
40
0.066081843327489
40
0.0826023041593612
40
0.0826023041593612
40
0.0908625345752978
40
0.0908625345752978
40
0.0991227649912344
40
0.115643225823109
40
0.115643225823109
40
0.132163686654983
40
0.132163686654983
40
0.16520460831873
40
0.16520460831873
40
0.181725069150604
40
0.181725069150604
40
0.198245529982478
40
0.198245529982478
40
0.231286451646226
40
0.231286451646226
40
0.2478069124781
40
0.2478069124781
40
0.264327373309974
40
0.264327373309974
40
0.280847834141847
40
0.280847834141847
40
0.289108064557783
40
0.289108064557783
40
0.29736829497372
40
0.29736829497372
40
0.330409216637465
40
0.330409216637465
40
0.363450138301211
40
0.363450138301211
40
0.396491059964956
40
0.396491059964956
40
0.429531981628702
40
0.429531981628702
40
0.446052442460574
40
0.446052442460574
40
0.462572903292447
40
0.462572903292447
40
0.495613824956192
40
0.495613824956192
40
0.503874055372129
40
0.503874055372129
40
0.512134285788065
40
0.512134285788065
40
0.528654746619936
40
0.528654746619936
40
0.561695668283678
40
0.561695668283678
40
0.578216129115548
40
0.578216129115548
40
0.594736589947419
40
0.594736589947419
40
0.611257050779289
40
0.611257050779289
40
0.627777511611159
40
0.627777511611159
40
0.660818433274899
40
0.660818433274899
40
0.693859354938639
40
0.693859354938639
40
0.710379815770509
40
0.710379815770509
40
0.718640046186443
40
0.718640046186443
40
0.726900276602378
40
0.726900276602378
40
0.759941198266116
40
0.759941198266116
40
0.792982119929853
40
0.792982119929853
40
0.826023041593591
40
0.826023041593591
40
0.859063963257329
40
0.859063963257329
40
0.892104884921067
40
0.892104884921067
40
0.908625345752936
40
0.916885576168871
40
0.916885576168871
40
0.925145806584806
40
0.925145806584806
40
0.958186728248546
40
0.958186728248546
40
0.991227649912287
40
0.991227649912287
40
1
40
1
40
1
40
1
41
1
10
51.4110600862035
20
-7.34849161626909
30
0
41
1
10
51.0818393982817
20
-7.2789391559599
30
0
41
1
10
50.7527395462891
20
-7.19932966014539
30
0
41
1
10
50.2592587073682
20
-7.06487184482805
30
0
41
1
10
50.0947949611412
20
-7.01754208704148
30
0
41
1
10
49.7659235347595
20
-6.91779271142312
30
0
41
1
10
49.6015061371681
20
-6.86537760079756
30
0
41
1
10
49.2725112215817
20
-6.75552052233905
30
0
41
1
10
49.1079328988049
20
-6.69808027845198
30
0
41
1
10
48.8607755797505
20
-6.60827863378432
30
0
41
1
10
48.7784320246119
20
-6.57777061653385
30
0
41
1
10
48.6139440788038
20
-6.51569258216085
30
0
41
1
10
48.367442010441
20
-6.42095991688964
30
0
41
1
10
48.1215088709679
20
-6.32150171682153
30
0
41
1
10
47.7939020370532
20
-6.1848979999377
30
0
41
1
10
47.630260918047
20
-6.11458644395381
30
0
41
1
10
47.1397931519197
20
-5.89773850527473
30
0
41
1
10
46.8134042225724
20
-5.74535350602079
30
0
41
1
10
46.3246355478571
20
-5.50518477579931
30
0
41
1
10
46.1618520933668
20
-5.42318222955072
30
0
41
1
10
45.8365514143302
20
-5.25525668283626
30
0
41
1
10
45.6740324716264
20
-5.16933683327508
30
0
41
1
10
45.1865526518226
20
-4.90602928000848
30
0
41
1
10
44.8616625862149
20
-4.72311776237896
30
0
41
1
10
44.3732850546195
20
-4.43873652830467
30
0
41
1
10
44.210318512368
20
-4.34227254871772
30
0
41
1
10
43.8838067277353
20
-4.14634080762087
30
0
41
1
10
43.720255248862
20
-4.04688538817098
30
0
41
1
10
43.3924910057836
20
-3.84510992671659
30
0
41
1
10
43.2282808483555
20
-3.74278082689702
30
0
41
1
10
42.9814305638591
20
-3.58714103236039
30
0
41
1
10
42.8990578785764
20
-3.53490336462366
30
0
41
1
10
42.7341257398757
20
-3.42971481682179
30
0
41
1
10
42.6515270756586
20
-3.37673826836689
30
0
41
1
10
42.2392339385869
20
-3.11084889897774
30
0
41
1
10
41.9108213124604
20
-2.89436946004395
30
0
41
1
10
41.2562060673651
20
-2.45473225637727
30
0
41
1
10
40.9300200387524
20
-2.23153181278818
30
0
41
1
10
40.2786563268306
20
-1.78021830376909
30
0
41
1
10
39.9534473464278
20
-1.552170204715
30
0
41
1
10
39.3032746958709
20
-1.09214094579284
30
0
41
1
10
38.9782872006548
20
-0.860202392590026
30
0
41
1
10
38.490143572416
20
-0.51057801773365
30
0
41
1
10
38.3273256482115
20
-0.39373633278575
30
0
41
1
10
38.0013800064653
20
-0.15957229721019
30
0
41
1
10
37.8382562102887
20
-0.042239435614448
30
0
41
1
10
37.3481496467944
20
0.310043611069773
30
0
41
1
10
37.0204409515245
20
0.545286446622811
30
0
41
1
10
36.609054147902
20
0.839171339749413
30
0
41
1
10
36.5266751639642
20
0.897949264269272
30
0
41
1
10
36.3617825987538
20
1.01542869476651
30
0
41
1
10
36.2794305988762
20
1.07401379993507
30
0
41
1
10
36.0326083517437
20
1.24926503167168
30
0
41
1
10
35.8683574245669
20
1.36541971053512
30
0
41
1
10
35.3763774725832
20
1.71168268813895
30
0
41
1
10
35.049460493871
20
1.93961773654479
30
0
41
1
10
34.5602062869869
20
2.27641736288183
30
0
41
1
10
34.3972850766491
20
2.38782597223303
30
0
41
1
10
34.0716326141765
20
2.60878983254179
30
0
41
1
10
33.9089134500303
20
2.71834736441974
30
0
41
1
10
33.583603386802
20
2.93546635561319
30
0
41
1
10
33.4210112692889
20
3.04302764609003
30
0
41
1
10
33.0958490418905
20
3.25598570824675
30
0
41
1
10
32.9332768980014
20
3.36138002532672
30
0
41
1
10
32.4452624909161
20
3.67409795658582
30
0
41
1
10
32.1195777020731
20
3.87795255942424
30
0
41
1
10
31.4666528494879
20
4.27505359778917
30
0
41
1
10
31.1394272244148
20
4.46832601284169
30
0
41
1
10
30.6468437041623
20
4.7494224336269
30
0
41
1
10
30.4823577098732
20
4.84165103154749
30
0
41
1
10
30.2351111256706
20
4.97765555999734
30
0
41
1
10
30.1525927858769
20
5.0226085938734
30
0
41
1
10
29.9878781480517
20
5.11143935601433
30
0
41
1
10
29.9056210729076
20
5.15534997967919
30
0
41
1
10
29.4947339998044
20
5.3724202169729
30
0
41
1
10
29.1671774431666
20
5.53828215912103
30
0
41
1
10
28.5136910785956
20
5.85350727412259
30
0
41
1
10
28.1877539179159
20
6.00287258930601
30
0
41
1
10
27.5366634859301
20
6.28412610541534
30
0
41
1
10
27.2115427530061
20
6.41597145772627
30
0
41
1
10
26.5611561910597
20
6.66133978210109
30
0
41
1
10
26.2358280501483
20
6.77498678597075
30
0
41
1
10
25.5838102228465
20
6.98380113676512
30
0
41
1
10
25.2571621124789
20
7.07891859158647
30
0
41
1
10
24.7656882210078
20
7.20693405904029
30
0
41
1
10
24.519572310017
20
7.26727957060658
30
0
41
1
10
24.2727665081898
20
7.32198693414574
30
0
41
1
10
24.1080615384277
20
7.35718755342529
30
0
41
1
10
24.0255825689338
20
7.37416069476282
30
0
41
1
10
23.6132453822236
20
7.45570200872948
30
0
41
1
10
23.2843967565904
20
7.51014450775764
30
0
41
1
10
22.6275411752231
20
7.59796652658741
30
0
41
1
10
22.2996204974759
20
7.63111909915588
30
0
41
1
10
21.8846242230603
20
7.65943575937658
30
0
41
1
10
21.7975572815033
20
7.66461960234375
30
0
41
1
10
21.710479791942
20
7.66904444183297
30
0
0
SPLINE
5
133
100
AcDbEntity
8
1
62
256
6
ByLayer
370
18
48
1
60
0
100
AcDbSpline
70
4
71
3
72
54
73
50
40
0
40
0
40
0
40
0
40
0.0234016556127354
40
0.0360251633142099
40
0.0486486710156845
40
0.0738956864186335
40
0.0991427018215826
40
0.111766209523057
40
0.124389717224532
40
0.137013224926006
40
0.149636732627481
40
0.17488374803043
40
0.200130763433379
40
0.212754271134853
40
0.225377778836328
40
0.238001286537803
40
0.250624794239277
40
0.301118825045175
40
0.31374233274665
40
0.326365840448124
40
0.351612855851073
40
0.376859871254022
40
0.402106886656971
40
0.414730394358446
40
0.427353902059921
40
0.45260091746287
40
0.465224425164344
40
0.477847932865819
40
0.503094948268768
40
0.515718455970242
40
0.528341963671717
40
0.553588979074666
40
0.56621248677614
40
0.578835994477615
40
0.604083009880564
40
0.629330025283513
40
0.654577040686462
40
0.679824056089411
40
0.70507107149236
40
0.755565102298259
40
0.780812117701208
40
0.806059133104157
40
0.831306148507106
40
0.856553163910055
40
0.881800179313004
40
0.907047194715953
40
0.932294210118902
40
0.957541225521851
40
1
40
1
40
1
40
1
41
1
10
19.6132441019706
20
7.92338044845542
30
0
41
1
10
19.863473251433
20
7.91099512587462
30
0
41
1
10
20.2486310073359
20
7.88195658760452
30
0
41
1
10
20.7684772620999
20
7.82226208321339
30
0
41
1
10
21.3078259183466
20
7.74536648656368
30
0
41
1
10
21.9816112376849
20
7.62169397596998
30
0
41
1
10
22.6548851038068
20
7.46198457332508
30
0
41
1
10
23.1931873682213
20
7.31316923507833
30
0
41
1
10
23.5967581263618
20
7.19128578416411
30
0
41
1
10
24.0001810642366
20
7.05921882177083
30
0
41
1
10
24.5378813347517
20
6.86982043698055
30
0
41
1
10
25.2096391965353
20
6.60868571202167
30
0
41
1
10
25.8808943485347
20
6.31664986062296
30
0
41
1
10
26.4175820162941
20
6.06557144767484
30
0
41
1
10
26.819953931977
20
5.86881738448764
30
0
41
1
10
27.2221880273447
20
5.66381592333514
30
0
41
1
10
28.0264152301392
20
5.2378171154285
30
0
41
1
10
28.8301092764199
20
4.77356068214417
30
0
41
1
10
29.6336000461748
20
4.27783949588084
30
0
41
1
10
30.169227271464
20
3.93945710749298
30
0
41
1
10
30.8387509636226
20
3.50213203218615
30
0
41
1
10
31.642235691394
20
2.95756288029742
30
0
41
1
10
32.3119658233558
20
2.4898177460218
30
0
41
1
10
32.8478671251292
20
2.10884403505705
30
0
41
1
10
33.3838549248238
20
1.72387759401443
30
0
41
1
10
33.9199759057983
20
1.33362657828658
30
0
41
1
10
34.4562417607323
20
0.939804284776613
30
0
41
1
10
34.9926099153862
20
0.54413591030854
30
0
41
1
10
35.5291455626544
20
0.146523574535166
30
0
41
1
10
36.065819851366
20
-0.25130030294622
30
0
41
1
10
36.6025794325884
20
-0.648735574209951
30
0
41
1
10
37.1394523464607
20
-1.04469829889584
30
0
41
1
10
37.676411491875
20
-1.43748269730312
30
0
41
1
10
38.213418724687
20
-1.82762337722843
30
0
41
1
10
38.8847588757557
20
-2.30920694446584
30
0
41
1
10
39.6904140080273
20
-2.87410745233015
30
0
41
1
10
40.4960519453486
20
-3.42273803809769
30
0
41
1
10
41.3015452224311
20
-3.95203143490713
30
0
41
1
10
42.375587719923
20
-4.62787859439649
30
0
41
1
10
43.4509569301468
20
-5.25405600233805
30
0
41
1
10
44.5300852382853
20
-5.82100330804221
30
0
41
1
10
45.3418179918454
20
-6.21401094266727
30
0
41
1
10
46.1565841998827
20
-6.57268101600164
30
0
41
1
10
46.9749801272673
20
-6.89470435082384
30
0
41
1
10
47.7977434784073
20
-7.17800650854917
30
0
41
1
10
48.6253959096977
20
-7.4202273929499
30
0
41
1
10
49.4586449423922
20
-7.61943253328772
30
0
41
1
10
50.4887597127689
20
-7.80850775714134
30
0
41
1
10
51.2474685007238
20
-7.88997818000146
30
0
41
1
10
51.7272041767683
20
-7.91745051157304
30
0
0
SPLINE
5
134
100
AcDbEntity
8
1
62
256
6
ByLayer
370
18
48
1
60
0
100
AcDbSpline
70
4
71
3
72
8
73
4
40
0
40
0
40
0
40
0
40
1
40
1
40
1
40
1
41
1
10
51.4475735711893
20
-7.99896049939579
30
0
41
1
10
51.4805032371044
20
-7.99862525353794
30
0
41
1
10
51.5134339215106
20
-7.99837665574202
30
0
41
1
10
51.5463656252628
20
-7.99821477873837
30
0
0
SPLINE
5
135
100
AcDbEntity
8
1
62
256
6
ByLayer
370
18
48
1
60
0
100
AcDbSpline
70
4
71
3
72
9
73
5
40
0
40
0
40
0
40
0
40
0.499825852040604
40
1
40
1
40
1
40
1
41
1
10
17.9521746000112
20
7.99998978438038
30
0
41
1
10
17.9573337045386
20
7.99979385919059
30
0
41
1
10
17.9676555086356
20
7.99940187228356
30
0
41
1
10
17.9779965639903
20
7.99908736232229
30
0
41
1
10
17.9831688925414
20
7.99893005257039
30
0
0
SPLINE
5
136
100
AcDbEntity
8
1
62
256
6
ByLayer
370
13
48
1
60
0
100
AcDbSpline
70
4
71
3
72
13
73
9
40
0
40
0
40
0
40
0
40
0.0718089427483003
40
0.22650745229025
40
0.3812059618322
40
0.53590447137415
40
0.6906029809161
40
1
40
1
40
1
40
1
41
1
10
32.9283727808486
20
1.38877495094712
30
0
41
1
10
32.6189151872324
20
1.60018034041943
30
0
41
1
10
31.6427909269495
20
2.26151586912275
30
0
41
1
10
30
20
3.33177340463288
30
0
41
1
10
28
20
4.52004123990028
30
0
41
1
10
26
20
5.54980964933421
30
0
41
1
10
23.3333333333334
20
6.66798998650103
30
0
41
1
10
21.3333333333333
20
7.17041367970137
30
0
41
1
10
20
20
7.33341067778966
30
0
0
SPLINE
5
137
100
AcDbEntity
8
1
62
256
6
ByLayer
370
18
48
1
60
0
100
AcDbSpline
70
4
71
3
72
8
73
4
40
0
40
0
40
0
40
0
40
1
40
1
40
1
40
1
41
1
10
51.4301089749225
20
0.41382847395306
30
0
41
1
10
51.4641326586611
20
0.410822221064336
30
0
41
1
10
51.4981573455098
20
0.407823107969477
30
0
41
1
10
51.5321830361603
20
0.404831139608632
30
0
0
SPLINE
5
138
100
AcDbEntity
8
1
62
256
6
ByLayer
370
18
48
1
60
0
100
AcDbSpline
70
4
71
3
72
24
73
20
40
0
40
0
40
0
40
0
40
0.0700054859348421
40
0.0966480577801239
40
0.123290629625406
40
0.17657577331597
40
0.229860917006534
40
0.283146060697098
40
0.336431204387661
40
0.389716348078225
40
0.496286635459353
40
0.549571779149916
40
0.60285692284048
40
0.709427210221608
40
0.73606978206689
40
0.762712353912172
40
0.815997497602735
40
0.922567784983863
40
1
40
1
40
1
40
1
41
1
10
36.2412223335425
20
7.93000294364882
30
0
41
1
10
36.5949849587343
20
7.89629954420403
30
0
41
1
10
37.0830980222455
20
7.83289848319043
30
0
41
1
10
37.7052943056179
20
7.72280843112031
30
0
41
1
10
38.2428855928482
20
7.61385469220249
30
0
41
1
10
38.9144677082705
20
7.45201933806703
30
0
41
1
10
39.7197170067651
20
7.21817361848014
30
0
41
1
10
40.5243554217174
20
6.94604697193273
30
0
41
1
10
41.3283706516565
20
6.63711620423877
30
0
41
1
10
42.399970906715
20
6.17813186217083
30
0
41
1
10
43.4723412763111
20
5.65183661709139
30
0
41
1
10
44.5480635494382
20
5.06470949365848
30
0
41
1
10
45.6268906216181
20
4.43943808667422
30
0
41
1
10
46.5762245132138
20
3.84579915948493
30
0
41
1
10
47.3954109141941
20
3.30855293492965
30
0
41
1
10
47.943092369211
20
2.94315256698059
30
0
41
1
10
48.9059683880155
20
2.28582598645878
30
0
41
1
10
50.1440990730214
20
1.40963481972102
30
0
41
1
10
51.1189388131244
20
0.70470430957937
30
0
41
1
10
51.5321830344532
20
0.404831120198992
30
0
0
SPLINE
5
139
100
AcDbEntity
8
1
62
256
6
ByLayer
370
18
48
1
60
0
100
AcDbSpline
70
4
71
3
72
8
73
4
40
0
40
0
40
0
40
0
40
1
40
1
40
1
40
1
41
1
10
51.4301089749223
20
0.413828473953601
30
0
41
1
10
51.4903714254782
20
0.393156033180048
30
0
41
1
10
51.5549288441531
20
0.372235804392375
30
0
41
1
10
51.6246903724415
20
0.351015336986194
30
0
0
SPLINE
5
13A
100
AcDbEntity
8
1
62
256
6
ByLayer
370
13
48
1
60
0
100
AcDbSpline
70
4
71
3
72
19
73
15
40
0
40
0
40
0
40
0
40
0.0036152365211894
40
0.095676430821532
40
0.187737625121875
40
0.279798819422217
40
0.37186001372256
40
0.463921208022902
40
0.555982402323245
40
0.648043596623587
40
0.74010479092393
40
0.832165985224272
40
0.924227179524615
40
1
40
1
40
1
40
1
41
1
10
50.0785398570736
20
1.38893444585821
30
0
41
1
10
50.0523599047157
20
1.40633514570263
30
0
41
1
10
49.3595132856911
20
1.86653048711969
30
0
41
1
10
48
20
2.7528101174787
30
0
41
1
10
46
20
3.96535441112849
30
0
41
1
10
44
20
5.0485816449067
30
0
41
1
10
42
20
5.96422025775325
30
0
41
1
10
40
20
6.68534339934558
30
0
41
1
10
38
20
7.18461853742832
30
0
41
1
10
36
20
7.44959884898711
30
0
41
1
10
34
20
7.46729213143994
30
0
41
1
10
32
20
7.24146870059345
30
0
41
1
10
30.1179532371466
20
6.80278891497781
30
0
41
1
10
28.9025731409598
20
6.39712608318527
30
0
41
1
10
28.3538597114398
20
6.19078698289863
30
0
0
SPLINE
5
13B
100
AcDbEntity
8
1
62
256
6
ByLayer
370
18
48
1
60
0
100
AcDbSpline
70
4
71
3
72
33
73
29
40
0
40
0
40
0
40
0
40
0.140582713475207
40
0.140582713475207
40
0.175728391844009
40
0.175728391844009
40
0.210874070212811
40
0.210874070212811
40
0.281165426950416
40
0.281165426950416
40
0.35145678368802
40
0.35145678368802
40
0.421748140425625
40
0.421748140425625
40
0.562330853900832
40
0.562330853900832
40
0.579903693085232
40
0.579903693085232
40
0.597476532269633
40
0.632622210638433
40
0.632622210638433
40
0.702913567376031
40
0.702913567376031
40
0.843496280851229
40
0.843496280851229
40
0.984078994326426
40
0.984078994326426
40
1
40
1
40
1
40
1
41
1
10
20.0000000000001
20
-1.40865712068009
30
0
41
1
10
20.6613535572349
20
-1.90822282477157
30
0
41
1
10
21.3201751728433
20
-2.39748088343299
30
0
41
1
10
22.146165169849
20
-2.98913360638582
30
0
41
1
10
22.31162130531
20
-3.1065575366074
30
0
41
1
10
22.6415206622813
20
-3.33825448817629
30
0
41
1
10
22.8061086474413
20
-3.45263318359409
30
0
41
1
10
23.2989988063912
20
-3.79116654876472
30
0
41
1
10
23.6264311880699
20
-4.01069336322576
30
0
41
1
10
24.2800176107657
20
-4.43651604723192
30
0
41
1
10
24.6061595458611
20
-4.64285773457448
30
0
41
1
10
25.2582194947262
20
-5.04115850152687
30
0
41
1
10
25.5841392955032
20
-5.23313264632199
30
0
41
1
10
26.5631671228317
20
-5.78600441813489
30
0
41
1
10
27.2175836641144
20
-6.12366150338846
30
0
41
1
10
27.9606248606451
20
-6.46329944313845
30
0
41
1
10
28.0433421861153
20
-6.50050394102425
30
0
41
1
10
28.2085185462265
20
-6.57356479763538
30
0
41
1
10
28.4559891076402
20
-6.68118023372043
30
0
41
1
10
28.7026594890802
20
-6.7828252362745
30
0
41
1
10
29.1951492097467
20
-6.97819721292166
30
0
41
1
10
29.5223383712718
20
-7.09789456324114
30
0
41
1
10
30.5021790160039
20
-7.42429956989736
30
0
41
1
10
31.1531214621812
20
-7.59880072478336
30
0
41
1
10
32.4588588007536
20
-7.85767642286345
30
0
41
1
10
33.1135396403573
20
-7.94215689920486
30
0
41
1
10
33.8493581567923
20
-7.98310238367924
30
0
41
1
10
33.9242539648538
20
-7.98665225845528
30
0
41
1
10
33.9990390954671
20
-7.98958082699312
30
0
0
SPLINE
5
13C
100
AcDbEntity
8
1
62
256
6
ByLayer
370
18
48
1
60
0
100
AcDbSpline
70
4
71
3
72
8
73
4
40
0
40
0
40
0
40
0
40
1
40
1
40
1
40
1
41
1
10
34.3955070635751
20
-7.99932716242409
30
0
41
1
10
34.5019459414388
20
-8.00039183362753
30
0
41
1
10
34.6082512984238
20
-8.00020469876293
30
0
41
1
10
34.714442259615
20
-7.99877393099669
30
0
0
SPLINE
5
13D
100
AcDbEntity
8
1
62
256
6
ByLayer
370
18
48
1
60
0
100
AcDbSpline
70
4
71
3
72
60
73
56
40
0
40
0
40
0
40
0
40
0.0624999999999979
40
0.0624999999999979
40
0.0781249999999976
40
0.0781249999999976
40
0.0937499999999973
40
0.0937499999999973
40
0.124999999999997
40
0.124999999999997
40
0.187499999999995
40
0.187499999999995
40
0.249999999999994
40
0.249999999999994
40
0.257812499999994
40
0.257812499999994
40
0.265624999999994
40
0.265624999999994
40
0.281249999999993
40
0.312499999999991
40
0.312499999999991
40
0.374999999999988
40
0.374999999999988
40
0.437499999999984
40
0.437499999999984
40
0.453124999999983
40
0.453124999999983
40
0.460937499999983
40
0.460937499999983
40
0.468749999999983
40
0.499999999999984
40
0.499999999999984
40
0.562499999999987
40
0.562499999999987
40
0.62499999999999
40
0.62499999999999
40
0.640624999999991
40
0.640624999999991
40
0.648437499999992
40
0.648437499999992
40
0.656249999999992
40
0.656249999999992
40
0.687499999999992
40
0.687499999999992
40
0.749999999999993
40
0.749999999999993
40
0.812499999999994
40
0.812499999999994
40
0.843749999999995
40
0.843749999999995
40
0.874999999999996
40
0.874999999999996
40
0.937499999999998
40
0.937499999999998
40
1
40
1
40
1
40
1
41
1
10
20.0000000000001
20
7.85670311480516
30
0
41
1
10
20.6609083828822
20
7.76372645461544
30
0
41
1
10
21.3194859830625
20
7.62622987045842
30
0
41
1
10
22.1449262138838
20
7.40080893361488
30
0
41
1
10
22.3102741240359
20
7.35299075923268
30
0
41
1
10
22.6400454477197
20
7.25243799391859
30
0
41
1
10
22.8045813220768
20
7.19967727581977
30
0
41
1
10
23.297332931119
20
7.03413998997991
30
0
41
1
10
23.6246955392983
20
6.914103514944
30
0
41
1
10
24.6048056416807
20
6.52634590601517
30
0
41
1
10
25.2555364031707
20
6.23108883048397
30
0
41
1
10
26.5594866147295
20
5.57383936288994
30
0
41
1
10
27.2127460915656
20
5.21175084903325
30
0
41
1
10
27.9535277437549
20
4.77024321329648
30
0
41
1
10
28.0359177935312
20
4.7207119384214
30
0
41
1
10
28.200875137823
20
4.62071061566181
30
0
41
1
10
28.2835027533156
20
4.57020337542181
30
0
41
1
10
28.531203224969
20
4.41758262581033
30
0
41
1
10
29.0254667588373
20
4.10820539275969
30
0
41
1
10
29.5169081592029
20
3.78721128420258
30
0
41
1
10
30.49757657021
20
3.13174324208273
30
0
41
1
10
31.1484435629702
20
2.67684258028231
30
0
41
1
10
32.4520362970329
20
1.74137724322193
30
0
41
1
10
33.104658024679
20
1.26067138118722
30
0
41
1
10
33.9264877660262
20
0.649786462848851
30
0
41
1
10
34.0911580671282
20
0.527112119606841
30
0
41
1
10
34.3387193058935
20
0.342476791483762
30
0
41
1
10
34.4213794056471
20
0.28079258399066
30
0
41
1
10
34.5864184737896
20
0.157597560427973
30
0
41
1
10
34.998558008195
20
-0.150140992631037
30
0
41
1
10
35.4086239120283
20
-0.456357452665202
30
0
41
1
10
36.3902830112737
20
-1.18648203348838
30
0
41
1
10
37.041342468507
20
-1.66690306339257
30
0
41
1
10
38.3445423744771
20
-2.6048473449159
30
0
41
1
10
38.996703663949
20
-3.06234178149197
30
0
41
1
10
39.817504424562
20
-3.61332088508013
30
0
41
1
10
39.9819440146514
20
-3.72247153889356
30
0
41
1
10
40.229113825859
20
-3.88450468151532
30
0
41
1
10
40.3115889905775
20
-3.93823335518581
30
0
41
1
10
40.4767264515459
20
-4.04510280962319
30
0
41
1
10
40.5593492707012
20
-4.09821727472749
30
0
41
1
10
40.9717123053678
20
-4.36146534613087
30
0
41
1
10
41.3001528485226
20
-4.56524411558828
30
0
41
1
10
42.2826995197515
20
-5.15484020498258
30
0
41
1
10
42.9340578845498
20
-5.51901210655504
30
0
41
1
10
44.2372212440697
20
-6.18264551595058
30
0
41
1
10
44.8889454350097
20
-6.48210637449875
30
0
41
1
10
45.8726021130387
20
-6.87704666654073
30
0
41
1
10
46.2015136914524
20
-6.99964159074023
30
0
41
1
10
46.8624143816464
20
-7.22557270285284
30
0
41
1
10
47.1914943610977
20
-7.32790618814946
30
0
41
1
10
48.1761236919084
20
-7.60284196462558
30
0
41
1
10
48.8290452371794
20
-7.74341151384743
30
0
41
1
10
50.135689887092
20
-7.9373709015799
30
0
41
1
10
50.7894194631661
20
-7.99080935039305
30
0
41
1
10
51.4475735711892
20
-7.99896049939582
30
0
0
SPLINE
5
13E
100
AcDbEntity
8
1
62
256
6
ByLayer
370
18
48
1
60
0
100
AcDbSpline
70
4
71
3
72
18
73
14
40
0
40
0
40
0
40
0
40
0.249999999999997
40
0.249999999999997
40
0.499999999999995
40
0.499999999999995
40
0.624999999999992
40
0.624999999999992
40
0.687499999999991
40
0.687499999999991
40
0.74999999999999
40
0.74999999999999
40
1
40
1
40
1
40
1
41
1
10
18.0862852702399
20
-7.99603354492234
30
0
41
1
10
18.0690717282002
20
-7.99893956921289
30
0
41
1
10
18.0581156142155
20
-8.00024961509834
30
0
41
1
10
18.048234929155
20
-7.99967219385505
30
0
41
1
10
18.049311549109
20
-7.99778475942068
30
0
41
1
10
18.0599115356636
20
-7.99254303225766
30
0
41
1
10
18.0649455986608
20
-7.99039393764713
30
0
41
1
10
18.0747722373054
20
-7.98656511326948
30
0
41
1
10
18.0784352231406
20
-7.98518512433574
30
0
41
1
10
18.0864714738342
20
-7.98224287160969
30
0
41
1
10
18.0908458750968
20
-7.98067997820084
30
0
41
1
10
18.1144585221158
20
-7.97242120170392
30
0
41
1
10
18.1389011858178
20
-7.96439422026293
30
0
41
1
10
18.1685262899218
20
-7.95511656695766
30
0
0
SPLINE
5
13F
100
AcDbEntity
8
1
62
256
6
ByLayer
370
18
48
1
60
0
100
AcDbSpline
70
4
71
3
72
8
73
4
40
0
40
0
40
0
40
0
40
1
40
1
40
1
40
1
41
1
10
17.9722048856746
20
0.139849020328626
30
0
41
1
10
17.981559104344
20
0.154336962643356
30
0
41
1
10
17.9911830277653
20
0.16864280539329
30
0
41
1
10
18.0010692717515
20
0.182771570307523
30
0
0
SPLINE
5
140
100
AcDbEntity
8
1
62
256
6
ByLayer
370
18
48
1
60
0
100
AcDbSpline
70
4
71
3
72
10
73
6
40
0
40
0
40
0
40
0
40
0.5
40
0.5
40
1
40
1
40
1
40
1
41
1
10
18.0010692776733
20
0.182771565966846
30
0
41
1
10
18.0109702665655
20
0.271211579944833
30
0
41
1
10
18.0290841413687
20
0.357941781809018
30
0
41
1
10
18.0807897712524
20
0.52798512107006
30
0
41
1
10
18.1141776092701
20
0.610452960713133
30
0
41
1
10
18.1541137301756
20
0.689689301326297
30
0
0
SPLINE
5
141
100
AcDbEntity
8
1
62
256
6
ByLayer
370
18
48
1
60
0
100
AcDbSpline
70
4
71
3
72
17
73
13
40
0
40
0
40
0
40
0
40
0.24999999999999
40
0.49999999999998
40
0.49999999999998
40
0.624999999999975
40
0.624999999999975
40
0.687499999999976
40
0.687499999999976
40
0.749999999999976
40
0.749999999999976
40
1
40
1
40
1
40
1
41
1
10
18.1541137301733
20
0.689689301328002
30
0
41
1
10
18.1406893977328
20
0.779983037337416
30
0
41
1
10
18.125722208295
20
0.959902865772278
30
0
41
1
10
18.1337697590116
20
1.13851324874054
30
0
41
1
10
18.1484493968652
20
1.27198205878713
30
0
41
1
10
18.1547861444979
20
1.31639009259703
30
0
41
1
10
18.1664854890817
20
1.38287935614204
30
0
41
1
10
18.1707601442336
20
1.40506178545979
30
0
41
1
10
18.1799889454451
20
1.44911351076777
30
0
41
1
10
18.1849439079077
20
1.47099623845281
30
0
41
1
10
18.2113855963797
20
1.57971058005563
30
0
41
1
10
18.2378570845991
20
1.66445048985131
30
0
41
1
10
18.269323241188
20
1.74711506773468
30
0
0
SPLINE
5
142
100
AcDbEntity
8
1
62
256
6
ByLayer
370
18
48
1
60
0
100
AcDbSpline
70
4
71
3
72
41
73
37
40
0
40
0
40
0
40
0
40
0.0420439709613152
40
0.0644394288640768
40
0.0868348867668383
40
0.131625802572361
40
0.176416718377884
40
0.221207634183407
40
0.265998549988931
40
0.310789465794453
40
0.333184923697215
40
0.355580381599977
40
0.377975839502738
40
0.4003712974055
40
0.422766755308261
40
0.445162213211023
40
0.467557671113784
40
0.489953129016546
40
0.512348586919307
40
0.534744044822069
40
0.579534960627592
40
0.601930418530353
40
0.624325876433115
40
0.646721334335876
40
0.669116792238638
40
0.713907708044161
40
0.736303165946923
40
0.758698623849684
40
0.803489539655207
40
0.825884997557969
40
0.84828045546073
40
0.893071371266253
40
0.915466829169015
40
0.937862287071776
40
0.9826532028773
40
1
40
1
40
1
40
1
41
1
10
18.0033719691255
20
0.18099279651463
30
0
41
1
10
18.2548757720914
20
-0.0119239251546901
30
0
41
1
10
18.6402523599506
20
-0.307770501056552
30
0
41
1
10
19.1592962118676
20
-0.705123634692768
30
0
41
1
10
19.6945725823722
20
-1.1135188134721
30
0
41
1
10
20.3633812613801
20
-1.62005084621728
30
0
41
1
10
21.1656661001773
20
-2.21808064530526
30
0
41
1
10
21.9678338975224
20
-2.8028881166797
30
0
41
1
10
22.7700548528035
20
-3.37115079622103
30
0
41
1
10
23.4387532561973
20
-3.82821844019341
30
0
41
1
10
23.9738959652245
20
-4.18231641914539
30
0
41
1
10
24.3753712024316
20
-4.44183765699
30
0
41
1
10
24.7769852022068
20
-4.69485959184195
30
0
41
1
10
25.178761530326
20
-4.94097320552623
30
0
41
1
10
25.5807240803414
20
-5.17983723687843
30
0
41
1
10
25.9828767350122
20
-5.41117687312621
30
0
41
1
10
26.3852096378036
20
-5.63454027992327
30
0
41
1
10
26.7877236911338
20
-5.84960704890977
30
0
41
1
10
27.1904142399908
20
-6.0560326223752
30
0
41
1
10
27.7275679998641
20
-6.31934620249814
30
0
41
1
10
28.2650689639117
20
-6.56418849252867
30
0
41
1
10
28.8029028870278
20
-6.78924077777629
30
0
41
1
10
29.2064446400839
20
-6.94799440582645
30
0
41
1
10
29.6101468386346
20
-7.09645222396983
30
0
41
1
10
30.1486179612606
20
-7.28012284608619
30
0
41
1
10
30.6873955634405
20
-7.4422631649642
30
0
41
1
10
31.226377156407
20
-7.58194753419053
30
0
41
1
10
31.7654632711022
20
-7.70648788118777
30
0
41
1
10
32.3046658109071
20
-7.80792097029428
30
0
41
1
10
32.8438894808629
20
-7.88581543645785
30
0
41
1
10
33.3830927705676
20
-7.94790885430771
30
0
41
1
10
33.922226804358
20
-7.98608469535588
30
0
41
1
10
34.461205808635
20
-8.00024533405869
30
0
41
1
10
35.0000501398899
20
-7.9983909398299
30
0
41
1
10
35.5083005747009
20
-7.97393240126544
30
0
41
1
10
35.8816886105409
20
-7.94066172479734
30
0
41
1
10
35.9859079173872
20
-7.93018739289576
30
0
0
SPLINE
5
143
100
AcDbEntity
8
1
62
256
6
ByLayer
370
18
48
1
60
0
100
AcDbSpline
70
4
71
3
72
9
73
5
40
0
40
0
40
0
40
0
40
0.499825761972121
40
1
40
1
40
1
40
1
41
1
10
17.9721950385103
20
0.139835634995109
30
0
41
1
10
17.9773843827626
20
0.146695736030125
30
0
41
1
10
17.9877666892524
20
0.160420720928727
30
0
41
1
10
17.9981689968913
20
0.174133847989282
30
0
41
1
10
18.0033719631883
20
0.180992800867756
30
0
0
SPLINE
5
144
100
AcDbEntity
8
1
62
256
6
ByLayer
370
18
48
1
60
0
100
AcDbSpline
70
4
71
3
72
16
73
12
40
0
40
0
40
0
40
0
40
0.25
40
0.25
40
0.375
40
0.375
40
0.5
40
0.5
40
0.75
40
0.75
40
1
40
1
40
1
40
1
41
1
10
17.9721851204599
20
0.139822515855855
30
0
41
1
10
18.1411420744845
20
0.0101482093533605
30
0
41
1
10
18.3102893090919
20
-0.11948038239268
30
0
41
1
10
18.5639942350885
20
-0.313702144991225
30
0
41
1
10
18.648537791835
20
-0.378396717905815
30
0
41
1
10
18.8175240986861
20
-0.507760764142063
30
0
41
1
10
18.9019602058449
20
-0.572438834682004
30
0
41
1
10
19.155212988277
20
-0.766310062897844
30
0
41
1
10
19.3239896389311
20
-0.895319963009428
30
0
41
1
10
19.6617947156089
20
-1.15238667810024
30
0
41
1
10
19.8308182804882
20
-1.28045009713392
30
0
41
1
10
20.0000000000001
20
-1.40799584180789
30
0
0
SPLINE
5
145
100
AcDbEntity
8
1
62
256
6
ByLayer
370
18
48
1
60
0
100
AcDbSpline
70
4
71
1
72
4
73
2
40
0
40
0
40
1
40
1
41
1
10
19.9999999582552
20
-1.40799584190145
30
0
41
1
10
20.0000000417449
20
-1.40865712058599
30
0
0
SPLINE
5
146
100
AcDbEntity
8
1
62
256
6
ByLayer
370
18
48
1
60
0
100
AcDbSpline
70
4
71
3
72
57
73
53
40
0
40
0
40
0
40
0
40
0.0159151678371398
40
0.0280733448625813
40
0.0402315218880229
40
0.064547875938906
40
0.0767060529643475
40
0.088864229989789
40
0.113180584040672
40
0.137496938091555
40
0.149655115116997
40
0.161813292142438
40
0.17397146916788
40
0.186129646193321
40
0.210446000244205
40
0.234762354295087
40
0.246920531320529
40
0.259078708345971
40
0.271236885371412
40
0.283395062396854
40
0.33202777049862
40
0.344185947524062
40
0.356344124549503
40
0.380660478600386
40
0.404976832651269
40
0.429293186702152
40
0.441451363727594
40
0.453609540753035
40
0.477925894803918
40
0.49008407182936
40
0.502242248854802
40
0.526558602905685
40
0.538716779931126
40
0.550874956956568
40
0.575191311007451
40
0.587349488032892
40
0.599507665058334
40
0.623824019109217
40
0.6481403731601
40
0.672456727210983
40
0.696773081261866
40
0.721089435312749
40
0.769722143414515
40
0.794038497465398
40
0.818354851516282
40
0.842671205567165
40
0.866987559618048
40
0.891303913668931
40
0.915620267719814
40
0.939936621770697
40
0.96425297582158
40
1
40
1
40
1
40
1
41
1
10
18.2141938277638
20
7.99824703691172
30
0
41
1
10
18.3908473536049
20
7.99630424499361
30
0
41
1
10
18.7025064510544
20
7.98712864271644
30
0
41
1
10
19.1491996023841
20
7.95943092438864
30
0
41
1
10
19.6891659860502
20
7.91077235597945
30
0
41
1
10
20.2290328313942
20
7.83951844562313
30
0
41
1
10
20.7685994059549
20
7.74596913940772
30
0
41
1
10
21.3079461947514
20
7.63772615496265
30
0
41
1
10
21.9817308614431
20
7.47523783168199
30
0
41
1
10
22.6549996972869
20
7.277408783738
30
0
41
1
10
23.1933056595613
20
7.09870175261696
30
0
41
1
10
23.5968829214777
20
6.95465745532923
30
0
41
1
10
24.0003093031175
20
6.80077063482793
30
0
41
1
10
24.5380075852166
20
6.58284246156293
30
0
41
1
10
25.2097539834613
20
6.28709804200975
30
0
41
1
10
25.880999811935
20
5.96197237921811
30
0
41
1
10
26.4176969869809
20
5.68540046791799
30
0
41
1
10
26.8200781943403
20
5.47000037264132
30
0
41
1
10
27.2223161413433
20
5.24694040331119
30
0
41
1
10
28.0265414577607
20
4.78615150581857
30
0
41
1
10
28.8302325392044
20
4.2903711528846
30
0
41
1
10
29.6337235301352
20
3.76643443393107
30
0
41
1
10
30.1693478983149
20
3.41009715238655
30
0
41
1
10
30.8388595983112
20
2.95230286895955
30
0
41
1
10
31.6423546446411
20
2.38630310188796
30
0
41
1
10
32.3120919573522
20
1.90338162694559
30
0
41
1
10
32.84799415165
20
1.51189597996716
30
0
41
1
10
33.3839757709598
20
1.11750589916238
30
0
41
1
10
33.9200912063846
20
0.719571728907397
30
0
41
1
10
34.4563577974927
20
0.319786230724645
30
0
41
1
10
34.9927304374561
20
-0.0806843573129754
30
0
41
1
10
35.5292666725688
20
-0.48132651389443
30
0
41
1
10
36.0659410808384
20
-0.880424125562001
30
0
41
1
10
36.6026979479663
20
-1.27793798884395
30
0
41
1
10
37.1395700296775
20
-1.6722058753968
30
0
41
1
10
37.6765315101114
20
-2.06153187722887
30
0
41
1
10
38.2135413884643
20
-2.4470124137319
30
0
41
1
10
38.8848809151294
20
-2.92060716473011
30
0
41
1
10
39.6905343682621
20
-3.47245064527144
30
0
41
1
10
40.4961734608255
20
-4.00467910076969
30
0
41
1
10
41.3016645494642
20
-4.51417325094371
30
0
41
1
10
42.3757054190835
20
-5.15946989717889
30
0
41
1
10
43.451107025931
20
-5.74909804461626
30
0
41
1
10
44.5301948790824
20
-6.27361173142862
30
0
41
1
10
45.3419336505394
20
-6.6322102903784
30
0
41
1
10
46.1567011518454
20
-6.95391845453835
30
0
41
1
10
46.9751191754548
20
-7.23662498536257
30
0
41
1
10
47.7978562767367
20
-7.478294533314
30
0
41
1
10
48.6255217670963
20
-7.67692749521362
30
0
41
1
10
49.4587427902582
20
-7.83063929113291
30
0
41
1
10
50.429709146303
20
-7.95444858853196
30
0
41
1
10
51.1279341331543
20
-7.99337553100059
30
0
41
1
10
51.5463656252632
20
-7.99821477873837
30
0
0
SPLINE
5
147
100
AcDbEntity
8
1
62
256
6
ByLayer
370
18
48
1
60
0
100
AcDbSpline
70
4
71
3
72
16
73
12
40
0
40
0
40
0
40
0
40
0.249999999999997
40
0.249999999999997
40
0.499999999999994
40
0.499999999999994
40
0.624999999999998
40
0.624999999999998
40
0.750000000000003
40
0.750000000000003
40
1
40
1
40
1
40
1
41
1
10
19.9999999999939
20
7.85671888628471
30
0
41
1
10
19.8290807276335
20
7.88071553850142
30
0
41
1
10
19.6583417555821
20
7.90172219394083
30
0
41
1
10
19.3172458589328
20
7.93774502582832
30
0
41
1
10
19.1468687061036
20
7.95275161612389
30
0
41
1
10
18.8911692837431
20
7.97069186440666
30
0
41
1
10
18.8059160648903
20
7.97591129087562
30
0
41
1
10
18.6352971822578
20
7.98482609597122
30
0
41
1
10
18.5499378661296
20
7.98852276200688
30
0
41
1
10
18.2937970229242
20
7.99734047275828
30
0
41
1
10
18.1229056684083
20
8.00019049257384
30
0
41
1
10
17.9521658476648
20
7.99999012786637
30
0
0
SPLINE
5
148
100
AcDbEntity
8
1
62
256
6
ByLayer
370
18
48
1
60
0
100
AcDbSpline
70
4
71
3
72
53
73
49
40
0
40
0
40
0
40
0
40
0.0124472904817018
40
0.0124472904817018
40
0.0330213052633323
40
0.0330213052633323
40
0.0433083126541482
40
0.0433083126541482
40
0.053595320044964
40
0.053595320044964
40
0.0947433496082261
40
0.0947433496082261
40
0.17703940873475
40
0.17703940873475
40
0.259335467861275
40
0.259335467861275
40
0.300483497424537
40
0.300483497424537
40
0.310770504815353
40
0.310770504815353
40
0.321057512206169
40
0.3416315269878
40
0.3416315269878
40
0.423927586114327
40
0.423927586114327
40
0.506223645240853
40
0.506223645240853
40
0.547371674804117
40
0.547371674804117
40
0.567945689585749
40
0.567945689585749
40
0.578232696976564
40
0.578232696976564
40
0.58851970436738
40
0.58851970436738
40
0.670815763493904
40
0.670815763493904
40
0.753111822620428
40
0.753111822620428
40
0.835407881746952
40
0.835407881746952
40
0.845694889137768
40
0.845694889137768
40
0.855981896528583
40
0.876555911310214
40
0.917703940873476
40
0.917703940873476
40
1
40
1
40
1
40
1
41
1
10
27.5649418776001
20
6.37669629266068
30
0
41
1
10
27.6640363264094
20
6.42018068278347
30
0
41
1
10
27.7632190368763
20
6.46293077163637
30
0
41
1
10
28.0266068241532
20
6.57435457917146
30
0
41
1
10
28.1909889551983
20
6.64171513564403
30
0
41
1
10
28.4380646715997
20
6.73956855306145
30
0
41
1
10
28.5205068799577
20
6.77165584532696
30
0
41
1
10
28.6855733717229
20
6.83475320319599
30
0
41
1
10
28.768019115661
20
6.86569494193296
30
0
41
1
10
29.179811715463
20
7.01734988027704
30
0
41
1
10
29.5078909218996
20
7.12890965457484
30
0
41
1
10
30.4894946067834
20
7.43406862154023
30
0
41
1
10
31.1404067350772
20
7.5981973468061
30
0
41
1
10
32.4423192844058
20
7.84539771852337
30
0
41
1
10
33.0932366716032
20
7.92860539107059
30
0
41
1
10
34.0749151865829
20
7.99053251864211
30
0
41
1
10
34.4030303171576
20
8.00068279959717
30
0
41
1
10
34.8148908580579
20
7.99988496809093
30
0
41
1
10
34.8973706493263
20
7.99905074369175
30
0
41
1
10
35.0624250105662
20
7.99602793435943
30
0
41
1
10
35.30973427763
20
7.98947156934599
30
0
41
1
10
35.5562949926414
20
7.97690585370776
30
0
41
1
10
36.3767840480756
20
7.92187928592423
30
0
41
1
10
37.0287305965878
20
7.83592314698592
30
0
41
1
10
38.330956691274
20
7.58335434471914
30
0
41
1
10
38.981274380994
20
7.4166700675747
30
0
41
1
10
39.9608098466179
20
7.10857508353746
30
0
41
1
10
40.2879871304086
20
6.99617879333462
30
0
41
1
10
40.780426796622
20
6.813186123485
30
0
41
1
10
40.9448534334099
20
6.74978903522788
30
0
41
1
10
41.1920041347327
20
6.65111573133166
30
0
41
1
10
41.2745144733945
20
6.61761106024616
30
0
41
1
10
41.4395317812192
20
6.54949046119762
30
0
41
1
10
41.5219495473876
20
6.51491208239855
30
0
41
1
10
42.2629610229259
20
6.19913157475375
30
0
41
1
10
42.9163590192587
20
5.8860119716453
30
0
41
1
10
44.2198939253756
20
5.20340587965933
30
0
41
1
10
44.8699597291596
20
4.83379438742386
30
0
41
1
10
46.1736966153919
20
4.04575465151223
30
0
41
1
10
46.8273800473929
20
3.62731960724221
30
0
41
1
10
47.5690016644134
20
3.13318449168133
30
0
41
1
10
47.6515350494414
20
3.07792580918399
30
0
41
1
10
47.8165683594234
20
2.96692139177114
30
0
41
1
10
48.0639353908594
20
2.79977464010409
30
0
41
1
10
48.6399869985054
20
2.40548536490317
30
0
41
1
10
49.1323081925163
20
2.06090031759297
30
0
41
1
10
50.1164140184026
20
1.36478618878218
30
0
41
1
10
50.7717736517442
20
0.891461079401324
30
0
41
1
10
51.4301089749225
20
0.413828473953202
30
0
0
SPLINE
5
149
100
AcDbEntity
8
1
62
256
6
ByLayer
370
18
48
1
60
0
100
AcDbSpline
70
4
71
3
72
18
73
14
40
0
40
0
40
0
40
0
40
0.153338551100977
40
0.276916037404906
40
0.374061421373617
40
0.44851096237853
40
0.530643546793485
40
0.634672835964956
40
0.713461353255327
40
0.775240638104352
40
0.839387765620339
40
0.913465403444837
40
1
40
1
40
1
40
1
41
1
10
21.3848628905688
20
-7.02623221946121
30
0
41
1
10
21.7061542840855
20
-7.01544697420985
30
0
41
1
10
22.2776676385644
20
-6.98780955042042
30
0
41
1
10
23.0309077515261
20
-6.9297663235879
30
0
41
1
10
23.6084257375082
20
-6.8725767046021
30
0
41
1
10
24.1252104791568
20
-6.81220600288992
30
0
41
1
10
24.657224973763
20
-6.74156534291038
30
0
41
1
10
25.1942676379599
20
-6.66035010933444
30
0
41
1
10
25.6911499714368
20
-6.57658803342019
30
0
41
1
10
26.1092248016649
20
-6.50056371814131
30
0
41
1
10
26.5147875626308
20
-6.42213950286194
30
0
41
1
10
26.965924061082
20
-6.3293567256201
30
0
41
1
10
27.2905409118955
20
-6.25803297576951
30
0
41
1
10
27.4658303614385
20
-6.21821431892141
30
0
0
SPLINE
5
14A
100
AcDbEntity
8
1
62
256
6
ByLayer
370
18
48
1
60
0
100
AcDbSpline
70
4
71
1
72
4
73
2
40
0
40
0
40
1
40
1
41
1
10
49.3417550571756
20
4.86446564219793
30
0
41
1
10
49.1680615145043
20
4.93374019626887
30
0
0
SPLINE
5
14B
100
AcDbEntity
8
1
62
256
6
ByLayer
370
18
48
1
60
0
100
AcDbSpline
70
4
71
3
72
9
73
5
40
0
40
0
40
0
40
0
40
0.541903854917283
40
1
40
1
40
1
40
1
41
1
10
45.350728819339
20
6.18414248415115
30
0
41
1
10
45.1027224266512
20
6.24233088154398
30
0
41
1
10
44.6533588211266
20
6.34347876806197
30
0
41
1
10
44.2316161494488
20
6.43145945843347
30
0
41
1
10
44.0368432857587
20
6.4699999436167
30
0
0
SPLINE
5
14C
100
AcDbEntity
8
1
62
256
6
ByLayer
370
18
48
1
60
0
100
AcDbSpline
70
4
71
3
72
14
73
10
40
0
40
0
40
0
40
0
40
0.186385728030563
40
0.331793204294511
40
0.436443223675478
40
0.504471795397025
40
0.619374852665164
40
0.784669864138914
40
1
40
1
40
1
40
1
41
1
10
35.9446169406685
20
3.61894041278708
30
0
41
1
10
35.8076627627828
20
3.65549746459419
30
0
41
1
10
35.563628870859
20
3.72458544406695
30
0
41
1
10
35.2420519986913
20
3.82489006292971
30
0
41
1
10
35.0074044477962
20
3.90311120528617
30
0
41
1
10
34.795325308126
20
3.9769294153067
30
0
41
1
10
34.5391593402411
20
4.07005278029385
30
0
41
1
10
34.1742523134187
20
4.21126560766973
30
0
41
1
10
33.8933902146431
20
4.32875007124503
30
0
41
1
10
33.7343330756455
20
4.3981056024104
30
0
0
SPLINE
5
14D
100
AcDbEntity
8
1
62
256
6
ByLayer
370
18
48
1
60
0
100
AcDbSpline
70
4
71
3
72
15
73
11
40
0
40
0
40
0
40
0
40
0.216611987708061
40
0.396440890041743
40
0.539705435873427
40
0.649074349605641
40
0.742181704376461
40
0.845219639731012
40
0.959899341585579
40
1
40
1
40
1
40
1
41
1
10
30.9294151911764
20
5.45646493170713
30
0
41
1
10
30.6486530227553
20
5.54484233467875
30
0
41
1
10
30.1359070383233
20
5.7006122995231
30
0
41
1
10
29.4399427972527
20
5.8982519571228
30
0
41
1
10
28.8850274625071
20
6.04621512908145
30
0
41
1
10
28.4490887168477
20
6.15627099719597
30
0
41
1
10
28.0608454314795
20
6.24955911432059
30
0
41
1
10
27.6581142214726
20
6.34174655346825
30
0
41
1
10
27.3236553980734
20
6.41366451085116
30
0
41
1
10
27.1238451752694
20
6.45465250880125
30
0
41
1
10
27.0721229199581
20
6.46512873414375
30
0
0
SPLINE
5
14E
100
AcDbEntity
8
1
62
256
6
ByLayer
370
18
48
1
60
0
100
AcDbSpline
70
4
71
3
72
20
73
16
40
0
40
0
40
0
40
0
40
0.0788296843887773
40
0.15348664806449
40
0.224163761165605
40
0.288359082709577
40
0.346097033675465
40
0.409568386481015
40
0.493831864968362
40
0.605197139333892
40
0.674089227721834
40
0.749821378987666
40
0.850631662541075
40
0.969990424031595
40
1
40
1
40
1
40
1
41
1
10
38.8255785368042
20
-7.0258029215604
30
0
41
1
10
38.9843070294937
20
-7.01963434471503
30
0
41
1
10
39.2854402853493
20
-7.00588868602554
30
0
41
1
10
39.7058647953849
20
-6.97965953164353
30
0
41
1
10
40.0731680003844
20
-6.95299611669321
30
0
41
1
10
40.4227570005773
20
-6.92124157461416
30
0
41
1
10
40.7646457328509
20
-6.88566445939793
30
0
41
1
10
41.1487170853075
20
-6.84067602989771
30
0
41
1
10
41.6319334650246
20
-6.77648671052941
30
0
41
1
10
42.1243859538478
20
-6.70114827606767
30
0
41
1
10
42.6070757678508
20
-6.61825936812235
30
0
41
1
10
43.0603940470355
20
-6.53378687955134
30
0
41
1
10
43.5977226264866
20
-6.42384830076875
30
0
41
1
10
44.0653972758164
20
-6.3181537469454
30
0
41
1
10
44.3461268564537
20
-6.25061655036524
30
0
41
1
10
44.40259999416
20
-6.23686668731617
30
0
0
LINE
5
77
100
AcDbEntity
8
80
62
256
6
ByLayer
370
18
48
1
60
0
100
AcDbLine
10
0
20
0
30
0
11
-5
21
0
31
0
39
0
210
0
220
0
230
1
0
LINE
5
78
100
AcDbEntity
8
4
62
256
6
ByLayer
370
18
48
0.05
60
0
100
AcDbLine
10
0
20
0
30
0
11
52
21
0
31
0
39
0
210
0
220
0
230
1
0
LINE
5
7A
100
AcDbEntity
8
81
62
256
6
ByLayer
370
18
48
1
60
0
100
AcDbLine
10
52
20
0
30
0
11
57
21
0
31
0
39
0
210
0
220
0
230
1
0
LINE
5
7B
100
AcDbEntity
8
SK4
62
256
6
ByLayer
370
18
48
0.05
60
0
100
AcDbLine
10
-48
20
0
30
0
11
52
21
0
31
0
39
0
210
0
220
0
230
1
0
LINE
5
7D
100
AcDbEntity
8
1
62
256
6
ByLayer
370
18
48
1
60
0
100
AcDbLine
10
0
20
8
30
0
11
0
21
0
31
0
39
0
210
0
220
0
230
1
0
LINE
5
7E
100
AcDbEntity
8
1
62
256
6
ByLayer
370
18
48
1
60
0
100
AcDbLine
10
0
20
0
30
0
11
0
21
-8
31
0
39
0
210
0
220
0
230
1
0
LINE
5
7F
100
AcDbEntity
8
1
62
256
6
ByLayer
370
18
48
1
60
0
100
AcDbLine
10
51.863719
20
-0.574568
30
0
11
51.807309
21
-0.72236
31
0
39
0
210
0
220
0
230
1
0
LINE
5
80
100
AcDbEntity
8
1
62
256
6
ByLayer
370
18
48
1
60
0
100
AcDbLine
10
51.994989
20
0.468732
30
0
11
51.987346
21
0.407992
31
0
39
0
210
0
220
0
230
1
0
LINE
5
81
100
AcDbEntity
8
1
62
256
6
ByLayer
370
18
48
1
60
0
100
AcDbLine
10
51.970384
20
0.273178
30
0
11
51.863719
21
-0.574568
31
0
39
0
210
0
220
0
230
1
0
LINE
5
82
100
AcDbEntity
8
1
62
256
6
ByLayer
370
18
48
1
60
0
100
AcDbLine
10
51.863719
20
-0.574568
30
0
11
51.804681
21
-0.623157
31
0
39
0
210
0
220
0
230
1
0
LINE
5
83
100
AcDbEntity
8
1
62
256
6
ByLayer
370
18
48
1
60
0
100
AcDbLine
10
51.979706
20
0.467724
30
0
11
51.994989
21
0.468732
31
0
39
0
210
0
220
0
230
1
0
LINE
5
84
100
AcDbEntity
8
1
62
256
6
ByLayer
370
18
48
1
60
0
100
AcDbLine
10
51.98117
20
0.456273
30
0
11
51.994989
21
0.468732
31
0
39
0
210
0
220
0
230
1
0
LINE
5
85
100
AcDbEntity
8
1
62
256
6
ByLayer
370
18
48
1
60
0
100
AcDbLine
10
51.796761
20
-0.324334
30
0
11
51.828578
21
-0.02327
31
0
39
0
210
0
220
0
230
1
0
LINE
5
86
100
AcDbEntity
8
1
62
256
6
ByLayer
370
18
48
1
60
0
100
AcDbLine
10
51.823168
20
7.967676
30
0
11
51.994989
21
7.797699
31
0
39
0
210
0
220
0
230
1
0
LINE
5
87
100
AcDbEntity
8
1
62
256
6
ByLayer
370
18
48
1
60
0
100
AcDbLine
10
51.82699
20
1.471745
30
0
11
51.994989
21
7.797699
31
0
39
0
210
0
220
0
230
1
0
LINE
5
88
100
AcDbEntity
8
1
62
256
6
ByLayer
370
18
48
1
60
0
100
AcDbLine
10
51.788787
20
-0.023407
30
0
11
51.994989
21
-7.805102
31
0
39
0
210
0
220
0
230
1
0
LINE
5
89
100
AcDbEntity
8
1
62
256
6
ByLayer
370
18
48
1
60
0
100
AcDbLine
10
51.755913
20
-0.095668
30
0
11
51.777414
21
-0.023349
31
0
39
0
210
0
220
0
230
1
0
LINE
5
8A
100
AcDbEntity
8
1
62
256
6
ByLayer
370
18
48
1
60
0
100
AcDbLine
10
51.753598
20
-0.094113
30
0
11
51.755913
21
-0.095668
31
0
39
0
210
0
220
0
230
1
0
LINE
5
8B
100
AcDbEntity
8
1
62
256
6
ByLayer
370
18
48
1
60
0
100
AcDbLine
10
51.753759
20
-0.023389
30
0
11
51.753598
21
-0.094113
31
0
39
0
210
0
220
0
230
1
0
LINE
5
8C
100
AcDbEntity
8
1
62
256
6
ByLayer
370
18
48
1
60
0
100
AcDbLine
10
51.729511
20
-0.432991
30
0
11
51.720613
21
-0.023451
31
0
39
0
210
0
220
0
230
1
0
LINE
5
8D
100
AcDbEntity
8
1
62
256
6
ByLayer
370
18
48
1
60
0
100
AcDbLine
10
51.822487
20
-7.976675
30
0
11
51.994989
21
-7.805102
31
0
39
0
210
0
220
0
230
1
0
LINE
5
8E
100
AcDbEntity
8
1
62
256
6
ByLayer
370
18
48
1
60
0
100
AcDbLine
10
51.994989
20
-7.805102
30
0
11
51.863719
21
-7.623578
31
0
39
0
210
0
220
0
230
1
0
LINE
5
8F
100
AcDbEntity
8
1
62
256
6
ByLayer
370
13
48
1
60
0
100
AcDbLine
10
51.358976
20
-0.024019
30
0
11
51.729511
21
-0.432991
31
0
39
0
210
0
220
0
230
1
0
LINE
5
90
100
AcDbEntity
8
1
62
256
6
ByLayer
370
13
48
1
60
0
100
AcDbLine
10
19.130991
20
7.909612
30
0
11
20
21
7.333411
31
0
39
0
210
0
220
0
230
1
0
LINE
5
91
100
AcDbEntity
8
1
62
256
6
ByLayer
370
13
48
1
60
0
100
AcDbLine
10
13.694696
20
7.821215
30
0
11
20
21
3.640443
31
0
39
0
210
0
220
0
230
1
0
LINE
5
92
100
AcDbEntity
8
1
62
256
6
ByLayer
370
18
48
1
60
0
100
AcDbLine
10
20
20
-7.201185
30
0
11
20
21
-7.688021
31
0
39
0
210
0
220
0
230
1
0
LINE
5
93
100
AcDbEntity
8
1
62
256
6
ByLayer
370
13
48
1
60
0
100
AcDbLine
10
13.918738
20
-6.91596
30
0
11
20
21
-7.201185
31
0
39
0
210
0
220
0
230
1
0
LINE
5
94
100
AcDbEntity
8
1
62
256
6
ByLayer
370
18
48
1
60
0
100
AcDbLine
10
20
20
-7.201185
30
0
11
20
21
-7.015735
31
0
39
0
210
0
220
0
230
1
0
LINE
5
95
100
AcDbEntity
8
1
62
256
6
ByLayer
370
18
48
1
60
0
100
AcDbLine
10
20
20
3.494521
30
0
11
20
21
3.640443
31
0
39
0
210
0
220
0
230
1
0
LINE
5
96
100
AcDbEntity
8
1
62
256
6
ByLayer
370
18
48
1
60
0
100
AcDbLine
10
51.863719
20
-7.623578
30
0
11
51.76529
21
-7.645648
31
0
39
0
210
0
220
0
230
1
0
LINE
5
97
100
AcDbEntity
8
1
62
256
6
ByLayer
370
18
48
1
60
0
100
AcDbLine
10
51.863719
20
-7.623578
30
0
11
51.707318
21
-1.657824
31
0
39
0
210
0
220
0
230
1
0
LINE
5
98
100
AcDbEntity
8
1
62
256
6
ByLayer
370
18
48
1
60
0
100
AcDbLine
10
50.404349
20
-3.573492
30
0
11
51.706086
21
-1.659644
31
0
39
0
210
0
220
0
230
1
0
LINE
5
99
100
AcDbEntity
8
1
62
256
6
ByLayer
370
13
48
1
60
0
100
AcDbLine
10
51.706086
20
-1.659644
30
0
11
47.512027
21
-0.967846
31
0
39
0
210
0
220
0
230
1
0
LINE
5
9A
100
AcDbEntity
8
1
62
256
6
ByLayer
370
13
48
1
60
0
100
AcDbLine
10
13.895089
20
-6.7294
30
0
11
20
21
-7.015735
31
0
39
0
210
0
220
0
230
1
0
LINE
5
9B
100
AcDbEntity
8
1
62
256
6
ByLayer
370
18
48
1
60
0
100
AcDbLine
10
20
20
-7.015735
30
0
11
20
21
-6.184982
31
0
39
0
210
0
220
0
230
1
0
LINE
5
9C
100
AcDbEntity
8
1
62
256
6
ByLayer
370
13
48
1
60
0
100
AcDbLine
10
13.613215
20
7.729318
30
0
11
20
21
3.494521
31
0
39
0
210
0
220
0
230
1
0
LINE
5
9D
100
AcDbEntity
8
1
62
256
6
ByLayer
370
18
48
1
60
0
100
AcDbLine
10
20
20
2.633836
30
0
11
20
21
3.494521
31
0
39
0
210
0
220
0
230
1
0
LINE
5
9E
100
AcDbEntity
8
1
62
256
6
ByLayer
370
18
48
1
60
0
100
AcDbLine
10
15.258141
20
5.777955
30
0
11
20
21
2.633836
31
0
39
0
210
0
220
0
230
1
0
LINE
5
9F
100
AcDbEntity
8
1
62
256
6
ByLayer
370
18
48
1
60
0
100
AcDbLine
10
20
20
1.293671
30
0
11
20
21
2.633836
31
0
39
0
210
0
220
0
230
1
0
LINE
5
A0
100
AcDbEntity
8
1
62
256
6
ByLayer
370
13
48
1
60
0
100
AcDbLine
10
14.336897
20
5.048627
30
0
11
20
21
1.293671
31
0
39
0
210
0
220
0
230
1
0
LINE
5
A1
100
AcDbEntity
8
1
62
256
6
ByLayer
370
18
48
1
60
0
100
AcDbLine
10
20
20
1.025873
30
0
11
20
21
1.293671
31
0
39
0
210
0
220
0
230
1
0
LINE
5
A2
100
AcDbEntity
8
1
62
256
6
ByLayer
370
18
48
1
60
0
100
AcDbLine
10
20
20
3.640443
30
0
11
20
21
7.333411
31
0
39
0
210
0
220
0
230
1
0
LINE
5
A3
100
AcDbEntity
8
1
62
256
6
ByLayer
370
18
48
1
60
0
100
AcDbLine
10
14.845893
20
-5.943242
30
0
11
20
21
-6.184982
31
0
39
0
210
0
220
0
230
1
0
LINE
5
A4
100
AcDbEntity
8
1
62
256
6
ByLayer
370
18
48
1
60
0
100
AcDbLine
10
20
20
-6.184982
30
0
11
20
21
-3.027581
31
0
39
0
210
0
220
0
230
1
0
LINE
5
A5
100
AcDbEntity
8
1
62
256
6
ByLayer
370
13
48
1
60
0
100
AcDbLine
10
13.403561
20
-2.718192
30
0
11
20
21
-3.027581
31
0
39
0
210
0
220
0
230
1
0
LINE
5
A6
100
AcDbEntity
8
1
62
256
6
ByLayer
370
18
48
1
60
0
100
AcDbLine
10
20
20
-3.027581
30
0
11
20
21
-2.425378
31
0
39
0
210
0
220
0
230
1
0
LINE
5
A7
100
AcDbEntity
8
1
62
256
6
ByLayer
370
13
48
1
60
0
100
AcDbLine
10
14.358608
20
4.766433
30
0
11
20
21
1.025873
31
0
39
0
210
0
220
0
230
1
0
LINE
5
A8
100
AcDbEntity
8
1
62
256
6
ByLayer
370
18
48
1
60
0
100
AcDbLine
10
51.994989
20
0.348258
30
0
11
51.863719
21
1.374447
31
0
39
0
210
0
220
0
230
1
0
LINE
5
A9
100
AcDbEntity
8
1
62
256
6
ByLayer
370
18
48
1
60
0
100
AcDbLine
10
51.863719
20
1.374447
30
0
11
51.766013
21
1.633199
31
0
39
0
210
0
220
0
230
1
0
LINE
5
AA
100
AcDbEntity
8
1
62
256
6
ByLayer
370
18
48
1
60
0
100
AcDbLine
10
51.822893
20
0.377558
30
0
11
51.994989
21
0.348258
31
0
39
0
210
0
220
0
230
1
0
LINE
5
AB
100
AcDbEntity
8
1
62
256
6
ByLayer
370
13
48
1
60
0
100
AcDbLine
10
48.687468
20
0.370734
30
0
11
51.083784
21
-0.024531
31
0
39
0
210
0
220
0
230
1
0
LINE
5
AC
100
AcDbEntity
8
1
62
256
6
ByLayer
370
18
48
1
60
0
100
AcDbLine
10
51.873247
20
-0.023186
30
0
11
51.083784
21
-0.024531
31
0
39
0
210
0
220
0
230
1
0
LINE
5
AD
100
AcDbEntity
8
1
62
256
6
ByLayer
370
18
48
1
60
0
100
AcDbLine
10
51.873247
20
-0.023186
30
0
11
51.994989
21
0.348258
31
0
39
0
210
0
220
0
230
1
0
LINE
5
AE
100
AcDbEntity
8
1
62
256
6
ByLayer
370
13
48
1
60
0
100
AcDbLine
10
13.521433
20
-2.121517
30
0
11
20
21
-2.425378
31
0
39
0
210
0
220
0
230
1
0
LINE
5
AF
100
AcDbEntity
8
1
62
256
6
ByLayer
370
18
48
1
60
0
100
AcDbLine
10
20
20
-1.408651
30
0
11
20
21
-2.425378
31
0
39
0
210
0
220
0
230
1
0
LINE
5
B0
100
AcDbEntity
8
1
62
256
6
ByLayer
370
18
48
1
60
0
100
AcDbLine
10
20
20
1.025873
30
0
11
20
21
0.778534
31
0
39
0
210
0
220
0
230
1
0
LINE
5
B1
100
AcDbEntity
8
1
62
256
6
ByLayer
370
18
48
1
60
0
100
AcDbLine
10
20
20
7.856702
30
0
11
20
21
7.856719
31
0
39
0
210
0
220
0
230
1
0
LINE
5
B2
100
AcDbEntity
8
1
62
256
6
ByLayer
370
18
48
1
60
0
100
AcDbLine
10
20
20
7.856702
30
0
11
20
21
7.333411
31
0
39
0
210
0
220
0
230
1
0
LINE
5
B3
100
AcDbEntity
8
SK1
62
256
6
ByLayer
370
18
48
1
60
0
100
AcDbLine
10
-48
20
-7.2
30
0
11
-48
21
7.2
31
0
39
0
210
0
220
0
230
1
0
LINE
5
B5
100
AcDbEntity
8
SK1
62
256
6
ByLayer
370
18
48
1
60
0
100
AcDbLine
10
0
20
8
30
0
11
0
21
0
31
0
39
0
210
0
220
0
230
1
0
LINE
5
B6
100
AcDbEntity
8
SK1
62
256
6
ByLayer
370
18
48
1
60
0
100
AcDbLine
10
0
20
0
30
0
11
0
21
-8
31
0
39
0
210
0
220
0
230
1
0
LINE
5
B7
100
AcDbEntity
8
SK1
62
256
6
ByLayer
370
18
48
1
60
0
100
AcDbLine
10
-47.2
20
8
30
0
11
-47.2
21
-8
31
0
39
0
210
0
220
0
230
1
0
LINE
5
B8
100
AcDbEntity
8
SK1
62
256
6
ByLayer
370
18
48
1
60
0
100
AcDbLine
10
-29
20
6.2
30
0
11
-30.8
21
8
31
0
39
0
210
0
220
0
230
1
0
LINE
5
B9
100
AcDbEntity
8
SK1
62
256
6
ByLayer
370
18
48
1
60
0
100
AcDbLine
10
-19
20
6.2
30
0
11
-17.2
21
8
31
0
39
0
210
0
220
0
230
1
0
LINE
5
BA
100
AcDbEntity
8
SK1
62
256
6
ByLayer
370
18
48
1
60
0
100
AcDbLine
10
-29
20
6.2
30
0
11
-19
21
6.2
31
0
39
0
210
0
220
0
230
1
0
LINE
5
BB
100
AcDbEntity
8
1
62
256
6
ByLayer
370
18
48
1
60
0
100
AcDbLine
10
17.968999
20
8
30
0
11
0
21
8
31
0
39
0
210
0
220
0
230
1
0
LINE
5
BC
100
AcDbEntity
8
1
62
256
6
ByLayer
370
18
48
1
60
0
100
AcDbLine
10
0
20
-8
30
0
11
18.061183
21
-8
31
0
39
0
210
0
220
0
230
1
0
LINE
5
BD
100
AcDbEntity
8
SK1
62
256
6
ByLayer
370
18
48
1
60
0
100
AcDbLine
10
-48
20
-7.2
30
0
11
-47.2
21
-8
31
0
39
0
210
0
220
0
230
1
0
LINE
5
BE
100
AcDbEntity
8
SK1
62
256
6
ByLayer
370
18
48
1
60
0
100
AcDbLine
10
-47.2
20
8
30
0
11
-48
21
7.2
31
0
39
0
210
0
220
0
230
1
0
LINE
5
BF
100
AcDbEntity
8
SK1
62
256
6
ByLayer
370
18
48
1
60
0
100
AcDbLine
10
0
20
8
30
0
11
-17.2
21
8
31
0
39
0
210
0
220
0
230
1
0
LINE
5
C0
100
AcDbEntity
8
SK1
62
256
6
ByLayer
370
18
48
1
60
0
100
AcDbLine
10
-30.8
20
8
30
0
11
-47.2
21
8
31
0
39
0
210
0
220
0
230
1
0
LINE
5
C1
100
AcDbEntity
8
SK1
62
256
6
ByLayer
370
18
48
1
60
0
100
AcDbLine
10
-47.2
20
-8
30
0
11
0
21
-8
31
0
39
0
210
0
220
0
230
1
0
LINE
5
C2
100
AcDbEntity
8
SK2
62
256
6
ByLayer
370
18
48
1
60
0
100
AcDbLine
10
-55.45
20
8
30
0
11
-55.45
21
-26.056066
31
0
39
0
210
0
220
0
230
1
0
LINE
5
C4
100
AcDbEntity
8
SK2
62
256
6
ByLayer
370
18
48
1
60
0
100
AcDbLine
10
-48.7875
20
8
30
0
11
-57.45
21
8
31
0
39
0
210
0
220
0
230
1
0
LINE
5
C5
100
AcDbEntity
8
SK2
62
256
6
ByLayer
370
18
48
1
60
0
100
AcDbLine
10
-48.7875
20
-8
30
0
11
-57.45
21
-8
31
0
39
0
210
0
220
0
230
1
0
LINE
5
C6
100
AcDbEntity
8
1
62
256
6
ByLayer
370
18
48
1
60
1
100
AcDbLine
10
-55.45
20
8
30
0
11
-54.989216
21
4.500002
31
0
39
0
210
0
220
0
230
1
0
LINE
5
C7
100
AcDbEntity
8
1
62
256
6
ByLayer
370
18
48
1
60
1
100
AcDbLine
10
-54.989216
20
4.500002
30
0
11
-55.910784
21
4.499998
31
0
39
0
210
0
220
0
230
1
0
LINE
5
C8
100
AcDbEntity
8
1
62
256
6
ByLayer
370
18
48
1
60
1
100
AcDbLine
10
-55.910784
20
4.499998
30
0
11
-55.45
21
8
31
0
39
0
210
0
220
0
230
1
0
LINE
5
C9
100
AcDbEntity
8
1
62
256
6
ByLayer
370
18
48
1
60
1
100
AcDbLine
10
-55.45
20
-8
30
0
11
-55.910784
21
-4.500002
31
0
39
0
210
0
220
0
230
1
0
LINE
5
CA
100
AcDbEntity
8
1
62
256
6
ByLayer
370
18
48
1
60
1
100
AcDbLine
10
-55.910784
20
-4.500002
30
0
11
-54.989216
21
-4.499998
31
0
39
0
210
0
220
0
230
1
0
LINE
5
CB
100
AcDbEntity
8
1
62
256
6
ByLayer
370
18
48
1
60
1
100
AcDbLine
10
-54.989216
20
-4.499998
30
0
11
-55.45
21
-8
31
0
39
0
210
0
220
0
230
1
0
LINE
5
CC
100
AcDbEntity
8
2
62
256
6
ByLayer
370
18
48
1
60
0
100
AcDbLine
10
64
20
-8.0001
30
0
11
64
21
26.056166
31
0
39
0
210
0
220
0
230
1
0
LINE
5
CE
100
AcDbEntity
8
2
62
256
6
ByLayer
370
18
48
1
60
0
100
AcDbLine
10
53.5875
20
8.0001
30
0
11
66
21
8.0001
31
0
39
0
210
0
220
0
230
1
0
LINE
5
CF
100
AcDbEntity
8
2
62
256
6
ByLayer
370
18
48
1
60
0
100
AcDbLine
10
53.5875
20
-8.0001
30
0
11
66
21
-8.0001
31
0
39
0
210
0
220
0
230
1
0
LINE
5
D0
100
AcDbEntity
8
1
62
256
6
ByLayer
370
18
48
1
60
1
100
AcDbLine
10
64
20
8.0001
30
0
11
64.460784
21
4.500102
31
0
39
0
210
0
220
0
230
1
0
LINE
5
D1
100
AcDbEntity
8
1
62
256
6
ByLayer
370
18
48
1
60
1
100
AcDbLine
10
64.460784
20
4.500102
30
0
11
63.539216
21
4.500098
31
0
39
0
210
0
220
0
230
1
0
LINE
5
D2
100
AcDbEntity
8
1
62
256
6
ByLayer
370
18
48
1
60
1
100
AcDbLine
10
63.539216
20
4.500098
30
0
11
64
21
8.0001
31
0
39
0
210
0
220
0
230
1
0
LINE
5
D3
100
AcDbEntity
8
1
62
256
6
ByLayer
370
18
48
1
60
1
100
AcDbLine
10
64
20
-8.0001
30
0
11
63.539216
21
-4.500102
31
0
39
0
210
0
220
0
230
1
0
LINE
5
D4
100
AcDbEntity
8
1
62
256
6
ByLayer
370
18
48
1
60
1
100
AcDbLine
10
63.539216
20
-4.500102
30
0
11
64.460784
21
-4.500098
31
0
39
0
210
0
220
0
230
1
0
LINE
5
D5
100
AcDbEntity
8
1
62
256
6
ByLayer
370
18
48
1
60
1
100
AcDbLine
10
64.460784
20
-4.500098
30
0
11
64
21
-8.0001
31
0
39
0
210
0
220
0
230
1
0
LINE
5
D6
100
AcDbEntity
8
SK2
62
256
6
ByLayer
370
18
48
1
60
0
100
AcDbLine
10
52
20
-39.362798
30
0
11
-48
21
-39.362798
31
0
39
0
210
0
220
0
230
1
0
LINE
5
D7
100
AcDbEntity
8
SK2
62
256
6
ByLayer
370
18
48
1
60
0
100
AcDbLine
10
-48
20
-8.7875
30
0
11
-48
21
-41.362798
31
0
39
0
210
0
220
0
230
1
0
LINE
5
D8
100
AcDbEntity
8
SK2
62
256
6
ByLayer
370
18
48
1
60
0
100
AcDbLine
10
52
20
-9.5876
30
0
11
52
21
-41.362798
31
0
39
0
210
0
220
0
230
1
0
LINE
5
D9
100
AcDbEntity
8
1
62
256
6
ByLayer
370
18
48
1
60
1
100
AcDbLine
10
-48
20
-39.362798
30
0
11
-44.500002
21
-38.902015
31
0
39
0
210
0
220
0
230
1
0
LINE
5
DA
100
AcDbEntity
8
1
62
256
6
ByLayer
370
18
48
1
60
1
100
AcDbLine
10
-44.500002
20
-38.902015
30
0
11
-44.499998
21
-39.823582
31
0
39
0
210
0
220
0
230
1
0
LINE
5
DB
100
AcDbEntity
8
1
62
256
6
ByLayer
370
18
48
1
60
1
100
AcDbLine
10
-44.499998
20
-39.823582
30
0
11
-48
21
-39.362798
31
0
39
0
210
0
220
0
230
1
0
LINE
5
DC
100
AcDbEntity
8
1
62
256
6
ByLayer
370
18
48
1
60
1
100
AcDbLine
10
52
20
-39.362798
30
0
11
48.500002
21
-39.823582
31
0
39
0
210
0
220
0
230
1
0
LINE
5
DD
100
AcDbEntity
8
1
62
256
6
ByLayer
370
18
48
1
60
1
100
AcDbLine
10
48.500002
20
-39.823582
30
0
11
48.499998
21
-38.902015
31
0
39
0
210
0
220
0
230
1
0
LINE
5
DE
100
AcDbEntity
8
1
62
256
6
ByLayer
370
18
48
1
60
1
100
AcDbLine
10
48.499998
20
-38.902015
30
0
11
52
21
-39.362798
31
0
39
0
210
0
220
0
230
1
0
LINE
5
153
100
AcDbEntity
8
1
62
256
6
ByLayer
370
18
48
1
60
1
100
AcDbLine
10
-55.45
20
8
30
0
11
-54.989216
21
4.500002
31
0
39
0
210
0
220
0
230
1
0
LINE
5
154
100
AcDbEntity
8
1
62
256
6
ByLayer
370
18
48
1
60
1
100
AcDbLine
10
-54.989216
20
4.500002
30
0
11
-55.910784
21
4.499998
31
0
39
0
210
0
220
0
230
1
0
LINE
5
155
100
AcDbEntity
8
1
62
256
6
ByLayer
370
18
48
1
60
1
100
AcDbLine
10
-55.910784
20
4.499998
30
0
11
-55.45
21
8
31
0
39
0
210
0
220
0
230
1
0
LINE
5
157
100
AcDbEntity
8
1
62
256
6
ByLayer
370
18
48
1
60
1
100
AcDbLine
10
-55.45
20
-8
30
0
11
-55.910784
21
-4.500002
31
0
39
0
210
0
220
0
230
1
0
LINE
5
158
100
AcDbEntity
8
1
62
256
6
ByLayer
370
18
48
1
60
1
100
AcDbLine
10
-55.910784
20
-4.500002
30
0
11
-54.989216
21
-4.499998
31
0
39
0
210
0
220
0
230
1
0
LINE
5
159
100
AcDbEntity
8
1
62
256
6
ByLayer
370
18
48
1
60
1
100
AcDbLine
10
-54.989216
20
-4.499998
30
0
11
-55.45
21
-8
31
0
39
0
210
0
220
0
230
1
0
LINE
5
15D
100
AcDbEntity
8
1
62
256
6
ByLayer
370
18
48
1
60
1
100
AcDbLine
10
64
20
8.0001
30
0
11
64.460784
21
4.500102
31
0
39
0
210
0
220
0
230
1
0
LINE
5
15E
100
AcDbEntity
8
1
62
256
6
ByLayer
370
18
48
1
60
1
100
AcDbLine
10
64.460784
20
4.500102
30
0
11
63.539216
21
4.500098
31
0
39
0
210
0
220
0
230
1
0
LINE
5
15F
100
AcDbEntity
8
1
62
256
6
ByLayer
370
18
48
1
60
1
100
AcDbLine
10
63.539216
20
4.500098
30
0
11
64
21
8.0001
31
0
39
0
210
0
220
0
230
1
0
LINE
5
161
100
AcDbEntity
8
1
62
256
6
ByLayer
370
18
48
1
60
1
100
AcDbLine
10
64
20
-8.0001
30
0
11
63.539216
21
-4.500102
31
0
39
0
210
0
220
0
230
1
0
LINE
5
162
100
AcDbEntity
8
1
62
256
6
ByLayer
370
18
48
1
60
1
100
AcDbLine
10
63.539216
20
-4.500102
30
0
11
64.460784
21
-4.500098
31
0
39
0
210
0
220
0
230
1
0
LINE
5
163
100
AcDbEntity
8
1
62
256
6
ByLayer
370
18
48
1
60
1
100
AcDbLine
10
64.460784
20
-4.500098
30
0
11
64
21
-8.0001
31
0
39
0
210
0
220
0
230
1
0
LINE
5
166
100
AcDbEntity
8
1
62
256
6
ByLayer
370
18
48
1
60
1
100
AcDbLine
10
-48
20
-39.362798
30
0
11
-44.500002
21
-38.902015
31
0
39
0
210
0
220
0
230
1
0
LINE
5
167
100
AcDbEntity
8
1
62
256
6
ByLayer
370
18
48
1
60
1
100
AcDbLine
10
-44.500002
20
-38.902015
30
0
11
-44.499998
21
-39.823582
31
0
39
0
210
0
220
0
230
1
0
LINE
5
168
100
AcDbEntity
8
1
62
256
6
ByLayer
370
18
48
1
60
1
100
AcDbLine
10
-44.499998
20
-39.823582
30
0
11
-48
21
-39.362798
31
0
39
0
210
0
220
0
230
1
0
LINE
5
16A
100
AcDbEntity
8
1
62
256
6
ByLayer
370
18
48
1
60
1
100
AcDbLine
10
52
20
-39.362798
30
0
11
48.500002
21
-39.823582
31
0
39
0
210
0
220
0
230
1
0
LINE
5
16B
100
AcDbEntity
8
1
62
256
6
ByLayer
370
18
48
1
60
1
100
AcDbLine
10
48.500002
20
-39.823582
30
0
11
48.499998
21
-38.902015
31
0
39
0
210
0
220
0
230
1
0
LINE
5
16C
100
AcDbEntity
8
1
62
256
6
ByLayer
370
18
48
1
60
1
100
AcDbLine
10
48.499998
20
-38.902015
30
0
11
52
21
-39.362798
31
0
39
0
210
0
220
0
230
1
0
MTEXT
5
14F
100
AcDbEntity
8
SK2
62
256
6
ByLayer
370
18
48
1
60
0
100
AcDbMText
10
-57.014634
20
-24.121222
30
0
210
0
220
0
230
1
1
%%c
40
3.5
41
0
44
1.084337
50
90
71
7
72
5
7
iso_b_vert
0
MTEXT
5
152
100
AcDbEntity
8
SK2
62
256
6
ByLayer
370
18
48
1
60
0
100
AcDbMText
10
-57.014634
20
-17.148566
30
0
210
0
220
0
230
1
1
\W0.5321;16
40
3.5
41
0
44
1.084337
50
90
71
7
72
5
7
iso_b_vert
0
MTEXT
5
15B
100
AcDbEntity
8
2
62
256
6
ByLayer
370
18
48
1
60
0
100
AcDbMText
10
62.435366
20
15.934944
30
0
210
0
220
0
230
1
1
%%c
40
3.5
41
0
44
1.084337
50
90
71
7
72
5
7
iso_b_vert
0
MTEXT
5
15C
100
AcDbEntity
8
2
62
256
6
ByLayer
370
18
48
1
60
0
100
AcDbMText
10
62.435366
20
22.9076
30
0
210
0
220
0
230
1
1
\W0.5321;16
40
3.5
41
0
44
1.084337
50
90
71
7
72
5
7
iso_b_vert
0
MTEXT
5
165
100
AcDbEntity
8
SK2
62
256
6
ByLayer
370
18
48
1
60
0
100
AcDbMText
10
-0.775266
20
-38.330165
30
0
210
0
220
0
230
1
1
\W0.6217;100
40
3.5
41
0
44
1.084337
50
0
71
7
72
5
7
iso_b_vert
0
MTEXT
5
16E
100
AcDbEntity
8
SK6
62
256
6
ByLayer
370
18
48
1
60
0
100
AcDbMText
10
-22.325443
20
-62.078329
30
0
210
0
220
0
230
1
1
\W0.6918;1K334-1600-XB       1730
40
3
41
0
44
1.084337
50
0
71
7
72
5
7
iso_b_vert
0
HATCH
5
156
100
AcDbEntity
8
SK2
62
256
6
ByLayer
370
13
48
1
60
0
100
AcDbHatch
10
0
20
0
30
0
210
0
220
0
230
1
2
ANSI31
70
0
71
0
91
1
92
5
93
3
72
1
10
-55.45
20
7.99999999999991
11
-54.9892162584472
21
4.5000016925531
72
1
10
-54.9892162584472
20
4.5000016925531
11
-55.9107837415528
21
4.49999830744673
72
1
10
-55.9107837415528
20
4.49999830744673
11
-55.45
21
7.99999999999991
97
0
75
0
76
1
52
0
41
0.0062
77
0
78
1
53
45
43
0
44
0
45
-0.0139193969876572
46
0.0139193969876572
79
0
47
0
98
1
10
0
20
0
0
HATCH
5
15A
100
AcDbEntity
8
SK2
62
256
6
ByLayer
370
13
48
1
60
0
100
AcDbHatch
10
0
20
0
30
0
210
0
220
0
230
1
2
ANSI31
70
0
71
0
91
1
92
5
93
3
72
1
10
-55.45
20
-8.00000000000009
11
-55.9107837415528
21
-4.50000169255327
72
1
10
-55.9107837415528
20
-4.50000169255327
11
-54.9892162584472
21
-4.4999983074469
72
1
10
-54.9892162584472
20
-4.4999983074469
11
-55.45
21
-8.00000000000009
97
0
75
0
76
1
52
0
41
0.0062
77
0
78
1
53
45
43
0
44
0
45
-0.0139193969876572
46
0.0139193969876572
79
0
47
0
98
1
10
0
20
0
0
HATCH
5
160
100
AcDbEntity
8
2
62
256
6
ByLayer
370
13
48
1
60
0
100
AcDbHatch
10
0
20
0
30
0
210
0
220
0
230
1
2
ANSI31
70
0
71
0
91
1
92
5
93
3
72
1
10
64
20
8.0000999999998
11
64.4607837415528
21
4.50010169255299
72
1
10
64.4607837415528
20
4.50010169255299
11
63.5392162584472
21
4.50009830744662
72
1
10
63.5392162584472
20
4.50009830744662
11
64
21
8.0000999999998
97
0
75
0
76
1
52
0
41
0.0062
77
0
78
1
53
45
43
0
44
0
45
-0.0139193969876572
46
0.0139193969876572
79
0
47
0
98
1
10
0
20
0
0
HATCH
5
164
100
AcDbEntity
8
2
62
256
6
ByLayer
370
13
48
1
60
0
100
AcDbHatch
10
0
20
0
30
0
210
0
220
0
230
1
2
ANSI31
70
0
71
0
91
1
92
5
93
3
72
1
10
64
20
-8.0001000000002
11
63.5392162584472
21
-4.50010169255339
72
1
10
63.5392162584472
20
-4.50010169255339
11
64.4607837415528
21
-4.50009830744702
72
1
10
64.4607837415528
20
-4.50009830744702
11
64
21
-8.0001000000002
97
0
75
0
76
1
52
0
41
0.0062
77
0
78
1
53
45
43
0
44
0
45
-0.0139193969876572
46
0.0139193969876572
79
0
47
0
98
1
10
0
20
0
0
HATCH
5
169
100
AcDbEntity
8
SK2
62
256
6
ByLayer
370
13
48
1
60
0
100
AcDbHatch
10
0
20
0
30
0
210
0
220
0
230
1
2
ANSI31
70
0
71
0
91
1
92
5
93
3
72
1
10
-48
20
-39.3627983830158
11
-44.5000016925532
21
-38.902014641463
72
1
10
-44.5000016925532
20
-38.902014641463
11
-44.4999983074468
21
-39.8235821245686
72
1
10
-44.4999983074468
20
-39.8235821245686
11
-48
21
-39.3627983830158
97
0
75
0
76
1
52
0
41
0.0062
77
0
78
1
53
45
43
0
44
0
45
-0.0139193969876572
46
0.0139193969876572
79
0
47
0
98
1
10
0
20
0
0
HATCH
5
16D
100
AcDbEntity
8
SK2
62
256
6
ByLayer
370
13
48
1
60
0
100
AcDbHatch
10
0
20
0
30
0
210
0
220
0
230
1
2
ANSI31
70
0
71
0
91
1
92
5
93
3
72
1
10
52
20
-39.3627983830158
11
48.5000016925532
21
-39.8235821245686
72
1
10
48.5000016925532
20
-39.8235821245686
11
48.4999983074468
21
-38.902014641463
72
1
10
48.4999983074468
20
-38.902014641463
11
52
21
-39.3627983830158
97
0
75
0
76
1
52
0
41
0.0062
77
0
78
1
53
45
43
0
44
0
45
-0.0139193969876572
46
0.0139193969876572
79
0
47
0
98
1
10
0
20
0
0
DIMENSION
5
171
100
AcDbEntity
8
2
62
256
6
ByLayer
370
18
48
1
60
0
100
AcDbDimension
2
_U0
10
20
20
-23.362798
30
0
11
36
21
-23.362798
31
0
70
32
71
1
72
1
41
1
210
0
220
0
230
1
3
Standard
100
AcDbAlignedDimension
13
52
23
-8.0001
33
0
14
20
24
-8.0001
34
0
50
0
100
AcDbRotatedDimension
1001
ACAD
1000
DSTYLE
1002
{
1070
   371
1070
    13
1070
   372
1070
    13
1070
   170
1070
     0
1070
   144
1040
1.0
1070
   277
1070
     2
1070
   284
1070
     8
1070
   278
1070
    46
1070
   146
1040
1.0
1070
   345
1005
16
1070
   347
1005
16
1070
   346
1005
16
1070
   344
1005
0
1070
   343
1005
0
1070
   172
1070
     1
1070
    76
1070
     0
1070
    75
1070
     0
1070
   282
1070
     0
1070
   281
1070
     0
1070
    71
1070
     0
1070
    74
1070
     0
1070
   279
1070
     0
1070
   173
1070
     1
1070
   340
1005
150
1070
   271
1070
     2
1070
   272
1070
     2
1070
    77
1070
     1
1070
    73
1070
     1
1070
   171
1070
     3
1070
   274
1070
     4
1070
   177
1070
     2
1070
   176
1070
     2
1070
   178
1070
     2
1070
    78
1070
     8
1070
    48
1040
-0.1
1070
    41
1040
3.5
1070
   147
1040
1.75
1070
    42
1040
1.5875
1070
    44
1040
2.0
1070
   140
1040
3.5
1002
}
1001
ACAD_DSTYLE_DIM_LINETYPE
1070
   380
1005
16
1001
ACAD_DSTYLE_DIM_EXT1_LINETYPE
1070
   381
1005
16
1001
ACAD_DSTYLE_DIM_EXT2_LINETYPE
1070
   382
1005
16
0
ENDSEC
0
SECTION
2
OBJECTS
0
DICTIONARY
5
1fa
330
0
100
AcDbDictionary
280
0
281
1
3
ACAD_GROUP
350
1fb
3
ACAD_MLINESTYLE
350
1fc
0
DICTIONARY
5
1fb
330
0
100
AcDbDictionary
280
0
281
1
0
DICTIONARY
5
1fc
330
0
100
AcDbDictionary
280
0
281
1
3
Standard
350
18
0
MLINESTYLE
5
18
330
1fc
100
AcDbMlineStyle
2
Standard
70
0
3

62
256
51
90
52
90
71
2
49
-0.5
62
256
6
ByLayer
49
0.5
62
256
6
ByLayer
0
RASTERVARIABLES
5
1e8
330

100
AcDbRasterVariables
90
0
70
1
71
1
72
1
0
ENDSEC
0
EOF
