0
SECTION
2
HEADER
9
$ACADVER
1
AC1015
9
$DWGCODEPAGE
3
ANSI_1252
9
$HANDSEED
5
281
9
$ANGBASE
50
0
9
$ANGDIR
70
0
9
$ATTMODE
70
1
9
$AUNITS
70
0
9
$AUPREC
70
0
9
$CECOLOR
62
256
9
$CELTSCALE
40
1
9
$CELTYPE
6
ByLayer
9
$CELWEIGHT
370
18
9
$CLAYER
8
0
9
$CMLJUST
70
0
9
$CMLSCALE
40
1
9
$CMLSTYLE
2
Standard
9
$DIMSTYLE
2
Standard
9
$TEXTSIZE
40
0.2
9
$TEXTSTYLE
7
Standard
9
$LUNITS
70
2
9
$LUPREC
70
4
9
$EXTNAMES
290
1
9
$INSUNITS
70
4
9
$LTSCALE
40
1
9
$LWDISPLAY
290
1
9
$PDMODE
70
0
9
$PDSIZE
40
0
9
$PLINEGEN
70
0
0
ENDSEC
0
SECTION
2
CLASSES
0
CLASS
1
RASTERVARIABLES
2
AcDbRasterVariables
3
ISM
90
0
280
0
281
0
0
ENDSEC
0
SECTION
2
TABLES
0
TABLE
2
VPORT
5
277
100
AcDbSymbolTable
0
VPORT
5
1
100
AcDbSymbolTableRecord
100
AcDbViewportTableRecord
2
*Active
70
0
10
0
20
0
11
1
21
1
12
-1
22
1
13
0
23
0
14
0.5
24
0.5
15
10
25
10
16
0
26
0
36
1
17
0
27
0
37
0
0
ENDTAB
0
TABLE
2
LTYPE
5
278
100
AcDbSymbolTable
0
LTYPE
5
14
100
AcDbSymbolTableRecord
100
AcDbLinetypeTableRecord
70
0
2
ByBlock
3

72
65
73
0
40
0
0
LTYPE
5
15
100
AcDbSymbolTableRecord
100
AcDbLinetypeTableRecord
70
0
2
ByLayer
3

72
65
73
0
40
0
0
LTYPE
5
16
100
AcDbSymbolTableRecord
100
AcDbLinetypeTableRecord
70
0
2
Continuous
3
Solid line
72
65
73
0
40
0
0
LTYPE
5
6E
100
AcDbSymbolTableRecord
100
AcDbLinetypeTableRecord
70
0
2
CENTER
3
____ _ ____ _ ____ _ ____
72
65
73
4
40
47.5
49
22
74
0
49
-8.5
74
0
49
8.5
74
0
49
-8.5
74
0
0
LTYPE
5
6F
100
AcDbSymbolTableRecord
100
AcDbLinetypeTableRecord
70
0
2
DASHED
3
__ __ __ __ __ __ __ __ __
72
65
73
2
40
25.72
49
12.86
74
0
49
-12.86
74
0
0
ENDTAB
0
TABLE
2
LAYER
5
279
100
AcDbSymbolTable
0
LAYER
5
10
100
AcDbSymbolTableRecord
100
AcDbLayerTableRecord
2
0
70
0
62
7
6
Continuous
290
1
370
-3
390
0
0
LAYER
5
71
100
AcDbSymbolTableRecord
100
AcDbLayerTableRecord
2
80
70
0
62
-6
6
Continuous
290
1
370
-3
390
0
0
LAYER
5
73
100
AcDbSymbolTableRecord
100
AcDbLayerTableRecord
2
81
70
0
62
-3
6
Continuous
290
1
370
-3
390
0
0
LAYER
5
75
100
AcDbSymbolTableRecord
100
AcDbLayerTableRecord
2
1
70
0
62
4
6
Continuous
290
1
370
-3
390
0
0
LAYER
5
7B
100
AcDbSymbolTableRecord
100
AcDbLayerTableRecord
2
4
70
0
62
-2
6
CENTER
290
1
370
-3
390
0
0
LAYER
5
E2
100
AcDbSymbolTableRecord
100
AcDbLayerTableRecord
2
2
70
0
62
7
6
Continuous
290
1
370
-3
390
0
0
LAYER
5
1D4
100
AcDbSymbolTableRecord
100
AcDbLayerTableRecord
2
Defpoints
70
0
62
7
6
Continuous
290
0
370
-3
390
0
0
LAYER
5
263
100
AcDbSymbolTableRecord
100
AcDbLayerTableRecord
2
SK4
70
0
62
2
6
CENTER
290
1
370
-3
390
0
0
LAYER
5
264
100
AcDbSymbolTableRecord
100
AcDbLayerTableRecord
2
SK1
70
0
62
4
6
Continuous
290
1
370
-3
390
0
0
LAYER
5
265
100
AcDbSymbolTableRecord
100
AcDbLayerTableRecord
2
SK2
70
0
62
7
6
Continuous
290
1
370
-3
390
0
0
LAYER
5
266
100
AcDbSymbolTableRecord
100
AcDbLayerTableRecord
2
SK6
70
0
62
5
6
Continuous
290
1
370
-3
390
0
0
ENDTAB
0
TABLE
2
STYLE
5
27a
100
AcDbSymbolTable
0
STYLE
5
11
100
AcDbSymbolTableRecord
100
AcDbTextStyleTableRecord
2
Standard
3
txt
70
0
71
0
40
0
41
1
42
0
50
0
0
STYLE
5
1A6
100
AcDbSymbolTableRecord
100
AcDbTextStyleTableRecord
2
iso_b_vert
3
simplex.shx
70
0
71
0
40
0
41
1
42
0
50
0
0
STYLE
5
1A7
100
AcDbSymbolTableRecord
100
AcDbTextStyleTableRecord
2
DWGDirectTextStyle
3
simplex
70
0
71
0
40
0
41
1
42
0
50
0
0
ENDTAB
0
TABLE
2
DIMSTYLE
5
27b
100
AcDbSymbolTable
100
AcDbDimStyleTable
0
DIMSTYLE
105
27
100
AcDbSymbolTableRecord
100
AcDbDimStyleTableRecord
2
Standard
70
0
3
<>
41
0.18
42
0.0625
44
0.18
140
0.18
147
0.09
73
0
74
0
77
1
271
2
275
0
278
52
280
0
340
11
0
ENDTAB
0
TABLE
2
VIEW
5
27c
100
AcDbSymbolTable
0
ENDTAB
0
TABLE
2
UCS
5
27d
100
AcDbSymbolTable
0
ENDTAB
0
TABLE
2
APPID
5
27e
100
AcDbSymbolTable
0
APPID
5
12
100
AcDbSymbolTableRecord
100
AcDbRegAppTableRecord
2
ACAD
70
0
0
APPID
5
1D0
100
AcDbSymbolTableRecord
100
AcDbRegAppTableRecord
2
ACAD_DSTYLE_DIMBREAK
70
0
0
APPID
5
222
100
AcDbSymbolTableRecord
100
AcDbRegAppTableRecord
2
ACAD_DSTYLE_DIM_LINETYPE
70
0
0
APPID
5
223
100
AcDbSymbolTableRecord
100
AcDbRegAppTableRecord
2
ACAD_DSTYLE_DIM_EXT1_LINETYPE
70
0
0
APPID
5
224
100
AcDbSymbolTableRecord
100
AcDbRegAppTableRecord
2
ACAD_DSTYLE_DIM_EXT2_LINETYPE
70
0
0
APPID
5
25F
100
AcDbSymbolTableRecord
100
AcDbRegAppTableRecord
2
ACAD_MLEADERVER
70
0
0
ENDTAB
0
TABLE
2
BLOCK_RECORD
5
27f
100
AcDbSymbolTable
0
BLOCK_RECORD
5
1F
100
AcDbSymbolTableRecord
100
AcDbBlockTableRecord
2
*Model_Space
340
0
70
0
0
BLOCK_RECORD
5
1B
100
AcDbSymbolTableRecord
100
AcDbBlockTableRecord
2
*Paper_Space
340
0
70
0
0
BLOCK_RECORD
5
23
100
AcDbSymbolTableRecord
100
AcDbBlockTableRecord
2
*Paper_Space0
340
0
70
0
0
BLOCK_RECORD
5
1D5
100
AcDbSymbolTableRecord
100
AcDbBlockTableRecord
2
*D1
340
0
70
0
0
BLOCK_RECORD
5
1E2
100
AcDbSymbolTableRecord
100
AcDbBlockTableRecord
2
_U0
340
0
70
0
0
BLOCK_RECORD
5
1EE
100
AcDbSymbolTableRecord
100
AcDbBlockTableRecord
2
*D3
340
0
70
0
0
BLOCK_RECORD
5
1FB
100
AcDbSymbolTableRecord
100
AcDbBlockTableRecord
2
_U1
340
0
70
0
0
ENDTAB
0
ENDSEC
0
SECTION
2
BLOCKS
0
BLOCK
5
20
100
AcDbEntity
8
0
100
AcDbBlockBegin
2
*Model_Space
70
0
10
0
20
0
30
0
3
*Model_Space
0
ENDBLK
5
21
100
AcDbEntity
8
0
100
AcDbBlockEnd
0
BLOCK
5
1C
100
AcDbEntity
8
0
100
AcDbBlockBegin
2
*Paper_Space
70
0
10
0
20
0
30
0
3
*Paper_Space
0
ENDBLK
5
1D
100
AcDbEntity
8
0
100
AcDbBlockEnd
0
BLOCK
5
24
100
AcDbEntity
8
0
100
AcDbBlockBegin
2
*Paper_Space0
70
0
10
0
20
0
30
0
3
*Paper_Space0
0
ENDBLK
5
25
100
AcDbEntity
8
0
100
AcDbBlockEnd
0
BLOCK
5
1D6
100
AcDbEntity
8
0
100
AcDbBlockBegin
2
*D1
70
1
10
0
20
0
30
0
3
*D1
0
LINE
5
1D8
100
AcDbEntity
8
0
62
256
6
ByLayer
370
-2
48
1
60
0
100
AcDbLine
10
18
20
-3.5875
30
0
11
18
21
-19.1
31
0
39
0
210
0
220
0
230
1
0
LINE
5
1D9
100
AcDbEntity
8
0
62
256
6
ByLayer
370
-2
48
1
60
0
100
AcDbLine
10
10
20
-3.5875
30
0
11
10
21
-19.1
31
0
39
0
210
0
220
0
230
1
0
LINE
5
1DA
100
AcDbEntity
8
0
62
256
6
ByLayer
370
-2
48
1
60
0
100
AcDbLine
10
21.5
20
-17.1
30
0
11
25
21
-17.1
31
0
39
0
210
0
220
0
230
1
0
LINE
5
1DB
100
AcDbEntity
8
0
62
256
6
ByLayer
370
-2
48
1
60
0
100
AcDbLine
10
6.5
20
-17.1
30
0
11
3
21
-17.1
31
0
39
0
210
0
220
0
230
1
0
SOLID
5
1DC
100
AcDbEntity
8
0
62
256
6
ByLayer
370
-1
48
1
60
0
100
AcDbTrace
10
21.5
20
-16.516667
30
0
11
21.5
21
-17.683333
31
0
12
18
22
-17.1
32
0
13
18
23
-17.1
33
0
39
0
210
0
220
0
230
1
0
SOLID
5
1DD
100
AcDbEntity
8
0
62
256
6
ByLayer
370
-1
48
1
60
0
100
AcDbTrace
10
6.5
20
-17.683333
30
0
11
6.5
21
-16.516667
31
0
12
10
22
-17.1
32
0
13
10
23
-17.1
33
0
39
0
210
0
220
0
230
1
0
MTEXT
5
1DE
100
AcDbEntity
8
0
62
256
6
ByLayer
370
18
48
1
60
0
100
AcDbMText
10
14
20
-10.1
30
0
210
0
220
0
230
1
1
\A1;8
40
3.5
41
0
44
1
50
0
71
5
72
5
7
iso_b_vert
0
POINT
5
1DF
100
AcDbEntity
8
Defpoints
62
0
6
ByLayer
370
-1
48
1
60
0
100
AcDbPoint
10
18
20
-2
30
0
39
0
210
0
220
0
230
1
50
360
0
POINT
5
1E0
100
AcDbEntity
8
Defpoints
62
0
6
ByLayer
370
-1
48
1
60
0
100
AcDbPoint
10
10
20
-2
30
0
39
0
210
0
220
0
230
1
50
360
0
POINT
5
1E1
100
AcDbEntity
8
Defpoints
62
0
6
ByLayer
370
-1
48
1
60
0
100
AcDbPoint
10
10
20
-17.1
30
0
39
0
210
0
220
0
230
1
50
360
0
ENDBLK
5
1D7
100
AcDbEntity
8
0
100
AcDbBlockEnd
0
BLOCK
5
1E9
100
AcDbEntity
8
0
100
AcDbBlockBegin
2
_U0
70
0
10
0
20
0
30
0
3
_U0
0
MTEXT
5
1E3
100
AcDbEntity
8
2
62
256
6
ByLayer
370
18
48
1
60
0
100
AcDbMText
10
13.402767
20
-16.067366
30
0
210
0
220
0
230
1
1
\W0.5404;8
40
3.5
41
0
44
1.084337
50
0
71
7
72
5
7
iso_b_vert
0
LINE
5
1E4
100
AcDbEntity
8
2
62
256
6
ByLayer
370
13
48
1
60
0
100
AcDbLine
10
18
20
-3.5875
30
0
11
18
21
-19.1
31
0
39
0
210
0
220
0
230
1
0
LINE
5
1E5
100
AcDbEntity
8
2
62
256
6
ByLayer
370
13
48
1
60
0
100
AcDbLine
10
10
20
-3.5875
30
0
11
10
21
-19.1
31
0
39
0
210
0
220
0
230
1
0
LINE
5
1E6
100
AcDbEntity
8
2
62
256
6
ByLayer
370
13
48
1
60
0
100
AcDbLine
10
18
20
-17.1
30
0
11
10
21
-17.1
31
0
39
0
210
0
220
0
230
1
0
SOLID
5
1E7
100
AcDbEntity
8
2
62
256
6
ByLayer
370
18
48
1
60
0
100
AcDbTrace
10
18
20
-17.1
30
0
11
14.500002
21
-17.560784
31
0
12
14.499998
22
-16.639216
32
0
13
14.499998
23
-16.639216
33
0
39
0
210
0
220
0
230
1
0
SOLID
5
1E8
100
AcDbEntity
8
2
62
256
6
ByLayer
370
18
48
1
60
0
100
AcDbTrace
10
10
20
-17.1
30
0
11
13.499998
21
-16.639216
31
0
12
13.500002
22
-17.560784
32
0
13
13.500002
23
-17.560784
33
0
39
0
210
0
220
0
230
1
0
ENDBLK
5
1EA
100
AcDbEntity
8
0
100
AcDbBlockEnd
0
BLOCK
5
1EF
100
AcDbEntity
8
0
100
AcDbBlockBegin
2
*D3
70
1
10
0
20
0
30
0
3
*D3
0
LINE
5
1F1
100
AcDbEntity
8
0
62
256
6
ByLayer
370
-2
48
1
60
0
100
AcDbLine
10
18
20
-3.5875
30
0
11
18
21
-34.1
31
0
39
0
210
0
220
0
230
1
0
LINE
5
1F2
100
AcDbEntity
8
0
62
256
6
ByLayer
370
-2
48
1
60
0
100
AcDbLine
10
3.997679
20
-3.5075
30
0
11
3.997679
21
-34.1
31
0
39
0
210
0
220
0
230
1
0
LINE
5
1F3
100
AcDbEntity
8
0
62
256
6
ByLayer
370
-2
48
1
60
0
100
AcDbLine
10
21.5
20
-32.1
30
0
11
25
21
-32.1
31
0
39
0
210
0
220
0
230
1
0
LINE
5
1F4
100
AcDbEntity
8
0
62
256
6
ByLayer
370
-2
48
1
60
0
100
AcDbLine
10
0.497679
20
-32.1
30
0
11
-3.002321
21
-32.1
31
0
39
0
210
0
220
0
230
1
0
SOLID
5
1F5
100
AcDbEntity
8
0
62
256
6
ByLayer
370
-1
48
1
60
0
100
AcDbTrace
10
21.5
20
-31.516667
30
0
11
21.5
21
-32.683333
31
0
12
18
22
-32.1
32
0
13
18
23
-32.1
33
0
39
0
210
0
220
0
230
1
0
SOLID
5
1F6
100
AcDbEntity
8
0
62
256
6
ByLayer
370
-1
48
1
60
0
100
AcDbTrace
10
0.497679
20
-32.683333
30
0
11
0.497679
21
-31.516667
31
0
12
3.997679
22
-32.1
32
0
13
3.997679
23
-32.1
33
0
39
0
210
0
220
0
230
1
0
MTEXT
5
1F7
100
AcDbEntity
8
0
62
256
6
ByLayer
370
18
48
1
60
0
100
AcDbMText
10
10.998839
20
-25.1
30
0
210
0
220
0
230
1
1
\A1;14
40
3.5
41
0
44
1
50
0
71
5
72
5
7
iso_b_vert
0
POINT
5
1F8
100
AcDbEntity
8
Defpoints
62
0
6
ByLayer
370
-1
48
1
60
0
100
AcDbPoint
10
18
20
-2
30
0
39
0
210
0
220
0
230
1
50
360
0
POINT
5
1F9
100
AcDbEntity
8
Defpoints
62
0
6
ByLayer
370
-1
48
1
60
0
100
AcDbPoint
10
3.997679
20
-1.92
30
0
39
0
210
0
220
0
230
1
50
360
0
POINT
5
1FA
100
AcDbEntity
8
Defpoints
62
0
6
ByLayer
370
-1
48
1
60
0
100
AcDbPoint
10
3.997679
20
-32.1
30
0
39
0
210
0
220
0
230
1
50
360
0
ENDBLK
5
1F0
100
AcDbEntity
8
0
100
AcDbBlockEnd
0
BLOCK
5
202
100
AcDbEntity
8
0
100
AcDbBlockBegin
2
_U1
70
0
10
0
20
0
30
0
3
_U1
0
MTEXT
5
1FC
100
AcDbEntity
8
SK2
62
256
6
ByLayer
370
18
48
1
60
0
100
AcDbMText
10
9.34704
20
-31.067366
30
0
210
0
220
0
230
1
1
\W0.5785;14
40
3.5
41
0
44
1.084337
50
0
71
7
72
5
7
iso_b_vert
0
LINE
5
1FD
100
AcDbEntity
8
SK2
62
256
6
ByLayer
370
13
48
1
60
0
100
AcDbLine
10
18
20
-3.5875
30
0
11
18
21
-34.1
31
0
39
0
210
0
220
0
230
1
0
LINE
5
1FE
100
AcDbEntity
8
SK2
62
256
6
ByLayer
370
13
48
1
60
0
100
AcDbLine
10
3.997679
20
-3.5075
30
0
11
3.997679
21
-34.1
31
0
39
0
210
0
220
0
230
1
0
LINE
5
1FF
100
AcDbEntity
8
SK2
62
256
6
ByLayer
370
13
48
1
60
0
100
AcDbLine
10
18
20
-32.1
30
0
11
3.997679
21
-32.1
31
0
39
0
210
0
220
0
230
1
0
SOLID
5
200
100
AcDbEntity
8
SK2
62
256
6
ByLayer
370
18
48
1
60
0
100
AcDbTrace
10
18
20
-32.1
30
0
11
14.500002
21
-32.560784
31
0
12
14.499998
22
-31.639216
32
0
13
14.499998
23
-31.639216
33
0
39
0
210
0
220
0
230
1
0
SOLID
5
201
100
AcDbEntity
8
SK2
62
256
6
ByLayer
370
18
48
1
60
0
100
AcDbTrace
10
3.997679
20
-32.1
30
0
11
7.497677
21
-31.639216
31
0
12
7.497681
22
-32.560784
32
0
13
7.497681
23
-32.560784
33
0
39
0
210
0
220
0
230
1
0
ENDBLK
5
203
100
AcDbEntity
8
0
100
AcDbBlockEnd
0
ENDSEC
0
SECTION
2
ENTITIES
0
ARC
5
F4
100
AcDbEntity
8
1
62
256
6
ByLayer
370
18
48
1
60
0
100
AcDbCircle
39
0
10
9.608082
20
-2.92
30
0
40
1
210
0
220
0
230
1
100
AcDbArc
50
74.699354
51
90
0
ARC
5
F5
100
AcDbEntity
8
1
62
256
6
ByLayer
370
18
48
1
60
0
100
AcDbCircle
39
0
10
3.997679
20
2.92
30
0
40
1
210
0
220
0
230
1
100
AcDbArc
50
240
51
270
0
ARC
5
F6
100
AcDbEntity
8
1
62
256
6
ByLayer
370
18
48
1
60
0
100
AcDbCircle
39
0
10
3.997679
20
-2.92
30
0
40
1
210
0
220
0
230
1
100
AcDbArc
50
90
51
120
0
ELLIPSE
5
F7
100
AcDbEntity
8
1
62
256
6
ByLayer
370
18
48
1
60
0
100
AcDbEllipse
10
17.975956
20
-0.00231
30
0
11
0.0109143416919658
21
0.557832609141459
31
0
210
0
220
0
230
1
40
0.05164
41
1.43404526099527
42
1.6206568028626
0
ELLIPSE
5
F8
100
AcDbEntity
8
1
62
256
6
ByLayer
370
18
48
1
60
0
100
AcDbEllipse
10
17.936141
20
0.086302
30
0
11
0.275280406823482
21
-0.0477901542233627
31
0
210
0
220
0
230
1
40
0.404473
41
-1.67304426727327
42
-1.46263217155
0
ELLIPSE
5
F9
100
AcDbEntity
8
1
62
256
6
ByLayer
370
18
48
1
60
0
100
AcDbEllipse
10
17.875963
20
-0.241097
30
0
11
0.274943727554331
21
0.0113316531773471
31
0
210
0
220
0
230
1
40
0.642185
41
1.3423748419049
42
2.18662932138291
0
ELLIPSE
5
FA
100
AcDbEntity
8
1
62
256
6
ByLayer
370
18
48
1
60
0
100
AcDbEllipse
10
17.936141
20
0.086302
30
0
11
0.275280408409684
21
-0.0477901548960123
31
0
210
0
220
0
230
1
40
0.404473
41
2.43280404222039
42
2.62454452020667
0
ELLIPSE
5
FB
100
AcDbEntity
8
1
62
256
6
ByLayer
370
18
48
1
60
0
100
AcDbEllipse
10
11.910834
20
0
30
0
11
3.63848046025962
21
1.07787847857888
31
0
210
0
220
0
230
1
40
0.436691
41
-2.68775863218445
42
-2.37799011515339
0
ELLIPSE
5
FC
100
AcDbEntity
8
1
62
256
6
ByLayer
370
18
48
1
60
0
100
AcDbEllipse
10
11.989382
20
0
30
0
11
3.78872333005555
21
-1.41321232454206
31
0
210
0
220
0
230
1
40
0.343045
41
-2.4322627666618
42
-2.11666517779178
0
ELLIPSE
5
FD
100
AcDbEntity
8
1
62
256
6
ByLayer
370
18
48
1
60
0
100
AcDbEllipse
10
11.845402
20
0
30
0
11
3.52155370307652
21
-1.75194759395722
31
0
210
0
220
0
230
1
40
0.223067
41
2.36473468188105
42
2.67037995990836
0
POINT
5
70
100
AcDbEntity
8
80
62
256
6
ByLayer
370
18
48
1
60
0
100
AcDbPoint
10
0
20
0
30
0
39
0
210
0
220
0
230
1
50
360
0
POINT
5
72
100
AcDbEntity
8
81
62
256
6
ByLayer
370
18
48
1
60
0
100
AcDbPoint
10
18
20
0
30
0
39
0
210
0
220
0
230
1
50
360
0
POINT
5
74
100
AcDbEntity
8
1
62
256
6
ByLayer
370
18
48
1
60
1
100
AcDbPoint
10
18
20
-2
30
0
39
0
210
0
220
0
230
1
50
360
0
POINT
5
76
100
AcDbEntity
8
1
62
256
6
ByLayer
370
18
48
1
60
1
100
AcDbPoint
10
10
20
-2
30
0
39
0
210
0
220
0
230
1
50
360
0
POINT
5
77
100
AcDbEntity
8
1
62
256
6
ByLayer
370
18
48
1
60
1
100
AcDbPoint
10
18
20
-2
30
0
39
0
210
0
220
0
230
1
50
360
0
POINT
5
78
100
AcDbEntity
8
1
62
256
6
ByLayer
370
18
48
1
60
1
100
AcDbPoint
10
3.997679
20
-1.92
30
0
39
0
210
0
220
0
230
1
50
360
0
SPLINE
5
FE
100
AcDbEntity
8
1
62
256
6
ByLayer
370
18
48
1
60
0
100
AcDbSpline
70
4
71
3
72
14
73
10
40
0
40
0
40
0
40
0
40
0.392927748812019
40
0.392927748812019
40
0.785855497624039
40
0.785855497624039
40
0.982319372030061
40
0.982319372030061
40
1
40
1
40
1
40
1
41
1
10
17.9864324504649
20
0.309891520991414
30
0
41
1
10
17.9871033162256
20
0.31424374729994
30
0
41
1
10
17.9859238942217
20
0.318390431545396
30
0
41
1
10
17.9801247753681
20
0.326301631811134
30
0
41
1
10
17.9755117024598
20
0.330066883662369
30
0
41
1
10
17.9660417972896
20
0.335431457905372
30
0
41
1
10
17.9624461572459
20
0.33717675409946
30
0
41
1
10
17.9580772359731
20
0.339014416909834
30
0
41
1
10
17.957713367544
20
0.339165592448694
30
0
41
1
10
17.9573463547026
20
0.339316220182184
30
0
0
SPLINE
5
FF
100
AcDbEntity
8
1
62
256
6
ByLayer
370
18
48
1
60
0
100
AcDbSpline
70
4
71
3
72
8
73
4
40
0
40
0
40
0
40
0
40
1
40
1
40
1
40
1
41
1
10
17.9864324504724
20
0.309891520999315
30
0
41
1
10
17.9752545464822
20
0.221090504459227
30
0
41
1
10
17.964076642492
20
0.132289487919167
30
0
41
1
10
17.9528987385018
20
0.043488471379078
30
0
0
SPLINE
5
100
100
AcDbEntity
8
1
62
256
6
ByLayer
370
18
48
1
60
0
100
AcDbSpline
70
4
71
3
72
8
73
4
40
0
40
0
40
0
40
0
40
1
40
1
40
1
40
1
41
1
10
9.83422504725212
20
1.74187607634391
30
0
41
1
10
9.89070150046413
20
1.76885071290838
30
0
41
1
10
9.94598282350862
20
1.7994761061164
30
0
41
1
10
10.0000000000006
20
1.83396307988721
30
0
0
SPLINE
5
101
100
AcDbEntity
8
1
62
256
6
ByLayer
370
18
48
1
60
0
100
AcDbSpline
70
4
71
3
72
10
73
6
40
0
40
0
40
0
40
0
40
0.698598206364298
40
0.698598206364298
40
1
40
1
40
1
40
1
41
1
10
17.9864324504647
20
-1.23202338660181
30
0
41
1
10
17.9877143323436
20
-1.2731419776876
30
0
41
1
10
17.9823762491179
20
-1.31373740701545
30
0
41
1
10
17.9661774732702
20
-1.37117095389021
30
0
41
1
10
17.9601090377585
20
-1.38848671519042
30
0
41
1
10
17.9530040313772
20
-1.40540851639346
30
0
0
SPLINE
5
102
100
AcDbEntity
8
1
62
256
6
ByLayer
370
13
48
1
60
0
100
AcDbSpline
70
4
71
3
72
8
73
4
40
0
40
0
40
0
40
0
40
1
40
1
40
1
40
1
41
1
10
17.9864324504651
20
-1.23202338659036
30
0
41
1
10
17.9752545464736
20
-1.25888913376011
30
0
41
1
10
17.9640766424821
20
-1.28575488092986
30
0
41
1
10
17.9528987384906
20
-1.31262062809964
30
0
0
SPLINE
5
103
100
AcDbEntity
8
1
62
256
6
ByLayer
370
18
48
1
60
0
100
AcDbSpline
70
4
71
3
72
22
73
18
40
0
40
0
40
0
40
0
40
0.0630716127000359
40
0.126961902655918
40
0.191628502727613
40
0.256835046173164
40
0.322406287216585
40
0.388370153145246
40
0.454865517839611
40
0.522058126502306
40
0.590081380483008
40
0.658917855755517
40
0.728247323525052
40
0.797739966718581
40
0.867368223693545
40
0.9372738082741
40
1
40
1
40
1
40
1
41
1
10
17.9512864944731
20
-1.35262190474552
30
0
41
1
10
17.9507484800169
20
-1.35908114614395
30
0
41
1
10
17.9496654676112
20
-1.37208347068506
30
0
41
1
10
17.9467844369295
20
-1.39173934341048
30
0
41
1
10
17.9429573447117
20
-1.41159083995913
30
0
41
1
10
17.9380895937641
20
-1.4315561203716
30
0
41
1
10
17.9322058794606
20
-1.45155292886434
30
0
41
1
10
17.9252971347172
20
-1.47154014596353
30
0
41
1
10
17.9173481875869
20
-1.49151068899556
30
0
41
1
10
17.9083319357187
20
-1.51146612736559
30
0
41
1
10
17.8982247293439
20
-1.53138926585922
30
0
41
1
10
17.8870276211904
20
-1.55121131693494
30
0
41
1
10
17.8747819888327
20
-1.57081418898258
30
0
41
1
10
17.8615350885791
20
-1.59007816654602
30
0
41
1
10
17.8473178133556
20
-1.6089356792601
30
0
41
1
10
17.8326810451827
20
-1.62669794176543
30
0
41
1
10
17.8225534644473
20
-1.63801805619542
30
0
41
1
10
17.8176479677723
20
-1.64329458921685
30
0
0
SPLINE
5
104
100
AcDbEntity
8
1
62
256
6
ByLayer
370
18
48
1
60
0
100
AcDbSpline
70
4
71
3
72
8
73
4
40
0
40
0
40
0
40
0
40
1
40
1
40
1
40
1
41
1
10
14.9701225752891
20
0.869761452942015
30
0
41
1
10
14.9785549263428
20
0.875393021489003
30
0
41
1
10
14.9869865876476
20
0.881011232384083
30
0
41
1
10
14.9954177095138
20
0.886615907766384
30
0
0
SPLINE
5
105
100
AcDbEntity
8
1
62
256
6
ByLayer
370
18
48
1
60
0
100
AcDbSpline
70
4
71
3
72
12
73
8
40
0
40
0
40
0
40
0
40
0.091425352379675
40
0.091425352379675
40
0.545712676189838
40
0.545712676189838
40
1
40
1
40
1
40
1
41
1
10
16.5628493247541
20
1.72363600500705
30
0
41
1
10
16.5948364078301
20
1.73564548576917
30
0
41
1
10
16.6268501289085
20
1.74730427858759
30
0
41
1
10
16.8178575912915
20
1.81466479224929
30
0
41
1
10
16.9756174934741
20
1.86122807136351
30
0
41
1
10
17.2905383646114
20
1.93480045684379
30
0
41
1
10
17.4477018738032
20
1.96180868647701
30
0
41
1
10
17.6054241811223
20
1.97875594445583
30
0
0
SPLINE
5
106
100
AcDbEntity
8
1
62
256
6
ByLayer
370
18
48
1
60
0
100
AcDbSpline
70
4
71
3
72
10
73
6
40
0
40
0
40
0
40
0
40
0.5
40
0.5
40
1
40
1
40
1
40
1
41
1
10
17.6054241811223
20
1.97875594445574
30
0
41
1
10
17.6233500738737
20
1.97837996826888
30
0
41
1
10
17.6412005340027
20
1.97695234715275
30
0
41
1
10
17.67679064106
20
1.9717816323556
30
0
41
1
10
17.6945303668555
20
1.96804413336147
30
0
41
1
10
17.7122330243281
20
1.96294641397802
30
0
0
SPLINE
5
107
100
AcDbEntity
8
1
62
256
6
ByLayer
370
18
48
1
60
0
100
AcDbSpline
70
4
71
3
72
22
73
18
40
0
40
0
40
0
40
0
40
0.125
40
0.125
40
0.25
40
0.25
40
0.375
40
0.375
40
0.5
40
0.5
40
0.625
40
0.625
40
0.75
40
0.75
40
0.875
40
0.875
40
1
40
1
40
1
40
1
41
1
10
17.9864324504649
20
1.48105564012963
30
0
41
1
10
17.9870880222424
20
1.50563141222739
30
0
41
1
10
17.9859823453039
20
1.52993105555123
30
0
41
1
10
17.9805034036454
20
1.57801804938691
30
0
41
1
10
17.9761361528055
20
1.60180634276287
30
0
41
1
10
17.9641882685663
20
1.64887913501852
30
0
41
1
10
17.9565354646723
20
1.6722828664152
30
0
41
1
10
17.9384047967097
20
1.71730288408716
30
0
41
1
10
17.9279079871014
20
1.73906034859959
30
0
41
1
10
17.9041162792252
20
1.78110428804013
30
0
41
1
10
17.8908083268712
20
1.80139828638681
30
0
41
1
10
17.8612442758659
20
1.84037834971639
30
0
41
1
10
17.8453132627872
20
1.85863973351553
30
0
41
1
10
17.8112046572384
20
1.89276016445495
30
0
41
1
10
17.7930315122435
20
1.90862396741775
30
0
41
1
10
17.754326627745
20
1.93782945546363
30
0
41
1
10
17.733640791391
20
1.95124021888773
30
0
41
1
10
17.7122330243286
20
1.96294641398168
30
0
0
SPLINE
5
108
100
AcDbEntity
8
1
62
256
6
ByLayer
370
18
48
1
60
0
100
AcDbSpline
70
4
71
3
72
8
73
4
40
0
40
0
40
0
40
0
40
1
40
1
40
1
40
1
41
1
10
17.7122330243403
20
1.96294641398342
30
0
41
1
10
17.7237850861751
20
1.92555776047087
30
0
41
1
10
17.7360297698739
20
1.88839945428742
30
0
41
1
10
17.7490909339055
20
1.85151268736877
30
0
0
SPLINE
5
109
100
AcDbEntity
8
1
62
256
6
ByLayer
370
18
48
1
60
0
100
AcDbSpline
70
4
71
3
72
8
73
4
40
0
40
0
40
0
40
0
40
1
40
1
40
1
40
1
41
1
10
17.7736977913162
20
-1.59321951428197
30
0
41
1
10
17.8328890990121
20
-1.51324833724004
30
0
41
1
10
17.8920743311307
20
-1.43301952411471
30
0
41
1
10
17.9512559245264
20
-1.35263995045199
30
0
0
SPLINE
5
10A
100
AcDbEntity
8
1
62
256
6
ByLayer
370
18
48
1
60
0
100
AcDbSpline
70
4
71
3
72
10
73
6
40
0
40
0
40
0
40
0
40
0.5
40
0.5
40
1
40
1
40
1
40
1
41
1
10
17.9512972418641
20
-1.35258383382524
30
0
41
1
10
17.9520170074608
20
-1.34559847911154
30
0
41
1
10
17.9525163886927
20
-1.33875038270008
30
0
41
1
10
17.9530552677832
20
-1.32534061133464
30
0
41
1
10
17.9530897140711
20
-1.31882193410175
30
0
41
1
10
17.9528987384977
20
-1.31262062809316
30
0
0
SPLINE
5
10B
100
AcDbEntity
8
1
62
256
6
ByLayer
370
18
48
1
60
0
100
AcDbSpline
70
4
71
3
72
8
73
4
40
0
40
0
40
0
40
0
40
1
40
1
40
1
40
1
41
1
10
10.9608190637229
20
-1.72386885827271
30
0
41
1
10
10.6405460424819
20
-1.764337154402
30
0
41
1
10
10.320273021241
20
-1.76834488550975
30
0
41
1
10
9.99999999999997
20
-1.73487826517126
30
0
0
SPLINE
5
10C
100
AcDbEntity
8
1
62
256
6
ByLayer
370
18
48
1
60
0
100
AcDbSpline
70
4
71
3
72
23
73
19
40
0
40
0
40
0
40
0
40
0.18133195423581
40
0.18133195423581
40
0.271997931353717
40
0.271997931353717
40
0.362663908471625
40
0.453329885589533
40
0.453329885589533
40
0.543995862707441
40
0.543995862707441
40
0.72532781694327
40
0.72532781694327
40
0.815993794061186
40
0.815993794061186
40
0.906659771179101
40
0.906659771179101
40
1
40
1
40
1
40
1
41
1
10
17.7490909347105
20
1.85151268765557
30
0
41
1
10
17.75951789927
20
1.82204789963686
30
0
41
1
10
17.7674174025566
20
1.79204441967138
30
0
41
1
10
17.7744629268477
20
1.74601535389277
30
0
41
1
10
17.7760061777628
20
1.73046740882091
30
0
41
1
10
17.7772038155408
20
1.6991079895096
30
0
41
1
10
17.776494962961
20
1.66801199030638
30
0
41
1
10
17.7717870102575
20
1.6374685474681
30
0
41
1
10
17.7649591794222
20
1.60721800856464
30
0
41
1
10
17.7604685504994
20
1.59219529002121
30
0
41
1
10
17.7436995091469
20
1.54787396984247
30
0
41
1
10
17.7286241555395
20
1.52052306509671
30
0
41
1
10
17.7010340110725
20
1.4823029088106
30
0
41
1
10
17.6909553480981
20
1.4699919842476
30
0
41
1
10
17.6697844705049
20
1.44678117267929
30
0
41
1
10
17.6586452463595
20
1.43580367256325
30
0
41
1
10
17.6350856586206
20
1.41460496099865
30
0
41
1
10
17.6226353784186
20
1.40440869803282
30
0
41
1
10
17.6097564100236
20
1.3947035072313
30
0
0
SPLINE
5
10D
100
AcDbEntity
8
1
62
256
6
ByLayer
370
13
48
1
60
0
100
AcDbSpline
70
4
71
3
72
9
73
5
40
0
40
0
40
0
40
0
40
0.758740082659887
40
1
40
1
40
1
40
1
41
1
10
17.7490909345792
20
1.85151268768024
30
0
41
1
10
17.4993939563861
20
1.8327712658301
30
0
41
1
10
17.1702997330815
20
1.77627444288268
30
0
41
1
10
16.8412055097768
20
1.68241257673648
30
0
41
1
10
16.7618082646652
20
1.65767136491368
30
0
0
SPLINE
5
10E
100
AcDbEntity
8
1
62
256
6
ByLayer
370
13
48
1
60
0
100
AcDbSpline
70
4
71
3
72
8
73
4
40
0
40
0
40
0
40
0
40
1
40
1
40
1
40
1
41
1
10
15.0691161615872
20
0.848057939791175
30
0
41
1
10
15.060156267569
20
0.842559313380576
30
0
41
1
10
15.0511963735508
20
0.837047082383236
30
0
41
1
10
15.0422364795326
20
0.831521532102641
30
0
0
SPLINE
5
10F
100
AcDbEntity
8
1
62
256
6
ByLayer
370
13
48
1
60
0
100
AcDbSpline
70
4
71
3
72
9
73
5
40
0
40
0
40
0
40
0
40
0.167348495202553
40
1
40
1
40
1
40
1
41
1
10
11.2009826370798
20
-1.7063819625802
30
0
41
1
10
11.1339884247199
20
-1.72052833330645
30
0
41
1
10
10.7336608790267
20
-1.79569139109117
30
0
41
1
10
10.3333333333334
20
-1.81310756086896
30
0
41
1
10
10.0000000000001
20
-1.78584014374607
30
0
0
SPLINE
5
110
100
AcDbEntity
8
1
62
256
6
ByLayer
370
18
48
1
60
0
100
AcDbSpline
70
4
71
3
72
18
73
14
40
0
40
0
40
0
40
0
40
0.143468991478504
40
0.143468991478504
40
0.229122092330659
40
0.229122092330659
40
0.314775193182813
40
0.314775193182813
40
0.486081394887113
40
0.486081394887113
40
0.657387596591412
40
0.657387596591412
40
1
40
1
40
1
40
1
41
1
10
11.3493648018934
20
-1.76667373552021
30
0
41
1
10
11.285150163436
20
-1.78570680508051
30
0
41
1
10
11.2208186390364
20
-1.80330863995599
30
0
41
1
10
11.1178135479613
20
-1.82901177131316
30
0
41
1
10
11.0792470920527
20
-1.83808334872919
30
0
41
1
10
11.0019710059699
20
-1.85510680680292
30
0
41
1
10
10.9632723764181
20
-1.8630542979698
30
0
41
1
10
10.8474766120143
20
-1.88504373255691
30
0
41
1
10
10.77050324395
20
-1.89725338523977
30
0
41
1
10
10.6166216420461
20
-1.91718735512734
30
0
41
1
10
10.5397183445645
20
-1.92491370843584
30
0
41
1
10
10.3088968892582
20
-1.94113533825717
30
0
41
1
10
10.1548731724523
20
-1.94269425301539
30
0
41
1
10
10.0000000000001
20
-1.93420164333725
30
0
0
SPLINE
5
111
100
AcDbEntity
8
1
62
256
6
ByLayer
370
18
48
1
60
0
100
AcDbSpline
70
4
71
3
72
9
73
5
40
0
40
0
40
0
40
0
40
0.135364464924537
40
1
40
1
40
1
40
1
41
1
10
11.1565566755393
20
-1.69764272093155
30
0
41
1
10
11.1043711170262
20
-1.70583901554315
30
0
41
1
10
10.7188522251798
20
-1.75939399789149
30
0
41
1
10
10.3333333333333
20
-1.7601841050716
30
0
41
1
10
10
20
-1.72033354563464
30
0
0
SPLINE
5
112
100
AcDbEntity
8
1
62
256
6
ByLayer
370
18
48
1
60
0
100
AcDbSpline
70
4
71
3
72
8
73
4
40
0
40
0
40
0
40
0
40
1
40
1
40
1
40
1
41
1
10
10.0000000000001
20
-1.93420164333725
30
0
41
1
10
9.9343333459486
20
-1.93114589129712
30
0
41
1
10
9.86906634167099
20
-1.92680325352634
30
0
41
1
10
9.80419356517402
20
-1.92119118902531
30
0
0
SPLINE
5
113
100
AcDbEntity
8
1
62
256
6
ByLayer
370
18
48
1
60
0
100
AcDbSpline
70
4
71
3
72
10
73
6
40
0
40
0
40
0
40
0
40
0.5
40
0.5
40
1
40
1
40
1
40
1
41
1
10
9.80419356517476
20
-1.92119118902374
30
0
41
1
10
9.77259744916299
20
-1.91158526983909
30
0
41
1
10
9.740499350731
20
-1.90304034745967
30
0
41
1
10
9.67518211497421
20
-1.88831994560539
30
0
41
1
10
9.64196424771816
20
-1.88214178169608
30
0
41
1
10
9.60808164115721
20
-1.87736861973585
30
0
0
SPLINE
5
114
100
AcDbEntity
8
1
62
256
6
ByLayer
370
18
48
1
60
0
100
AcDbSpline
70
4
71
3
72
8
73
4
40
0
40
0
40
0
40
0
40
1
40
1
40
1
40
1
41
1
10
17.7608317535947
20
1.29006586314767
30
0
41
1
10
17.7595954893499
20
1.30795030926905
30
0
41
1
10
17.7576905284037
20
1.32714585829984
30
0
41
1
10
17.7553603464632
20
1.34717513131744
30
0
0
SPLINE
5
115
100
AcDbEntity
8
1
62
256
6
ByLayer
370
18
48
1
60
0
100
AcDbSpline
70
4
71
3
72
10
73
6
40
0
40
0
40
0
40
0
40
0.5
40
0.5
40
1
40
1
40
1
40
1
41
1
10
17.1277567903049
20
0.264793773940227
30
0
41
1
10
17.1270014770411
20
0.272857607337187
30
0
41
1
10
17.1264464011622
20
0.281969295102471
30
0
41
1
10
17.1258638627993
20
0.301841703037212
30
0
41
1
10
17.1258360132587
20
0.31259003801938
30
0
41
1
10
17.1259803408837
20
0.323848637259658
30
0
0
SPLINE
5
116
100
AcDbEntity
8
1
62
256
6
ByLayer
370
18
48
1
60
0
100
AcDbSpline
70
4
71
3
72
10
73
6
40
0
40
0
40
0
40
0
40
0.847453788977809
40
0.847453788977809
40
1
40
1
40
1
40
1
41
1
10
17.7112042438006
20
-0.103513729571318
30
0
41
1
10
17.6928893141799
20
-0.112764763066508
30
0
41
1
10
17.6764653988884
20
-0.123889858075614
30
0
41
1
10
17.6594383932724
20
-0.138622942887821
30
0
41
1
10
17.6569025259044
20
-0.140918953939007
30
0
41
1
10
17.6544335644184
20
-0.143258276734997
30
0
0
SPLINE
5
117
100
AcDbEntity
8
1
62
256
6
ByLayer
370
18
48
1
60
0
100
AcDbSpline
70
4
71
3
72
32
73
28
40
0
40
0
40
0
40
0
40
0.0625000000000064
40
0.0625000000000064
40
0.125000000000013
40
0.125000000000013
40
0.187500000000019
40
0.187500000000019
40
0.250000000000026
40
0.250000000000026
40
0.375000000000039
40
0.375000000000039
40
0.437500000000041
40
0.437500000000041
40
0.500000000000043
40
0.562500000000045
40
0.562500000000045
40
0.625000000000047
40
0.625000000000047
40
0.750000000000052
40
0.750000000000052
40
0.812500000000039
40
0.812500000000039
40
0.875000000000026
40
0.937500000000013
40
0.937500000000013
40
1
40
1
40
1
40
1
41
1
10
17.7063994550294
20
0.182884292948529
30
0
41
1
10
17.6993882852764
20
0.179528855723447
30
0
41
1
10
17.6934882223083
20
0.175264629977647
30
0
41
1
10
17.6835798578859
20
0.165452003043811
30
0
41
1
10
17.67956111887
20
0.159843315220456
30
0
41
1
10
17.6734554635053
20
0.14815647104453
30
0
41
1
10
17.671312466104
20
0.142041225857412
30
0
41
1
10
17.6685448176802
20
0.129530478600032
30
0
41
1
10
17.6679290612999
20
0.123095000514297
30
0
41
1
10
17.6681268585743
20
0.104104220603745
30
0
41
1
10
17.6708762384359
20
0.0917566508717584
30
0
41
1
10
17.678321185389
20
0.0742608577498913
30
0
41
1
10
17.6813855656411
20
0.0685858249197508
30
0
41
1
10
17.6884954271669
20
0.0578801181308393
30
0
41
1
10
17.696607894102
20
0.047752194427801
30
0
41
1
10
17.7067126913477
20
0.0388047548413226
30
0
41
1
10
17.7178630304513
20
0.0304433645855511
30
0
41
1
10
17.7239730511832
20
0.0265587323492014
30
0
41
1
10
17.7434780442944
20
0.015981206380701
30
0
41
1
10
17.7581698801321
20
0.0102680472718362
30
0
41
1
10
17.7829119138652
20
0.002915202673023
30
0
41
1
10
17.7916510025429
20
0.0006575263740274
30
0
41
1
10
17.8096197005776
20
-0.0035427810009026
30
0
41
1
10
17.8281670869952
20
-0.0074592502136568
30
0
41
1
10
17.8478139786929
20
-0.0112569631693873
30
0
41
1
10
17.867981803478
20
-0.0152322606209339
30
0
41
1
10
17.8783547390268
20
-0.0173153962853974
30
0
41
1
10
17.8888140653579
20
-0.0195815937221084
30
0
0
SPLINE
5
118
100
AcDbEntity
8
1
62
256
6
ByLayer
370
18
48
1
60
0
100
AcDbSpline
70
4
71
3
72
8
73
4
40
0
40
0
40
0
40
0
40
1
40
1
40
1
40
1
41
1
10
17.7354037864042
20
1.35026175662659
30
0
41
1
10
17.7420914789914
20
1.34925318162243
30
0
41
1
10
17.7487439078253
20
1.34822620081346
30
0
41
1
10
17.7553603464632
20
1.34717513131741
30
0
0
SPLINE
5
119
100
AcDbEntity
8
1
62
256
6
ByLayer
370
18
48
1
60
0
100
AcDbSpline
70
4
71
3
72
8
73
4
40
0
40
0
40
0
40
0
40
1
40
1
40
1
40
1
41
1
10
17.720036566466
20
1.37398550256307
30
0
41
1
10
17.7303780102274
20
1.37044197687021
30
0
41
1
10
17.7422464163752
20
1.36115214413317
30
0
41
1
10
17.7553603464632
20
1.34717513131744
30
0
0
SPLINE
5
11A
100
AcDbEntity
8
1
62
256
6
ByLayer
370
18
48
1
60
0
100
AcDbSpline
70
4
71
3
72
8
73
4
40
0
40
0
40
0
40
0
40
1
40
1
40
1
40
1
41
1
10
17.7200365669944
20
1.37398550326282
30
0
41
1
10
17.629044641152
20
1.40226386609538
30
0
41
1
10
17.5380527153096
20
1.42849440488837
30
0
41
1
10
17.4470607894672
20
1.4525937537272
30
0
0
SPLINE
5
11B
100
AcDbEntity
8
1
62
256
6
ByLayer
370
18
48
1
60
0
100
AcDbSpline
70
4
71
3
72
8
73
4
40
0
40
0
40
0
40
0
40
1
40
1
40
1
40
1
41
1
10
17.7554378275506
20
1.23300416113892
30
0
41
1
10
17.7198111326014
20
1.24835089715356
30
0
41
1
10
17.6841844376522
20
1.26341542586405
30
0
41
1
10
17.6485577427029
20
1.27818956187542
30
0
0
SPLINE
5
11C
100
AcDbEntity
8
1
62
256
6
ByLayer
370
18
48
1
60
0
100
AcDbSpline
70
4
71
3
72
8
73
4
40
0
40
0
40
0
40
0
40
1
40
1
40
1
40
1
41
1
10
9.60808164115494
20
1.5017354264304
30
0
41
1
10
9.68962888027121
20
1.48770580441067
30
0
41
1
10
9.76864250985957
20
1.47866581532577
30
0
41
1
10
9.84382016277976
20
1.46987956229262
30
0
0
SPLINE
5
11D
100
AcDbEntity
8
1
62
256
6
ByLayer
370
18
48
1
60
0
100
AcDbSpline
70
4
71
3
72
8
73
4
40
0
40
0
40
0
40
0
40
1
40
1
40
1
40
1
41
1
10
9.84382016277979
20
1.46987956229265
30
0
41
1
10
9.89717984115819
20
1.46364324581043
30
0
41
1
10
9.94924750883189
20
1.4601111554982
30
0
41
1
10
10.0000000000004
20
1.4593317782327
30
0
0
SPLINE
5
11E
100
AcDbEntity
8
1
62
256
6
ByLayer
370
18
48
1
60
0
100
AcDbSpline
70
4
71
3
72
12
73
8
40
0
40
0
40
0
40
0
40
0.25000000000024
40
0.25000000000024
40
0.500000000000481
40
0.500000000000481
40
1
40
1
40
1
40
1
41
1
10
17.3814996772083
20
1.41459913338056
30
0
41
1
10
17.3822243185881
20
1.4138508399397
30
0
41
1
10
17.3831813309287
20
1.41301738619148
30
0
41
1
10
17.3853771369586
20
1.41134151066129
30
0
41
1
10
17.3866329211202
20
1.41048401015394
30
0
41
1
10
17.3905320201888
20
1.40804041502017
30
0
41
1
10
17.3932765816264
20
1.40658609857425
30
0
41
1
10
17.3959009728787
20
1.40534195697083
30
0
0
SPLINE
5
11F
100
AcDbEntity
8
1
62
256
6
ByLayer
370
18
48
1
60
0
100
AcDbSpline
70
4
71
3
72
10
73
6
40
0
40
0
40
0
40
0
40
0.727302664691769
40
0.727302664691769
40
1
40
1
40
1
40
1
41
1
10
17.4562258614232
20
1.37663052953289
30
0
41
1
10
17.4416137292948
20
1.38361723263046
30
0
41
1
10
17.4269936596843
20
1.39058138682193
30
0
41
1
10
17.4068773410192
20
1.4001359921877
30
0
41
1
10
17.4013899705439
20
1.40273979528899
30
0
41
1
10
17.395900972879
20
1.40534195697069
30
0
0
SPLINE
5
120
100
AcDbEntity
8
1
62
256
6
ByLayer
370
13
48
1
60
0
100
AcDbSpline
70
4
71
3
72
10
73
6
40
0
40
0
40
0
40
0
40
0.694554274587555
40
0.694554274587555
40
1
40
1
40
1
40
1
41
1
10
17.395900972879
20
1.40534195697069
30
0
41
1
10
17.4051035765684
20
1.3584005673506
30
0
41
1
10
17.4143062092798
20
1.3114596302419
30
0
41
1
10
17.4275559460797
20
1.24387601261895
30
0
41
1
10
17.4315979745945
20
1.22323248785671
30
0
41
1
10
17.4356418016372
20
1.20258826539063
30
0
0
SPLINE
5
121
100
AcDbEntity
8
1
62
256
6
ByLayer
370
18
48
1
60
0
100
AcDbSpline
70
4
71
3
72
18
73
14
40
0
40
0
40
0
40
0
40
0.250000000000052
40
0.250000000000052
40
0.375000000000052
40
0.375000000000052
40
0.500000000000053
40
0.500000000000053
40
0.625000000000053
40
0.625000000000053
40
0.750000000000054
40
0.750000000000054
40
1
40
1
40
1
40
1
41
1
10
17.7332708178207
20
1.2190376167579
30
0
41
1
10
17.7138700599407
20
1.23160586521087
30
0
41
1
10
17.6927709847012
20
1.24484992632492
30
0
41
1
10
17.6589218055586
20
1.26550937744608
30
0
41
1
10
17.6472307838746
20
1.27254771756748
30
0
41
1
10
17.6237671512394
20
1.28646295165828
30
0
41
1
10
17.6119145855056
20
1.29338842129164
30
0
41
1
10
17.5879689280628
20
1.30714798879089
30
0
41
1
10
17.5758184738619
20
1.31401510393604
30
0
41
1
10
17.5515631716018
20
1.32747085384764
30
0
41
1
10
17.5395131893934
20
1.33403034796677
30
0
41
1
10
17.503545597181
20
1.35319995007089
30
0
41
1
10
17.4798077747024
20
1.36531029783285
30
0
41
1
10
17.4562258614233
20
1.3766305295328
30
0
0
SPLINE
5
122
100
AcDbEntity
8
1
62
256
6
ByLayer
370
18
48
1
60
0
100
AcDbSpline
70
4
71
3
72
12
73
8
40
0
40
0
40
0
40
0
40
0.250000000000014
40
0.250000000000014
40
0.500000000000027
40
0.500000000000027
40
1
40
1
40
1
40
1
41
1
10
17.7354037864044
20
1.35026175662597
30
0
41
1
10
17.7385745123808
20
1.34520680557279
30
0
41
1
10
17.7414986338122
20
1.34013473313163
30
0
41
1
10
17.7468471376755
20
1.32996225632959
30
0
41
1
10
17.7492809022288
20
1.32483789963337
30
0
41
1
10
17.7557118329593
20
1.30963673263318
30
0
41
1
10
17.7588631114757
20
1.29972741738413
30
0
41
1
10
17.7608317535943
20
1.2900658631477
30
0
0
SPLINE
5
123
100
AcDbEntity
8
1
62
256
6
ByLayer
370
18
48
1
60
0
100
AcDbSpline
70
4
71
3
72
16
73
12
40
0
40
0
40
0
40
0
40
0.249999999999996
40
0.249999999999996
40
0.374999999999995
40
0.374999999999995
40
0.499999999999994
40
0.499999999999994
40
0.749999999999997
40
0.749999999999997
40
1
40
1
40
1
40
1
41
1
10
17.7354037864042
20
1.35026175662659
30
0
41
1
10
17.7361691622705
20
1.34468392861163
30
0
41
1
10
17.7366745772406
20
1.33806336220042
30
0
41
1
10
17.7376804936308
20
1.32644221207255
30
0
41
1
10
17.7380556016645
20
1.32228760326814
30
0
41
1
10
17.7389765859062
20
1.31340342264448
30
0
41
1
10
17.7395248106651
20
1.30865737878116
30
0
41
1
10
17.7415304977542
20
1.29368085173002
30
0
41
1
10
17.7433516912708
20
1.28273516167815
30
0
41
1
10
17.7483431259465
20
1.25911815739403
30
0
41
1
10
17.7515115820011
20
1.24644795446821
30
0
41
1
10
17.7554378275491
20
1.23300416113958
30
0
0
SPLINE
5
124
100
AcDbEntity
8
1
62
256
6
ByLayer
370
18
48
1
60
0
100
AcDbSpline
70
4
71
3
72
20
73
16
40
0
40
0
40
0
40
0
40
0.249999999999995
40
0.249999999999995
40
0.374999999999996
40
0.374999999999996
40
0.499999999999997
40
0.499999999999997
40
0.624999999999998
40
0.624999999999998
40
0.749999999999998
40
0.749999999999998
40
0.874999999999999
40
0.874999999999999
40
1
40
1
40
1
40
1
41
1
10
17.75543782756
20
1.23300416113082
30
0
41
1
10
17.7568323675545
20
1.22822833637679
30
0
41
1
10
17.7577659411018
20
1.22389042024272
30
0
41
1
10
17.7580437399476
20
1.21837747996403
30
0
41
1
10
17.7579398796546
20
1.21673293709657
30
0
41
1
10
17.757241665788
20
1.21398546134068
30
0
41
1
10
17.756635747048
20
1.21286125140259
30
0
41
1
10
17.7548451047666
20
1.21132262412507
30
0
41
1
10
17.7536725702035
20
1.21090308156766
30
0
41
1
10
17.7506982700887
20
1.21081731288308
30
0
41
1
10
17.7489558020791
20
1.21115425160025
30
0
41
1
10
17.7450199723734
20
1.21248695796862
30
0
41
1
10
17.7428179956333
20
1.21349150399939
30
0
41
1
10
17.7382196786261
20
1.21594466033307
30
0
41
1
10
17.735797370427
20
1.2174013680858
30
0
41
1
10
17.7332708178227
20
1.21903761675711
30
0
0
SPLINE
5
125
100
AcDbEntity
8
1
62
256
6
ByLayer
370
13
48
1
60
0
100
AcDbSpline
70
4
71
3
72
8
73
4
40
0
40
0
40
0
40
0
40
1
40
1
40
1
40
1
41
1
10
17.4865552232047
20
-1.33610847844736
30
0
41
1
10
17.4834852731316
20
-1.31526334379606
30
0
41
1
10
17.4804153230586
20
-1.29441820914477
30
0
41
1
10
17.4773453729856
20
-1.27357307449344
30
0
0
SPLINE
5
126
100
AcDbEntity
8
1
62
256
6
ByLayer
370
18
48
1
60
0
100
AcDbSpline
70
4
71
3
72
24
73
20
40
0
40
0
40
0
40
0
40
0.125000000000008
40
0.125000000000008
40
0.250000000000016
40
0.250000000000016
40
0.375000000000024
40
0.375000000000024
40
0.500000000000032
40
0.500000000000032
40
0.562500000000036
40
0.562500000000036
40
0.625000000000039
40
0.625000000000039
40
0.750000000000026
40
0.750000000000026
40
0.875000000000013
40
0.875000000000013
40
1
40
1
40
1
40
1
41
1
10
17.986432450464
20
-1.10533805186947
30
0
41
1
10
17.9870955943835
20
-1.1233252182202
30
0
41
1
10
17.9859536644212
20
-1.1410123342024
30
0
41
1
10
17.980317273754
20
-1.17582928809642
30
0
41
1
10
17.9758291179031
20
-1.19296017404017
30
0
41
1
10
17.9635476550325
20
-1.22667254357984
30
0
41
1
10
17.9556852110672
20
-1.24332219072488
30
0
41
1
10
17.9370769746826
20
-1.27511920351768
30
0
41
1
10
17.9263046587944
20
-1.29038214735257
30
0
41
1
10
17.9079868812788
20
-1.31234183027988
30
0
41
1
10
17.9015182753627
20
-1.31950472537849
30
0
41
1
10
17.8878369020315
20
-1.33350837831191
30
0
41
1
10
17.8806016534546
20
-1.34036904042495
30
0
41
1
10
17.8578977783757
20
-1.36031017502526
30
0
41
1
10
17.8415863965945
20
-1.37263434296335
30
0
41
1
10
17.8066581135479
20
-1.39538030532808
30
0
41
1
10
17.7880452696471
20
-1.40580544764347
30
0
41
1
10
17.7483832047904
20
-1.42464538310787
30
0
41
1
10
17.7272273430995
20
-1.43307683447526
30
0
41
1
10
17.7053882045588
20
-1.4401922127449
30
0
0
SPLINE
5
127
100
AcDbEntity
8
1
62
256
6
ByLayer
370
13
48
1
60
0
100
AcDbSpline
70
4
71
3
72
8
73
4
40
0
40
0
40
0
40
0
40
1
40
1
40
1
40
1
41
1
10
17.986432450467
20
-1.10533805188612
30
0
41
1
10
17.9752545464794
20
-1.02943945151856
30
0
41
1
10
17.9640766424917
20
-0.95354085115099
30
0
41
1
10
17.9528987385042
20
-0.877642250783424
30
0
0
SPLINE
5
128
100
AcDbEntity
8
1
62
256
6
ByLayer
370
18
48
1
60
0
100
AcDbSpline
70
4
71
3
72
10
73
6
40
0
40
0
40
0
40
0
40
0.5
40
0.5
40
1
40
1
40
1
40
1
41
1
10
17.9515980477919
20
-0.901678082281506
30
0
41
1
10
17.9522058987025
20
-0.898564839276787
30
0
41
1
10
17.9526217819586
20
-0.895002811327885
30
0
41
1
10
17.9530581701352
20
-0.886954433859358
30
0
41
1
10
17.9530751581487
20
-0.882468564982048
30
0
41
1
10
17.9528987384969
20
-0.877642250737949
30
0
0
SPLINE
5
129
100
AcDbEntity
8
1
62
256
6
ByLayer
370
13
48
1
60
0
100
AcDbSpline
70
4
71
3
72
8
73
4
40
0
40
0
40
0
40
0
40
1
40
1
40
1
40
1
41
1
10
14.6416852542049
20
1.05235382616644
30
0
41
1
10
14.6668858579116
20
1.04813423876428
30
0
41
1
10
14.6920864616184
20
1.04379589022733
30
0
41
1
10
14.717287065325
20
1.03933986327419
30
0
0
SPLINE
5
12A
100
AcDbEntity
8
1
62
256
6
ByLayer
370
13
48
1
60
0
100
AcDbSpline
70
4
71
3
72
11
73
7
40
0
40
0
40
0
40
0
40
0.0246768948427459
40
0.48344082901527
40
0.942204763187795
40
1
40
1
40
1
40
1
41
1
10
14.9462100374406
20
0.995654329244474
30
0
41
1
10
14.9641400249604
20
0.991983919402799
30
0
41
1
10
15.3154033458136
20
0.918943015743992
30
0
41
1
10
16
20
0.73356291986974
30
0
41
1
10
16.7086601136279
20
0.482893007127558
30
0
41
1
10
17.0839868939225
20
0.339950864721772
30
0
41
1
10
17.1259803408837
20
0.323848637259658
30
0
0
SPLINE
5
12B
100
AcDbEntity
8
1
62
256
6
ByLayer
370
18
48
1
60
0
100
AcDbSpline
70
4
71
3
72
28
73
24
40
0
40
0
40
0
40
0
40
0.125000000000002
40
0.125000000000002
40
0.187499999999998
40
0.187499999999998
40
0.249999999999995
40
0.249999999999995
40
0.374999999999988
40
0.374999999999988
40
0.499999999999981
40
0.499999999999981
40
0.624999999999974
40
0.624999999999974
40
0.68749999999997
40
0.68749999999997
40
0.749999999999966
40
0.749999999999966
40
0.874999999999959
40
0.874999999999959
40
0.937499999999979
40
0.937499999999979
40
1
40
1
40
1
40
1
41
1
10
17.1259803408837
20
0.32384863725963
30
0
41
1
10
17.1261773665416
20
0.339200183238347
30
0
41
1
10
17.1277870019807
20
0.354441367768317
30
0
41
1
10
17.1321309607107
20
0.377207587280679
30
0
41
1
10
17.1339030490984
20
0.384779974203781
30
0
41
1
10
17.1380934292203
20
0.399899266211094
30
0
41
1
10
17.1405268648368
20
0.407482177879246
30
0
41
1
10
17.1486554422809
20
0.429769755487456
30
0
41
1
10
17.1551817444525
20
0.444111462130792
30
0
41
1
10
17.1703718000034
20
0.471799061912662
30
0
41
1
10
17.1791407820041
20
0.485260197999224
30
0
41
1
10
17.198274640259
20
0.510125739369641
30
0
41
1
10
17.2086658513546
20
0.521629959540149
30
0
41
1
10
17.2256225277885
20
0.537405007590337
30
0
41
1
10
17.2315423393454
20
0.542441238008422
30
0
41
1
10
17.2436860403657
20
0.55181087290407
30
0
41
1
10
17.2499032314123
20
0.556145860657921
30
0
41
1
10
17.2690281974325
20
0.56808382745723
30
0
41
1
10
17.2824000431349
20
0.574635397115401
30
0
41
1
10
17.3036809216345
20
0.582031419613429
30
0
41
1
10
17.3109518355022
20
0.584071153023785
30
0
41
1
10
17.3256221474918
20
0.587188516044563
30
0
41
1
10
17.3330578001133
20
0.588279605213444
30
0
41
1
10
17.3406108862441
20
0.588880867344074
30
0
0
SPLINE
5
12C
100
AcDbEntity
8
1
62
256
6
ByLayer
370
18
48
1
60
0
100
AcDbSpline
70
4
71
3
72
12
73
8
40
0
40
0
40
0
40
0
40
0.0825640293652442
40
0.27915745164412
40
0.475750873922997
40
0.737875436961498
40
1
40
1
40
1
40
1
41
1
10
13.8149801316144
20
-1.20972816887502
30
0
41
1
10
13.7099867544096
20
-1.18995695203179
30
0
41
1
10
13.3549933772048
20
-1.11276302924199
30
0
41
1
10
12.75
20
-0.92461295492248
30
0
41
1
10
11.9166666666667
20
-0.588703450048314
30
0
41
1
10
11
20
-0.143335147761064
30
0
41
1
10
10.3333333333333
20
0.184175104193343
30
0
41
1
10
10
20
0.338305460474345
30
0
0
SPLINE
5
12D
100
AcDbEntity
8
1
62
256
6
ByLayer
370
18
48
1
60
0
100
AcDbSpline
70
4
71
3
72
20
73
16
40
0
40
0
40
0
40
0
40
0.249999999999924
40
0.249999999999924
40
0.499999999999848
40
0.499999999999848
40
0.624999999999853
40
0.624999999999853
40
0.749999999999859
40
0.749999999999859
40
0.874999999999865
40
0.874999999999865
40
0.937499999999932
40
0.937499999999932
40
1
40
1
40
1
40
1
41
1
10
17.5499794259972
20
1.12862272303118
30
0
41
1
10
17.5443013819382
20
1.13615797450114
30
0
41
1
10
17.5385118839024
20
1.14362156329054
30
0
41
1
10
17.5265158225988
20
1.15833190863353
30
0
41
1
10
17.5203177588693
20
1.16558625199102
30
0
41
1
10
17.5103936936478
20
1.17613845851469
30
0
41
1
10
17.5069732903851
20
1.17960577488955
30
0
41
1
10
17.4998067399201
20
1.18633683398525
30
0
41
1
10
17.4960672215208
20
1.1896048405545
30
0
41
1
10
17.4879768057735
20
1.19577595666391
30
0
41
1
10
17.4836437509912
20
1.19869672188381
30
0
41
1
10
17.4763005753727
20
1.20226430770739
30
0
41
1
10
17.4737509996351
20
1.20329237611011
30
0
41
1
10
17.4683078204263
20
1.20480914619739
30
0
41
1
10
17.4654503644958
20
1.20527108366502
30
0
41
1
10
17.4625814494989
20
1.20527689123028
30
0
0
SPLINE
5
12E
100
AcDbEntity
8
1
62
256
6
ByLayer
370
18
48
1
60
0
100
AcDbSpline
70
4
71
3
72
8
73
4
40
0
40
0
40
0
40
0
40
1
40
1
40
1
40
1
41
1
10
17.4625814494891
20
1.205276891202
30
0
41
1
10
17.4533167805251
20
1.20512506541456
30
0
41
1
10
17.4442924693911
20
1.20434353573828
30
0
41
1
10
17.4356418016373
20
1.2025882653906
30
0
0
SPLINE
5
12F
100
AcDbEntity
8
1
62
256
6
ByLayer
370
18
48
1
60
0
100
AcDbSpline
70
4
71
3
72
24
73
20
40
0
40
0
40
0
40
0
40
0.49999999999999
40
0.49999999999999
40
0.749999999999988
40
0.749999999999988
40
0.874999999999994
40
0.874999999999994
40
0.937499999999996
40
0.937499999999996
40
0.968749999999997
40
0.968749999999997
40
0.984374999999998
40
0.984374999999998
40
0.992187499999998
40
0.992187499999998
40
0.996093749999999
40
0.996093749999999
40
1
40
1
40
1
40
1
41
1
10
17.3814996771959
20
1.41459913339031
30
0
41
1
10
17.388611246273
20
1.37956880945097
30
0
41
1
10
17.3959143299714
20
1.34430067076659
30
0
41
1
10
17.407836371693
20
1.29103811951023
30
0
41
1
10
17.4119591840998
20
1.27322220482441
30
0
41
1
10
17.4188179531366
20
1.24642575813368
30
0
41
1
10
17.4212069281022
20
1.23747977463148
30
0
41
1
10
17.4252495803686
20
1.224064031225
30
0
41
1
10
17.4266663931769
20
1.21959155806624
30
0
41
1
10
17.4291109444344
20
1.21290679242657
30
0
41
1
10
17.4299734476654
20
1.21068131186669
30
0
41
1
10
17.4314953920361
20
1.20737487238532
30
0
41
1
10
17.4320365963277
20
1.20627607426283
30
0
41
1
10
17.4330161629737
20
1.20466490096715
30
0
41
1
10
17.4333678520232
20
1.20413141520234
30
0
41
1
10
17.4340202860606
20
1.20337493110185
30
0
41
1
10
17.4342554244525
20
1.20312934379862
30
0
41
1
10
17.4348467068121
20
1.2027010053003
30
0
41
1
10
17.4352607655908
20
1.20251095098061
30
0
41
1
10
17.4356418016372
20
1.20258826539057
30
0
0
SPLINE
5
130
100
AcDbEntity
8
1
62
256
6
ByLayer
370
18
48
1
60
0
100
AcDbSpline
70
4
71
3
72
25
73
21
40
0
40
0
40
0
40
0
40
0.053106751556738
40
0.053106751556738
40
0.106213503113476
40
0.106213503113476
40
0.212427006226958
40
0.424854012453917
40
0.424854012453917
40
0.477960764010654
40
0.477960764010654
40
0.531067515567392
40
0.637281018680861
40
0.637281018680861
40
0.743494521794331
40
0.796601273351062
40
0.796601273351062
40
0.849708024907793
40
0.849708024907793
40
1
40
1
40
1
40
1
41
1
10
17.381499677204
20
1.41459913338747
30
0
41
1
10
17.3428941497486
20
1.43217993949824
30
0
41
1
10
17.3042711312771
20
1.4493960346602
30
0
41
1
10
17.2269734344852
20
1.48307955603008
30
0
41
1
10
17.1882803671772
20
1.49955433669607
30
0
41
1
10
17.0723337460706
20
1.54772904868989
30
0
41
1
10
16.8408088852263
20
1.63915704653519
30
0
41
1
10
16.6097555636789
20
1.71532724649634
30
0
41
1
10
16.4166407910545
20
1.76966860277793
30
0
41
1
10
16.3779798184603
20
1.78008143545665
30
0
41
1
10
16.3007488289408
20
1.79993215826948
30
0
41
1
10
16.1849779481891
20
1.82826398535434
30
0
41
1
10
16.0693374365777
20
1.85221907759708
30
0
41
1
10
15.9150954951634
20
1.88019545891228
30
0
41
1
10
15.7993746921215
20
1.89821022796741
30
0
41
1
10
15.6834619726886
20
1.91174298898284
30
0
41
1
10
15.6061279068071
20
1.91976279260408
30
0
41
1
10
15.5674397626689
20
1.92327002604895
30
0
41
1
10
15.4196117845548
20
1.93474085951217
30
0
41
1
10
15.3108546508323
20
1.93914659498105
30
0
41
1
10
15.2023745192029
20
1.93952396208871
30
0
0
SPLINE
5
131
100
AcDbEntity
8
1
62
256
6
ByLayer
370
18
48
1
60
0
100
AcDbSpline
70
4
71
3
72
13
73
9
40
0
40
0
40
0
40
0
40
0.0922823622501578
40
0.252467827735424
40
0.41265329322069
40
0.572838758705957
40
0.786419379352978
40
1
40
1
40
1
40
1
41
1
10
14.6820727319294
20
-1.66783186098388
30
0
41
1
10
14.538048487953
20
-1.68611126992974
30
0
41
1
10
14.1440242439765
20
-1.71810691410664
30
0
41
1
10
13.5
20
-1.686121062658
30
0
41
1
10
12.75
20
-1.52984500003004
30
0
41
1
10
11.9166666666667
20
-1.23661448441948
30
0
41
1
10
11
20
-0.782774455124326
30
0
41
1
10
10.3333333333333
20
-0.38824401105947
30
0
41
1
10
10
20
-0.186976525690426
30
0
0
SPLINE
5
132
100
AcDbEntity
8
1
62
256
6
ByLayer
370
18
48
1
60
0
100
AcDbSpline
70
4
71
3
72
20
73
16
40
0
40
0
40
0
40
0
40
0.0156249999998984
40
0.0156249999998984
40
0.0312499999997968
40
0.0312499999997968
40
0.0624999999998037
40
0.0624999999998037
40
0.124999999999818
40
0.124999999999818
40
0.249999999999846
40
0.249999999999846
40
0.499999999999893
40
0.499999999999893
40
1
40
1
40
1
40
1
41
1
10
17.4547422858861
20
1.10087991403495
30
0
41
1
10
17.454473036424
20
1.10112167783285
30
0
41
1
10
17.4541764807134
20
1.10135214200548
30
0
41
1
10
17.4534305625003
20
1.101662399715
30
0
41
1
10
17.452973407117
20
1.10167301852613
30
0
41
1
10
17.452006745353
20
1.10124694758926
30
0
41
1
10
17.4517187831574
20
1.10069223987762
30
0
41
1
10
17.4509643571706
20
1.09915486877446
30
0
41
1
10
17.4507152814859
20
1.09804837488591
30
0
41
1
10
17.4500960047768
20
1.09474454943324
30
0
41
1
10
17.4499299523458
20
1.09250256751736
30
0
41
1
10
17.4496135187404
20
1.08574680758628
30
0
41
1
10
17.4497009456797
20
1.08121344386711
30
0
41
1
10
17.4502308937376
20
1.0675966111036
30
0
41
1
10
17.4509922243619
20
1.0584802530102
30
0
41
1
10
17.4518931553846
20
1.0493417774548
30
0
0
SPLINE
5
133
100
AcDbEntity
8
1
62
256
6
ByLayer
370
13
48
1
60
0
100
AcDbSpline
70
4
71
3
72
8
73
4
40
0
40
0
40
0
40
0
40
1
40
1
40
1
40
1
41
0.999997611689839
10
17.4682846712393
20
1.01999110328687
30
0
41
0.999997611689839
10
17.4637705427883
20
1.04695404020292
30
0
41
0.999997611689839
10
17.4592564143372
20
1.07391697711896
30
0
41
0.999997611689839
10
17.4547422858861
20
1.10087991403497
30
0
0
SPLINE
5
134
100
AcDbEntity
8
1
62
256
6
ByLayer
370
18
48
1
60
0
100
AcDbSpline
70
4
71
3
72
8
73
4
40
0
40
0
40
0
40
0
40
1
40
1
40
1
40
1
41
1
10
17.4547422858861
20
1.10087991403503
30
0
41
1
10
17.4620085500739
20
1.09435540842242
30
0
41
1
10
17.4689598907989
20
1.08765253922792
30
0
41
1
10
17.4755736214599
20
1.08075933870393
30
0
0
SPLINE
5
135
100
AcDbEntity
8
1
62
256
6
ByLayer
370
18
48
1
60
0
100
AcDbSpline
70
4
71
3
72
9
73
5
40
0
40
0
40
0
40
0
40
0.666086662788335
40
1
40
1
40
1
40
1
41
1
10
14.3185269913078
20
-1.71951951079348
30
0
41
1
10
14.2956846608718
20
-1.72252013346696
30
0
41
1
10
14.2613913298204
20
-1.72676608252036
30
0
41
1
10
14.227097998769
20
-1.73061981483661
30
0
41
1
10
14.2156469981535
20
-1.7318628833919
30
0
0
SPLINE
5
136
100
AcDbEntity
8
1
62
256
6
ByLayer
370
18
48
1
60
0
100
AcDbSpline
70
4
71
3
72
12
73
8
40
0
40
0
40
0
40
0
40
0.131514265403528
40
0.317618351388486
40
0.503722437373444
40
0.751861218686722
40
1
40
1
40
1
40
1
41
1
10
14.0300028665712
20
-1.74818114902538
30
0
41
1
10
13.8533352443808
20
-1.7600594644081
30
0
41
1
10
13.4266676221903
20
-1.76356079476383
30
0
41
1
10
12.7499999999999
20
-1.67221835502701
30
0
41
1
10
11.9166666666667
20
-1.42722460048691
30
0
41
1
10
11
20
-1.01108509303873
30
0
41
1
10
10.3333333333333
20
-0.621367894862715
30
0
41
1
10
9.99999999999997
20
-0.419623349328759
30
0
0
SPLINE
5
137
100
AcDbEntity
8
1
62
256
6
ByLayer
370
18
48
1
60
0
100
AcDbSpline
70
4
71
3
72
37
73
33
40
0
40
0
40
0
40
0
40
0.0338983939182864
40
0.0682185587025187
40
0.102961967820878
40
0.138018582616285
40
0.173273553941262
40
0.208721729217429
40
0.244430060275802
40
0.280486785802586
40
0.31697327096554
40
0.353905150480033
40
0.391137259396892
40
0.428479982210926
40
0.46589392640368
40
0.503448007803868
40
0.54124264094585
40
0.611055017066543
40
0.684807255412281
40
0.761603701598569
40
0.84195441295339
40
0.853569725550149
40
0.86576204382675
40
0.878527320246718
40
0.891856869483539
40
0.905737503570118
40
0.920154546452391
40
0.935095646058897
40
0.950552460739056
40
0.966521149875564
40
0.983002266549861
40
1
40
1
40
1
40
1
41
1
10
17.9515883611621
20
-0.901629173233687
30
0
41
1
10
17.9510925119373
20
-0.906967644477248
30
0
41
1
10
17.9500946440286
20
-0.91771100933363
30
0
41
1
10
17.9473182056996
20
-0.933685632573173
30
0
41
1
10
17.9435756804665
20
-0.94961697215291
30
0
41
1
10
17.9387692383185
20
-0.965419764570214
30
0
41
1
10
17.9329247869318
20
-0.981029102897338
30
0
41
1
10
17.9260349825738
20
-0.996400333213558
30
0
41
1
10
17.9180878282138
20
-1.01151583801371
30
0
41
1
10
17.9090576776877
20
-1.02636490604129
30
0
41
1
10
17.8989185494746
20
-1.04092491435247
30
0
41
1
10
17.8876641673537
20
-1.05513987786841
30
0
41
1
10
17.8753323607734
20
-1.06893741056805
30
0
41
1
10
17.8619715752774
20
-1.0822452268371
30
0
41
1
10
17.847616319527
20
-1.09501224288565
30
0
41
1
10
17.8322682926878
20
-1.10721540103546
30
0
41
1
10
17.8113422325814
20
-1.12208621192715
30
0
41
1
10
17.7831717360112
20
-1.1390804396425
30
0
41
1
10
17.7459373036316
20
-1.15695064897875
30
0
41
1
10
17.7039254798166
20
-1.1725235818233
30
0
41
1
10
17.6711882263622
20
-1.18127280594678
30
0
41
1
10
17.6503934104671
20
-1.1856505517631
30
0
41
1
10
17.6430381317341
20
-1.18709593022768
30
0
41
1
10
17.6352818383444
20
-1.18850670377927
30
0
41
1
10
17.627124334363
20
-1.18986787643794
30
0
41
1
10
17.6185681368516
20
-1.19116392227926
30
0
41
1
10
17.6096169578514
20
-1.19237909185043
30
0
41
1
10
17.6002740437224
20
-1.19349678981328
30
0
41
1
10
17.5905415527082
20
-1.19450140162988
30
0
41
1
10
17.5804181326448
20
-1.19537159040593
30
0
41
1
10
17.5699070898635
20
-1.19610635812467
30
0
41
1
10
17.5627374467935
20
-1.19644516521922
30
0
41
1
10
17.5590973073806
20
-1.1966171828561
30
0
0
SPLINE
5
138
100
AcDbEntity
8
1
62
256
6
ByLayer
370
18
48
1
60
0
100
AcDbSpline
70
4
71
3
72
12
73
8
40
0
40
0
40
0
40
0
40
0.161398347762028
40
0.161398347762028
40
0.580698932380365
40
0.580698932380365
40
1
40
1
40
1
40
1
41
1
10
17.7809037374115
20
-0.589836841134485
30
0
41
1
10
17.7900860758361
20
-0.606636620184759
30
0
41
1
10
17.7992682699479
20
-0.62343139715972
30
0
41
1
10
17.832304623816
20
-0.683841352802318
30
0
41
1
10
17.8561580291132
20
-0.727430544800285
30
0
41
1
10
17.9038634089528
20
-0.814560202409922
30
0
41
1
10
17.9277153889722
20
-0.858100626182818
30
0
41
1
10
17.9515667608159
20
-0.901620994558044
30
0
0
SPLINE
5
139
100
AcDbEntity
8
1
62
256
6
ByLayer
370
13
48
1
60
0
100
AcDbSpline
70
4
71
3
72
10
73
6
40
0
40
0
40
0
40
0
40
0.932172266455509
40
0.932172266455509
40
1
40
1
40
1
40
1
41
1
10
17.395792567964
20
-0.840200763788374
30
0
41
1
10
17.4052855645171
20
-0.905047587425457
30
0
41
1
10
17.4147786089371
20
-0.969894808873505
30
0
41
1
10
17.4249624470539
20
-1.03946093390525
30
0
41
1
10
17.4256533368205
20
-1.04417943060571
30
0
41
1
10
17.4263434084646
20
-1.04889804617352
30
0
0
SPLINE
5
13A
100
AcDbEntity
8
1
62
256
6
ByLayer
370
18
48
1
60
0
100
AcDbSpline
70
4
71
3
72
16
73
12
40
0
40
0
40
0
40
0
40
0.250000000000005
40
0.250000000000005
40
0.375000000000008
40
0.375000000000008
40
0.500000000000011
40
0.500000000000011
40
0.750000000000005
40
0.750000000000005
40
1
40
1
40
1
40
1
41
1
10
17.7736977913173
20
-1.59321951427543
30
0
41
1
10
17.7757808042125
20
-1.60231530886628
30
0
41
1
10
17.7768763998068
20
-1.61162245814944
30
0
41
1
10
17.7770072827144
20
-1.62595436775496
30
0
41
1
10
17.7767966766367
20
-1.63079438915656
30
0
41
1
10
17.7758327273362
20
-1.64062108826786
30
0
41
1
10
17.7750756517011
20
-1.64561862812704
30
0
41
1
10
17.7719542385363
20
-1.66067441679328
30
0
41
1
10
17.7687306756287
20
-1.67085275783444
30
0
41
1
10
17.7598872420971
20
-1.69162006789125
30
0
41
1
10
17.7542758770299
20
-1.7022060994681
30
0
41
1
10
17.7472244882177
20
-1.71311327091954
30
0
0
SPLINE
5
13B
100
AcDbEntity
8
1
62
256
6
ByLayer
370
18
48
1
60
0
100
AcDbSpline
70
4
71
3
72
12
73
8
40
0
40
0
40
0
40
0
40
0.276999065230851
40
0.276999065230851
40
0.638499532615426
40
0.638499532615426
40
1
40
1
40
1
40
1
41
1
10
17.7189158276823
20
-1.43953191566473
30
0
41
1
10
17.7233739017398
20
-1.45527649598432
30
0
41
1
10
17.7279981860275
20
-1.47059954528228
30
0
41
1
10
17.7390432667802
20
-1.50494158924562
30
0
41
1
10
17.7455820438346
20
-1.523661369607
30
0
41
1
10
17.7592390774406
20
-1.55963129404873
30
0
41
1
10
17.7663424226785
20
-1.57683904520988
30
0
41
1
10
17.7736977913172
20
-1.59321951427557
30
0
0
SPLINE
5
13C
100
AcDbEntity
8
1
62
256
6
ByLayer
370
18
48
1
60
0
100
AcDbSpline
70
4
71
3
72
10
73
6
40
0
40
0
40
0
40
0
40
0.532073591224888
40
0.532073591224888
40
1
40
1
40
1
40
1
41
1
10
17.0422524815975
20
-1.16359274034446
30
0
41
1
10
17.0970426628346
20
-1.18600882384115
30
0
41
1
10
17.1522187350286
20
-1.20694814435089
30
0
41
1
10
17.2555013303001
20
-1.2432839955508
30
0
41
1
10
17.3037370197995
20
-1.25908050444102
30
0
41
1
10
17.3518841289994
20
-1.27372789124212
30
0
0
SPLINE
5
13D
100
AcDbEntity
8
1
62
256
6
ByLayer
370
18
48
1
60
0
100
AcDbSpline
70
4
71
3
72
20
73
16
40
0
40
0
40
0
40
0
40
0.167820034609599
40
0.167820034609599
40
0.335640069219197
40
0.335640069219197
40
0.503460103828796
40
0.503460103828796
40
0.58737012113362
40
0.58737012113362
40
0.671280138438444
40
0.671280138438444
40
0.839100173048088
40
0.839100173048088
40
1
40
1
40
1
40
1
41
1
10
17.0422524815975
20
-1.16359274034446
30
0
41
1
10
17.0330435165474
20
-1.15982511401396
30
0
41
1
10
17.0243206454304
20
-1.15543334294261
30
0
41
1
10
17.0079405354007
20
-1.14525376308256
30
0
41
1
10
17.0002449197617
20
-1.13943207963757
30
0
41
1
10
16.9862566186006
20
-1.12629407658122
30
0
41
1
10
16.9800986788314
20
-1.11911549545931
30
0
41
1
10
16.9721512777794
20
-1.10740104359485
30
0
41
1
10
16.9697177475312
20
-1.10333803017537
30
0
41
1
10
16.9652967807175
20
-1.09488450863012
30
0
41
1
10
16.9633000469268
20
-1.090466367614
30
0
41
1
10
16.9581040512684
20
-1.0769582772831
30
0
41
1
10
16.9556722587174
20
-1.06760734405327
30
0
41
1
10
16.9527827606587
20
-1.04867235653094
30
0
41
1
10
16.952260004646
20
-1.03903609526529
30
0
41
1
10
16.9525720735203
20
-1.02940346966784
30
0
0
SPLINE
5
13E
100
AcDbEntity
8
1
62
256
6
ByLayer
370
13
48
1
60
0
100
AcDbSpline
70
4
71
3
72
15
73
11
40
0
40
0
40
0
40
0
40
0.0505105209602546
40
0.203382940556153
40
0.356255360152052
40
0.50912777974795
40
0.662000199343849
40
0.814872618939748
40
0.967745038535646
40
1
40
1
40
1
40
1
41
1
10
16.7478072291937
20
-0.912801169882783
30
0
41
1
10
16.6652048194625
20
-0.890782915996652
30
0
41
1
10
16.3326024097313
20
-0.797310213581454
30
0
41
1
10
15.75
20
-0.602312155955843
30
0
41
1
10
15
20
-0.303194216824664
30
0
41
1
10
14.25
20
0.0147941027764773
30
0
41
1
10
13.5
20
0.334585254073545
30
0
41
1
10
12.75
20
0.631823403043228
30
0
41
1
10
12.1972518300724
20
0.815622329424571
30
0
41
1
10
11.8945036601448
20
0.901317517086483
30
0
41
1
10
11.8417554902172
20
0.915769269966802
30
0
0
SPLINE
5
13F
100
AcDbEntity
8
1
62
256
6
ByLayer
370
13
48
1
60
0
100
AcDbSpline
70
4
71
3
72
8
73
4
40
0
40
0
40
0
40
0
40
1
40
1
40
1
40
1
41
1
10
16.8390626908412
20
-0.242425458362732
30
0
41
1
10
16.8293495922154
20
-0.24882383517496
30
0
41
1
10
16.8196364935897
20
-0.255217823142203
30
0
41
1
10
16.809923394964
20
-0.261607074253959
30
0
0
SPLINE
5
140
100
AcDbEntity
8
1
62
256
6
ByLayer
370
18
48
1
60
0
100
AcDbSpline
70
4
71
3
72
16
73
12
40
0
40
0
40
0
40
0
40
0.249999999999993
40
0.249999999999993
40
0.37499999999999
40
0.37499999999999
40
0.499999999999986
40
0.499999999999986
40
0.749999999999993
40
0.749999999999993
40
1
40
1
40
1
40
1
41
1
10
17.7809037374116
20
-0.58983684113457
30
0
41
1
10
17.7829826263684
20
-0.607472947167821
30
0
41
1
10
17.7839476742663
20
-0.625075598507692
30
0
41
1
10
17.783698175032
20
-0.651407320127191
30
0
41
1
10
17.7833296327877
20
-0.660172277626941
30
0
41
1
10
17.7819832642013
20
-0.677670396985576
30
0
41
1
10
17.7809996005082
20
-0.68643845395772
30
0
41
1
10
17.7770850672914
20
-0.712366900534107
30
0
41
1
10
17.7731988990832
20
-0.729146316941979
30
0
41
1
10
17.7627786043162
20
-0.761589096205341
30
0
41
1
10
17.756252488477
20
-0.777256608539574
30
0
41
1
10
17.7481385671595
20
-0.79221381579049
30
0
0
SPLINE
5
141
100
AcDbEntity
8
1
62
256
6
ByLayer
370
18
48
1
60
0
100
AcDbSpline
70
4
71
3
72
13
73
9
40
0
40
0
40
0
40
0
40
0.25
40
0.25
40
0.5
40
0.75
40
0.75
40
1
40
1
40
1
40
1
41
1
10
17.7059174067645
20
-0.177242539709283
30
0
41
1
10
17.7108491300257
20
-0.210209521784691
30
0
41
1
10
17.7161201871503
20
-0.243634724499628
30
0
41
1
10
17.7273310144759
20
-0.311249226308746
30
0
41
1
10
17.7391826656046
20
-0.379464986568905
30
0
41
1
10
17.7523276071139
20
-0.448894187664848
30
0
41
1
10
17.7661285040878
20
-0.518938844623648
30
0
41
1
10
17.77336731409
20
-0.554316098356963
30
0
41
1
10
17.7809037374116
20
-0.589836841134542
30
0
0
SPLINE
5
142
100
AcDbEntity
8
1
62
256
6
ByLayer
370
18
48
1
60
0
100
AcDbSpline
70
4
71
3
72
10
73
6
40
0
40
0
40
0
40
0
40
0.5
40
0.5
40
1
40
1
40
1
40
1
41
1
10
17.2160584885791
20
0.147353130673338
30
0
41
1
10
17.2973357504165
20
0.095123671940371
30
0
41
1
10
17.3788077181772
20
0.0418992043863113
30
0
41
1
10
17.5421027378047
20
-0.0663438814835047
30
0
41
1
10
17.6239260534717
20
-0.121363847901478
30
0
41
1
10
17.7059174067645
20
-0.177242539709283
30
0
0
SPLINE
5
143
100
AcDbEntity
8
1
62
256
6
ByLayer
370
18
48
1
60
0
100
AcDbSpline
70
4
71
3
72
17
73
13
40
0
40
0
40
0
40
0
40
0.24999999999993
40
0.24999999999993
40
0.374999999999936
40
0.374999999999936
40
0.499999999999942
40
0.624999999999948
40
0.624999999999948
40
0.749999999999953
40
0.749999999999953
40
1
40
1
40
1
40
1
41
1
10
17.2160584885791
20
0.147353130673338
30
0
41
1
10
17.2037269352892
20
0.155277491547565
30
0
41
1
10
17.1922911917744
20
0.163799388563177
30
0
41
1
10
17.1766681511877
20
0.177572380056319
30
0
41
1
10
17.171692688517
20
0.182356069298749
30
0
41
1
10
17.1624288541301
20
0.192165961175363
30
0
41
1
10
17.1539273975028
20
0.202128644578948
30
0
41
1
10
17.1469635567925
20
0.212393625474306
30
0
41
1
10
17.1407938023708
20
0.222813691515142
30
0
41
1
10
17.1380909896168
20
0.2281409580456
30
0
41
1
10
17.1313766959814
20
0.244028182103023
30
0
41
1
10
17.1287229786999
20
0.254471145872714
30
0
41
1
10
17.1277567902809
20
0.264793773938038
30
0
0
SPLINE
5
144
100
AcDbEntity
8
1
62
256
6
ByLayer
370
13
48
1
60
0
100
AcDbSpline
70
4
71
3
72
10
73
6
40
0
40
0
40
0
40
0
40
0.064013714929382
40
0.565072913243807
40
1
40
1
40
1
40
1
41
1
10
17.1277567903049
20
0.264793773940227
30
0
41
1
10
17.0851711935366
20
0.281562032820006
30
0
41
1
10
16.709252263435
20
0.428788440663453
30
0
41
1
10
16.0439948757757
20
0.674226296494311
30
0
41
1
10
15.4213230848846
20
0.860285972244895
30
0
41
1
10
15.131984627327
20
0.93301806654344
30
0
0
SPLINE
5
145
100
AcDbEntity
8
1
62
256
6
ByLayer
370
18
48
1
60
0
100
AcDbSpline
70
4
71
3
72
8
73
4
40
0
40
0
40
0
40
0
40
1
40
1
40
1
40
1
41
1
10
17.7472244882204
20
-1.7131132709178
30
0
41
1
10
17.7497317516891
20
-1.71144367550249
30
0
41
1
10
17.7527473068045
20
-1.70889060199866
30
0
41
1
10
17.7562996747364
20
-1.70556295173426
30
0
0
SPLINE
5
146
100
AcDbEntity
8
1
62
256
6
ByLayer
370
18
48
1
60
0
100
AcDbSpline
70
4
71
3
72
18
73
14
40
0
40
0
40
0
40
0
40
0.0354195603848922
40
0.107053969742023
40
0.178688379099153
40
0.286139993134849
40
0.393591607170545
40
0.50104322120624
40
0.608494835241936
40
0.715946449277632
40
0.823398063313328
40
0.966666882027589
40
1
40
1
40
1
40
1
41
1
10
17.7472244882226
20
-1.71311327091883
30
0
41
1
10
17.6648163254817
20
-1.72498725558373
30
0
41
1
10
17.4157414960742
20
-1.75384429380154
30
0
41
1
10
17
20
-1.75987655955919
30
0
41
1
10
16.4166666666667
20
-1.69332410989196
30
0
41
1
10
15.75
20
-1.51309886951455
30
0
41
1
10
15
20
-1.18533502874365
30
0
41
1
10
14.25
20
-0.762537676667506
30
0
41
1
10
13.5
20
-0.275180858634854
30
0
41
1
10
12.75
20
0.236596299623073
30
0
41
1
10
11.9166666666667
20
0.780964403606731
30
0
41
1
10
11.255779547214
20
1.15143835033146
30
0
41
1
10
10.8448924277613
20
1.33426288321456
30
0
41
1
10
10.767338641642
20
1.36695696091826
30
0
0
SPLINE
5
147
100
AcDbEntity
8
1
62
256
6
ByLayer
370
18
48
1
60
0
100
AcDbSpline
70
4
71
3
72
8
73
4
40
0
40
0
40
0
40
0
40
1
40
1
40
1
40
1
41
1
10
17.7481385671595
20
-0.79221381579049
30
0
41
1
10
17.7502061151562
20
-0.805294366081256
30
0
41
1
10
17.752594656569
20
-0.818141925489471
30
0
41
1
10
17.7553132620815
20
-0.830731443849459
30
0
0
SPLINE
5
148
100
AcDbEntity
8
1
62
256
6
ByLayer
370
18
48
1
60
0
100
AcDbSpline
70
4
71
3
72
11
73
7
40
0
40
0
40
0
40
0
40
0.222995848116389
40
0.521063422634089
40
0.81913099715179
40
1
40
1
40
1
40
1
41
1
10
17.7481385671595
20
-0.792213815790518
30
0
41
1
10
17.498759044773
20
-0.650344109187444
30
0
41
1
10
16.9160461890532
20
-0.296572135691406
30
0
41
1
10
16
20
0.297960962870519
30
0
41
1
10
15.1310648788944
20
0.826845662356732
30
0
41
1
10
14.595463091122
20
1.10228330950989
30
0
41
1
10
14.3931946366831
20
1.19665638502863
30
0
0
SPLINE
5
149
100
AcDbEntity
8
1
62
256
6
ByLayer
370
13
48
1
60
0
100
AcDbSpline
70
4
71
3
72
8
73
4
40
0
40
0
40
0
40
0
40
1
40
1
40
1
40
1
41
1
10
17.4865868357273
20
1.01497729375137
30
0
41
1
10
17.4829157643145
20
1.03690464207389
30
0
41
1
10
17.4792446929016
20
1.05883199039641
30
0
41
1
10
17.4755736214887
20
1.08075933871896
30
0
0
SPLINE
5
14A
100
AcDbEntity
8
1
62
256
6
ByLayer
370
18
48
1
60
0
100
AcDbSpline
70
4
71
3
72
8
73
4
40
0
40
0
40
0
40
0
40
1
40
1
40
1
40
1
41
1
10
17.9864324504633
20
0.627539239023406
30
0
41
1
10
17.9752545464713
20
0.694304977627837
30
0
41
1
10
17.9640766424792
20
0.76107071623224
30
0
41
1
10
17.9528987384871
20
0.827836454836671
30
0
0
SPLINE
5
14B
100
AcDbEntity
8
1
62
256
6
ByLayer
370
18
48
1
60
0
100
AcDbSpline
70
4
71
3
72
10
73
6
40
0
40
0
40
0
40
0
40
0.5
40
0.5
40
1
40
1
40
1
40
1
41
1
10
17.9518837998132
20
0.848947114643323
30
0
41
1
10
17.9523833728637
20
0.84477557039375
30
0
41
1
10
17.9527194035397
20
0.840922208834513
30
0
41
1
10
17.9530589528391
20
0.833862410280602
30
0
41
1
10
17.9530600763532
20
0.830657005029167
30
0
41
1
10
17.9528987384978
20
0.827836454784745
30
0
0
SPLINE
5
14C
100
AcDbEntity
8
1
62
256
6
ByLayer
370
18
48
1
60
0
100
AcDbSpline
70
4
71
3
72
39
73
35
40
0
40
0
40
0
40
0
40
0.0315175312207697
40
0.0633796643408306
40
0.0956137541580416
40
0.128163451212488
40
0.160916795032449
40
0.193821408687117
40
0.226908865043027
40
0.260245464235966
40
0.293906132497937
40
0.327951306424825
40
0.362369299194134
40
0.397021227213072
40
0.431759272939481
40
0.466563830539006
40
0.501494186826872
40
0.536635120510639
40
0.605166391493356
40
0.677600798414484
40
0.753050010194285
40
0.831989797545047
40
0.843234560982738
40
0.855006190479864
40
0.867301364347194
40
0.880112671839251
40
0.893428553049406
40
0.907235749105387
40
0.921522586019018
40
0.93628068833464
40
0.951505808177606
40
0.967197949645327
40
0.983360618117393
40
1
40
1
40
1
40
1
41
1
10
17.951875095113
20
0.849001892057714
30
0
41
1
10
17.9514583789639
20
0.852352867021665
30
0
41
1
10
17.9506203904341
20
0.859091455362886
30
0
41
1
10
17.9482186989202
20
0.869366351153872
30
0
41
1
10
17.9449512304797
20
0.879814866267537
30
0
41
1
10
17.94072809485
20
0.890414454464661
30
0
41
1
10
17.9355715459671
20
0.901118705959107
30
0
41
1
10
17.929477879448
20
0.911893460229095
30
0
41
1
10
17.9224442683314
20
0.922725341520305
30
0
41
1
10
17.9144534519263
20
0.933616276273085
30
0
41
1
10
17.9054829909501
20
0.944571332233437
30
0
41
1
10
17.8955130114761
20
0.955586348012218
30
0
41
1
10
17.8845457149526
20
0.966630136413244
30
0
41
1
10
17.8726159932396
20
0.977638912400209
30
0
41
1
10
17.8597679013154
20
0.988545258347813
30
0
41
1
10
17.8460296212552
20
0.999311637413825
30
0
41
1
10
17.8313997499761
20
1.00992936111871
30
0
41
1
10
17.8109882914952
20
1.02368195972503
30
0
41
1
10
17.783082720363
20
1.04060518832358
30
0
41
1
10
17.7457765956083
20
1.06031731327141
30
0
41
1
10
17.7036752629859
20
1.07947454119056
30
0
41
1
10
17.6708986304597
20
1.09221262569
30
0
41
1
10
17.6501351522526
20
1.09954765464252
30
0
41
1
10
17.6428919236414
20
1.10204277126493
30
0
41
1
10
17.6352730238953
20
1.104598826401
30
0
41
1
10
17.6272781087694
20
1.10720680258484
30
0
41
1
10
17.6189094219216
20
1.1098562308558
30
0
41
1
10
17.6101704902039
20
1.1125357406649
30
0
41
1
10
17.6010647963809
20
1.11523401394672
30
0
41
1
10
17.5915944711865
20
1.11794000207573
30
0
41
1
10
17.5817602341205
20
1.12064408508428
30
0
41
1
10
17.5715594609464
20
1.12333412615152
30
0
41
1
10
17.560993986977
20
1.1260104280675
30
0
41
1
10
17.5537980517784
20
1.12772887526339
30
0
41
1
10
17.5501477947829
20
1.12860058598963
30
0
0
SPLINE
5
14D
100
AcDbEntity
8
1
62
256
6
ByLayer
370
18
48
1
60
0
100
AcDbSpline
70
4
71
3
72
30
73
26
40
0
40
0
40
0
40
0
40
0.125000000000071
40
0.125000000000071
40
0.187500000000068
40
0.187500000000068
40
0.250000000000065
40
0.250000000000065
40
0.312500000000062
40
0.312500000000062
40
0.34375000000006
40
0.34375000000006
40
0.375000000000058
40
0.375000000000058
40
0.406250000000056
40
0.406250000000056
40
0.437500000000055
40
0.437500000000055
40
0.500000000000049
40
0.500000000000049
40
0.625000000000036
40
0.625000000000036
40
0.750000000000024
40
0.750000000000024
40
1
40
1
40
1
40
1
41
1
10
17.4755736214887
20
1.08075933871885
30
0
41
1
10
17.4800489683618
20
1.07609488154767
30
0
41
1
10
17.4847024896731
20
1.07149411329794
30
0
41
1
10
17.4922625681922
20
1.06488207892187
30
0
41
1
10
17.4948719197654
20
1.06273483547057
30
0
41
1
10
17.5004114637795
20
1.05864999404449
30
0
41
1
10
17.5033586921472
20
1.05668804107546
30
0
41
1
10
17.5097859869869
20
1.05334856731622
30
0
41
1
10
17.5133346149863
20
1.05193340988924
30
0
41
1
10
17.5189115744722
20
1.05127440095856
30
0
41
1
10
17.520788016591
20
1.05132773737438
30
0
41
1
10
17.5242083132123
20
1.05200701991527
30
0
41
1
10
17.5257762711208
20
1.05262847204673
30
0
41
1
10
17.5284944562049
20
1.05417063693969
30
0
41
1
10
17.5296898826253
20
1.05510532917825
30
0
41
1
10
17.5317937452122
20
1.05710403233482
30
0
41
1
10
17.5327125049216
20
1.05817336260637
30
0
41
1
10
17.535218120226
20
1.06151360041673
30
0
41
1
10
17.5365553089698
20
1.06391298164527
30
0
41
1
10
17.5400008734275
20
1.0711935638692
30
0
41
1
10
17.541607757906
20
1.07624303955774
30
0
41
1
10
17.5443155702685
20
1.08648725194246
30
0
41
1
10
17.5453850981634
20
1.09169823486394
30
0
41
1
10
17.5481247711947
20
1.10739857395248
30
0
41
1
10
17.5493395920771
20
1.1179619058928
30
0
41
1
10
17.5503065057678
20
1.12856319494321
30
0
0
SPLINE
5
14E
100
AcDbEntity
8
1
62
256
6
ByLayer
370
18
48
1
60
0
100
AcDbSpline
70
4
71
3
72
27
73
23
40
0
40
0
40
0
40
0
40
0.124999999999996
40
0.124999999999996
40
0.249999999999992
40
0.249999999999992
40
0.312499999999991
40
0.312499999999991
40
0.374999999999989
40
0.374999999999989
40
0.499999999999987
40
0.499999999999987
40
0.562499999999977
40
0.562499999999977
40
0.624999999999967
40
0.624999999999967
40
0.749999999999969
40
0.87499999999997
40
0.87499999999997
40
0.937499999999985
40
0.937499999999985
40
1
40
1
40
1
40
1
41
1
10
17.9864324504649
20
0.627539239026191
30
0
41
1
10
17.9871194083667
20
0.639366327638697
30
0
41
1
10
17.985860229578
20
0.65121424023809
30
0
41
1
10
17.9797153454521
20
0.674948869866313
30
0
41
1
10
17.9748369816965
20
0.686835508341318
30
0
41
1
10
17.9648165168589
20
0.704694387736481
30
0
41
1
10
17.9610053266968
20
0.710675630370702
30
0
41
1
10
17.9525482689075
20
0.72251553095785
30
0
41
1
10
17.9479099708615
20
0.728369857290915
30
0
41
1
10
17.9328005300049
20
0.745741531292111
30
0
41
1
10
17.9211428525613
20
0.757068857086665
30
0
41
1
10
17.9012916501332
20
0.773681144557571
30
0
41
1
10
17.8942775051831
20
0.77915498230854
30
0
41
1
10
17.8794310091141
20
0.789971623228837
30
0
41
1
10
17.8715848612418
20
0.795320095703403
30
0
41
1
10
17.8471806467192
20
0.81091016449966
30
0
41
1
10
17.8121189043253
20
0.830661745915478
30
0
41
1
10
17.7720552575774
20
0.848360894563882
30
0
41
1
10
17.7399851309667
20
0.860805407578141
30
0
41
1
10
17.7289954028102
20
0.864797619976969
30
0
41
1
10
17.7066664943293
20
0.872376568477051
30
0
41
1
10
17.6952912671362
20
0.875977289423673
30
0
41
1
10
17.6837039775888
20
0.879388102370086
30
0
0
SPLINE
5
14F
100
AcDbEntity
8
1
62
256
6
ByLayer
370
18
48
1
60
0
100
AcDbSpline
70
4
71
3
72
30
73
26
40
0
40
0
40
0
40
0
40
0.125000000000012
40
0.125000000000012
40
0.18750000000002
40
0.18750000000002
40
0.250000000000028
40
0.312500000000036
40
0.312500000000036
40
0.343750000000036
40
0.343750000000036
40
0.375000000000037
40
0.437500000000026
40
0.437500000000026
40
0.500000000000016
40
0.500000000000016
40
0.625000000000013
40
0.625000000000013
40
0.68750000000001
40
0.68750000000001
40
0.750000000000008
40
0.750000000000008
40
0.875000000000004
40
0.875000000000004
40
1
40
1
40
1
40
1
41
1
10
17.7268125218109
20
0.819937734293745
30
0
41
1
10
17.7385521119388
20
0.804837400450367
30
0
41
1
10
17.7473849955952
20
0.789650222248781
30
0
41
1
10
17.7548562140145
20
0.766696827483912
30
0
41
1
10
17.7563680476836
20
0.758961240429272
30
0
41
1
10
17.7570688158945
20
0.743832965100836
30
0
41
1
10
17.7554935094079
20
0.728996044093719
30
0
41
1
10
17.7490593277235
20
0.714781094937422
30
0
41
1
10
17.7422645005522
20
0.704371954007968
30
0
41
1
10
17.7396635561012
20
0.700940670722872
30
0
41
1
10
17.7339051276409
20
0.694295658076925
30
0
41
1
10
17.7244029160989
20
0.684602627032319
30
0
41
1
10
17.7124208447198
20
0.6756969151009
30
0
41
1
10
17.6944114164222
20
0.664468185957958
30
0
41
1
10
17.6843330166165
20
0.659159743013134
30
0
41
1
10
17.6522124156123
20
0.644512574026862
30
0
41
1
10
17.628102676669
20
0.63627192323051
30
0
41
1
10
17.5890698844767
20
0.625532413173687
30
0
41
1
10
17.5755280420107
20
0.622218640952127
30
0
41
1
10
17.5480032549354
20
0.616147271081417
30
0
41
1
10
17.5339839580558
20
0.613377466550475
30
0
41
1
10
17.4912891114893
20
0.605727266256991
30
0
41
1
10
17.4619833090122
20
0.601499146426136
30
0
41
1
10
17.4021493489446
20
0.594307975055784
30
0
41
1
10
17.3716171414024
20
0.591349114986912
30
0
41
1
10
17.3406108862441
20
0.588880867344074
30
0
0
SPLINE
5
150
100
AcDbEntity
8
1
62
256
6
ByLayer
370
18
48
1
60
0
100
AcDbSpline
70
4
71
3
72
18
73
14
40
0
40
0
40
0
40
0
40
0.250000000000002
40
0.250000000000002
40
0.500000000000004
40
0.500000000000004
40
0.625000000000003
40
0.625000000000003
40
0.750000000000002
40
0.750000000000002
40
0.875000000000001
40
0.875000000000001
40
1
40
1
40
1
40
1
41
1
10
17.7562996747377
20
-1.7055629517337
30
0
41
1
10
17.7576917828623
20
-1.70425879248182
30
0
41
1
10
17.7586660156945
20
-1.70349896925754
30
0
41
1
10
17.7592450877602
20
-1.70365220813213
30
0
41
1
10
17.7588178614278
20
-1.7046055910196
30
0
41
1
10
17.7564236797085
20
-1.70792906350437
30
0
41
1
10
17.7553523607403
20
-1.70932482498051
30
0
41
1
10
17.7525763818291
20
-1.71274762447365
30
0
41
1
10
17.7509142879335
20
-1.71472033935663
30
0
41
1
10
17.7471371257683
20
-1.71904920324704
30
0
41
1
10
17.7450060824775
20
-1.72142195912261
30
0
41
1
10
17.7405540944746
20
-1.7262501275377
30
0
41
1
10
17.7382051009214
20
-1.72873827809269
30
0
41
1
10
17.7357534048327
20
-1.73128036307119
30
0
0
SPLINE
5
151
100
AcDbEntity
8
1
62
256
6
ByLayer
370
18
48
1
60
0
100
AcDbSpline
70
4
71
3
72
17
73
13
40
0
40
0
40
0
40
0
40
0.050532771979622
40
0.129309186702881
40
0.24747380878777
40
0.365638430872659
40
0.483803052957548
40
0.601967675042437
40
0.720132297127326
40
0.838296919212215
40
0.995849748658734
40
1
40
1
40
1
40
1
41
1
10
17.3207354140014
20
-1.75345396076088
30
0
41
1
10
17.2138236093342
20
-1.7589535305415
30
0
41
1
10
16.9402451380004
20
-1.76116760429704
30
0
41
1
10
16.4166666666666
20
-1.71042787689626
30
0
41
1
10
15.75
20
-1.54208242828886
30
0
41
1
10
15
20
-1.22414322033384
30
0
41
1
10
14.25
20
-0.804269998698402
30
0
41
1
10
13.4999999999999
20
-0.322799082250384
30
0
41
1
10
12.7499999999999
20
0.189507168403281
30
0
41
1
10
11.9166666666667
20
0.740984978918192
30
0
41
1
10
11.3245526778629
20
1.07889776153851
30
0
41
1
10
10.9824386890592
20
1.24259941183541
30
0
41
1
10
10.9736580335888
20
1.24677996560931
30
0
0
SPLINE
5
152
100
AcDbEntity
8
1
62
256
6
ByLayer
370
18
48
1
60
0
100
AcDbSpline
70
4
71
3
72
20
73
16
40
0
40
0
40
0
40
0
40
0.250000000000006
40
0.250000000000006
40
0.375000000000005
40
0.375000000000005
40
0.500000000000004
40
0.500000000000004
40
0.625000000000003
40
0.625000000000003
40
0.750000000000002
40
0.750000000000002
40
0.875000000000001
40
0.875000000000001
40
1
40
1
40
1
40
1
41
1
10
17.7553132620816
20
-0.830731443849487
30
0
41
1
10
17.7567023328824
20
-0.837183780049372
30
0
41
1
10
17.7576516233234
20
-0.843863064209955
30
0
41
1
10
17.7580006880386
20
-0.854408760239693
30
0
41
1
10
17.7579285005392
20
-0.857996077149181
30
0
41
1
10
17.7573063078557
20
-0.865124746302911
30
0
41
1
10
17.7567475416767
20
-0.868736880856119
30
0
41
1
10
17.7550516533356
20
-0.875745807604858
30
0
41
1
10
17.7539292560733
20
-0.879109311758384
30
0
41
1
10
17.7510562725251
20
-0.885520103630228
30
0
41
1
10
17.7493551775301
20
-0.888447428151608
30
0
41
1
10
17.7455047665517
20
-0.893712716015017
30
0
41
1
10
17.7433414491932
20
-0.896057283715919
30
0
41
1
10
17.7388210898933
20
-0.900052753545936
30
0
41
1
10
17.736437828436
20
-0.901743223031076
30
0
41
1
10
17.7339509169714
20
-0.903187337546001
30
0
0
SPLINE
5
153
100
AcDbEntity
8
1
62
256
6
ByLayer
370
18
48
1
60
0
100
AcDbSpline
70
4
71
3
72
11
73
7
40
0
40
0
40
0
40
0
40
0.222493375088942
40
0.517064364714849
40
0.811635354340755
40
1
40
1
40
1
40
1
41
1
10
17.7553132620816
20
-0.830731443849487
30
0
41
1
10
17.503542174721
20
-0.688984411104997
30
0
41
1
10
16.9184377540272
20
-0.336418024274167
30
0
41
1
10
16
20
0.261626962722886
30
0
41
1
10
15.1201819456169
20
0.800999775752928
30
0
41
1
10
14.5736972245672
20
1.08633095804183
30
0
41
1
10
14.3605458368509
20
1.1869735984113
30
0
0
SPLINE
5
154
100
AcDbEntity
8
1
62
256
6
ByLayer
370
13
48
1
60
0
100
AcDbSpline
70
4
71
3
72
15
73
11
40
0
40
0
40
0
40
0
40
0.0591440061736633
40
0.212332703992407
40
0.365521401811152
40
0.518710099629896
40
0.67189879744864
40
0.825087495267384
40
0.978276193086128
40
1
40
1
40
1
40
1
41
1
10
11.7104355264986
20
0.971342710307084
30
0
41
1
10
11.8069570176658
20
0.949118849934308
30
0
41
1
10
12.1534785088328
20
0.863031195277017
30
0
41
1
10
12.75
20
0.678818811013116
30
0
41
1
10
13.5
20
0.394556473662988
30
0
41
1
10
14.25
20
0.0821215811513128
30
0
41
1
10
15
20
-0.234484643196367
30
0
41
1
10
15.75
20
-0.537388617707222
30
0
41
1
10
16.2854526920445
20
-0.722907004004952
30
0
41
1
10
16.570905384089
20
-0.809418337653909
30
0
41
1
10
16.6063580761335
20
-0.819963941416006
30
0
0
SPLINE
5
155
100
AcDbEntity
8
1
62
256
6
ByLayer
370
13
48
1
60
0
100
AcDbSpline
70
4
71
3
72
11
73
7
40
0
40
0
40
0
40
0
40
0.310069107450494
40
0.620138214900987
40
0.852690045488857
40
1
40
1
40
1
40
1
41
1
10
10
20
0.505305320778888
30
0
41
1
10
10.3333333333333
20
0.372164658112553
30
0
41
1
10
11
20
0.0809154974565445
30
0
41
1
10
11.9166666666667
20
-0.33340895170943
30
0
41
1
10
12.658362497232
20
-0.630221189657561
30
0
41
1
10
13.0667249944641
20
-0.770777845785829
30
0
41
1
10
13.2250874916962
20
-0.820763463285885
30
0
0
SPLINE
5
156
100
AcDbEntity
8
1
62
256
6
ByLayer
370
18
48
1
60
0
100
AcDbSpline
70
4
71
3
72
24
73
20
40
0
40
0
40
0
40
0
40
0.250000000000072
40
0.250000000000072
40
0.375000000000067
40
0.375000000000067
40
0.437500000000064
40
0.437500000000064
40
0.500000000000061
40
0.500000000000061
40
0.625000000000056
40
0.625000000000056
40
0.750000000000051
40
0.750000000000051
40
0.812500000000038
40
0.812500000000038
40
0.875000000000026
40
0.875000000000026
40
1
40
1
40
1
40
1
41
1
10
8.75640089220073
20
0.333044661159306
30
0
41
1
10
8.77582691416771
20
0.33536504344201
30
0
41
1
10
8.79486376843033
20
0.339233583459986
30
0
41
1
10
8.82228799353354
20
0.349521207761995
30
0
41
1
10
8.83115541163608
20
0.353710499722723
30
0
41
1
10
8.84351389597313
20
0.361333363648669
30
0
41
1
10
8.84749191355519
20
0.364104430045614
30
0
41
1
10
8.85511953582619
20
0.37017973958379
30
0
41
1
10
8.85873310235709
20
0.373462116456153
30
0
41
1
10
8.86871413201158
20
0.383858841878379
30
0
41
1
10
8.87431941853279
20
0.391598428622103
30
0
41
1
10
8.8833806203294
20
0.408722299165021
30
0
41
1
10
8.88663608764713
20
0.417711104413598
30
0
41
1
10
8.89000707561206
20
0.431645157356371
30
0
41
1
10
8.89087794128059
20
0.436381028919755
30
0
41
1
10
8.89215187774457
20
0.44581669237229
30
0
41
1
10
8.8925614168642
20
0.450537650217143
30
0
41
1
10
8.89321772521336
20
0.46470615924045
30
0
41
1
10
8.89289763412626
20
0.474159162088512
30
0
41
1
10
8.8920157655098
20
0.483612801847585
30
0
0
SPLINE
5
157
100
AcDbEntity
8
1
62
256
6
ByLayer
370
18
48
1
60
0
100
AcDbSpline
70
4
71
3
72
16
73
12
40
0
40
0
40
0
40
0
40
0.25
40
0.25
40
0.5
40
0.5
40
0.625
40
0.625
40
0.75
40
0.75
40
1
40
1
40
1
40
1
41
1
10
8.8920157655098
20
0.483612801847585
30
0
41
1
10
8.8362245088509
20
0.550981467247055
30
0
41
1
10
8.7842372781742
20
0.619262528661977
30
0
41
1
10
8.68785549574736
20
0.757104014993388
30
0
41
1
10
8.64345758616705
20
0.826664962890874
30
0
41
1
10
8.58251963696867
20
0.931426442350755
30
0
41
1
10
8.56308991466949
20
0.966538416525424
30
0
41
1
10
8.5266165112233
20
1.03581423028669
30
0
41
1
10
8.50952167274326
20
1.07005335110711
30
0
41
1
10
8.46149015693169
20
1.17140214369917
30
0
41
1
10
8.4337922136346
20
1.23714970444016
30
0
41
1
10
8.41010353892347
20
1.30056427743213
30
0
0
SPLINE
5
158
100
AcDbEntity
8
1
62
256
6
ByLayer
370
18
48
1
60
0
100
AcDbSpline
70
4
71
3
72
19
73
15
40
0
40
0
40
0
40
0
40
0.250000000000002
40
0.250000000000002
40
0.375000000000002
40
0.375000000000002
40
0.500000000000001
40
0.625000000000001
40
0.625000000000001
40
0.750000000000001
40
0.750000000000001
40
0.875
40
0.875
40
1
40
1
40
1
40
1
41
1
10
8.41010353892344
20
1.30056427743213
30
0
41
1
10
8.40536040934165
20
1.31326163347856
30
0
41
1
10
8.40232426421872
20
1.32596047747353
30
0
41
1
10
8.40108085239658
20
1.3450598232063
30
0
41
1
10
8.40123300226108
20
1.35148218602504
30
0
41
1
10
8.40277505108429
20
1.36400719121153
30
0
41
1
10
8.40553405517878
20
1.37625779557391
30
0
41
1
10
8.41079637956514
20
1.38796470132343
30
0
41
1
10
8.41736050693513
20
1.39940004418511
30
0
41
1
10
8.42127141164241
20
1.40492471710329
30
0
41
1
10
8.43008543738733
20
1.41537764577288
30
0
41
1
10
8.43501111770271
20
1.42034692314178
30
0
41
1
10
8.44581420778408
20
1.4298237807557
30
0
41
1
10
8.45171114905509
20
1.43434187006298
30
0
41
1
10
8.45796602244801
20
1.43859615277628
30
0
0
SPLINE
5
159
100
AcDbEntity
8
1
62
256
6
ByLayer
370
18
48
1
60
0
100
AcDbSpline
70
4
71
3
72
28
73
24
40
0
40
0
40
0
40
0
40
0.0625
40
0.0625
40
0.125
40
0.125
40
0.1875
40
0.1875
40
0.25
40
0.25
40
0.3125
40
0.3125
40
0.375
40
0.375
40
0.5
40
0.5
40
0.625
40
0.625
40
0.75
40
0.75
40
0.875
40
0.875
40
1
40
1
40
1
40
1
41
1
10
8.45796602244798
20
1.43859615277631
30
0
41
1
10
8.4756101923318
20
1.4505969211711
30
0
41
1
10
8.49483821548486
20
1.46081985628814
30
0
41
1
10
8.53547823207219
20
1.47891529451317
30
0
41
1
10
8.5569040920486
20
1.48677070289534
30
0
41
1
10
8.60145861363569
20
1.50072001956482
30
0
41
1
10
8.62463634782932
20
1.50680932145201
30
0
41
1
10
8.67152953019422
20
1.51741119273279
30
0
41
1
10
8.69535845476415
20
1.52195915510518
30
0
41
1
10
8.74364017043399
20
1.52986629062073
30
0
41
1
10
8.76808085211096
20
1.53321831431469
30
0
41
1
10
8.81709639880586
20
1.53889163525844
30
0
41
1
10
8.84172592406475
20
1.54122095290114
30
0
41
1
10
8.91593063926558
20
1.54691942229613
30
0
41
1
10
8.96593090322773
20
1.54901155558076
30
0
41
1
10
9.06579147116813
20
1.55045567058531
30
0
41
1
10
9.11571831563549
20
1.5498102764586
30
0
41
1
10
9.21556607669015
20
1.54614752712862
30
0
41
1
10
9.26526358854389
20
1.54313421817753
30
0
41
1
10
9.36422280760695
20
1.53493651166633
30
0
41
1
10
9.41353069657578
20
1.52974231972851
30
0
41
1
10
9.51133370575783
20
1.51729028542439
30
0
41
1
10
9.55987495809356
20
1.51002904310536
30
0
41
1
10
9.60808164115491
20
1.50173542642986
30
0
0
SPLINE
5
15A
100
AcDbEntity
8
1
62
256
6
ByLayer
370
18
48
1
60
0
100
AcDbSpline
70
4
71
3
72
8
73
4
40
0
40
0
40
0
40
0
40
1
40
1
40
1
40
1
41
1
10
8.84587926215389
20
1.91995662103466
30
0
41
1
10
8.86353126896279
20
1.91994118491871
30
0
41
1
10
8.88080885064522
20
1.91991736037232
30
0
41
1
10
8.89738530600499
20
1.91982861495282
30
0
0
SPLINE
5
15B
100
AcDbEntity
8
1
62
256
6
ByLayer
370
18
48
1
60
0
100
AcDbSpline
70
4
71
3
72
22
73
18
40
0
40
0
40
0
40
0
40
0.25000000000003
40
0.25000000000003
40
0.500000000000059
40
0.500000000000059
40
0.625000000000029
40
0.625000000000029
40
0.749999999999999
40
0.749999999999999
40
0.812499999999999
40
0.812499999999999
40
0.874999999999999
40
0.874999999999999
40
0.9375
40
0.9375
40
1
40
1
40
1
40
1
41
1
10
8.84702810263661
20
-1.66536145777852
30
0
41
1
10
8.83874790546017
20
-1.66144131681713
30
0
41
1
10
8.83066444744131
20
-1.65738522969997
30
0
41
1
10
8.81514986830041
20
-1.64885875955878
30
0
41
1
10
8.80768700417369
20
-1.64439174257225
30
0
41
1
10
8.79767574797373
20
-1.63720747915679
30
0
41
1
10
8.79453152405159
20
-1.63472937142399
30
0
41
1
10
8.78896806247002
20
-1.62947609498281
30
0
41
1
10
8.78648541221807
20
-1.62668021320434
30
0
41
1
10
8.78433232242335
20
-1.62220094057662
30
0
41
1
10
8.78389249730046
20
-1.62068484187304
30
0
41
1
10
8.7840526993248
20
-1.61757428342824
30
0
41
1
10
8.78471506822746
20
-1.61600398174596
30
0
41
1
10
8.78750110503515
20
-1.61329007144764
30
0
41
1
10
8.78961996620316
20
-1.61215596549243
30
0
41
1
10
8.79452492981162
20
-1.61046559205457
30
0
41
1
10
8.79721749492867
20
-1.60989875133444
30
0
41
1
10
8.80001492882533
20
-1.60948698299572
30
0
0
SPLINE
5
15C
100
AcDbEntity
8
1
62
256
6
ByLayer
370
18
48
1
60
0
100
AcDbSpline
70
4
71
3
72
12
73
8
40
0
40
0
40
0
40
0
40
0.49999999999978
40
0.49999999999978
40
0.74999999999989
40
0.74999999999989
40
1
40
1
40
1
40
1
41
1
10
8.80001492898091
20
-1.60948698298333
30
0
41
1
10
8.80669218136043
20
-1.60850412466817
30
0
41
1
10
8.81313966071977
20
-1.60721891589407
30
0
41
1
10
8.82228102822043
20
-1.60458430638715
30
0
41
1
10
8.82525178704907
20
-1.60357905434427
30
0
41
1
10
8.83080258401714
20
-1.60132736874189
30
0
41
1
10
8.8334006678802
20
-1.60007727098016
30
0
41
1
10
8.83579235079168
20
-1.59868079061937
30
0
0
SPLINE
5
15D
100
AcDbEntity
8
1
62
256
6
ByLayer
370
18
48
1
60
0
100
AcDbSpline
70
4
71
3
72
17
73
13
40
0
40
0
40
0
40
0
40
0.250000000000001
40
0.250000000000001
40
0.500000000000002
40
0.500000000000002
40
0.562500000000004
40
0.562500000000004
40
0.625000000000006
40
0.750000000000001
40
0.750000000000001
40
1
40
1
40
1
40
1
41
1
10
8.83579235077963
20
-1.59868079061764
30
0
41
1
10
8.77083871263662
20
-1.5579184924473
30
0
41
1
10
8.70992943328494
20
-1.5123787534074
30
0
41
1
10
8.59638060703182
20
-1.41030796439983
30
0
41
1
10
8.54373792644091
20
-1.3537855616658
30
0
41
1
10
8.48316759070397
20
-1.27510138343402
30
0
41
1
10
8.47129805611198
20
-1.25893683883245
30
0
41
1
10
8.44816226663897
20
-1.22587767592597
30
0
41
1
10
8.41447000253535
20
-1.17535268224617
30
0
41
1
10
8.3837295864958
20
-1.12199606492828
30
0
41
1
10
8.32599060831009
20
-1.011416353865
30
0
41
1
10
8.29247083196842
20
-0.932561491054628
30
0
41
1
10
8.263562075751
20
-0.848142172696669
30
0
0
SPLINE
5
15E
100
AcDbEntity
8
1
62
256
6
ByLayer
370
18
48
1
60
0
100
AcDbSpline
70
4
71
3
72
16
73
12
40
0
40
0
40
0
40
0
40
0.250000000000034
40
0.250000000000034
40
0.500000000000067
40
0.500000000000067
40
0.625000000000084
40
0.625000000000084
40
0.750000000000101
40
0.750000000000101
40
1
40
1
40
1
40
1
41
1
10
8.263562075751
20
-0.848142172696669
30
0
41
1
10
8.26097845772213
20
-0.840597494148341
30
0
41
1
10
8.25934273845033
20
-0.83287839787647
30
0
41
1
10
8.25895181159353
20
-0.816958172096264
30
0
41
1
10
8.26022211346699
20
-0.809189350497945
30
0
41
1
10
8.26490892725306
20
-0.797916571908871
30
0
41
1
10
8.26688038645727
20
-0.794369825173334
30
0
41
1
10
8.27157059692038
20
-0.787690639879543
30
0
41
1
10
8.27432279429306
20
-0.784526057836757
30
0
41
1
10
8.2834136425214
20
-0.775832741513511
30
0
41
1
10
8.29044139363853
20
-0.771149131794715
30
0
41
1
10
8.29813810009622
20
-0.7672406225484
30
0
0
SPLINE
5
15F
100
AcDbEntity
8
1
62
256
6
ByLayer
370
18
48
1
60
0
100
AcDbSpline
70
4
71
3
72
28
73
24
40
0
40
0
40
0
40
0
40
0.0625000000000048
40
0.0625000000000048
40
0.12500000000001
40
0.12500000000001
40
0.187500000000014
40
0.187500000000014
40
0.250000000000019
40
0.250000000000019
40
0.312500000000024
40
0.312500000000024
40
0.375000000000029
40
0.375000000000029
40
0.500000000000023
40
0.500000000000023
40
0.625000000000017
40
0.625000000000017
40
0.750000000000011
40
0.750000000000011
40
0.875000000000006
40
0.875000000000006
40
1
40
1
40
1
40
1
41
1
10
8.29813810009622
20
-0.7672406225484
30
0
41
1
10
8.3231242536165
20
-0.75455225868771
30
0
41
1
10
8.34890329053081
20
-0.744202570961988
30
0
41
1
10
8.40151998569053
20
-0.726673894711126
30
0
41
1
10
8.42836621206098
20
-0.71951918406765
30
0
41
1
10
8.48287554882816
20
-0.707683917698517
30
0
41
1
10
8.51054145827834
20
-0.7030113162254
30
0
41
1
10
8.56654950923863
20
-0.695731139709125
30
0
41
1
10
8.59463849986102
20
-0.693158566038619
30
0
41
1
10
8.65087510774228
20
-0.689786588537686
30
0
41
1
10
8.67903798394539
20
-0.688987863336678
30
0
41
1
10
8.73544060719487
20
-0.688923069317639
30
0
41
1
10
8.76371293430134
20
-0.689660841729136
30
0
41
1
10
8.84826921952327
20
-0.69390287160806
30
0
41
1
10
8.9043674786158
20
-0.699413243926557
30
0
41
1
10
9.01611640458734
20
-0.714788294096138
30
0
41
1
10
9.07157333418792
20
-0.724637202345292
30
0
41
1
10
9.18161224465911
20
-0.747915607711576
30
0
41
1
10
9.23621843817315
20
-0.76135762859613
30
0
41
1
10
9.34428081576638
20
-0.791181160662859
30
0
41
1
10
9.39783635854218
20
-0.807590892384184
30
0
41
1
10
9.50378833780857
20
-0.8428257241994
30
0
41
1
10
9.55618851031309
20
-0.861650079637968
30
0
41
1
10
9.60808164115485
20
-0.881462609710411
30
0
0
SPLINE
5
160
100
AcDbEntity
8
1
62
256
6
ByLayer
370
18
48
1
60
0
100
AcDbSpline
70
4
71
3
72
8
73
4
40
0
40
0
40
0
40
0
40
1
40
1
40
1
40
1
41
1
10
17.4865552232046
20
-1.33610847844736
30
0
41
1
10
17.4804992909536
20
-1.33451130921603
30
0
41
1
10
17.4744362117208
20
-1.33292921762103
30
0
41
1
10
17.4683652924315
20
-1.33136453769487
30
0
0
SPLINE
5
161
100
AcDbEntity
8
1
62
256
6
ByLayer
370
13
48
1
60
0
100
AcDbSpline
70
4
71
3
72
13
73
9
40
0
40
0
40
0
40
0
40
0.145790763357976
40
0.296533569824215
40
0.447276376290455
40
0.598019182756694
40
0.799009591378347
40
1
40
1
40
1
40
1
41
1
10
14.9753617939173
20
0.345668520016574
30
0
41
1
10
14.7335745292782
20
0.506595046154161
30
0
41
1
10
14.2417872646391
20
0.826067392843754
30
0
41
1
10
13.4999999999999
20
1.24602164383327
30
0
41
1
10
12.75
20
1.57984603998543
30
0
41
1
10
11.9166666666667
20
1.82468601847785
30
0
41
1
10
11
20
1.89716728971729
30
0
41
1
10
10.3333333333333
20
1.7904458650429
30
0
41
1
10
9.99999999999997
20
1.69783772907087
30
0
0
SPLINE
5
162
100
AcDbEntity
8
1
62
256
6
ByLayer
370
18
48
1
60
0
100
AcDbSpline
70
4
71
3
72
8
73
4
40
0
40
0
40
0
40
0
40
1
40
1
40
1
40
1
41
1
10
17.4865868357273
20
1.01497729375137
30
0
41
1
10
17.4804924247587
20
1.01666504848185
30
0
41
1
10
17.4743918680842
20
1.01833689467011
30
0
41
1
10
17.4682846712393
20
1.01999110328688
30
0
0
SPLINE
5
163
100
AcDbEntity
8
1
62
256
6
ByLayer
370
18
48
1
60
0
100
AcDbSpline
70
4
71
3
72
8
73
4
40
0
40
0
40
0
40
0
40
1
40
1
40
1
40
1
41
1
10
17.6096317499868
20
0.929164253379014
30
0
41
1
10
17.634494274801
20
0.913012942472761
30
0
41
1
10
17.6591717415929
20
0.896411685427722
30
0
41
1
10
17.6837039775882
20
0.879388102374662
30
0
0
SPLINE
5
164
100
AcDbEntity
8
1
62
256
6
ByLayer
370
13
48
1
60
0
100
AcDbSpline
70
4
71
3
72
12
73
8
40
0
40
0
40
0
40
0
40
0.162318715148219
40
0.385648267208261
40
0.608977819268302
40
0.832307371328344
40
1
40
1
40
1
40
1
41
1
10
17.7268125227985
20
0.819937735674927
30
0
41
1
10
17.4845416818656
20
0.958931302171749
30
0
41
1
10
16.9089375075995
20
1.26858313605516
30
0
41
1
10
16
20
1.64783219659742
30
0
41
1
10
15
20
1.86679803225948
30
0
41
1
10
14.0830415901451
20
1.87380056425931
30
0
41
1
10
13.4994165136235
20
1.76264351463388
30
0
41
1
10
13.2491247704353
20
1.69645345993098
30
0
0
SPLINE
5
165
100
AcDbEntity
8
1
62
256
6
ByLayer
370
18
48
1
60
0
100
AcDbSpline
70
4
71
3
72
8
73
4
40
0
40
0
40
0
40
0
40
1
40
1
40
1
40
1
41
1
10
17.6837039775974
20
0.879388102370143
30
0
41
1
10
17.6971493474909
20
0.859494787193114
30
0
41
1
10
17.7114637897952
20
0.839673436776906
30
0
41
1
10
17.7268125286689
20
0.819937732941099
30
0
0
SPLINE
5
166
100
AcDbEntity
8
1
62
256
6
ByLayer
370
18
48
1
60
0
100
AcDbSpline
70
4
71
3
72
8
73
4
40
0
40
0
40
0
40
0
40
1
40
1
40
1
40
1
41
1
10
17.2414327883268
20
-0.491723848961868
30
0
41
1
10
17.2314836630394
20
-0.497861848302193
30
0
41
1
10
17.221534537752
20
-0.503990726099175
30
0
41
1
10
17.2115854124646
20
-0.510110178206986
30
0
0
SPLINE
5
167
100
AcDbEntity
8
1
62
256
6
ByLayer
370
13
48
1
60
0
100
AcDbSpline
70
4
71
3
72
13
73
9
40
0
40
0
40
0
40
0
40
0.0932141041161965
40
0.253235144566279
40
0.413256185016363
40
0.573277225466446
40
0.786638612733223
40
1
40
1
40
1
40
1
41
1
10
14.6868836616143
20
-1.67011848758094
30
0
41
1
10
14.5412557744096
20
-1.70511255649504
30
0
41
1
10
14.1456278872048
20
-1.78191823524463
30
0
41
1
10
13.5000000000001
20
-1.82078314857824
30
0
41
1
10
12.7500000000001
20
-1.73670741767083
30
0
41
1
10
11.9166666666668
20
-1.50564020872113
30
0
41
1
10
11.0000000000001
20
-1.09705401771942
30
0
41
1
10
10.3333333333335
20
-0.705590971669778
30
0
41
1
10
10.0000000000001
20
-0.501227067539588
30
0
0
SPLINE
5
168
100
AcDbEntity
8
1
62
256
6
ByLayer
370
18
48
1
60
0
100
AcDbSpline
70
4
71
3
72
43
73
39
40
0
40
0
40
0
40
0
40
0.0451637683900103
40
0.0451637683900103
40
0.140647391551005
40
0.140647391551005
40
0.188389203131504
40
0.188389203131504
40
0.236131014712002
40
0.236131014712002
40
0.331614637873
40
0.331614637873
40
0.35548554366325
40
0.35548554366325
40
0.3793564494535
40
0.427098261034
40
0.427098261034
40
0.474840072614501
40
0.474840072614501
40
0.498710978404751
40
0.498710978404751
40
0.522581884195001
40
0.522581884195001
40
0.618065507356001
40
0.618065507356001
40
0.665807318936501
40
0.665807318936501
40
0.689678224726752
40
0.689678224726752
40
0.713549130517002
40
0.713549130517002
40
0.809032753678002
40
0.809032753678002
40
0.856774565258502
40
0.856774565258502
40
0.904516376839003
40
0.904516376839003
40
1
40
1
40
1
40
1
41
1
10
14.8312952857341
20
-1.71871937269845
30
0
41
1
10
14.7591670033279
20
-1.74184361262851
30
0
41
1
10
14.6870396349156
20
-1.76327139388522
30
0
41
1
10
14.4621746626127
20
-1.82458176433468
30
0
41
1
10
14.3091610735717
20
-1.85839937672017
30
0
41
1
10
14.0780538513053
20
-1.89655594782943
30
0
41
1
10
14.0006296044376
20
-1.90718869336479
30
0
41
1
10
13.8462103322591
20
-1.9239546771235
30
0
41
1
10
13.7691394538259
20
-1.93008366424678
30
0
41
1
10
13.5380247451353
20
-1.94191688082177
30
0
41
1
10
13.3840506774533
20
-1.9412049220939
30
0
41
1
10
13.1909376340835
20
-1.92924652857175
30
0
41
1
10
13.1522969433213
20
-1.92630202737629
30
0
41
1
10
13.0751262528054
20
-1.91932190158846
30
0
41
1
10
12.9594662988798
20
-1.9072097227278
30
0
41
1
10
12.8439913351621
20
-1.89019734175781
30
0
41
1
10
12.6899856295501
20
-1.8632857072669
30
0
41
1
10
12.6129624280902
20
-1.84771813021575
30
0
41
1
10
12.4972687264823
20
-1.82127108859808
30
0
41
1
10
12.4586780157684
20
-1.81193798830435
30
0
41
1
10
12.3814244198108
20
-1.79223851531427
30
0
41
1
10
12.3427579572421
20
-1.7818703264322
30
0
41
1
10
12.1496950896076
20
-1.72759482093261
30
0
41
1
10
11.9956988939501
20
-1.67630839068522
30
0
41
1
10
11.7645042902285
20
-1.58793387582523
30
0
41
1
10
11.6874186430154
20
-1.55652224788687
30
0
41
1
10
11.5715924129774
20
-1.50676137186196
30
0
41
1
10
11.5329367399277
20
-1.48973743976026
30
0
41
1
10
11.4558063451778
20
-1.45499159717403
30
0
41
1
10
11.4173000090631
20
-1.43725014345665
30
0
41
1
10
11.2250387799345
20
-1.3466994947772
30
0
41
1
10
11.0721113333892
20
-1.26834457062964
30
0
41
1
10
10.8431800444162
20
-1.14258065566787
30
0
41
1
10
10.7669496184345
20
-1.09926251037714
30
0
41
1
10
10.6143433823277
20
-1.01043121185719
30
0
41
1
10
10.5379696342936
20
-0.964920258553008
30
0
41
1
10
10.3084260321841
20
-0.825234148174758
30
0
41
1
10
10.1548384952968
20
-0.727911387749316
30
0
41
1
10
10.0000000000001
20
-0.626897753595415
30
0
0
SPLINE
5
169
100
AcDbEntity
8
1
62
256
6
ByLayer
370
18
48
1
60
0
100
AcDbSpline
70
4
71
3
72
8
73
4
40
0
40
0
40
0
40
0
40
1
40
1
40
1
40
1
41
1
10
10.0000000000001
20
-0.626897753595415
30
0
41
1
10
9.93430323194045
20
-0.590366046149569
30
0
41
1
10
9.86896955686393
20
-0.553001794024823
30
0
41
1
10
9.80399170957301
20
-0.514821655768316
30
0
0
SPLINE
5
16A
100
AcDbEntity
8
1
62
256
6
ByLayer
370
18
48
1
60
0
100
AcDbSpline
70
4
71
3
72
8
73
4
40
0
40
0
40
0
40
0
40
1
40
1
40
1
40
1
41
1
10
10
20
1.70485820715754
30
0
41
1
10
9.93436495343903
20
1.72460094415476
30
0
41
1
10
9.86916094886186
20
1.74342179524336
30
0
41
1
10
9.80438411045068
20
1.76132904978189
30
0
0
SPLINE
5
16B
100
AcDbEntity
8
1
62
256
6
ByLayer
370
18
48
1
60
0
100
AcDbSpline
70
4
71
3
72
8
73
4
40
0
40
0
40
0
40
0
40
1
40
1
40
1
40
1
41
1
10
17.4564993748075
20
-1.89217321280591
30
0
41
1
10
17.4451714961049
20
-1.89472878026476
30
0
41
1
10
17.4338337454263
20
-1.89726718839521
30
0
41
1
10
17.4224870780989
20
-1.89978843310536
30
0
0
SPLINE
5
16C
100
AcDbEntity
8
1
62
256
6
ByLayer
370
18
48
1
60
0
100
AcDbSpline
70
4
71
3
72
19
73
15
40
0
40
0
40
0
40
0
40
0.249999999999965
40
0.249999999999965
40
0.312499999999968
40
0.312499999999968
40
0.374999999999971
40
0.499999999999977
40
0.499999999999977
40
0.624999999999982
40
0.624999999999982
40
0.749999999999988
40
0.749999999999988
40
1
40
1
40
1
40
1
41
1
10
17.7357534048297
20
-1.73128036307077
30
0
41
1
10
17.7160157120705
20
-1.75174576695778
30
0
41
1
10
17.6945040504743
20
-1.77057053824114
30
0
41
1
10
17.6657807465479
20
-1.79239568875624
30
0
41
1
10
17.6599234798696
20
-1.79668517120612
30
0
41
1
10
17.6481797416633
20
-1.80497871582534
30
0
41
1
10
17.6304788164719
20
-1.81702520010029
30
0
41
1
10
17.6125247542561
20
-1.82794853971623
30
0
41
1
10
17.5883538252461
20
-1.84156811363698
30
0
41
1
10
17.5761013463829
20
-1.84793110983961
30
0
41
1
10
17.5518606685602
20
-1.85952387521195
30
0
41
1
10
17.539818932236
20
-1.86478764261506
30
0
41
1
10
17.5038657952925
20
-1.87908689025372
30
0
41
1
10
17.4801210157097
20
-1.88665708496708
30
0
41
1
10
17.4564993748072
20
-1.89217321280597
30
0
0
SPLINE
5
16D
100
AcDbEntity
8
1
62
256
6
ByLayer
370
13
48
1
60
0
100
AcDbSpline
70
4
71
3
72
17
73
13
40
0
40
0
40
0
40
0
40
0.0371246011931215
40
0.115860688207298
40
0.194596775221475
40
0.31270090574274
40
0.430805036264005
40
0.54890916678527
40
0.667013297306534
40
0.785117427827799
40
0.903221558349064
40
1
40
1
40
1
40
1
41
1
10
17.7357534048298
20
-1.73128036307077
30
0
41
1
10
17.6571689365532
20
-1.74631339318077
30
0
41
1
10
17.41191780161
20
-1.78673866472215
30
0
41
1
10
17.0000000000001
20
-1.81156567278032
30
0
41
1
10
16.4166666666668
20
-1.77015788876133
30
0
41
1
10
15.7500000000001
20
-1.61559436601263
30
0
41
1
10
15.0000000000001
20
-1.30714054133352
30
0
41
1
10
14.2500000000001
20
-0.889911661744947
30
0
41
1
10
13.5000000000001
20
-0.404075893284329
30
0
41
1
10
12.7500000000001
20
0.119339555069075
30
0
41
1
10
12.0451417083727
20
0.601620448630513
30
0
41
1
10
11.5902834167452
20
0.882968338326009
30
0
41
1
10
11.3854251251177
20
1.00053360554654
30
0
0
SPLINE
5
16E
100
AcDbEntity
8
1
62
256
6
ByLayer
370
18
48
1
60
0
100
AcDbSpline
70
4
71
3
72
72
73
68
40
0
40
0
40
0
40
0
40
0.0156250000000005
40
0.0156250000000005
40
0.0312500000000011
40
0.0312500000000011
40
0.0625000000000022
40
0.0625000000000022
40
0.125000000000002
40
0.125000000000002
40
0.156250000000003
40
0.156250000000003
40
0.187500000000003
40
0.187500000000003
40
0.218750000000003
40
0.218750000000003
40
0.234375000000003
40
0.234375000000003
40
0.250000000000003
40
0.250000000000003
40
0.312500000000002
40
0.312500000000002
40
0.328125
40
0.328125
40
0.343749999999999
40
0.343749999999999
40
0.374999999999997
40
0.374999999999997
40
0.406249999999994
40
0.406249999999994
40
0.437499999999991
40
0.437499999999991
40
0.468749999999989
40
0.468749999999989
40
0.499999999999986
40
0.499999999999986
40
0.531249999999983
40
0.531249999999983
40
0.562499999999981
40
0.562499999999981
40
0.593749999999978
40
0.593749999999978
40
0.609374999999978
40
0.609374999999978
40
0.624999999999977
40
0.624999999999977
40
0.687499999999977
40
0.687499999999977
40
0.703124999999978
40
0.703124999999978
40
0.718749999999979
40
0.718749999999979
40
0.749999999999983
40
0.749999999999983
40
0.781249999999987
40
0.781249999999987
40
0.796874999999989
40
0.796874999999989
40
0.812499999999991
40
0.812499999999991
40
0.874999999999992
40
0.874999999999992
40
0.906249999999994
40
0.906249999999994
40
0.937499999999996
40
0.937499999999996
40
1
40
1
40
1
40
1
41
1
10
17.4224870780989
20
-1.89978843310536
30
0
41
1
10
17.3840396720512
20
-1.90563681497204
30
0
41
1
10
17.3455206917681
20
-1.9108350263198
30
0
41
1
10
17.2683333106781
20
-1.919940983326
30
0
41
1
10
17.2296420458227
20
-1.92385058329916
30
0
41
1
10
17.1134939140452
20
-1.93363753048394
30
0
41
1
10
17.0361113063978
20
-1.93756755842628
30
0
41
1
10
16.8039896253071
20
-1.941734358844
30
0
41
1
10
16.6492892584407
20
-1.93425621428082
30
0
41
1
10
16.4161705604458
20
-1.90780195665201
30
0
41
1
10
16.3385465726453
20
-1.89649935729781
30
0
41
1
10
16.1835209286759
20
-1.86899037356528
30
0
41
1
10
16.1060855258009
20
-1.85278011524335
30
0
41
1
10
15.9511944018244
20
-1.81545236153426
30
0
41
1
10
15.873737729165
20
-1.79433476096003
30
0
41
1
10
15.7573677857786
20
-1.75906110588159
30
0
41
1
10
15.7185385430313
20
-1.74669936536441
30
0
41
1
10
15.6410177338194
20
-1.72086213284584
30
0
41
1
10
15.6022983932874
20
-1.70737862474522
30
0
41
1
10
15.4088357711876
20
-1.63719487801399
30
0
41
1
10
15.254505107238
20
-1.57219506074364
30
0
41
1
10
15.0609703683687
20
-1.48058455596831
30
0
41
1
10
15.0222028901294
20
-1.46172966536605
30
0
41
1
10
14.9447526197626
20
-1.42309159488787
30
0
41
1
10
14.9060671073715
20
-1.40330803291622
30
0
41
1
10
14.7900838085339
20
-1.34260769605507
30
0
41
1
10
14.7128615591654
20
-1.30033403921365
30
0
41
1
10
14.5583581922457
20
-1.21244606384539
30
0
41
1
10
14.4810674272644
20
-1.16686156195016
30
0
41
1
10
14.3261417534058
20
-1.07276865614557
30
0
41
1
10
14.2484424425125
20
-1.02419955155841
30
0
41
1
10
14.0933926301341
20
-0.924833575517056
30
0
41
1
10
14.015952071732
20
-0.873970878101971
30
0
41
1
10
13.8611070566375
20
-0.770021673122557
30
0
41
1
10
13.7837083976583
20
-0.716916655957846
30
0
41
1
10
13.6287332205227
20
-0.608771408846025
30
0
41
1
10
13.5510443526651
20
-0.553678112962132
30
0
41
1
10
13.3960635015519
20
-0.442367372816818
30
0
41
1
10
13.3187229544627
20
-0.386111333416352
30
0
41
1
10
13.164139514587
20
-0.272652338249372
30
0
41
1
10
13.0868968523364
20
-0.215448934772041
30
0
41
1
10
12.9709337038608
20
-0.129147157136487
30
0
41
1
10
12.9322616480067
20
-0.100299039763371
30
0
41
1
10
12.8548394627588
20
-0.042504277611215
30
0
41
1
10
12.8160833866568
20
-0.0135542627754148
30
0
41
1
10
12.6225670372604
20
0.130891595666896
30
0
41
1
10
12.4681847986599
20
0.245843030944769
30
0
41
1
10
12.2747297304618
20
0.387393299710055
30
0
41
1
10
12.236014186036
20
0.41559544985833
30
0
41
1
10
12.1585065893291
20
0.471746172707554
30
0
41
1
10
12.1196876413328
20
0.499713847667323
30
0
41
1
10
12.0033730378782
20
0.582964600404068
30
0
41
1
10
11.9259625658616
20
0.63762898958268
30
0
41
1
10
11.771240220974
20
0.74505601741626
30
0
41
1
10
11.6939413996523
20
0.797818045739035
30
0
41
1
10
11.5778749565762
20
0.875360270682904
30
0
41
1
10
11.5391640759541
20
0.900942019378618
30
0
41
1
10
11.461672080696
20
0.951548210981258
30
0
41
1
10
11.422857144078
20
0.976594715764747
30
0
41
1
10
11.2290018139121
20
1.10007067175667
30
0
41
1
10
11.0752056113942
20
1.19290954523595
30
0
41
1
10
10.8453673548156
20
1.32168367420957
30
0
41
1
10
10.7688970432494
20
1.36283767365091
30
0
41
1
10
10.6158516379794
20
1.44159782105893
30
0
41
1
10
10.5392845832171
20
1.47920508446046
30
0
41
1
10
10.3091850355002
20
1.58630178032595
30
0
41
1
10
10.1552668455511
20
1.65009048793152
30
0
41
1
10
10.0000000000001
20
1.70485820715751
30
0
0
SPLINE
5
16F
100
AcDbEntity
8
1
62
256
6
ByLayer
370
18
48
1
60
0
100
AcDbSpline
70
4
71
3
72
18
73
14
40
0
40
0
40
0
40
0
40
0.249999999999987
40
0.249999999999987
40
0.37499999999998
40
0.37499999999998
40
0.499999999999973
40
0.499999999999973
40
0.624999999999967
40
0.624999999999967
40
0.74999999999996
40
0.74999999999996
40
1
40
1
40
1
40
1
41
1
10
17.7339509169693
20
-0.903187337543784
30
0
41
1
10
17.7144710169818
20
-0.91449042198272
30
0
41
1
10
17.6933163073012
20
-0.921498473753104
30
0
41
1
10
17.6594821667105
20
-0.926744511272403
30
0
41
1
10
17.6477551574624
20
-0.927593572511029
30
0
41
1
10
17.624171612668
20
-0.92756012290252
30
0
41
1
10
17.6122946542943
20
-0.926694729414407
30
0
41
1
10
17.5883656473306
20
-0.923435279959449
30
0
41
1
10
17.576314536768
20
-0.921047309390588
30
0
41
1
10
17.5520324581687
20
-0.914888885482412
30
0
41
1
10
17.5398505523411
20
-0.911124397550168
30
0
41
1
10
17.5036973385864
20
-0.898140820312079
30
0
41
1
10
17.4798948887221
20
-0.887211023836358
30
0
41
1
10
17.456297362049
20
-0.874142265071526
30
0
0
SPLINE
5
170
100
AcDbEntity
8
1
62
256
6
ByLayer
370
13
48
1
60
0
100
AcDbSpline
70
4
71
3
72
11
73
7
40
0
40
0
40
0
40
0
40
0.252908262774826
40
0.597492971271632
40
0.942077679768438
40
1
40
1
40
1
40
1
41
1
10
17.7339509169694
20
-0.903187337543812
30
0
41
1
10
17.489300611313
20
-0.764752812089597
30
0
41
1
10
16.9113169723232
20
-0.41340952534361
30
0
41
1
10
16.0000000000001
20
0.19285521083043
30
0
41
1
10
15.2773022919056
20
0.652576522033598
30
0
41
1
10
14.8879379171445
20
0.876389641006597
30
0
41
1
10
14.8319068757166
20
0.908043882198882
30
0
0
SPLINE
5
171
100
AcDbEntity
8
1
62
256
6
ByLayer
370
18
48
1
60
0
100
AcDbSpline
70
4
71
3
72
10
73
6
40
0
40
0
40
0
40
0
40
0.5
40
0.5
40
1
40
1
40
1
40
1
41
1
10
17.3866039996227
20
-0.837377635160522
30
0
41
1
10
17.3880571227228
20
-0.837357382542308
30
0
41
1
10
17.3896295636741
20
-0.83764914642444
30
0
41
1
10
17.3927173006107
20
-0.83864268067606
30
0
41
1
10
17.3942720521639
20
-0.839350279085608
30
0
41
1
10
17.3957925679644
20
-0.84020076378863
30
0
0
SPLINE
5
172
100
AcDbEntity
8
1
62
256
6
ByLayer
370
18
48
1
60
0
100
AcDbSpline
70
4
71
3
72
10
73
6
40
0
40
0
40
0
40
0
40
0.725746522473255
40
0.725746522473255
40
1
40
1
40
1
40
1
41
1
10
17.4562973620494
20
-0.874142265071782
30
0
41
1
10
17.4416725555541
20
-0.865927379473476
30
0
41
1
10
17.4270405454527
20
-0.857707741861873
30
0
41
1
10
17.4068645224939
20
-0.846397136913396
30
0
41
1
10
17.4013293922736
20
-0.843297728896431
30
0
41
1
10
17.395792567964
20
-0.840200763788374
30
0
0
SPLINE
5
173
100
AcDbEntity
8
1
62
256
6
ByLayer
370
18
48
1
60
0
100
AcDbSpline
70
4
71
3
72
20
73
16
40
0
40
0
40
0
40
0
40
0.0312499999999259
40
0.0312499999999259
40
0.0468749999998892
40
0.0468749999998892
40
0.0624999999998526
40
0.0624999999998526
40
0.124999999999862
40
0.124999999999862
40
0.249999999999881
40
0.249999999999881
40
0.499999999999924
40
0.499999999999924
40
1
40
1
40
1
40
1
41
1
10
17.4568484505164
20
-1.25316452960632
30
0
41
1
10
17.4564154321348
20
-1.25276139567629
30
0
41
1
10
17.4558749047245
20
-1.25236168291943
30
0
41
1
10
17.4549074512077
20
-1.25244307423927
30
0
41
1
10
17.4546010697231
20
-1.25260795029902
30
0
41
1
10
17.4541240525088
20
-1.25303718909984
30
0
41
1
10
17.4539398111354
20
-1.25329118533489
30
0
41
1
10
17.4531390649688
20
-1.25461470289861
30
0
41
1
10
17.4528496297813
20
-1.25577193478387
30
0
41
1
10
17.4520689685703
20
-1.25921962092738
30
0
41
1
10
17.4518277119082
20
-1.26152228590644
30
0
41
1
10
17.4512717323346
20
-1.26843265594314
30
0
41
1
10
17.451204529052
20
-1.27304603287115
30
0
41
1
10
17.4512602184344
20
-1.28683244112
30
0
41
1
10
17.4516955327684
20
-1.29598421553772
30
0
41
1
10
17.452262223937
20
-1.30511941358202
30
0
0
SPLINE
5
174
100
AcDbEntity
8
1
62
256
6
ByLayer
370
18
48
1
60
0
100
AcDbSpline
70
4
71
3
72
8
73
4
40
0
40
0
40
0
40
0
40
1
40
1
40
1
40
1
41
1
10
17.4568484505128
20
-1.25316452960303
30
0
41
1
10
17.4639449159894
20
-1.25977123761572
30
0
41
1
10
17.47078468873
20
-1.26656825791554
30
0
41
1
10
17.4773453729739
20
-1.27357307450373
30
0
0
SPLINE
5
175
100
AcDbEntity
8
1
62
256
6
ByLayer
370
18
48
1
60
0
100
AcDbSpline
70
4
71
3
72
28
73
24
40
0
40
0
40
0
40
0
40
0.125000000000081
40
0.125000000000081
40
0.187500000000159
40
0.187500000000159
40
0.250000000000237
40
0.250000000000237
40
0.312500000000315
40
0.312500000000315
40
0.3437500000003
40
0.3437500000003
40
0.375000000000286
40
0.375000000000286
40
0.437500000000257
40
0.437500000000257
40
0.500000000000228
40
0.500000000000228
40
0.625000000000167
40
0.625000000000167
40
0.750000000000106
40
0.750000000000106
40
1
40
1
40
1
40
1
41
1
10
17.4773453729855
20
-1.27357307449347
30
0
41
1
10
17.4822090670525
20
-1.27876602138923
30
0
41
1
10
17.4872700834596
20
-1.28379090501406
30
0
41
1
10
17.4954955140906
20
-1.2907287084447
30
0
41
1
10
17.4983331688715
20
-1.29292983352872
30
0
41
1
10
17.5043481439281
20
-1.29694416844185
30
0
41
1
10
17.5075499667652
20
-1.29878703393931
30
0
41
1
10
17.5145016405014
20
-1.30154417760184
30
0
41
1
10
17.5182819051272
20
-1.30247502519444
30
0
41
1
10
17.5242334957764
20
-1.30200789872998
30
0
41
1
10
17.5261887463252
20
-1.30152639132589
30
0
41
1
10
17.5298489288719
20
-1.29992709085303
30
0
41
1
10
17.5315236801657
20
-1.29882667122854
30
0
41
1
10
17.535974086916
20
-1.29504458282935
30
0
41
1
10
17.5382296508414
20
-1.29192688393059
30
0
41
1
10
17.5419525828837
20
-1.28557004602729
30
0
41
1
10
17.5434432361652
20
-1.28226783586692
30
0
41
1
10
17.5473645990278
20
-1.27217853814372
30
0
41
1
10
17.5492114653158
20
-1.2653138455033
30
0
41
1
10
17.552307139554
20
-1.25163413267833
30
0
41
1
10
17.553531826317
20
-1.24477577932549
30
0
41
1
10
17.5566927041215
20
-1.22417168766594
30
0
41
1
10
17.5581235596265
20
-1.2103883003241
30
0
41
1
10
17.5592717341798
20
-1.19660982001895
30
0
0
SPLINE
5
176
100
AcDbEntity
8
1
62
256
6
ByLayer
370
18
48
1
60
0
100
AcDbSpline
70
4
71
3
72
18
73
14
40
0
40
0
40
0
40
0
40
0.249999999999983
40
0.249999999999983
40
0.499999999999966
40
0.499999999999966
40
0.749999999999949
40
0.749999999999949
40
0.874999999999941
40
0.874999999999941
40
0.93749999999997
40
0.93749999999997
40
1
40
1
40
1
40
1
41
1
10
17.558914843314
20
-1.19659490657932
30
0
41
1
10
17.5519962661491
20
-1.18456727939204
30
0
41
1
10
17.5450460366457
20
-1.17250973120275
30
0
41
1
10
17.5309398289753
20
-1.14840423531857
30
0
41
1
10
17.5237921565381
20
-1.13635226511534
30
0
41
1
10
17.5089532781273
20
-1.11242155192335
30
0
41
1
10
17.5013224810118
20
-1.10052264781228
30
0
41
1
10
17.4886013989531
20
-1.08332104262593
30
0
41
1
10
17.4841551775258
20
-1.07768994834458
30
0
41
1
10
17.4767034484806
20
-1.06981176089312
30
0
41
1
10
17.4740660914267
20
-1.06726155100517
30
0
41
1
10
17.4683423674625
20
-1.06266897056011
30
0
41
1
10
17.465297769765
20
-1.06058597261546
30
0
41
1
10
17.4616614065429
20
-1.0592042422677
30
0
0
SPLINE
5
177
100
AcDbEntity
8
1
62
256
6
ByLayer
370
18
48
1
60
0
100
AcDbSpline
70
4
71
3
72
8
73
4
40
0
40
0
40
0
40
0
40
1
40
1
40
1
40
1
41
1
10
17.4616614065414
20
-1.05920424226935
30
0
41
1
10
17.4499934113801
20
-1.05550295027322
30
0
41
1
10
17.4382791530025
20
-1.05191429805379
30
0
41
1
10
17.4263434084641
20
-1.04889804617474
30
0
0
SPLINE
5
178
100
AcDbEntity
8
1
62
256
6
ByLayer
370
18
48
1
60
0
100
AcDbSpline
70
4
71
3
72
24
73
20
40
0
40
0
40
0
40
0
40
0.499999999999999
40
0.499999999999999
40
0.750000000000005
40
0.750000000000005
40
0.875000000000008
40
0.875000000000008
40
0.937500000000008
40
0.937500000000008
40
0.968750000000018
40
0.968750000000018
40
0.984375000000024
40
0.984375000000024
40
0.992187500000012
40
0.992187500000012
40
0.996093750000006
40
0.996093750000006
40
1
40
1
40
1
40
1
41
1
10
17.3866039995005
20
-0.837377635165609
30
0
41
1
10
17.3918080153863
20
-0.873128932963084
30
0
41
1
10
17.3972767302851
20
-0.908757717382258
30
0
41
1
10
17.4062244609897
20
-0.961928696836992
30
0
41
1
10
17.4093237749517
20
-0.979610857931988
30
0
41
1
10
17.4144334374821
20
-1.00600913790703
30
0
41
1
10
17.416207289275
20
-1.01478905647164
30
0
41
1
10
17.4191704387027
20
-1.02788316189887
30
0
41
1
10
17.4202042501053
20
-1.03223680922616
30
0
41
1
10
17.4219599561195
20
-1.03871300275316
30
0
41
1
10
17.4225763634534
20
-1.04086411732666
30
0
41
1
10
17.4236425468079
20
-1.04404811947185
30
0
41
1
10
17.424019539345
20
-1.04510355114175
30
0
41
1
10
17.4246829605815
20
-1.04665096622534
30
0
41
1
10
17.4249193192034
20
-1.04716184029721
30
0
41
1
10
17.4253393612041
20
-1.04789682681513
30
0
41
1
10
17.425490579062
20
-1.04813803979744
30
0
41
1
10
17.4258436095333
20
-1.04858279082208
30
0
41
1
10
17.4260388685239
20
-1.04882108665222
30
0
41
1
10
17.4263434084598
20
-1.04889804617369
30
0
0
SPLINE
5
179
100
AcDbEntity
8
1
62
256
6
ByLayer
370
18
48
1
60
0
100
AcDbSpline
70
4
71
3
72
48
73
44
40
0
40
0
40
0
40
0
40
0.0206705519082151
40
0.0206705519082151
40
0.0413411038164302
40
0.0413411038164302
40
0.082682207632858
40
0.082682207632858
40
0.165364415265716
40
0.165364415265716
40
0.248046622898574
40
0.248046622898574
40
0.289387726715004
40
0.289387726715004
40
0.310058278623221
40
0.310058278623221
40
0.330728830531437
40
0.330728830531437
40
0.413411038164297
40
0.413411038164297
40
0.454752141980728
40
0.454752141980728
40
0.475422693888943
40
0.475422693888943
40
0.496093245797158
40
0.496093245797158
40
0.578775453430018
40
0.578775453430018
40
0.620116557246447
40
0.620116557246447
40
0.661457661062876
40
0.661457661062876
40
0.744139868695734
40
0.744139868695734
40
0.785480972512163
40
0.785480972512163
40
0.826822076328593
40
0.826822076328593
40
0.90950428396145
40
0.90950428396145
40
0.992186491594308
40
0.992186491594308
40
1
40
1
40
1
40
1
41
1
10
17.3866039996231
20
-0.837377635161261
30
0
41
1
10
17.3479420425806
20
-0.812838920422791
30
0
41
1
10
17.3092582259766
20
-0.78804033817292
30
0
41
1
10
17.2318268230467
20
-0.737947917881826
30
0
41
1
10
17.1930480945811
20
-0.712633614053686
30
0
41
1
10
17.0770160784423
20
-0.636267298969358
30
0
41
1
10
16.9999601819386
20
-0.584721578821785
30
0
41
1
10
16.769445912832
20
-0.428528172512529
30
0
41
1
10
16.6166174561846
20
-0.322364261151506
30
0
41
1
10
16.3111607802676
20
-0.108100385365418
30
0
41
1
10
16.158532249081
20
2.1257166907E-06
30
0
41
1
10
15.9284859025655
20
0.161803244451448
30
0
41
1
10
15.8516207043231
20
0.215679287073954
30
0
41
1
10
15.7359452777554
20
0.296261002637863
30
0
41
1
10
15.6973236729854
20
0.323082592807793
30
0
41
1
10
15.6199346885946
20
0.376620339319544
30
0
41
1
10
15.5811492078146
20
0.403348621125673
30
0
41
1
10
15.3875751459308
20
0.536126848254668
30
0
41
1
10
15.2332784736941
20
0.640010178507708
30
0
41
1
10
15.0016671210901
20
0.790873267698345
30
0
41
1
10
14.9244249301815
20
0.840328107277458
30
0
41
1
10
14.8083452509901
20
0.913078140625345
30
0
41
1
10
14.7696174432246
20
0.937088652856403
30
0
41
1
10
14.6922753119418
20
0.984475287259215
30
0
41
1
10
14.6536351981515
20
1.00786767060472
30
0
41
1
10
14.4605309334653
20
1.12325767862967
30
0
41
1
10
14.3063550929679
20
1.21054910132907
30
0
41
1
10
14.0744156789641
20
1.3325636596507
30
0
41
1
10
13.9968848053516
20
1.37179126289826
30
0
41
1
10
13.8421320871066
20
1.44667332522636
30
0
41
1
10
13.7648902996531
20
1.48234065713334
30
0
41
1
10
13.5332487607984
20
1.5839596953146
30
0
41
1
10
13.3789159052158
20
1.64462163717138
30
0
41
1
10
13.1465844214202
20
1.72383863750159
30
0
41
1
10
13.0694077042589
20
1.74813450435843
30
0
41
1
10
12.9155862125413
20
1.792354774459
30
0
41
1
10
12.8389029693909
20
1.81230260265167
30
0
41
1
10
12.6091700066282
20
1.86585783177037
30
0
41
1
10
12.4564918048529
20
1.89308427098789
30
0
41
1
10
12.1507967064749
20
1.92985816587392
30
0
41
1
10
11.9977599491488
20
1.93942956113426
30
0
41
1
10
11.8293440018032
20
1.93970798792716
30
0
41
1
10
11.8147956466494
20
1.93964722959967
30
0
41
1
10
11.80023943094
20
1.93950235285004
30
0
0
SPLINE
5
17A
100
AcDbEntity
8
1
62
256
6
ByLayer
370
18
48
1
60
0
100
AcDbSpline
70
4
71
3
72
9
73
5
40
0
40
0
40
0
40
0
40
0.404334294901715
40
1
40
1
40
1
40
1
41
1
10
11.6787939803165
20
0.345033738281643
30
0
41
1
10
11.452529320211
20
0.503503027676089
30
0
41
1
10
10.8929313267722
20
0.886070132138002
30
0
41
1
10
10.3333333333333
20
1.21470899080347
30
0
41
1
10
9.99999999999997
20
1.37535427144789
30
0
0
SPLINE
5
17B
100
AcDbEntity
8
1
62
256
6
ByLayer
370
18
48
1
60
0
100
AcDbSpline
70
4
71
3
72
27
73
23
40
0
40
0
40
0
40
0
40
0.169083116893938
40
0.169083116893938
40
0.253624675340909
40
0.253624675340909
40
0.338166233787881
40
0.338166233787881
40
0.422707792234852
40
0.422707792234852
40
0.464978571458335
40
0.464978571458335
40
0.507249350681819
40
0.507249350681819
40
0.676332467575762
40
0.676332467575762
40
0.760874026022733
40
0.760874026022733
40
0.803144805246217
40
0.803144805246217
40
0.8454155844697
40
1
40
1
40
1
40
1
41
1
10
10.0000000000001
20
-1.10463789239697
30
0
41
1
10
10.1588634924683
20
-1.1991077719774
30
0
41
1
10
10.3172520548145
20
-1.28796129875633
30
0
41
1
10
10.5552240253697
20
-1.41172728176974
30
0
41
1
10
10.6346566486373
20
-1.4514063830583
30
0
41
1
10
10.7931295677015
20
-1.52697933293538
30
0
41
1
10
10.8722572566349
20
-1.56292142706201
30
0
41
1
10
11.0305044923323
20
-1.63094773489124
30
0
41
1
10
11.1096239385122
20
-1.66303602675015
30
0
41
1
10
11.228447660962
20
-1.70817651252372
30
0
41
1
10
11.2680796164684
20
-1.72272441958268
30
0
41
1
10
11.3474164930038
20
-1.75080123710981
30
0
41
1
10
11.3871476555027
20
-1.76433843699138
30
0
41
1
10
11.5855994676911
20
-1.82927311786852
30
0
41
1
10
11.7438575617184
20
-1.872449765645
30
0
41
1
10
11.9815551078942
20
-1.92355411756643
30
0
41
1
10
12.0608337657568
20
-1.93832048984643
30
0
41
1
10
12.179943348634
20
-1.95700754083288
30
0
41
1
10
12.2196843654501
20
-1.9626588014971
30
0
41
1
10
12.2990389108486
20
-1.97276880867972
30
0
41
1
10
12.4836451992284
20
-1.99355263696214
30
0
41
1
10
12.6677022191949
20
-2.00149605730979
30
0
41
1
10
12.8125301692847
20
-1.9997109434272
30
0
0
SPLINE
5
17C
100
AcDbEntity
8
1
62
256
6
ByLayer
370
18
48
1
60
0
100
AcDbSpline
70
4
71
3
72
8
73
4
40
0
40
0
40
0
40
0
40
1
40
1
40
1
40
1
41
1
10
16.8035588456971
20
-0.259527802964783
30
0
41
1
10
16.8128546376034
20
-0.252945859791112
30
0
41
1
10
16.8221512881048
20
-0.246358910676832
30
0
41
1
10
16.8314489651331
20
-0.23976718649601
30
0
0
SPLINE
5
17D
100
AcDbEntity
8
1
62
256
6
ByLayer
370
18
48
1
60
0
100
AcDbSpline
70
4
71
3
72
26
73
22
40
0
40
0
40
0
40
0
40
0.249999999999934
40
0.249999999999934
40
0.499999999999869
40
0.499999999999869
40
0.624999999999836
40
0.624999999999836
40
0.687499999999852
40
0.687499999999852
40
0.749999999999869
40
0.749999999999869
40
0.781249999999885
40
0.781249999999885
40
0.8124999999999
40
0.8124999999999
40
0.874999999999934
40
0.874999999999934
40
0.937499999999967
40
0.937499999999967
40
1
40
1
40
1
40
1
41
1
10
8.79874474573001
20
0.225813018489305
30
0
41
1
10
8.7897447161987
20
0.233985172314505
30
0
41
1
10
8.78095982482526
20
0.242359832499517
30
0
41
1
10
8.76412828640272
20
0.259810462611398
30
0
41
1
10
8.75601780806537
20
0.268885805772868
30
0
41
1
10
8.74524532385726
20
0.283528367183976
30
0
41
1
10
8.74188663212558
20
0.28858375747015
30
0
41
1
10
8.73765555486429
20
0.296571515180261
30
0
41
1
10
8.73637446927196
20
0.299317215226381
30
0
41
1
10
8.7342900835109
20
0.305003348089144
30
0
41
1
10
8.73348257280517
20
0.307948536641192
30
0
41
1
10
8.73298540722269
20
0.312433253870381
30
0
41
1
10
8.73294122441496
20
0.313927841213285
30
0
41
1
10
8.73318588671498
20
0.316916360173508
30
0
41
1
10
8.73348542301665
20
0.318430930996385
30
0
41
1
10
8.73499613806163
20
0.322697856414294
30
0
41
1
10
8.73689799644586
20
0.325223054919377
30
0
41
1
10
8.7417252768615
20
0.328990149978154
30
0
41
1
10
8.7445412231524
20
0.330271287016785
30
0
41
1
10
8.75035915124411
20
0.33211622085301
30
0
41
1
10
8.75335548172885
20
0.332680895664026
30
0
41
1
10
8.75640089220087
20
0.333044661159335
30
0
0
SPLINE
5
17E
100
AcDbEntity
8
1
62
256
6
ByLayer
370
18
48
1
60
0
100
AcDbSpline
70
4
71
3
72
16
73
12
40
0
40
0
40
0
40
0
40
0.25
40
0.25
40
0.5
40
0.5
40
0.75
40
0.75
40
0.875
40
0.875
40
1
40
1
40
1
40
1
41
1
10
17.6065123051352
20
-1.40961310741795
30
0
41
1
10
17.5980344518237
20
-1.40238116676471
30
0
41
1
10
17.5893358980529
20
-1.39525429821532
30
0
41
1
10
17.5713196579215
20
-1.38133753568093
30
0
41
1
10
17.5619929405438
20
-1.37453452908508
30
0
41
1
10
17.5424446499555
20
-1.36154755146146
30
0
41
1
10
17.5322970120142
20
-1.35539445745616
30
0
41
1
10
17.5160892979838
20
-1.3471340005097
30
0
41
1
10
17.5105198278648
20
-1.34454476912066
30
0
41
1
10
17.4988942896276
20
-1.33985989700221
30
0
41
1
10
17.4928313744159
20
-1.33776372741122
30
0
41
1
10
17.4865552232068
20
-1.336108478444
30
0
0
SPLINE
5
17F
100
AcDbEntity
8
1
62
256
6
ByLayer
370
18
48
1
60
0
100
AcDbSpline
70
4
71
3
72
16
73
12
40
0
40
0
40
0
40
0
40
0.5000000000001
40
0.5000000000001
40
0.750000000000044
40
0.750000000000044
40
0.875000000000027
40
0.875000000000027
40
0.937500000000013
40
0.937500000000013
40
1
40
1
40
1
40
1
41
1
10
17.4522622239403
20
-1.30511941358387
30
0
41
1
10
17.4539527050293
20
-1.30988451277509
30
0
41
1
10
17.4558181457721
20
-1.31461129225673
30
0
41
1
10
17.4592894389888
20
-1.32149994859097
30
0
41
1
10
17.4605542681165
20
-1.32376919180248
30
0
41
1
10
17.462862298012
20
-1.32700613712325
30
0
41
1
10
17.463701923795
20
-1.32806152068525
30
0
41
1
10
17.4651730294967
20
-1.32950434311542
30
0
41
1
10
17.465699048218
20
-1.32996320549614
30
0
41
1
10
17.4669005749299
20
-1.33078877662356
30
0
41
1
10
17.4675778158007
20
-1.33116157850296
30
0
41
1
10
17.4683652924346
20
-1.33136453769572
30
0
0
SPLINE
5
180
100
AcDbEntity
8
1
62
256
6
ByLayer
370
18
48
1
60
0
100
AcDbSpline
70
4
71
3
72
8
73
4
40
0
40
0
40
0
40
0
40
1
40
1
40
1
40
1
41
1
10
17.6065123051353
20
-1.40961310741775
30
0
41
1
10
17.6397033158553
20
-1.4231786061639
30
0
41
1
10
17.6726237070036
20
-1.43368780844653
30
0
41
1
10
17.7053882045582
20
-1.44019221273533
30
0
0
SPLINE
5
181
100
AcDbEntity
8
1
62
256
6
ByLayer
370
18
48
1
60
0
100
AcDbSpline
70
4
71
3
72
40
73
36
40
0
40
0
40
0
40
0
40
0.0179355865258335
40
0.0179355865258335
40
0.0437793868804168
40
0.0437793868804168
40
0.0696231872350001
40
0.0696231872350001
40
0.172998388653333
40
0.172998388653333
40
0.198842189007918
40
0.198842189007918
40
0.224685989362503
40
0.224685989362503
40
0.276373590071672
40
0.276373590071672
40
0.379748791490012
40
0.379748791490012
40
0.483123992908351
40
0.483123992908351
40
0.58649919432669
40
0.58649919432669
40
0.612342994681274
40
0.612342994681274
40
0.638186795035858
40
0.689874395745023
40
0.689874395745023
40
0.79324959716335
40
0.79324959716335
40
0.896624798581677
40
0.896624798581677
40
0.948312399290838
40
0.974156199645419
40
0.974156199645419
40
1
40
1
40
1
40
1
41
1
10
13.0112859991402
20
1.76245337063838
30
0
41
1
10
13.0389173261591
20
1.7714439150835
30
0
41
1
10
13.066560748429
20
1.78019799440349
30
0
41
1
10
13.1340754794071
20
1.80098027385185
30
0
41
1
10
13.1739896747846
20
1.81275793585732
30
0
41
1
10
13.2537641153905
20
1.83525990129681
30
0
41
1
10
13.293618494998
20
1.84598338286858
30
0
41
1
10
13.4927833108196
20
1.89694610535972
30
0
41
1
10
13.6517837955825
20
1.92921544444533
30
0
41
1
10
13.8509323281902
20
1.95870602921201
30
0
41
1
10
13.8907812637308
20
1.96406131489877
30
0
41
1
10
13.9705353547381
20
1.9736774331968
30
0
41
1
10
14.01046385475
20
1.97794044237787
30
0
41
1
10
14.1302029349952
20
1.98905703334387
30
0
41
1
10
14.2097146246833
20
1.99421795148629
30
0
41
1
10
14.4475585542655
20
2.00301305723335
30
0
41
1
10
14.605197617381
20
1.99995346235582
30
0
41
1
10
14.9200576727903
20
1.97630090164213
30
0
41
1
10
15.077281548604
20
1.95573250594032
30
0
41
1
10
15.3927409752352
20
1.89750533441341
30
0
41
1
10
15.5509795799269
20
1.85983855302206
30
0
41
1
10
15.7502715399672
20
1.8021870302808
30
0
41
1
10
15.790241367985
20
1.79011550593518
30
0
41
1
10
15.8699575236698
20
1.76504391623041
30
0
41
1
10
15.9893191938794
20
1.72601169132565
30
0
41
1
10
16.1081216016707
20
1.68280230574908
30
0
41
1
10
16.345213198892
20
1.5910714378779
30
0
41
1
10
16.5025875422249
20
1.52283130980655
30
0
41
1
10
16.8173217293527
20
1.37353879696067
30
0
41
1
10
16.9746839084601
20
1.29249086812248
30
0
41
1
10
17.2117919140206
20
1.16236285994131
30
0
41
1
10
17.3306125483272
20
1.09516006074224
30
0
41
1
10
17.4500352380204
20
1.02493993108291
30
0
41
1
10
17.5298062911922
20
0.977476538963657
30
0
41
1
10
17.5697390549121
20
0.953437768841923
30
0
41
1
10
17.6096317499863
20
0.929164253378531
30
0
0
SPLINE
5
182
100
AcDbEntity
8
1
62
256
6
ByLayer
370
18
48
1
60
0
100
AcDbSpline
70
4
71
3
72
16
73
12
40
0
40
0
40
0
40
0
40
0.250000000000027
40
0.250000000000027
40
0.500000000000054
40
0.500000000000054
40
0.750000000000082
40
0.750000000000082
40
0.875000000000041
40
0.875000000000041
40
1
40
1
40
1
40
1
41
1
10
17.6096317499898
20
0.929164253382993
30
0
41
1
10
17.6009440765387
20
0.938027610199725
30
0
41
1
10
17.59202332348
20
0.946663121575114
30
0
41
1
10
17.5735309315235
20
0.963326352279665
30
0
41
1
10
17.5639491459609
20
0.971369787032728
30
0
41
1
10
17.5438539217893
20
0.986515563502991
30
0
41
1
10
17.5334223812079
20
0.993575373705085
30
0
41
1
10
17.5167815365071
20
1.00288674797292
30
0
41
1
10
17.5110665105729
20
1.00577445724693
30
0
41
1
10
17.4991542197143
20
1.01094017448068
30
0
41
1
10
17.4929685464206
20
1.01320997572395
30
0
41
1
10
17.4865868357305
20
1.01497729375728
30
0
0
SPLINE
5
183
100
AcDbEntity
8
1
62
256
6
ByLayer
370
18
48
1
60
0
100
AcDbSpline
70
4
71
3
72
16
73
12
40
0
40
0
40
0
40
0
40
0.500000000000025
40
0.500000000000025
40
0.750000000000041
40
0.750000000000041
40
0.875000000000186
40
0.875000000000186
40
0.937500000000093
40
0.937500000000093
40
1
40
1
40
1
40
1
41
1
10
17.451893155386
20
1.04934177745346
30
0
41
1
10
17.4535932439235
20
1.04401983159087
30
0
41
1
10
17.4554784139807
20
1.03873036611392
30
0
41
1
10
17.4590098756668
20
1.03100759205182
30
0
41
1
10
17.4602994438609
20
1.02846117959999
30
0
41
1
10
17.4626622736289
20
1.02482940233881
30
0
41
1
10
17.4635209512474
20
1.02364832662349
30
0
41
1
10
17.465030740247
20
1.02203581855971
30
0
41
1
10
17.4655712740662
20
1.02152337689191
30
0
41
1
10
17.4668104845211
20
1.02060515871184
30
0
41
1
10
17.4674909126698
20
1.02020610245896
30
0
41
1
10
17.4682846712393
20
1.01999110328686
30
0
0
SPLINE
5
184
100
AcDbEntity
8
1
62
256
6
ByLayer
370
18
48
1
60
0
100
AcDbSpline
70
4
71
3
72
15
73
11
40
0
40
0
40
0
40
0
40
2.74723144696E-05
40
0.0776794771005416
40
0.232983486672686
40
0.38828749624483
40
0.543591505816974
40
0.698895515389117
40
0.854199524961261
40
1
40
1
40
1
40
1
41
1
10
14.4932153123159
20
1.99976403378398
30
0
41
1
10
14.4932406454838
20
1.99976400839495
30
0
41
1
10
14.5648716446873
20
1.99969157588427
30
0
41
1
10
14.7803610056521
20
1.99401600897283
30
0
41
1
10
15.1431548229493
20
1.9566754284547
30
0
41
1
10
15.5863752439828
20
1.86638426761493
30
0
41
1
10
16.0393860637007
20
1.72954368597405
30
0
41
1
10
16.5042128498155
20
1.5456024280337
30
0
41
1
10
16.9735283050967
20
1.31947771047919
30
0
41
1
10
17.2938235348879
20
1.14175419864924
30
0
41
1
10
17.4518931553862
20
1.04934177745386
30
0
0
SPLINE
5
185
100
AcDbEntity
8
1
62
256
6
ByLayer
370
18
48
1
60
0
100
AcDbSpline
70
4
71
3
72
19
73
15
40
0
40
0
40
0
40
0
40
0.0114100632381807
40
0.13262511767828
40
0.19323264489833
40
0.253840172118379
40
0.314447699338429
40
0.375055226558479
40
0.435662753778528
40
0.496270280998578
40
0.738700389878777
40
0.859915444318876
40
0.981130498758976
40
1
40
1
40
1
40
1
41
1
10
9.99943420373697
20
-1.07901382348683
30
0
41
1
10
10.0130234898855
20
-1.08717378736111
30
0
41
1
10
10.1709515366267
20
-1.18156063216182
30
0
41
1
10
10.4005695241515
20
-1.31109387152571
30
0
41
1
10
10.6875797706075
20
-1.45718106106921
30
0
41
1
10
10.902236218324
20
-1.55786590122904
30
0
41
1
10
11.1162638903077
20
-1.6490997736515
30
0
41
1
10
11.3295528608971
20
-1.73054014581288
30
0
41
1
10
11.5420629565754
20
-1.80179115268956
30
0
41
1
10
11.965162922172
20
-1.92306881918645
30
0
41
1
10
12.4537125810347
20
-2.00114648566969
30
0
41
1
10
13.0108116946891
20
-2.00183265404891
30
0
41
1
10
13.3115935285387
20
-1.97018866339937
30
0
41
1
10
13.4732841801266
20
-1.94343550463424
30
0
41
1
10
13.4950727883409
20
-1.93965454614067
30
0
0
SPLINE
5
186
100
AcDbEntity
8
1
62
256
6
ByLayer
370
18
48
1
60
0
100
AcDbSpline
70
4
71
3
72
18
73
14
40
0
40
0
40
0
40
0
40
0.125
40
0.125
40
0.25
40
0.25
40
0.375
40
0.375
40
0.5
40
0.5
40
0.75
40
0.75
40
1
40
1
40
1
40
1
41
1
10
9.80419356518715
20
-1.92119118902423
30
0
41
1
10
9.80607485693264
20
-1.92517379236656
30
0
41
1
10
9.81015495832787
20
-1.92900294995664
30
0
41
1
10
9.82073359664352
20
-1.93620673703097
30
0
41
1
10
9.82725163249208
20
-1.93958532007005
30
0
41
1
10
9.84169685926494
20
-1.94585100787773
30
0
41
1
10
9.8496415293107
20
-1.94874132537876
30
0
41
1
10
9.86635796731625
20
-1.95400990045229
30
0
41
1
10
9.87512544187703
20
-1.95638652911865
30
0
41
1
10
9.90217715443541
20
-1.96275704916957
30
0
41
1
10
9.92119295315032
20
-1.965992757625
30
0
41
1
10
9.95990831426701
20
-1.97049950510848
30
0
41
1
10
9.97963057412915
20
-1.97177119531727
30
0
41
1
10
9.99945175535487
20
-1.97209475268889
30
0
0
SPLINE
5
187
100
AcDbEntity
8
1
62
256
6
ByLayer
370
18
48
1
60
0
100
AcDbSpline
70
4
71
3
72
10
73
6
40
0
40
0
40
0
40
0
40
0.5
40
0.5
40
1
40
1
40
1
40
1
41
1
10
9.804384110451
20
1.76132904978115
30
0
41
1
10
9.77273348378267
20
1.76615659148553
30
0
41
1
10
9.74059090982993
20
1.77173402491528
30
0
41
1
10
9.67520887050003
20
1.78456092011774
30
0
41
1
10
9.64197068322315
20
1.79180843363937
30
0
41
1
10
9.60808164115679
20
1.80004806691957
30
0
0
SPLINE
5
188
100
AcDbEntity
8
1
62
256
6
ByLayer
370
18
48
1
60
0
100
AcDbSpline
70
4
71
3
72
8
73
4
40
0
40
0
40
0
40
0
40
1
40
1
40
1
40
1
41
1
10
9.99999999999997
20
-1.10252982946585
30
0
41
1
10
9.99999999999997
20
-1.10323251671224
30
0
41
1
10
10
20
-1.10393520435593
30
0
41
1
10
10
20
-1.10463789239697
30
0
0
SPLINE
5
189
100
AcDbEntity
8
1
62
256
6
ByLayer
370
18
48
1
60
0
100
AcDbSpline
70
4
71
3
72
8
73
4
40
0
40
0
40
0
40
0
40
1
40
1
40
1
40
1
41
1
10
9.60808164115468
20
-0.881462609710212
30
0
41
1
10
9.68502309053918
20
-0.910838458787339
30
0
41
1
10
9.75960633398796
20
-0.946693770262016
30
0
41
1
10
9.83063370872492
20
-0.990497254301971
30
0
0
SPLINE
5
18A
100
AcDbEntity
8
1
62
256
6
ByLayer
370
18
48
1
60
0
100
AcDbSpline
70
4
71
3
72
8
73
4
40
0
40
0
40
0
40
0
40
1
40
1
40
1
40
1
41
1
10
9.83063370872495
20
-0.990497254301914
30
0
41
1
10
9.8883994935654
20
-1.02612214743201
30
0
41
1
10
9.94487642873312
20
-1.06411995111225
30
0
41
1
10
10.0000000000006
20
-1.10460944295843
30
0
0
SPLINE
5
18B
100
AcDbEntity
8
1
62
256
6
ByLayer
370
18
48
1
60
0
100
AcDbSpline
70
4
71
3
72
8
73
4
40
0
40
0
40
0
40
0
40
1
40
1
40
1
40
1
41
1
10
9.99943420373683
20
-1.07901382348675
30
0
41
1
10
9.99947506872584
20
-1.08685608031848
30
0
41
1
10
9.9996673679403
20
-1.0946954505072
30
0
41
1
10
10
20
-1.10252982946579
30
0
0
SPLINE
5
18C
100
AcDbEntity
8
1
62
256
6
ByLayer
370
18
48
1
60
0
100
AcDbSpline
70
4
71
3
72
24
73
20
40
0
40
0
40
0
40
0
40
0.249999999999952
40
0.249999999999952
40
0.499999999999904
40
0.499999999999904
40
0.62499999999988
40
0.62499999999988
40
0.6874999999999
40
0.6874999999999
40
0.74999999999992
40
0.74999999999992
40
0.81249999999994
40
0.81249999999994
40
0.87499999999996
40
0.87499999999996
40
0.93749999999998
40
0.93749999999998
40
1
40
1
40
1
40
1
41
1
10
8.88504433872359
20
1.91762882255293
30
0
41
1
10
8.87662596060395
20
1.9180413020006
30
0
41
1
10
8.86842623920845
20
1.91841058659509
30
0
41
1
10
8.85276943348228
20
1.91905318145359
30
0
41
1
10
8.84525759641181
20
1.91932732305455
30
0
41
1
10
8.83536463185729
20
1.91964869712496
30
0
41
1
10
8.83228237761674
20
1.91974117985117
30
0
41
1
10
8.82843382674807
20
1.91985163268788
30
0
41
1
10
8.82727929963096
20
1.91988381449846
30
0
41
1
10
8.8253871487147
20
1.9199378260607
30
0
41
1
10
8.82464490184219
20
1.91995962508983
30
0
41
1
10
8.82398313183941
20
1.91998991048715
30
0
41
1
10
8.82406423599298
20
1.91999819201692
30
0
41
1
10
8.82571864504729
20
1.92000126013059
30
0
41
1
10
8.82734669674775
20
1.91999585294093
30
0
41
1
10
8.83172241476763
20
1.91998235573845
30
0
41
1
10
8.83440102072072
20
1.91997477501127
30
0
41
1
10
8.83998841321628
20
1.91996334641067
30
0
41
1
10
8.84292179712605
20
1.91995920731316
30
0
41
1
10
8.84587926212143
20
1.91995662110452
30
0
0
SPLINE
5
18D
100
AcDbEntity
8
1
62
256
6
ByLayer
370
18
48
1
60
0
100
AcDbSpline
70
4
71
3
72
10
73
6
40
0
40
0
40
0
40
0
40
0.5
40
0.5
40
1
40
1
40
1
40
1
41
1
10
9.80399170957082
20
-0.514821655771158
30
0
41
1
10
9.77245225045604
20
-0.490426087839239
30
0
41
1
10
9.7404005828854
20
-0.466697815598025
30
0
41
1
10
9.67515182799372
20
-0.420733502754331
30
0
41
1
10
9.64195599689108
20
-0.398495825573804
30
0
41
1
10
9.60808164115772
20
-0.377142117716602
30
0
0
SPLINE
5
18E
100
AcDbEntity
8
1
62
256
6
ByLayer
370
18
48
1
60
0
100
AcDbSpline
70
4
71
3
72
63
73
59
40
0
40
0
40
0
40
0
40
0.062500000000005
40
0.062500000000005
40
0.0937500000000083
40
0.0937500000000083
40
0.125000000000012
40
0.125000000000012
40
0.156250000000015
40
0.156250000000015
40
0.171875000000016
40
0.171875000000016
40
0.187500000000017
40
0.187500000000017
40
0.250000000000018
40
0.250000000000018
40
0.281250000000018
40
0.281250000000018
40
0.312500000000018
40
0.312500000000018
40
0.375000000000015
40
0.375000000000015
40
0.390625000000016
40
0.390625000000016
40
0.406250000000016
40
0.437500000000015
40
0.468750000000014
40
0.468750000000014
40
0.500000000000013
40
0.500000000000013
40
0.562500000000013
40
0.562500000000013
40
0.578125000000013
40
0.578125000000013
40
0.593750000000012
40
0.593750000000012
40
0.625000000000012
40
0.625000000000012
40
0.687500000000012
40
0.687500000000012
40
0.718750000000012
40
0.718750000000012
40
0.750000000000012
40
0.750000000000012
40
0.781250000000012
40
0.781250000000012
40
0.796875000000011
40
0.796875000000011
40
0.81250000000001
40
0.87500000000001
40
0.87500000000001
40
0.890625000000009
40
0.890625000000009
40
0.906250000000008
40
0.906250000000008
40
0.937500000000006
40
0.937500000000006
40
1
40
1
40
1
40
1
41
1
10
10.0000000000001
20
1.83400410534182
30
0
41
1
10
10.1588878233306
20
1.88005318429632
30
0
41
1
10
10.317273476414
20
1.91675841004306
30
0
41
1
10
10.5552654277314
20
1.95748271586032
30
0
41
1
10
10.6347057812998
20
1.96865799159832
30
0
41
1
10
10.7931821069111
20
1.9859954716008
30
0
41
1
10
10.8723108386979
20
1.99217812023366
30
0
41
1
10
11.0305727168842
20
1.99956360160792
30
0
41
1
10
11.1097057763912
20
2.00077115761386
30
0
41
1
10
11.2285693665841
20
1.99886912555269
30
0
41
1
10
11.2682178422617
20
1.99761589106933
30
0
41
1
10
11.3475958472054
20
1.99386829749361
30
0
41
1
10
11.3873328977649
20
1.99137237272063
30
0
41
1
10
11.5857322119789
20
1.97582657783897
30
0
41
1
10
11.74398614488
20
1.95354567161601
30
0
41
1
10
11.9817994189716
20
1.90568941763257
30
0
41
1
10
12.0611566975036
20
1.88733082215288
30
0
41
1
10
12.2200934333694
20
1.8458816925797
30
0
41
1
10
12.2993812487816
20
1.82286898287813
30
0
41
1
10
12.5370050705369
20
1.74718621454622
30
0
41
1
10
12.6950950393673
20
1.6878725426086
30
0
41
1
10
12.8934058774944
20
1.60329904338957
30
0
41
1
10
12.9331237640406
20
1.58585306580227
30
0
41
1
10
13.0124477970316
20
1.55003169494972
30
0
41
1
10
13.1313313148201
20
1.49487767177578
30
0
41
1
10
13.3291729577774
20
1.39607843579168
30
0
41
1
10
13.4875604611749
20
1.31015780889521
30
0
41
1
10
13.6462077120296
20
1.22098971328822
30
0
41
1
10
13.7257515283753
20
1.17472375206631
30
0
41
1
10
13.9638282726092
20
1.03208263017908
30
0
41
1
10
14.1221261384489
20
0.931726047667382
30
0
41
1
10
14.3203107517433
20
0.800767439905144
30
0
41
1
10
14.3599629254877
20
0.774298681390263
30
0
41
1
10
14.4393224527587
20
0.72083486004081
30
0
41
1
10
14.4790559955184
20
0.693821679847645
30
0
41
1
10
14.5980938280466
20
0.612234099859137
30
0
41
1
10
14.6772820671827
20
0.55708041360657
30
0
41
1
10
14.9146790536816
20
0.389788710945908
30
0
41
1
10
15.0727269915342
20
0.275825749185202
30
0
41
1
10
15.310914028854
20
0.103163108681855
30
0
41
1
10
15.3902385076613
20
0.0455059117054759
30
0
41
1
10
15.5487144308286
20
-0.0695566337058438
30
0
41
1
10
15.6279044025339
20
-0.126989815699289
30
0
41
1
10
15.786364850133
20
-0.241417817710726
30
0
41
1
10
15.8656324816814
20
-0.298416565279325
30
0
41
1
10
15.9847224586262
20
-0.383408508842706
30
0
41
1
10
16.0244785255674
20
-0.411674135686411
30
0
41
1
10
16.1039109772782
20
-0.467885132488959
30
0
41
1
10
16.3022943513873
20
-0.607611528765858
30
0
41
1
10
16.4999787852422
20
-0.742951693149848
30
0
41
1
10
16.6981213670294
20
-0.873444589014014
30
0
41
1
10
16.7377733347667
20
-0.89930046653356
30
0
41
1
10
16.8171516996271
20
-0.950491048143618
30
0
41
1
10
16.8568462916794
20
-0.975804512361776
30
0
41
1
10
16.975675989395
20
-1.05065281363625
30
0
41
1
10
17.054678723138
20
-1.09917239745735
30
0
41
1
10
17.291369156972
20
-1.24025512345546
30
0
41
1
10
17.448745497678
20
-1.32833757101494
30
0
41
1
10
17.6065123051353
20
-1.40961310741784
30
0
0
SPLINE
5
18F
100
AcDbEntity
8
1
62
256
6
ByLayer
370
18
48
1
60
0
100
AcDbSpline
70
4
71
3
72
18
73
14
40
0
40
0
40
0
40
0
40
0.125000000000003
40
0.125000000000003
40
0.250000000000006
40
0.250000000000006
40
0.375000000000008
40
0.375000000000008
40
0.500000000000011
40
0.500000000000011
40
0.750000000000005
40
0.750000000000005
40
1
40
1
40
1
40
1
41
1
10
9.80399170955576
20
-0.514821655771698
30
0
41
1
10
9.80587270746744
20
-0.540185362100289
30
0
41
1
10
9.80993485650313
20
-0.565086614506811
30
0
41
1
10
9.82048619323305
20
-0.614301073983142
30
0
41
1
10
9.82699315135753
20
-0.638611840795562
30
0
41
1
10
9.84142699010076
20
-0.686830744423389
30
0
41
1
10
9.84937014478092
20
-0.710753835975396
30
0
41
1
10
9.86609670526747
20
-0.758225320598058
30
0
41
1
10
9.87487314485824
20
-0.78174227156299
30
0
41
1
10
9.90195990732269
20
-0.851804636162342
30
0
41
1
10
9.9210093362621
20
-0.897886911711197
30
0
41
1
10
9.95980228966746
20
-0.989113378173698
30
0
41
1
10
9.97956833535696
20
-1.0342472390056
30
0
41
1
10
9.99943420373666
20
-1.07901382348669
30
0
0
SPLINE
5
190
100
AcDbEntity
8
1
62
256
6
ByLayer
370
18
48
1
60
0
100
AcDbSpline
70
4
71
3
72
18
73
14
40
0
40
0
40
0
40
0
40
0.125
40
0.125
40
0.25
40
0.25
40
0.375
40
0.375
40
0.5
40
0.5
40
0.75
40
0.75
40
1
40
1
40
1
40
1
41
1
10
9.80438411046188
20
1.76132904978198
30
0
41
1
10
9.80632843837088
20
1.7505743877328
30
0
41
1
10
9.81046527638418
20
1.73991823329757
30
0
41
1
10
9.82112375081314
20
1.71844097169679
30
0
41
1
10
9.82766656236234
20
1.70762600509789
30
0
41
1
10
9.84213739645585
20
1.68568524647415
30
0
41
1
10
9.85008380141113
20
1.6745521624853
30
0
41
1
10
9.86678464192315
20
1.65195211063073
30
0
41
1
10
9.87553702421633
20
1.64049461006297
30
0
41
1
10
9.90252968687813
20
1.60556964363749
30
0
41
1
10
9.92148853522428
20
1.5815351751427
30
0
41
1
10
9.96007515750043
20
1.53186325986661
30
0
41
1
10
9.979725526198
20
1.50623166205031
30
0
41
1
10
9.99947313483486
20
1.47977786419995
30
0
0
SPLINE
5
191
100
AcDbEntity
8
1
62
256
6
ByLayer
370
18
48
1
60
0
100
AcDbSpline
70
4
71
3
72
32
73
28
40
0
40
0
40
0
40
0
40
0.006247092479901
40
0.0648723741419306
40
0.0941850149729455
40
0.12349765580396
40
0.152810296634975
40
0.18212293746599
40
0.211435578297005
40
0.24074821912802
40
0.357998782452079
40
0.387311423283094
40
0.416624064114109
40
0.475249345776138
40
0.504561986607153
40
0.533874627438168
40
0.592499909100197
40
0.651125190762227
40
0.680437831593242
40
0.709750472424257
40
0.768375754086286
40
0.827001035748316
40
0.885626317410346
40
0.91493895824136
40
0.944251599072375
40
0.97356423990339
40
1
40
1
40
1
40
1
41
1
10
9.99944220637664
20
1.82140971899293
30
0
41
1
10
10.0148295771629
20
1.82602477334831
30
0
41
1
10
10.1745927670682
20
1.87304966339653
30
0
41
1
10
10.4061395047667
20
1.92763830380719
30
0
41
1
10
10.6933878859864
20
1.97173088982794
30
0
41
1
10
10.9082406425849
20
1.99266909386623
30
0
41
1
10
11.1224551104459
20
2.0013918121837
30
0
41
1
10
11.3358820383592
20
1.99808308976245
30
0
41
1
10
11.5484576624426
20
1.9829159265978
30
0
41
1
10
11.9715218246216
20
1.92927404404202
30
0
41
1
10
12.3898823558918
20
1.81848670502092
30
0
41
1
10
12.8071983717353
20
1.65826374146403
30
0
41
1
10
13.0853738315606
20
1.53879370855412
30
0
41
1
10
13.3638426004191
20
1.40113032848842
30
0
41
1
10
13.6432248816317
20
1.24724006639622
30
0
41
1
10
13.9234231009015
20
1.08316652689587
30
0
41
1
10
14.2756157092147
20
0.860317520457613
30
0
41
1
10
14.6316961762687
20
0.618128212145791
30
0
41
1
10
14.919671981473
20
0.415336752563917
30
0
41
1
10
15.2099745090879
20
0.207335074872674
30
0
41
1
10
15.5777870616019
20
-0.0605355499089342
30
0
41
1
10
16.0294654551001
20
-0.387731067334272
30
0
41
1
10
16.4165364942838
20
-0.659111435010232
30
0
41
1
10
16.7341114413928
20
-0.871151727618781
30
0
41
1
10
16.9766213356866
20
-1.02653910700684
30
0
41
1
10
17.2157712029687
20
-1.17183596102618
30
0
41
1
10
17.3756710928161
20
-1.26299491798687
30
0
41
1
10
17.4522622239405
20
-1.30511941358392
30
0
0
SPLINE
5
192
100
AcDbEntity
8
1
62
256
6
ByLayer
370
18
48
1
60
0
100
AcDbSpline
70
4
71
3
72
32
73
28
40
0
40
0
40
0
40
0
40
0.0078813330428461
40
0.0701837608645172
40
0.101334974775353
40
0.132486188686188
40
0.163637402597024
40
0.19478861650786
40
0.225939830418695
40
0.257091044329531
40
0.319393472151202
40
0.381695899972873
40
0.412847113883709
40
0.443998327794544
40
0.506300755616215
40
0.537451969527051
40
0.568603183437886
40
0.630905611259558
40
0.662056825170393
40
0.693208039081229
40
0.7555104669029
40
0.817812894724571
40
0.848964108635407
40
0.880115322546242
40
0.942417750367913
40
0.973568964278749
40
1
40
1
40
1
40
1
41
1
10
9.99947313483551
20
1.47977786419955
30
0
41
1
10
10.0177511665668
20
1.47034662804475
30
0
41
1
10
10.180488791836
20
1.38539627775657
30
0
41
1
10
10.415055465892
20
1.25057541120157
30
0
41
1
10
10.7024667825868
20
1.06902433389396
30
0
41
1
10
10.9174233209968
20
0.92598638728586
30
0
41
1
10
11.131722197492
20
0.777102811833174
30
0
41
1
10
11.3452048833236
20
0.623503880093182
30
0
41
1
10
11.5577913477054
20
0.466389339374643
30
0
41
1
10
11.8397366539226
20
0.253983308074282
30
0
41
1
10
12.1896188210549
20
-0.0145319884809396
30
0
41
1
10
12.5373822760009
20
-0.281193139243044
30
0
41
1
10
12.8150716531896
20
-0.489887738026283
30
0
41
1
10
13.0926687083813
20
-0.694339381557143
30
0
41
1
10
13.3704790517467
20
-0.890671882834255
30
0
41
1
10
13.6491229170507
20
-1.07556431090703
30
0
41
1
10
13.9285309572699
20
-1.2517522804319
30
0
41
1
10
14.2094224467234
20
-1.41318690839037
30
0
41
1
10
14.4925465673935
20
-1.55668146526128
30
0
41
1
10
14.7774202475444
20
-1.68718637398368
30
0
41
1
10
15.1372316514357
20
-1.8239382506988
30
0
41
1
10
15.5035768125158
20
-1.9205305381517
30
0
41
1
10
15.801899365048
20
-1.97071219597376
30
0
41
1
10
16.1041410079929
20
-2.00184817926336
30
0
41
1
10
16.4129810114928
20
-2.00288524314789
30
0
41
1
10
16.7181994092765
20
-1.97199271371082
30
0
41
1
10
16.8674178870632
20
-1.94723858643016
30
0
41
1
10
16.936508206535
20
-1.93372127033561
30
0
0
SPLINE
5
193
100
AcDbEntity
8
1
62
256
6
ByLayer
370
18
48
1
60
0
100
AcDbSpline
70
4
71
3
72
8
73
4
40
0
40
0
40
0
40
0
40
1
40
1
40
1
40
1
41
1
10
9.99947313483435
20
1.47977786420006
30
0
41
1
10
9.99950852595191
20
1.47369119019024
30
0
41
1
10
9.99968779105402
20
1.46760603112531
30
0
41
1
10
9.99999999999656
20
1.46151909975291
30
0
0
SPLINE
5
194
100
AcDbEntity
8
1
62
256
6
ByLayer
370
18
48
1
60
0
100
AcDbSpline
70
4
71
3
72
8
73
4
40
0
40
0
40
0
40
0
40
1
40
1
40
1
40
1
41
1
10
10
20
1.4615190996854
30
0
41
1
10
10
20
1.46080034656148
30
0
41
1
10
10
20
1.46008159462716
30
0
41
1
10
10
20
1.45936284388247
30
0
0
SPLINE
5
195
100
AcDbEntity
8
1
62
256
6
ByLayer
370
18
48
1
60
0
100
AcDbSpline
70
4
71
3
72
55
73
51
40
0
40
0
40
0
40
0
40
0.0733568026643064
40
0.0733568026643064
40
0.091696003330383
40
0.091696003330383
40
0.11003520399646
40
0.146713605328615
40
0.146713605328615
40
0.18339200666077
40
0.18339200666077
40
0.201731207326848
40
0.201731207326848
40
0.220070407992927
40
0.220070407992927
40
0.293427210657243
40
0.293427210657243
40
0.311766411323321
40
0.311766411323321
40
0.330105611989399
40
0.366784013321554
40
0.403462414653708
40
0.403462414653708
40
0.421801615319784
40
0.421801615319784
40
0.44014081598586
40
0.44014081598586
40
0.513497618650166
40
0.513497618650166
40
0.586854421314473
40
0.586854421314473
40
0.623532822646627
40
0.623532822646627
40
0.641872023312703
40
0.641872023312703
40
0.660211223978779
40
0.733568026643083
40
0.733568026643083
40
0.806924829307388
40
0.806924829307388
40
0.84360323063954
40
0.861942431305616
40
0.861942431305616
40
0.880281631971692
40
0.880281631971692
40
0.953638434635994
40
0.953638434635994
40
0.990316835968146
40
0.990316835968146
40
1
40
1
40
1
40
1
41
1
10
10.0000000000001
20
1.45936284388247
30
0
41
1
10
10.1592224715059
20
1.3758057974357
30
0
41
1
10
10.3178527368058
20
1.28435236888117
30
0
41
1
10
10.5165581853257
20
1.16143128237431
30
0
41
1
10
10.5563474671091
20
1.13639861251983
30
0
41
1
10
10.6358617449109
20
1.0855878171599
30
0
41
1
10
10.7549998319804
20
1.00827806576476
30
0
41
1
10
10.8738910400227
20
0.92785745092425
30
0
41
1
10
11.032464026028
20
0.818188290000677
30
0
41
1
10
11.1117761529314
20
0.762134489485447
30
0
41
1
10
11.2309794933334
20
0.676465244737471
30
0
41
1
10
11.2707827599213
20
0.647622176786911
30
0
41
1
10
11.350338738263
20
0.589561420075455
30
0
41
1
10
11.3900801119704
20
0.560352436179869
30
0
41
1
10
11.5886823118363
20
0.413515895821717
30
0
41
1
10
11.7472468444128
20
0.293530750146203
30
0
41
1
10
11.9461772907629
20
0.14183977611566
30
0
41
1
10
11.9860284667517
20
0.111391414450708
30
0
41
1
10
12.0656554210344
20
0.0504792119583612
30
0
41
1
10
12.1849603856435
20
-0.0408931987295205
30
0
41
1
10
12.3833286577432
20
-0.192938878193985
30
0
41
1
10
12.5419955689495
20
-0.313695878839042
30
0
41
1
10
12.6611821642843
20
-0.403674744102887
30
0
41
1
10
12.700988439734
20
-0.433603672821874
30
0
41
1
10
12.7804334759983
20
-0.493020152736818
30
0
41
1
10
12.8200658600101
20
-0.522503184633024
30
0
41
1
10
13.0178666880945
20
-0.668690420376521
30
0
41
1
10
13.1749656227379
20
-0.78169169614165
30
0
41
1
10
13.4890006106273
20
-0.997530113970271
30
0
41
1
10
13.6459299214605
20
-1.10038340484744
30
0
41
1
10
13.8825461471266
20
-1.24546994790529
30
0
41
1
10
13.9616212592722
20
-1.29229860504563
30
0
41
1
10
14.0806958460716
20
-1.36004743865897
30
0
41
1
10
14.1205019109607
20
-1.38223512011297
30
0
41
1
10
14.2001255463021
20
-1.42565316824224
30
0
41
1
10
14.398707971787
20
-1.53153110853461
30
0
41
1
10
14.5951938662325
20
-1.62396842566434
30
0
41
1
10
14.9089641285319
20
-1.75328085265053
30
0
41
1
10
15.0655641727038
20
-1.80864617696713
30
0
41
1
10
15.3016767536833
20
-1.87669178536399
30
0
41
1
10
15.4200322454112
20
-1.90696542892513
30
0
41
1
10
15.5391236250279
20
-1.93140121117378
30
0
41
1
10
15.6187123920329
20
-1.94636803069255
30
0
41
1
10
15.658538786121
20
-1.95317615779683
30
0
41
1
10
15.8573694259362
20
-1.98374255115874
30
0
41
1
10
16.0159929305277
20
-1.99720466664442
30
0
41
1
10
16.2544459365044
20
-2.00081724038287
30
0
41
1
10
16.3341348821042
20
-1.99923768097105
30
0
41
1
10
16.4345952595678
20
-1.99371973005239
30
0
41
1
10
16.4555668202356
20
-1.99237368264897
30
0
41
1
10
16.4765300236329
20
-1.99083455216322
30
0
0
SPLINE
5
196
100
AcDbEntity
8
1
62
256
6
ByLayer
370
18
48
1
60
0
100
AcDbSpline
70
4
71
1
72
4
73
2
40
0
40
0
40
1
40
1
41
1
10
17.742402754808
20
-1.72425187271492
30
0
41
1
10
17.8177139557196
20
-1.64322340068082
30
0
0
SPLINE
5
197
100
AcDbEntity
8
1
62
256
6
ByLayer
370
18
48
1
60
0
100
AcDbSpline
70
4
71
2
72
6
73
3
40
0
40
0
40
0
40
1
40
1
40
1
41
1
10
17.9187007627487
20
-1.48785353330334
30
0
41
1
10
17.9357092352157
20
-1.44697419479857
30
0
41
1
10
17.9527177076828
20
-1.40609485629378
30
0
0
SPLINE
5
198
100
AcDbEntity
8
1
62
256
6
ByLayer
370
18
48
1
60
0
100
AcDbSpline
70
4
71
2
72
6
73
3
40
0
40
0
40
0
40
1
40
1
40
1
41
1
10
12.7170471570663
20
-1.19156075195769
30
0
41
1
10
13.0708113125814
20
-1.02282954944852
30
0
41
1
10
13.4218908855784
20
-0.928933711755008
30
0
0
SPLINE
5
199
100
AcDbEntity
8
1
62
256
6
ByLayer
370
18
48
1
60
0
100
AcDbSpline
70
4
71
3
72
9
73
5
40
0
40
0
40
0
40
0
40
0.934215248153384
40
1
40
1
40
1
40
1
41
1
10
17.5146320987974
20
1.43430689516879
30
0
41
1
10
17.3457531588447
20
1.48364552234176
30
0
41
1
10
17.1656966878065
20
1.53058576213246
30
0
41
1
10
16.9859600810128
20
1.57139047812973
30
0
41
1
10
16.9741382328969
20
1.57404801830765
30
0
0
SPLINE
5
19A
100
AcDbEntity
8
1
62
256
6
ByLayer
370
18
48
1
60
0
100
AcDbSpline
70
4
71
1
72
4
73
2
40
0
40
0
40
1
40
1
41
1
10
17.9290230595713
20
0.912437668597477
30
0
41
1
10
17.7392790840901
20
1.34496395406529
30
0
0
SPLINE
5
19B
100
AcDbEntity
8
1
62
256
6
ByLayer
370
18
48
1
60
0
100
AcDbSpline
70
4
71
2
72
6
73
3
40
0
40
0
40
0
40
1
40
1
40
1
41
1
10
13.9201952053639
20
-1.75422076572011
30
0
41
1
10
14.3193500118518
20
-1.73640033472373
30
0
41
1
10
14.7202354388809
20
-1.67037696575713
30
0
0
SPLINE
5
19C
100
AcDbEntity
8
1
62
256
6
ByLayer
370
18
48
1
60
0
100
AcDbSpline
70
4
71
2
72
6
73
3
40
0
40
0
40
0
40
1
40
1
40
1
41
1
10
11.8563020246859
20
0.911771738733961
30
0
41
1
10
11.5201392793733
20
1.00470429427702
30
0
41
1
10
11.1762697853678
20
1.17843729538654
30
0
0
SPLINE
5
19D
100
AcDbEntity
8
1
62
256
6
ByLayer
370
18
48
1
60
0
100
AcDbSpline
70
4
71
2
72
6
73
3
40
0
40
0
40
0
40
1
40
1
40
1
41
1
10
12.8115410907124
20
-1.99972284254622
30
0
41
1
10
12.8115120196871
20
-1.99972364945597
30
0
41
1
10
12.8114829488086
20
-1.99972413356451
30
0
0
SPLINE
5
19E
100
AcDbEntity
8
1
62
256
6
ByLayer
370
18
48
1
60
0
100
AcDbSpline
70
4
71
2
72
6
73
3
40
0
40
0
40
0
40
1
40
1
40
1
41
1
10
15.1201863256578
20
0.935976232217087
30
0
41
1
10
14.7558243626461
20
1.02735174197943
30
0
41
1
10
14.3888012640472
20
1.19870469800773
30
0
0
SPLINE
5
19F
100
AcDbEntity
8
1
62
256
6
ByLayer
370
18
48
1
60
0
100
AcDbSpline
70
4
71
1
72
4
73
2
40
0
40
0
40
1
40
1
41
1
10
17.3035161208566
20
-1.75429969136582
30
0
41
1
10
17.5425171458212
20
-1.73757589571585
30
0
0
SPLINE
5
1A0
100
AcDbEntity
8
1
62
256
6
ByLayer
370
18
48
1
60
0
100
AcDbSpline
70
4
71
2
72
6
73
3
40
0
40
0
40
0
40
1
40
1
40
1
41
1
10
17.9742323346832
20
0.687602409927706
30
0
41
1
10
17.9568490387134
20
0.791433020355896
30
0
41
1
10
17.9394657427435
20
0.895263630784115
30
0
0
SPLINE
5
1A1
100
AcDbEntity
8
1
62
256
6
ByLayer
370
18
48
1
60
0
100
AcDbSpline
70
4
71
2
72
6
73
3
40
0
40
0
40
0
40
1
40
1
40
1
41
1
10
11.176793348371
20
1.99968621055706
30
0
41
1
10
11.1768234264869
20
1.99968196027444
30
0
41
1
10
11.1768535039113
20
1.99967737256435
30
0
0
SPLINE
5
1A2
100
AcDbEntity
8
1
62
256
6
ByLayer
370
18
48
1
60
0
100
AcDbSpline
70
4
71
2
72
6
73
3
40
0
40
0
40
0
40
1
40
1
40
1
41
1
10
14.4935796907814
20
1.99976365290664
30
0
41
1
10
14.4936096930691
20
1.9997675617349
30
0
41
1
10
14.4936396944624
20
1.99977116722738
30
0
0
SPLINE
5
1A3
100
AcDbEntity
8
1
62
256
6
ByLayer
370
18
48
1
60
0
100
AcDbSpline
70
4
71
2
72
6
73
3
40
0
40
0
40
0
40
1
40
1
40
1
41
1
10
11.3836636318298
20
1.00154427603348
30
0
41
1
10
11.3836573903239
20
1.00155531930173
30
0
41
1
10
11.3836511488169
20
1.00156716463601
30
0
0
SPLINE
5
1A4
100
AcDbEntity
8
1
62
256
6
ByLayer
370
18
48
1
60
0
100
AcDbSpline
70
4
71
2
72
6
73
3
40
0
40
0
40
0
40
1
40
1
40
1
41
1
10
14.6684525216207
20
0.998762032491214
30
0
41
1
10
14.6684574532409
20
0.998789832136879
30
0
41
1
10
14.6684623848617
20
0.998817034195213
30
0
0
LINE
5
79
100
AcDbEntity
8
80
62
256
6
ByLayer
370
18
48
1
60
0
100
AcDbLine
10
0
20
0
30
0
11
-5
21
0
31
0
39
0
210
0
220
0
230
1
0
LINE
5
7A
100
AcDbEntity
8
4
62
256
6
ByLayer
370
18
48
0.05
60
0
100
AcDbLine
10
0
20
0
30
0
11
18
21
0
31
0
39
0
210
0
220
0
230
1
0
LINE
5
7C
100
AcDbEntity
8
81
62
256
6
ByLayer
370
18
48
1
60
0
100
AcDbLine
10
18
20
0
30
0
11
23
21
0
31
0
39
0
210
0
220
0
230
1
0
LINE
5
7D
100
AcDbEntity
8
SK4
62
256
6
ByLayer
370
18
48
0.05
60
0
100
AcDbLine
10
-36
20
0
30
0
11
18
21
0
31
0
39
0
210
0
220
0
230
1
0
LINE
5
7F
100
AcDbEntity
8
1
62
256
6
ByLayer
370
18
48
1
60
0
100
AcDbLine
10
17.953017
20
0.044603
30
0
11
17.952899
21
0.043488
31
0
39
0
210
0
220
0
230
1
0
LINE
5
80
100
AcDbEntity
8
1
62
256
6
ByLayer
370
18
48
1
60
0
100
AcDbLine
10
0
20
3
30
0
11
0
21
0
31
0
39
0
210
0
220
0
230
1
0
LINE
5
81
100
AcDbEntity
8
1
62
256
6
ByLayer
370
18
48
1
60
0
100
AcDbLine
10
0
20
0
30
0
11
0
21
-3
31
0
39
0
210
0
220
0
230
1
0
LINE
5
82
100
AcDbEntity
8
1
62
256
6
ByLayer
370
18
48
1
60
0
100
AcDbLine
10
17.952899
20
0.043488
30
0
11
17.947334
21
0.00748
31
0
39
0
210
0
220
0
230
1
0
LINE
5
83
100
AcDbEntity
8
1
62
256
6
ByLayer
370
18
48
1
60
0
100
AcDbLine
10
17.972663
20
0.220566
30
0
11
17.986432
21
0.309892
31
0
39
0
210
0
220
0
230
1
0
LINE
5
84
100
AcDbEntity
8
1
62
256
6
ByLayer
370
18
48
1
60
0
100
AcDbLine
10
17.947752
20
0.027074
30
0
11
17.972663
21
0.220566
31
0
39
0
210
0
220
0
230
1
0
LINE
5
85
100
AcDbEntity
8
1
62
256
6
ByLayer
370
18
48
1
60
0
100
AcDbLine
10
17.952677
20
0.215654
30
0
11
17.972663
21
0.220566
31
0
39
0
210
0
220
0
230
1
0
LINE
5
86
100
AcDbEntity
8
1
62
256
6
ByLayer
370
18
48
1
60
0
100
AcDbLine
10
17.827515
20
-0.326543
30
0
11
17.934768
21
-0.066948
31
0
39
0
210
0
220
0
230
1
0
LINE
5
87
100
AcDbEntity
8
1
62
256
6
ByLayer
370
18
48
1
60
0
100
AcDbLine
10
17.983002
20
-1.121991
30
0
11
17.986432
21
-1.232023
31
0
39
0
210
0
220
0
230
1
0
LINE
5
88
100
AcDbEntity
8
1
62
256
6
ByLayer
370
18
48
1
60
0
100
AcDbLine
10
17.948906
20
0.074295
30
0
11
17.953701
21
0.254031
31
0
39
0
210
0
220
0
230
1
0
LINE
5
89
100
AcDbEntity
8
1
62
256
6
ByLayer
370
18
48
1
60
0
100
AcDbLine
10
17.966794
20
0.744858
30
0
11
17.986432
21
1.481056
31
0
39
0
210
0
220
0
230
1
0
LINE
5
8A
100
AcDbEntity
8
1
62
256
6
ByLayer
370
18
48
1
60
0
100
AcDbLine
10
17.936204
20
-0.067097
30
0
11
17.931133
21
-0.066552
31
0
39
0
210
0
220
0
230
1
0
LINE
5
8B
100
AcDbEntity
8
1
62
256
6
ByLayer
370
18
48
1
60
0
100
AcDbLine
10
17.936204
20
-0.067097
30
0
11
17.946641
21
-0.029549
31
0
39
0
210
0
220
0
230
1
0
LINE
5
8C
100
AcDbEntity
8
1
62
256
6
ByLayer
370
18
48
1
60
0
100
AcDbLine
10
17.952899
20
-1.312621
30
0
11
17.950825
21
-1.245282
31
0
39
0
210
0
220
0
230
1
0
LINE
5
8D
100
AcDbEntity
8
1
62
256
6
ByLayer
370
13
48
1
60
0
100
AcDbLine
10
17.877574
20
0.233051
30
0
11
17.948906
21
0.074295
31
0
39
0
210
0
220
0
230
1
0
LINE
5
8E
100
AcDbEntity
8
1
62
256
6
ByLayer
370
18
48
1
60
0
100
AcDbLine
10
8.897385
20
1.919829
30
0
11
8.911047
21
1.916199
31
0
39
0
210
0
220
0
230
1
0
LINE
5
8F
100
AcDbEntity
8
1
62
256
6
ByLayer
370
13
48
1
60
0
100
AcDbLine
10
17.411919
20
-0.589097
30
0
11
17.395434
21
-0.614715
31
0
39
0
210
0
220
0
230
1
0
LINE
5
90
100
AcDbEntity
8
1
62
256
6
ByLayer
370
13
48
1
60
0
100
AcDbLine
10
17.081034
20
-1.103323
30
0
11
17.042252
21
-1.163593
31
0
39
0
210
0
220
0
230
1
0
LINE
5
91
100
AcDbEntity
8
1
62
256
6
ByLayer
370
18
48
1
60
0
100
AcDbLine
10
10
20
-1.78584
30
0
11
10
21
-1.934202
31
0
39
0
210
0
220
0
230
1
0
LINE
5
92
100
AcDbEntity
8
1
62
256
6
ByLayer
370
13
48
1
60
0
100
AcDbLine
10
8.847028
20
-1.665361
30
0
11
10
21
-1.78584
31
0
39
0
210
0
220
0
230
1
0
LINE
5
93
100
AcDbEntity
8
1
62
256
6
ByLayer
370
18
48
1
60
0
100
AcDbLine
10
10
20
-1.78584
30
0
11
10
21
-1.734878
31
0
39
0
210
0
220
0
230
1
0
LINE
5
94
100
AcDbEntity
8
1
62
256
6
ByLayer
370
13
48
1
60
0
100
AcDbLine
10
8.800015
20
-1.609487
30
0
11
10
21
-1.734878
31
0
39
0
210
0
220
0
230
1
0
LINE
5
95
100
AcDbEntity
8
1
62
256
6
ByLayer
370
18
48
1
60
0
100
AcDbLine
10
10
20
-1.734878
30
0
11
10
21
-1.720334
31
0
39
0
210
0
220
0
230
1
0
LINE
5
96
100
AcDbEntity
8
1
62
256
6
ByLayer
370
18
48
1
60
0
100
AcDbLine
10
17.965619
20
-0.540804
30
0
11
17.986432
21
-1.105338
31
0
39
0
210
0
220
0
230
1
0
LINE
5
97
100
AcDbEntity
8
1
62
256
6
ByLayer
370
18
48
1
60
0
100
AcDbLine
10
17.9377
20
-0.461839
30
0
11
17.965619
21
-0.540804
31
0
39
0
210
0
220
0
230
1
0
LINE
5
98
100
AcDbEntity
8
1
62
256
6
ByLayer
370
13
48
1
60
0
100
AcDbLine
10
17.888814
20
-0.019582
30
0
11
17.931133
21
-0.066552
31
0
39
0
210
0
220
0
230
1
0
LINE
5
99
100
AcDbEntity
8
1
62
256
6
ByLayer
370
13
48
1
60
0
100
AcDbLine
10
9.84382
20
1.46988
30
0
11
10
21
1.375354
31
0
39
0
210
0
220
0
230
1
0
LINE
5
9A
100
AcDbEntity
8
1
62
256
6
ByLayer
370
18
48
1
60
0
100
AcDbLine
10
10
20
0.338305
30
0
11
10
21
0.505305
31
0
39
0
210
0
220
0
230
1
0
LINE
5
9B
100
AcDbEntity
8
1
62
256
6
ByLayer
370
13
48
1
60
0
100
AcDbLine
10
8.457966
20
1.438596
30
0
11
10
21
0.505305
31
0
39
0
210
0
220
0
230
1
0
LINE
5
9C
100
AcDbEntity
8
1
62
256
6
ByLayer
370
18
48
1
60
0
100
AcDbLine
10
17.952899
20
-0.877642
30
0
11
17.9377
21
-0.461839
31
0
39
0
210
0
220
0
230
1
0
LINE
5
9D
100
AcDbEntity
8
1
62
256
6
ByLayer
370
18
48
1
60
0
100
AcDbLine
10
17.705917
20
-0.177243
30
0
11
17.9377
21
-0.461839
31
0
39
0
210
0
220
0
230
1
0
LINE
5
9E
100
AcDbEntity
8
1
62
256
6
ByLayer
370
13
48
1
60
0
100
AcDbLine
10
17.456848
20
-1.253165
30
0
11
17.468365
21
-1.331365
31
0
39
0
210
0
220
0
230
1
0
LINE
5
9F
100
AcDbEntity
8
1
62
256
6
ByLayer
370
18
48
1
60
0
100
AcDbLine
10
17.462581
20
1.205277
30
0
11
17.456226
21
1.376631
31
0
39
0
210
0
220
0
230
1
0
LINE
5
A0
100
AcDbEntity
8
1
62
256
6
ByLayer
370
18
48
1
60
0
100
AcDbLine
10
8.835792
20
-1.598681
30
0
11
10
21
-1.720334
31
0
39
0
210
0
220
0
230
1
0
LINE
5
A1
100
AcDbEntity
8
1
62
256
6
ByLayer
370
18
48
1
60
0
100
AcDbLine
10
10
20
-1.720334
30
0
11
10
21
-1.105748
31
0
39
0
210
0
220
0
230
1
0
LINE
5
A2
100
AcDbEntity
8
1
62
256
6
ByLayer
370
18
48
1
60
0
100
AcDbLine
10
17.461661
20
-1.059204
30
0
11
17.456297
21
-0.874142
31
0
39
0
210
0
220
0
230
1
0
LINE
5
A3
100
AcDbEntity
8
1
62
256
6
ByLayer
370
13
48
1
60
0
100
AcDbLine
10
8.263562
20
-0.848142
30
0
11
9.830453
21
-1.011873
31
0
39
0
210
0
220
0
230
1
0
LINE
5
A4
100
AcDbEntity
8
1
62
256
6
ByLayer
370
18
48
1
60
0
100
AcDbLine
10
17.964916
20
0.257105
30
0
11
17.986432
21
0.627539
31
0
39
0
210
0
220
0
230
1
0
LINE
5
A5
100
AcDbEntity
8
1
62
256
6
ByLayer
370
13
48
1
60
0
100
AcDbLine
10
17.340611
20
0.588881
30
0
11
17.706399
21
0.182884
31
0
39
0
210
0
220
0
230
1
0
LINE
5
A6
100
AcDbEntity
8
1
62
256
6
ByLayer
370
18
48
1
60
0
100
AcDbLine
10
17.964916
20
0.257105
30
0
11
17.739743
21
0.195057
31
0
39
0
210
0
220
0
230
1
0
LINE
5
A7
100
AcDbEntity
8
1
62
256
6
ByLayer
370
13
48
1
60
0
100
AcDbLine
10
8.298138
20
-0.767241
30
0
11
9.585969
21
-0.901811
31
0
39
0
210
0
220
0
230
1
0
LINE
5
A8
100
AcDbEntity
8
1
62
256
6
ByLayer
370
18
48
1
60
0
100
AcDbLine
10
10
20
0.505305
30
0
11
10
21
1.375354
31
0
39
0
210
0
220
0
230
1
0
LINE
5
A9
100
AcDbEntity
8
1
62
256
6
ByLayer
370
18
48
1
60
0
100
AcDbLine
10
10
20
-0.419623
30
0
11
10
21
-0.186977
31
0
39
0
210
0
220
0
230
1
0
LINE
5
AA
100
AcDbEntity
8
1
62
256
6
ByLayer
370
18
48
1
60
0
100
AcDbLine
10
10
20
-0.501227
30
0
11
10
21
-0.419623
31
0
39
0
210
0
220
0
230
1
0
LINE
5
AB
100
AcDbEntity
8
1
62
256
6
ByLayer
370
13
48
1
60
0
100
AcDbLine
10
8.756401
20
0.333045
30
0
11
10
21
-0.419623
31
0
39
0
210
0
220
0
230
1
0
LINE
5
AC
100
AcDbEntity
8
1
62
256
6
ByLayer
370
18
48
1
60
0
100
AcDbLine
10
8.892016
20
0.483613
30
0
11
10
21
-0.186977
31
0
39
0
210
0
220
0
230
1
0
LINE
5
AD
100
AcDbEntity
8
1
62
256
6
ByLayer
370
18
48
1
60
0
100
AcDbLine
10
10
20
-0.186977
30
0
11
10
21
0.338305
31
0
39
0
210
0
220
0
230
1
0
LINE
5
AE
100
AcDbEntity
8
1
62
256
6
ByLayer
370
13
48
1
60
0
100
AcDbLine
10
8.410104
20
1.300564
30
0
11
10
21
0.338305
31
0
39
0
210
0
220
0
230
1
0
LINE
5
AF
100
AcDbEntity
8
1
62
256
6
ByLayer
370
13
48
1
60
0
100
AcDbLine
10
9.608082
20
1.501735
30
0
11
9.608082
21
1.800048
31
0
39
0
210
0
220
0
230
1
0
LINE
5
B0
100
AcDbEntity
8
1
62
256
6
ByLayer
370
13
48
1
60
0
100
AcDbLine
10
9.608082
20
-1.92
30
0
11
9.608082
21
-1.877369
31
0
39
0
210
0
220
0
230
1
0
LINE
5
B1
100
AcDbEntity
8
1
62
256
6
ByLayer
370
13
48
1
60
0
100
AcDbLine
10
8.798745
20
0.225813
30
0
11
10
21
-0.501227
31
0
39
0
210
0
220
0
230
1
0
LINE
5
B2
100
AcDbEntity
8
1
62
256
6
ByLayer
370
18
48
1
60
0
100
AcDbLine
10
10
20
1.833963
30
0
11
10
21
1.834004
31
0
39
0
210
0
220
0
230
1
0
LINE
5
B3
100
AcDbEntity
8
1
62
256
6
ByLayer
370
18
48
1
60
0
100
AcDbLine
10
10
20
1.833963
30
0
11
10
21
1.697838
31
0
39
0
210
0
220
0
230
1
0
LINE
5
B4
100
AcDbEntity
8
1
62
256
6
ByLayer
370
18
48
1
60
0
100
AcDbLine
10
10
20
-0.501227
30
0
11
10
21
-0.626898
31
0
39
0
210
0
220
0
230
1
0
LINE
5
B5
100
AcDbEntity
8
1
62
256
6
ByLayer
370
18
48
1
60
0
100
AcDbLine
10
10
20
1.459332
30
0
11
10
21
1.375354
31
0
39
0
210
0
220
0
230
1
0
LINE
5
B6
100
AcDbEntity
8
1
62
256
6
ByLayer
370
13
48
1
60
0
100
AcDbLine
10
9.608082
20
-0.881463
30
0
11
9.608082
21
-0.377142
31
0
39
0
210
0
220
0
230
1
0
LINE
5
B7
100
AcDbEntity
8
1
62
256
6
ByLayer
370
18
48
1
60
0
100
AcDbLine
10
10
20
1.459332
30
0
11
10
21
1.459363
31
0
39
0
210
0
220
0
230
1
0
LINE
5
B8
100
AcDbEntity
8
1
62
256
6
ByLayer
370
13
48
1
60
0
100
AcDbLine
10
3.997679
20
-1.92
30
0
11
3.997679
21
0
31
0
39
0
210
0
220
0
230
1
0
LINE
5
B9
100
AcDbEntity
8
1
62
256
6
ByLayer
370
13
48
1
60
0
100
AcDbLine
10
3.997679
20
0
30
0
11
3.997679
21
1.92
31
0
39
0
210
0
220
0
230
1
0
LINE
5
BA
100
AcDbEntity
8
1
62
256
6
ByLayer
370
13
48
1
60
0
100
AcDbLine
10
3.497679
20
2.053975
30
0
11
3.497679
21
0
31
0
39
0
210
0
220
0
230
1
0
LINE
5
BB
100
AcDbEntity
8
1
62
256
6
ByLayer
370
13
48
1
60
0
100
AcDbLine
10
3.497679
20
0
30
0
11
3.497679
21
-2.053975
31
0
39
0
210
0
220
0
230
1
0
LINE
5
BC
100
AcDbEntity
8
1
62
256
6
ByLayer
370
18
48
1
60
0
100
AcDbLine
10
1.859115
20
3
30
0
11
1.859115
21
0
31
0
39
0
210
0
220
0
230
1
0
LINE
5
BD
100
AcDbEntity
8
1
62
256
6
ByLayer
370
18
48
1
60
0
100
AcDbLine
10
1.859115
20
0
30
0
11
1.859115
21
-3
31
0
39
0
210
0
220
0
230
1
0
LINE
5
BE
100
AcDbEntity
8
SK1
62
256
6
ByLayer
370
18
48
1
60
0
100
AcDbLine
10
-36
20
-2.6
30
0
11
-36
21
2.6
31
0
39
0
210
0
220
0
230
1
0
LINE
5
C0
100
AcDbEntity
8
SK1
62
256
6
ByLayer
370
18
48
1
60
0
100
AcDbLine
10
0
20
3
30
0
11
0
21
0
31
0
39
0
210
0
220
0
230
1
0
LINE
5
C1
100
AcDbEntity
8
SK1
62
256
6
ByLayer
370
18
48
1
60
0
100
AcDbLine
10
0
20
0
30
0
11
0
21
-3
31
0
39
0
210
0
220
0
230
1
0
LINE
5
C2
100
AcDbEntity
8
SK1
62
256
6
ByLayer
370
18
48
1
60
0
100
AcDbLine
10
-35.6
20
3
30
0
11
-35.6
21
-3
31
0
39
0
210
0
220
0
230
1
0
LINE
5
C3
100
AcDbEntity
8
1
62
256
6
ByLayer
370
18
48
1
60
0
100
AcDbLine
10
1.859115
20
3
30
0
11
0
21
3
31
0
39
0
210
0
220
0
230
1
0
LINE
5
C4
100
AcDbEntity
8
1
62
256
6
ByLayer
370
18
48
1
60
0
100
AcDbLine
10
0
20
-3
30
0
11
1.859115
21
-3
31
0
39
0
210
0
220
0
230
1
0
LINE
5
C5
100
AcDbEntity
8
1
62
256
6
ByLayer
370
18
48
1
60
0
100
AcDbLine
10
17.91639
20
-1.493409
30
0
11
17.918682
21
-1.4879
31
0
39
0
210
0
220
0
230
1
0
LINE
5
C6
100
AcDbEntity
8
1
62
256
6
ByLayer
370
18
48
1
60
0
100
AcDbLine
10
8.825326
20
1.92
30
0
11
3.997679
21
1.92
31
0
39
0
210
0
220
0
230
1
0
LINE
5
C7
100
AcDbEntity
8
1
62
256
6
ByLayer
370
18
48
1
60
0
100
AcDbLine
10
3.997679
20
-1.92
30
0
11
9.608082
21
-1.92
31
0
39
0
210
0
220
0
230
1
0
LINE
5
C8
100
AcDbEntity
8
1
62
256
6
ByLayer
370
18
48
1
60
0
100
AcDbLine
10
3.497679
20
2.053975
30
0
11
1.859115
21
3
31
0
39
0
210
0
220
0
230
1
0
LINE
5
C9
100
AcDbEntity
8
1
62
256
6
ByLayer
370
18
48
1
60
0
100
AcDbLine
10
1.859115
20
-3
30
0
11
3.497679
21
-2.053975
31
0
39
0
210
0
220
0
230
1
0
LINE
5
CA
100
AcDbEntity
8
SK1
62
256
6
ByLayer
370
18
48
1
60
0
100
AcDbLine
10
-36
20
-2.6
30
0
11
-35.6
21
-3
31
0
39
0
210
0
220
0
230
1
0
LINE
5
CB
100
AcDbEntity
8
SK1
62
256
6
ByLayer
370
18
48
1
60
0
100
AcDbLine
10
-35.6
20
3
30
0
11
-36
21
2.6
31
0
39
0
210
0
220
0
230
1
0
LINE
5
CC
100
AcDbEntity
8
SK1
62
256
6
ByLayer
370
18
48
1
60
0
100
AcDbLine
10
0
20
3
30
0
11
-35.6
21
3
31
0
39
0
210
0
220
0
230
1
0
LINE
5
CD
100
AcDbEntity
8
SK1
62
256
6
ByLayer
370
18
48
1
60
0
100
AcDbLine
10
-35.6
20
-3
30
0
11
0
21
-3
31
0
39
0
210
0
220
0
230
1
0
LINE
5
CE
100
AcDbEntity
8
SK2
62
256
6
ByLayer
370
18
48
1
60
0
100
AcDbLine
10
-43.85
20
11.75
30
0
11
-43.85
21
-19.315466
31
0
39
0
210
0
220
0
230
1
0
LINE
5
D0
100
AcDbEntity
8
SK2
62
256
6
ByLayer
370
18
48
1
60
0
100
AcDbLine
10
-37.1875
20
3
30
0
11
-45.85
21
3
31
0
39
0
210
0
220
0
230
1
0
LINE
5
D1
100
AcDbEntity
8
SK2
62
256
6
ByLayer
370
18
48
1
60
0
100
AcDbLine
10
-37.1875
20
-3
30
0
11
-45.85
21
-3
31
0
39
0
210
0
220
0
230
1
0
LINE
5
D2
100
AcDbEntity
8
1
62
256
6
ByLayer
370
18
48
1
60
1
100
AcDbLine
10
-43.85
20
3
30
0
11
-44.310784
21
6.499998
31
0
39
0
210
0
220
0
230
1
0
LINE
5
D3
100
AcDbEntity
8
1
62
256
6
ByLayer
370
18
48
1
60
1
100
AcDbLine
10
-44.310784
20
6.499998
30
0
11
-43.389216
21
6.500002
31
0
39
0
210
0
220
0
230
1
0
LINE
5
D4
100
AcDbEntity
8
1
62
256
6
ByLayer
370
18
48
1
60
1
100
AcDbLine
10
-43.389216
20
6.500002
30
0
11
-43.85
21
3
31
0
39
0
210
0
220
0
230
1
0
LINE
5
D5
100
AcDbEntity
8
1
62
256
6
ByLayer
370
18
48
1
60
1
100
AcDbLine
10
-43.85
20
-3
30
0
11
-43.389216
21
-6.499998
31
0
39
0
210
0
220
0
230
1
0
LINE
5
D6
100
AcDbEntity
8
1
62
256
6
ByLayer
370
18
48
1
60
1
100
AcDbLine
10
-43.389216
20
-6.499998
30
0
11
-44.310784
21
-6.500002
31
0
39
0
210
0
220
0
230
1
0
LINE
5
D7
100
AcDbEntity
8
1
62
256
6
ByLayer
370
18
48
1
60
1
100
AcDbLine
10
-44.310784
20
-6.500002
30
0
11
-43.85
21
-3
31
0
39
0
210
0
220
0
230
1
0
LINE
5
D8
100
AcDbEntity
8
SK2
62
256
6
ByLayer
370
13
48
1
60
0
100
AcDbLine
10
8.25288
20
29.252931
30
0
11
8.25288
21
-10.67
31
0
39
0
210
0
220
0
230
1
0
LINE
5
D9
100
AcDbEntity
8
SK2
62
256
6
ByLayer
370
13
48
1
60
0
100
AcDbLine
10
8.020582
20
1.92
30
0
11
6.25288
21
1.92
31
0
39
0
210
0
220
0
230
1
0
LINE
5
DA
100
AcDbEntity
8
SK2
62
256
6
ByLayer
370
13
48
1
60
0
100
AcDbLine
10
8.020582
20
-1.92
30
0
11
6.25288
21
-1.92
31
0
39
0
210
0
220
0
230
1
0
LINE
5
DB
100
AcDbEntity
8
1
62
256
6
ByLayer
370
18
48
1
60
1
100
AcDbLine
10
8.25288
20
1.92
30
0
11
7.792097
21
5.419998
31
0
39
0
210
0
220
0
230
1
0
LINE
5
DC
100
AcDbEntity
8
1
62
256
6
ByLayer
370
18
48
1
60
1
100
AcDbLine
10
7.792097
20
5.419998
30
0
11
8.713664
21
5.420002
31
0
39
0
210
0
220
0
230
1
0
LINE
5
DD
100
AcDbEntity
8
1
62
256
6
ByLayer
370
18
48
1
60
1
100
AcDbLine
10
8.713664
20
5.420002
30
0
11
8.25288
21
1.92
31
0
39
0
210
0
220
0
230
1
0
LINE
5
DE
100
AcDbEntity
8
1
62
256
6
ByLayer
370
18
48
1
60
1
100
AcDbLine
10
8.25288
20
-1.92
30
0
11
8.713664
21
-5.419998
31
0
39
0
210
0
220
0
230
1
0
LINE
5
DF
100
AcDbEntity
8
1
62
256
6
ByLayer
370
18
48
1
60
1
100
AcDbLine
10
8.713664
20
-5.419998
30
0
11
7.792097
21
-5.420002
31
0
39
0
210
0
220
0
230
1
0
LINE
5
E0
100
AcDbEntity
8
1
62
256
6
ByLayer
370
18
48
1
60
1
100
AcDbLine
10
7.792097
20
-5.420002
30
0
11
8.25288
21
-1.92
31
0
39
0
210
0
220
0
230
1
0
LINE
5
E1
100
AcDbEntity
8
2
62
256
6
ByLayer
370
18
48
1
60
0
100
AcDbLine
10
30
20
18.684
30
0
11
30
21
-10.75
31
0
39
0
210
0
220
0
230
1
0
LINE
5
E3
100
AcDbEntity
8
2
62
256
6
ByLayer
370
18
48
1
60
0
100
AcDbLine
10
19.5875
20
2
30
0
11
32
21
2
31
0
39
0
210
0
220
0
230
1
0
LINE
5
E4
100
AcDbEntity
8
2
62
256
6
ByLayer
370
18
48
1
60
0
100
AcDbLine
10
19.5875
20
-2
30
0
11
32
21
-2
31
0
39
0
210
0
220
0
230
1
0
LINE
5
E5
100
AcDbEntity
8
1
62
256
6
ByLayer
370
18
48
1
60
1
100
AcDbLine
10
30
20
2
30
0
11
29.539216
21
5.499998
31
0
39
0
210
0
220
0
230
1
0
LINE
5
E6
100
AcDbEntity
8
1
62
256
6
ByLayer
370
18
48
1
60
1
100
AcDbLine
10
29.539216
20
5.499998
30
0
11
30.460784
21
5.500002
31
0
39
0
210
0
220
0
230
1
0
LINE
5
E7
100
AcDbEntity
8
1
62
256
6
ByLayer
370
18
48
1
60
1
100
AcDbLine
10
30.460784
20
5.500002
30
0
11
30
21
2
31
0
39
0
210
0
220
0
230
1
0
LINE
5
E8
100
AcDbEntity
8
1
62
256
6
ByLayer
370
18
48
1
60
1
100
AcDbLine
10
30
20
-2
30
0
11
30.460784
21
-5.499998
31
0
39
0
210
0
220
0
230
1
0
LINE
5
E9
100
AcDbEntity
8
1
62
256
6
ByLayer
370
18
48
1
60
1
100
AcDbLine
10
30.460784
20
-5.499998
30
0
11
29.539216
21
-5.500002
31
0
39
0
210
0
220
0
230
1
0
LINE
5
EA
100
AcDbEntity
8
1
62
256
6
ByLayer
370
18
48
1
60
1
100
AcDbLine
10
29.539216
20
-5.500002
30
0
11
30
21
-2
31
0
39
0
210
0
220
0
230
1
0
LINE
5
EB
100
AcDbEntity
8
SK2
62
256
6
ByLayer
370
18
48
1
60
0
100
AcDbLine
10
18
20
-49.1
30
0
11
-36
21
-49.1
31
0
39
0
210
0
220
0
230
1
0
LINE
5
EC
100
AcDbEntity
8
SK2
62
256
6
ByLayer
370
18
48
1
60
0
100
AcDbLine
10
-36
20
-4.1875
30
0
11
-36
21
-51.1
31
0
39
0
210
0
220
0
230
1
0
LINE
5
ED
100
AcDbEntity
8
SK2
62
256
6
ByLayer
370
18
48
1
60
0
100
AcDbLine
10
18
20
-3.5875
30
0
11
18
21
-51.1
31
0
39
0
210
0
220
0
230
1
0
LINE
5
EE
100
AcDbEntity
8
1
62
256
6
ByLayer
370
18
48
1
60
1
100
AcDbLine
10
-36
20
-49.1
30
0
11
-32.500002
21
-48.639216
31
0
39
0
210
0
220
0
230
1
0
LINE
5
EF
100
AcDbEntity
8
1
62
256
6
ByLayer
370
18
48
1
60
1
100
AcDbLine
10
-32.500002
20
-48.639216
30
0
11
-32.499998
21
-49.560784
31
0
39
0
210
0
220
0
230
1
0
LINE
5
F0
100
AcDbEntity
8
1
62
256
6
ByLayer
370
18
48
1
60
1
100
AcDbLine
10
-32.499998
20
-49.560784
30
0
11
-36
21
-49.1
31
0
39
0
210
0
220
0
230
1
0
LINE
5
F1
100
AcDbEntity
8
1
62
256
6
ByLayer
370
18
48
1
60
1
100
AcDbLine
10
18
20
-49.1
30
0
11
14.500002
21
-49.560784
31
0
39
0
210
0
220
0
230
1
0
LINE
5
F2
100
AcDbEntity
8
1
62
256
6
ByLayer
370
18
48
1
60
1
100
AcDbLine
10
14.500002
20
-49.560784
30
0
11
14.499998
21
-48.639216
31
0
39
0
210
0
220
0
230
1
0
LINE
5
F3
100
AcDbEntity
8
1
62
256
6
ByLayer
370
18
48
1
60
1
100
AcDbLine
10
14.499998
20
-48.639216
30
0
11
18
21
-49.1
31
0
39
0
210
0
220
0
230
1
0
LINE
5
1A9
100
AcDbEntity
8
1
62
256
6
ByLayer
370
18
48
1
60
1
100
AcDbLine
10
-43.85
20
3
30
0
11
-44.310784
21
6.499998
31
0
39
0
210
0
220
0
230
1
0
LINE
5
1AA
100
AcDbEntity
8
1
62
256
6
ByLayer
370
18
48
1
60
1
100
AcDbLine
10
-44.310784
20
6.499998
30
0
11
-43.389216
21
6.500002
31
0
39
0
210
0
220
0
230
1
0
LINE
5
1AB
100
AcDbEntity
8
1
62
256
6
ByLayer
370
18
48
1
60
1
100
AcDbLine
10
-43.389216
20
6.500002
30
0
11
-43.85
21
3
31
0
39
0
210
0
220
0
230
1
0
LINE
5
1AD
100
AcDbEntity
8
1
62
256
6
ByLayer
370
18
48
1
60
1
100
AcDbLine
10
-43.85
20
-3
30
0
11
-43.389216
21
-6.499998
31
0
39
0
210
0
220
0
230
1
0
LINE
5
1AE
100
AcDbEntity
8
1
62
256
6
ByLayer
370
18
48
1
60
1
100
AcDbLine
10
-43.389216
20
-6.499998
30
0
11
-44.310784
21
-6.500002
31
0
39
0
210
0
220
0
230
1
0
LINE
5
1AF
100
AcDbEntity
8
1
62
256
6
ByLayer
370
18
48
1
60
1
100
AcDbLine
10
-44.310784
20
-6.500002
30
0
11
-43.85
21
-3
31
0
39
0
210
0
220
0
230
1
0
LINE
5
1B3
100
AcDbEntity
8
1
62
256
6
ByLayer
370
18
48
1
60
1
100
AcDbLine
10
8.25288
20
1.92
30
0
11
7.792097
21
5.419998
31
0
39
0
210
0
220
0
230
1
0
LINE
5
1B4
100
AcDbEntity
8
1
62
256
6
ByLayer
370
18
48
1
60
1
100
AcDbLine
10
7.792097
20
5.419998
30
0
11
8.713664
21
5.420002
31
0
39
0
210
0
220
0
230
1
0
LINE
5
1B5
100
AcDbEntity
8
1
62
256
6
ByLayer
370
18
48
1
60
1
100
AcDbLine
10
8.713664
20
5.420002
30
0
11
8.25288
21
1.92
31
0
39
0
210
0
220
0
230
1
0
LINE
5
1B7
100
AcDbEntity
8
1
62
256
6
ByLayer
370
18
48
1
60
1
100
AcDbLine
10
8.25288
20
-1.92
30
0
11
8.713664
21
-5.419998
31
0
39
0
210
0
220
0
230
1
0
LINE
5
1B8
100
AcDbEntity
8
1
62
256
6
ByLayer
370
18
48
1
60
1
100
AcDbLine
10
8.713664
20
-5.419998
30
0
11
7.792097
21
-5.420002
31
0
39
0
210
0
220
0
230
1
0
LINE
5
1B9
100
AcDbEntity
8
1
62
256
6
ByLayer
370
18
48
1
60
1
100
AcDbLine
10
7.792097
20
-5.420002
30
0
11
8.25288
21
-1.92
31
0
39
0
210
0
220
0
230
1
0
LINE
5
1BD
100
AcDbEntity
8
1
62
256
6
ByLayer
370
18
48
1
60
1
100
AcDbLine
10
30
20
2
30
0
11
29.539216
21
5.499998
31
0
39
0
210
0
220
0
230
1
0
LINE
5
1BE
100
AcDbEntity
8
1
62
256
6
ByLayer
370
18
48
1
60
1
100
AcDbLine
10
29.539216
20
5.499998
30
0
11
30.460784
21
5.500002
31
0
39
0
210
0
220
0
230
1
0
LINE
5
1BF
100
AcDbEntity
8
1
62
256
6
ByLayer
370
18
48
1
60
1
100
AcDbLine
10
30.460784
20
5.500002
30
0
11
30
21
2
31
0
39
0
210
0
220
0
230
1
0
LINE
5
1C1
100
AcDbEntity
8
1
62
256
6
ByLayer
370
18
48
1
60
1
100
AcDbLine
10
30
20
-2
30
0
11
30.460784
21
-5.499998
31
0
39
0
210
0
220
0
230
1
0
LINE
5
1C2
100
AcDbEntity
8
1
62
256
6
ByLayer
370
18
48
1
60
1
100
AcDbLine
10
30.460784
20
-5.499998
30
0
11
29.539216
21
-5.500002
31
0
39
0
210
0
220
0
230
1
0
LINE
5
1C3
100
AcDbEntity
8
1
62
256
6
ByLayer
370
18
48
1
60
1
100
AcDbLine
10
29.539216
20
-5.500002
30
0
11
30
21
-2
31
0
39
0
210
0
220
0
230
1
0
LINE
5
1C6
100
AcDbEntity
8
1
62
256
6
ByLayer
370
18
48
1
60
1
100
AcDbLine
10
-36
20
-49.1
30
0
11
-32.500002
21
-48.639216
31
0
39
0
210
0
220
0
230
1
0
LINE
5
1C7
100
AcDbEntity
8
1
62
256
6
ByLayer
370
18
48
1
60
1
100
AcDbLine
10
-32.500002
20
-48.639216
30
0
11
-32.499998
21
-49.560784
31
0
39
0
210
0
220
0
230
1
0
LINE
5
1C8
100
AcDbEntity
8
1
62
256
6
ByLayer
370
18
48
1
60
1
100
AcDbLine
10
-32.499998
20
-49.560784
30
0
11
-36
21
-49.1
31
0
39
0
210
0
220
0
230
1
0
LINE
5
1CA
100
AcDbEntity
8
1
62
256
6
ByLayer
370
18
48
1
60
1
100
AcDbLine
10
18
20
-49.1
30
0
11
14.500002
21
-49.560784
31
0
39
0
210
0
220
0
230
1
0
LINE
5
1CB
100
AcDbEntity
8
1
62
256
6
ByLayer
370
18
48
1
60
1
100
AcDbLine
10
14.500002
20
-49.560784
30
0
11
14.499998
21
-48.639216
31
0
39
0
210
0
220
0
230
1
0
LINE
5
1CC
100
AcDbEntity
8
1
62
256
6
ByLayer
370
18
48
1
60
1
100
AcDbLine
10
14.499998
20
-48.639216
30
0
11
18
21
-49.1
31
0
39
0
210
0
220
0
230
1
0
MTEXT
5
1A5
100
AcDbEntity
8
SK2
62
256
6
ByLayer
370
18
48
1
60
0
100
AcDbMText
10
-45.414634
20
-17.380622
30
0
210
0
220
0
230
1
1
%%c
40
3.5
41
0
44
1.084337
50
90
71
7
72
5
7
iso_b_vert
0
MTEXT
5
1A8
100
AcDbEntity
8
SK2
62
256
6
ByLayer
370
18
48
1
60
0
100
AcDbMText
10
-45.414634
20
-10.407966
30
0
210
0
220
0
230
1
1
\W0.5404;6
40
3.5
41
0
44
1.084337
50
90
71
7
72
5
7
iso_b_vert
0
MTEXT
5
1B1
100
AcDbEntity
8
SK2
62
256
6
ByLayer
370
18
48
1
60
0
100
AcDbMText
10
6.688247
20
13.854844
30
0
210
0
220
0
230
1
1
%%c
40
3.5
41
0
44
1.084337
50
90
71
7
72
5
7
iso_b_vert
0
MTEXT
5
1B2
100
AcDbEntity
8
SK2
62
256
6
ByLayer
370
18
48
1
60
0
100
AcDbMText
10
6.688247
20
20.8275
30
0
210
0
220
0
230
1
1
\W0.7528;3.84
40
3.5
41
0
44
1.084337
50
90
71
7
72
5
7
iso_b_vert
0
MTEXT
5
1BB
100
AcDbEntity
8
2
62
256
6
ByLayer
370
18
48
1
60
0
100
AcDbMText
10
28.435366
20
9.934844
30
0
210
0
220
0
230
1
1
%%c
40
3.5
41
0
44
1.084337
50
90
71
7
72
5
7
iso_b_vert
0
MTEXT
5
1BC
100
AcDbEntity
8
2
62
256
6
ByLayer
370
18
48
1
60
0
100
AcDbMText
10
28.435366
20
16.9075
30
0
210
0
220
0
230
1
1
\W0.6380;4
40
3.5
41
0
44
1.084337
50
90
71
7
72
5
7
iso_b_vert
0
MTEXT
5
1C5
100
AcDbEntity
8
SK2
62
256
6
ByLayer
370
18
48
1
60
0
100
AcDbMText
10
-11.089233
20
-48.067366
30
0
210
0
220
0
230
1
1
\W0.7167;54
40
3.5
41
0
44
1.084337
50
0
71
7
72
5
7
iso_b_vert
0
MTEXT
5
1CE
100
AcDbEntity
8
SK6
62
256
6
ByLayer
370
18
48
1
60
0
100
AcDbMText
10
-34.543358
20
-62.114886
30
0
210
0
220
0
230
1
1
\W0.7193;1K335-0400-050-XC   1730
40
3
41
0
44
1.084337
50
0
71
7
72
5
7
iso_b_vert
0
HATCH
5
1AC
100
AcDbEntity
8
SK2
62
256
6
ByLayer
370
13
48
1
60
0
100
AcDbHatch
10
0
20
0
30
0
210
0
220
0
230
1
2
ANSI31
70
0
71
0
91
1
92
5
93
3
72
1
10
-43.85
20
3
11
-44.3107837415528
21
6.49999830744682
72
1
10
-44.3107837415528
20
6.49999830744682
11
-43.3892162584472
21
6.50000169255318
72
1
10
-43.3892162584472
20
6.50000169255318
11
-43.85
21
3
97
0
75
0
76
1
52
0
41
0.0062
77
0
78
1
53
45
43
0
44
0
45
-0.0139193969876572
46
0.0139193969876572
79
0
47
0
98
1
10
0
20
0
0
HATCH
5
1B0
100
AcDbEntity
8
SK2
62
256
6
ByLayer
370
13
48
1
60
0
100
AcDbHatch
10
0
20
0
30
0
210
0
220
0
230
1
2
ANSI31
70
0
71
0
91
1
92
5
93
3
72
1
10
-43.85
20
-3.00000000000003
11
-43.3892162584472
21
-6.49999830744684
72
1
10
-43.3892162584472
20
-6.49999830744684
11
-44.3107837415528
21
-6.50000169255321
72
1
10
-44.3107837415528
20
-6.50000169255321
11
-43.85
21
-3.00000000000003
97
0
75
0
76
1
52
0
41
0.0062
77
0
78
1
53
45
43
0
44
0
45
-0.0139193969876572
46
0.0139193969876572
79
0
47
0
98
1
10
0
20
0
0
HATCH
5
1B6
100
AcDbEntity
8
SK2
62
256
6
ByLayer
370
13
48
1
60
0
100
AcDbHatch
10
0
20
0
30
0
210
0
220
0
230
1
2
ANSI31
70
0
71
0
91
1
92
5
93
3
72
1
10
8.25288028165775
20
1.91999999999996
11
7.79209654010498
21
5.41999830744678
72
1
10
7.79209654010498
20
5.41999830744678
11
8.71366402321053
21
5.42000169255314
72
1
10
8.71366402321053
20
5.42000169255314
11
8.25288028165775
21
1.91999999999996
97
0
75
0
76
1
52
0
41
0.0062
77
0
78
1
53
45
43
0
44
0
45
-0.0139193969876572
46
0.0139193969876572
79
0
47
0
98
1
10
0
20
0
0
HATCH
5
1BA
100
AcDbEntity
8
SK2
62
256
6
ByLayer
370
13
48
1
60
0
100
AcDbHatch
10
0
20
0
30
0
210
0
220
0
230
1
2
ANSI31
70
0
71
0
91
1
92
5
93
3
72
1
10
8.25288028165775
20
-1.92000000000004
11
8.71366402321053
21
-5.41999830744686
72
1
10
8.71366402321053
20
-5.41999830744686
11
7.79209654010498
21
-5.42000169255323
72
1
10
7.79209654010498
20
-5.42000169255323
11
8.25288028165775
21
-1.92000000000004
97
0
75
0
76
1
52
0
41
0.0062
77
0
78
1
53
45
43
0
44
0
45
-0.0139193969876572
46
0.0139193969876572
79
0
47
0
98
1
10
0
20
0
0
HATCH
5
1C0
100
AcDbEntity
8
2
62
256
6
ByLayer
370
13
48
1
60
0
100
AcDbHatch
10
0
20
0
30
0
210
0
220
0
230
1
2
ANSI31
70
0
71
0
91
1
92
5
93
3
72
1
10
30
20
1.99999999999994
11
29.5392162584472
21
5.49999830744676
72
1
10
29.5392162584472
20
5.49999830744676
11
30.4607837415528
21
5.50000169255313
72
1
10
30.4607837415528
20
5.50000169255313
11
30
21
1.99999999999994
97
0
75
0
76
1
52
0
41
0.0062
77
0
78
1
53
45
43
0
44
0
45
-0.0139193969876572
46
0.0139193969876572
79
0
47
0
98
1
10
0
20
0
0
HATCH
5
1C4
100
AcDbEntity
8
2
62
256
6
ByLayer
370
13
48
1
60
0
100
AcDbHatch
10
0
20
0
30
0
210
0
220
0
230
1
2
ANSI31
70
0
71
0
91
1
92
5
93
3
72
1
10
30
20
-2.00000000000008
11
30.4607837415528
21
-5.4999983074469
72
1
10
30.4607837415528
20
-5.4999983074469
11
29.5392162584472
21
-5.50000169255327
72
1
10
29.5392162584472
20
-5.50000169255327
11
30
21
-2.00000000000008
97
0
75
0
76
1
52
0
41
0.0062
77
0
78
1
53
45
43
0
44
0
45
-0.0139193969876572
46
0.0139193969876572
79
0
47
0
98
1
10
0
20
0
0
HATCH
5
1C9
100
AcDbEntity
8
SK2
62
256
6
ByLayer
370
13
48
1
60
0
100
AcDbHatch
10
0
20
0
30
0
210
0
220
0
230
1
2
ANSI31
70
0
71
0
91
1
92
5
93
3
72
1
10
-36
20
-49.1000000000001
11
-32.5000016925532
21
-48.6392162584473
72
1
10
-32.5000016925532
20
-48.6392162584473
11
-32.4999983074468
21
-49.5607837415528
72
1
10
-32.4999983074468
20
-49.5607837415528
11
-36
21
-49.1000000000001
97
0
75
0
76
1
52
0
41
0.0062
77
0
78
1
53
45
43
0
44
0
45
-0.0139193969876572
46
0.0139193969876572
79
0
47
0
98
1
10
0
20
0
0
HATCH
5
1CD
100
AcDbEntity
8
SK2
62
256
6
ByLayer
370
13
48
1
60
0
100
AcDbHatch
10
0
20
0
30
0
210
0
220
0
230
1
2
ANSI31
70
0
71
0
91
1
92
5
93
3
72
1
10
18
20
-49.1000000000001
11
14.5000016925532
21
-49.5607837415528
72
1
10
14.5000016925532
20
-49.5607837415528
11
14.4999983074468
21
-48.6392162584473
72
1
10
14.4999983074468
20
-48.6392162584473
11
18
21
-49.1000000000001
97
0
75
0
76
1
52
0
41
0.0062
77
0
78
1
53
45
43
0
44
0
45
-0.0139193969876572
46
0.0139193969876572
79
0
47
0
98
1
10
0
20
0
0
DIMENSION
5
1D1
100
AcDbEntity
8
2
62
256
6
ByLayer
370
18
48
1
60
0
100
AcDbDimension
2
_U0
10
10
20
-17.1
30
0
11
14
21
-17.1
31
0
70
32
71
1
72
1
41
1
210
0
220
0
230
1
3
Standard
100
AcDbAlignedDimension
13
18
23
-2
33
0
14
10
24
-2
34
0
50
0
100
AcDbRotatedDimension
1001
ACAD
1000
DSTYLE
1002
{
1070
   371
1070
    13
1070
   372
1070
    13
1070
   170
1070
     0
1070
   144
1040
1.0
1070
   277
1070
     2
1070
   284
1070
     8
1070
   278
1070
    46
1070
   146
1040
1.0
1070
   345
1005
16
1070
   347
1005
16
1070
   346
1005
16
1070
   344
1005
0
1070
   343
1005
0
1070
   172
1070
     1
1070
    76
1070
     0
1070
    75
1070
     0
1070
   282
1070
     0
1070
   281
1070
     0
1070
    71
1070
     0
1070
    74
1070
     0
1070
   279
1070
     0
1070
   173
1070
     1
1070
   340
1005
1A6
1070
   271
1070
     2
1070
   272
1070
     2
1070
    77
1070
     1
1070
    73
1070
     1
1070
   171
1070
     3
1070
   274
1070
     4
1070
   177
1070
     2
1070
   176
1070
     2
1070
   178
1070
     2
1070
    78
1070
     8
1070
    48
1040
-0.1
1070
    41
1040
3.5
1070
   147
1040
1.75
1070
    42
1040
1.5875
1070
    44
1040
2.0
1070
   140
1040
3.5
1002
}
1001
ACAD_DSTYLE_DIM_LINETYPE
1070
   380
1005
16
1001
ACAD_DSTYLE_DIM_EXT1_LINETYPE
1070
   381
1005
16
1001
ACAD_DSTYLE_DIM_EXT2_LINETYPE
1070
   382
1005
16
0
DIMENSION
5
1EB
100
AcDbEntity
8
SK2
62
256
6
ByLayer
370
18
48
1
60
0
100
AcDbDimension
2
_U1
10
3.997679
20
-32.1
30
0
11
10.998839
21
-32.1
31
0
70
32
71
1
72
1
41
1
210
0
220
0
230
1
3
Standard
100
AcDbAlignedDimension
13
18
23
-2
33
0
14
3.997679
24
-1.92
34
0
50
0
100
AcDbRotatedDimension
1001
ACAD
1000
DSTYLE
1002
{
1070
   371
1070
    13
1070
   372
1070
    13
1070
   170
1070
     0
1070
   144
1040
1.0
1070
   277
1070
     2
1070
   284
1070
     8
1070
   278
1070
    46
1070
   146
1040
1.0
1070
   345
1005
16
1070
   347
1005
16
1070
   346
1005
16
1070
   344
1005
0
1070
   343
1005
0
1070
   172
1070
     1
1070
    76
1070
     0
1070
    75
1070
     0
1070
   282
1070
     0
1070
   281
1070
     0
1070
    71
1070
     0
1070
    74
1070
     0
1070
   279
1070
     0
1070
   173
1070
     1
1070
   340
1005
1A6
1070
   271
1070
     2
1070
   272
1070
     2
1070
    77
1070
     1
1070
    73
1070
     1
1070
   171
1070
     3
1070
   274
1070
     4
1070
   177
1070
     2
1070
   176
1070
     2
1070
   178
1070
     2
1070
    78
1070
     8
1070
    48
1040
-0.1
1070
    41
1040
3.5
1070
   147
1040
1.75
1070
    42
1040
1.5875
1070
    44
1040
2.0
1070
   140
1040
3.5
1002
}
1001
ACAD_DSTYLE_DIM_LINETYPE
1070
   380
1005
16
1001
ACAD_DSTYLE_DIM_EXT1_LINETYPE
1070
   381
1005
16
1001
ACAD_DSTYLE_DIM_EXT2_LINETYPE
1070
   382
1005
16
0
ENDSEC
0
SECTION
2
OBJECTS
0
DICTIONARY
5
274
330
0
100
AcDbDictionary
280
0
281
1
3
ACAD_GROUP
350
275
3
ACAD_MLINESTYLE
350
276
0
DICTIONARY
5
275
330
0
100
AcDbDictionary
280
0
281
1
0
DICTIONARY
5
276
330
0
100
AcDbDictionary
280
0
281
1
3
Standard
350
18
0
MLINESTYLE
5
18
330
276
100
AcDbMlineStyle
2
Standard
70
0
3

62
256
51
90
52
90
71
2
49
-0.5
62
256
6
ByLayer
49
0.5
62
256
6
ByLayer
0
RASTERVARIABLES
5
262
330

100
AcDbRasterVariables
90
0
70
1
71
1
72
1
0
ENDSEC
0
EOF
