0
SECTION
2
HEADER
9
$ACADVER
1
AC1015
9
$DWGCODEPAGE
3
ANSI_1252
9
$HANDSEED
5
277
9
$ANGBASE
50
0
9
$ANGDIR
70
0
9
$ATTMODE
70
1
9
$AUNITS
70
0
9
$AUPREC
70
0
9
$CECOLOR
62
256
9
$CELTSCALE
40
1
9
$CELTYPE
6
ByLayer
9
$CELWEIGHT
370
18
9
$CLAYER
8
0
9
$CMLJUST
70
0
9
$CMLSCALE
40
1
9
$CMLSTYLE
2
Standard
9
$DIMSTYLE
2
Standard
9
$TEXTSIZE
40
0.2
9
$TEXTSTYLE
7
Standard
9
$LUNITS
70
2
9
$LUPREC
70
4
9
$EXTNAMES
290
1
9
$INSUNITS
70
4
9
$LTSCALE
40
1
9
$LWDISPLAY
290
1
9
$PDMODE
70
0
9
$PDSIZE
40
0
9
$PLINEGEN
70
0
0
ENDSEC
0
SECTION
2
CLASSES
0
CLASS
1
RASTERVARIABLES
2
AcDbRasterVariables
3
ISM
90
0
280
0
281
0
0
ENDSEC
0
SECTION
2
TABLES
0
TABLE
2
VPORT
5
26d
100
AcDbSymbolTable
0
VPORT
5
1
100
AcDbSymbolTableRecord
100
AcDbViewportTableRecord
2
*Active
70
0
10
0
20
0
11
1
21
1
12
-1
22
1
13
0
23
0
14
0.5
24
0.5
15
10
25
10
16
0
26
0
36
1
17
0
27
0
37
0
0
ENDTAB
0
TABLE
2
LTYPE
5
26e
100
AcDbSymbolTable
0
LTYPE
5
14
100
AcDbSymbolTableRecord
100
AcDbLinetypeTableRecord
70
0
2
ByBlock
3

72
65
73
0
40
0
0
LTYPE
5
15
100
AcDbSymbolTableRecord
100
AcDbLinetypeTableRecord
70
0
2
ByLayer
3

72
65
73
0
40
0
0
LTYPE
5
16
100
AcDbSymbolTableRecord
100
AcDbLinetypeTableRecord
70
0
2
Continuous
3
Solid line
72
65
73
0
40
0
0
LTYPE
5
6E
100
AcDbSymbolTableRecord
100
AcDbLinetypeTableRecord
70
0
2
CENTER
3
____ _ ____ _ ____ _ ____
72
65
73
4
40
47.5
49
22
74
0
49
-8.5
74
0
49
8.5
74
0
49
-8.5
74
0
0
LTYPE
5
6F
100
AcDbSymbolTableRecord
100
AcDbLinetypeTableRecord
70
0
2
DASHED
3
__ __ __ __ __ __ __ __ __
72
65
73
2
40
25.72
49
12.86
74
0
49
-12.86
74
0
0
ENDTAB
0
TABLE
2
LAYER
5
26f
100
AcDbSymbolTable
0
LAYER
5
10
100
AcDbSymbolTableRecord
100
AcDbLayerTableRecord
2
0
70
0
62
7
6
Continuous
290
1
370
-3
390
0
0
LAYER
5
71
100
AcDbSymbolTableRecord
100
AcDbLayerTableRecord
2
80
70
0
62
-6
6
Continuous
290
1
370
-3
390
0
0
LAYER
5
73
100
AcDbSymbolTableRecord
100
AcDbLayerTableRecord
2
81
70
0
62
-3
6
Continuous
290
1
370
-3
390
0
0
LAYER
5
75
100
AcDbSymbolTableRecord
100
AcDbLayerTableRecord
2
1
70
0
62
4
6
Continuous
290
1
370
-3
390
0
0
LAYER
5
7B
100
AcDbSymbolTableRecord
100
AcDbLayerTableRecord
2
4
70
0
62
-2
6
CENTER
290
1
370
-3
390
0
0
LAYER
5
DF
100
AcDbSymbolTableRecord
100
AcDbLayerTableRecord
2
2
70
0
62
7
6
Continuous
290
1
370
-3
390
0
0
LAYER
5
1CB
100
AcDbSymbolTableRecord
100
AcDbLayerTableRecord
2
Defpoints
70
0
62
7
6
Continuous
290
0
370
-3
390
0
0
LAYER
5
259
100
AcDbSymbolTableRecord
100
AcDbLayerTableRecord
2
SK4
70
0
62
2
6
CENTER
290
1
370
-3
390
0
0
LAYER
5
25a
100
AcDbSymbolTableRecord
100
AcDbLayerTableRecord
2
SK1
70
0
62
4
6
Continuous
290
1
370
-3
390
0
0
LAYER
5
25b
100
AcDbSymbolTableRecord
100
AcDbLayerTableRecord
2
SK2
70
0
62
7
6
Continuous
290
1
370
-3
390
0
0
LAYER
5
25c
100
AcDbSymbolTableRecord
100
AcDbLayerTableRecord
2
SK6
70
0
62
5
6
Continuous
290
1
370
-3
390
0
0
ENDTAB
0
TABLE
2
STYLE
5
270
100
AcDbSymbolTable
0
STYLE
5
11
100
AcDbSymbolTableRecord
100
AcDbTextStyleTableRecord
2
Standard
3
txt
70
0
71
0
40
0
41
1
42
0
50
0
0
STYLE
5
19D
100
AcDbSymbolTableRecord
100
AcDbTextStyleTableRecord
2
iso_b_vert
3
simplex.shx
70
0
71
0
40
0
41
1
42
0
50
0
0
STYLE
5
19E
100
AcDbSymbolTableRecord
100
AcDbTextStyleTableRecord
2
DWGDirectTextStyle
3
simplex
70
0
71
0
40
0
41
1
42
0
50
0
0
ENDTAB
0
TABLE
2
DIMSTYLE
5
271
100
AcDbSymbolTable
100
AcDbDimStyleTable
0
DIMSTYLE
105
27
100
AcDbSymbolTableRecord
100
AcDbDimStyleTableRecord
2
Standard
70
0
3
<>
41
0.18
42
0.0625
44
0.18
140
0.18
147
0.09
73
0
74
0
77
1
271
2
275
0
278
52
280
0
340
11
0
ENDTAB
0
TABLE
2
VIEW
5
272
100
AcDbSymbolTable
0
ENDTAB
0
TABLE
2
UCS
5
273
100
AcDbSymbolTable
0
ENDTAB
0
TABLE
2
APPID
5
274
100
AcDbSymbolTable
0
APPID
5
12
100
AcDbSymbolTableRecord
100
AcDbRegAppTableRecord
2
ACAD
70
0
0
APPID
5
1C7
100
AcDbSymbolTableRecord
100
AcDbRegAppTableRecord
2
ACAD_DSTYLE_DIMBREAK
70
0
0
APPID
5
218
100
AcDbSymbolTableRecord
100
AcDbRegAppTableRecord
2
ACAD_DSTYLE_DIM_LINETYPE
70
0
0
APPID
5
219
100
AcDbSymbolTableRecord
100
AcDbRegAppTableRecord
2
ACAD_DSTYLE_DIM_EXT1_LINETYPE
70
0
0
APPID
5
21A
100
AcDbSymbolTableRecord
100
AcDbRegAppTableRecord
2
ACAD_DSTYLE_DIM_EXT2_LINETYPE
70
0
0
APPID
5
255
100
AcDbSymbolTableRecord
100
AcDbRegAppTableRecord
2
ACAD_MLEADERVER
70
0
0
ENDTAB
0
TABLE
2
BLOCK_RECORD
5
275
100
AcDbSymbolTable
0
BLOCK_RECORD
5
1F
100
AcDbSymbolTableRecord
100
AcDbBlockTableRecord
2
*Model_Space
340
0
70
0
0
BLOCK_RECORD
5
1B
100
AcDbSymbolTableRecord
100
AcDbBlockTableRecord
2
*Paper_Space
340
0
70
0
0
BLOCK_RECORD
5
23
100
AcDbSymbolTableRecord
100
AcDbBlockTableRecord
2
*Paper_Space0
340
0
70
0
0
BLOCK_RECORD
5
1CC
100
AcDbSymbolTableRecord
100
AcDbBlockTableRecord
2
*D1
340
0
70
0
0
BLOCK_RECORD
5
1D9
100
AcDbSymbolTableRecord
100
AcDbBlockTableRecord
2
_U0
340
0
70
0
0
BLOCK_RECORD
5
1E5
100
AcDbSymbolTableRecord
100
AcDbBlockTableRecord
2
*D3
340
0
70
0
0
BLOCK_RECORD
5
1F1
100
AcDbSymbolTableRecord
100
AcDbBlockTableRecord
2
_U1
340
0
70
0
0
ENDTAB
0
ENDSEC
0
SECTION
2
BLOCKS
0
BLOCK
5
20
100
AcDbEntity
8
0
100
AcDbBlockBegin
2
*Model_Space
70
0
10
0
20
0
30
0
3
*Model_Space
0
ENDBLK
5
21
100
AcDbEntity
8
0
100
AcDbBlockEnd
0
BLOCK
5
1C
100
AcDbEntity
8
0
100
AcDbBlockBegin
2
*Paper_Space
70
0
10
0
20
0
30
0
3
*Paper_Space
0
ENDBLK
5
1D
100
AcDbEntity
8
0
100
AcDbBlockEnd
0
BLOCK
5
24
100
AcDbEntity
8
0
100
AcDbBlockBegin
2
*Paper_Space0
70
0
10
0
20
0
30
0
3
*Paper_Space0
0
ENDBLK
5
25
100
AcDbEntity
8
0
100
AcDbBlockEnd
0
BLOCK
5
1CD
100
AcDbEntity
8
0
100
AcDbBlockBegin
2
*D1
70
1
10
0
20
0
30
0
3
*D1
0
LINE
5
1CF
100
AcDbEntity
8
0
62
256
6
ByLayer
370
-2
48
1
60
0
100
AcDbLine
10
21
20
-4.5875
30
0
11
21
21
-19.55523
31
0
39
0
210
0
220
0
230
1
0
LINE
5
1D0
100
AcDbEntity
8
0
62
256
6
ByLayer
370
-2
48
1
60
0
100
AcDbLine
10
9
20
-4.5875
30
0
11
9
21
-19.55523
31
0
39
0
210
0
220
0
230
1
0
LINE
5
1D1
100
AcDbEntity
8
0
62
256
6
ByLayer
370
-2
48
1
60
0
100
AcDbLine
10
24.5
20
-17.55523
30
0
11
28
21
-17.55523
31
0
39
0
210
0
220
0
230
1
0
LINE
5
1D2
100
AcDbEntity
8
0
62
256
6
ByLayer
370
-2
48
1
60
0
100
AcDbLine
10
5.5
20
-17.55523
30
0
11
2
21
-17.55523
31
0
39
0
210
0
220
0
230
1
0
SOLID
5
1D3
100
AcDbEntity
8
0
62
256
6
ByLayer
370
-1
48
1
60
0
100
AcDbTrace
10
24.5
20
-16.971896
30
0
11
24.5
21
-18.138563
31
0
12
21
22
-17.55523
32
0
13
21
23
-17.55523
33
0
39
0
210
0
220
0
230
1
0
SOLID
5
1D4
100
AcDbEntity
8
0
62
256
6
ByLayer
370
-1
48
1
60
0
100
AcDbTrace
10
5.5
20
-18.138563
30
0
11
5.5
21
-16.971896
31
0
12
9
22
-17.55523
32
0
13
9
23
-17.55523
33
0
39
0
210
0
220
0
230
1
0
MTEXT
5
1D5
100
AcDbEntity
8
0
62
256
6
ByLayer
370
18
48
1
60
0
100
AcDbMText
10
15
20
-10.55523
30
0
210
0
220
0
230
1
1
\A1;12
40
3.5
41
0
44
1
50
0
71
5
72
5
7
iso_b_vert
0
POINT
5
1D6
100
AcDbEntity
8
Defpoints
62
0
6
ByLayer
370
-1
48
1
60
0
100
AcDbPoint
10
21
20
-3
30
0
39
0
210
0
220
0
230
1
50
360
0
POINT
5
1D7
100
AcDbEntity
8
Defpoints
62
0
6
ByLayer
370
-1
48
1
60
0
100
AcDbPoint
10
9
20
-3
30
0
39
0
210
0
220
0
230
1
50
360
0
POINT
5
1D8
100
AcDbEntity
8
Defpoints
62
0
6
ByLayer
370
-1
48
1
60
0
100
AcDbPoint
10
9
20
-17.55523
30
0
39
0
210
0
220
0
230
1
50
360
0
ENDBLK
5
1CE
100
AcDbEntity
8
0
100
AcDbBlockEnd
0
BLOCK
5
1E0
100
AcDbEntity
8
0
100
AcDbBlockBegin
2
_U0
70
0
10
0
20
0
30
0
3
_U0
0
MTEXT
5
1DA
100
AcDbEntity
8
2
62
256
6
ByLayer
370
18
48
1
60
0
100
AcDbMText
10
13.532467
20
-16.522596
30
0
210
0
220
0
230
1
1
\W0.5321;12
40
3.5
41
0
44
1.084337
50
0
71
7
72
5
7
iso_b_vert
0
LINE
5
1DB
100
AcDbEntity
8
2
62
256
6
ByLayer
370
13
48
1
60
0
100
AcDbLine
10
21
20
-4.5875
30
0
11
21
21
-19.55523
31
0
39
0
210
0
220
0
230
1
0
LINE
5
1DC
100
AcDbEntity
8
2
62
256
6
ByLayer
370
13
48
1
60
0
100
AcDbLine
10
9
20
-4.5875
30
0
11
9
21
-19.55523
31
0
39
0
210
0
220
0
230
1
0
LINE
5
1DD
100
AcDbEntity
8
2
62
256
6
ByLayer
370
13
48
1
60
0
100
AcDbLine
10
21
20
-17.55523
30
0
11
9
21
-17.55523
31
0
39
0
210
0
220
0
230
1
0
SOLID
5
1DE
100
AcDbEntity
8
2
62
256
6
ByLayer
370
18
48
1
60
0
100
AcDbTrace
10
21
20
-17.55523
30
0
11
17.500002
21
-18.016014
31
0
12
17.499998
22
-17.094446
32
0
13
17.499998
23
-17.094446
33
0
39
0
210
0
220
0
230
1
0
SOLID
5
1DF
100
AcDbEntity
8
2
62
256
6
ByLayer
370
18
48
1
60
0
100
AcDbTrace
10
9
20
-17.55523
30
0
11
12.499998
21
-17.094446
31
0
12
12.500002
22
-18.016014
32
0
13
12.500002
23
-18.016014
33
0
39
0
210
0
220
0
230
1
0
ENDBLK
5
1E1
100
AcDbEntity
8
0
100
AcDbBlockEnd
0
BLOCK
5
1E6
100
AcDbEntity
8
0
100
AcDbBlockBegin
2
*D3
70
1
10
0
20
0
30
0
3
*D3
0
LINE
5
1E8
100
AcDbEntity
8
0
62
256
6
ByLayer
370
-2
48
1
60
0
100
AcDbLine
10
21
20
-4.5875
30
0
11
21
21
-34.55523
31
0
39
0
210
0
220
0
230
1
0
LINE
5
1E9
100
AcDbEntity
8
0
62
256
6
ByLayer
370
-2
48
1
60
0
100
AcDbLine
10
2.996857
20
-4.4675
30
0
11
2.996857
21
-34.55523
31
0
39
0
210
0
220
0
230
1
0
LINE
5
1EA
100
AcDbEntity
8
0
62
256
6
ByLayer
370
-2
48
1
60
0
100
AcDbLine
10
17.5
20
-32.55523
30
0
11
6.496857
21
-32.55523
31
0
39
0
210
0
220
0
230
1
0
SOLID
5
1EB
100
AcDbEntity
8
0
62
256
6
ByLayer
370
-1
48
1
60
0
100
AcDbTrace
10
17.5
20
-33.138563
30
0
11
17.5
21
-31.971896
31
0
12
21
22
-32.55523
32
0
13
21
23
-32.55523
33
0
39
0
210
0
220
0
230
1
0
SOLID
5
1EC
100
AcDbEntity
8
0
62
256
6
ByLayer
370
-1
48
1
60
0
100
AcDbTrace
10
6.496857
20
-31.971896
30
0
11
6.496857
21
-33.138563
31
0
12
2.996857
22
-32.55523
32
0
13
2.996857
23
-32.55523
33
0
39
0
210
0
220
0
230
1
0
MTEXT
5
1ED
100
AcDbEntity
8
0
62
256
6
ByLayer
370
18
48
1
60
0
100
AcDbMText
10
11.998429
20
-25.55523
30
0
210
0
220
0
230
1
1
\A1;18
40
3.5
41
0
44
1
50
0
71
5
72
5
7
iso_b_vert
0
POINT
5
1EE
100
AcDbEntity
8
Defpoints
62
0
6
ByLayer
370
-1
48
1
60
0
100
AcDbPoint
10
21
20
-3
30
0
39
0
210
0
220
0
230
1
50
360
0
POINT
5
1EF
100
AcDbEntity
8
Defpoints
62
0
6
ByLayer
370
-1
48
1
60
0
100
AcDbPoint
10
2.996857
20
-2.88
30
0
39
0
210
0
220
0
230
1
50
360
0
POINT
5
1F0
100
AcDbEntity
8
Defpoints
62
0
6
ByLayer
370
-1
48
1
60
0
100
AcDbPoint
10
2.996857
20
-32.55523
30
0
39
0
210
0
220
0
230
1
50
360
0
ENDBLK
5
1E7
100
AcDbEntity
8
0
100
AcDbBlockEnd
0
BLOCK
5
1F8
100
AcDbEntity
8
0
100
AcDbBlockBegin
2
_U1
70
0
10
0
20
0
30
0
3
_U1
0
MTEXT
5
1F2
100
AcDbEntity
8
SK2
62
256
6
ByLayer
370
18
48
1
60
0
100
AcDbMText
10
10.530896
20
-31.522596
30
0
210
0
220
0
230
1
1
\W0.5321;18
40
3.5
41
0
44
1.084337
50
0
71
7
72
5
7
iso_b_vert
0
LINE
5
1F3
100
AcDbEntity
8
SK2
62
256
6
ByLayer
370
13
48
1
60
0
100
AcDbLine
10
21
20
-4.5875
30
0
11
21
21
-34.55523
31
0
39
0
210
0
220
0
230
1
0
LINE
5
1F4
100
AcDbEntity
8
SK2
62
256
6
ByLayer
370
13
48
1
60
0
100
AcDbLine
10
2.996857
20
-4.4675
30
0
11
2.996857
21
-34.55523
31
0
39
0
210
0
220
0
230
1
0
LINE
5
1F5
100
AcDbEntity
8
SK2
62
256
6
ByLayer
370
13
48
1
60
0
100
AcDbLine
10
21
20
-32.55523
30
0
11
2.996857
21
-32.55523
31
0
39
0
210
0
220
0
230
1
0
SOLID
5
1F6
100
AcDbEntity
8
SK2
62
256
6
ByLayer
370
18
48
1
60
0
100
AcDbTrace
10
21
20
-32.55523
30
0
11
17.500002
21
-33.016014
31
0
12
17.499998
22
-32.094446
32
0
13
17.499998
23
-32.094446
33
0
39
0
210
0
220
0
230
1
0
SOLID
5
1F7
100
AcDbEntity
8
SK2
62
256
6
ByLayer
370
18
48
1
60
0
100
AcDbTrace
10
2.996857
20
-32.55523
30
0
11
6.496856
21
-32.094446
31
0
12
6.496859
22
-33.016014
32
0
13
6.496859
23
-33.016014
33
0
39
0
210
0
220
0
230
1
0
ENDBLK
5
1F9
100
AcDbEntity
8
0
100
AcDbBlockEnd
0
ENDSEC
0
SECTION
2
ENTITIES
0
ARC
5
F1
100
AcDbEntity
8
1
62
256
6
ByLayer
370
18
48
1
60
0
100
AcDbCircle
39
0
10
8.525026
20
-3.88
30
0
40
1
210
0
220
0
230
1
100
AcDbArc
50
72.255852
51
90
0
ARC
5
F2
100
AcDbEntity
8
1
62
256
6
ByLayer
370
18
48
1
60
0
100
AcDbCircle
39
0
10
2.996857
20
3.88
30
0
40
1
210
0
220
0
230
1
100
AcDbArc
50
241.642363
51
270
0
ARC
5
F3
100
AcDbEntity
8
1
62
256
6
ByLayer
370
18
48
1
60
0
100
AcDbCircle
39
0
10
2.996857
20
-3.88
30
0
40
1
210
0
220
0
230
1
100
AcDbArc
50
90
51
118.357637
0
ELLIPSE
5
F4
100
AcDbEntity
8
1
62
256
6
ByLayer
370
18
48
1
60
0
100
AcDbEllipse
10
20.963947
20
0.010564
30
0
11
0.0168954601183887
21
0.83220573834963
31
0
210
0
220
0
230
1
40
0.051679
41
1.44619920869737
42
1.64079778401531
0
ELLIPSE
5
F5
100
AcDbEntity
8
1
62
256
6
ByLayer
370
18
48
1
60
0
100
AcDbEllipse
10
20.907416
20
0.13575
30
0
11
0.412723040978523
21
-0.0744702111799646
31
0
210
0
220
0
230
1
40
0.425446
41
-1.68480202950517
42
-1.46410713135349
0
ELLIPSE
5
F6
100
AcDbEntity
8
1
62
256
6
ByLayer
370
18
48
1
60
0
100
AcDbEllipse
10
20.817336
20
-0.367368
30
0
11
0.412471849122507
21
0.0136495013637253
31
0
210
0
220
0
230
1
40
0.624852
41
1.34816133672599
42
2.22494154072771
0
ELLIPSE
5
F7
100
AcDbEntity
8
1
62
256
6
ByLayer
370
18
48
1
60
0
100
AcDbEllipse
10
20.907416
20
0.13575
30
0
11
0.412723041694476
21
-0.0744702114457014
31
0
210
0
220
0
230
1
40
0.425446
41
2.43931610351563
42
2.64932640729
0
ELLIPSE
5
F8
100
AcDbEntity
8
1
62
256
6
ByLayer
370
18
48
1
60
0
100
AcDbEllipse
10
11.859722
20
0
30
0
11
5.44483806631218
21
1.61770305899901
31
0
210
0
220
0
230
1
40
0.437614
41
-2.68804337573486
42
-2.35279622216183
0
ELLIPSE
5
F9
100
AcDbEntity
8
1
62
256
6
ByLayer
370
18
48
1
60
0
100
AcDbEllipse
10
11.978928
20
0
30
0
11
5.67296586141232
21
-2.12073880773665
31
0
210
0
220
0
230
1
40
0.343481
41
-2.43150582471894
42
-2.09144748373531
0
ELLIPSE
5
FA
100
AcDbEntity
8
1
62
256
6
ByLayer
370
18
48
1
60
0
100
AcDbEllipse
10
11.761702
20
0
30
0
11
5.26983073786212
21
-2.62813921431744
31
0
210
0
220
0
230
1
40
0.223504
41
2.33838016048862
42
2.67041728539358
0
POINT
5
70
100
AcDbEntity
8
80
62
256
6
ByLayer
370
18
48
1
60
0
100
AcDbPoint
10
0
20
0
30
0
39
0
210
0
220
0
230
1
50
360
0
POINT
5
72
100
AcDbEntity
8
81
62
256
6
ByLayer
370
18
48
1
60
0
100
AcDbPoint
10
21
20
0
30
0
39
0
210
0
220
0
230
1
50
360
0
POINT
5
74
100
AcDbEntity
8
1
62
256
6
ByLayer
370
18
48
1
60
1
100
AcDbPoint
10
21
20
-3
30
0
39
0
210
0
220
0
230
1
50
360
0
POINT
5
76
100
AcDbEntity
8
1
62
256
6
ByLayer
370
18
48
1
60
1
100
AcDbPoint
10
9
20
-3
30
0
39
0
210
0
220
0
230
1
50
360
0
POINT
5
77
100
AcDbEntity
8
1
62
256
6
ByLayer
370
18
48
1
60
1
100
AcDbPoint
10
21
20
-3
30
0
39
0
210
0
220
0
230
1
50
360
0
POINT
5
78
100
AcDbEntity
8
1
62
256
6
ByLayer
370
18
48
1
60
1
100
AcDbPoint
10
2.996857
20
-2.88
30
0
39
0
210
0
220
0
230
1
50
360
0
SPLINE
5
FB
100
AcDbEntity
8
1
62
256
6
ByLayer
370
18
48
1
60
0
100
AcDbSpline
70
4
71
3
72
12
73
8
40
0
40
0
40
0
40
0
40
0.498442054203586
40
0.498442054203586
40
0.996884108407172
40
0.996884108407172
40
1
40
1
40
1
40
1
41
1
10
20.9728487033791
20
0.377123041848392
30
0
41
1
10
20.9741364911135
20
0.384149192616576
30
0
41
1
10
20.9720118716167
20
0.390808611113186
30
0
41
1
10
20.9614862190865
20
0.403452920343852
30
0
41
1
10
20.9530771036304
20
0.409436942459479
30
0
41
1
10
20.9414877386201
20
0.415122239484305
30
0
41
1
10
20.9414156186359
20
0.41515754586905
30
0
41
1
10
20.9413433767122
20
0.415192839148943
30
0
0
SPLINE
5
FC
100
AcDbEntity
8
1
62
256
6
ByLayer
370
13
48
1
60
0
100
AcDbSpline
70
4
71
3
72
8
73
4
40
0
40
0
40
0
40
0
40
1
40
1
40
1
40
1
41
1
10
20.9728487033863
20
0.377123041864195
30
0
41
1
10
20.9561058704622
20
0.244449067205778
30
0
41
1
10
20.9393630375382
20
0.11177509254739
30
0
41
1
10
20.9226202046141
20
-0.0208988821110268
30
0
0
SPLINE
5
FD
100
AcDbEntity
8
1
62
256
6
ByLayer
370
18
48
1
60
0
100
AcDbSpline
70
4
71
3
72
10
73
6
40
0
40
0
40
0
40
0
40
0.5
40
0.5
40
1
40
1
40
1
40
1
41
1
10
8.76879460265187
20
2.60831540289601
30
0
41
1
10
8.8087449787252
20
2.62811924569502
30
0
41
1
10
8.84799460942276
20
2.64987715600822
30
0
41
1
10
8.92507231008486
20
2.6973570779241
30
0
41
1
10
8.96290069417952
20
2.72307821355753
30
0
41
1
10
8.99996830379601
20
2.75092081120093
30
0
0
SPLINE
5
FE
100
AcDbEntity
8
1
62
256
6
ByLayer
370
18
48
1
60
0
100
AcDbSpline
70
4
71
3
72
16
73
12
40
0
40
0
40
0
40
0
40
0.316881869987538
40
0.316881869987538
40
0.633763739975076
40
0.633763739975076
40
0.792204674968846
40
0.792204674968846
40
0.950645609962616
40
0.950645609962616
40
1
40
1
40
1
40
1
41
1
10
20.9728487033788
20
-1.65457091277929
30
0
41
1
10
20.9740775684737
20
-1.69465189849765
30
0
41
1
10
20.9722180042336
20
-1.73447599052096
30
0
41
1
10
20.9628469863918
20
-1.81365405379736
30
0
41
1
10
20.9553291994074
20
-1.85300749824646
30
0
41
1
10
20.9398837155777
20
-1.91169090635981
30
0
41
1
10
20.9340379605893
20
-1.93119404469786
30
0
41
1
10
20.9209358081155
20
-1.97008298497795
30
0
41
1
10
20.9136652167164
20
-1.98949008173912
30
0
41
1
10
20.9033344515834
20
-2.0145255773464
30
0
41
1
10
20.9008202262307
20
-2.02044742444832
30
0
41
1
10
20.8982456982395
20
-2.02634491454003
30
0
0
SPLINE
5
FF
100
AcDbEntity
8
1
62
256
6
ByLayer
370
13
48
1
60
0
100
AcDbSpline
70
4
71
3
72
8
73
4
40
0
40
0
40
0
40
0
40
1
40
1
40
1
40
1
41
1
10
20.972848703379
20
-1.65457091278591
30
0
41
1
10
20.956105870458
20
-1.69127950814533
30
0
41
1
10
20.939363037537
20
-1.72798810350471
30
0
41
1
10
20.922620204616
20
-1.7646966988641
30
0
0
SPLINE
5
100
100
AcDbEntity
8
1
62
256
6
ByLayer
370
18
48
1
60
0
100
AcDbSpline
70
4
71
3
72
22
73
18
40
0
40
0
40
0
40
0
40
0.0404526907706725
40
0.0811051909836419
40
0.121948505511555
40
0.162973576058102
40
0.204171236446549
40
0.245532241025564
40
0.2870473191004
40
0.328707240557738
40
0.370502874508606
40
0.41242516010142
40
0.535610292110953
40
0.662091881534242
40
0.791599468082831
40
0.923866968256906
40
1
40
1
40
1
40
1
41
1
10
20.9202389186018
20
-1.83689199622796
30
0
41
1
10
20.9196074944984
20
-1.8461904154754
30
0
41
1
10
20.9183415274755
20
-1.86483318198961
30
0
41
1
10
20.9152059072362
20
-1.89291595698313
30
0
41
1
10
20.91115527007
20
-1.92113462792696
30
0
41
1
10
20.9060965025884
20
-1.94946171648669
30
0
41
1
10
20.9000517682006
20
-1.97786199349469
30
0
41
1
10
20.893014276943
20
-2.00630171440261
30
0
41
1
10
20.8849871342458
20
-2.0347463294737
30
0
41
1
10
20.8759729481691
20
-2.06316099512918
30
0
41
1
10
20.8659761666877
20
-2.09151151146233
30
0
41
1
10
20.8479241901445
20
-2.13798833777
30
0
41
1
10
20.8182034915685
20
-2.20254846198955
30
0
41
1
10
20.7715057478564
20
-2.2839004261094
30
0
41
1
10
20.7156266648164
20
-2.36376196564828
30
0
41
1
10
20.6602165501909
20
-2.42953514403681
30
0
41
1
10
20.6229483698331
20
-2.46791779731981
30
0
41
1
10
20.608938606268
20
-2.4816243910264
30
0
0
SPLINE
5
101
100
AcDbEntity
8
1
62
256
6
ByLayer
370
18
48
1
60
0
100
AcDbSpline
70
4
71
3
72
10
73
6
40
0
40
0
40
0
40
0
40
0.5
40
0.5
40
1
40
1
40
1
40
1
41
1
10
20.1718157631927
20
2.93769277273321
30
0
41
1
10
20.2217142945506
20
2.94002197063912
30
0
41
1
10
20.2712378666876
20
2.9383663058058
30
0
41
1
10
20.3698166974367
20
2.92591620435522
30
0
41
1
10
20.4188703617134
20
2.91515396198409
30
0
41
1
10
20.4678310084737
20
2.89855507797302
30
0
0
SPLINE
5
102
100
AcDbEntity
8
1
62
256
6
ByLayer
370
18
48
1
60
0
100
AcDbSpline
70
4
71
3
72
14
73
10
40
0
40
0
40
0
40
0
40
0.0841291902315283
40
0.0841291902315283
40
0.214967877341312
40
0.214967877341312
40
0.476645251560872
40
0.476645251560872
40
1
40
1
40
1
40
1
41
1
10
18.8420308329476
20
2.58460467225604
30
0
41
1
10
18.8795459347145
20
2.59870613596721
30
0
41
1
10
18.9170789207
20
2.61248427391251
30
0
41
1
10
19.0130434217681
20
2.64685157029504
30
0
41
1
10
19.071391480748
20
2.66693239695857
30
0
41
1
10
19.2460682097175
20
2.72456082536553
30
0
41
1
10
19.3621362838518
20
2.75953308247941
30
0
41
1
10
19.7096966338042
20
2.85398984031718
30
0
41
1
10
19.9405534685388
20
2.90301418708719
30
0
41
1
10
20.1718157631926
20
2.93769277273265
30
0
0
SPLINE
5
103
100
AcDbEntity
8
1
62
256
6
ByLayer
370
18
48
1
60
0
100
AcDbSpline
70
4
71
3
72
27
73
23
40
0
40
0
40
0
40
0
40
0.125000000000001
40
0.125000000000001
40
0.250000000000001
40
0.250000000000001
40
0.312500000000001
40
0.312500000000001
40
0.375000000000002
40
0.375000000000002
40
0.500000000000008
40
0.625000000000014
40
0.625000000000014
40
0.687500000000011
40
0.687500000000011
40
0.750000000000009
40
0.750000000000009
40
0.875000000000005
40
0.875000000000005
40
0.937500000000002
40
0.937500000000002
40
1
40
1
40
1
40
1
41
1
10
20.9728487033792
20
1.96250748348317
30
0
41
1
10
20.9741064173317
20
2.00947541116977
30
0
41
1
10
20.972119123446
20
2.05592851242736
30
0
41
1
10
20.9621900425171
20
2.14789002357452
30
0
41
1
10
20.954240976482
20
2.19339727867441
30
0
41
1
10
20.9379123551922
20
2.26095929644049
30
0
41
1
10
20.9317325982712
20
2.28336306116023
30
0
41
1
10
20.9178775350161
20
2.32793331893333
30
0
41
1
10
20.9102132018132
20
2.35004539623773
30
0
41
1
10
20.8853083994082
20
2.41512388606296
30
0
41
1
10
20.8468498671172
20
2.49913300633784
30
0
41
1
10
20.7980842263397
20
2.57772141258036
30
0
41
1
10
20.7574788798567
20
2.63454267296919
30
0
41
1
10
20.7432307446926
20
2.65316783244492
30
0
41
1
10
20.7137655528692
20
2.68916826944493
30
0
41
1
10
20.6985085428949
20
2.70660560863345
30
0
41
1
10
20.6511747831813
20
2.75724027173564
30
0
41
1
10
20.6175433544736
20
2.78876888252802
30
0
41
1
10
20.5638824148428
20
2.83261227337184
30
0
41
1
10
20.5454578523602
20
2.84664972323245
30
0
41
1
10
20.5074906369255
20
2.8735245216626
30
0
41
1
10
20.4878956038345
20
2.88639332678451
30
0
41
1
10
20.4678310084742
20
2.89855507797685
30
0
0
SPLINE
5
104
100
AcDbEntity
8
1
62
256
6
ByLayer
370
18
48
1
60
0
100
AcDbSpline
70
4
71
3
72
8
73
4
40
0
40
0
40
0
40
0
40
1
40
1
40
1
40
1
41
1
10
20.4678310084858
20
2.89855507797858
30
0
41
1
10
20.4818287577262
20
2.85474178378388
30
0
41
1
10
20.496494007636
20
2.81115132314375
30
0
41
1
10
20.5119193671479
20
2.76781461182486
30
0
0
SPLINE
5
105
100
AcDbEntity
8
1
62
256
6
ByLayer
370
18
48
1
60
0
100
AcDbSpline
70
4
71
3
72
8
73
4
40
0
40
0
40
0
40
0
40
1
40
1
40
1
40
1
41
1
10
20.6343816395608
20
-2.20787900579285
30
0
41
1
10
20.6336991525621
20
-2.22563606167816
30
0
41
1
10
20.6328625459822
20
-2.24353669774348
30
0
41
1
10
20.6318823925364
20
-2.261571064284
30
0
0
SPLINE
5
106
100
AcDbEntity
8
1
62
256
6
ByLayer
370
18
48
1
60
0
100
AcDbSpline
70
4
71
3
72
8
73
4
40
0
40
0
40
0
40
0
40
1
40
1
40
1
40
1
41
1
10
20.6343816395607
20
-2.20787900579342
30
0
41
1
10
20.7296608007511
20
-2.08445988120758
30
0
41
1
10
20.8249333918024
20
-1.96077052757238
30
0
41
1
10
20.9202016285507
20
-1.83690208197657
30
0
0
SPLINE
5
107
100
AcDbEntity
8
1
62
256
6
ByLayer
370
18
48
1
60
0
100
AcDbSpline
70
4
71
3
72
10
73
6
40
0
40
0
40
0
40
0
40
0.5
40
0.5
40
1
40
1
40
1
40
1
41
1
10
20.9202569526939
20
-1.83683014911438
30
0
41
1
10
20.9213856427356
20
-1.82427054067315
30
0
41
1
10
20.922151726405
20
-1.81196217331214
30
0
41
1
10
20.9229431322629
20
-1.78785869408935
30
0
41
1
10
20.9229633762495
20
-1.77602651370802
30
0
41
1
10
20.9226202046132
20
-1.76469669886302
30
0
0
SPLINE
5
108
100
AcDbEntity
8
1
62
256
6
ByLayer
370
13
48
1
60
0
100
AcDbSpline
70
4
71
3
72
9
73
5
40
0
40
0
40
0
40
0
40
0.172384532168678
40
1
40
1
40
1
40
1
41
1
10
10.8124359177706
20
-2.55720188423265
30
0
41
1
10
10.7082906118471
20
-2.57939372785199
30
0
41
1
10
10.1041453059236
20
-2.69348334995274
30
0
41
1
10
9.50000000000009
20
-2.71964661580381
30
0
41
1
10
9.00000000000009
20
-2.67867183455974
30
0
0
SPLINE
5
109
100
AcDbEntity
8
1
62
256
6
ByLayer
370
18
48
1
60
0
100
AcDbSpline
70
4
71
3
72
18
73
14
40
0
40
0
40
0
40
0
40
0.146757552795273
40
0.146757552795273
40
0.232081797515746
40
0.232081797515746
40
0.317406042236219
40
0.317406042236219
40
0.488054531677166
40
0.488054531677166
40
0.658703021118113
40
0.658703021118113
40
1
40
1
40
1
40
1
41
1
10
11.0197017767613
20
-2.64908863912561
30
0
41
1
10
10.9208314886932
20
-2.67823213241692
30
0
41
1
10
10.8219280775479
20
-2.7050829604708
30
0
41
1
10
10.6653611687516
20
-2.7437022230169
30
0
41
1
10
10.607747698543
20
-2.75708612314887
30
0
41
1
10
10.4924769637759
20
-2.78215947386795
30
0
41
1
10
10.4349289078303
20
-2.79382550488123
30
0
41
1
10
10.2624977812777
20
-2.82617281378816
30
0
41
1
10
10.1478132744725
20
-2.84422923231327
30
0
41
1
10
9.9185410031655
20
-2.87368963370466
30
0
41
1
10
9.80398877576894
20
-2.88500438685676
30
0
41
1
10
9.46019742788448
20
-2.9084243982482
30
0
41
1
10
9.23081224377287
20
-2.90997095824568
30
0
41
1
10
9.00000000000006
20
-2.89752935340039
30
0
0
SPLINE
5
10A
100
AcDbEntity
8
1
62
256
6
ByLayer
370
18
48
1
60
0
100
AcDbSpline
70
4
71
3
72
27
73
23
40
0
40
0
40
0
40
0
40
0.174474320082674
40
0.174474320082674
40
0.26171148012401
40
0.26171148012401
40
0.305330060144678
40
0.305330060144678
40
0.348948640165347
40
0.348948640165347
40
0.523422960248018
40
0.523422960248018
40
0.610660120289359
40
0.610660120289359
40
0.697897280330699
40
0.785134440372039
40
0.785134440372039
40
0.82875302039271
40
0.82875302039271
40
0.872371600413381
40
0.872371600413381
40
1
40
1
40
1
40
1
41
1
10
20.5119193693363
20
2.76781461262669
30
0
41
1
10
20.5261367117854
20
2.72785313770604
30
0
41
1
10
20.5372158855348
20
2.68721721268582
30
0
41
1
10
20.5480223040973
20
2.62501414648574
30
0
41
1
10
20.5506498777402
20
2.60407033901407
30
0
41
1
10
20.5529174042048
20
2.57229489019801
30
0
41
1
10
20.5533925004812
20
2.56161844208631
30
0
41
1
10
20.5537410000673
20
2.54039886387829
30
0
41
1
10
20.5536175722642
20
2.52982926241694
30
0
41
1
10
20.5514802106364
20
2.4771864911319
30
0
41
1
10
20.5449233509591
20
2.43572663412331
30
0
41
1
10
20.5269968227009
20
2.37462919758741
30
0
41
1
10
20.5195961011292
20
2.35431483247851
30
0
41
1
10
20.5024744135704
20
2.31522268290789
30
0
41
1
10
20.4830062602461
20
2.27744201902553
30
0
41
1
10
20.4591788819346
20
2.24209781139433
30
0
41
1
10
20.4397806577213
20
2.21644351181047
30
0
41
1
10
20.4330392608684
20
2.20801098943198
30
0
41
1
10
20.4191915591418
20
2.19157038052685
30
0
41
1
10
20.4120839796841
20
2.18355706862579
30
0
41
1
10
20.3835143200639
20
2.15284619070306
30
0
41
1
10
20.3607850826861
20
2.13157623101503
30
0
41
1
10
20.3368802847455
20
2.11163068291896
30
0
0
SPLINE
5
10B
100
AcDbEntity
8
1
62
256
6
ByLayer
370
13
48
1
60
0
100
AcDbSpline
70
4
71
3
72
9
73
5
40
0
40
0
40
0
40
0
40
0.739059431884569
40
1
40
1
40
1
40
1
41
1
10
20.5119193689861
20
2.76781461270812
30
0
41
1
10
20.1746129126574
20
2.73605202573847
30
0
41
1
10
19.7182132757992
20
2.65379110820734
30
0
41
1
10
19.261813638941
20
2.52362039792419
30
0
41
1
10
19.1427204584116
20
2.48650955941301
30
0
0
SPLINE
5
10C
100
AcDbEntity
8
1
62
256
6
ByLayer
370
13
48
1
60
0
100
AcDbSpline
70
4
71
3
72
8
73
4
40
0
40
0
40
0
40
0
40
1
40
1
40
1
40
1
41
1
10
10.2852436742224
20
-2.60361937761829
30
0
41
1
10
9.85682911614822
20
-2.64719629032982
30
0
41
1
10
9.42841455807411
20
-2.64704834088206
30
0
41
1
10
8.99999999999997
20
-2.60220426829505
30
0
0
SPLINE
5
10D
100
AcDbEntity
8
1
62
256
6
ByLayer
370
18
48
1
60
0
100
AcDbSpline
70
4
71
3
72
9
73
5
40
0
40
0
40
0
40
0
40
0.150638629792527
40
1
40
1
40
1
40
1
41
1
10
10.7660327542724
20
-2.54154159269013
30
0
41
1
10
10.6773551695149
20
-2.55588194966757
30
0
41
1
10
10.0886775847575
20
-2.63900967899315
30
0
41
1
10
9.5
20
-2.64037374731109
30
0
41
1
10
9
20
-2.5803713370394
30
0
0
SPLINE
5
10E
100
AcDbEntity
8
1
62
256
6
ByLayer
370
18
48
1
60
0
100
AcDbSpline
70
4
71
3
72
8
73
4
40
0
40
0
40
0
40
0
40
1
40
1
40
1
40
1
41
1
10
9.00000000000006
20
-2.89752935340039
30
0
41
1
10
8.91674656880426
20
-2.89372009706557
30
0
41
1
10
8.83389953815407
20
-2.88860765617517
30
0
41
1
10
8.75150839020282
20
-2.88203335875207
30
0
0
SPLINE
5
10F
100
AcDbEntity
8
1
62
256
6
ByLayer
370
18
48
1
60
0
100
AcDbSpline
70
4
71
3
72
10
73
6
40
0
40
0
40
0
40
0
40
0.5
40
0.5
40
1
40
1
40
1
40
1
41
1
10
8.75150839020282
20
-2.88203335875207
30
0
41
1
10
8.71547090735592
20
-2.87006946156097
30
0
41
1
10
8.67865093076102
20
-2.85965499960307
30
0
41
1
10
8.60324775532848
20
-2.84231747568074
30
0
41
1
10
8.56466719678809
20
-2.83538918559853
30
0
41
1
10
8.52502631651848
20
-2.83056046480985
30
0
0
SPLINE
5
110
100
AcDbEntity
8
1
62
256
6
ByLayer
370
18
48
1
60
0
100
AcDbSpline
70
4
71
3
72
10
73
6
40
0
40
0
40
0
40
0
40
0.499999999999999
40
0.499999999999999
40
1
40
1
40
1
40
1
41
1
10
20.6360157320089
20
1.84537227708668
30
0
41
1
10
20.6348074708272
20
1.87534181842744
30
0
41
1
10
20.6325875336249
20
1.90739733590135
30
0
41
1
10
20.6265278775745
20
1.97484820078114
30
0
41
1
10
20.6226994366109
20
2.01022029430152
30
0
41
1
10
20.6183146596305
20
2.04673949779561
30
0
0
SPLINE
5
111
100
AcDbEntity
8
1
62
256
6
ByLayer
370
18
48
1
60
0
100
AcDbSpline
70
4
71
3
72
14
73
10
40
0
40
0
40
0
40
0
40
0.25
40
0.25
40
0.5
40
0.5
40
0.75
40
0.75
40
1
40
1
40
1
40
1
41
1
10
19.7112003393411
20
0.389438623458801
30
0
41
1
10
19.7089600989771
20
0.3960659698391
30
0
41
1
10
19.7068875570225
20
0.403039526505637
30
0
41
1
10
19.7030582155294
20
0.417712168333082
30
0
41
1
10
19.7013028580722
20
0.425413819662964
30
0
41
1
10
19.6981160853444
20
0.441388401675539
30
0
41
1
10
19.6966741785589
20
0.449715511925092
30
0
41
1
10
19.6940774270726
20
0.466828675470168
30
0
41
1
10
19.6929206973805
20
0.475615718137959
30
0
41
1
10
19.6918657944923
20
0.484641026885726
30
0
0
SPLINE
5
112
100
AcDbEntity
8
1
62
256
6
ByLayer
370
18
48
1
60
0
100
AcDbSpline
70
4
71
3
72
35
73
31
40
0
40
0
40
0
40
0
40
0.0624999999999956
40
0.0624999999999956
40
0.124999999999991
40
0.124999999999991
40
0.187499999999987
40
0.187499999999987
40
0.218749999999986
40
0.218749999999986
40
0.249999999999986
40
0.249999999999986
40
0.374999999999982
40
0.374999999999982
40
0.437499999999977
40
0.437499999999977
40
0.499999999999973
40
0.562499999999968
40
0.562499999999968
40
0.624999999999963
40
0.624999999999963
40
0.749999999999953
40
0.749999999999953
40
0.781249999999951
40
0.781249999999951
40
0.812499999999948
40
0.812499999999948
40
0.874999999999966
40
0.874999999999966
40
1
40
1
40
1
40
1
41
1
10
20.5586719251901
20
0.284366339163995
30
0
41
1
10
20.5486108166402
20
0.278972393027544
30
0
41
1
10
20.5401739263486
20
0.272288243222846
30
0
41
1
10
20.5260517198369
20
0.257104396916247
30
0
41
1
10
20.5203444363883
20
0.248507791841718
30
0
41
1
10
20.5117061365758
20
0.230642659124157
30
0
41
1
10
20.5087066159469
20
0.221336269158712
30
0
41
1
10
20.505856701484
20
0.207091743989309
30
0
41
1
10
20.505184110524
20
0.202294720397276
30
0
41
1
10
20.5043626849408
20
0.192636942633896
30
0
41
1
10
20.5042160748166
20
0.18777489127649
30
0
41
1
10
20.5047168955891
20
0.163701266214588
30
0
41
1
10
20.5089324341877
20
0.144948342715651
30
0
41
1
10
20.5200532644994
20
0.118322612073513
30
0
41
1
10
20.5246129245956
20
0.109649194363442
30
0
41
1
10
20.5351952405971
20
0.0931917980150843
30
0
41
1
10
20.547231392787
20
0.077590331910443
30
0
41
1
10
20.562126957129
20
0.0637141104388377
30
0
41
1
10
20.5785061807654
20
0.0506867258868624
30
0
41
1
10
20.5874999075832
20
0.044565713207902
30
0
41
1
10
20.6162904156431
20
0.0277282349229324
30
0
41
1
10
20.6378913606127
20
0.0184894611507787
30
0
41
1
10
20.6680223843003
20
0.0084716801945888
30
0
41
1
10
20.6742061445546
20
0.006543296596135
30
0
41
1
10
20.6868955140691
20
0.0028067630913142
30
0
41
1
10
20.6934203380316
20
0.0009938823588413
30
0
41
1
10
20.7132589493228
20
-0.0042557129758336
30
0
41
1
10
20.7268800907534
20
-0.0075186151019579
30
0
41
1
10
20.7688453785347
20
-0.0170787223356115
30
0
41
1
10
20.7982948189763
20
-0.0231344558560806
30
0
41
1
10
20.8289874392785
20
-0.0302300627803618
30
0
0
SPLINE
5
113
100
AcDbEntity
8
1
62
256
6
ByLayer
370
18
48
1
60
0
100
AcDbSpline
70
4
71
3
72
8
73
4
40
0
40
0
40
0
40
0
40
1
40
1
40
1
40
1
41
1
10
20.5195542500558
20
2.07005153481188
30
0
41
1
10
20.5530348308187
20
2.06281582957354
30
0
41
1
10
20.5859833251645
20
2.05513345039921
30
0
41
1
10
20.6183146596304
20
2.04673949779584
30
0
0
SPLINE
5
114
100
AcDbEntity
8
1
62
256
6
ByLayer
370
18
48
1
60
0
100
AcDbSpline
70
4
71
3
72
8
73
4
40
0
40
0
40
0
40
0
40
1
40
1
40
1
40
1
41
1
10
20.6050712546644
20
2.05315226685627
30
0
41
1
10
20.6093374942443
20
2.05159445103737
30
0
41
1
10
20.6137555049039
20
2.04944300114119
30
0
41
1
10
20.6183146596305
20
2.04673949779561
30
0
0
SPLINE
5
115
100
AcDbEntity
8
1
62
256
6
ByLayer
370
18
48
1
60
0
100
AcDbSpline
70
4
71
3
72
8
73
4
40
0
40
0
40
0
40
0
40
1
40
1
40
1
40
1
41
1
10
20.6050712553575
20
2.05315226775895
30
0
41
1
10
20.5094502808786
20
2.083131079851
30
0
41
1
10
20.4138293063997
20
2.11160802346444
30
0
41
1
10
20.3182083319209
20
2.13853925386883
30
0
0
SPLINE
5
116
100
AcDbEntity
8
1
62
256
6
ByLayer
370
13
48
1
60
0
100
AcDbSpline
70
4
71
3
72
8
73
4
40
0
40
0
40
0
40
0
40
1
40
1
40
1
40
1
41
1
10
20.5046745781741
20
1.90401424008536
30
0
41
1
10
20.4529034623883
20
1.92565037233197
30
0
41
1
10
20.4011323466025
20
1.94688036523758
30
0
41
1
10
20.3493612308166
20
1.96769296264981
30
0
0
SPLINE
5
117
100
AcDbEntity
8
1
62
256
6
ByLayer
370
18
48
1
60
0
100
AcDbSpline
70
4
71
3
72
8
73
4
40
0
40
0
40
0
40
0
40
1
40
1
40
1
40
1
41
1
10
8.52502631651871
20
2.23193489233805
30
0
41
1
10
8.61380450745256
20
2.2145328103623
30
0
41
1
10
8.6998274499206
20
2.20372864837472
30
0
41
1
10
8.78186839950979
20
2.19524436393132
30
0
0
SPLINE
5
118
100
AcDbEntity
8
1
62
256
6
ByLayer
370
18
48
1
60
0
100
AcDbSpline
70
4
71
3
72
8
73
4
40
0
40
0
40
0
40
0
40
1
40
1
40
1
40
1
41
1
10
20.6352341305618
20
-0.604460359350412
30
0
41
1
10
20.63521353973
20
-0.604865333935038
30
0
41
1
10
20.6351927530008
20
-0.605269896831288
30
0
41
1
10
20.6351717708209
20
-0.605674048972844
30
0
0
SPLINE
5
119
100
AcDbEntity
8
1
62
256
6
ByLayer
370
18
48
1
60
0
100
AcDbSpline
70
4
71
3
72
20
73
16
40
0
40
0
40
0
40
0
40
0.249999999999935
40
0.249999999999935
40
0.374999999999919
40
0.374999999999919
40
0.437499999999911
40
0.437499999999911
40
0.499999999999903
40
0.499999999999903
40
0.749999999999936
40
0.749999999999936
40
0.874999999999968
40
0.874999999999968
40
1
40
1
40
1
40
1
41
1
10
20.4560321830115
20
1.89303657318283
30
0
41
1
10
20.4205205135675
20
1.9154557038209
30
0
41
1
10
20.3834862259581
20
1.93833296329601
30
0
41
1
10
20.3259287029173
20
1.97305235982495
30
0
41
1
10
20.3064032630768
20
1.98469266257703
30
0
41
1
10
20.2766146616659
20
2.00221785798865
30
0
41
1
10
20.2666156223779
20
2.00806217520255
30
0
41
1
10
20.2466741944608
20
2.01963694486159
30
0
41
1
10
20.2367042688513
20
2.02538248746347
30
0
41
1
10
20.1868507885081
20
2.0539025135117
30
0
41
1
10
20.1469572248797
20
2.07606958764552
30
0
41
1
10
20.0869403364363
20
2.10817655445149
30
0
41
1
10
20.0668896771458
20
2.11869492071625
30
0
41
1
10
20.0267678535995
20
2.13927628978448
30
0
41
1
10
20.0068281871368
20
2.14926956473315
30
0
41
1
10
19.9869908231381
20
2.15895224152573
30
0
0
SPLINE
5
11A
100
AcDbEntity
8
1
62
256
6
ByLayer
370
18
48
1
60
0
100
AcDbSpline
70
4
71
3
72
14
73
10
40
0
40
0
40
0
40
0
40
0.342744439044261
40
0.342744439044261
40
0.685488878088521
40
0.685488878088521
40
0.856861097610652
40
0.856861097610652
40
1
40
1
40
1
40
1
41
1
10
20.5195542500558
20
2.07005153481222
30
0
41
1
10
20.5356677873382
20
2.0509955520854
30
0
41
1
10
20.5502144255658
20
2.03197370097712
30
0
41
1
10
20.5762173097896
20
1.99401172756399
30
0
41
1
10
20.5876740750511
20
1.97506891422068
30
0
41
1
10
20.6024354245247
20
1.94671707106048
30
0
41
1
10
20.6069557849442
20
1.9372789435464
30
0
41
1
10
20.6144979017707
20
1.91998809144385
30
0
41
1
10
20.6176520177909
20
1.91210482441667
30
0
41
1
10
20.6204873416339
20
1.90429617981374
30
0
0
SPLINE
5
11B
100
AcDbEntity
8
1
62
256
6
ByLayer
370
18
48
1
60
0
100
AcDbSpline
70
4
71
3
72
17
73
13
40
0
40
0
40
0
40
0
40
0.124999999999996
40
0.124999999999996
40
0.249999999999993
40
0.499999999999993
40
0.499999999999993
40
0.624999999999994
40
0.624999999999994
40
0.749999999999994
40
0.749999999999994
40
1
40
1
40
1
40
1
41
1
10
20.5195542500559
20
2.07005153481182
30
0
41
1
10
20.5167554021062
20
2.06807832101725
30
0
41
1
10
20.5139802193389
20
2.0654493512744
30
0
41
1
10
20.5087334201367
20
2.05892148073176
30
0
41
1
10
20.5012911278641
20
2.04721553284588
30
0
41
1
10
20.4959424552809
20
2.02973374315334
30
0
41
1
10
20.4930119461597
20
2.00832054743913
30
0
41
1
10
20.4924392708074
20
2.00048268384708
30
0
41
1
10
20.4922499564658
20
1.98377645679554
30
0
41
1
10
20.4926268512179
20
1.97490310330036
30
0
41
1
10
20.4952367181159
20
1.94685120457245
30
0
41
1
10
20.4989582979514
20
1.92624683095255
30
0
41
1
10
20.5046745781639
20
1.90401424008962
30
0
0
SPLINE
5
11C
100
AcDbEntity
8
1
62
256
6
ByLayer
370
18
48
1
60
0
100
AcDbSpline
70
4
71
3
72
20
73
16
40
0
40
0
40
0
40
0
40
0.125
40
0.125
40
0.249999999999999
40
0.249999999999999
40
0.374999999999999
40
0.374999999999999
40
0.499999999999998
40
0.499999999999998
40
0.624999999999998
40
0.624999999999998
40
0.749999999999998
40
0.749999999999998
40
1
40
1
40
1
40
1
41
1
10
20.5046745781639
20
1.90401424008962
30
0
41
1
10
20.5055774153254
20
1.90050210784554
30
0
41
1
10
20.5062392215303
20
1.8971773888328
30
0
41
1
10
20.5069471737591
20
1.89099722935205
30
0
41
1
10
20.506990583282
20
1.88811600485661
30
0
41
1
10
20.506247335104
20
1.88312368622971
30
0
41
1
10
20.5054708741896
20
1.88101393854336
30
0
41
1
10
20.5028719641072
20
1.8777599347317
30
0
41
1
10
20.5010691450886
20
1.87667014525744
30
0
41
1
10
20.4964623255665
20
1.87569413738652
30
0
41
1
10
20.4936340150059
20
1.87581696734546
30
0
41
1
10
20.4873196008945
20
1.87714123417075
30
0
41
1
10
20.4837598656648
20
1.8783528912204
30
0
41
1
10
20.4726338253861
20
1.8830882526658
30
0
41
1
10
20.4644363088714
20
1.88773171689326
30
0
41
1
10
20.4560321830115
20
1.89303657318277
30
0
0
SPLINE
5
11D
100
AcDbEntity
8
1
62
256
6
ByLayer
370
13
48
1
60
0
100
AcDbSpline
70
4
71
3
72
8
73
4
40
0
40
0
40
0
40
0
40
1
40
1
40
1
40
1
41
1
10
19.9729523816465
20
-1.85710763333901
30
0
41
1
10
19.9724990617961
20
-1.85397847660653
30
0
41
1
10
19.9720457419456
20
-1.85084931987404
30
0
41
1
10
19.9715924220951
20
-1.84772016314156
30
0
0
SPLINE
5
11E
100
AcDbEntity
8
1
62
256
6
ByLayer
370
13
48
1
60
0
100
AcDbSpline
70
4
71
3
72
8
73
4
40
0
40
0
40
0
40
0
40
1
40
1
40
1
40
1
41
0.999995193853852
10
19.9366541108174
20
1.68650113714401
30
0
41
0.999995193853852
10
19.934589273502
20
1.69852861116217
30
0
41
0.999995193853852
10
19.9325244361864
20
1.71055608518033
30
0
41
0.999995193853852
10
19.930459598871
20
1.72258355919849
30
0
0
SPLINE
5
11F
100
AcDbEntity
8
1
62
256
6
ByLayer
370
13
48
1
60
0
100
AcDbSpline
70
4
71
3
72
8
73
4
40
0
40
0
40
0
40
0
40
1
40
1
40
1
40
1
41
1
10
19.9730607983032
20
1.67624428551784
30
0
41
1
10
19.9724961086159
20
1.67953354733592
30
0
41
1
10
19.9719314189286
20
1.68282280915403
30
0
41
1
10
19.9713667292413
20
1.68611207097211
30
0
0
SPLINE
5
120
100
AcDbEntity
8
1
62
256
6
ByLayer
370
13
48
1
60
0
100
AcDbSpline
70
4
71
3
72
12
73
8
40
0
40
0
40
0
40
0
40
0.265531076582594
40
0.491117467859901
40
0.716703859137208
40
0.942290250414516
40
1
40
1
40
1
40
1
41
1
10
16.3671971575531
20
1.50405778636576
30
0
41
1
10
16.6614647717021
20
1.4449997565049
30
0
41
1
10
17.2057323858511
20
1.31655134449693
30
0
41
1
10
18
20
1.08468031380303
30
0
41
1
10
18.75
20
0.835312111681872
30
0
41
1
10
19.3139552648308
20
0.628790369311588
30
0
41
1
10
19.6279105296617
20
0.509173190491083
30
0
41
1
10
19.6918657944925
20
0.48464102688564
30
0
0
SPLINE
5
121
100
AcDbEntity
8
1
62
256
6
ByLayer
370
18
48
1
60
0
100
AcDbSpline
70
4
71
3
72
29
73
25
40
0
40
0
40
0
40
0
40
0.124999999999992
40
0.124999999999992
40
0.187499999999988
40
0.187499999999988
40
0.249999999999983
40
0.249999999999983
40
0.374999999999974
40
0.374999999999974
40
0.437499999999977
40
0.437499999999977
40
0.499999999999979
40
0.499999999999979
40
0.625
40
0.625
40
0.6875
40
0.6875
40
0.75
40
0.8125
40
0.8125
40
0.875
40
0.875
40
1
40
1
40
1
40
1
41
1
10
19.6918657944925
20
0.484641026885612
30
0
41
1
10
19.6889637036283
20
0.509468798983818
30
0
41
1
10
19.6885508932495
20
0.534367548446767
30
0
41
1
10
19.6913141813823
20
0.571932950266614
30
0
41
1
10
19.6928032949069
20
0.584490739748333
30
0
41
1
10
19.6969097976331
20
0.609695427247516
30
0
41
1
10
19.6995402908924
20
0.622368303157032
30
0
41
1
10
19.7089144720289
20
0.659700235677633
30
0
41
1
10
19.7171559010957
20
0.683957045740129
30
0
41
1
10
19.7323630719457
20
0.719450396335475
30
0
41
1
10
19.7379394478647
20
0.731184694496193
30
0
41
1
10
19.7499458829965
20
0.754084345861742
30
0
41
1
10
19.7563378286178
20
0.765188693479587
30
0
41
1
10
19.7766582114117
20
0.797490172634355
30
0
41
1
10
19.7917098553965
20
0.817691308282065
30
0
41
1
10
19.8168099798679
20
0.84583242194438
30
0
41
1
10
19.8255650689682
20
0.854796203231189
30
0
41
1
10
19.8435805836838
20
0.871552200557659
30
0
41
1
10
19.8621878037289
20
0.887235875651925
30
0
41
1
10
19.8821031991337
20
0.9006914120001
30
0
41
1
10
19.9027794492181
20
0.912933537372567
30
0
41
1
10
19.9135773346712
20
0.918478417093866
30
0
41
1
10
19.9465970977597
20
0.932730028613321
30
0
41
1
10
19.969461403571
20
0.939163372828318
30
0
41
1
10
19.9935543040686
20
0.94205693039666
30
0
0
SPLINE
5
122
100
AcDbEntity
8
1
62
256
6
ByLayer
370
18
48
1
60
0
100
AcDbSpline
70
4
71
3
72
27
73
23
40
0
40
0
40
0
40
0
40
0.125000000000007
40
0.125000000000007
40
0.250000000000015
40
0.250000000000015
40
0.312500000000017
40
0.312500000000017
40
0.375000000000018
40
0.375000000000018
40
0.500000000000015
40
0.625000000000011
40
0.625000000000011
40
0.687500000000009
40
0.687500000000009
40
0.750000000000008
40
0.750000000000008
40
0.875000000000004
40
0.875000000000004
40
0.937500000000002
40
0.937500000000002
40
1
40
1
40
1
40
1
41
1
10
20.9728487033791
20
-1.44356833933776
30
0
41
1
10
20.9741213137527
20
-1.47714826513959
30
0
41
1
10
20.9720665149002
20
-1.51017877022986
30
0
41
1
10
20.9618438590225
20
-1.57523039419786
30
0
41
1
10
20.9536681387651
20
-1.60725021471887
30
0
41
1
10
20.9368729955732
20
-1.65453169532373
30
0
41
1
10
20.9305166277511
20
-1.6701670303317
30
0
41
1
10
20.9162634475992
20
-1.70118334265152
30
0
41
1
10
20.9083967205326
20
-1.71648866067383
30
0
41
1
10
20.8828226244522
20
-1.76142254314058
30
0
41
1
10
20.8433341339986
20
-1.81904739206775
30
0
41
1
10
20.7932412754145
20
-1.87217251938392
30
0
41
1
10
20.7515084651917
20
-1.91024982026695
30
0
41
1
10
20.736903832229
20
-1.92263495417348
30
0
41
1
10
20.7067219045864
20
-1.94643878467968
30
0
41
1
10
20.6910938120477
20
-1.95790573262502
30
0
41
1
10
20.6426060517611
20
-1.99100807478504
30
0
41
1
10
20.6081514485722
20
-2.01135188887704
30
0
41
1
10
20.5531572357905
20
-2.03918530008559
30
0
41
1
10
20.534271721499
20
-2.04801438503162
30
0
41
1
10
20.495344787631
20
-2.06473650180746
30
0
41
1
10
20.4752307147828
20
-2.07265325697054
30
0
41
1
10
20.4547573573963
20
-2.07998738231217
30
0
0
SPLINE
5
123
100
AcDbEntity
8
1
62
256
6
ByLayer
370
13
48
1
60
0
100
AcDbSpline
70
4
71
3
72
8
73
4
40
0
40
0
40
0
40
0
40
1
40
1
40
1
40
1
41
1
10
20.9728487033826
20
-1.44356833938224
30
0
41
1
10
20.9561058704588
20
-1.32799663363971
30
0
41
1
10
20.9393630375349
20
-1.21242492789719
30
0
41
1
10
20.9226202046111
20
-1.09685322215463
30
0
0
SPLINE
5
124
100
AcDbEntity
8
1
62
256
6
ByLayer
370
18
48
1
60
0
100
AcDbSpline
70
4
71
3
72
10
73
6
40
0
40
0
40
0
40
0
40
0.5
40
0.5
40
1
40
1
40
1
40
1
41
1
10
20.9207054256328
20
-1.13952112782945
30
0
41
1
10
20.9216631369893
20
-1.13385175157148
30
0
41
1
10
20.9223034367531
20
-1.12745987872683
30
0
41
1
10
20.9229428769903
20
-1.11321671753603
30
0
41
1
10
20.9229385229925
20
-1.10532362535369
30
0
41
1
10
20.9226202046136
20
-1.09685322215139
30
0
0
SPLINE
5
125
100
AcDbEntity
8
1
62
256
6
ByLayer
370
13
48
1
60
0
100
AcDbSpline
70
4
71
3
72
14
73
10
40
0
40
0
40
0
40
0
40
0.0854106104914678
40
0.216066237564115
40
0.346721864636763
40
0.47737749170941
40
0.608033118782058
40
0.738688745854705
40
1
40
1
40
1
40
1
41
1
10
14.7402808956937
20
-1.81802919621293
30
0
41
1
10
14.5768539304625
20
-1.78761613002874
30
0
41
1
10
14.1634269652312
20
-1.69791817845996
30
0
41
1
10
13.5
20
-1.50623028711041
30
0
41
1
10
12.75
20
-1.23696135201573
30
0
41
1
10
12
20
-0.926127725680289
30
0
41
1
10
11.25
20
-0.579561914099259
30
0
41
1
10
10.25
20
-0.0920552239071242
30
0
41
1
10
9.5
20
0.276247110684295
30
0
41
1
10
9
20
0.507437825820631
30
0
0
SPLINE
5
126
100
AcDbEntity
8
1
62
256
6
ByLayer
370
18
48
1
60
0
100
AcDbSpline
70
4
71
3
72
12
73
8
40
0
40
0
40
0
40
0
40
0.499999999999994
40
0.499999999999994
40
0.749999999999997
40
0.749999999999997
40
1
40
1
40
1
40
1
41
1
10
20.1644522951549
20
1.77758207001176
30
0
41
1
10
20.1272532252043
20
1.84225034790185
30
0
41
1
10
20.0930373355656
20
1.90604383318018
30
0
41
1
10
20.048069395318
20
2.00122362883298
30
0
41
1
10
20.0341252142981
20
2.03289339190715
30
0
41
1
10
20.0086986806527
20
2.09601995606906
30
0
41
1
10
19.9972128604467
20
2.12749354084636
30
0
41
1
10
19.9869908231394
20
2.15895224152157
30
0
0
SPLINE
5
127
100
AcDbEntity
8
1
62
256
6
ByLayer
370
18
48
1
60
0
100
AcDbSpline
70
4
71
3
72
22
73
18
40
0
40
0
40
0
40
0
40
0.108295425458879
40
0.108295425458879
40
0.216590850917758
40
0.216590850917758
40
0.433181701835517
40
0.433181701835517
40
0.649772552753275
40
0.649772552753275
40
0.758067978212152
40
0.758067978212152
40
0.81221569094159
40
0.81221569094159
40
0.866363403671028
40
0.866363403671028
40
1
40
1
40
1
40
1
41
1
10
19.9869908231381
20
2.15895224152573
30
0
41
1
10
19.8720077633368
20
2.21009629144317
30
0
41
1
10
19.7567869611361
20
2.25910820219772
30
0
41
1
10
19.526814343238
20
2.35219042027697
30
0
41
1
10
19.4119816181752
20
2.3963015817439
30
0
41
1
10
19.0676438500338
20
2.52104815370868
30
0
41
1
10
18.8382884688009
20
2.59410870257889
30
0
41
1
10
18.378059562221
20
2.71841667288277
30
0
41
1
10
18.1486954856464
20
2.76921368082148
30
0
41
1
10
17.8042368696444
20
2.82790531657739
30
0
41
1
10
17.6893569351814
20
2.84456645844625
30
0
41
1
10
17.5168227419632
20
2.86514801550552
30
0
41
1
10
17.4592559567938
20
2.87127443316581
30
0
41
1
10
17.3441123140712
20
2.88203215700889
30
0
41
1
10
17.2866368162578
20
2.8866543239636
30
0
41
1
10
17.0876044061471
20
2.90006924733666
30
0
41
1
10
16.946475872805
20
2.90503378559302
30
0
41
1
10
16.8056636085978
20
2.90545955087535
30
0
0
SPLINE
5
128
100
AcDbEntity
8
1
62
256
6
ByLayer
370
18
48
1
60
0
100
AcDbSpline
70
4
71
3
72
8
73
4
40
0
40
0
40
0
40
0
40
1
40
1
40
1
40
1
41
1
10
19.9304595988709
20
1.72258355919851
30
0
41
1
10
19.9446037343465
20
1.71072811016376
30
0
41
1
10
19.9582538850978
20
1.69857874086398
30
0
41
1
10
19.9713667292412
20
1.68611207097211
30
0
0
SPLINE
5
129
100
AcDbEntity
8
1
62
256
6
ByLayer
370
18
48
1
60
0
100
AcDbSpline
70
4
71
3
72
8
73
4
40
0
40
0
40
0
40
0
40
1
40
1
40
1
40
1
41
1
10
19.9713667292413
20
1.68611207097194
30
0
41
1
10
19.9763902585739
20
1.68133609093314
30
0
41
1
10
19.9814886697531
20
1.6765825478887
30
0
41
1
10
19.9866875780409
20
1.67186285413629
30
0
0
SPLINE
5
12A
100
AcDbEntity
8
1
62
256
6
ByLayer
370
18
48
1
60
0
100
AcDbSpline
70
4
71
3
72
16
73
12
40
0
40
0
40
0
40
0
40
0.0443563034248448
40
0.15053893637764
40
0.256721569330435
40
0.36290420228323
40
0.469086835236025
40
0.57526946818882
40
0.681452101141615
40
0.78763473409441
40
1
40
1
40
1
40
1
41
1
10
16.0633019651474
20
-2.49648560942876
30
0
41
1
10
15.9588679767649
20
-2.51031109969278
30
0
41
1
10
15.6044339883824
20
-2.54941640981576
30
0
41
1
10
15
20
-2.56988823797585
30
0
41
1
10
14.25
20
-2.51277196830583
30
0
41
1
10
13.5
20
-2.37636756796405
30
0
41
1
10
12.75
20
-2.16540065876421
30
0
41
1
10
12
20
-1.88596527188531
30
0
41
1
10
11.25
20
-1.54561738123556
30
0
41
1
10
10.25
20
-1.02617572512767
30
0
41
1
10
9.5
20
-0.58254471698362
30
0
41
1
10
9
20
-0.280381570367752
30
0
0
SPLINE
5
12B
100
AcDbEntity
8
1
62
256
6
ByLayer
370
13
48
1
60
0
100
AcDbSpline
70
4
71
3
72
14
73
10
40
0
40
0
40
0
40
0
40
0.112183448015517
40
0.2390143840133
40
0.365845320011084
40
0.492676256008867
40
0.61950719200665
40
0.746338128004433
40
1
40
1
40
1
40
1
41
1
10
14.9133837821169
20
-2.62984030552809
30
0
41
1
10
14.6922558547446
20
-2.64038415861589
30
0
41
1
10
14.2211279273723
20
-2.6395823717115
30
0
41
1
10
13.5
20
-2.56259811654425
30
0
41
1
10
12.75
20
-2.40069625815516
30
0
41
1
10
12
20
-2.16315789879121
30
0
41
1
10
11.25
20
-1.85773027239995
30
0
41
1
10
10.2499999999999
20
-1.37009819043553
30
0
41
1
10
9.49999999999994
20
-0.932408956088096
30
0
41
1
10
8.99999999999997
20
-0.629351177063199
30
0
0
SPLINE
5
12C
100
AcDbEntity
8
1
62
256
6
ByLayer
370
18
48
1
60
0
100
AcDbSpline
70
4
71
3
72
8
73
4
40
0
40
0
40
0
40
0
40
1
40
1
40
1
40
1
41
1
10
20.9728487033899
20
0.864459516524164
30
0
41
1
10
20.9561058704678
20
0.961984869465681
30
0
41
1
10
20.9393630375457
20
1.05951022240723
30
0
41
1
10
20.9226202046236
20
1.15703557534874
30
0
0
SPLINE
5
12D
100
AcDbEntity
8
1
62
256
6
ByLayer
370
18
48
1
60
0
100
AcDbSpline
70
4
71
3
72
8
73
4
40
0
40
0
40
0
40
0
40
1
40
1
40
1
40
1
41
1
10
20.9211236878062
20
1.19608441340983
30
0
41
1
10
20.9227175912446
20
1.18087123692152
30
0
41
1
10
20.9232086095855
20
1.16787064711099
30
0
41
1
10
20.922620204613
20
1.15703557540243
30
0
0
SPLINE
5
12E
100
AcDbEntity
8
1
62
256
6
ByLayer
370
18
48
1
60
0
100
AcDbSpline
70
4
71
3
72
33
73
29
40
0
40
0
40
0
40
0
40
0.0003471936156339
40
0.0298808545491712
40
0.059496184505472
40
0.152056883270554
40
0.246984609096809
40
0.344117133416384
40
0.443292325483637
40
0.532079226169948
40
0.625790158344116
40
0.72425791189171
40
0.827325772755819
40
0.835427004716608
40
0.8440203084689
40
0.853104675390557
40
0.862679050310062
40
0.872742334655338
40
0.883293389779959
40
0.894331040518585
40
0.905854079054302
40
0.917861269120509
40
0.930351350548389
40
0.943323044180526
40
0.956775057164327
40
0.970706088626664
40
0.985114835718663
40
1
40
1
40
1
40
1
41
1
10
20.8751346183306
20
1.33362985802745
30
0
41
1
10
20.8750990801813
20
1.33369138150172
30
0
41
1
10
20.872038843397
20
1.33898632106951
30
0
41
1
10
20.8656571568013
20
1.34952673839734
30
0
41
1
10
20.8479473313739
20
1.37636571903269
30
0
41
1
10
20.8183875876065
20
1.4146109209573
30
0
41
1
10
20.7715228129152
20
1.46399141782979
30
0
41
1
10
20.7154616090865
20
1.51330507038321
30
0
41
1
10
20.6529274533721
20
1.55990351070881
30
0
41
1
10
20.584418586933
20
1.60386221457836
30
0
41
1
10
20.5100208466103
20
1.64537078651031
30
0
41
1
10
20.4257794756734
20
1.68596507842238
30
0
41
1
10
20.3619717315037
20
1.71219642402599
30
0
41
1
10
20.3245116521647
20
1.72621461967574
30
0
41
1
10
20.3164150590716
20
1.72919802675725
30
0
41
1
10
20.3078195574647
20
1.73231558890765
30
0
41
1
10
20.2987208124589
20
1.7355610743935
30
0
41
1
10
20.2891146221954
20
1.7389281684514
30
0
41
1
10
20.2789967986532
20
1.74241000686493
30
0
41
1
10
20.2683632542312
20
1.74599929031828
30
0
41
1
10
20.2572100339109
20
1.74968823467989
30
0
41
1
10
20.2455333556041
20
1.753468551119
30
0
41
1
10
20.2333296910027
20
1.75733148731914
30
0
41
1
10
20.2205956778197
20
1.7612675760389
30
0
41
1
10
20.20732871293
20
1.76526755587889
30
0
41
1
10
20.1935248697209
20
1.76931866977969
30
0
41
1
10
20.1791873500708
20
1.77341914908487
30
0
41
1
10
20.1694167906321
20
1.77611023351
30
0
41
1
10
20.1644520598896
20
1.77747765874906
30
0
0
SPLINE
5
12F
100
AcDbEntity
8
1
62
256
6
ByLayer
370
18
48
1
60
0
100
AcDbSpline
70
4
71
3
72
24
73
20
40
0
40
0
40
0
40
0
40
0.0312499999999992
40
0.0312499999999992
40
0.0624999999999984
40
0.0624999999999984
40
0.124999999999997
40
0.124999999999997
40
0.187499999999995
40
0.187499999999995
40
0.249999999999994
40
0.249999999999994
40
0.374999999999991
40
0.374999999999991
40
0.499999999999987
40
0.499999999999987
40
0.749999999999994
40
0.749999999999994
40
1
40
1
40
1
40
1
41
1
10
20.0945767256359
20
1.60983874388688
30
0
41
1
10
20.0973312692988
20
1.61003543033581
30
0
41
1
10
20.0999237897927
20
1.61048383203848
30
0
41
1
10
20.1048276380339
20
1.61181981493968
30
0
41
1
10
20.1071536157809
20
1.61271880304676
30
0
41
1
10
20.1135123784081
20
1.6158427370579
30
0
41
1
10
20.1170832534832
20
1.61853007102539
30
0
41
1
10
20.1232575183893
20
1.62439333312585
30
0
41
1
10
20.1258559521602
20
1.62755470674691
30
0
41
1
10
20.1304987249565
20
1.63414000821936
30
0
41
1
10
20.1325351105909
20
1.63756760114478
30
0
41
1
10
20.1380839322032
20
1.64811725851428
30
0
41
1
10
20.1410011509965
20
1.65540021173714
30
0
41
1
10
20.1460373472626
20
1.67012253735052
30
0
41
1
10
20.1481461395224
20
1.67758853929874
30
0
41
1
10
20.1537359998967
20
1.70017641359692
30
0
41
1
10
20.1564965738628
20
1.71548400188502
30
0
41
1
10
20.1611044226639
20
1.74633412351832
30
0
41
1
10
20.1629259495518
20
1.76188619140379
30
0
41
1
10
20.1644628348815
20
1.77747471706343
30
0
0
SPLINE
5
130
100
AcDbEntity
8
1
62
256
6
ByLayer
370
18
48
1
60
0
100
AcDbSpline
70
4
71
3
72
17
73
13
40
0
40
0
40
0
40
0
40
0.250000000000002
40
0.250000000000002
40
0.375000000000002
40
0.375000000000002
40
0.500000000000002
40
0.625000000000002
40
0.625000000000002
40
0.750000000000002
40
0.750000000000002
40
1
40
1
40
1
40
1
41
1
10
20.6245907539866
20
-2.26696054219613
30
0
41
1
10
20.6263340557657
20
-2.29233190929483
30
0
41
1
10
20.6254100299954
20
-2.318016015805
30
0
41
1
10
20.6196047793036
20
-2.35735494316424
30
0
41
1
10
20.6169253705882
20
-2.37054310133965
30
0
41
1
10
20.6100459758312
20
-2.39694183829789
30
0
41
1
10
20.601685250052
20
-2.42341247083871
30
0
41
1
10
20.5901601949881
20
-2.45016437614956
30
0
41
1
10
20.5769129659622
20
-2.47713781477307
30
0
41
1
10
20.56941497326
20
-2.49076537397156
30
0
41
1
10
20.5441140291946
20
-2.53193351868532
30
0
41
1
10
20.5238647049251
20
-2.55931068208506
30
0
41
1
10
20.4994753369043
20
-2.58690131172378
30
0
0
SPLINE
5
131
100
AcDbEntity
8
1
62
256
6
ByLayer
370
18
48
1
60
0
100
AcDbSpline
70
4
71
3
72
8
73
4
40
0
40
0
40
0
40
0
40
1
40
1
40
1
40
1
41
1
10
20.6245907539862
20
-2.26696054219613
30
0
41
1
10
20.6270262675582
20
-2.26516574299379
30
0
41
1
10
20.629456765669
20
-2.2633692282981
30
0
41
1
10
20.6318823925364
20
-2.261571064284
30
0
0
SPLINE
5
132
100
AcDbEntity
8
1
62
256
6
ByLayer
370
18
48
1
60
0
100
AcDbSpline
70
4
71
3
72
11
73
7
40
0
40
0
40
0
40
0
40
0.250000000000002
40
0.250000000000002
40
0.500000000000003
40
1
40
1
40
1
40
1
41
1
10
20.5581608726397
20
-2.0138902164795
30
0
41
1
10
20.5635542155031
20
-2.03644592084004
30
0
41
1
10
20.5691425352112
20
-2.05856129471516
30
0
41
1
10
20.5806822732876
20
-2.10178990660339
30
0
41
1
10
20.5985490324909
20
-2.16518132719997
30
0
41
1
10
20.6180942010813
20
-2.22420014176001
30
0
41
1
10
20.6318823925364
20
-2.261571064284
30
0
0
SPLINE
5
133
100
AcDbEntity
8
1
62
256
6
ByLayer
370
18
48
1
60
0
100
AcDbSpline
70
4
71
3
72
10
73
6
40
0
40
0
40
0
40
0
40
0.744254738955899
40
0.744254738955899
40
1
40
1
40
1
40
1
41
1
10
19.5776914772642
20
-1.70767904236962
30
0
41
1
10
19.6590939518291
20
-1.74177398895375
30
0
41
1
10
19.7408005384561
20
-1.77366276873451
30
0
41
1
10
19.8509712373678
20
-1.81369748673131
30
0
41
1
10
19.8791989434826
20
-1.82369450617733
30
0
41
1
10
19.9074351849702
20
-1.83343810869303
30
0
0
SPLINE
5
134
100
AcDbEntity
8
1
62
256
6
ByLayer
370
18
48
1
60
0
100
AcDbSpline
70
4
71
3
72
18
73
14
40
0
40
0
40
0
40
0
40
0.389323649156817
40
0.389323649156817
40
0.486654561446036
40
0.486654561446036
40
0.583985473735255
40
0.778647298313744
40
0.778647298313744
40
0.87597821060297
40
0.87597821060297
40
0.973309122892195
40
1
40
1
40
1
40
1
41
1
10
19.5776914772643
20
-1.70767904236928
30
0
41
1
10
19.5529982553878
20
-1.69733643195886
30
0
41
1
10
19.5305670776422
20
-1.68411385735013
30
0
41
1
10
19.5059874140844
20
-1.66303959956261
30
0
41
1
10
19.5012477019975
20
-1.65858860394633
30
0
41
1
10
19.4923102383975
20
-1.64936688049261
30
0
41
1
10
19.4796487699893
20
-1.63499789793116
30
0
41
1
10
19.4692356194762
20
-1.61900330767875
30
0
41
1
10
19.4604039502405
20
-1.60186315070808
30
0
41
1
10
19.4577128518585
20
-1.59592726073336
30
0
41
1
10
19.4529444319137
20
-1.58381983628601
30
0
41
1
10
19.4503015497811
20
-1.57597834864328
30
0
41
1
10
19.4481403641349
20
-1.56798185811994
30
0
41
1
10
19.4476974221306
20
-1.56625380613323
30
0
0
SPLINE
5
135
100
AcDbEntity
8
1
62
256
6
ByLayer
370
13
48
1
60
0
100
AcDbSpline
70
4
71
3
72
18
73
14
40
0
40
0
40
0
40
0
40
0.0507744816355832
40
0.152858038626653
40
0.254941595617723
40
0.357025152608793
40
0.459108709599863
40
0.561192266590933
40
0.663275823582002
40
0.765359380573072
40
0.867442937564142
40
0.969526494555212
40
1
40
1
40
1
40
1
41
1
10
19.1230361906376
20
-1.36941819370637
30
0
41
1
10
18.9986907937584
20
-1.33631577012866
30
0
41
1
10
18.6243453968792
20
-1.23124605298128
30
0
41
1
10
18
20
-1.03083837961097
30
0
41
1
10
17.25
20
-0.754370987684695
30
0
41
1
10
16.5
20
-0.452358051135036
30
0
41
1
10
15.75
20
-0.136704819507628
30
0
41
1
10
15
20
0.182416870333355
30
0
41
1
10
14.25
20
0.498738916869911
30
0
41
1
10
13.5
20
0.799822931702948
30
0
41
1
10
12.75
20
1.07405491243515
30
0
41
1
10
12.1753711705808
20
1.25731052603604
30
0
41
1
10
11.8507423411616
20
1.34948104291902
30
0
41
1
10
11.7761135117424
20
1.37003323907223
30
0
0
SPLINE
5
136
100
AcDbEntity
8
1
62
256
6
ByLayer
370
18
48
1
60
0
100
AcDbSpline
70
4
71
3
72
8
73
4
40
0
40
0
40
0
40
0
40
1
40
1
40
1
40
1
41
1
10
20.6350020806251
20
-0.605790055118717
30
0
41
1
10
20.6350586474507
20
-0.605751390974945
30
0
41
1
10
20.6351152108496
20
-0.605712722260989
30
0
41
1
10
20.6351717708243
20
-0.605674048980092
30
0
0
SPLINE
5
137
100
AcDbEntity
8
1
62
256
6
ByLayer
370
18
48
1
60
0
100
AcDbSpline
70
4
71
3
72
10
73
6
40
0
40
0
40
0
40
0
40
0.5
40
0.5
40
1
40
1
40
1
40
1
41
1
10
20.5690114865687
20
-0.235058738917104
30
0
41
1
10
20.5785678289941
20
-0.29509350636917
30
0
41
1
10
20.5888719566804
20
-0.356128411639787
30
0
41
1
10
20.6109630015767
20
-0.479917184811654
30
0
41
1
10
20.6227122238355
20
-0.542465549456523
30
0
41
1
10
20.6351717708203
20
-0.60567404897489
30
0
0
SPLINE
5
138
100
AcDbEntity
8
1
62
256
6
ByLayer
370
18
48
1
60
0
100
AcDbSpline
70
4
71
3
72
10
73
6
40
0
40
0
40
0
40
0
40
0.5
40
0.5
40
1
40
1
40
1
40
1
41
1
10
19.8382959395021
20
0.246960489250284
30
0
41
1
10
19.9600123653244
20
0.169412804193797
30
0
41
1
10
20.0817659157337
20
0.0903753785897266
30
0
41
1
10
20.3253395629964
20
-0.0703698575076146
30
0
41
1
10
20.4471597108834
20
-0.152079715886202
30
0
41
1
10
20.5690114865687
20
-0.235058738917132
30
0
0
SPLINE
5
139
100
AcDbEntity
8
1
62
256
6
ByLayer
370
18
48
1
60
0
100
AcDbSpline
70
4
71
3
72
16
73
12
40
0
40
0
40
0
40
0
40
0.250000000000023
40
0.250000000000023
40
0.375000000000001
40
0.375000000000001
40
0.499999999999979
40
0.499999999999979
40
0.74999999999999
40
0.74999999999999
40
1
40
1
40
1
40
1
41
1
10
19.8382959395021
20
0.246960489250284
30
0
41
1
10
19.822978678325
20
0.256719386931223
30
0
41
1
10
19.8085710953764
20
0.267076908466748
30
0
41
1
10
19.7884627563597
20
0.283575856320795
30
0
41
1
10
19.7820115923439
20
0.289236701529262
30
0
41
1
10
19.76965250256
20
0.300902865283661
30
0
41
1
10
19.7637237621652
20
0.306935469658185
30
0
41
1
10
19.7471854312896
20
0.32518534662043
30
0
41
1
10
19.7376974393887
20
0.337651385949982
30
0
41
1
10
19.7219197007576
20
0.363194748163011
30
0
41
1
10
19.7156197383595
20
0.376364662187655
30
0
41
1
10
19.7112003393411
20
0.389438623458801
30
0
0
SPLINE
5
13A
100
AcDbEntity
8
1
62
256
6
ByLayer
370
13
48
1
60
0
100
AcDbSpline
70
4
71
3
72
12
73
8
40
0
40
0
40
0
40
0
40
0.0697701832356041
40
0.317533219933128
40
0.565296256630652
40
0.813059293328176
40
1
40
1
40
1
40
1
41
1
10
19.7112003393411
20
0.389438623458801
30
0
41
1
10
19.6408002262274
20
0.417191373948754
30
0
41
1
10
19.3204001131137
20
0.54278977865178
30
0
41
1
10
18.75
20
0.759263044782756
30
0
41
1
10
18
20
1.02147973178822
30
0
41
1
10
17.311371472957
20
1.23708622154447
30
0
41
1
10
16.872742945914
20
1.35582455304532
30
0
41
1
10
16.684114418871
20
1.40301979841894
30
0
0
SPLINE
5
13B
100
AcDbEntity
8
1
62
256
6
ByLayer
370
18
48
1
60
0
100
AcDbSpline
70
4
71
3
72
8
73
4
40
0
40
0
40
0
40
0
40
1
40
1
40
1
40
1
41
1
10
16.6841142732689
20
1.40301983484892
30
0
41
1
10
16.6725663935037
20
1.4059091379921
30
0
41
1
10
16.6610185137386
20
1.40878394727079
30
0
41
1
10
16.6494706339734
20
1.41164416438218
30
0
0
SPLINE
5
13C
100
AcDbEntity
8
1
62
256
6
ByLayer
370
18
48
1
60
0
100
AcDbSpline
70
4
71
3
72
14
73
10
40
0
40
0
40
0
40
0
40
0.183072243914663
40
0.320549873110713
40
0.458027502306763
40
0.595505131502813
40
0.801721575296888
40
0.939199204492938
40
1
40
1
40
1
40
1
41
1
10
20.4987383673906
20
-1.11762468175465
30
0
41
1
10
20.1658255782604
20
-0.925405859591791
30
0
41
1
10
19.5829127891302
20
-0.569831519226483
30
0
41
1
10
18.75
20
-0.0401446962513035
30
0
41
1
10
18
20
0.439565985481153
30
0
41
0.999999999999999
10
17.125
20
0.980528028201662
30
0
41
1
10
16.25
20
1.47905004161532
30
0
41
1
10
15.5144351105293
20
1.83574467497567
30
0
41
1
10
15.1538702210585
20
1.9887826608043
30
0
41
1
10
15.0433053315877
20
2.03352686579532
30
0
0
SPLINE
5
13D
100
AcDbEntity
8
1
62
256
6
ByLayer
370
18
48
1
60
0
100
AcDbSpline
70
4
71
3
72
8
73
4
40
0
40
0
40
0
40
0
40
1
40
1
40
1
40
1
41
1
10
20.4994753369147
20
-2.58690131171767
30
0
41
1
10
20.5016132706904
20
-2.58542418998624
30
0
41
1
10
20.5047563776969
20
-2.58270550370528
30
0
41
1
10
20.5088565856722
20
-2.57892466310514
30
0
0
SPLINE
5
13E
100
AcDbEntity
8
1
62
256
6
ByLayer
370
18
48
1
60
0
100
AcDbSpline
70
4
71
3
72
22
73
18
40
0
40
0
40
0
40
0
40
0.0239486655336413
40
0.095945759003372
40
0.167942852473103
40
0.239939945942833
40
0.311937039412564
40
0.383934132882295
40
0.455931226352025
40
0.527928319821756
40
0.599925413291487
40
0.671922506761218
40
0.743919600230948
40
0.815916693700679
40
0.88791378717041
40
0.959910880640141
40
1
40
1
40
1
40
1
41
1
10
20.4994753369146
20
-2.5869013117225
30
0
41
1
10
20.4163168912764
20
-2.59706801520804
30
0
41
1
10
20.0831584456382
20
-2.6307615747659
30
0
41
1
10
19.5
20
-2.63935559801985
30
0
41
1
10
18.75
20
-2.55444557795869
30
0
41
1
10
18
20
-2.3751146535057
30
0
41
1
10
17.25
20
-2.10864415128083
30
0
41
1
10
16.5
20
-1.76470419161595
30
0
41
1
10
15.75
20
-1.35709716015313
30
0
41
1
10
15
20
-0.899876483722238
30
0
41
1
10
14.25
20
-0.408653877714358
30
0
41
1
10
13.5
20
0.0986358709818375
30
0
41
1
10
12.75
20
0.601833564723393
30
0
41
1
10
12
20
1.08133988083338
30
0
41
1
10
11.25
20
1.52168982217853
30
0
41
1
10
10.6107960494381
20
1.85015449040247
30
0
41
1
10
10.2215920988761
20
2.02173287171513
30
0
41
1
10
10.0823881483142
20
2.07915334762507
30
0
0
SPLINE
5
13F
100
AcDbEntity
8
1
62
256
6
ByLayer
370
18
48
1
60
0
100
AcDbSpline
70
4
71
3
72
27
73
23
40
0
40
0
40
0
40
0
40
0.125000000000002
40
0.125000000000002
40
0.250000000000004
40
0.250000000000004
40
0.312500000000003
40
0.312500000000003
40
0.375000000000002
40
0.375000000000002
40
0.499999999999999
40
0.499999999999999
40
0.562499999999997
40
0.562499999999997
40
0.624999999999995
40
0.624999999999995
40
0.750000000000001
40
0.875000000000007
40
0.875000000000007
40
0.937500000000004
40
0.937500000000004
40
1
40
1
40
1
40
1
41
1
10
20.9728487033786
20
0.864459516582144
30
0
41
1
10
20.9741681023025
20
0.888393130119738
30
0
41
1
10
20.9718891287824
20
0.912348033317528
30
0
41
1
10
20.9607130367022
20
0.960296995760814
30
0
41
1
10
20.9518096030635
20
0.984291092370455
30
0
41
1
10
20.9335151265556
20
1.0203114606544
30
0
41
1
10
20.9265784225836
20
1.03234160274201
30
0
41
1
10
20.9110661567579
20
1.05633325611964
30
0
41
1
10
20.9025558732916
20
1.06819794042866
30
0
41
1
10
20.8748273377133
20
1.10340982872947
30
0
41
1
10
20.8534232460801
20
1.1263769279858
30
0
41
1
10
20.8169752296158
20
1.16007254945032
30
0
41
1
10
20.8040992789485
20
1.17117806971254
30
0
41
1
10
20.7768635992676
20
1.19313108984241
30
0
41
1
10
20.7624601177757
20
1.20400926253282
30
0
41
1
10
20.7172429311142
20
1.23602849771026
30
0
41
1
10
20.6522697403628
20
1.27666203498691
30
0
41
1
10
20.5780658680126
20
1.31323803664739
30
0
41
1
10
20.518767507003
20
1.33906760253311
30
0
41
1
10
20.4983427157579
20
1.34742776828685
30
0
41
1
10
20.4564242527156
20
1.36350066897845
30
0
41
1
10
20.4350650230385
20
1.37116428710615
30
0
41
1
10
20.4133052007654
20
1.37845451894711
30
0
0
SPLINE
5
140
100
AcDbEntity
8
1
62
256
6
ByLayer
370
18
48
1
60
0
100
AcDbSpline
70
4
71
3
72
33
73
29
40
0
40
0
40
0
40
0
40
0.125000000000012
40
0.125000000000012
40
0.156250000000013
40
0.156250000000013
40
0.187500000000014
40
0.187500000000014
40
0.250000000000017
40
0.31250000000002
40
0.31250000000002
40
0.343750000000021
40
0.343750000000021
40
0.375000000000023
40
0.375000000000023
40
0.500000000000035
40
0.500000000000035
40
0.531250000000032
40
0.531250000000032
40
0.56250000000003
40
0.625000000000025
40
0.687500000000021
40
0.687500000000021
40
0.750000000000017
40
0.750000000000017
40
0.875000000000009
40
0.875000000000009
40
1
40
1
40
1
40
1
41
1
10
20.4685843163742
20
1.29919481737261
30
0
41
1
10
20.484510189619
20
1.27768413650685
30
0
41
1
10
20.4968483545707
20
1.25604220478456
30
0
41
1
10
20.5065162126891
20
1.22877926380079
30
0
41
1
10
20.5081588865791
20
1.22331603372444
30
0
41
1
10
20.5108158132813
20
1.21236658411158
30
0
41
1
10
20.5118317550787
20
1.20686145565489
30
0
41
1
10
20.5138385908308
20
1.19047151755427
30
0
41
1
10
20.5137600500971
20
1.16897551451333
30
0
41
1
10
20.5078630766754
20
1.14823418802894
30
0
41
1
10
20.5011108229153
20
1.13298034273302
30
0
41
1
10
20.4984714817128
20
1.12794612947633
30
0
41
1
10
20.4923867672846
20
1.11798224889554
30
0
41
1
10
20.488927507218
20
1.11303950483062
30
0
41
1
10
20.4698984577063
20
1.08900989254039
30
0
41
1
10
20.4490011146952
20
1.07165426309868
30
0
41
1
10
20.4167681845117
20
1.05197170702826
30
0
41
1
10
20.4099971665561
20
1.04812815838045
30
0
41
1
10
20.3960419443592
20
1.04072671568414
30
0
41
1
10
20.374439597589
20
1.03001975628604
30
0
41
1
10
20.3353819302698
20
1.01397741437344
30
0
41
1
10
20.3013620894629
20
1.00278082211688
30
0
41
1
10
20.2661422078815
20
0.992292597515132
30
0
41
1
10
20.2478651436165
20
0.987387903050234
30
0
41
1
10
20.1921001385997
20
0.973755976221099
30
0
41
1
10
20.1536373691914
20
0.96606363731081
30
0
41
1
10
20.074874089009
20
0.952673186745869
30
0
41
1
10
20.0345667161781
20
0.946982521457159
30
0
41
1
10
19.9935543040709
20
0.942056930391118
30
0
0
SPLINE
5
141
100
AcDbEntity
8
1
62
256
6
ByLayer
370
18
48
1
60
0
100
AcDbSpline
70
4
71
3
72
20
73
16
40
0
40
0
40
0
40
0
40
0.250000000000006
40
0.250000000000006
40
0.37500000000001
40
0.37500000000001
40
0.437500000000013
40
0.437500000000013
40
0.500000000000017
40
0.500000000000017
40
0.750000000000008
40
0.750000000000008
40
0.875000000000004
40
0.875000000000004
40
1
40
1
40
1
40
1
41
1
10
20.6350020806211
20
-0.605790055113545
30
0
41
1
10
20.6400403929012
20
-0.651921611408255
30
0
41
1
10
20.6413103786211
20
-0.697974248771772
30
0
41
1
10
20.6375072186206
20
-0.766769780026721
30
0
41
1
10
20.635275055057
20
-0.789652699086446
30
0
41
1
10
20.6303335262179
20
-0.823861948573096
30
0
41
1
10
20.6284174975071
20
-0.835246999114048
30
0
41
1
10
20.6240605441526
20
-0.857756140927933
30
0
41
1
10
20.6216182183244
20
-0.868907267899857
30
0
41
1
10
20.6080819846123
20
-0.924127314557467
30
0
41
1
10
20.5931030761327
20
-0.966633650888923
30
0
41
1
10
20.5633192242755
20
-1.02705782812379
30
0
41
1
10
20.5521061532957
20
-1.04668120144333
30
0
41
1
10
20.5273288179388
20
-1.0837394352377
30
0
41
1
10
20.5137273267241
20
-1.10127262378265
30
0
41
1
10
20.4987383673906
20
-1.11762468175465
30
0
0
SPLINE
5
142
100
AcDbEntity
8
1
62
256
6
ByLayer
370
18
48
1
60
0
100
AcDbSpline
70
4
71
3
72
8
73
4
40
0
40
0
40
0
40
0
40
1
40
1
40
1
40
1
41
1
10
20.4987383673906
20
-1.11762468175462
30
0
41
1
10
20.5007384125708
20
-1.13697015176152
30
0
41
1
10
20.5034118173272
20
-1.15599059339135
30
0
41
1
10
20.506727117563
20
-1.1746414481839
30
0
0
SPLINE
5
143
100
AcDbEntity
8
1
62
256
6
ByLayer
370
18
48
1
60
0
100
AcDbSpline
70
4
71
3
72
40
73
36
40
0
40
0
40
0
40
0
40
0.0225655766037822
40
0.045229686218021
40
0.0679885607166837
40
0.0908384626926816
40
0.113775667095251
40
0.136796431905647
40
0.159896977882526
40
0.183073477546709
40
0.20632205394315
40
0.229638789259144
40
0.253019739146468
40
0.327344562711713
40
0.403609756081831
40
0.481669642243968
40
0.561379236216754
40
0.632623572695418
40
0.707891987276798
40
0.787036908904639
40
0.869921021422184
40
0.876344667739377
40
0.883213943287091
40
0.890527857514993
40
0.898285367643148
40
0.9064853824452
40
0.915126766297666
40
0.924208343542125
40
0.933728903200316
40
0.943687204074788
40
0.954081980261114
40
0.964911947088796
40
0.976175807496787
40
0.987872258835248
40
1
40
1
40
1
40
1
41
1
10
20.9206877062658
20
-1.13942824411254
30
0
41
1
10
20.920163658206
20
-1.14616787599226
30
0
41
1
10
20.9191132738208
20
-1.15967656847982
30
0
41
1
10
20.9164785536057
20
-1.17978434705142
30
0
41
1
10
20.9130609518705
20
-1.19980915753314
30
0
41
1
10
20.9087807542261
20
-1.21971636489874
30
0
41
1
10
20.9036566865292
20
-1.23948829509379
30
0
41
1
10
20.8976825036907
20
-1.25910309855505
30
0
41
1
10
20.8908601862738
20
-1.27854043082439
30
0
41
1
10
20.8831908774876
20
-1.29777996055409
30
0
41
1
10
20.8746773425015
20
-1.31680158650326
30
0
41
1
10
20.8653227944616
20
-1.33558602586095
30
0
41
1
10
20.8477400741714
20
-1.36755234052467
30
0
41
1
10
20.8182941299051
20
-1.41185774516484
30
0
41
1
10
20.7715114520463
20
-1.46617989631002
30
0
41
1
10
20.7155407123357
20
-1.51719101123237
30
0
41
1
10
20.6531336007411
20
-1.56202907999747
30
0
41
1
10
20.5847795743633
20
-1.60111592659601
30
0
41
1
10
20.5105484528016
20
-1.63463228103691
30
0
41
1
10
20.4264276023757
20
-1.66334617153404
30
0
41
1
10
20.3627178961568
20
-1.6785690315277
30
0
41
1
10
20.3253375408257
20
-1.68557263254328
30
0
41
1
10
20.3172955229229
20
-1.68702424504355
30
0
41
1
10
20.3086966844664
20
-1.68851020650902
30
0
41
1
10
20.2995361718367
20
-1.69001801567015
30
0
41
1
10
20.2898092559784
20
-1.69153372168699
30
0
41
1
10
20.2795112018435
20
-1.69304281070978
30
0
41
1
10
20.268637376054
20
-1.69452996618099
30
0
41
1
10
20.2571832782878
20
-1.69597913166561
30
0
41
1
10
20.2451446395456
20
-1.69737360485689
30
0
41
1
10
20.2325173406074
20
-1.69869565903392
30
0
41
1
10
20.219298038616
20
-1.6999281601646
30
0
41
1
10
20.2054820023367
20
-1.70104824566363
30
0
41
1
10
20.1910720090842
20
-1.70205245247291
30
0
41
1
10
20.1812308472339
20
-1.70257972626382
30
0
41
1
10
20.1762211889353
20
-1.70284813578317
30
0
0
SPLINE
5
144
100
AcDbEntity
8
1
62
256
6
ByLayer
370
18
48
1
60
0
100
AcDbSpline
70
4
71
3
72
8
73
4
40
0
40
0
40
0
40
0
40
1
40
1
40
1
40
1
41
1
10
20.6352341305609
20
-0.60446035935496
30
0
41
1
10
20.7303805302431
20
-0.782966245710128
30
0
41
1
10
20.8255205528432
20
-0.9612653425622
30
0
41
1
10
20.9206562628391
20
-1.13942905908144
30
0
0
SPLINE
5
145
100
AcDbEntity
8
1
62
256
6
ByLayer
370
18
48
1
60
0
100
AcDbSpline
70
4
71
3
72
20
73
16
40
0
40
0
40
0
40
0
40
0.124999999999999
40
0.124999999999999
40
0.249999999999999
40
0.249999999999999
40
0.374999999999998
40
0.374999999999998
40
0.499999999999998
40
0.499999999999998
40
0.624999999999997
40
0.624999999999997
40
0.749999999999996
40
0.749999999999996
40
1
40
1
40
1
40
1
41
1
10
20.506727117563
20
-1.17464144818393
30
0
41
1
10
20.5076119812179
20
-1.17960924872744
30
0
41
1
10
20.5082674468037
20
-1.18466612203605
30
0
41
1
10
20.5089906072107
20
-1.19500456054024
30
0
41
1
10
20.5090568325952
20
-1.20033578426785
30
0
41
1
10
20.5083882150654
20
-1.21104675722219
30
0
41
1
10
20.5076630575327
20
-1.21638859152205
30
0
41
1
10
20.5051950103865
20
-1.22703318314186
30
0
41
1
10
20.5034607180015
20
-1.23222813716194
30
0
41
1
10
20.4989989378881
20
-1.24193801037245
30
0
41
1
10
20.4962393042412
20
-1.24649461033076
30
0
41
1
10
20.4900558315519
20
-1.25449968237189
30
0
41
1
10
20.4865577617061
20
-1.25805470305181
30
0
41
1
10
20.4756159232908
20
-1.26708393858576
30
0
41
1
10
20.4675424394683
20
-1.27118997393598
30
0
41
1
10
20.4592858024829
20
-1.2740146931263
30
0
0
SPLINE
5
146
100
AcDbEntity
8
1
62
256
6
ByLayer
370
13
48
1
60
0
100
AcDbSpline
70
4
71
3
72
13
73
9
40
0
40
0
40
0
40
0
40
0.196655758206635
40
0.343162012068169
40
0.489668265929702
40
0.636174519791236
40
0.855933900583536
40
1
40
1
40
1
40
1
41
1
10
20.506727117563
20
-1.1746414481839
30
0
41
1
10
20.1711514117086
20
-0.982601183760295
30
0
41
1
10
19.5855757058543
20
-0.627166205242361
30
0
41
1
10
18.75
20
-0.0969652482340848
30
0
41
1
10
18
20
0.3858723740681
30
0
41
0.999999999999999
10
17.125
20
0.929267198393291
30
0
41
1
10
16.2541639083328
20
1.4320804344735
30
0
41
1
10
15.6333278166657
20
1.74014285096806
30
0
41
1
10
15.3874917249985
20
1.85201525920687
30
0
0
SPLINE
5
147
100
AcDbEntity
8
1
62
256
6
ByLayer
370
18
48
1
60
0
100
AcDbSpline
70
4
71
3
72
14
73
10
40
0
40
0
40
0
40
0
40
0.16573969998219
40
0.16573969998219
40
0.37430477498669
40
0.37430477498669
40
0.58286984999119
40
0.58286984999119
40
1
40
1
40
1
40
1
41
1
10
20.5080285940267
20
-2.58062389259118
30
0
41
1
10
20.5069456377525
20
-2.58176882595916
30
0
41
1
10
20.5055508037802
20
-2.58321077291262
30
0
41
1
10
20.5017007603645
20
-2.58710308065884
30
0
41
1
10
20.4990237322683
20
-2.58975712364966
30
0
41
1
10
20.4929984880777
20
-2.59560802165152
30
0
41
1
10
20.4895753884485
20
-2.59887729723087
30
0
41
1
10
20.4788511235146
20
-2.60894986508973
30
0
41
1
10
20.4709237724699
20
-2.61618107351163
30
0
41
1
10
20.4628314445486
20
-2.62336798333453
30
0
0
SPLINE
5
148
100
AcDbEntity
8
1
62
256
6
ByLayer
370
13
48
1
60
0
100
AcDbSpline
70
4
71
3
72
20
73
16
40
0
40
0
40
0
40
0
40
0.0495214733838172
40
0.128831971080521
40
0.208142468777225
40
0.287452966473929
40
0.366763464170633
40
0.446073961867337
40
0.525384459564041
40
0.604694957260746
40
0.68400545495745
40
0.763315952654154
40
0.842626450350858
40
0.921936948047562
40
1
40
1
40
1
40
1
41
1
10
19.9682999869689
20
-2.63056348785446
30
0
41
1
10
19.8121999913125
20
-2.63823134698444
30
0
41
1
10
19.4060999956563
20
-2.64177631445057
30
0
41
1
10
18.75
20
-2.57790367882146
30
0
41
1
10
17.9999999999999
20
-2.4111678721261
30
0
41
1
10
17.2499999999999
20
-2.15690691503821
30
0
41
1
10
16.4999999999999
20
-1.82207582144113
30
0
41
1
10
15.75
20
-1.41946127152335
30
0
41
1
10
15
20
-0.96614570422409
30
0
41
1
10
14.25
20
-0.479413477268849
30
0
41
1
10
13.4999999999999
20
0.0273401869587815
30
0
41
1
10
12.7499999999999
20
0.534888694180211
30
0
41
1
10
12
20
1.0204477896915
30
0
41
1
10
11.2539321583538
20
1.46503024624269
30
0
41
1
10
10.7578643167077
20
1.72679786125903
30
0
41
1
10
10.5117964750615
20
1.84563810396668
30
0
0
SPLINE
5
149
100
AcDbEntity
8
1
62
256
6
ByLayer
370
18
48
1
60
0
100
AcDbSpline
70
4
71
3
72
10
73
6
40
0
40
0
40
0
40
0
40
0.5
40
0.5
40
1
40
1
40
1
40
1
41
1
10
20.1845589502189
20
1.53165306879171
30
0
41
1
10
20.2230401204776
20
1.50738003538498
30
0
41
1
10
20.2613049344805
20
1.48245115500859
30
0
41
1
10
20.3375165540932
20
1.43136759622203
30
0
41
1
10
20.3754630672015
20
1.40521355512578
30
0
41
1
10
20.4133052007651
20
1.37845451895055
30
0
0
SPLINE
5
14A
100
AcDbEntity
8
1
62
256
6
ByLayer
370
13
48
1
60
0
100
AcDbSpline
70
4
71
3
72
15
73
11
40
0
40
0
40
0
40
0
40
0.146580279640089
40
0.260081198186514
40
0.373582116732938
40
0.487083035279362
40
0.657334413098999
40
0.770835331645424
40
0.94108670946506
40
1
40
1
40
1
40
1
41
1
10
20.4685843175366
20
1.29919481895936
30
0
41
1
10
20.1457228783577
20
1.48179050256036
30
0
41
1
10
19.5728614391788
20
1.7867307718769
30
0
41
1
10
18.75
20
2.15878347410583
30
0
41
1
10
18
20
2.4345738245126
30
0
41
0.999999999999999
10
17.125
20
2.66956308537164
30
0
41
1
10
16.25
20
2.79241595741925
30
0
41
1
10
15.25
20
2.79958312105438
30
0
41
1
10
14.4952360930435
20
2.69723606120027
30
0
41
1
10
13.990472186087
20
2.57578842700767
30
0
41
1
10
13.8607082791305
20
2.54124821015577
30
0
0
SPLINE
5
14B
100
AcDbEntity
8
1
62
256
6
ByLayer
370
18
48
1
60
0
100
AcDbSpline
70
4
71
3
72
8
73
4
40
0
40
0
40
0
40
0
40
1
40
1
40
1
40
1
41
1
10
20.4133052007721
20
1.37845451894719
30
0
41
1
10
20.4307191115297
20
1.35194113260769
30
0
41
1
10
20.4490943845343
20
1.32551651307932
30
0
41
1
10
20.4685843243949
20
1.29919481589565
30
0
0
SPLINE
5
14C
100
AcDbEntity
8
1
62
256
6
ByLayer
370
18
48
1
60
0
100
AcDbSpline
70
4
71
3
72
8
73
4
40
0
40
0
40
0
40
0
40
1
40
1
40
1
40
1
41
1
10
19.9866875780417
20
1.67186285413587
30
0
41
1
10
20.0225626349337
20
1.65140504864669
30
0
41
1
10
20.0585249309835
20
1.63072965940901
30
0
41
1
10
20.0945767256358
20
1.60983874388694
30
0
0
SPLINE
5
14D
100
AcDbEntity
8
1
62
256
6
ByLayer
370
18
48
1
60
0
100
AcDbSpline
70
4
71
3
72
8
73
4
40
0
40
0
40
0
40
0
40
1
40
1
40
1
40
1
41
1
10
19.9866875780417
20
1.67186285413587
30
0
41
1
10
19.9822080820795
20
1.67345788835229
30
0
41
1
10
19.9776696405618
20
1.67492619836005
30
0
41
1
10
19.9730607983033
20
1.67624428551801
30
0
0
SPLINE
5
14E
100
AcDbEntity
8
1
62
256
6
ByLayer
370
18
48
1
60
0
100
AcDbSpline
70
4
71
3
72
8
73
4
40
0
40
0
40
0
40
0
40
1
40
1
40
1
40
1
41
1
10
19.9730607983031
20
1.67624428551784
30
0
41
1
10
19.9609444692225
20
1.67970944593495
30
0
41
1
10
19.9488097917366
20
1.68313100722207
30
0
41
1
10
19.9366541108175
20
1.68650113714327
30
0
0
SPLINE
5
14F
100
AcDbEntity
8
1
62
256
6
ByLayer
370
13
48
1
60
0
100
AcDbSpline
70
4
71
3
72
13
73
9
40
0
40
0
40
0
40
0
40
0.308455121495402
40
0.462682682243103
40
0.616910242990805
40
0.771137803738506
40
0.925365364486207
40
1
40
1
40
1
40
1
41
1
10
9
20
0.757957981168346
30
0
41
1
10
9.5
20
0.558156193736608
30
0
41
1
10
10.25
20
0.230773267696179
30
0
41
1
10
11.25
20
-0.217891864768461
30
0
41
1
10
12
20
-0.545524703976355
30
0
41
1
10
12.75
20
-0.850865871226659
30
0
41
1
10
13.3709813524119
20
-1.07940178998723
30
0
41
1
10
13.7419627048238
20
-1.20117039263852
30
0
41
1
10
13.8629440572357
20
-1.2391066670416
30
0
0
SPLINE
5
150
100
AcDbEntity
8
1
62
256
6
ByLayer
370
13
48
1
60
0
100
AcDbSpline
70
4
71
3
72
18
73
14
40
0
40
0
40
0
40
0
40
0.0627282313003609
40
0.164405992361277
40
0.266083753422192
40
0.367761514483108
40
0.469439275544023
40
0.571117036604939
40
0.672794797665855
40
0.77447255872677
40
0.876150319787686
40
0.977828080848602
40
1
40
1
40
1
40
1
41
1
10
11.5373012447916
20
1.46366906450686
30
0
41
1
10
11.6915341631944
20
1.42847696801729
30
0
41
1
10
12.0957670815972
20
1.3283101552139
30
0
41
1
10
12.75
20
1.13578837257063
30
0
41
1
10
13.5
20
0.876969513743517
30
0
41
1
10
14.25
20
0.587948893187502
30
0
41
1
10
15
20
0.279984343736743
30
0
41
1
10
15.75
20
-0.0349064285368001
30
0
41
1
10
16.5
20
-0.349988771614193
30
0
41
1
10
17.25
20
-0.654946899029767
30
0
41
1
10
18
20
-0.937724917339125
30
0
41
1
10
18.5545151636898
20
-1.12269810799106
30
0
41
1
10
18.8590303273797
20
-1.21492999803638
30
0
41
1
10
18.9135454910695
20
-1.23112891847464
30
0
0
SPLINE
5
151
100
AcDbEntity
8
1
62
256
6
ByLayer
370
18
48
1
60
0
100
AcDbSpline
70
4
71
3
72
27
73
23
40
0
40
0
40
0
40
0
40
0.12500000000002
40
0.12500000000002
40
0.25000000000004
40
0.25000000000004
40
0.31250000000005
40
0.31250000000005
40
0.375000000000059
40
0.437500000000069
40
0.437500000000069
40
0.500000000000079
40
0.500000000000079
40
0.625000000000059
40
0.625000000000059
40
0.750000000000038
40
0.750000000000038
40
0.812500000000029
40
0.812500000000029
40
0.87500000000002
40
0.87500000000002
40
1
40
1
40
1
40
1
41
1
10
7.13863849785835
20
0.498848988539606
30
0
41
1
10
7.15319385442021
20
0.500599154071239
30
0
41
1
10
7.16759394515364
20
0.502964819068666
30
0
41
1
10
7.19597876826799
20
0.509340746891439
30
0
41
1
10
7.20996519625785
20
0.513344376607847
30
0
41
1
10
7.23050392456449
20
0.521092582122151
30
0
41
1
10
7.23728204350863
20
0.523975806875541
30
0
41
1
10
7.25040697060055
20
0.530326945780701
30
0
41
1
10
7.26316015038603
20
0.537282859397948
30
0
41
1
10
7.27506148128339
20
0.545622412665352
30
0
41
1
10
7.28646865992837
20
0.554763128227791
30
0
41
1
10
7.29186473751741
20
0.559695328371646
30
0
41
1
10
7.30677067086492
20
0.575319023497912
30
0
41
1
10
7.31513530035539
20
0.586945106362322
30
0
41
1
10
7.32864577358512
20
0.61265612327648
30
0
41
1
10
7.33348660827656
20
0.626129138726299
30
0
41
1
10
7.33849751659588
20
0.647024416191357
30
0
41
1
10
7.33978993969649
20
0.654123476593412
30
0
41
1
10
7.34167712009193
20
0.668265357275004
30
0
41
1
10
7.34228154424633
20
0.675340787580069
30
0
41
1
10
7.34324106547845
20
0.696575050872752
30
0
41
1
10
7.34275052000211
20
0.710741586393368
30
0
41
1
10
7.34142152962301
20
0.724908644774189
30
0
0
SPLINE
5
152
100
AcDbEntity
8
1
62
256
6
ByLayer
370
18
48
1
60
0
100
AcDbSpline
70
4
71
3
72
20
73
16
40
0
40
0
40
0
40
0
40
0.250000000000013
40
0.250000000000013
40
0.375000000000023
40
0.375000000000023
40
0.500000000000033
40
0.625000000000043
40
0.625000000000043
40
0.687500000000035
40
0.687500000000035
40
0.750000000000028
40
0.875000000000014
40
0.875000000000014
40
1
40
1
40
1
40
1
41
1
10
6.619180972892
20
1.95048927905179
30
0
41
1
10
6.61206854629836
20
1.96953782215473
30
0
41
1
10
6.60751199559641
20
1.98858824774729
30
0
41
1
10
6.60563295340356
20
2.01723973994371
30
0
41
1
10
6.60585458865481
20
2.0268742047144
30
0
41
1
10
6.60815143786661
20
2.04566638320534
30
0
41
1
10
6.61227061167205
20
2.06404756446236
30
0
41
1
10
6.62013886610433
20
2.08161431242814
30
0
41
1
10
6.62750248130541
20
2.09448425283625
30
0
41
1
10
6.63020688299312
20
2.0987278487498
30
0
41
1
10
6.63600554724297
20
2.10697232936482
30
0
41
1
10
6.64531789695735
20
2.11903099874348
30
0
41
1
10
6.65638067239587
20
2.1302215049395
30
0
41
1
10
6.67255864869276
20
2.14444950107793
30
0
41
1
10
6.68139138376498
20
2.15123356417951
30
0
41
1
10
6.69076292605504
20
2.15762249891176
30
0
0
SPLINE
5
153
100
AcDbEntity
8
1
62
256
6
ByLayer
370
18
48
1
60
0
100
AcDbSpline
70
4
71
3
72
33
73
29
40
0
40
0
40
0
40
0
40
0.0625000000000168
40
0.0625000000000168
40
0.125000000000034
40
0.125000000000034
40
0.156250000000037
40
0.156250000000037
40
0.187500000000041
40
0.187500000000041
40
0.250000000000038
40
0.250000000000038
40
0.312500000000034
40
0.312500000000034
40
0.375000000000031
40
0.375000000000031
40
0.437500000000028
40
0.437500000000028
40
0.500000000000025
40
0.562500000000022
40
0.562500000000022
40
0.625000000000019
40
0.625000000000019
40
0.750000000000013
40
0.750000000000013
40
0.875000000000006
40
0.875000000000006
40
1
40
1
40
1
40
1
41
1
10
6.69076292605504
20
2.15762249891176
30
0
41
1
10
6.71887832427723
20
2.17678982896828
30
0
41
1
10
6.74968192276035
20
2.19294664509036
30
0
41
1
10
6.81492560094702
20
2.22136707829844
30
0
41
1
10
6.84939222316143
20
2.23359803979318
30
0
41
1
10
6.90320613363335
20
2.24977416408007
30
0
41
1
10
6.92154036363411
20
2.25480777357305
30
0
41
1
10
6.95849863555927
20
2.2641429497169
30
0
41
1
10
6.97715599048379
20
2.26845617213914
30
0
41
1
10
7.03359855509947
20
2.28047752801254
30
0
41
1
10
7.07185102188791
20
2.28727476109111
30
0
41
1
10
7.14937529995237
20
2.29894810756843
30
0
41
1
10
7.18841240216543
20
2.30378547490974
30
0
41
1
10
7.26684601107121
20
2.31183169326474
30
0
41
1
10
7.30626100875574
20
2.3150405297124
30
0
41
1
10
7.38543569717754
20
2.32007054624884
30
0
41
1
10
7.42524708954855
20
2.32189151982416
30
0
41
1
10
7.50489916661439
20
2.32429043961335
30
0
41
1
10
7.58455008614044
20
2.32544907286862
30
0
41
1
10
7.66419890967867
20
2.32437100572832
30
0
41
1
10
7.74384676328017
20
2.32225385265252
30
0
41
1
10
7.78368000550935
20
2.32067399154593
30
0
41
1
10
7.90279688278108
20
2.31447349753196
30
0
41
1
10
7.98182936148882
20
2.30839814663804
30
0
41
1
10
8.13921394334076
20
2.2926029551638
30
0
41
1
10
8.21726196210145
20
2.28290914885699
30
0
41
1
10
8.3720625450899
20
2.26004474958089
30
0
41
1
10
8.44883585552861
20
2.24686955854315
30
0
41
1
10
8.52502631651871
20
2.23193489233776
30
0
0
SPLINE
5
154
100
AcDbEntity
8
1
62
256
6
ByLayer
370
18
48
1
60
0
100
AcDbSpline
70
4
71
3
72
10
73
6
40
0
40
0
40
0
40
0
40
0.5
40
0.5
40
1
40
1
40
1
40
1
41
1
10
7.27389306588535
20
2.87993691123313
30
0
41
1
10
7.28709251896126
20
2.87992544087157
30
0
41
1
10
7.30014326124589
20
2.8799088421369
30
0
41
1
10
7.32585223085795
20
2.87985203357843
30
0
41
1
10
7.33851181939474
20
2.87981228403561
30
0
41
1
10
7.35089885334415
20
2.87974596687223
30
0
0
SPLINE
5
155
100
AcDbEntity
8
1
62
256
6
ByLayer
370
18
48
1
60
0
100
AcDbSpline
70
4
71
3
72
24
73
20
40
0
40
0
40
0
40
0
40
0.249999999999969
40
0.249999999999969
40
0.499999999999939
40
0.499999999999939
40
0.624999999999954
40
0.624999999999954
40
0.74999999999997
40
0.74999999999997
40
0.812499999999978
40
0.812499999999978
40
0.843749999999981
40
0.843749999999981
40
0.874999999999985
40
0.874999999999985
40
0.937499999999993
40
0.937499999999993
40
1
40
1
40
1
40
1
41
1
10
7.27555596527515
20
-2.49816654591359
30
0
41
1
10
7.26314840802721
20
-2.49228302366924
30
0
41
1
10
7.25103604181842
20
-2.48619568168169
30
0
41
1
10
7.22778964294653
20
-2.47340024461815
30
0
41
1
10
7.21660867199412
20
-2.46669749304971
30
0
41
1
10
7.20160809537526
20
-2.45591845899733
30
0
41
1
10
7.19689666062482
20
-2.4522005459834
30
0
41
1
10
7.18855838301815
20
-2.4443199776068
30
0
41
1
10
7.18483792717302
20
-2.44012617422058
30
0
41
1
10
7.18160350793895
20
-2.43341440479159
30
0
41
1
10
7.18093910489904
20
-2.43114202858337
30
0
41
1
10
7.18110515413815
20
-2.42764345390447
30
0
41
1
10
7.18136395325618
20
-2.42647955981269
30
0
41
1
10
7.18238913179729
20
-2.42421862872916
30
0
41
1
10
7.18317449609759
20
-2.42310292876834
30
0
41
1
10
7.18628345712054
20
-2.42004475788716
30
0
41
1
10
7.18944692810442
20
-2.41833676601658
30
0
41
1
10
7.19678649411969
20
-2.41579003643489
30
0
41
1
10
7.20082039367384
20
-2.41493559867072
30
0
41
1
10
7.20501310371503
20
-2.41431494205108
30
0
0
SPLINE
5
156
100
AcDbEntity
8
1
62
256
6
ByLayer
370
18
48
1
60
0
100
AcDbSpline
70
4
71
3
72
12
73
8
40
0
40
0
40
0
40
0
40
0.500000000000151
40
0.500000000000151
40
0.750000000000075
40
0.750000000000075
40
1
40
1
40
1
40
1
41
1
10
7.20501310371503
20
-2.41431494205108
30
0
41
1
10
7.21500340726769
20
-2.41283605417877
30
0
41
1
10
7.22464708490662
20
-2.41090310792953
30
0
41
1
10
7.23831417384346
20
-2.40694338566467
30
0
41
1
10
7.24275409593875
20
-2.40543301642575
30
0
41
1
10
7.25104619003227
20
-2.40205186962925
30
0
41
1
10
7.25492582713136
20
-2.40017539968892
30
0
41
1
10
7.25849587906748
20
-2.39808029268184
30
0
0
SPLINE
5
157
100
AcDbEntity
8
1
62
256
6
ByLayer
370
18
48
1
60
0
100
AcDbSpline
70
4
71
3
72
17
73
13
40
0
40
0
40
0
40
0
40
0.250000000000005
40
0.250000000000005
40
0.500000000000011
40
0.500000000000011
40
0.562500000000011
40
0.562500000000011
40
0.625000000000011
40
0.750000000000006
40
0.750000000000006
40
1
40
1
40
1
40
1
41
1
10
7.25849587905012
20
-2.39808029267945
30
0
41
1
10
7.16116561135661
20
-2.3369219507162
30
0
41
1
10
7.06989626128356
20
-2.2686000062028
30
0
41
1
10
6.89974379938153
20
-2.11548334615568
30
0
41
1
10
6.82085599863547
20
-2.03070154433007
30
0
41
1
10
6.73007967657077
20
-1.91269389498223
30
0
41
1
10
6.71229137275856
20
-1.88845302451133
30
0
41
1
10
6.67761268123655
20
-1.83887050932745
30
0
41
1
10
6.6271085333868
20
-1.76309388773856
30
0
41
1
10
6.58102237660682
20
-1.68307471390676
30
0
41
1
10
6.49444962078053
20
-1.51724405149236
30
0
41
1
10
6.44417622290479
20
-1.39899746382571
30
0
41
1
10
6.40080071773895
20
-1.27241705926895
30
0
0
SPLINE
5
158
100
AcDbEntity
8
1
62
256
6
ByLayer
370
18
48
1
60
0
100
AcDbSpline
70
4
71
3
72
16
73
12
40
0
40
0
40
0
40
0
40
0.249999999999975
40
0.249999999999975
40
0.49999999999995
40
0.49999999999995
40
0.624999999999939
40
0.624999999999939
40
0.749999999999928
40
0.749999999999928
40
1
40
1
40
1
40
1
41
1
10
6.40080071773895
20
-1.27241705926897
30
0
41
1
10
6.39692214205058
20
-1.26109842037681
30
0
41
1
10
6.39446211446855
20
-1.24952208853907
30
0
41
1
10
6.39384937097762
20
-1.22563328395754
30
0
41
1
10
6.3957369290861
20
-1.21397536929211
30
0
41
1
10
6.40273084306787
20
-1.19705825288139
30
0
41
1
10
6.40568002077049
20
-1.1917259279038
30
0
41
1
10
6.4126954364886
20
-1.1816932317123
30
0
41
1
10
6.4168120652003
20
-1.17694099535436
30
0
41
1
10
6.43043245196029
20
-1.16387096333685
30
0
41
1
10
6.44096834387079
20
-1.15683010850955
30
0
41
1
10
6.45251134150567
20
-1.1509555000703
30
0
0
SPLINE
5
159
100
AcDbEntity
8
1
62
256
6
ByLayer
370
18
48
1
60
0
100
AcDbSpline
70
4
71
3
72
32
73
28
40
0
40
0
40
0
40
0
40
0.0624999999999894
40
0.0624999999999894
40
0.124999999999979
40
0.124999999999979
40
0.156249999999978
40
0.156249999999978
40
0.187499999999977
40
0.187499999999977
40
0.249999999999976
40
0.249999999999976
40
0.312499999999975
40
0.312499999999975
40
0.374999999999974
40
0.374999999999974
40
0.437499999999973
40
0.437499999999973
40
0.499999999999972
40
0.499999999999972
40
0.624999999999979
40
0.624999999999979
40
0.749999999999986
40
0.749999999999986
40
0.874999999999993
40
0.874999999999993
40
1
40
1
40
1
40
1
41
1
10
6.45251134150564
20
-1.15095550007027
30
0
41
1
10
6.49215581431037
20
-1.13077913324801
30
0
41
1
10
6.53313517580702
20
-1.11453330807669
30
0
41
1
10
6.61684162913889
20
-1.08727196659027
30
0
41
1
10
6.65958483105155
20
-1.07630201774003
30
0
41
1
10
6.72470582347054
20
-1.0628930076233
30
0
41
1
10
6.74658282471933
20
-1.05893752935273
30
0
41
1
10
6.79064232160746
20
-1.0519549614944
30
0
41
1
10
6.8128636560092
20
-1.04892400730623
30
0
41
1
10
6.87962719079997
20
-1.04114429513248
30
0
41
1
10
6.92422410211154
20
-1.03769641853077
30
0
41
1
10
7.01356240676714
20
-1.03367117913507
30
0
41
1
10
7.05830403745489
20
-1.03309828770514
30
0
41
1
10
7.14791255804801
20
-1.03444273143347
30
0
41
1
10
7.19274718237889
20
-1.03636484782356
30
0
41
1
10
7.2820758150643
20
-1.04238648482539
30
0
41
1
10
7.3266292223106
20
-1.04648769695072
30
0
41
1
10
7.41553655293384
20
-1.05664012745277
30
0
41
1
10
7.45992499975941
20
-1.06269812679551
30
0
41
1
10
7.59249621562824
20
-1.08348284558997
30
0
41
1
10
7.68010339791059
20
-1.10080236223652
30
0
41
1
10
7.85399382762461
20
-1.14120558907376
30
0
41
1
10
7.93999058756944
20
-1.16423008567767
30
0
41
1
10
8.11025289280374
20
-1.21495130405626
30
0
41
1
10
8.19458789249518
20
-1.24267862771711
30
0
41
1
10
8.36119669408123
20
-1.3018117048519
30
0
41
1
10
8.44353300026521
20
-1.33323490303414
30
0
41
1
10
8.52502631651848
20
-1.3661348142036
30
0
0
SPLINE
5
15A
100
AcDbEntity
8
1
62
256
6
ByLayer
370
18
48
1
60
0
100
AcDbSpline
70
4
71
3
72
18
73
14
40
0
40
0
40
0
40
0
40
0.250000000000002
40
0.250000000000002
40
0.500000000000004
40
0.500000000000004
40
0.562500000000003
40
0.562500000000003
40
0.625000000000001
40
0.625000000000001
40
0.749999999999999
40
0.749999999999999
40
1
40
1
40
1
40
1
41
1
10
7.34142152962301
20
0.724908644774189
30
0
41
1
10
7.25780974722573
20
0.825995525663586
30
0
41
1
10
7.17990191587802
20
0.928445015968862
30
0
41
1
10
7.03546641714829
20
1.1352500485919
30
0
41
1
10
6.96893371751491
20
1.23960637133453
30
0
41
1
10
6.89283308581432
20
1.37056857472194
30
0
41
1
10
6.87796636421737
20
1.39678617438
30
0
41
1
10
6.84893976236728
20
1.44925194935971
30
0
41
1
10
6.83482917038799
20
1.47541255920709
30
0
41
1
10
6.79383143526769
20
1.55335385919676
30
0
41
1
10
6.76821001551519
20
1.60471556407168
30
0
41
1
10
6.69621783459615
20
1.75674540513577
30
0
41
1
10
6.65469778426908
20
1.85536794409109
30
0
41
1
10
6.619180972892
20
1.95048927905179
30
0
0
SPLINE
5
15B
100
AcDbEntity
8
1
62
256
6
ByLayer
370
13
48
1
60
0
100
AcDbSpline
70
4
71
3
72
15
73
11
40
0
40
0
40
0
40
0
40
0.0933137626795759
40
0.206649542344629
40
0.319985322009682
40
0.433321101674735
40
0.546656881339788
40
0.659992661004841
40
0.773328440669894
40
1
40
1
40
1
40
1
41
1
10
15.6175042181429
20
-2.59228213208149
30
0
41
1
10
15.411669478762
20
-2.62944913720489
30
0
41
1
10
14.955834739381
20
-2.69104218199271
30
0
41
1
10
14.2500000000001
20
-2.71317285556336
30
0
41
1
10
13.5000000000001
20
-2.65084030050033
30
0
41
1
10
12.7500000000001
20
-2.50384908841534
30
0
41
1
10
12.0000000000001
20
-2.27793409246911
30
0
41
1
10
11.2500000000001
20
-1.98052138128674
30
0
41
1
10
10.2500000000001
20
-1.49838443205633
30
0
41
1
10
9.50000000000009
20
-1.05875078702536
30
0
41
1
10
9.00000000000009
20
-0.751755672806922
30
0
0
SPLINE
5
15C
100
AcDbEntity
8
1
62
256
6
ByLayer
370
18
48
1
60
0
100
AcDbSpline
70
4
71
3
72
44
73
40
40
0
40
0
40
0
40
0
40
0.0027780193594557
40
0.0027780193594557
40
0.0502647803423432
40
0.0502647803423432
40
0.145238302308118
40
0.145238302308118
40
0.168981682799561
40
0.168981682799561
40
0.192725063291004
40
0.192725063291004
40
0.240211824273889
40
0.240211824273889
40
0.287698585256775
40
0.287698585256775
40
0.33518534623966
40
0.33518534623966
40
0.358928726731102
40
0.358928726731102
40
0.382672107222544
40
0.382672107222544
40
0.430158868205427
40
0.430158868205427
40
0.525132390171195
40
0.525132390171195
40
0.572619151154077
40
0.572619151154077
40
0.62010591213696
40
0.62010591213696
40
0.667592673119842
40
0.667592673119842
40
0.691336053611283
40
0.691336053611283
40
0.715079434102723
40
0.715079434102723
40
0.810052956068482
40
0.810052956068482
40
1
40
1
40
1
40
1
41
1
10
16.2513480132486
20
-2.57466670444558
30
0
41
1
10
16.2445943570335
20
-2.57683154666086
30
0
41
1
10
16.2378400023867
20
-2.57898663546911
30
0
41
1
10
16.1156153004929
20
-2.61780332456749
30
0
41
1
10
16.0003230220498
20
-2.65149240641816
30
0
41
1
10
15.6548299894725
20
-2.74339825134751
30
0
41
1
10
15.4248909057354
20
-2.79252477393885
30
0
41
1
10
15.1366385819828
20
-2.83806590437908
30
0
41
1
10
15.0789462682042
20
-2.84637979111383
30
0
41
1
10
14.9634432177279
20
-2.86139860623959
30
0
41
1
10
14.9056686055048
20
-2.8680977124572
30
0
41
1
10
14.7325641143683
20
-2.88572079776458
30
0
41
1
10
14.6173289881612
20
-2.89418783709542
30
0
41
1
10
14.3869858327919
20
-2.90454619488455
30
0
41
1
10
14.2718852283332
20
-2.9064067942202
30
0
41
1
10
14.0415362586259
20
-2.90367267255493
30
0
41
1
10
13.9262695326809
20
-2.89916119821524
30
0
41
1
10
13.7530883004433
20
-2.88751365640462
30
0
41
1
10
13.6953166371053
20
-2.88281267218304
30
0
41
1
10
13.5801028327608
20
-2.87179883482054
30
0
41
1
10
13.5226047188468
20
-2.86548268996879
30
0
41
1
10
13.3503988521967
20
-2.84409676390862
30
0
41
1
10
13.2360032044626
20
-2.82651417643339
30
0
41
1
10
12.8933580273048
20
-2.76476944405095
30
0
41
1
10
12.665584153114
20
-2.71185229993975
30
0
41
1
10
12.3237947305757
20
-2.61448174316965
30
0
41
1
10
12.2098548724922
20
-2.57896938434621
30
0
41
1
10
11.981593132013
20
-2.50253594763936
30
0
41
1
10
11.8672765507687
20
-2.46160395898846
30
0
41
1
10
11.6381428443316
20
-2.37410496122485
30
0
41
1
10
11.5233233266406
20
-2.32755527422583
30
0
41
1
10
11.3505614413384
20
-2.25345318679032
30
0
41
1
10
11.2928349130627
20
-2.22800802658944
30
0
41
1
10
11.1773960840509
20
-2.17587177545022
30
0
41
1
10
11.1197776674546
20
-2.14923298217164
30
0
41
1
10
10.8320714065237
20
-2.01338866347166
30
0
41
1
10
10.6032645875133
20
-1.89595398540925
30
0
41
1
10
9.91824302931974
20
-1.5195365986819
30
0
41
1
10
9.46279254244345
20
-1.23831828221023
30
0
41
1
10
9.00000000000009
20
-0.936952603823386
30
0
0
SPLINE
5
15D
100
AcDbEntity
8
1
62
256
6
ByLayer
370
18
48
1
60
0
100
AcDbSpline
70
4
71
3
72
26
73
22
40
0
40
0
40
0
40
0
40
0.0312500000000016
40
0.0312500000000016
40
0.0625000000000032
40
0.0625000000000032
40
0.0937500000000048
40
0.0937500000000048
40
0.125000000000006
40
0.125000000000006
40
0.187500000000009
40
0.187500000000009
40
0.250000000000011
40
0.250000000000011
40
0.375000000000014
40
0.375000000000014
40
0.500000000000018
40
0.500000000000018
40
0.750000000000009
40
0.750000000000009
40
1
40
1
40
1
40
1
41
1
10
20.0851305315302
20
-1.91739702456604
30
0
41
1
10
20.087921032401
20
-1.91734276531289
30
0
41
1
10
20.0906877807746
20
-1.91706768052944
30
0
41
1
10
20.0961685905371
20
-1.91602454925749
30
0
41
1
10
20.098913614744
20
-1.91524291499152
30
0
41
1
10
20.1041763477334
20
-1.91320052463391
30
0
41
1
10
20.1066847430324
20
-1.91195156586724
30
0
41
1
10
20.111480480209
20
-1.90904441782951
30
0
41
1
10
20.1137761341455
20
-1.90737469398019
30
0
41
1
10
20.1201460608108
20
-1.90202503338574
30
0
41
1
10
20.1238268802203
20
-1.89794103862914
30
0
41
1
10
20.130377178647
20
-1.88925801158973
30
0
41
1
10
20.133196007024
20
-1.8847331320091
30
0
41
1
10
20.1408249477669
20
-1.87082754948722
30
0
41
1
10
20.1448376242909
20
-1.8610709463841
30
0
41
1
10
20.1516748376634
20
-1.84157214083535
30
0
41
1
10
20.1545047720029
20
-1.83176323670358
30
0
41
1
10
20.1620001540435
20
-1.80223787293497
30
0
41
1
10
20.1656890024691
20
-1.78242449620623
30
0
41
1
10
20.1718992778719
20
-1.74268369770249
30
0
41
1
10
20.1743802586989
20
-1.72274323700211
30
0
41
1
10
20.1764980819849
20
-1.70283428848316
30
0
0
SPLINE
5
15E
100
AcDbEntity
8
1
62
256
6
ByLayer
370
18
48
1
60
0
100
AcDbSpline
70
4
71
3
72
10
73
6
40
0
40
0
40
0
40
0
40
0.5
40
0.5
40
1
40
1
40
1
40
1
41
1
10
20.1759343853821
20
-1.70263542443701
30
0
41
1
10
20.1444372901643
20
-1.62688678432846
30
0
41
1
10
20.116989766716
20
-1.54900870900545
30
0
41
1
10
20.0711698199402
20
-1.3892021361554
30
0
41
1
10
20.0529218883026
20
-1.30773160323659
30
0
41
1
10
20.0383084722797
20
-1.22520406007584
30
0
0
SPLINE
5
15F
100
AcDbEntity
8
1
62
256
6
ByLayer
370
18
48
1
60
0
100
AcDbSpline
70
4
71
3
72
18
73
14
40
0
40
0
40
0
40
0
40
0.12500000000001
40
0.12500000000001
40
0.250000000000019
40
0.250000000000019
40
0.375000000000029
40
0.375000000000029
40
0.500000000000039
40
0.500000000000039
40
0.750000000000019
40
0.750000000000019
40
1
40
1
40
1
40
1
41
1
10
19.9315323915122
20
-1.81014968043038
30
0
41
1
10
19.930842196916
20
-1.80953653114307
30
0
41
1
10
19.9300867566217
20
-1.80897922248258
30
0
41
1
10
19.9283513387717
20
-1.80822968335838
30
0
41
1
10
19.9273186019753
20
-1.80807431911435
30
0
41
1
10
19.9254130551638
20
-1.80864676538846
30
0
41
1
10
19.9245993128111
20
-1.80932011935897
30
0
41
1
10
19.9233314905491
20
-1.81080378894222
30
0
41
1
10
19.9228282134135
20
-1.81164255634852
30
0
41
1
10
19.9215375352304
20
-1.81418546900394
30
0
41
1
10
19.9209389372129
20
-1.81595752894737
30
0
41
1
10
19.9199161003695
20
-1.81955288166935
30
0
41
1
10
19.9195101581477
20
-1.8213693404067
30
0
41
1
10
19.919160970885
20
-1.82319147409075
30
0
0
SPLINE
5
160
100
AcDbEntity
8
1
62
256
6
ByLayer
370
18
48
1
60
0
100
AcDbSpline
70
4
71
3
72
8
73
4
40
0
40
0
40
0
40
0
40
1
40
1
40
1
40
1
41
1
10
19.9315323914868
20
-1.81014968040787
30
0
41
1
10
19.9452774360529
20
-1.82236038777171
30
0
41
1
10
19.958644300376
20
-1.83487239232642
30
0
41
1
10
19.9715924220887
20
-1.84772016314767
30
0
0
SPLINE
5
161
100
AcDbEntity
8
1
62
256
6
ByLayer
370
18
48
1
60
0
100
AcDbSpline
70
4
71
3
72
8
73
4
40
0
40
0
40
0
40
0
40
1
40
1
40
1
40
1
41
1
10
19.9715924220951
20
-1.84772016314156
30
0
41
1
10
19.9762512661263
20
-1.8523429000706
30
0
41
1
10
19.9809756232357
20
-1.85689909513337
30
0
41
1
10
19.9857844228759
20
-1.86137176930632
30
0
0
SPLINE
5
162
100
AcDbEntity
8
1
62
256
6
ByLayer
370
18
48
1
60
0
100
AcDbSpline
70
4
71
3
72
16
73
12
40
0
40
0
40
0
40
0
40
0.25
40
0.25
40
0.375
40
0.375
40
0.499999999999999
40
0.499999999999999
40
0.75
40
0.75
40
1
40
1
40
1
40
1
41
1
10
20.4592858024828
20
-1.27401469312616
30
0
41
1
10
20.4272937128806
20
-1.28496398386807
30
0
41
1
10
20.3941146370337
20
-1.29126176196078
30
0
41
1
10
20.342793363312
20
-1.29495299299421
30
0
41
1
10
20.3254241915221
20
-1.29521354405028
30
0
41
1
10
20.2901661608584
20
-1.29389469216628
30
0
41
1
10
20.272192850471
20
-1.2922997082074
30
0
41
1
10
20.2183574014057
20
-1.2849658837786
30
0
41
1
10
20.1824501223514
20
-1.27674964529771
30
0
41
1
10
20.1104467587441
20
-1.25490298385796
30
0
41
1
10
20.0742182639906
20
-1.24119027361743
30
0
41
1
10
20.0383084722782
20
-1.22520406006731
30
0
0
SPLINE
5
163
100
AcDbEntity
8
1
62
256
6
ByLayer
370
13
48
1
60
0
100
AcDbSpline
70
4
71
3
72
13
73
9
40
0
40
0
40
0
40
0
40
0.215337682925237
40
0.383695498475014
40
0.55205331402479
40
0.720411129574566
40
0.972947852899231
40
1
40
1
40
1
40
1
41
1
10
20.4592858024829
20
-1.27401469312625
30
0
41
1
10
20.139523868322
20
-1.08945284170858
30
0
41
1
10
19.5697619341611
20
-0.740200127812017
30
0
41
1
10
18.7500000000001
20
-0.210726039741019
30
0
41
1
10
18.0000000000001
20
0.284406505595456
30
0
41
1
10
17.1250000000001
20
0.845992448775945
30
0
41
1
10
16.4598293862801
20
1.24704334727551
30
0
41
1
10
16.0446587725601
20
1.47568942264951
30
0
41
1
10
16.0044881588401
20
1.49759948277054
30
0
0
SPLINE
5
164
100
AcDbEntity
8
1
62
256
6
ByLayer
370
18
48
1
60
0
100
AcDbSpline
70
4
71
3
72
8
73
4
40
0
40
0
40
0
40
0
40
1
40
1
40
1
40
1
41
1
10
16.0044881932328
20
1.4975994640119
30
0
41
1
10
15.9769142516819
20
1.51263898331618
30
0
41
1
10
15.9493403101309
20
1.52757813278538
30
0
41
1
10
15.92176636858
20
1.54241363758342
30
0
0
SPLINE
5
165
100
AcDbEntity
8
1
62
256
6
ByLayer
370
18
48
1
60
0
100
AcDbSpline
70
4
71
3
72
58
73
54
40
0
40
0
40
0
40
0
40
0.0208641947317381
40
0.0208641947317381
40
0.0417283894634763
40
0.0417283894634763
40
0.0834567789269542
40
0.0834567789269542
40
0.125185168390432
40
0.125185168390432
40
0.16691355785391
40
0.16691355785391
40
0.250370336780864
40
0.250370336780864
40
0.29209872624434
40
0.29209872624434
40
0.312962920976078
40
0.312962920976078
40
0.333827115707816
40
0.333827115707816
40
0.417283894634767
40
0.417283894634767
40
0.438148089366506
40
0.438148089366506
40
0.459012284098244
40
0.459012284098244
40
0.500740673561723
40
0.500740673561723
40
0.584197452488679
40
0.584197452488679
40
0.625925841952157
40
0.625925841952157
40
0.667654231415634
40
0.667654231415634
40
0.709382620879112
40
0.709382620879112
40
0.730246815610851
40
0.730246815610851
40
0.75111101034259
40
0.75111101034259
40
0.792839399806066
40
0.792839399806066
40
0.834567789269542
40
0.834567789269542
40
0.876296178733018
40
0.876296178733018
40
0.897160373464756
40
0.897160373464756
40
0.918024568196493
40
0.918024568196493
40
0.959752957659967
40
0.959752957659967
40
1
40
1
40
1
40
1
41
1
10
20.0383084722782
20
-1.22520406006731
30
0
41
1
10
19.9806984985889
20
-1.1884483993685
30
0
41
1
10
19.9230485310106
20
-1.15131951040871
30
0
41
1
10
19.8076319564675
20
-1.07636369546097
30
0
41
1
10
19.7499069441179
20
-1.03856280428968
30
0
41
1
10
19.5769321806691
20
-0.924449417240169
30
0
41
1
10
19.4617578598179
20
-0.847359558064284
30
0
41
1
10
19.2314862096793
20
-0.691417535055933
30
0
41
1
10
19.1163977145376
20
-0.612552632472671
30
0
41
1
10
18.8861045590804
20
-0.453342712614273
30
0
41
1
10
18.7708743598143
20
-0.372973246802786
30
0
41
1
10
18.4248384104551
20
-0.130250489336305
30
0
41
1
10
18.1952155528582
20
0.0325725888739328
30
0
41
1
10
17.8500088233887
20
0.274941010296402
30
0
41
1
10
17.7348187250725
20
0.35543146088358
30
0
41
1
10
17.5617369639878
20
0.475555033688892
30
0
41
1
10
17.5039562345653
20
0.515520477442578
30
0
41
1
10
17.3884959407154
20
0.595067009936429
30
0
41
1
10
17.3308198532434
20
0.634645954006572
30
0
41
1
10
17.0426581864964
20
0.831489187188623
30
0
41
1
10
16.8128185667914
20
0.985599666439185
30
0
41
1
10
16.5249157621218
20
1.17218144401025
30
0
41
1
10
16.4673069208369
20
1.20919510392645
30
0
41
1
10
16.3519999126279
20
1.28256829405314
30
0
41
1
10
16.2942733726921
20
1.3189447898225
30
0
41
1
10
16.1215745969111
20
1.42660540555707
30
0
41
1
10
16.0068759476576
20
1.49655636463265
30
0
41
1
10
15.6636175790298
20
1.70047175127957
30
0
41
1
10
15.4358710973458
20
1.82848592173903
30
0
41
1
10
15.0942797772388
20
2.00661422881404
30
0
41
1
10
14.9803981487221
20
2.06373541329387
30
0
41
1
10
14.7523598225451
20
2.17333992224599
30
0
41
1
10
14.6382180451317
20
2.22580157582144
30
0
41
1
10
14.4094741254796
20
2.32576858675117
30
0
41
1
10
14.2948713261629
20
2.3732744667023
30
0
41
1
10
14.1224375850872
20
2.44056718852283
30
0
41
1
10
14.0648715494689
20
2.46233688460398
30
0
41
1
10
13.9495313935503
20
2.50450727161515
30
0
41
1
10
13.8918075457448
20
2.52488804949067
30
0
41
1
10
13.7189464883668
20
2.58368669873713
30
0
41
1
10
13.6039205300229
20
2.6198365216699
30
0
41
1
10
13.3740286553862
20
2.68580656255474
30
0
41
1
10
13.2591762972246
20
2.71557984296112
30
0
41
1
10
13.0292493803764
20
2.76882984901428
30
0
41
1
10
12.9141588397778
20
2.79237391960177
30
0
41
1
10
12.7411541983544
20
2.82283605237342
30
0
41
1
10
12.6834723026947
20
2.8321714004486
30
0
41
1
10
12.5682407759943
20
2.84915081605271
30
0
41
1
10
12.5106626514359
20
2.85679977138076
30
0
41
1
10
12.3379922937979
20
2.87719865787054
30
0
41
1
10
12.2229687526779
20
2.88735705606959
30
0
41
1
10
11.9968682603762
20
2.90092587004523
30
0
41
1
10
11.8858047622037
20
2.90455884498124
30
0
41
1
10
11.7746236925946
20
2.90502471608107
30
0
0
SPLINE
5
166
100
AcDbEntity
8
1
62
256
6
ByLayer
370
18
48
1
60
0
100
AcDbSpline
70
4
71
3
72
16
73
12
40
0
40
0
40
0
40
0
40
0.249999999999956
40
0.249999999999956
40
0.374999999999951
40
0.374999999999951
40
0.499999999999946
40
0.499999999999946
40
0.749999999999973
40
0.749999999999973
40
1
40
1
40
1
40
1
41
1
10
20.4628314445486
20
-2.62336798333456
30
0
41
1
10
20.4326279760708
20
-2.65019223432714
30
0
41
1
10
20.4013370746658
20
-2.67505254926823
30
0
41
1
10
20.3529796221017
20
-2.7098154550045
30
0
41
1
10
20.3366202540451
20
-2.7209760767868
30
0
41
1
10
20.3034305352904
20
-2.74246940771093
30
0
41
1
10
20.28651990509
20
-2.75284618625733
30
0
41
1
10
20.2359311654649
20
-2.7822784177591
30
0
41
1
10
20.2022623274021
20
-2.79973297984606
30
0
41
1
10
20.1348788799225
20
-2.83088820725149
30
0
41
1
10
20.1011649115614
20
-2.84456831105766
30
0
41
1
10
20.0673526355626
20
-2.85638138089385
30
0
0
SPLINE
5
167
100
AcDbEntity
8
1
62
256
6
ByLayer
370
13
48
1
60
0
100
AcDbSpline
70
4
71
3
72
21
73
17
40
0
40
0
40
0
40
0
40
0.0226881892356182
40
0.102639448142901
40
0.182590707050184
40
0.262541965957466
40
0.342493224864749
40
0.422444483772032
40
0.502395742679315
40
0.582347001586598
40
0.66229826049388
40
0.742249519401163
40
0.822200778308446
40
0.902152037215729
40
0.982103296123011
40
1
40
1
40
1
40
1
41
1
10
20.4628314445487
20
-2.62336798333456
30
0
41
1
10
20.3918876296991
20
-2.63505719710304
30
0
41
1
10
20.0709438148496
20
-2.68208168291693
30
0
41
1
10
19.5000000000001
20
-2.71773015255195
30
0
41
1
10
18.7500000000001
20
-2.66426364500939
30
0
41
1
10
18.0000000000001
20
-2.51381697969063
30
0
41
1
10
17.2500000000001
20
-2.2721194513866
30
0
41
1
10
16.5000000000001
20
-1.94562132355074
30
0
41
1
10
15.7500000000001
20
-1.54679285231498
30
0
41
1
10
15.0000000000001
20
-1.09261078161046
30
0
41
1
10
14.2500000000001
20
-0.60037716065213
30
0
41
1
10
13.5000000000001
20
-0.0836513608531675
30
0
41
1
10
12.7500000000001
20
0.437951822915011
30
0
41
1
10
12.0000000000001
20
0.941063166574679
30
0
41
1
10
11.4440387052013
20
1.28753907946106
30
0
41
1
10
11.1380774104025
20
1.46589274543757
30
0
41
1
10
11.0821161156037
20
1.49806877783766
30
0
0
SPLINE
5
168
100
AcDbEntity
8
1
62
256
6
ByLayer
370
18
48
1
60
0
100
AcDbSpline
70
4
71
3
72
8
73
4
40
0
40
0
40
0
40
0
40
1
40
1
40
1
40
1
41
1
10
11.0821155542124
20
1.4980691006204
30
0
41
1
10
11.0728617077035
20
1.50338977875336
30
0
41
1
10
11.0636078611946
20
1.50869827709795
30
0
41
1
10
11.0543540146858
20
1.5139944454869
30
0
0
SPLINE
5
169
100
AcDbEntity
8
1
62
256
6
ByLayer
370
18
48
1
60
0
100
AcDbSpline
70
4
71
3
72
68
73
64
40
0
40
0
40
0
40
0
40
0.0156250000000001
40
0.0156250000000001
40
0.0312500000000002
40
0.0312500000000002
40
0.0625000000000005
40
0.0625000000000005
40
0.125000000000001
40
0.125000000000001
40
0.187500000000001
40
0.187500000000001
40
0.218750000000001
40
0.218750000000001
40
0.234375000000001
40
0.234375000000001
40
0.250000000000001
40
0.250000000000001
40
0.312500000000004
40
0.312500000000004
40
0.375000000000007
40
0.375000000000007
40
0.406250000000008
40
0.406250000000008
40
0.421875000000008
40
0.421875000000008
40
0.437500000000008
40
0.437500000000008
40
0.500000000000009
40
0.500000000000009
40
0.531250000000009
40
0.531250000000009
40
0.562500000000009
40
0.562500000000009
40
0.593750000000009
40
0.593750000000009
40
0.60937500000001
40
0.60937500000001
40
0.61718750000001
40
0.61718750000001
40
0.625000000000011
40
0.625000000000011
40
0.68750000000001
40
0.68750000000001
40
0.71875000000001
40
0.71875000000001
40
0.750000000000009
40
0.750000000000009
40
0.781250000000009
40
0.781250000000009
40
0.812500000000008
40
0.812500000000008
40
0.828125000000008
40
0.828125000000008
40
0.843750000000008
40
0.843750000000008
40
0.875000000000006
40
0.875000000000006
40
0.906250000000005
40
0.906250000000005
40
0.937500000000003
40
0.937500000000003
40
1
40
1
40
1
40
1
41
1
10
20.0673526355627
20
-2.85638138089547
30
0
41
1
10
20.0092836681406
20
-2.86430951106297
30
0
41
1
10
19.9511599323118
20
-2.87129373134266
30
0
41
1
10
19.8347935667038
20
-2.8833808659677
30
0
41
1
10
19.7765799960482
20
-2.88847982977364
30
0
41
1
10
19.6025232305632
20
-2.90090141867898
30
0
41
1
10
19.4870362652094
20
-2.9053776664237
30
0
41
1
10
19.1418482285327
20
-2.90743207414417
30
0
41
1
10
18.9132352056984
20
-2.89355947618415
30
0
41
1
10
18.4545497046696
20
-2.83627553757722
30
0
41
1
10
18.2246621769779
20
-2.79294560915204
30
0
41
1
10
17.8779036868441
20
-2.70613338675599
30
0
41
1
10
17.7619889645422
20
-2.67354974195766
30
0
41
1
10
17.5873988085081
20
-2.61918911757559
30
0
41
1
10
17.5292676900572
20
-2.60021078325744
30
0
41
1
10
17.4133141389572
20
-2.5606441571781
30
0
41
1
10
17.3554570290132
20
-2.54004511886041
30
0
41
1
10
17.0666707611401
20
-2.43306463457373
30
0
41
1
10
16.8372547849159
20
-2.33471083404169
30
0
41
1
10
16.3788730163558
20
-2.11506493370698
30
0
41
1
10
16.1498983746067
20
-1.99377923954481
30
0
41
1
10
15.804646670441
20
-1.79651394285872
30
0
41
1
10
15.6892618931185
20
-1.72820636951059
30
0
41
1
10
15.5154814949471
20
-1.6221211519406
30
0
41
1
10
15.4574249247554
20
-1.58614629554142
30
0
41
1
10
15.3410890994104
20
-1.51305119638647
30
0
41
1
10
15.2830445091644
20
-1.47607878648671
30
0
41
1
10
14.9933317749688
20
-1.28923762595696
30
0
41
1
10
14.7631418235166
20
-1.13350031131426
30
0
41
1
10
14.4186595084982
20
-0.892633591889791
30
0
41
1
10
14.3039719285138
20
-0.811123027878409
30
0
41
1
10
14.0745624508179
20
-0.646100401458085
30
0
41
1
10
13.9598163276838
20
-0.562645978925559
30
0
41
1
10
13.7299767509995
20
-0.394156005016072
30
0
41
1
10
13.6148943550875
20
-0.309093029077047
30
0
41
1
10
13.441790944487
20
-0.180519989483173
30
0
41
1
10
13.3840094517158
20
-0.137499496624059
30
0
41
1
10
13.2971815725938
20
-0.0727607866570565
30
0
41
1
10
13.2682129725391
20
-0.0511464996458244
30
0
41
1
10
13.2102146340613
20
-0.0078649569138349
30
0
41
1
10
13.1811637456466
20
0.013818070474457
30
0
41
1
10
12.9199293400451
20
0.208731955402556
30
0
41
1
10
12.6894206728718
20
0.380021413532802
30
0
41
1
10
12.3446759514352
20
0.631705366065972
30
0
41
1
10
12.2299599747502
20
0.71473882879539
30
0
41
1
10
12.0004407634109
20
0.878610766915102
30
0
41
1
10
11.885618216184
20
0.959446003773621
30
0
41
1
10
11.6557277966984
20
1.11864435765059
30
0
41
1
10
11.5406555155297
20
1.19700848690758
30
0
41
1
10
11.3100168454745
20
1.35088411087699
30
0
41
1
10
11.1944595650023
20
1.42638544642659
30
0
41
1
10
11.020431770003
20
1.53718817209992
30
0
41
1
10
10.9622283156342
20
1.57376435093141
30
0
41
1
10
10.8460491960513
20
1.64573517472417
30
0
41
1
10
10.7880741941063
20
1.68113064588809
30
0
41
1
10
10.614436406097
20
1.78547773918078
30
0
41
1
10
10.499058118973
20
1.85259304078861
30
0
41
1
10
10.2687501794463
20
1.98152329575231
30
0
41
1
10
10.1538167060678
20
2.04333418586941
30
0
41
1
10
9.92389292573458
20
2.16155911319313
30
0
41
1
10
9.80892596804796
20
2.2179523048377
30
0
41
1
10
9.46360089781291
20
2.37832186632218
30
0
41
1
10
9.23280442948109
20
2.47343635616792
30
0
41
1
10
9.00000000000009
20
2.5556832400778
30
0
0
SPLINE
5
16A
100
AcDbEntity
8
1
62
256
6
ByLayer
370
18
48
1
60
0
100
AcDbSpline
70
4
71
3
72
8
73
4
40
0
40
0
40
0
40
0
40
1
40
1
40
1
40
1
41
1
10
9
20
2.55568324007783
30
0
41
1
10
8.91711901649867
20
2.58072166219372
30
0
41
1
10
8.83467320197698
20
2.60483197187185
30
0
41
1
10
8.75271782322102
20
2.62789629813761
30
0
0
SPLINE
5
16B
100
AcDbEntity
8
1
62
256
6
ByLayer
370
13
48
1
60
0
100
AcDbSpline
70
4
71
3
72
10
73
6
40
0
40
0
40
0
40
0
40
0.104982578637198
40
0.403321719091466
40
1
40
1
40
1
40
1
41
1
10
11.5139175465143
20
0.520582074643983
30
0
41
1
10
11.4259450310095
20
0.582186674589792
30
0
41
1
10
11.0879725155048
20
0.817377073170377
30
0
41
1
10
10.25
20
1.38156268308609
30
0
41
1
10
9.49999999999997
20
1.82208512771447
30
0
41
1
10
8.99999999999997
20
2.06303140717188
30
0
0
SPLINE
5
16C
100
AcDbEntity
8
1
62
256
6
ByLayer
370
18
48
1
60
0
100
AcDbSpline
70
4
71
3
72
10
73
6
40
0
40
0
40
0
40
0
40
0.5
40
0.5
40
1
40
1
40
1
40
1
41
1
10
20.174927104822
20
-1.99006599388099
30
0
41
1
10
20.2220634312841
20
-2.01180028283949
30
0
41
1
10
20.2688737525708
20
-2.03056271779508
30
0
41
1
10
20.3620741409821
20
-2.06104779280776
30
0
41
1
10
20.4084630749759
20
-2.07279257656202
30
0
41
1
10
20.4547573573959
20
-2.0799873823054
30
0
0
SPLINE
5
16D
100
AcDbEntity
8
1
62
256
6
ByLayer
370
13
48
1
60
0
100
AcDbSpline
70
4
71
3
72
17
73
13
40
0
40
0
40
0
40
0
40
0.0015669588653025
40
0.101410262978772
40
0.201253567092242
40
0.301096871205712
40
0.400940175319182
40
0.500783479432651
40
0.600626783546121
40
0.700470087659591
40
0.800313391773061
40
1
40
1
40
1
40
1
41
1
10
16.5117706355915
20
0.486042347909518
30
0
41
1
10
16.5078470903944
20
0.488657345835776
30
0
41
1
10
16.2539235451972
20
0.657852905748484
30
0
41
1
10
15.75
20
0.988200199841629
30
0
41
1
10
15
20
1.44716656873169
30
0
41
1
10
14.25
20
1.85637205378745
30
0
41
1
10
13.5
20
2.2053709111525
30
0
41
1
10
12.75
20
2.48381176615274
30
0
41
1
10
12
20
2.68112822505796
30
0
41
1
10
11.25
20
2.78642521919528
30
0
41
1
10
10.25
20
2.80574563838502
30
0
41
1
10
9.49999999999997
20
2.68566117850011
30
0
41
1
10
8.99999999999997
20
2.54675659360632
30
0
0
SPLINE
5
16E
100
AcDbEntity
8
1
62
256
6
ByLayer
370
18
48
1
60
0
100
AcDbSpline
70
4
71
3
72
8
73
4
40
0
40
0
40
0
40
0
40
1
40
1
40
1
40
1
41
1
10
19.9857844228763
20
-1.86137176930652
30
0
41
1
10
19.981572249152
20
-1.85982979386353
30
0
41
1
10
19.9772992455129
20
-1.85839998609953
30
0
41
1
10
19.9729523816467
20
-1.85710763333876
30
0
0
SPLINE
5
16F
100
AcDbEntity
8
1
62
256
6
ByLayer
370
18
48
1
60
0
100
AcDbSpline
70
4
71
3
72
8
73
4
40
0
40
0
40
0
40
0
40
1
40
1
40
1
40
1
41
1
10
19.9729523816465
20
-1.85710763333901
30
0
41
1
10
19.960925671977
20
-1.85353200918257
30
0
41
1
10
19.9488769085456
20
-1.85000059795925
30
0
41
1
10
19.9368021371417
20
-1.84652545366791
30
0
0
SPLINE
5
170
100
AcDbEntity
8
1
62
256
6
ByLayer
370
18
48
1
60
0
100
AcDbSpline
70
4
71
3
72
8
73
4
40
0
40
0
40
0
40
0
40
1
40
1
40
1
40
1
41
1
10
8.99996830379601
20
2.75092081120093
30
0
41
1
10
8.99997886919621
20
2.7509230849661
30
0
41
1
10
8.99998943459755
20
2.75092535871687
30
0
41
1
10
9.00000000000011
20
2.7509276324532
30
0
0
SPLINE
5
171
100
AcDbEntity
8
1
62
256
6
ByLayer
370
18
48
1
60
0
100
AcDbSpline
70
4
71
3
72
8
73
4
40
0
40
0
40
0
40
0
40
1
40
1
40
1
40
1
41
1
10
8.78186839950982
20
2.19524436393135
30
0
41
1
10
8.85763182985829
20
2.18740927064317
30
0
41
1
10
8.93036552370842
20
2.18526732712357
30
0
41
1
10
8.99997486755913
20
2.18899632072552
30
0
0
SPLINE
5
172
100
AcDbEntity
8
1
62
256
6
ByLayer
370
18
48
1
60
0
100
AcDbSpline
70
4
71
3
72
18
73
14
40
0
40
0
40
0
40
0
40
0.12500000000054
40
0.12500000000054
40
0.187500000000487
40
0.187500000000487
40
0.250000000000434
40
0.250000000000434
40
0.375000000000329
40
0.375000000000329
40
0.500000000000224
40
0.500000000000224
40
1
40
1
40
1
40
1
41
1
10
19.930459598871
20
1.72258355919848
30
0
41
1
10
19.929600030323
20
1.72330403950852
30
0
41
1
10
19.9286260352991
20
1.72400234048283
30
0
41
1
10
19.9268075946876
20
1.72459357638155
30
0
41
1
10
19.9261548825473
20
1.72468476078566
30
0
41
1
10
19.9249541292749
20
1.72457495681823
30
0
41
1
10
19.9244273992531
20
1.72438664455046
30
0
41
1
10
19.9231040151657
20
1.72366516515891
30
0
41
1
10
19.9224977772613
20
1.72299279094875
30
0
41
1
10
19.9214869123714
20
1.7216169369305
30
0
41
1
10
19.9210859600607
20
1.72088683302627
30
0
41
1
10
19.9193298186048
20
1.71713724957792
30
0
41
1
10
19.9186677771277
20
1.71395943721077
30
0
41
1
10
19.9181309492326
20
1.71075157105304
30
0
0
SPLINE
5
173
100
AcDbEntity
8
1
62
256
6
ByLayer
370
18
48
1
60
0
100
AcDbSpline
70
4
71
3
72
30
73
26
40
0
40
0
40
0
40
0
40
0.165658908762448
40
0.165658908762448
40
0.248488363143672
40
0.248488363143672
40
0.331317817524895
40
0.331317817524895
40
0.414147271906119
40
0.414147271906119
40
0.455561999096731
40
0.455561999096731
40
0.496976726287343
40
0.496976726287343
40
0.662635635049797
40
0.662635635049797
40
0.745465089431025
40
0.745465089431025
40
0.786879816621638
40
0.786879816621638
40
0.828294543812252
40
0.828294543812252
40
0.993953452574706
40
0.993953452574706
40
1
40
1
40
1
40
1
41
1
10
9.00000000000011
20
-1.65691241392125
30
0
41
1
10
9.23341413449612
20
-1.79575048785315
30
0
41
1
10
9.46615191219155
20
-1.92648938555797
30
0
41
1
10
9.81579809111386
20
-2.10891593974048
30
0
41
1
10
9.93251615922824
20
-2.16746460505522
30
0
41
1
10
10.1653894769463
20
-2.2791547144534
30
0
41
1
10
10.2816626312151
20
-2.33236525173305
30
0
41
1
10
10.5141774004589
20
-2.43325870572247
30
0
41
1
10
10.6304193857173
20
-2.48094301372203
30
0
41
1
10
10.8049747705085
20
-2.54817114387632
30
0
41
1
10
10.8631919105907
20
-2.56986374169989
30
0
41
1
10
10.9797256074976
20
-2.61178479029107
30
0
41
1
10
11.0380742411046
20
-2.63202386505526
30
0
41
1
10
11.3297680984006
20
-2.72934700346528
30
0
41
1
10
11.5623369174537
20
-2.79458481336792
30
0
41
1
10
11.911535135587
20
-2.87299126903821
30
0
41
1
10
12.0279892678493
20
-2.89588749544046
30
0
41
1
10
12.2029288704431
20
-2.92525223143406
30
0
41
1
10
12.2613231873726
20
-2.9342154849333
30
0
41
1
10
12.3780174322256
20
-2.95043297336932
30
0
41
1
10
12.4363037379318
20
-2.95768592386918
30
0
41
1
10
12.7275103604711
20
-2.98968112292727
30
0
41
1
10
12.9597378300516
20
-3.00166395318192
30
0
41
1
10
13.2009395473773
20
-2.9997410189994
30
0
41
1
10
13.2094340393988
20
-2.99965484643275
30
0
41
1
10
13.2179292493863
20
-2.99955020559159
30
0
0
SPLINE
5
174
100
AcDbEntity
8
1
62
256
6
ByLayer
370
18
48
1
60
0
100
AcDbSpline
70
4
71
3
72
10
73
6
40
0
40
0
40
0
40
0
40
0.5
40
0.5
40
1
40
1
40
1
40
1
41
1
10
20.1845589502191
20
1.531653068792
30
0
41
1
10
20.1703532156275
20
1.54543400485588
30
0
41
1
10
20.155826651398
20
1.55891901950875
30
0
41
1
10
20.1259210113837
20
1.58508140738729
30
0
41
1
10
20.110559330963
20
1.59775298585859
30
0
41
1
10
20.0945767256358
20
1.60983874388694
30
0
0
SPLINE
5
175
100
AcDbEntity
8
1
62
256
6
ByLayer
370
18
48
1
60
0
100
AcDbSpline
70
4
71
3
72
14
73
10
40
0
40
0
40
0
40
0
40
0.49999999999967
40
0.49999999999967
40
0.749999999999653
40
0.749999999999653
40
0.874999999999826
40
0.874999999999826
40
1
40
1
40
1
40
1
41
1
10
19.918130949238
20
1.71075157104906
30
0
41
1
10
19.920233034507
20
1.70622226761884
30
0
41
1
10
19.9225068245123
20
1.7017619960848
30
0
41
1
10
19.9266234453116
20
1.69536391051943
30
0
41
1
10
19.9281064845517
20
1.69327703672346
30
0
41
1
10
19.9307770540055
20
1.69033373264236
30
0
41
1
10
19.9317568807672
20
1.68937106006024
30
0
41
1
10
19.9339619307499
20
1.68767065178707
30
0
41
1
10
19.9352029219867
20
1.6869034753507
30
0
41
1
10
19.936654110829
20
1.68650113714008
30
0
0
SPLINE
5
176
100
AcDbEntity
8
1
62
256
6
ByLayer
370
18
48
1
60
0
100
AcDbSpline
70
4
71
3
72
17
73
13
40
0
40
0
40
0
40
0
40
0.0149892282331432
40
0.137045444997203
40
0.259101661761262
40
0.381157878525322
40
0.503214095289382
40
0.625270312053441
40
0.747326528817501
40
0.869382745581561
40
0.99143896234562
40
1
40
1
40
1
40
1
41
1
10
15.7417077373591
20
2.99958822852244
30
0
41
1
10
15.7617058444477
20
2.99949191277759
30
0
41
1
10
15.9445862287124
20
2.99774766374264
30
0
41
1
10
16.2910789020058
20
2.97949857331614
30
0
41
1
10
16.7838086822347
20
2.91570775679114
30
0
41
1
10
17.2808408714328
20
2.81380185231049
30
0
41
1
10
17.7834642297059
20
2.6737379832079
30
0
41
1
10
18.2930225792571
20
2.49564327790642
30
0
41
1
10
18.8109084054301
20
2.27984128730196
30
0
41
1
10
19.3385811900662
20
2.02690370087547
30
0
41
1
10
19.710543313875
20
1.82754574046967
30
0
41
1
10
19.9053516836021
20
1.71796196058321
30
0
41
1
10
19.9181309492383
20
1.71075157104986
30
0
0
SPLINE
5
177
100
AcDbEntity
8
1
62
256
6
ByLayer
370
18
48
1
60
0
100
AcDbSpline
70
4
71
3
72
41
73
37
40
0
40
0
40
0
40
0
40
0.0039057918838378
40
0.0039057918838378
40
0.0563318028373189
40
0.0563318028373189
40
0.161183824744279
40
0.161183824744279
40
0.21360983569776
40
0.21360983569776
40
0.239822841174501
40
0.239822841174501
40
0.266035846651241
40
0.266035846651241
40
0.370887868558201
40
0.370887868558201
40
0.397100874034942
40
0.397100874034942
40
0.423313879511683
40
0.423313879511683
40
0.475739890465165
40
0.475739890465165
40
0.580591912372131
40
0.580591912372131
40
0.633017923325614
40
0.633017923325614
40
0.685443934279097
40
0.685443934279097
40
0.790295956186064
40
0.790295956186064
40
0.816508961662806
40
0.816508961662806
40
0.842721967139549
40
0.895147978093032
40
0.895147978093032
40
1
40
1
40
1
40
1
41
1
10
13.520404757842
20
2.64468673742695
30
0
41
1
10
13.5290899052058
20
2.64750763514752
30
0
41
1
10
13.5377759588854
20
2.65031302873078
30
0
41
1
10
13.663065576275
20
2.69054998395404
30
0
41
1
10
13.7799447701313
20
2.72522326373331
30
0
41
1
10
14.1298129275997
20
2.82011983373164
30
0
41
1
10
14.3625024919289
20
2.87136435921192
30
0
41
1
10
14.7121008864991
20
2.92962148452733
30
0
41
1
10
14.8287262989048
20
2.94594469893093
30
0
41
1
10
15.0039655693678
20
2.96571629574103
30
0
41
1
10
15.0624237920615
20
2.9715192400092
30
0
41
1
10
15.1791736243114
20
2.9815197878749
30
0
41
1
10
15.2375017208364
20
2.98572180699026
30
0
41
1
10
15.5289693468386
20
3.00274376503506
30
0
41
1
10
15.761555696482
20
3.00360877426013
30
0
41
1
10
16.0528115173847
20
2.98861640763019
30
0
41
1
10
16.1110901110339
20
2.98481434604864
30
0
41
1
10
16.2277374436876
20
2.97560031810582
30
0
41
1
10
16.2861428307696
20
2.97018396735899
30
0
41
1
10
16.4612009482083
20
2.9515547047213
30
0
41
1
10
16.5777109077461
20
2.93596697714588
30
0
41
1
10
16.9270461968783
20
2.87989700094897
30
0
41
1
10
17.1596840978257
20
2.83011680648599
30
0
41
1
10
17.5097108662328
20
2.7375022419086
30
0
41
1
10
17.6266710598653
20
2.70359930841673
30
0
41
1
10
17.8600632768504
20
2.63025334541243
30
0
41
1
10
17.9766074936075
20
2.59078545470706
30
0
41
1
10
18.3260843260124
20
2.46425295173887
30
0
41
1
10
18.5588526574736
20
2.36905393202826
30
0
41
1
10
18.8507311737994
20
2.23736923695151
30
0
41
1
10
18.909151229198
20
2.21039794832441
30
0
41
1
10
19.0257246402148
20
2.15540170516636
30
0
41
1
10
19.2003318142695
20
2.07126132917949
30
0
41
1
10
19.3743270299699
20
1.9823677034791
30
0
41
1
10
19.7218855027642
20
1.79872343659272
30
0
41
1
10
19.9530200845446
20
1.66849447129769
30
0
41
1
10
20.1845589502188
20
1.53165306879165
30
0
0
SPLINE
5
178
100
AcDbEntity
8
1
62
256
6
ByLayer
370
18
48
1
60
0
100
AcDbSpline
70
4
71
3
72
28
73
24
40
0
40
0
40
0
40
0
40
0.250000000000002
40
0.250000000000002
40
0.500000000000005
40
0.500000000000005
40
0.624999999999978
40
0.624999999999978
40
0.687499999999964
40
0.687499999999964
40
0.74999999999995
40
0.74999999999995
40
0.781249999999938
40
0.781249999999938
40
0.812499999999926
40
0.812499999999926
40
0.843749999999914
40
0.843749999999914
40
0.874999999999902
40
0.874999999999902
40
0.937499999999951
40
0.937499999999951
40
1
40
1
40
1
40
1
41
1
10
7.20222270684897
20
0.33790511448052
30
0
41
1
10
7.18873290692582
20
0.350169698241757
30
0
41
1
10
7.17556578177056
20
0.362737758663741
30
0
41
1
10
7.15033828365731
20
0.388924381369378
30
0
41
1
10
7.13818255780177
20
0.402542225852045
30
0
41
1
10
7.122036516127
20
0.424507589948064
30
0
41
1
10
7.11700102498423
20
0.4320926521074
30
0
41
1
10
7.11065753256761
20
0.444068426016628
30
0
41
1
10
7.10873888738089
20
0.448177262022455
30
0
41
1
10
7.10560395511524
20
0.456712940999978
30
0
41
1
10
7.10438927615329
20
0.461124727606432
30
0
41
1
10
7.10363059653855
20
0.467859610497101
30
0
41
1
10
7.10355959409779
20
0.470103805597716
30
0
41
1
10
7.10391525310303
20
0.474590424797213
30
0
41
1
10
7.10435733631863
20
0.476861973825379
30
0
41
1
10
7.10585156815489
20
0.481131819118673
30
0
41
1
10
7.10692560491023
20
0.483184204242718
30
0
41
1
10
7.10961838396523
20
0.486852039208315
30
0
41
1
10
7.11123740975688
20
0.488483699589409
30
0
41
1
10
7.11664950348677
20
0.492737134397686
30
0
41
1
10
7.12086873308365
20
0.494669002553508
30
0
41
1
10
7.1295835014715
20
0.497448795913385
30
0
41
1
10
7.13407369516335
20
0.498300107424825
30
0
41
1
10
7.13863849785864
20
0.498848988539635
30
0
0
SPLINE
5
179
100
AcDbEntity
8
1
62
256
6
ByLayer
370
18
48
1
60
0
100
AcDbSpline
70
4
71
3
72
8
73
4
40
0
40
0
40
0
40
0
40
1
40
1
40
1
40
1
41
1
10
9.00000000000009
20
-0.936952603823386
30
0
41
1
10
8.9163946970414
20
-0.89043449927172
30
0
41
1
10
8.83316201163126
20
-0.843066777398036
30
0
41
1
10
8.75034017258716
20
-0.794762271439367
30
0
0
SPLINE
5
17A
100
AcDbEntity
8
1
62
256
6
ByLayer
370
18
48
1
60
0
100
AcDbSpline
70
4
71
3
72
10
73
6
40
0
40
0
40
0
40
0
40
0.5
40
0.5
40
1
40
1
40
1
40
1
41
1
10
20.1749271048199
20
-1.99006599388471
30
0
41
1
10
20.1607547503365
20
-1.97753011024912
30
0
41
1
10
20.1462792388933
20
-1.96513566308036
30
0
41
1
10
20.1164657976363
20
-1.94082285202276
30
0
41
1
10
20.1011352501748
20
-1.92889883299935
30
0
41
1
10
20.0851305315318
20
-1.91739702456695
30
0
0
SPLINE
5
17B
100
AcDbEntity
8
1
62
256
6
ByLayer
370
18
48
1
60
0
100
AcDbSpline
70
4
71
3
72
8
73
4
40
0
40
0
40
0
40
0
40
1
40
1
40
1
40
1
41
1
10
19.9857844228294
20
-1.8613717692798
30
0
41
1
10
20.0188329501021
20
-1.88019104943686
30
0
41
1
10
20.0519478185055
20
-1.89886830505284
30
0
41
1
10
20.0851305315318
20
-1.91739702456695
30
0
0
SPLINE
5
17C
100
AcDbEntity
8
1
62
256
6
ByLayer
370
18
48
1
60
0
100
AcDbSpline
70
4
71
3
72
14
73
10
40
0
40
0
40
0
40
0
40
0.499999999999864
40
0.499999999999864
40
0.749999999999932
40
0.749999999999932
40
0.874999999999966
40
0.874999999999966
40
1
40
1
40
1
40
1
41
1
10
19.9191609710288
20
-1.82319147411596
30
0
41
1
10
19.9211726923964
20
-1.82753671786136
30
0
41
1
10
19.923343424479
20
-1.8318136440127
30
0
41
1
10
19.9272598822626
20
-1.83795439613766
30
0
41
1
10
19.9286689285028
20
-1.83995816661869
30
0
41
1
10
19.9312019863171
20
-1.84279179489758
30
0
41
1
10
19.9321290548346
20
-1.84371865817917
30
0
41
1
10
19.9342208539169
20
-1.8453675385133
30
0
41
1
10
19.9353983393183
20
-1.84612143798898
30
0
41
1
10
19.9368021369529
20
-1.8465254539139
30
0
0
SPLINE
5
17D
100
AcDbEntity
8
1
62
256
6
ByLayer
370
18
48
1
60
0
100
AcDbSpline
70
4
71
3
72
58
73
54
40
0
40
0
40
0
40
0
40
0.062499999999999
40
0.062499999999999
40
0.078124999999999
40
0.078124999999999
40
0.093749999999999
40
0.124999999999998
40
0.124999999999998
40
0.187499999999996
40
0.187499999999996
40
0.249999999999993
40
0.249999999999993
40
0.281249999999993
40
0.281249999999993
40
0.296874999999993
40
0.296874999999993
40
0.312499999999994
40
0.312499999999994
40
0.374999999999995
40
0.374999999999995
40
0.437499999999996
40
0.437499999999996
40
0.499999999999998
40
0.499999999999998
40
0.515624999999998
40
0.515624999999998
40
0.531249999999999
40
0.531249999999999
40
0.5625
40
0.5625
40
0.625000000000003
40
0.625000000000003
40
0.687500000000005
40
0.687500000000005
40
0.703125000000006
40
0.710937500000006
40
0.710937500000006
40
0.718750000000006
40
0.718750000000006
40
0.750000000000005
40
0.750000000000005
40
0.812500000000004
40
0.812500000000004
40
0.875000000000003
40
0.875000000000003
40
0.906250000000003
40
0.906250000000003
40
0.921875000000003
40
0.921875000000003
40
0.937500000000002
40
0.937500000000002
40
1
40
1
40
1
40
1
41
1
10
9.00000000000011
20
2.7509276324532
30
0
41
1
10
9.23481641196381
20
2.81900464518219
30
0
41
1
10
9.46889787435063
20
2.87354811545674
30
0
41
1
10
9.76200271724059
20
2.92419323826837
30
0
41
1
10
9.82068990926186
20
2.93345256212424
30
0
41
1
10
9.93796758110909
20
2.95017606911841
30
0
41
1
10
10.1135167916893
20
2.97254064710097
30
0
41
1
10
10.2881454125914
20
2.98678400252763
30
0
41
1
10
10.6366524511514
20
3.00450707503973
30
0
41
1
10
10.8679993113252
20
3.0020141663116
30
0
41
1
10
11.3310983003485
20
2.96893658596363
30
0
41
1
10
11.5628630723285
20
2.93828461611548
30
0
41
1
10
11.9123888648914
20
2.87139930517876
30
0
41
1
10
12.0292036018824
20
2.84561962757513
30
0
41
1
10
12.205072244333
20
2.80167500345857
30
0
41
1
10
12.2638530137702
20
2.7861315630073
30
0
41
1
10
12.3810330944235
20
2.75346377269295
30
0
41
1
10
12.4395035454029
20
2.73632252764202
30
0
41
1
10
12.7313518355358
20
2.64667364593279
30
0
41
1
10
12.963212642705
20
2.56236981386621
30
0
41
1
10
13.4261697069663
20
2.37062345159251
30
0
41
1
10
13.6572796083903
20
2.26316195239309
30
0
41
1
10
14.1212065614052
20
2.02737266331229
30
0
41
1
10
14.3540219863321
20
1.89906331497909
30
0
41
1
10
14.6475333826756
20
1.72675987414308
30
0
41
1
10
14.7062280255788
20
1.69177798085198
30
0
41
1
10
14.8233031248298
20
1.62101166511533
30
0
41
1
10
14.8817348050484
20
1.58519718973557
30
0
41
1
10
15.0567574919263
20
1.47652184598763
30
0
41
1
10
15.1730728913818
20
1.40242499913106
30
0
41
1
10
15.5213171978555
20
1.17572329535844
30
0
41
1
10
15.7525410182854
20
1.01870925674999
30
0
41
1
10
16.2154366446055
20
0.696039533653533
30
0
41
1
10
16.4471103245979
20
0.530383400058668
30
0
41
1
10
16.738555897431
20
0.319935641556981
30
0
41
1
10
16.8261292201948
20
0.256548354036369
30
0
41
1
10
16.9139574760216
20
0.192839538078346
30
0
41
1
10
16.972571296462
20
0.150301986947596
30
0
41
1
10
17.0019292488552
20
0.128986024229818
30
0
41
1
10
17.1485478714376
20
0.022505144377277
30
0
41
1
10
17.2653864284436
20
-0.0624259312830304
30
0
41
1
10
17.6149861784584
20
-0.315867922079093
30
0
41
1
10
17.8468505662826
20
-0.483011118106503
30
0
41
1
10
18.310124279506
20
-0.81110203496857
30
0
41
1
10
18.5415034220067
20
-0.972086806329571
30
0
41
1
10
18.8898553300398
20
-1.20666148644338
30
0
41
1
10
19.0061903587839
20
-1.28369633569133
30
0
41
1
10
19.1812518157123
20
-1.39719318063334
30
0
41
1
10
19.2396989515273
20
-1.43468261373175
30
0
41
1
10
19.3568205548188
20
-1.50891909096382
30
0
41
1
10
19.4155422276586
20
-1.5456941810385
30
0
41
1
10
19.7084986979279
20
-1.72676209842535
30
0
41
1
10
19.9416901519626
20
-1.86322039212345
30
0
41
1
10
20.1749271048224
20
-1.9900659938821
30
0
0
SPLINE
5
17E
100
AcDbEntity
8
1
62
256
6
ByLayer
370
18
48
1
60
0
100
AcDbSpline
70
4
71
3
72
18
73
14
40
0
40
0
40
0
40
0
40
0.125000000000002
40
0.125000000000002
40
0.250000000000003
40
0.250000000000003
40
0.375000000000005
40
0.375000000000005
40
0.500000000000007
40
0.500000000000007
40
0.750000000000003
40
0.750000000000003
40
1
40
1
40
1
40
1
41
1
10
8.75150839020617
20
-2.88203335875159
30
0
41
1
10
8.75337265459822
20
-2.88741600725069
30
0
41
1
10
8.75812927501232
20
-2.89263775547062
30
0
41
1
10
8.77100514171428
20
-2.90252586504903
30
0
41
1
10
8.77913474916255
20
-2.9071973364691
30
0
41
1
10
8.79734620879574
20
-2.91591640850314
30
0
41
1
10
8.80744003839331
20
-2.9199658810646
30
0
41
1
10
8.82879412111313
20
-2.92742126263232
30
0
41
1
10
8.84003633060982
20
-2.93081945465889
30
0
41
1
10
8.87476221089602
20
-2.94003903066914
30
0
41
1
10
8.89921678474732
20
-2.94488669678017
30
0
41
1
10
8.94887709603907
20
-2.95208126078208
30
0
41
1
10
8.97411372614408
20
-2.95442854795641
30
0
41
1
10
8.99933709214153
20
-2.95558774833597
30
0
0
SPLINE
5
17F
100
AcDbEntity
8
1
62
256
6
ByLayer
370
18
48
1
60
0
100
AcDbSpline
70
4
71
3
72
10
73
6
40
0
40
0
40
0
40
0
40
0.5
40
0.5
40
1
40
1
40
1
40
1
41
1
10
8.75271782322369
20
2.62789629813372
30
0
41
1
10
8.71647149530725
20
2.63286183439612
30
0
41
1
10
8.67944552221192
20
2.63896034915837
30
0
41
1
10
8.6036387266426
20
2.6537075215814
30
0
41
1
10
8.56486059139331
20
2.66235227417377
30
0
41
1
10
8.52502631651848
20
2.67253180633114
30
0
0
SPLINE
5
180
100
AcDbEntity
8
1
62
256
6
ByLayer
370
18
48
1
60
0
100
AcDbSpline
70
4
71
3
72
8
73
4
40
0
40
0
40
0
40
0
40
1
40
1
40
1
40
1
41
1
10
8.52502631651848
20
-1.36613481420369
30
0
41
1
10
8.6074203483947
20
-1.39939835597926
30
0
41
1
10
8.6874105355021
20
-1.43945173991455
30
0
41
1
10
8.76391151118574
20
-1.48758009161784
30
0
0
SPLINE
5
181
100
AcDbEntity
8
1
62
256
6
ByLayer
370
18
48
1
60
0
100
AcDbSpline
70
4
71
3
72
9
73
5
40
0
40
0
40
0
40
0
40
0.5
40
1
40
1
40
1
40
1
41
1
10
8.76391151118571
20
-1.48758009161776
30
0
41
1
10
8.80476821176401
20
-1.51328388999806
30
0
41
1
10
8.88498945434182
20
-1.56718226543268
30
0
41
1
10
8.96219871083028
20
-1.62610838444948
30
0
41
1
10
8.99999929533527
20
-1.65691359017959
30
0
0
SPLINE
5
182
100
AcDbEntity
8
1
62
256
6
ByLayer
370
18
48
1
60
0
100
AcDbSpline
70
4
71
3
72
8
73
4
40
0
40
0
40
0
40
0
40
1
40
1
40
1
40
1
41
1
10
8.99933537345203
20
-1.63125676059462
30
0
41
1
10
8.99946364587208
20
-1.63981139933756
30
0
41
1
10
8.99968507096608
20
-1.64836363917257
30
0
41
1
10
8.99999546461314
20
-1.65691252586197
30
0
0
SPLINE
5
183
100
AcDbEntity
8
1
62
256
6
ByLayer
370
18
48
1
60
0
100
AcDbSpline
70
4
71
3
72
28
73
24
40
0
40
0
40
0
40
0
40
0.249999999999982
40
0.249999999999982
40
0.499999999999964
40
0.499999999999964
40
0.624999999999982
40
0.624999999999982
40
0.68749999999997
40
0.68749999999997
40
0.749999999999957
40
0.749999999999957
40
0.812499999999945
40
0.812499999999945
40
0.843749999999939
40
0.843749999999939
40
0.874999999999933
40
0.874999999999933
40
0.906249999999927
40
0.906249999999927
40
0.937499999999921
40
0.937499999999921
40
1
40
1
40
1
40
1
41
1
10
7.33273704365641
20
2.87642208662268
30
0
41
1
10
7.32012257986136
20
2.87704301226449
30
0
41
1
10
7.30783598266461
20
2.87759906741749
30
0
41
1
10
7.28437559583884
20
2.87856711015627
30
0
41
1
10
7.27312056897458
20
2.87898032488519
30
0
41
1
10
7.25829427953192
20
2.87946543909879
30
0
41
1
10
7.25367477878805
20
2.87960518210304
30
0
41
1
10
7.24790249278556
20
2.8797724393302
30
0
41
1
10
7.24616994766882
20
2.87982124865505
30
0
41
1
10
7.24332592377326
20
2.87990338278578
30
0
41
1
10
7.24220674479679
20
2.87993668873869
30
0
41
1
10
7.24119308357066
20
2.87998335144323
30
0
41
1
10
7.241299417818
20
2.87999643100142
30
0
41
1
10
7.24312436935142
20
2.88000079843516
30
0
41
1
10
7.24400859919072
20
2.87999972896256
30
0
41
1
10
7.24632932754022
20
2.8799942193011
30
0
41
1
10
7.247781931302
20
2.87998976785477
30
0
41
1
10
7.25104613865071
20
2.87997997178351
30
0
41
1
10
7.25289555257839
20
2.87997453546885
30
0
41
1
10
7.25675769507509
20
2.87996439263046
30
0
41
1
10
7.25878164343945
20
2.87995962825025
30
0
41
1
10
7.26505795818585
20
2.87994693132015
30
0
41
1
10
7.26945797648111
20
2.87994076543202
30
0
41
1
10
7.2738930658418
20
2.87993691132701
30
0
0
SPLINE
5
184
100
AcDbEntity
8
1
62
256
6
ByLayer
370
18
48
1
60
0
100
AcDbSpline
70
4
71
3
72
12
73
8
40
0
40
0
40
0
40
0
40
0.5
40
0.5
40
0.75
40
0.75
40
1
40
1
40
1
40
1
41
1
10
8.75034017258528
20
-0.794762271441385
30
0
41
1
10
8.71450928437619
20
-0.766177725592399
30
0
41
1
10
8.67784769293939
20
-0.738484859253788
30
0
41
1
10
8.62143834458064
20
-0.698466530448826
30
0
41
1
10
8.60238340889643
20
-0.685373204490901
30
0
41
1
10
8.56397238287693
20
-0.659882445887604
30
0
41
1
10
8.54459328892878
20
-0.647467919379665
30
0
41
1
10
8.52502631651848
20
-0.635411497365595
30
0
0
SPLINE
5
185
100
AcDbEntity
8
1
62
256
6
ByLayer
370
18
48
1
60
0
100
AcDbSpline
70
4
71
3
72
18
73
14
40
0
40
0
40
0
40
0
40
0.124999999999998
40
0.124999999999998
40
0.249999999999997
40
0.249999999999997
40
0.374999999999995
40
0.374999999999995
40
0.499999999999993
40
0.499999999999993
40
0.749999999999997
40
0.749999999999997
40
1
40
1
40
1
40
1
41
1
10
8.75034017257451
20
-0.794762271441527
30
0
41
1
10
8.75230255198562
20
-0.831828796137899
30
0
41
1
10
8.75712738593228
20
-0.868364568357975
30
0
41
1
10
8.77012575450422
20
-0.940717155943929
30
0
41
1
10
8.77830842762575
20
-0.976533748281099
30
0
41
1
10
8.79662196083612
20
-1.04766799716145
30
0
41
1
10
8.80676437299562
20
-1.08298418291605
30
0
41
1
10
8.82821322830549
20
-1.15324579445144
30
0
41
1
10
8.83950256755787
20
-1.18811379285631
30
0
41
1
10
8.87436470392075
20
-1.29211359702669
30
0
41
1
10
8.89890504013155
20
-1.36067951714836
30
0
41
1
10
8.94872794664224
20
-1.49672875864314
30
0
41
1
10
8.97404139354651
20
-1.56419425372445
30
0
41
1
10
8.99933537344711
20
-1.6312567605801
30
0
0
SPLINE
5
186
100
AcDbEntity
8
1
62
256
6
ByLayer
370
18
48
1
60
0
100
AcDbSpline
70
4
71
3
72
25
73
21
40
0
40
0
40
0
40
0
40
0.0313133042764317
40
0.0782026998632168
40
0.171981491036787
40
0.218870886623572
40
0.265760282210357
40
0.359539073383928
40
0.406428468970713
40
0.453317864557498
40
0.547096655731068
40
0.593986051317853
40
0.640875446904638
40
0.687764842491424
40
0.734654238078209
40
0.781543633664994
40
0.828433029251779
40
0.922211820425349
40
0.969101216012134
40
1
40
1
40
1
40
1
41
1
10
8.99933537345004
20
-1.63125676059343
30
0
41
1
10
9.05375579962404
20
-1.66383881862455
30
0
41
1
10
9.18970723468027
20
-1.74421162975179
30
0
41
1
10
9.48891009147306
20
-1.91502081195489
30
0
41
1
10
9.81570074004881
20
-2.08899514997557
30
0
41
1
10
10.1430183674694
20
-2.24871580963495
30
0
41
1
10
10.4707108541266
20
-2.39840287138796
30
0
41
1
10
10.7989700688351
20
-2.53214154708005
30
0
41
1
10
11.1275934142102
20
-2.64848160849797
30
0
41
1
10
11.4563957398379
20
-2.75276501193053
30
0
41
1
10
11.785375395288
20
-2.83827076807663
30
0
41
1
10
12.1143307291223
20
-2.90416885605418
30
0
41
1
10
12.3609877167628
20
-2.9435930472375
30
0
41
1
10
12.6075278925756
20
-2.97284045039669
30
0
41
1
10
12.8538880272378
20
-2.99188254243512
30
0
41
1
10
13.0999946239151
20
-3.00069048971386
30
0
41
1
10
13.4277096488076
20
-2.99874521254011
30
0
41
1
10
13.7546589433242
20
-2.97628313455792
30
0
41
1
10
14.0528105107789
20
-2.937538821586
30
0
41
1
10
14.187721861701
20
-2.91548440352795
30
0
41
1
10
14.2412709121523
20
-2.90602331037925
30
0
0
SPLINE
5
187
100
AcDbEntity
8
1
62
256
6
ByLayer
370
18
48
1
60
0
100
AcDbSpline
70
4
71
3
72
18
73
14
40
0
40
0
40
0
40
0
40
0.124999999999998
40
0.124999999999998
40
0.249999999999996
40
0.249999999999996
40
0.374999999999995
40
0.374999999999995
40
0.499999999999993
40
0.499999999999993
40
0.749999999999996
40
0.749999999999996
40
1
40
1
40
1
40
1
41
1
10
8.7527178232487
20
2.62789629813898
30
0
41
1
10
8.75458438958751
20
2.61171830890297
30
0
41
1
10
8.75933610420233
20
2.59567045433241
30
0
41
1
10
8.77217328020205
20
2.56337834184475
30
0
41
1
10
8.78027053525395
20
2.5471400851533
30
0
41
1
10
8.79839937321785
20
2.51426683882337
30
0
41
1
10
8.80844399670062
20
2.49763350328533
30
0
41
1
10
8.82968717876523
20
2.46388104942287
30
0
41
1
10
8.84086887807842
20
2.44679999408834
30
0
41
1
10
8.87540876357875
20
2.39483801333822
30
0
41
1
10
8.89973298428154
20
2.35922227411427
30
0
41
1
10
8.94913705851931
20
2.28590026304715
30
0
41
1
10
8.9742473563451
20
2.24820469053597
30
0
41
1
10
8.99935006427231
20
2.20945174282926
30
0
0
SPLINE
5
188
100
AcDbEntity
8
1
62
256
6
ByLayer
370
18
48
1
60
0
100
AcDbSpline
70
4
71
3
72
36
73
32
40
0
40
0
40
0
40
0
40
0.014585132692184
40
0.0383402975549193
40
0.0620954624176546
40
0.0858506272803899
40
0.109605792143125
40
0.133360957005861
40
0.180871286731331
40
0.204626451594066
40
0.228381616456802
40
0.275891946182272
40
0.299647111045008
40
0.323402275907743
40
0.347157440770478
40
0.370912605633214
40
0.394667770495949
40
0.418422935358684
40
0.465933265084155
40
0.48968842994689
40
0.513443594809626
40
0.560953924535096
40
0.655974583986037
40
0.703484913711508
40
0.750995243436979
40
0.798505573162449
40
0.84601590288792
40
0.89352623261339
40
0.941036562338861
40
0.988546892064332
40
1
40
1
40
1
40
1
41
1
10
8.99935006427222
20
2.20945174282937
30
0
41
1
10
9.04920760143739
20
2.18358271340651
30
0
41
1
10
9.18031476220543
20
2.11414372065761
30
0
41
1
10
9.39285255129974
20
1.99573341309235
30
0
41
1
10
9.63708045062791
20
1.85186937129896
30
0
41
1
10
9.88163358591711
20
1.70057292185015
30
0
41
1
10
10.1265317375659
20
1.542420846053
30
0
41
1
10
10.453555307412
20
1.32315369143342
30
0
41
1
10
10.7813432497855
20
1.09243559177176
30
0
41
1
10
11.1096171189497
20
0.853229085439807
30
0
41
1
10
11.4381264781264
20
0.609347386247919
30
0
41
1
10
11.7668657556663
20
0.359921286767161
30
0
41
1
10
12.0955678065561
20
0.108180223231386
30
0
41
1
10
12.3420136083125
20
-0.0809904394202761
30
0
41
1
10
12.5883012926247
20
-0.269708304750708
30
0
41
1
10
12.834331929818
20
-0.457182847103184
30
0
41
1
10
13.079993658487
20
-0.64257044220642
30
0
41
1
10
13.4069113783577
20
-0.885891313335435
30
0
41
1
10
13.7327061675115
20
-1.12186388641126
30
0
41
1
10
14.0571017541515
20
-1.34774668125024
30
0
41
1
10
14.3804389241058
20
-1.56598939599525
30
0
41
1
10
14.9436350415401
20
-1.9258363861328
30
0
41
1
10
15.584762612632
20
-2.28019231387304
30
0
41
1
10
16.2300968201669
20
-2.56495433115077
30
0
41
1
10
16.7179180028545
20
-2.74056728523971
30
0
41
1
10
17.2113368669207
20
-2.87489862842801
30
0
41
1
10
17.7122232192943
20
-2.96457820329823
30
0
41
1
10
18.2225762272986
20
-3.00604132747463
30
0
41
1
10
18.7445148548062
20
-2.99563438687497
30
0
41
1
10
19.1446436375548
20
-2.94627414205621
30
0
41
1
10
19.370359504558
20
-2.90370901019841
30
0
41
1
10
19.4143658096039
20
-2.89485852701716
30
0
0
SPLINE
5
189
100
AcDbEntity
8
1
62
256
6
ByLayer
370
18
48
1
60
0
100
AcDbSpline
70
4
71
3
72
8
73
4
40
0
40
0
40
0
40
0
40
1
40
1
40
1
40
1
41
1
10
8.99935006427197
20
2.20945174282949
30
0
41
1
10
8.9994665116204
20
2.20263339972536
30
0
41
1
10
8.99967625204818
20
2.19581545452445
30
0
41
1
10
8.99997486755601
20
2.18899632073135
30
0
0
SPLINE
5
18A
100
AcDbEntity
8
1
62
256
6
ByLayer
370
18
48
1
60
0
100
AcDbSpline
70
4
71
1
72
4
73
2
40
0
40
0
40
1
40
1
41
1
10
8.99997486755601
20
2.18899632073135
30
0
41
1
10
9.00000000000006
20
2.18898931647124
30
0
0
SPLINE
5
18B
100
AcDbEntity
8
1
62
256
6
ByLayer
370
18
48
1
60
0
100
AcDbSpline
70
4
71
3
72
50
73
46
40
0
40
0
40
0
40
0
40
0.0813802041416475
40
0.0813802041416475
40
0.101725255177059
40
0.101725255177059
40
0.122070306212471
40
0.162760408283294
40
0.162760408283294
40
0.24414061242494
40
0.24414061242494
40
0.325520816566586
40
0.325520816566586
40
0.345865867601997
40
0.345865867601997
40
0.356038393119703
40
0.356038393119703
40
0.36621091863741
40
0.406901020708234
40
0.406901020708234
40
0.488281224849883
40
0.488281224849883
40
0.569661428991532
40
0.569661428991532
40
0.590006480026944
40
0.600179005544652
40
0.600179005544652
40
0.610351531062359
40
0.610351531062359
40
0.651041633133186
40
0.651041633133186
40
0.732421837274839
40
0.732421837274839
40
0.813802041416493
40
0.813802041416493
40
0.85449214348732
40
0.85449214348732
40
0.864664669005027
40
0.864664669005027
40
0.874837194522734
40
0.895182245558149
40
0.895182245558149
40
0.976562449699808
40
0.976562449699808
40
1
40
1
40
1
40
1
41
1
10
9.00000000000014
20
2.18898931647121
30
0
41
1
10
9.23473593228829
20
2.0658414647173
30
0
41
1
10
9.46861116434411
20
1.93125986045618
30
0
41
1
10
9.7615572709332
20
1.75044420810826
30
0
41
1
10
9.8202343917178
20
1.71361579532686
30
0
41
1
10
9.93740914984969
20
1.63892971616357
30
0
41
1
10
10.1127730801208
20
1.52544337547184
30
0
41
1
10
10.2871598689244
20
1.40785707303911
30
0
41
1
10
10.6352073636532
20
1.16795001698813
30
0
41
1
10
10.8662812036479
20
1.00173855683707
30
0
41
1
10
11.3293697889492
20
0.660443439314662
30
0
41
1
10
11.5614008053714
20
0.485351336132823
30
0
41
1
10
11.8536101407153
20
0.262869975795979
30
0
41
1
10
11.9121592512107
20
0.218190843090639
30
0
41
1
10
12.0001705447994
20
0.150927426933919
30
0
41
1
10
12.0295509134332
20
0.128456127871431
30
0
41
1
10
12.0882036878188
20
0.0835715692872441
30
0
41
1
10
12.2346670347984
20
-0.0285716669071121
30
0
41
1
10
12.3803496868077
20
-0.140291795561154
30
0
41
1
10
12.7290088465238
20
-0.406959944984124
30
0
41
1
10
12.9601325266917
20
-0.582832927888148
30
0
41
1
10
13.4226729180775
20
-0.926962126020157
30
0
41
1
10
13.6541087205578
20
-1.09518248514851
30
0
41
1
10
13.9454634627244
20
-1.29829414967102
30
0
41
1
10
14.0330243041942
20
-1.35868967652772
30
0
41
1
10
14.1208699306286
20
-1.41820714423662
30
0
41
1
10
14.1795028803906
20
-1.45768236827678
30
0
41
1
10
14.2088651055793
20
-1.47732567023869
30
0
41
1
10
14.3554215397664
20
-1.57472235391435
30
0
41
1
10
14.4721849260621
20
-1.6502369429785
30
0
41
1
10
14.8215361238695
20
-1.86920985463706
30
0
41
1
10
15.0531833291302
20
-2.00512388033951
30
0
41
1
10
15.5162009363248
20
-2.25496200489528
30
0
41
1
10
15.7475712920274
20
-2.36886929449179
30
0
41
1
10
16.0965362026673
20
-2.52102563399416
30
0
41
1
10
16.2131802813808
20
-2.56862123389001
30
0
41
1
10
16.3596363766019
20
-2.62394893945486
30
0
41
1
10
16.3889713793583
20
-2.63480979080023
30
0
41
1
10
16.4475359906093
20
-2.65604496512083
30
0
41
1
10
16.5352869348891
20
-2.68719197268695
30
0
41
1
10
16.6227785792462
20
-2.7162184376769
30
0
41
1
10
16.9139644158877
20
-2.80824555743774
30
0
41
1
10
17.1454842656208
20
-2.86674082342543
30
0
41
1
10
17.4436735097568
20
-2.92233568768677
30
0
41
1
10
17.5103489372877
20
-2.93349700440984
30
0
41
1
10
17.5770510121425
20
-2.94337863703762
30
0
0
SPLINE
5
18C
100
AcDbEntity
8
1
62
256
6
ByLayer
370
18
48
1
60
0
100
AcDbSpline
70
4
71
3
72
12
73
8
40
0
40
0
40
0
40
0
40
0.24596964721754
40
0.24596964721754
40
0.505979939106186
40
0.505979939106186
40
1
40
1
40
1
40
1
41
1
10
18.4273556795977
20
-2.999272208679
30
0
41
1
10
18.455039014754
20
-2.99879712689199
30
0
41
1
10
18.4827474669424
20
-2.99809643062946
30
0
41
1
10
18.5398026900006
20
-2.99618796091434
30
0
41
1
10
18.569162174497
20
-2.9949526405303
30
0
41
1
10
18.6541443407706
20
-2.99064472222278
30
0
41
1
10
18.7096995242913
20
-2.98691734329324
30
0
41
1
10
18.765152009961
20
-2.98229665192028
30
0
0
SPLINE
5
18D
100
AcDbEntity
8
1
62
256
6
ByLayer
370
18
48
1
60
0
100
AcDbSpline
70
4
71
3
72
10
73
6
40
0
40
0
40
0
40
0
40
0.918122773573587
40
0.918122773573587
40
1
40
1
40
1
40
1
41
1
10
19.2698119649751
20
-2.9154806227865
30
0
41
1
10
19.3366960115944
20
-2.90336557760631
30
0
41
1
10
19.4035184395573
20
-2.88997751466101
30
0
41
1
10
19.4762720009931
20
-2.87402900353669
30
0
41
1
10
19.4822286589362
20
-2.87271319974178
30
0
41
1
10
19.4881851394903
20
-2.87138742136631
30
0
0
SPLINE
5
18E
100
AcDbEntity
8
1
62
256
6
ByLayer
370
18
48
1
60
0
100
AcDbSpline
70
4
71
3
72
31
73
27
40
0
40
0
40
0
40
0
40
0.013678483216938
40
0.0409765046253558
40
0.0682745260337736
40
0.122870568850609
40
0.150168590259027
40
0.177466611667445
40
0.204764633075863
40
0.23206265448428
40
0.259360675892698
40
0.286658697301116
40
0.341254740117952
40
0.450446825751623
40
0.477744847160041
40
0.505042868568458
40
0.559638911385294
40
0.61423495420213
40
0.668830997018965
40
0.723427039835801
40
0.778023082652636
40
0.832619125469472
40
0.887215168286308
40
0.941811211103143
40
0.996407253919979
40
1
40
1
40
1
40
1
41
1
10
10.7676026267644
20
2.99953161161864
30
0
41
1
10
10.8088925257507
20
2.99929889711382
30
0
41
1
10
10.932568031464
20
2.99725609612887
30
0
41
1
10
11.1385457552225
20
2.98714517992232
30
0
41
1
10
11.4677489110854
20
2.95674140055516
30
0
41
1
10
11.796561108355
20
2.90509532317986
30
0
41
1
10
12.1247385965087
20
2.8331129224307
30
0
41
1
10
12.3704914357132
20
2.76918825165853
30
0
41
1
10
12.6158234878475
20
2.69557515024658
30
0
41
1
10
12.8607357697313
20
2.61260674404926
30
0
41
1
10
13.1052180243877
20
2.52063756141618
30
0
41
1
10
13.4305971844074
20
2.38646350941346
30
0
41
1
10
13.9986171684941
20
2.12255163563171
30
0
41
1
10
14.5654072302375
20
1.80604184677276
30
0
41
1
10
15.0525176631691
20
1.50523866024284
30
0
41
1
10
15.3777432590991
20
1.29737007222445
30
0
41
1
10
15.7854651391411
20
1.02485445730929
30
0
41
1
10
16.2774847645758
20
0.681546127393744
30
0
41
1
10
16.7731671467995
20
0.325954624117486
30
0
41
1
10
17.2734931348299
20
-0.0377040515077169
30
0
41
1
10
17.7794607867581
20
-0.405002999916974
30
0
41
1
10
18.2920622579323
20
-0.770912498392136
30
0
41
1
10
18.8123982127601
20
-1.13022740034009
30
0
41
1
10
19.3416920878362
20
-1.47747002054561
30
0
41
1
10
19.7132400825833
20
-1.70406488480157
30
0
41
1
10
19.9071780391436
20
-1.81628110923822
30
0
41
1
10
19.9191609710288
20
-1.82319147411596
30
0
0
SPLINE
5
18F
100
AcDbEntity
8
1
62
256
6
ByLayer
370
18
48
1
60
0
100
AcDbSpline
70
4
71
2
72
6
73
3
40
0
40
0
40
0
40
1
40
1
40
1
41
1
10
20.9212659758769
20
-0.0319136651018823
30
0
41
1
10
20.9471323621001
20
0.173057430782393
30
0
41
1
10
20.9729962588843
20
0.378008746861895
30
0
0
SPLINE
5
190
100
AcDbEntity
8
1
62
256
6
ByLayer
370
18
48
1
60
0
100
AcDbSpline
70
4
71
2
72
6
73
3
40
0
40
0
40
0
40
1
40
1
40
1
41
1
10
20.8415417916013
20
-2.15070820492483
30
0
41
1
10
20.8695078575119
20
-2.08939271535692
30
0
41
1
10
20.8974739234225
20
-2.02807722578902
30
0
0
SPLINE
5
191
100
AcDbEntity
8
1
62
256
6
ByLayer
370
18
48
1
60
0
100
AcDbSpline
70
4
71
1
72
4
73
2
40
0
40
0
40
1
40
1
41
1
10
20.497049245827
20
-2.59168108201692
30
0
41
1
10
20.608753214397
20
-2.48180088430357
30
0
0
SPLINE
5
192
100
AcDbEntity
8
1
62
256
6
ByLayer
370
18
48
1
60
0
100
AcDbSpline
70
4
71
2
72
6
73
3
40
0
40
0
40
0
40
1
40
1
40
1
41
1
10
10.1464213071434
20
-2.61620833175132
30
0
41
1
10
10.4386633372356
20
-2.59289870036207
30
0
41
1
10
10.7311478890772
20
-2.54708907252979
30
0
0
SPLINE
5
193
100
AcDbEntity
8
1
62
256
6
ByLayer
370
18
48
1
60
0
100
AcDbSpline
70
4
71
3
72
10
73
6
40
0
40
0
40
0
40
0
40
0.434190552875856
40
0.786435000632111
40
1
40
1
40
1
40
1
41
1
10
20.4442773104802
20
2.10214058975981
30
0
41
1
10
20.2992529257133
20
2.14577402560781
30
0
41
1
10
20.0365382991945
20
2.2204500235907
30
0
41
1
10
19.7023532586142
20
2.30568682102194
30
0
41
1
10
19.5132726041565
20
2.34954566654474
30
0
41
1
10
19.4419136526612
20
2.36546066168629
30
0
0
SPLINE
5
194
100
AcDbEntity
8
1
62
256
6
ByLayer
370
18
48
1
60
0
100
AcDbSpline
70
4
71
1
72
4
73
2
40
0
40
0
40
1
40
1
41
1
10
20.8753549271263
20
1.33320165526507
30
0
41
1
10
20.58254233847
20
1.98809494969075
30
0
0
SPLINE
5
195
100
AcDbEntity
8
1
62
256
6
ByLayer
370
18
48
1
60
0
100
AcDbSpline
70
4
71
3
72
12
73
8
40
0
40
0
40
0
40
0
40
0.348988972850202
40
0.611064464459097
40
0.786175426323209
40
0.909557154378955
40
1
40
1
40
1
40
1
41
1
10
14.8802107201515
20
-2.63134014979872
30
0
41
1
10
15.0217730185347
20
-2.6252592411351
30
0
41
1
10
15.2696173528473
20
-2.6091642331734
30
0
41
1
10
15.5884157832743
20
-2.57610951037097
30
0
41
1
10
15.8157164251
20
-2.54636981905125
30
0
41
1
10
15.9734003416899
20
-2.52284928248616
30
0
41
1
10
16.0600957931863
20
-2.5088034298488
30
0
41
1
10
16.0967666835408
20
-2.50266462100458
30
0
0
SPLINE
5
196
100
AcDbEntity
8
1
62
256
6
ByLayer
370
18
48
1
60
0
100
AcDbSpline
70
4
71
2
72
6
73
3
40
0
40
0
40
0
40
1
40
1
40
1
41
1
10
20.9509729503953
20
0.985115214316522
30
0
41
1
10
20.924811933634
20
1.13750056062122
30
0
41
1
10
20.8986509168726
20
1.28988590692592
30
0
0
SPLINE
5
197
100
AcDbEntity
8
1
62
256
6
ByLayer
370
18
48
1
60
0
100
AcDbSpline
70
4
71
3
72
11
73
7
40
0
40
0
40
0
40
0
40
0.315147945158525
40
0.503712908657966
40
0.690183453058784
40
1
40
1
40
1
40
1
41
1
10
11.7842980788274
20
1.36777672179039
30
0
41
1
10
11.6791290371621
20
1.39685107990124
30
0
41
1
10
11.5109299748312
20
1.4494394965931
30
0
41
1
10
11.279542182647
20
1.53525700388281
30
0
41
1
10
11.0511486951792
20
1.62959325131246
30
0
41
1
10
10.8849609751807
20
1.70723516193823
30
0
41
1
10
10.7811459066342
20
1.75927049695758
30
0
0
SPLINE
5
198
100
AcDbEntity
8
1
62
256
6
ByLayer
370
18
48
1
60
0
100
AcDbSpline
70
4
71
3
72
11
73
7
40
0
40
0
40
0
40
0
40
0.315234812278929
40
0.504047087070689
40
0.690332216189071
40
1
40
1
40
1
40
1
41
1
10
16.6797909419919
20
1.40410086382198
30
0
41
1
10
16.564743026964
20
1.4328899113419
30
0
41
1
10
16.3807525861095
20
1.48530900175095
30
0
41
1
10
16.127880339744
20
1.57147737487298
30
0
41
1
10
15.8785870870589
20
1.66650595647692
30
0
41
1
10
15.6972160640248
20
1.74511314447059
30
0
41
1
10
15.5838955735099
20
1.79794076896101
30
0
0
SPLINE
5
199
100
AcDbEntity
8
1
62
256
6
ByLayer
370
18
48
1
60
0
100
AcDbSpline
70
4
71
2
72
6
73
3
40
0
40
0
40
0
40
1
40
1
40
1
41
1
10
13.217195693607
20
-2.99955900423987
30
0
41
1
10
13.2171574418949
20
-2.99956200481913
30
0
41
1
10
13.2171191902588
20
-2.9995647181639
30
0
0
SPLINE
5
19A
100
AcDbEntity
8
1
62
256
6
ByLayer
370
18
48
1
60
0
100
AcDbSpline
70
4
71
2
72
6
73
3
40
0
40
0
40
0
40
1
40
1
40
1
41
1
10
19.9541691098839
20
-2.63124039237547
30
0
41
1
10
20.1114567818358
20
-2.62388612751317
30
0
41
1
10
20.2685092830916
20
-2.61059258219177
30
0
0
SPLINE
5
19B
100
AcDbEntity
8
1
62
256
6
ByLayer
370
18
48
1
60
0
100
AcDbSpline
70
4
71
1
72
4
73
2
40
0
40
0
40
1
40
1
41
1
10
11.0795033885217
20
1.49957069220969
30
0
41
1
10
11.0794984285686
20
1.49958076752179
30
0
0
LINE
5
79
100
AcDbEntity
8
80
62
256
6
ByLayer
370
18
48
1
60
0
100
AcDbLine
10
0
20
0
30
0
11
-5
21
0
31
0
39
0
210
0
220
0
230
1
0
LINE
5
7A
100
AcDbEntity
8
4
62
256
6
ByLayer
370
18
48
0.05
60
0
100
AcDbLine
10
0
20
0
30
0
11
21
21
0
31
0
39
0
210
0
220
0
230
1
0
LINE
5
7C
100
AcDbEntity
8
81
62
256
6
ByLayer
370
18
48
1
60
0
100
AcDbLine
10
21
20
0
30
0
11
26
21
0
31
0
39
0
210
0
220
0
230
1
0
LINE
5
7D
100
AcDbEntity
8
SK4
62
256
6
ByLayer
370
18
48
0.05
60
0
100
AcDbLine
10
-36
20
0
30
0
11
21
21
0
31
0
39
0
210
0
220
0
230
1
0
LINE
5
7F
100
AcDbEntity
8
1
62
256
6
ByLayer
370
18
48
1
60
0
100
AcDbLine
10
0
20
3
30
0
11
0
21
0
31
0
39
0
210
0
220
0
230
1
0
LINE
5
80
100
AcDbEntity
8
1
62
256
6
ByLayer
370
18
48
1
60
0
100
AcDbLine
10
0
20
0
30
0
11
0
21
-3
31
0
39
0
210
0
220
0
230
1
0
LINE
5
81
100
AcDbEntity
8
1
62
256
6
ByLayer
370
18
48
1
60
0
100
AcDbLine
10
20.92262
20
-0.020899
30
0
11
20.920067
21
-0.034755
31
0
39
0
210
0
220
0
230
1
0
LINE
5
82
100
AcDbEntity
8
1
62
256
6
ByLayer
370
18
48
1
60
0
100
AcDbLine
10
20.913185
20
-0.072108
30
0
11
20.904819
21
-0.117521
31
0
39
0
210
0
220
0
230
1
0
LINE
5
83
100
AcDbEntity
8
1
62
256
6
ByLayer
370
18
48
1
60
0
100
AcDbLine
10
20.959563
20
0.304639
30
0
11
20.972849
21
0.377123
31
0
39
0
210
0
220
0
230
1
0
LINE
5
84
100
AcDbEntity
8
1
62
256
6
ByLayer
370
18
48
1
60
0
100
AcDbLine
10
20.920909
20
0.009933
30
0
11
20.959563
21
0.304639
31
0
39
0
210
0
220
0
230
1
0
LINE
5
85
100
AcDbEntity
8
1
62
256
6
ByLayer
370
18
48
1
60
0
100
AcDbLine
10
20.92827
20
0.297742
30
0
11
20.959563
21
0.304639
31
0
39
0
210
0
220
0
230
1
0
LINE
5
86
100
AcDbEntity
8
1
62
256
6
ByLayer
370
18
48
1
60
0
100
AcDbLine
10
20.758032
20
-0.480243
30
0
11
20.904819
21
-0.117521
31
0
39
0
210
0
220
0
230
1
0
LINE
5
87
100
AcDbEntity
8
1
62
256
6
ByLayer
370
18
48
1
60
0
100
AcDbLine
10
20.904819
20
-0.117521
30
0
11
20.907684
21
-0.092981
31
0
39
0
210
0
220
0
230
1
0
LINE
5
88
100
AcDbEntity
8
1
62
256
6
ByLayer
370
13
48
1
60
0
100
AcDbLine
10
20.545295
20
-0.182111
30
0
11
20.528855
21
-0.208573
31
0
39
0
210
0
220
0
230
1
0
LINE
5
89
100
AcDbEntity
8
1
62
256
6
ByLayer
370
18
48
1
60
0
100
AcDbLine
10
20.967197
20
-1.47022
30
0
11
20.972849
21
-1.654571
31
0
39
0
210
0
220
0
230
1
0
LINE
5
8A
100
AcDbEntity
8
1
62
256
6
ByLayer
370
18
48
1
60
0
100
AcDbLine
10
20.923372
20
0.114852
30
0
11
20.93101
21
0.400084
31
0
39
0
210
0
220
0
230
1
0
LINE
5
8B
100
AcDbEntity
8
1
62
256
6
ByLayer
370
18
48
1
60
0
100
AcDbLine
10
20.947413
20
1.01264
30
0
11
20.972849
21
1.962507
31
0
39
0
210
0
220
0
230
1
0
LINE
5
8C
100
AcDbEntity
8
1
62
256
6
ByLayer
370
18
48
1
60
0
100
AcDbLine
10
20.902349
20
-0.113225
30
0
11
20.900091
21
-0.112982
31
0
39
0
210
0
220
0
230
1
0
LINE
5
8D
100
AcDbEntity
8
1
62
256
6
ByLayer
370
18
48
1
60
0
100
AcDbLine
10
20.902349
20
-0.113225
30
0
11
20.919862
21
-0.046773
31
0
39
0
210
0
220
0
230
1
0
LINE
5
8E
100
AcDbEntity
8
1
62
256
6
ByLayer
370
18
48
1
60
0
100
AcDbLine
10
20.92262
20
-1.764697
30
0
11
20.920388
21
-1.691005
31
0
39
0
210
0
220
0
230
1
0
LINE
5
8F
100
AcDbEntity
8
1
62
256
6
ByLayer
370
13
48
1
60
0
100
AcDbLine
10
20.810636
20
0.364502
30
0
11
20.923372
21
0.114852
31
0
39
0
210
0
220
0
230
1
0
LINE
5
90
100
AcDbEntity
8
1
62
256
6
ByLayer
370
18
48
1
60
0
100
AcDbLine
10
7.350899
20
2.879746
30
0
11
7.37141
21
2.874285
31
0
39
0
210
0
220
0
230
1
0
LINE
5
91
100
AcDbEntity
8
1
62
256
6
ByLayer
370
13
48
1
60
0
100
AcDbLine
10
19.610255
20
-1.658564
30
0
11
19.577691
21
-1.707679
31
0
39
0
210
0
220
0
230
1
0
LINE
5
92
100
AcDbEntity
8
1
62
256
6
ByLayer
370
18
48
1
60
0
100
AcDbLine
10
9
20
-2.678672
30
0
11
9
21
-2.897529
31
0
39
0
210
0
220
0
230
1
0
LINE
5
93
100
AcDbEntity
8
1
62
256
6
ByLayer
370
18
48
1
60
0
100
AcDbLine
10
20.94858
20
-0.803209
30
0
11
20.972849
21
-1.443568
31
0
39
0
210
0
220
0
230
1
0
LINE
5
94
100
AcDbEntity
8
1
62
256
6
ByLayer
370
18
48
1
60
0
100
AcDbLine
10
20.906695
20
-0.673087
30
0
11
20.94858
21
-0.803209
31
0
39
0
210
0
220
0
230
1
0
LINE
5
95
100
AcDbEntity
8
1
62
256
6
ByLayer
370
13
48
1
60
0
100
AcDbLine
10
7.275556
20
-2.498167
30
0
11
9
21
-2.678672
31
0
39
0
210
0
220
0
230
1
0
LINE
5
96
100
AcDbEntity
8
1
62
256
6
ByLayer
370
18
48
1
60
0
100
AcDbLine
10
9
20
-2.678672
30
0
11
9
21
-2.602204
31
0
39
0
210
0
220
0
230
1
0
LINE
5
97
100
AcDbEntity
8
1
62
256
6
ByLayer
370
13
48
1
60
0
100
AcDbLine
10
7.205013
20
-2.414315
30
0
11
9
21
-2.602204
31
0
39
0
210
0
220
0
230
1
0
LINE
5
98
100
AcDbEntity
8
1
62
256
6
ByLayer
370
18
48
1
60
0
100
AcDbLine
10
9
20
-2.602204
30
0
11
9
21
-2.580371
31
0
39
0
210
0
220
0
230
1
0
LINE
5
99
100
AcDbEntity
8
1
62
256
6
ByLayer
370
13
48
1
60
0
100
AcDbLine
10
20.828987
20
-0.03023
30
0
11
20.900091
21
-0.112982
31
0
39
0
210
0
220
0
230
1
0
LINE
5
9A
100
AcDbEntity
8
1
62
256
6
ByLayer
370
13
48
1
60
0
100
AcDbLine
10
8.781868
20
2.195244
30
0
11
9
21
2.063031
31
0
39
0
210
0
220
0
230
1
0
LINE
5
9B
100
AcDbEntity
8
1
62
256
6
ByLayer
370
18
48
1
60
0
100
AcDbLine
10
20.92262
20
-1.096853
30
0
11
20.906695
21
-0.673087
31
0
39
0
210
0
220
0
230
1
0
LINE
5
9C
100
AcDbEntity
8
1
62
256
6
ByLayer
370
18
48
1
60
0
100
AcDbLine
10
20.569011
20
-0.235059
30
0
11
20.906695
21
-0.673087
31
0
39
0
210
0
220
0
230
1
0
LINE
5
9D
100
AcDbEntity
8
1
62
256
6
ByLayer
370
18
48
1
60
0
100
AcDbLine
10
9
20
0.507438
30
0
11
9
21
0.757958
31
0
39
0
210
0
220
0
230
1
0
LINE
5
9E
100
AcDbEntity
8
1
62
256
6
ByLayer
370
13
48
1
60
0
100
AcDbLine
10
6.690763
20
2.157622
30
0
11
9
21
0.757958
31
0
39
0
210
0
220
0
230
1
0
LINE
5
9F
100
AcDbEntity
8
1
62
256
6
ByLayer
370
13
48
1
60
0
100
AcDbLine
10
19.931532
20
-1.81015
30
0
11
19.936802
21
-1.846525
31
0
39
0
210
0
220
0
230
1
0
LINE
5
A0
100
AcDbEntity
8
1
62
256
6
ByLayer
370
18
48
1
60
0
100
AcDbLine
10
7.258496
20
-2.39808
30
0
11
9
21
-2.580371
31
0
39
0
210
0
220
0
230
1
0
LINE
5
A1
100
AcDbEntity
8
1
62
256
6
ByLayer
370
18
48
1
60
0
100
AcDbLine
10
9
20
-2.580371
30
0
11
9
21
-1.661365
31
0
39
0
210
0
220
0
230
1
0
LINE
5
A2
100
AcDbEntity
8
1
62
256
6
ByLayer
370
13
48
1
60
0
100
AcDbLine
10
6.400801
20
-1.272417
30
0
11
8.772976
21
-1.520723
31
0
39
0
210
0
220
0
230
1
0
LINE
5
A3
100
AcDbEntity
8
1
62
256
6
ByLayer
370
18
48
1
60
0
100
AcDbLine
10
20.947516
20
0.404937
30
0
11
20.972849
21
0.86446
31
0
39
0
210
0
220
0
230
1
0
LINE
5
A4
100
AcDbEntity
8
1
62
256
6
ByLayer
370
13
48
1
60
0
100
AcDbLine
10
19.993554
20
0.942057
30
0
11
20.558672
21
0.284366
31
0
39
0
210
0
220
0
230
1
0
LINE
5
A5
100
AcDbEntity
8
1
62
256
6
ByLayer
370
18
48
1
60
0
100
AcDbLine
10
20.947516
20
0.404937
30
0
11
20.61282
21
0.306023
31
0
39
0
210
0
220
0
230
1
0
LINE
5
A6
100
AcDbEntity
8
1
62
256
6
ByLayer
370
18
48
1
60
0
100
AcDbLine
10
20.508857
20
-2.578925
30
0
11
20.510305
21
-2.57814
31
0
39
0
210
0
220
0
230
1
0
LINE
5
A7
100
AcDbEntity
8
1
62
256
6
ByLayer
370
13
48
1
60
0
100
AcDbLine
10
6.452511
20
-1.150956
30
0
11
8.529351
21
-1.368348
31
0
39
0
210
0
220
0
230
1
0
LINE
5
A8
100
AcDbEntity
8
1
62
256
6
ByLayer
370
18
48
1
60
0
100
AcDbLine
10
9
20
0.757958
30
0
11
9
21
2.063031
31
0
39
0
210
0
220
0
230
1
0
LINE
5
A9
100
AcDbEntity
8
1
62
256
6
ByLayer
370
18
48
1
60
0
100
AcDbLine
10
9
20
-0.629351
30
0
11
9
21
-0.280382
31
0
39
0
210
0
220
0
230
1
0
LINE
5
AA
100
AcDbEntity
8
1
62
256
6
ByLayer
370
18
48
1
60
0
100
AcDbLine
10
9
20
-0.751756
30
0
11
9
21
-0.629351
31
0
39
0
210
0
220
0
230
1
0
LINE
5
AB
100
AcDbEntity
8
1
62
256
6
ByLayer
370
13
48
1
60
0
100
AcDbLine
10
7.138638
20
0.498849
30
0
11
9
21
-0.629351
31
0
39
0
210
0
220
0
230
1
0
LINE
5
AC
100
AcDbEntity
8
1
62
256
6
ByLayer
370
13
48
1
60
0
100
AcDbLine
10
8.525026
20
2.231935
30
0
11
8.525026
21
2.672532
31
0
39
0
210
0
220
0
230
1
0
LINE
5
AD
100
AcDbEntity
8
1
62
256
6
ByLayer
370
13
48
1
60
0
100
AcDbLine
10
8.525026
20
-2.88
30
0
11
8.525026
21
-2.83056
31
0
39
0
210
0
220
0
230
1
0
LINE
5
AE
100
AcDbEntity
8
1
62
256
6
ByLayer
370
18
48
1
60
0
100
AcDbLine
10
7.341422
20
0.724909
30
0
11
9
21
-0.280382
31
0
39
0
210
0
220
0
230
1
0
LINE
5
AF
100
AcDbEntity
8
1
62
256
6
ByLayer
370
18
48
1
60
0
100
AcDbLine
10
9
20
-0.280382
30
0
11
9
21
0.507438
31
0
39
0
210
0
220
0
230
1
0
LINE
5
B0
100
AcDbEntity
8
1
62
256
6
ByLayer
370
13
48
1
60
0
100
AcDbLine
10
6.619181
20
1.950489
30
0
11
9
21
0.507438
31
0
39
0
210
0
220
0
230
1
0
LINE
5
B1
100
AcDbEntity
8
1
62
256
6
ByLayer
370
13
48
1
60
0
100
AcDbLine
10
7.202223
20
0.337905
30
0
11
9
21
-0.751756
31
0
39
0
210
0
220
0
230
1
0
LINE
5
B2
100
AcDbEntity
8
1
62
256
6
ByLayer
370
18
48
1
60
0
100
AcDbLine
10
9
20
-0.751756
30
0
11
9
21
-0.936953
31
0
39
0
210
0
220
0
230
1
0
LINE
5
B3
100
AcDbEntity
8
1
62
256
6
ByLayer
370
18
48
1
60
0
100
AcDbLine
10
9
20
2.188989
30
0
11
9
21
2.063031
31
0
39
0
210
0
220
0
230
1
0
LINE
5
B4
100
AcDbEntity
8
1
62
256
6
ByLayer
370
18
48
1
60
0
100
AcDbLine
10
9
20
2.750928
30
0
11
9
21
2.555686
31
0
39
0
210
0
220
0
230
1
0
LINE
5
B5
100
AcDbEntity
8
1
62
256
6
ByLayer
370
13
48
1
60
0
100
AcDbLine
10
8.525026
20
-1.366135
30
0
11
8.525026
21
-0.635411
31
0
39
0
210
0
220
0
230
1
0
LINE
5
B6
100
AcDbEntity
8
1
62
256
6
ByLayer
370
13
48
1
60
0
100
AcDbLine
10
2.996857
20
-2.88
30
0
11
2.996857
21
0
31
0
39
0
210
0
220
0
230
1
0
LINE
5
B7
100
AcDbEntity
8
1
62
256
6
ByLayer
370
13
48
1
60
0
100
AcDbLine
10
2.996857
20
0
30
0
11
2.996857
21
2.88
31
0
39
0
210
0
220
0
230
1
0
LINE
5
B8
100
AcDbEntity
8
1
62
256
6
ByLayer
370
18
48
1
60
0
100
AcDbLine
10
2.521884
20
3
30
0
11
2.521884
21
0
31
0
39
0
210
0
220
0
230
1
0
LINE
5
B9
100
AcDbEntity
8
1
62
256
6
ByLayer
370
18
48
1
60
0
100
AcDbLine
10
2.521884
20
0
30
0
11
2.521884
21
-3
31
0
39
0
210
0
220
0
230
1
0
LINE
5
BA
100
AcDbEntity
8
SK1
62
256
6
ByLayer
370
18
48
1
60
0
100
AcDbLine
10
-36
20
-2.6
30
0
11
-36
21
2.6
31
0
39
0
210
0
220
0
230
1
0
LINE
5
BC
100
AcDbEntity
8
SK1
62
256
6
ByLayer
370
18
48
1
60
0
100
AcDbLine
10
0
20
3
30
0
11
0
21
0
31
0
39
0
210
0
220
0
230
1
0
LINE
5
BD
100
AcDbEntity
8
SK1
62
256
6
ByLayer
370
18
48
1
60
0
100
AcDbLine
10
0
20
0
30
0
11
0
21
-3
31
0
39
0
210
0
220
0
230
1
0
LINE
5
BE
100
AcDbEntity
8
SK1
62
256
6
ByLayer
370
18
48
1
60
0
100
AcDbLine
10
-35.6
20
3
30
0
11
-35.6
21
-3
31
0
39
0
210
0
220
0
230
1
0
LINE
5
BF
100
AcDbEntity
8
SK1
62
256
6
ByLayer
370
18
48
1
60
0
100
AcDbLine
10
-20.1
20
2.1
30
0
11
-21
21
3
31
0
39
0
210
0
220
0
230
1
0
LINE
5
C0
100
AcDbEntity
8
SK1
62
256
6
ByLayer
370
18
48
1
60
0
100
AcDbLine
10
-15
20
3
30
0
11
-15.9
21
2.1
31
0
39
0
210
0
220
0
230
1
0
LINE
5
C1
100
AcDbEntity
8
SK1
62
256
6
ByLayer
370
18
48
1
60
0
100
AcDbLine
10
-20.1
20
2.1
30
0
11
-15.9
21
2.1
31
0
39
0
210
0
220
0
230
1
0
LINE
5
C2
100
AcDbEntity
8
1
62
256
6
ByLayer
370
18
48
1
60
0
100
AcDbLine
10
2.521884
20
3
30
0
11
0
21
3
31
0
39
0
210
0
220
0
230
1
0
LINE
5
C3
100
AcDbEntity
8
1
62
256
6
ByLayer
370
18
48
1
60
0
100
AcDbLine
10
0
20
-3
30
0
11
2.521884
21
-3
31
0
39
0
210
0
220
0
230
1
0
LINE
5
C4
100
AcDbEntity
8
1
62
256
6
ByLayer
370
18
48
1
60
0
100
AcDbLine
10
7.243343
20
2.88
30
0
11
2.996857
21
2.88
31
0
39
0
210
0
220
0
230
1
0
LINE
5
C5
100
AcDbEntity
8
1
62
256
6
ByLayer
370
18
48
1
60
0
100
AcDbLine
10
2.996857
20
-2.88
30
0
11
8.525026
21
-2.88
31
0
39
0
210
0
220
0
230
1
0
LINE
5
C6
100
AcDbEntity
8
SK1
62
256
6
ByLayer
370
18
48
1
60
0
100
AcDbLine
10
-36
20
-2.6
30
0
11
-35.6
21
-3
31
0
39
0
210
0
220
0
230
1
0
LINE
5
C7
100
AcDbEntity
8
SK1
62
256
6
ByLayer
370
18
48
1
60
0
100
AcDbLine
10
-35.6
20
3
30
0
11
-36
21
2.6
31
0
39
0
210
0
220
0
230
1
0
LINE
5
C8
100
AcDbEntity
8
SK1
62
256
6
ByLayer
370
18
48
1
60
0
100
AcDbLine
10
0
20
3
30
0
11
-15
21
3
31
0
39
0
210
0
220
0
230
1
0
LINE
5
C9
100
AcDbEntity
8
SK1
62
256
6
ByLayer
370
18
48
1
60
0
100
AcDbLine
10
-21
20
3
30
0
11
-35.6
21
3
31
0
39
0
210
0
220
0
230
1
0
LINE
5
CA
100
AcDbEntity
8
SK1
62
256
6
ByLayer
370
18
48
1
60
0
100
AcDbLine
10
-35.6
20
-3
30
0
11
0
21
-3
31
0
39
0
210
0
220
0
230
1
0
LINE
5
CB
100
AcDbEntity
8
SK2
62
256
6
ByLayer
370
18
48
1
60
0
100
AcDbLine
10
-43.85
20
11.75
30
0
11
-43.85
21
-19.315466
31
0
39
0
210
0
220
0
230
1
0
LINE
5
CD
100
AcDbEntity
8
SK2
62
256
6
ByLayer
370
18
48
1
60
0
100
AcDbLine
10
-37.1875
20
3
30
0
11
-45.85
21
3
31
0
39
0
210
0
220
0
230
1
0
LINE
5
CE
100
AcDbEntity
8
SK2
62
256
6
ByLayer
370
18
48
1
60
0
100
AcDbLine
10
-37.1875
20
-3
30
0
11
-45.85
21
-3
31
0
39
0
210
0
220
0
230
1
0
LINE
5
CF
100
AcDbEntity
8
1
62
256
6
ByLayer
370
18
48
1
60
1
100
AcDbLine
10
-43.85
20
3
30
0
11
-44.310784
21
6.499998
31
0
39
0
210
0
220
0
230
1
0
LINE
5
D0
100
AcDbEntity
8
1
62
256
6
ByLayer
370
18
48
1
60
1
100
AcDbLine
10
-44.310784
20
6.499998
30
0
11
-43.389216
21
6.500002
31
0
39
0
210
0
220
0
230
1
0
LINE
5
D1
100
AcDbEntity
8
1
62
256
6
ByLayer
370
18
48
1
60
1
100
AcDbLine
10
-43.389216
20
6.500002
30
0
11
-43.85
21
3
31
0
39
0
210
0
220
0
230
1
0
LINE
5
D2
100
AcDbEntity
8
1
62
256
6
ByLayer
370
18
48
1
60
1
100
AcDbLine
10
-43.85
20
-3
30
0
11
-43.389216
21
-6.499998
31
0
39
0
210
0
220
0
230
1
0
LINE
5
D3
100
AcDbEntity
8
1
62
256
6
ByLayer
370
18
48
1
60
1
100
AcDbLine
10
-43.389216
20
-6.499998
30
0
11
-44.310784
21
-6.500002
31
0
39
0
210
0
220
0
230
1
0
LINE
5
D4
100
AcDbEntity
8
1
62
256
6
ByLayer
370
18
48
1
60
1
100
AcDbLine
10
-44.310784
20
-6.500002
30
0
11
-43.85
21
-3
31
0
39
0
210
0
220
0
230
1
0
LINE
5
D5
100
AcDbEntity
8
SK2
62
256
6
ByLayer
370
13
48
1
60
0
100
AcDbLine
10
7.210942
20
29.844398
30
0
11
7.210942
21
-11.63
31
0
39
0
210
0
220
0
230
1
0
LINE
5
D6
100
AcDbEntity
8
SK2
62
256
6
ByLayer
370
13
48
1
60
0
100
AcDbLine
10
6.937526
20
2.88
30
0
11
5.210942
21
2.88
31
0
39
0
210
0
220
0
230
1
0
LINE
5
D7
100
AcDbEntity
8
SK2
62
256
6
ByLayer
370
13
48
1
60
0
100
AcDbLine
10
6.937526
20
-2.88
30
0
11
5.210942
21
-2.88
31
0
39
0
210
0
220
0
230
1
0
LINE
5
D8
100
AcDbEntity
8
1
62
256
6
ByLayer
370
18
48
1
60
1
100
AcDbLine
10
7.210942
20
2.88
30
0
11
6.750158
21
6.379998
31
0
39
0
210
0
220
0
230
1
0
LINE
5
D9
100
AcDbEntity
8
1
62
256
6
ByLayer
370
18
48
1
60
1
100
AcDbLine
10
6.750158
20
6.379998
30
0
11
7.671726
21
6.380002
31
0
39
0
210
0
220
0
230
1
0
LINE
5
DA
100
AcDbEntity
8
1
62
256
6
ByLayer
370
18
48
1
60
1
100
AcDbLine
10
7.671726
20
6.380002
30
0
11
7.210942
21
2.88
31
0
39
0
210
0
220
0
230
1
0
LINE
5
DB
100
AcDbEntity
8
1
62
256
6
ByLayer
370
18
48
1
60
1
100
AcDbLine
10
7.210942
20
-2.88
30
0
11
7.671726
21
-6.379998
31
0
39
0
210
0
220
0
230
1
0
LINE
5
DC
100
AcDbEntity
8
1
62
256
6
ByLayer
370
18
48
1
60
1
100
AcDbLine
10
7.671726
20
-6.379998
30
0
11
6.750158
21
-6.380002
31
0
39
0
210
0
220
0
230
1
0
LINE
5
DD
100
AcDbEntity
8
1
62
256
6
ByLayer
370
18
48
1
60
1
100
AcDbLine
10
6.750158
20
-6.380002
30
0
11
7.210942
21
-2.88
31
0
39
0
210
0
220
0
230
1
0
LINE
5
DE
100
AcDbEntity
8
2
62
256
6
ByLayer
370
18
48
1
60
0
100
AcDbLine
10
33
20
19.315466
30
0
11
33
21
-11.75
31
0
39
0
210
0
220
0
230
1
0
LINE
5
E0
100
AcDbEntity
8
2
62
256
6
ByLayer
370
18
48
1
60
0
100
AcDbLine
10
22.5875
20
3
30
0
11
35
21
3
31
0
39
0
210
0
220
0
230
1
0
LINE
5
E1
100
AcDbEntity
8
2
62
256
6
ByLayer
370
18
48
1
60
0
100
AcDbLine
10
22.5875
20
-3
30
0
11
35
21
-3
31
0
39
0
210
0
220
0
230
1
0
LINE
5
E2
100
AcDbEntity
8
1
62
256
6
ByLayer
370
18
48
1
60
1
100
AcDbLine
10
33
20
3
30
0
11
32.539216
21
6.499998
31
0
39
0
210
0
220
0
230
1
0
LINE
5
E3
100
AcDbEntity
8
1
62
256
6
ByLayer
370
18
48
1
60
1
100
AcDbLine
10
32.539216
20
6.499998
30
0
11
33.460784
21
6.500002
31
0
39
0
210
0
220
0
230
1
0
LINE
5
E4
100
AcDbEntity
8
1
62
256
6
ByLayer
370
18
48
1
60
1
100
AcDbLine
10
33.460784
20
6.500002
30
0
11
33
21
3
31
0
39
0
210
0
220
0
230
1
0
LINE
5
E5
100
AcDbEntity
8
1
62
256
6
ByLayer
370
18
48
1
60
1
100
AcDbLine
10
33
20
-3
30
0
11
33.460784
21
-6.499998
31
0
39
0
210
0
220
0
230
1
0
LINE
5
E6
100
AcDbEntity
8
1
62
256
6
ByLayer
370
18
48
1
60
1
100
AcDbLine
10
33.460784
20
-6.499998
30
0
11
32.539216
21
-6.500002
31
0
39
0
210
0
220
0
230
1
0
LINE
5
E7
100
AcDbEntity
8
1
62
256
6
ByLayer
370
18
48
1
60
1
100
AcDbLine
10
32.539216
20
-6.500002
30
0
11
33
21
-3
31
0
39
0
210
0
220
0
230
1
0
LINE
5
E8
100
AcDbEntity
8
SK2
62
256
6
ByLayer
370
18
48
1
60
0
100
AcDbLine
10
21
20
-49.55523
30
0
11
-36
21
-49.55523
31
0
39
0
210
0
220
0
230
1
0
LINE
5
E9
100
AcDbEntity
8
SK2
62
256
6
ByLayer
370
18
48
1
60
0
100
AcDbLine
10
-36
20
-4.1875
30
0
11
-36
21
-51.55523
31
0
39
0
210
0
220
0
230
1
0
LINE
5
EA
100
AcDbEntity
8
SK2
62
256
6
ByLayer
370
18
48
1
60
0
100
AcDbLine
10
21
20
-4.5875
30
0
11
21
21
-51.55523
31
0
39
0
210
0
220
0
230
1
0
LINE
5
EB
100
AcDbEntity
8
1
62
256
6
ByLayer
370
18
48
1
60
1
100
AcDbLine
10
-36
20
-49.55523
30
0
11
-32.500002
21
-49.094446
31
0
39
0
210
0
220
0
230
1
0
LINE
5
EC
100
AcDbEntity
8
1
62
256
6
ByLayer
370
18
48
1
60
1
100
AcDbLine
10
-32.500002
20
-49.094446
30
0
11
-32.499998
21
-50.016014
31
0
39
0
210
0
220
0
230
1
0
LINE
5
ED
100
AcDbEntity
8
1
62
256
6
ByLayer
370
18
48
1
60
1
100
AcDbLine
10
-32.499998
20
-50.016014
30
0
11
-36
21
-49.55523
31
0
39
0
210
0
220
0
230
1
0
LINE
5
EE
100
AcDbEntity
8
1
62
256
6
ByLayer
370
18
48
1
60
1
100
AcDbLine
10
21
20
-49.55523
30
0
11
17.500002
21
-50.016014
31
0
39
0
210
0
220
0
230
1
0
LINE
5
EF
100
AcDbEntity
8
1
62
256
6
ByLayer
370
18
48
1
60
1
100
AcDbLine
10
17.500002
20
-50.016014
30
0
11
17.499998
21
-49.094446
31
0
39
0
210
0
220
0
230
1
0
LINE
5
F0
100
AcDbEntity
8
1
62
256
6
ByLayer
370
18
48
1
60
1
100
AcDbLine
10
17.499998
20
-49.094446
30
0
11
21
21
-49.55523
31
0
39
0
210
0
220
0
230
1
0
LINE
5
1A0
100
AcDbEntity
8
1
62
256
6
ByLayer
370
18
48
1
60
1
100
AcDbLine
10
-43.85
20
3
30
0
11
-44.310784
21
6.499998
31
0
39
0
210
0
220
0
230
1
0
LINE
5
1A1
100
AcDbEntity
8
1
62
256
6
ByLayer
370
18
48
1
60
1
100
AcDbLine
10
-44.310784
20
6.499998
30
0
11
-43.389216
21
6.500002
31
0
39
0
210
0
220
0
230
1
0
LINE
5
1A2
100
AcDbEntity
8
1
62
256
6
ByLayer
370
18
48
1
60
1
100
AcDbLine
10
-43.389216
20
6.500002
30
0
11
-43.85
21
3
31
0
39
0
210
0
220
0
230
1
0
LINE
5
1A4
100
AcDbEntity
8
1
62
256
6
ByLayer
370
18
48
1
60
1
100
AcDbLine
10
-43.85
20
-3
30
0
11
-43.389216
21
-6.499998
31
0
39
0
210
0
220
0
230
1
0
LINE
5
1A5
100
AcDbEntity
8
1
62
256
6
ByLayer
370
18
48
1
60
1
100
AcDbLine
10
-43.389216
20
-6.499998
30
0
11
-44.310784
21
-6.500002
31
0
39
0
210
0
220
0
230
1
0
LINE
5
1A6
100
AcDbEntity
8
1
62
256
6
ByLayer
370
18
48
1
60
1
100
AcDbLine
10
-44.310784
20
-6.500002
30
0
11
-43.85
21
-3
31
0
39
0
210
0
220
0
230
1
0
LINE
5
1AA
100
AcDbEntity
8
1
62
256
6
ByLayer
370
18
48
1
60
1
100
AcDbLine
10
7.210942
20
2.88
30
0
11
6.750158
21
6.379998
31
0
39
0
210
0
220
0
230
1
0
LINE
5
1AB
100
AcDbEntity
8
1
62
256
6
ByLayer
370
18
48
1
60
1
100
AcDbLine
10
6.750158
20
6.379998
30
0
11
7.671726
21
6.380002
31
0
39
0
210
0
220
0
230
1
0
LINE
5
1AC
100
AcDbEntity
8
1
62
256
6
ByLayer
370
18
48
1
60
1
100
AcDbLine
10
7.671726
20
6.380002
30
0
11
7.210942
21
2.88
31
0
39
0
210
0
220
0
230
1
0
LINE
5
1AE
100
AcDbEntity
8
1
62
256
6
ByLayer
370
18
48
1
60
1
100
AcDbLine
10
7.210942
20
-2.88
30
0
11
7.671726
21
-6.379998
31
0
39
0
210
0
220
0
230
1
0
LINE
5
1AF
100
AcDbEntity
8
1
62
256
6
ByLayer
370
18
48
1
60
1
100
AcDbLine
10
7.671726
20
-6.379998
30
0
11
6.750158
21
-6.380002
31
0
39
0
210
0
220
0
230
1
0
LINE
5
1B0
100
AcDbEntity
8
1
62
256
6
ByLayer
370
18
48
1
60
1
100
AcDbLine
10
6.750158
20
-6.380002
30
0
11
7.210942
21
-2.88
31
0
39
0
210
0
220
0
230
1
0
LINE
5
1B4
100
AcDbEntity
8
1
62
256
6
ByLayer
370
18
48
1
60
1
100
AcDbLine
10
33
20
3
30
0
11
32.539216
21
6.499998
31
0
39
0
210
0
220
0
230
1
0
LINE
5
1B5
100
AcDbEntity
8
1
62
256
6
ByLayer
370
18
48
1
60
1
100
AcDbLine
10
32.539216
20
6.499998
30
0
11
33.460784
21
6.500002
31
0
39
0
210
0
220
0
230
1
0
LINE
5
1B6
100
AcDbEntity
8
1
62
256
6
ByLayer
370
18
48
1
60
1
100
AcDbLine
10
33.460784
20
6.500002
30
0
11
33
21
3
31
0
39
0
210
0
220
0
230
1
0
LINE
5
1B8
100
AcDbEntity
8
1
62
256
6
ByLayer
370
18
48
1
60
1
100
AcDbLine
10
33
20
-3
30
0
11
33.460784
21
-6.499998
31
0
39
0
210
0
220
0
230
1
0
LINE
5
1B9
100
AcDbEntity
8
1
62
256
6
ByLayer
370
18
48
1
60
1
100
AcDbLine
10
33.460784
20
-6.499998
30
0
11
32.539216
21
-6.500002
31
0
39
0
210
0
220
0
230
1
0
LINE
5
1BA
100
AcDbEntity
8
1
62
256
6
ByLayer
370
18
48
1
60
1
100
AcDbLine
10
32.539216
20
-6.500002
30
0
11
33
21
-3
31
0
39
0
210
0
220
0
230
1
0
LINE
5
1BD
100
AcDbEntity
8
1
62
256
6
ByLayer
370
18
48
1
60
1
100
AcDbLine
10
-36
20
-49.55523
30
0
11
-32.500002
21
-49.094446
31
0
39
0
210
0
220
0
230
1
0
LINE
5
1BE
100
AcDbEntity
8
1
62
256
6
ByLayer
370
18
48
1
60
1
100
AcDbLine
10
-32.500002
20
-49.094446
30
0
11
-32.499998
21
-50.016014
31
0
39
0
210
0
220
0
230
1
0
LINE
5
1BF
100
AcDbEntity
8
1
62
256
6
ByLayer
370
18
48
1
60
1
100
AcDbLine
10
-32.499998
20
-50.016014
30
0
11
-36
21
-49.55523
31
0
39
0
210
0
220
0
230
1
0
LINE
5
1C1
100
AcDbEntity
8
1
62
256
6
ByLayer
370
18
48
1
60
1
100
AcDbLine
10
21
20
-49.55523
30
0
11
17.500002
21
-50.016014
31
0
39
0
210
0
220
0
230
1
0
LINE
5
1C2
100
AcDbEntity
8
1
62
256
6
ByLayer
370
18
48
1
60
1
100
AcDbLine
10
17.500002
20
-50.016014
30
0
11
17.499998
21
-49.094446
31
0
39
0
210
0
220
0
230
1
0
LINE
5
1C3
100
AcDbEntity
8
1
62
256
6
ByLayer
370
18
48
1
60
1
100
AcDbLine
10
17.499998
20
-49.094446
30
0
11
21
21
-49.55523
31
0
39
0
210
0
220
0
230
1
0
MTEXT
5
19C
100
AcDbEntity
8
SK2
62
256
6
ByLayer
370
18
48
1
60
0
100
AcDbMText
10
-45.414634
20
-17.380622
30
0
210
0
220
0
230
1
1
%%c
40
3.5
41
0
44
1.084337
50
90
71
7
72
5
7
iso_b_vert
0
MTEXT
5
19F
100
AcDbEntity
8
SK2
62
256
6
ByLayer
370
18
48
1
60
0
100
AcDbMText
10
-45.414634
20
-10.407966
30
0
210
0
220
0
230
1
1
\W0.5404;6
40
3.5
41
0
44
1.084337
50
90
71
7
72
5
7
iso_b_vert
0
MTEXT
5
1A8
100
AcDbEntity
8
SK2
62
256
6
ByLayer
370
18
48
1
60
0
100
AcDbMText
10
5.646308
20
14.814844
30
0
210
0
220
0
230
1
1
%%c
40
3.5
41
0
44
1.084337
50
90
71
7
72
5
7
iso_b_vert
0
MTEXT
5
1A9
100
AcDbEntity
8
SK2
62
256
6
ByLayer
370
18
48
1
60
0
100
AcDbMText
10
5.646308
20
21.7875
30
0
210
0
220
0
230
1
1
\W0.7346;5.76
40
3.5
41
0
44
1.084337
50
90
71
7
72
5
7
iso_b_vert
0
MTEXT
5
1B2
100
AcDbEntity
8
2
62
256
6
ByLayer
370
18
48
1
60
0
100
AcDbMText
10
31.435366
20
10.934844
30
0
210
0
220
0
230
1
1
%%c
40
3.5
41
0
44
1.084337
50
90
71
7
72
5
7
iso_b_vert
0
MTEXT
5
1B3
100
AcDbEntity
8
2
62
256
6
ByLayer
370
18
48
1
60
0
100
AcDbMText
10
31.435366
20
17.9075
30
0
210
0
220
0
230
1
1
\W0.5404;6
40
3.5
41
0
44
1.084337
50
90
71
7
72
5
7
iso_b_vert
0
MTEXT
5
1BC
100
AcDbEntity
8
SK2
62
256
6
ByLayer
370
18
48
1
60
0
100
AcDbMText
10
-9.404966
20
-48.522596
30
0
210
0
220
0
230
1
1
\W0.6740;57
40
3.5
41
0
44
1.084337
50
0
71
7
72
5
7
iso_b_vert
0
MTEXT
5
1C5
100
AcDbEntity
8
SK6
62
256
6
ByLayer
370
18
48
1
60
0
100
AcDbMText
10
-32.648514
20
-62.12697
30
0
210
0
220
0
230
1
1
\W0.7088;1K335-0600-100-XD   1730
40
3
41
0
44
1.084337
50
0
71
7
72
5
7
iso_b_vert
0
HATCH
5
1A3
100
AcDbEntity
8
SK2
62
256
6
ByLayer
370
13
48
1
60
0
100
AcDbHatch
10
0
20
0
30
0
210
0
220
0
230
1
2
ANSI31
70
0
71
0
91
1
92
5
93
3
72
1
10
-43.85
20
3
11
-44.3107837415528
21
6.49999830744682
72
1
10
-44.3107837415528
20
6.49999830744682
11
-43.3892162584472
21
6.50000169255318
72
1
10
-43.3892162584472
20
6.50000169255318
11
-43.85
21
3
97
0
75
0
76
1
52
0
41
0.0062
77
0
78
1
53
45
43
0
44
0
45
-0.0139193969876572
46
0.0139193969876572
79
0
47
0
98
1
10
0
20
0
0
HATCH
5
1A7
100
AcDbEntity
8
SK2
62
256
6
ByLayer
370
13
48
1
60
0
100
AcDbHatch
10
0
20
0
30
0
210
0
220
0
230
1
2
ANSI31
70
0
71
0
91
1
92
5
93
3
72
1
10
-43.85
20
-3
11
-43.3892162584472
21
-6.49999830744682
72
1
10
-43.3892162584472
20
-6.49999830744682
11
-44.3107837415528
21
-6.50000169255318
72
1
10
-44.3107837415528
20
-6.50000169255318
11
-43.85
21
-3
97
0
75
0
76
1
52
0
41
0.0062
77
0
78
1
53
45
43
0
44
0
45
-0.0139193969876572
46
0.0139193969876572
79
0
47
0
98
1
10
0
20
0
0
HATCH
5
1AD
100
AcDbEntity
8
SK2
62
256
6
ByLayer
370
13
48
1
60
0
100
AcDbHatch
10
0
20
0
30
0
210
0
220
0
230
1
2
ANSI31
70
0
71
0
91
1
92
5
93
3
72
1
10
7.21094181641072
20
2.87999999999997
11
6.75015807485795
21
6.37999830744678
72
1
10
6.75015807485795
20
6.37999830744678
11
7.6717255579635
21
6.38000169255315
72
1
10
7.6717255579635
20
6.38000169255315
11
7.21094181641072
21
2.87999999999997
97
0
75
0
76
1
52
0
41
0.0062
77
0
78
1
53
45
43
0
44
0
45
-0.0139193969876572
46
0.0139193969876572
79
0
47
0
98
1
10
0
20
0
0
HATCH
5
1B1
100
AcDbEntity
8
SK2
62
256
6
ByLayer
370
13
48
1
60
0
100
AcDbHatch
10
0
20
0
30
0
210
0
220
0
230
1
2
ANSI31
70
0
71
0
91
1
92
5
93
3
72
1
10
7.21094181641072
20
-2.88000000000002
11
7.6717255579635
21
-6.37999830744684
72
1
10
7.6717255579635
20
-6.37999830744684
11
6.75015807485795
21
-6.38000169255321
72
1
10
6.75015807485795
20
-6.38000169255321
11
7.21094181641072
21
-2.88000000000002
97
0
75
0
76
1
52
0
41
0.0062
77
0
78
1
53
45
43
0
44
0
45
-0.0139193969876572
46
0.0139193969876572
79
0
47
0
98
1
10
0
20
0
0
HATCH
5
1B7
100
AcDbEntity
8
2
62
256
6
ByLayer
370
13
48
1
60
0
100
AcDbHatch
10
0
20
0
30
0
210
0
220
0
230
1
2
ANSI31
70
0
71
0
91
1
92
5
93
3
72
1
10
33
20
2.99999999999994
11
32.5392162584472
21
6.49999830744676
72
1
10
32.5392162584472
20
6.49999830744676
11
33.4607837415528
21
6.50000169255313
72
1
10
33.4607837415528
20
6.50000169255313
11
33
21
2.99999999999994
97
0
75
0
76
1
52
0
41
0.0062
77
0
78
1
53
45
43
0
44
0
45
-0.0139193969876572
46
0.0139193969876572
79
0
47
0
98
1
10
0
20
0
0
HATCH
5
1BB
100
AcDbEntity
8
2
62
256
6
ByLayer
370
13
48
1
60
0
100
AcDbHatch
10
0
20
0
30
0
210
0
220
0
230
1
2
ANSI31
70
0
71
0
91
1
92
5
93
3
72
1
10
33
20
-3.00000000000006
11
33.4607837415528
21
-6.49999830744687
72
1
10
33.4607837415528
20
-6.49999830744687
11
32.5392162584472
21
-6.50000169255324
72
1
10
32.5392162584472
20
-6.50000169255324
11
33
21
-3.00000000000006
97
0
75
0
76
1
52
0
41
0.0062
77
0
78
1
53
45
43
0
44
0
45
-0.0139193969876572
46
0.0139193969876572
79
0
47
0
98
1
10
0
20
0
0
HATCH
5
1C0
100
AcDbEntity
8
SK2
62
256
6
ByLayer
370
13
48
1
60
0
100
AcDbHatch
10
0
20
0
30
0
210
0
220
0
230
1
2
ANSI31
70
0
71
0
91
1
92
5
93
3
72
1
10
-36
20
-49.5552297865164
11
-32.5000016925532
21
-49.0944460449636
72
1
10
-32.5000016925532
20
-49.0944460449636
11
-32.4999983074468
21
-50.0160135280691
72
1
10
-32.4999983074468
20
-50.0160135280691
11
-36
21
-49.5552297865164
97
0
75
0
76
1
52
0
41
0.0062
77
0
78
1
53
45
43
0
44
0
45
-0.0139193969876572
46
0.0139193969876572
79
0
47
0
98
1
10
0
20
0
0
HATCH
5
1C4
100
AcDbEntity
8
SK2
62
256
6
ByLayer
370
13
48
1
60
0
100
AcDbHatch
10
0
20
0
30
0
210
0
220
0
230
1
2
ANSI31
70
0
71
0
91
1
92
5
93
3
72
1
10
21
20
-49.5552297865164
11
17.5000016925532
21
-50.0160135280691
72
1
10
17.5000016925532
20
-50.0160135280691
11
17.4999983074468
21
-49.0944460449636
72
1
10
17.4999983074468
20
-49.0944460449636
11
21
21
-49.5552297865164
97
0
75
0
76
1
52
0
41
0.0062
77
0
78
1
53
45
43
0
44
0
45
-0.0139193969876572
46
0.0139193969876572
79
0
47
0
98
1
10
0
20
0
0
DIMENSION
5
1C8
100
AcDbEntity
8
2
62
256
6
ByLayer
370
18
48
1
60
0
100
AcDbDimension
2
_U0
10
9
20
-17.55523
30
0
11
15
21
-17.55523
31
0
70
32
71
1
72
1
41
1
210
0
220
0
230
1
3
Standard
100
AcDbAlignedDimension
13
21
23
-3
33
0
14
9
24
-3
34
0
50
0
100
AcDbRotatedDimension
1001
ACAD
1000
DSTYLE
1002
{
1070
   371
1070
    13
1070
   372
1070
    13
1070
   170
1070
     0
1070
   144
1040
1.0
1070
   277
1070
     2
1070
   284
1070
     8
1070
   278
1070
    46
1070
   146
1040
1.0
1070
   345
1005
16
1070
   347
1005
16
1070
   346
1005
16
1070
   344
1005
0
1070
   343
1005
0
1070
   172
1070
     1
1070
    76
1070
     0
1070
    75
1070
     0
1070
   282
1070
     0
1070
   281
1070
     0
1070
    71
1070
     0
1070
    74
1070
     0
1070
   279
1070
     0
1070
   173
1070
     1
1070
   340
1005
19D
1070
   271
1070
     2
1070
   272
1070
     2
1070
    77
1070
     1
1070
    73
1070
     1
1070
   171
1070
     3
1070
   274
1070
     4
1070
   177
1070
     2
1070
   176
1070
     2
1070
   178
1070
     2
1070
    78
1070
     8
1070
    48
1040
-0.1
1070
    41
1040
3.5
1070
   147
1040
1.75
1070
    42
1040
1.5875
1070
    44
1040
2.0
1070
   140
1040
3.5
1002
}
1001
ACAD_DSTYLE_DIM_LINETYPE
1070
   380
1005
16
1001
ACAD_DSTYLE_DIM_EXT1_LINETYPE
1070
   381
1005
16
1001
ACAD_DSTYLE_DIM_EXT2_LINETYPE
1070
   382
1005
16
0
DIMENSION
5
1E2
100
AcDbEntity
8
SK2
62
256
6
ByLayer
370
18
48
1
60
0
100
AcDbDimension
2
_U1
10
2.996857
20
-32.55523
30
0
11
11.998429
21
-32.55523
31
0
70
32
71
1
72
1
41
1
210
0
220
0
230
1
3
Standard
100
AcDbAlignedDimension
13
21
23
-3
33
0
14
2.996857
24
-2.88
34
0
50
0
100
AcDbRotatedDimension
1001
ACAD
1000
DSTYLE
1002
{
1070
   371
1070
    13
1070
   372
1070
    13
1070
   170
1070
     0
1070
   144
1040
1.0
1070
   277
1070
     2
1070
   284
1070
     8
1070
   278
1070
    46
1070
   146
1040
1.0
1070
   345
1005
16
1070
   347
1005
16
1070
   346
1005
16
1070
   344
1005
0
1070
   343
1005
0
1070
   172
1070
     1
1070
    76
1070
     0
1070
    75
1070
     0
1070
   282
1070
     0
1070
   281
1070
     0
1070
    71
1070
     0
1070
    74
1070
     0
1070
   279
1070
     0
1070
   173
1070
     1
1070
   340
1005
19D
1070
   271
1070
     2
1070
   272
1070
     2
1070
    77
1070
     1
1070
    73
1070
     1
1070
   171
1070
     3
1070
   274
1070
     4
1070
   177
1070
     2
1070
   176
1070
     2
1070
   178
1070
     2
1070
    78
1070
     8
1070
    48
1040
-0.1
1070
    41
1040
3.5
1070
   147
1040
1.75
1070
    42
1040
1.5875
1070
    44
1040
2.0
1070
   140
1040
3.5
1002
}
1001
ACAD_DSTYLE_DIM_LINETYPE
1070
   380
1005
16
1001
ACAD_DSTYLE_DIM_EXT1_LINETYPE
1070
   381
1005
16
1001
ACAD_DSTYLE_DIM_EXT2_LINETYPE
1070
   382
1005
16
0
ENDSEC
0
SECTION
2
OBJECTS
0
DICTIONARY
5
26a
330
0
100
AcDbDictionary
280
0
281
1
3
ACAD_GROUP
350
26b
3
ACAD_MLINESTYLE
350
26c
0
DICTIONARY
5
26b
330
0
100
AcDbDictionary
280
0
281
1
0
DICTIONARY
5
26c
330
0
100
AcDbDictionary
280
0
281
1
3
Standard
350
18
0
MLINESTYLE
5
18
330
26c
100
AcDbMlineStyle
2
Standard
70
0
3

62
256
51
90
52
90
71
2
49
-0.5
62
256
6
ByLayer
49
0.5
62
256
6
ByLayer
0
RASTERVARIABLES
5
258
330

100
AcDbRasterVariables
90
0
70
1
71
1
72
1
0
ENDSEC
0
EOF
