0
SECTION
2
HEADER
9
$ACADVER
1
AC1015
9
$DWGCODEPAGE
3
ANSI_1252
9
$HANDSEED
5
25b
9
$ANGBASE
50
0
9
$ANGDIR
70
0
9
$ATTMODE
70
1
9
$AUNITS
70
0
9
$AUPREC
70
0
9
$CECOLOR
62
256
9
$CELTSCALE
40
1
9
$CELTYPE
6
ByLayer
9
$CELWEIGHT
370
18
9
$CLAYER
8
0
9
$CMLJUST
70
0
9
$CMLSCALE
40
1
9
$CMLSTYLE
2
Standard
9
$DIMSTYLE
2
Standard
9
$TEXTSIZE
40
0.2
9
$TEXTSTYLE
7
Standard
9
$LUNITS
70
2
9
$LUPREC
70
4
9
$EXTNAMES
290
1
9
$INSUNITS
70
4
9
$LTSCALE
40
1
9
$LWDISPLAY
290
1
9
$PDMODE
70
0
9
$PDSIZE
40
0
9
$PLINEGEN
70
0
0
ENDSEC
0
SECTION
2
CLASSES
0
CLASS
1
RASTERVARIABLES
2
AcDbRasterVariables
3
ISM
90
0
280
0
281
0
0
ENDSEC
0
SECTION
2
TABLES
0
TABLE
2
VPORT
5
251
100
AcDbSymbolTable
0
VPORT
5
1
100
AcDbSymbolTableRecord
100
AcDbViewportTableRecord
2
*Active
70
0
10
0
20
0
11
1
21
1
12
-1
22
1
13
0
23
0
14
0.5
24
0.5
15
10
25
10
16
0
26
0
36
1
17
0
27
0
37
0
0
ENDTAB
0
TABLE
2
LTYPE
5
252
100
AcDbSymbolTable
0
LTYPE
5
14
100
AcDbSymbolTableRecord
100
AcDbLinetypeTableRecord
70
0
2
ByBlock
3

72
65
73
0
40
0
0
LTYPE
5
15
100
AcDbSymbolTableRecord
100
AcDbLinetypeTableRecord
70
0
2
ByLayer
3

72
65
73
0
40
0
0
LTYPE
5
16
100
AcDbSymbolTableRecord
100
AcDbLinetypeTableRecord
70
0
2
Continuous
3
Solid line
72
65
73
0
40
0
0
LTYPE
5
6E
100
AcDbSymbolTableRecord
100
AcDbLinetypeTableRecord
70
0
2
CENTER
3
____ _ ____ _ ____ _ ____
72
65
73
4
40
47.5
49
22
74
0
49
-8.5
74
0
49
8.5
74
0
49
-8.5
74
0
0
LTYPE
5
6F
100
AcDbSymbolTableRecord
100
AcDbLinetypeTableRecord
70
0
2
DASHED
3
__ __ __ __ __ __ __ __ __
72
65
73
2
40
25.72
49
12.86
74
0
49
-12.86
74
0
0
ENDTAB
0
TABLE
2
LAYER
5
253
100
AcDbSymbolTable
0
LAYER
5
10
100
AcDbSymbolTableRecord
100
AcDbLayerTableRecord
2
0
70
0
62
7
6
Continuous
290
1
370
-3
390
0
0
LAYER
5
71
100
AcDbSymbolTableRecord
100
AcDbLayerTableRecord
2
80
70
0
62
-6
6
Continuous
290
1
370
-3
390
0
0
LAYER
5
73
100
AcDbSymbolTableRecord
100
AcDbLayerTableRecord
2
81
70
0
62
-3
6
Continuous
290
1
370
-3
390
0
0
LAYER
5
75
100
AcDbSymbolTableRecord
100
AcDbLayerTableRecord
2
1
70
0
62
4
6
Continuous
290
1
370
-3
390
0
0
LAYER
5
7B
100
AcDbSymbolTableRecord
100
AcDbLayerTableRecord
2
4
70
0
62
-2
6
CENTER
290
1
370
-3
390
0
0
LAYER
5
E1
100
AcDbSymbolTableRecord
100
AcDbLayerTableRecord
2
2
70
0
62
7
6
Continuous
290
1
370
-3
390
0
0
LAYER
5
1B0
100
AcDbSymbolTableRecord
100
AcDbLayerTableRecord
2
Defpoints
70
0
62
7
6
Continuous
290
0
370
-3
390
0
0
LAYER
5
23d
100
AcDbSymbolTableRecord
100
AcDbLayerTableRecord
2
SK4
70
0
62
2
6
CENTER
290
1
370
-3
390
0
0
LAYER
5
23e
100
AcDbSymbolTableRecord
100
AcDbLayerTableRecord
2
SK1
70
0
62
4
6
Continuous
290
1
370
-3
390
0
0
LAYER
5
23f
100
AcDbSymbolTableRecord
100
AcDbLayerTableRecord
2
SK2
70
0
62
7
6
Continuous
290
1
370
-3
390
0
0
LAYER
5
240
100
AcDbSymbolTableRecord
100
AcDbLayerTableRecord
2
SK6
70
0
62
5
6
Continuous
290
1
370
-3
390
0
0
ENDTAB
0
TABLE
2
STYLE
5
254
100
AcDbSymbolTable
0
STYLE
5
11
100
AcDbSymbolTableRecord
100
AcDbTextStyleTableRecord
2
Standard
3
txt
70
0
71
0
40
0
41
1
42
0
50
0
0
STYLE
5
182
100
AcDbSymbolTableRecord
100
AcDbTextStyleTableRecord
2
iso_b_vert
3
simplex.shx
70
0
71
0
40
0
41
1
42
0
50
0
0
STYLE
5
183
100
AcDbSymbolTableRecord
100
AcDbTextStyleTableRecord
2
DWGDirectTextStyle
3
simplex
70
0
71
0
40
0
41
1
42
0
50
0
0
ENDTAB
0
TABLE
2
DIMSTYLE
5
255
100
AcDbSymbolTable
100
AcDbDimStyleTable
0
DIMSTYLE
105
27
100
AcDbSymbolTableRecord
100
AcDbDimStyleTableRecord
2
Standard
70
0
3
<>
41
0.18
42
0.0625
44
0.18
140
0.18
147
0.09
73
0
74
0
77
1
271
2
275
0
278
52
280
0
340
11
0
ENDTAB
0
TABLE
2
VIEW
5
256
100
AcDbSymbolTable
0
ENDTAB
0
TABLE
2
UCS
5
257
100
AcDbSymbolTable
0
ENDTAB
0
TABLE
2
APPID
5
258
100
AcDbSymbolTable
0
APPID
5
12
100
AcDbSymbolTableRecord
100
AcDbRegAppTableRecord
2
ACAD
70
0
0
APPID
5
1AC
100
AcDbSymbolTableRecord
100
AcDbRegAppTableRecord
2
ACAD_DSTYLE_DIMBREAK
70
0
0
APPID
5
1FC
100
AcDbSymbolTableRecord
100
AcDbRegAppTableRecord
2
ACAD_DSTYLE_DIM_LINETYPE
70
0
0
APPID
5
1FD
100
AcDbSymbolTableRecord
100
AcDbRegAppTableRecord
2
ACAD_DSTYLE_DIM_EXT1_LINETYPE
70
0
0
APPID
5
1FE
100
AcDbSymbolTableRecord
100
AcDbRegAppTableRecord
2
ACAD_DSTYLE_DIM_EXT2_LINETYPE
70
0
0
APPID
5
239
100
AcDbSymbolTableRecord
100
AcDbRegAppTableRecord
2
ACAD_MLEADERVER
70
0
0
ENDTAB
0
TABLE
2
BLOCK_RECORD
5
259
100
AcDbSymbolTable
0
BLOCK_RECORD
5
1F
100
AcDbSymbolTableRecord
100
AcDbBlockTableRecord
2
*Model_Space
340
0
70
0
0
BLOCK_RECORD
5
1B
100
AcDbSymbolTableRecord
100
AcDbBlockTableRecord
2
*Paper_Space
340
0
70
0
0
BLOCK_RECORD
5
23
100
AcDbSymbolTableRecord
100
AcDbBlockTableRecord
2
*Paper_Space0
340
0
70
0
0
BLOCK_RECORD
5
1B1
100
AcDbSymbolTableRecord
100
AcDbBlockTableRecord
2
*D1
340
0
70
0
0
BLOCK_RECORD
5
1BD
100
AcDbSymbolTableRecord
100
AcDbBlockTableRecord
2
_U0
340
0
70
0
0
BLOCK_RECORD
5
1C9
100
AcDbSymbolTableRecord
100
AcDbBlockTableRecord
2
*D3
340
0
70
0
0
BLOCK_RECORD
5
1D5
100
AcDbSymbolTableRecord
100
AcDbBlockTableRecord
2
_U1
340
0
70
0
0
ENDTAB
0
ENDSEC
0
SECTION
2
BLOCKS
0
BLOCK
5
20
100
AcDbEntity
8
0
100
AcDbBlockBegin
2
*Model_Space
70
0
10
0
20
0
30
0
3
*Model_Space
0
ENDBLK
5
21
100
AcDbEntity
8
0
100
AcDbBlockEnd
0
BLOCK
5
1C
100
AcDbEntity
8
0
100
AcDbBlockBegin
2
*Paper_Space
70
0
10
0
20
0
30
0
3
*Paper_Space
0
ENDBLK
5
1D
100
AcDbEntity
8
0
100
AcDbBlockEnd
0
BLOCK
5
24
100
AcDbEntity
8
0
100
AcDbBlockBegin
2
*Paper_Space0
70
0
10
0
20
0
30
0
3
*Paper_Space0
0
ENDBLK
5
25
100
AcDbEntity
8
0
100
AcDbBlockEnd
0
BLOCK
5
1B2
100
AcDbEntity
8
0
100
AcDbBlockBegin
2
*D1
70
1
10
0
20
0
30
0
3
*D1
0
LINE
5
1B4
100
AcDbEntity
8
0
62
256
6
ByLayer
370
-2
48
1
60
0
100
AcDbLine
10
38
20
-7.5875
30
0
11
38
21
-23.101968
31
0
39
0
210
0
220
0
230
1
0
LINE
5
1B5
100
AcDbEntity
8
0
62
256
6
ByLayer
370
-2
48
1
60
0
100
AcDbLine
10
12
20
-7.5875
30
0
11
12
21
-23.101968
31
0
39
0
210
0
220
0
230
1
0
LINE
5
1B6
100
AcDbEntity
8
0
62
256
6
ByLayer
370
-2
48
1
60
0
100
AcDbLine
10
34.5
20
-21.101968
30
0
11
15.5
21
-21.101968
31
0
39
0
210
0
220
0
230
1
0
SOLID
5
1B7
100
AcDbEntity
8
0
62
256
6
ByLayer
370
-1
48
1
60
0
100
AcDbTrace
10
34.5
20
-21.685301
30
0
11
34.5
21
-20.518635
31
0
12
38
22
-21.101968
32
0
13
38
23
-21.101968
33
0
39
0
210
0
220
0
230
1
0
SOLID
5
1B8
100
AcDbEntity
8
0
62
256
6
ByLayer
370
-1
48
1
60
0
100
AcDbTrace
10
15.5
20
-20.518635
30
0
11
15.5
21
-21.685301
31
0
12
12
22
-21.101968
32
0
13
12
23
-21.101968
33
0
39
0
210
0
220
0
230
1
0
MTEXT
5
1B9
100
AcDbEntity
8
0
62
256
6
ByLayer
370
18
48
1
60
0
100
AcDbMText
10
25
20
-14.101968
30
0
210
0
220
0
230
1
1
\A1;26
40
3.5
41
0
44
1
50
0
71
5
72
5
7
iso_b_vert
0
POINT
5
1BA
100
AcDbEntity
8
Defpoints
62
0
6
ByLayer
370
-1
48
1
60
0
100
AcDbPoint
10
38
20
-6
30
0
39
0
210
0
220
0
230
1
50
360
0
POINT
5
1BB
100
AcDbEntity
8
Defpoints
62
0
6
ByLayer
370
-1
48
1
60
0
100
AcDbPoint
10
12
20
-6
30
0
39
0
210
0
220
0
230
1
50
360
0
POINT
5
1BC
100
AcDbEntity
8
Defpoints
62
0
6
ByLayer
370
-1
48
1
60
0
100
AcDbPoint
10
12
20
-21.101968
30
0
39
0
210
0
220
0
230
1
50
360
0
ENDBLK
5
1B3
100
AcDbEntity
8
0
100
AcDbBlockEnd
0
BLOCK
5
1C4
100
AcDbEntity
8
0
100
AcDbBlockBegin
2
_U0
70
0
10
0
20
0
30
0
3
_U0
0
MTEXT
5
1BE
100
AcDbEntity
8
2
62
256
6
ByLayer
370
18
48
1
60
0
100
AcDbMText
10
23.095034
20
-20.069334
30
0
210
0
220
0
230
1
1
\W0.6740;26
40
3.5
41
0
44
1.084337
50
0
71
7
72
5
7
iso_b_vert
0
LINE
5
1BF
100
AcDbEntity
8
2
62
256
6
ByLayer
370
13
48
1
60
0
100
AcDbLine
10
38
20
-7.5875
30
0
11
38
21
-23.101968
31
0
39
0
210
0
220
0
230
1
0
LINE
5
1C0
100
AcDbEntity
8
2
62
256
6
ByLayer
370
13
48
1
60
0
100
AcDbLine
10
12
20
-7.5875
30
0
11
12
21
-23.101968
31
0
39
0
210
0
220
0
230
1
0
LINE
5
1C1
100
AcDbEntity
8
2
62
256
6
ByLayer
370
13
48
1
60
0
100
AcDbLine
10
38
20
-21.101968
30
0
11
12
21
-21.101968
31
0
39
0
210
0
220
0
230
1
0
SOLID
5
1C2
100
AcDbEntity
8
2
62
256
6
ByLayer
370
18
48
1
60
0
100
AcDbTrace
10
38
20
-21.101968
30
0
11
34.500002
21
-21.562752
31
0
12
34.499998
22
-20.641184
32
0
13
34.499998
23
-20.641184
33
0
39
0
210
0
220
0
230
1
0
SOLID
5
1C3
100
AcDbEntity
8
2
62
256
6
ByLayer
370
18
48
1
60
0
100
AcDbTrace
10
12
20
-21.101968
30
0
11
15.499998
21
-20.641184
31
0
12
15.500002
22
-21.562752
32
0
13
15.500002
23
-21.562752
33
0
39
0
210
0
220
0
230
1
0
ENDBLK
5
1C5
100
AcDbEntity
8
0
100
AcDbBlockEnd
0
BLOCK
5
1CA
100
AcDbEntity
8
0
100
AcDbBlockBegin
2
*D3
70
1
10
0
20
0
30
0
3
*D3
0
LINE
5
1CC
100
AcDbEntity
8
0
62
256
6
ByLayer
370
-2
48
1
60
0
100
AcDbLine
10
38
20
-7.5875
30
0
11
38
21
-38.101968
31
0
39
0
210
0
220
0
230
1
0
LINE
5
1CD
100
AcDbEntity
8
0
62
256
6
ByLayer
370
-2
48
1
60
0
100
AcDbLine
10
1.997679
20
-7.3475
30
0
11
1.997679
21
-38.101968
31
0
39
0
210
0
220
0
230
1
0
LINE
5
1CE
100
AcDbEntity
8
0
62
256
6
ByLayer
370
-2
48
1
60
0
100
AcDbLine
10
34.5
20
-36.101968
30
0
11
5.497679
21
-36.101968
31
0
39
0
210
0
220
0
230
1
0
SOLID
5
1CF
100
AcDbEntity
8
0
62
256
6
ByLayer
370
-1
48
1
60
0
100
AcDbTrace
10
34.5
20
-36.685301
30
0
11
34.5
21
-35.518635
31
0
12
38
22
-36.101968
32
0
13
38
23
-36.101968
33
0
39
0
210
0
220
0
230
1
0
SOLID
5
1D0
100
AcDbEntity
8
0
62
256
6
ByLayer
370
-1
48
1
60
0
100
AcDbTrace
10
5.497679
20
-35.518635
30
0
11
5.497679
21
-36.685301
31
0
12
1.997679
22
-36.101968
32
0
13
1.997679
23
-36.101968
33
0
39
0
210
0
220
0
230
1
0
MTEXT
5
1D1
100
AcDbEntity
8
0
62
256
6
ByLayer
370
18
48
1
60
0
100
AcDbMText
10
19.998839
20
-29.101968
30
0
210
0
220
0
230
1
1
\A1;36
40
3.5
41
0
44
1
50
0
71
5
72
5
7
iso_b_vert
0
POINT
5
1D2
100
AcDbEntity
8
Defpoints
62
0
6
ByLayer
370
-1
48
1
60
0
100
AcDbPoint
10
38
20
-6
30
0
39
0
210
0
220
0
230
1
50
360
0
POINT
5
1D3
100
AcDbEntity
8
Defpoints
62
0
6
ByLayer
370
-1
48
1
60
0
100
AcDbPoint
10
1.997679
20
-5.76
30
0
39
0
210
0
220
0
230
1
50
360
0
POINT
5
1D4
100
AcDbEntity
8
Defpoints
62
0
6
ByLayer
370
-1
48
1
60
0
100
AcDbPoint
10
1.997679
20
-36.101968
30
0
39
0
210
0
220
0
230
1
50
360
0
ENDBLK
5
1CB
100
AcDbEntity
8
0
100
AcDbBlockEnd
0
BLOCK
5
1DC
100
AcDbEntity
8
0
100
AcDbBlockBegin
2
_U1
70
0
10
0
20
0
30
0
3
_U1
0
MTEXT
5
1D6
100
AcDbEntity
8
SK2
62
256
6
ByLayer
370
18
48
1
60
0
100
AcDbMText
10
18.093873
20
-35.069334
30
0
210
0
220
0
230
1
1
\W0.6740;36
40
3.5
41
0
44
1.084337
50
0
71
7
72
5
7
iso_b_vert
0
LINE
5
1D7
100
AcDbEntity
8
SK2
62
256
6
ByLayer
370
13
48
1
60
0
100
AcDbLine
10
38
20
-7.5875
30
0
11
38
21
-38.101968
31
0
39
0
210
0
220
0
230
1
0
LINE
5
1D8
100
AcDbEntity
8
SK2
62
256
6
ByLayer
370
13
48
1
60
0
100
AcDbLine
10
1.997679
20
-7.3475
30
0
11
1.997679
21
-38.101968
31
0
39
0
210
0
220
0
230
1
0
LINE
5
1D9
100
AcDbEntity
8
SK2
62
256
6
ByLayer
370
13
48
1
60
0
100
AcDbLine
10
38
20
-36.101968
30
0
11
1.997679
21
-36.101968
31
0
39
0
210
0
220
0
230
1
0
SOLID
5
1DA
100
AcDbEntity
8
SK2
62
256
6
ByLayer
370
18
48
1
60
0
100
AcDbTrace
10
38
20
-36.101968
30
0
11
34.500002
21
-36.562752
31
0
12
34.499998
22
-35.641184
32
0
13
34.499998
23
-35.641184
33
0
39
0
210
0
220
0
230
1
0
SOLID
5
1DB
100
AcDbEntity
8
SK2
62
256
6
ByLayer
370
18
48
1
60
0
100
AcDbTrace
10
1.997679
20
-36.101968
30
0
11
5.497677
21
-35.641184
31
0
12
5.497681
22
-36.562752
32
0
13
5.497681
23
-36.562752
33
0
39
0
210
0
220
0
230
1
0
ENDBLK
5
1DD
100
AcDbEntity
8
0
100
AcDbBlockEnd
0
ENDSEC
0
SECTION
2
ENTITIES
0
ARC
5
F3
100
AcDbEntity
8
1
62
256
6
ByLayer
370
18
48
1
60
0
100
AcDbCircle
39
0
10
11.316359
20
-6.76
30
0
40
1
210
0
220
0
230
1
100
AcDbArc
50
60
51
90
0
ARC
5
F4
100
AcDbEntity
8
1
62
256
6
ByLayer
370
18
48
1
60
0
100
AcDbCircle
39
0
10
1.997679
20
6.76
30
0
40
1
210
0
220
0
230
1
100
AcDbArc
50
240
51
270
0
ARC
5
F5
100
AcDbEntity
8
1
62
256
6
ByLayer
370
18
48
1
60
0
100
AcDbCircle
39
0
10
1.997679
20
-6.76
30
0
40
1
210
0
220
0
230
1
100
AcDbArc
50
90
51
120
0
ELLIPSE
5
F6
100
AcDbEntity
8
1
62
256
6
ByLayer
370
18
48
1
60
0
100
AcDbEllipse
10
37.70778
20
-0.223347
30
0
11
0.0296265822325368
21
-1.02834616698073
31
0
210
0
220
0
230
1
40
0.078567
41
0.889161294401051
42
1.48121368682963
0
ELLIPSE
5
F7
100
AcDbEntity
8
1
62
256
6
ByLayer
370
18
48
1
60
0
100
AcDbEllipse
10
37.606554
20
-0.75275
30
0
11
0.411175919609945
21
-0.697086853572305
31
0
210
0
220
0
230
1
40
0.51184
41
2.8565660770072
42
-2.51933611599695
0
ELLIPSE
5
F8
100
AcDbEntity
8
1
62
256
6
ByLayer
370
18
48
1
60
0
100
AcDbEllipse
10
37.660444
20
-0.762163
30
0
11
0.0458227999333834
21
-0.689536589834503
31
0
210
0
220
0
230
1
40
0.178102
41
0.800107938937591
42
1.40272607184141
0
ELLIPSE
5
F9
100
AcDbEntity
8
1
62
256
6
ByLayer
370
18
48
1
60
0
100
AcDbEllipse
10
37.297796
20
-0.698816
30
0
11
0.341929100017829
21
-0.673037295406905
31
0
210
0
220
0
230
1
40
0.650038
41
0.336745956101071
42
0.390327761356712
0
ELLIPSE
5
FA
100
AcDbEntity
8
1
62
256
6
ByLayer
370
18
48
1
60
0
100
AcDbEllipse
10
17.518399
20
0
30
0
11
10.5855873592941
21
-5.69786076086293
31
0
210
0
220
0
230
1
40
0.079711
41
-2.51715688533539
42
-2.15323614716328
0
ELLIPSE
5
FB
100
AcDbEntity
8
1
62
256
6
ByLayer
370
18
48
1
60
0
100
AcDbEllipse
10
17.918478
20
0
30
0
11
11.3119313064271
21
2.31961374318796
31
0
210
0
220
0
230
1
40
0.466082
41
-2.65447686307542
42
-2.28603137203879
0
POINT
5
70
100
AcDbEntity
8
80
62
256
6
ByLayer
370
18
48
1
60
0
100
AcDbPoint
10
0
20
0
30
0
39
0
210
0
220
0
230
1
50
360
0
POINT
5
72
100
AcDbEntity
8
81
62
256
6
ByLayer
370
18
48
1
60
0
100
AcDbPoint
10
38
20
0
30
0
39
0
210
0
220
0
230
1
50
360
0
POINT
5
74
100
AcDbEntity
8
1
62
256
6
ByLayer
370
18
48
1
60
1
100
AcDbPoint
10
38
20
-6
30
0
39
0
210
0
220
0
230
1
50
360
0
POINT
5
76
100
AcDbEntity
8
1
62
256
6
ByLayer
370
18
48
1
60
1
100
AcDbPoint
10
12
20
-6
30
0
39
0
210
0
220
0
230
1
50
360
0
POINT
5
77
100
AcDbEntity
8
1
62
256
6
ByLayer
370
18
48
1
60
1
100
AcDbPoint
10
38
20
-6
30
0
39
0
210
0
220
0
230
1
50
360
0
POINT
5
78
100
AcDbEntity
8
1
62
256
6
ByLayer
370
18
48
1
60
1
100
AcDbPoint
10
1.997679
20
-5.76
30
0
39
0
210
0
220
0
230
1
50
360
0
SPLINE
5
FC
100
AcDbEntity
8
1
62
256
6
ByLayer
370
18
48
1
60
0
100
AcDbSpline
70
4
71
3
72
8
73
4
40
0
40
0
40
0
40
0
40
1
40
1
40
1
40
1
41
1
10
37.8551902091524
20
-0.533008234998704
30
0
41
1
10
37.8600114102612
20
-0.520459516582662
30
0
41
1
10
37.864832597742
20
-0.507910795464056
30
0
41
1
10
37.8696537719684
20
-0.495362071958254
30
0
0
SPLINE
5
FD
100
AcDbEntity
8
1
62
256
6
ByLayer
370
18
48
1
60
0
100
AcDbSpline
70
4
71
3
72
10
73
6
40
0
40
0
40
0
40
0
40
0.5
40
0.5
40
1
40
1
40
1
40
1
41
1
10
37.8697385405308
20
-0.495141433326722
30
0
41
1
10
37.8717757948043
20
-0.488909873616961
30
0
41
1
10
37.8732749687043
20
-0.484042582911854
30
0
41
1
10
37.8749867925154
20
-0.477593462553017
30
0
41
1
10
37.8751820962289
20
-0.476078541576186
30
0
41
1
10
37.8747162233986
20
-0.476274730682974
30
0
0
SPLINE
5
FE
100
AcDbEntity
8
1
62
256
6
ByLayer
370
13
48
1
60
0
100
AcDbSpline
70
4
71
3
72
8
73
4
40
0
40
0
40
0
40
0
40
1
40
1
40
1
40
1
41
1
10
37.9729229392324
20
0.303348593209961
30
0
41
1
10
37.9712263047063
20
0.289879699179806
30
0
41
1
10
37.9695296701803
20
0.276410805149624
30
0
41
1
10
37.9678330356543
20
0.262941911119441
30
0
0
SPLINE
5
FF
100
AcDbEntity
8
1
62
256
6
ByLayer
370
13
48
1
60
0
100
AcDbSpline
70
4
71
3
72
8
73
4
40
0
40
0
40
0
40
0
40
1
40
1
40
1
40
1
41
1
10
37.9537480808512
20
0.151127162125874
30
0
41
1
10
37.9274041283667
20
-0.0580068021457123
30
0
41
1
10
37.9010601758821
20
-0.267140766417271
30
0
41
1
10
37.8747162233976
20
-0.476274730688829
30
0
0
SPLINE
5
100
100
AcDbEntity
8
1
62
256
6
ByLayer
370
18
48
1
60
0
100
AcDbSpline
70
4
71
3
72
10
73
6
40
0
40
0
40
0
40
0
40
0.5
40
0.5
40
1
40
1
40
1
40
1
41
1
10
11.6399462294056
20
5.79154271369723
30
0
41
1
10
11.6704506407197
20
5.8030946421334
30
0
41
1
10
11.7006492687861
20
5.81616829234721
30
0
41
1
10
11.7595101516111
20
5.8449842720143
30
0
41
1
10
11.7882720886726
20
5.86075815843819
30
0
41
1
10
11.8163586137526
20
5.87791205521111
30
0
0
SPLINE
5
101
100
AcDbEntity
8
1
62
256
6
ByLayer
370
18
48
1
60
0
100
AcDbSpline
70
4
71
3
72
8
73
4
40
0
40
0
40
0
40
0
40
1
40
1
40
1
40
1
41
1
10
11.8163586137524
20
5.87791205521162
30
0
41
1
10
11.8774827347981
20
5.91524372439346
30
0
41
1
10
11.9386980936121
20
5.95241506723838
30
0
41
1
10
12.0000000000001
20
5.98943432552699
30
0
0
SPLINE
5
102
100
AcDbEntity
8
1
62
256
6
ByLayer
370
18
48
1
60
0
100
AcDbSpline
70
4
71
3
72
24
73
20
40
0
40
0
40
0
40
0
40
0.125000000000004
40
0.125000000000004
40
0.250000000000008
40
0.250000000000008
40
0.312500000000011
40
0.312500000000011
40
0.375000000000015
40
0.375000000000015
40
0.500000000000021
40
0.625000000000028
40
0.625000000000028
40
0.687500000000031
40
0.687500000000031
40
0.750000000000034
40
0.750000000000034
40
0.875000000000017
40
1
40
1
40
1
40
1
41
1
10
37.9729229392429
20
4.9688605525385
30
0
41
1
10
37.9740516881233
20
5.01132474326224
30
0
41
1
10
37.97256657796
20
5.05338868608879
30
0
41
1
10
37.9647118655962
20
5.13676863249412
30
0
41
1
10
37.9583385843566
20
5.17808407272892
30
0
41
1
10
37.9451479779384
20
5.23950128347877
30
0
41
1
10
37.9401443301815
20
5.25988077386319
30
0
41
1
10
37.9289087097847
20
5.30045166703607
30
0
41
1
10
37.9226541023121
20
5.32070672932971
30
0
41
1
10
37.9021837169474
20
5.38066822755519
30
0
41
1
10
37.8704618287509
20
5.45828486654932
30
0
41
1
10
37.8301501459262
20
5.53137769506975
30
0
41
1
10
37.796636458101
20
5.58446994544519
30
0
41
1
10
37.7849169615277
20
5.60187861757504
30
0
41
1
10
37.7603507223224
20
5.63610229833665
30
0
41
1
10
37.7474739262331
20
5.65294793460154
30
0
41
1
10
37.707643278276
20
5.70190702008901
30
0
41
1
10
37.6510617110671
20
5.76342034140401
30
0
41
1
10
37.587579059655
20
5.81745367476069
30
0
41
1
10
37.5540373190566
20
5.84251889709782
30
0
0
SPLINE
5
103
100
AcDbEntity
8
1
62
256
6
ByLayer
370
18
48
1
60
0
100
AcDbSpline
70
4
71
3
72
9
73
5
40
0
40
0
40
0
40
0
40
0.196581332100164
40
1
40
1
40
1
40
1
41
1
10
11.9990474529243
20
-5.99367562635169
30
0
41
1
10
12.047881886678
20
-5.99214793190419
30
0
41
1
10
12.2963057916689
20
-5.98283522935554
30
0
41
1
10
12.5447654592791
20
-5.96568426446495
30
0
41
1
10
12.7444272214215
20
-5.94687277420758
30
0
0
SPLINE
5
104
100
AcDbEntity
8
1
62
256
6
ByLayer
370
18
48
1
60
0
100
AcDbSpline
70
4
71
3
72
16
73
12
40
0
40
0
40
0
40
0
40
0.249999999999986
40
0.249999999999986
40
0.499999999999972
40
0.499999999999972
40
0.624999999999964
40
0.624999999999964
40
0.749999999999957
40
0.749999999999957
40
1
40
1
40
1
40
1
41
1
10
37.0909056098714
20
5.96504485454994
30
0
41
1
10
37.1300907467168
20
5.96524813874339
30
0
41
1
10
37.1692490076318
20
5.96313575577585
30
0
41
1
10
37.2475982798603
20
5.95390876705412
30
0
41
1
10
37.2867888949017
20
5.94679793965017
30
0
41
1
10
37.3456734671632
20
5.93184288284363
30
0
41
1
10
37.3652304901142
20
5.92615822751659
30
0
41
1
10
37.4039235453827
20
5.91341186409926
30
0
41
1
10
37.4231018863999
20
5.90633982500896
30
0
41
1
10
37.4801224890189
20
5.88292480347425
30
0
41
1
10
37.5174543121284
20
5.86439967113193
30
0
41
1
10
37.5540373190566
20
5.84251889709785
30
0
0
SPLINE
5
105
100
AcDbEntity
8
1
62
256
6
ByLayer
370
18
48
1
60
0
100
AcDbSpline
70
4
71
3
72
16
73
12
40
0
40
0
40
0
40
0
40
0.145956128249261
40
0.145956128249261
40
0.188658321836801
40
0.188658321836801
40
0.231360515424342
40
0.316764902599416
40
0.658382451299708
40
0.658382451299708
40
1
40
1
40
1
40
1
41
1
10
32.5044318008233
20
4.76447652319516
30
0
41
1
10
32.7287764094126
20
4.86174045993039
30
0
41
1
10
32.9532772284458
20
4.95397892551
30
0
41
1
10
33.2439836600825
20
5.06641997014907
30
0
41
1
10
33.3098470278164
20
5.09143169105334
30
0
41
1
10
33.4413830203493
20
5.14044535466425
30
0
41
1
10
33.6384806050521
20
5.21248321094683
30
0
41
1
10
34.3591123130751
20
5.46027208597871
30
0
41
1
10
35.009220843832
20
5.6356735166967
30
0
41
1
10
36.0488935909914
20
5.85035739381149
30
0
41
1
10
36.568484059374
20
5.92483894139232
30
0
41
1
10
37.0909056098717
20
5.96504485455063
30
0
0
SPLINE
5
106
100
AcDbEntity
8
1
62
256
6
ByLayer
370
18
48
1
60
0
100
AcDbSpline
70
4
71
3
72
8
73
4
40
0
40
0
40
0
40
0
40
1
40
1
40
1
40
1
41
1
10
37.5540373190566
20
5.84251889709785
30
0
41
1
10
37.5858383461588
20
5.753959312608
30
0
41
1
10
37.6191190488252
20
5.66595408757689
30
0
41
1
10
37.6540709297261
20
5.57857497028775
30
0
0
SPLINE
5
107
100
AcDbEntity
8
1
62
256
6
ByLayer
370
13
48
1
60
0
100
AcDbSpline
70
4
71
3
72
8
73
4
40
0
40
0
40
0
40
0
40
1
40
1
40
1
40
1
41
1
10
36.9730582855374
20
-5.97151774275176
30
0
41
1
10
36.9708415905068
20
-5.96826895838521
30
0
41
1
10
36.9686248954762
20
-5.96502017401866
30
0
41
1
10
36.9664082004457
20
-5.96177138965211
30
0
0
SPLINE
5
108
100
AcDbEntity
8
1
62
256
6
ByLayer
370
18
48
1
60
0
100
AcDbSpline
70
4
71
3
72
20
73
16
40
0
40
0
40
0
40
0
40
0.125
40
0.125
40
0.25
40
0.25
40
0.375
40
0.375
40
0.5
40
0.625
40
0.625
40
0.75
40
0.75
40
0.875
40
1
40
1
40
1
40
1
41
1
10
37.9729229392428
20
-4.97341483155534
30
0
41
1
10
37.9740133457365
20
-5.01454275294785
30
0
41
1
10
37.9726739398454
20
-5.05530487306063
30
0
41
1
10
37.9654570817662
20
-5.13614592339798
30
0
41
1
10
37.9595783987777
20
-5.17622466834064
30
0
41
1
10
37.9433430171393
20
-5.25570800580095
30
0
41
1
10
37.9329804142625
20
-5.29513503779518
30
0
41
1
10
37.9076690685753
20
-5.37320425695782
30
0
41
1
10
37.8782252186264
20
-5.44910451722549
30
0
41
1
10
37.8408060032447
20
-5.5208188798631
30
0
41
1
10
37.7993614468756
20
-5.59042052861415
30
0
41
1
10
37.7765957698563
20
-5.62420722387091
30
0
41
1
10
37.7269370368295
20
-5.68937474705928
30
0
41
1
10
37.6740237099712
20
-5.75100801282605
30
0
41
1
10
37.6147036431286
20
-5.8056840146422
30
0
41
1
10
37.5833931514505
20
-5.83122973527043
30
0
0
SPLINE
5
109
100
AcDbEntity
8
1
62
256
6
ByLayer
370
13
48
1
60
0
100
AcDbSpline
70
4
71
3
72
8
73
4
40
0
40
0
40
0
40
0
40
1
40
1
40
1
40
1
41
1
10
37.9729229392597
20
-4.97341483157666
30
0
41
1
10
37.940187367305
20
-4.9254376344746
30
0
41
1
10
37.9074517953503
20
-4.87746043737255
30
0
41
1
10
37.8747162233957
20
-4.82948324027052
30
0
0
SPLINE
5
10A
100
AcDbEntity
8
1
62
256
6
ByLayer
370
18
48
1
60
0
100
AcDbSpline
70
4
71
3
72
10
73
6
40
0
40
0
40
0
40
0
40
0.5
40
0.5
40
1
40
1
40
1
40
1
41
1
10
11.3163586137524
20
5.72682825628257
30
0
41
1
10
11.3726926466264
20
5.72859522768087
30
0
41
1
10
11.4279022578846
20
5.7351104522607
30
0
41
1
10
11.5358568201681
20
5.75685934498929
30
0
41
1
10
11.5886015588764
20
5.77209864203744
30
0
41
1
10
11.6399462294056
20
5.79154271369723
30
0
0
SPLINE
5
10B
100
AcDbEntity
8
1
62
256
6
ByLayer
370
18
48
1
60
0
100
AcDbSpline
70
4
71
3
72
48
73
44
40
0
40
0
40
0
40
0
40
0.0984300454408848
40
0.0984300454408848
40
0.147645068161327
40
0.147645068161327
40
0.172252579521548
40
0.172252579521548
40
0.196860090881769
40
0.196860090881769
40
0.246075113602211
40
0.246075113602211
40
0.270682624962432
40
0.270682624962432
40
0.295290136322653
40
0.295290136322653
40
0.393720181763529
40
0.393720181763529
40
0.406023937443639
40
0.406023937443639
40
0.418327693123748
40
0.418327693123748
40
0.442935204483968
40
0.442935204483968
40
0.492150227204416
40
0.492150227204416
40
0.541365249924864
40
0.541365249924864
40
0.565972761285083
40
0.565972761285083
40
0.590580272645301
40
0.590580272645301
40
0.68901031808614
40
0.68901031808614
40
0.787440363526979
40
0.787440363526979
40
0.836655386247398
40
0.836655386247398
40
0.885870408967817
40
0.885870408967817
40
0.984300454408656
40
0.984300454408656
40
1
40
1
40
1
40
1
41
1
10
37.654070899478
20
5.57857495863914
30
0
41
1
10
37.6898238261947
20
5.4891915499843
30
0
41
1
10
37.7189030046525
20
5.39805018124159
30
0
41
1
10
37.7496117230709
20
5.25793743388709
30
0
41
1
10
37.7576804490321
20
5.21066223055473
30
0
41
1
10
37.7659549241619
20
5.1387409136459
30
0
41
1
10
37.7680639783261
20
5.11463581639933
30
0
41
1
10
37.7708725727907
20
5.06662169055159
30
0
41
1
10
37.7715801259089
20
5.04264923159863
30
0
41
1
10
37.7715199988423
20
4.97084026337373
30
0
41
1
10
37.7685738490955
20
4.92311194833806
30
0
41
1
10
37.7593538736015
20
4.85175790627861
30
0
41
1
10
37.7554793881574
20
4.82801301541798
30
0
41
1
10
37.7460407561066
20
4.78060715114143
30
0
41
1
10
37.7404523835822
20
4.75688037719269
30
0
41
1
10
37.7086223539464
20
4.6403626312628
30
0
41
1
10
37.6705477228339
20
4.55258114236614
30
0
41
1
10
37.6144778445502
20
4.45952906201586
30
0
41
1
10
37.6080637772299
20
4.44926924485395
30
0
41
1
10
37.5948704103491
20
4.42890695426411
30
0
41
1
10
37.5880819968849
20
4.41879242699969
30
0
41
1
10
37.5673272585097
20
4.38889842843454
30
0
41
1
10
37.5529312303301
20
4.3695018682115
30
0
41
1
10
37.5081952495249
20
4.31278604468747
30
0
41
1
10
37.4763116382534
20
4.27693660360535
30
0
41
1
10
37.4089999184956
20
4.20861267792807
30
0
41
1
10
37.3735704385491
20
4.17613949919351
30
0
41
1
10
37.3181063386359
20
4.1296386463647
30
0
41
1
10
37.2992042702274
20
4.11448700257185
30
0
41
1
10
37.2607926411931
20
4.08496671480344
30
0
41
1
10
37.241350446223
20
4.07064752664462
30
0
41
1
10
37.1430688944543
20
4.00104869269947
30
0
41
1
10
37.0610632622427
20
3.95167557282917
30
0
41
1
10
36.8922652367344
20
3.86185879269567
30
0
41
1
10
36.8054543036949
20
3.82144971738066
30
0
41
1
10
36.67250793213
20
3.76592872848485
30
0
41
1
10
36.6276488554477
20
3.74824850103548
30
0
41
1
10
36.5376358972875
20
3.71459275825811
30
0
41
1
10
36.4924727315043
20
3.69860874114892
30
0
41
1
10
36.3565759141765
20
3.6528503584583
30
0
41
1
10
36.2654378713497
20
3.62525388868718
30
0
41
1
10
36.1592755946478
20
3.59588267863308
30
0
41
1
10
36.1446612868426
20
3.59190023430693
30
0
41
1
10
36.130036565937
20
3.58797387093142
30
0
0
SPLINE
5
10C
100
AcDbEntity
8
1
62
256
6
ByLayer
370
18
48
1
60
0
100
AcDbSpline
70
4
71
3
72
11
73
7
40
0
40
0
40
0
40
0
40
0.279612484855139
40
0.634847121493214
40
0.990081758131288
40
1
40
1
40
1
40
1
41
1
10
37.654070904205
20
5.57857495787244
30
0
41
1
10
37.2277139361367
20
5.56309663610486
30
0
41
1
10
36.2596903014017
20
5.47891825797745
30
0
41
1
10
34.75
20
5.17949769410768
30
0
41
1
10
33.6515431948592
20
4.83004825196983
30
0
41
1
10
33.0947530563852
20
4.62267525518831
30
0
41
1
10
33.0796295845777
20
4.61702038207005
30
0
0
SPLINE
5
10D
100
AcDbEntity
8
1
62
256
6
ByLayer
370
18
48
1
60
0
100
AcDbSpline
70
4
71
3
72
34
73
30
40
0
40
0
40
0
40
0
40
0.0241462695271986
40
0.0483910606807867
40
0.0727289127240736
40
0.097154405965899
40
0.121662112233101
40
0.146246586791795
40
0.170902391670149
40
0.195624126745678
40
0.220406454902729
40
0.245244127583274
40
0.324094524508342
40
0.405001217169236
40
0.487788370068334
40
0.572288709055192
40
0.64807302976269
40
0.727967061141119
40
0.811822241036638
40
0.899516927587085
40
0.908461795083852
40
0.917965494813675
40
0.928026424555325
40
0.938642937093915
40
0.949813352151034
40
0.961535968971175
40
0.973809079627387
40
0.986630983080538
40
1
40
1
40
1
40
1
41
1
10
37.870184524266
20
-4.92748367758134
30
0
41
1
10
37.8694072185498
20
-4.93728205520264
30
0
41
1
10
37.867849435554
20
-4.9569187897927
30
0
41
1
10
37.8644633360801
20
-4.98631918568987
30
0
41
1
10
37.860299799844
20
-5.01571966329493
30
0
41
1
10
37.8552808517188
20
-5.04508251733498
30
0
41
1
10
37.8494261316952
20
-5.07437821536516
30
0
41
1
10
37.8427308113338
20
-5.10357507916959
30
0
41
1
10
37.8351981863572
20
-5.13264217089909
30
0
41
1
10
37.8268308470278
20
-5.16154832248736
30
0
41
1
10
37.8176326049689
20
-5.1902634195711
30
0
41
1
10
37.8003503148706
20
-5.23938948310212
30
0
41
1
10
37.7713810694693
20
-5.30841575733669
30
0
41
1
10
37.7252856140099
20
-5.39510403826014
30
0
41
1
10
37.6700726176339
20
-5.4788486259165
30
0
41
1
10
37.6083827919359
20
-5.55510505330739
30
0
41
1
10
37.5407074612395
20
-5.62425303166981
30
0
41
1
10
37.4671451828515
20
-5.68655440770897
30
0
41
1
10
37.3838575233748
20
-5.74383730429903
30
0
41
1
10
37.3200278606205
20
-5.77831894072935
30
0
41
1
10
37.2814128719125
20
-5.79621204287739
30
0
41
1
10
37.2709844629003
20
-5.80089812833361
30
0
41
1
10
37.2598834643654
20
-5.80572122028181
30
0
41
1
10
37.2481030020593
20
-5.81065556819902
30
0
41
1
10
37.2356364668586
20
-5.81567301135252
30
0
41
1
10
37.222477953422
20
-5.82074568806755
30
0
41
1
10
37.2086196595089
20
-5.82583711756689
30
0
41
1
10
37.1940630899109
20
-5.83093726098392
30
0
41
1
10
37.1840790339648
20
-5.83419324006104
30
0
41
1
10
37.1789827253598
20
-5.83585523737736
30
0
0
SPLINE
5
10E
100
AcDbEntity
8
1
62
256
6
ByLayer
370
18
48
1
60
0
100
AcDbSpline
70
4
71
3
72
12
73
8
40
0
40
0
40
0
40
0
40
0.090055517359135
40
0.374961093981003
40
0.659866670602871
40
0.944772247224739
40
1
40
1
40
1
40
1
41
1
10
11.9216703242517
20
-5.94863980226367
30
0
41
1
10
11.9962700200744
20
-5.95103895343439
30
0
41
1
10
12.3068868684252
20
-5.95810507957609
30
0
41
1
10
12.8536144655686
20
-5.94906071806508
30
0
41
1
10
13.5621965629817
20
-5.89521463206006
30
0
41
1
10
14.080844520314
20
-5.82520842528155
30
0
41
1
10
14.3632956861485
20
-5.77722371364297
30
0
41
1
10
14.4091631683359
20
-5.76917406375577
30
0
0
SPLINE
5
10F
100
AcDbEntity
8
1
62
256
6
ByLayer
370
13
48
1
60
0
100
AcDbSpline
70
4
71
3
72
11
73
7
40
0
40
0
40
0
40
0
40
0.0983744861202656
40
0.3237808645902
40
0.549187243060133
40
1
40
1
40
1
40
1
41
1
10
19.2092014921254
20
-4.49620317134949
30
0
41
1
10
18.9728009947503
20
-4.58045357712226
30
0
41
1
10
18.1947338307086
20
-4.84027837763475
30
0
41
1
10
16.8750000000001
20
-5.1775274800913
30
0
41
1
10
14.7083333333334
20
-5.47403478948738
30
0
41
1
10
13.0833333333334
20
-5.3951493245936
30
0
41
1
10
12.0000000000001
20
-5.20866247837293
30
0
0
SPLINE
5
110
100
AcDbEntity
8
1
62
256
6
ByLayer
370
18
48
1
60
0
100
AcDbSpline
70
4
71
3
72
26
73
22
40
0
40
0
40
0
40
0
40
0.0603159060504574
40
0.0603159060504574
40
0.17777641779415
40
0.17777641779415
40
0.295236929537843
40
0.295236929537843
40
0.412697441281536
40
0.412697441281536
40
0.471427697153382
40
0.471427697153382
40
0.530157953025229
40
0.530157953025229
40
0.647618464768922
40
0.647618464768922
40
0.765078976512614
40
0.765078976512614
40
0.882539488256307
40
0.882539488256307
40
1
40
1
40
1
40
1
41
1
10
18.6683610774606
20
-4.86946021885504
30
0
41
1
10
18.5351638314531
20
-4.91835396953169
30
0
41
1
10
18.4020175317212
20
-4.96539498540565
30
0
41
1
10
18.0095852607364
20
-5.09847391302878
30
0
41
1
10
17.7503216543114
20
-5.17920966955629
30
0
41
1
10
17.2310173698139
20
-5.32603226991881
30
0
41
1
10
16.9710117302759
20
-5.39200949740504
30
0
41
1
10
16.4495091911077
20
-5.50845411938931
30
0
41
1
10
16.1879979017563
20
-5.55906941112599
30
0
41
1
10
15.7941547413033
20
-5.62286661420649
30
0
41
1
10
15.6624884118798
20
-5.64212399756809
30
0
41
1
10
15.3998113662318
20
-5.67642906949965
30
0
41
1
10
15.2686601117705
20
-5.69151699040483
30
0
41
1
10
14.8756578363728
20
-5.73055837475201
30
0
41
1
10
14.6142940558638
20
-5.74818594546167
30
0
41
1
10
14.0920267431987
20
-5.76691837151938
30
0
41
1
10
13.8311712969241
20
-5.76787307902751
30
0
41
1
10
13.309227435225
20
-5.75307671584414
30
0
41
1
10
13.0481382197777
20
-5.73732801295173
30
0
41
1
10
12.5249712435958
20
-5.68920473140736
30
0
41
1
10
12.2628992978463
20
-5.65681367402271
30
0
41
1
10
12.0000000000001
20
-5.61594056809349
30
0
0
SPLINE
5
111
100
AcDbEntity
8
1
62
256
6
ByLayer
370
13
48
1
60
0
100
AcDbSpline
70
4
71
3
72
8
73
4
40
0
40
0
40
0
40
0
40
1
40
1
40
1
40
1
41
1
10
15.125084410729
20
-5.26641977830508
30
0
41
1
10
14.0833896071527
20
-5.30572103122773
30
0
41
1
10
13.0416948035763
20
-5.22372539249872
30
0
41
1
10
11.9999999999999
20
-5.02219058811266
30
0
0
SPLINE
5
112
100
AcDbEntity
8
1
62
256
6
ByLayer
370
18
48
1
60
0
100
AcDbSpline
70
4
71
3
72
9
73
5
40
0
40
0
40
0
40
0
40
0.633977870651284
40
1
40
1
40
1
40
1
41
1
10
23.3660360256505
20
-3.48745763264327
30
0
41
1
10
22.8273573504336
20
-3.70864277062873
30
0
41
1
10
21.9776767856161
20
-4.02371589106039
30
0
41
1
10
21.1279962207985
20
-4.27581125297422
30
0
41
1
10
20.8169943311977
20
-4.3591785066009
30
0
0
SPLINE
5
113
100
AcDbEntity
8
1
62
256
6
ByLayer
370
18
48
1
60
0
100
AcDbSpline
70
4
71
3
72
11
73
7
40
0
40
0
40
0
40
0
40
0.138480276201294
40
0.35386020715097
40
0.569240138100647
40
1
40
1
40
1
40
1
41
1
10
19.5448069503731
20
-4.64935794020894
30
0
41
1
10
19.1965379669154
20
-4.71456978175866
30
0
41
1
10
18.3066023167911
20
-4.85073774048533
30
0
41
1
10
16.875
20
-4.93846716546489
30
0
41
1
10
14.7083333333333
20
-4.82673564282112
30
0
41
1
10
13.0833333333333
20
-4.47495348164634
30
0
41
1
10
12
20
-4.12989472020652
30
0
0
SPLINE
5
114
100
AcDbEntity
8
1
62
256
6
ByLayer
370
13
48
1
60
0
100
AcDbSpline
70
4
71
3
72
9
73
5
40
0
40
0
40
0
40
0
40
0.320716589725671
40
1
40
1
40
1
40
1
41
1
10
16.7844536622607
20
-3.05325976281486
30
0
41
1
10
16.2729691081739
20
-2.94324163492121
30
0
41
1
10
14.6781512207536
20
-2.53712492477899
30
0
41
1
10
13.0833333333333
20
-1.95900201809738
30
0
41
1
10
12
20
-1.52260302949949
30
0
0
SPLINE
5
115
100
AcDbEntity
8
1
62
256
6
ByLayer
370
18
48
1
60
0
100
AcDbSpline
70
4
71
3
72
8
73
4
40
0
40
0
40
0
40
0
40
1
40
1
40
1
40
1
41
1
10
37.3871573045972
20
-4.84130418884334
30
0
41
1
10
37.5481715168468
20
-4.87129382569569
30
0
41
1
10
37.7091569396837
20
-4.89973791010371
30
0
41
1
10
37.8701278428925
20
-4.92748567403129
30
0
0
SPLINE
5
116
100
AcDbEntity
8
1
62
256
6
ByLayer
370
18
48
1
60
0
100
AcDbSpline
70
4
71
3
72
10
73
6
40
0
40
0
40
0
40
0
40
0.5
40
0.5
40
1
40
1
40
1
40
1
41
1
10
37.870209368072
20
-4.92749972708091
30
0
41
1
10
37.8720835035389
20
-4.91224569005175
30
0
41
1
10
37.8734516937241
20
-4.89635198902602
30
0
41
1
10
37.8750004026809
20
-4.86329698684239
30
0
41
1
10
37.875163020251
20
-4.846516250484
30
0
41
1
10
37.8747162233983
20
-4.82948324027788
30
0
0
SPLINE
5
117
100
AcDbEntity
8
1
62
256
6
ByLayer
370
18
48
1
60
0
100
AcDbSpline
70
4
71
3
72
46
73
42
40
0
40
0
40
0
40
0
40
0.0624999999999805
40
0.0624999999999805
40
0.124999999999961
40
0.124999999999961
40
0.156249999999951
40
0.156249999999951
40
0.187499999999942
40
0.187499999999942
40
0.249999999999932
40
0.249999999999932
40
0.374999999999923
40
0.374999999999923
40
0.437499999999927
40
0.437499999999927
40
0.49999999999993
40
0.49999999999993
40
0.562499999999934
40
0.562499999999934
40
0.624999999999937
40
0.624999999999937
40
0.687499999999941
40
0.687499999999941
40
0.718749999999942
40
0.718749999999942
40
0.749999999999944
40
0.781249999999946
40
0.781249999999946
40
0.796874999999947
40
0.796874999999947
40
0.812499999999948
40
0.812499999999948
40
0.874999999999952
40
0.874999999999952
40
0.906249999999964
40
0.906249999999964
40
0.937499999999976
40
0.968749999999988
40
0.968749999999988
40
1
40
1
40
1
40
1
41
1
10
37.0644806526669
20
-0.308990004128077
30
0
41
1
10
37.0625584617205
20
-0.331070278402365
30
0
41
1
10
37.0633454947468
20
-0.352977058329259
30
0
41
1
10
37.0689373167117
20
-0.396477269941016
30
0
41
1
10
37.0737574001051
20
-0.418070260769781
30
0
41
1
10
37.0834279086287
20
-0.450227095683886
30
0
41
1
10
37.0870614458191
20
-0.460907076205615
30
0
41
1
10
37.0950801536218
20
-0.482187487072707
30
0
41
1
10
37.0994787667937
20
-0.492816083918228
30
0
41
1
10
37.1136006364545
20
-0.524319520101983
30
0
41
1
10
37.1242371397
20
-0.544827366961442
30
0
41
1
10
37.1591303184653
20
-0.605035353763014
30
0
41
1
10
37.186331072431
20
-0.64344579651447
30
0
41
1
10
37.2316155102966
20
-0.698544369709765
30
0
41
1
10
37.2474703786197
20
-0.71648430190271
30
0
41
1
10
37.2805816768495
20
-0.751432622969105
30
0
41
1
10
37.2978048113042
20
-0.768400739432764
30
0
41
1
10
37.3332261574948
20
-0.800946429495099
30
0
41
1
10
37.351459749549
20
-0.816563926584791
30
0
41
1
10
37.3889058923759
20
-0.846238995104557
30
0
41
1
10
37.4081177682849
20
-0.860300660906034
30
0
41
1
10
37.4475089661
20
-0.88640329435529
30
0
41
1
10
37.4676858420527
20
-0.898453349428564
30
0
41
1
10
37.4987405273889
20
-0.914367813006578
30
0
41
1
10
37.5092407640229
20
-0.919312098615052
30
0
41
1
10
37.5302605682925
20
-0.928190811122363
30
0
41
1
10
37.5513555699637
20
-0.93609142773974
30
0
41
1
10
37.5725774813358
20
-0.941663571313143
30
0
41
1
10
37.5885409394054
20
-0.944797251801475
30
0
41
1
10
37.5938700701438
20
-0.945667201734693
30
0
41
1
10
37.6045460412083
20
-0.947024860686668
30
0
41
1
10
37.6099035904781
20
-0.947512048089436
30
0
41
1
10
37.6364297668473
20
-0.948897284337875
30
0
41
1
10
37.6570016651989
20
-0.94665467712656
30
0
41
1
10
37.6871137657091
20
-0.937876522811791
30
0
41
1
10
37.6970859756957
20
-0.934021032334385
30
0
41
1
10
37.7164449566536
20
-0.924762502196813
30
0
41
1
10
37.7353022537372
20
-0.913956812471611
30
0
41
1
10
37.7534916610737
20
-0.900440330698473
30
0
41
1
10
37.7715049306343
20
-0.885739100343613
30
0
41
1
10
37.7804269861771
20
-0.877787128752232
30
0
41
1
10
37.7891869458569
20
-0.869463101701655
30
0
0
SPLINE
5
118
100
AcDbEntity
8
1
62
256
6
ByLayer
370
18
48
1
60
0
100
AcDbSpline
70
4
71
3
72
18
73
14
40
0
40
0
40
0
40
0
40
0.250000000000015
40
0.250000000000015
40
0.375000000000012
40
0.375000000000012
40
0.50000000000001
40
0.50000000000001
40
0.625000000000007
40
0.625000000000007
40
0.750000000000005
40
0.750000000000005
40
1
40
1
40
1
40
1
41
1
10
34.5857907885728
20
-0.498130948408004
30
0
41
1
10
34.5907547260845
20
-0.461109809930434
30
0
41
1
10
34.5990955221379
20
-0.423962820706606
30
0
41
1
10
34.6155607912822
20
-0.367533545599855
30
0
41
1
10
34.6217439046503
20
-0.348557517374729
30
0
41
1
10
34.6352988252629
20
-0.310646747839371
30
0
41
1
10
34.6426673587774
20
-0.291709849259178
30
0
41
1
10
34.6585493864936
20
-0.253846904278646
30
0
41
1
10
34.6670935561092
20
-0.234861037017055
30
0
41
1
10
34.685147769067
20
-0.197286871008345
30
0
41
1
10
34.6946603600661
20
-0.178682906385006
30
0
41
1
10
34.7246518290053
20
-0.123421839661518
30
0
41
1
10
34.746566046579
20
-0.0873062054353397
30
0
41
1
10
34.7706181038431
20
-0.0520343993468657
30
0
0
SPLINE
5
119
100
AcDbEntity
8
1
62
256
6
ByLayer
370
18
48
1
60
0
100
AcDbSpline
70
4
71
3
72
8
73
4
40
0
40
0
40
0
40
0
40
1
40
1
40
1
40
1
41
1
10
12.0000000000001
20
-5.61594056809349
30
0
41
1
10
11.8150225896205
20
-5.59248773283034
30
0
41
1
10
11.6310157779828
20
-5.56565805522968
30
0
41
1
10
11.448071911723
20
-5.53513024904112
30
0
0
SPLINE
5
11A
100
AcDbEntity
8
1
62
256
6
ByLayer
370
18
48
1
60
0
100
AcDbSpline
70
4
71
3
72
10
73
6
40
0
40
0
40
0
40
0
40
0.20207441724677
40
0.20207441724677
40
1
40
1
40
1
40
1
41
1
10
36.0334028885902
20
3.63608986738623
30
0
41
1
10
36.0717039920425
20
3.62070145260771
30
0
41
1
10
36.1100453361429
20
3.60499410530369
30
0
41
1
10
36.2999779550818
20
3.52572693578352
30
0
41
1
10
36.452140520604
20
3.45763927446174
30
0
41
1
10
36.6048735324252
20
3.38503046628989
30
0
0
SPLINE
5
11B
100
AcDbEntity
8
1
62
256
6
ByLayer
370
18
48
1
60
0
100
AcDbSpline
70
4
71
3
72
19
73
15
40
0
40
0
40
0
40
0
40
0.124999999999993
40
0.124999999999993
40
0.249999999999986
40
0.249999999999986
40
0.499999999999979
40
0.499999999999979
40
0.562499999999982
40
0.562499999999982
40
0.624999999999985
40
0.74999999999999
40
0.74999999999999
40
1
40
1
40
1
40
1
41
1
10
36.9959799245123
20
3.15988911236843
30
0
41
1
10
37.009425609546
20
3.13146506464926
30
0
41
1
10
37.0233203771852
20
3.1016735939682
30
0
41
1
10
37.051968303323
20
3.03947691661048
30
0
41
1
10
37.0667430819014
20
3.00702351435436
30
0
41
1
10
37.1121623995746
20
2.90620185191813
30
0
41
1
10
37.1437862949781
20
2.83463872346337
30
0
41
1
10
37.1848742512682
20
2.74014473321188
30
0
41
1
10
37.1931778337582
20
2.72097477599522
30
0
41
1
10
37.2098914822371
20
2.68224604934844
30
0
41
1
10
37.235124815146
20
2.62356290387032
30
0
41
1
10
37.2608349848213
20
2.56315214061209
30
0
41
1
10
37.3128689130313
20
2.44010753253659
30
0
41
1
10
37.3483738441838
20
2.35512264422465
30
0
41
1
10
37.3846687486054
20
2.26727561951475
30
0
0
SPLINE
5
11C
100
AcDbEntity
8
1
62
256
6
ByLayer
370
18
48
1
60
0
100
AcDbSpline
70
4
71
3
72
8
73
4
40
0
40
0
40
0
40
0
40
1
40
1
40
1
40
1
41
1
10
36.6048735324143
20
3.38503046630081
30
0
41
1
10
36.7356066683282
20
3.3129361345828
30
0
41
1
10
36.8659726491379
20
3.23786618975453
30
0
41
1
10
36.9959799245123
20
3.15988911236843
30
0
0
SPLINE
5
11D
100
AcDbEntity
8
1
62
256
6
ByLayer
370
18
48
1
60
0
100
AcDbSpline
70
4
71
3
72
11
73
7
40
0
40
0
40
0
40
0
40
0.0625380679187182
40
0.504626199175875
40
0.946714330433033
40
1
40
1
40
1
40
1
41
1
10
36.6048735324084
20
3.38503046629469
30
0
41
1
10
36.5282490216056
20
3.41955440390629
30
0
41
1
10
35.9099578441362
20
3.69467268700919
30
0
41
1
10
34.75
20
4.15736332405854
30
0
41
1
10
33.6013786189343
20
4.49812574404055
30
0
41
1
10
32.9944239045352
20
4.64234391845238
30
0
41
1
10
32.9291358568028
20
4.65743451620571
30
0
0
SPLINE
5
11E
100
AcDbEntity
8
1
62
256
6
ByLayer
370
18
48
1
60
0
100
AcDbSpline
70
4
71
3
72
8
73
4
40
0
40
0
40
0
40
0
40
1
40
1
40
1
40
1
41
1
10
36.8053673506044
20
-2.64336760013938
30
0
41
1
10
36.8136629945308
20
-2.91966707280312
30
0
41
1
10
36.8278202636141
20
-3.19580151604527
30
0
41
1
10
36.8483370561315
20
-3.47175691193348
30
0
0
SPLINE
5
11F
100
AcDbEntity
8
1
62
256
6
ByLayer
370
18
48
1
60
0
100
AcDbSpline
70
4
71
3
72
20
73
16
40
0
40
0
40
0
40
0
40
0.125000000000005
40
0.125000000000005
40
0.25000000000001
40
0.25000000000001
40
0.312500000000007
40
0.312500000000007
40
0.375000000000005
40
0.375000000000005
40
0.5
40
0.5
40
0.75
40
0.75
40
1
40
1
40
1
40
1
41
1
10
34.6559248988373
20
-0.71750521657853
30
0
41
1
10
34.7317830047433
20
-0.810279469735832
30
0
41
1
10
34.8103704854457
20
-0.901454734206226
30
0
41
1
10
34.9724229983051
20
-1.08094777739379
30
0
41
1
10
35.0558888019559
20
-1.16926510413546
30
0
41
1
10
35.1843982392254
20
-1.29980152087441
30
0
41
1
10
35.2277873332788
20
-1.34298991345716
30
0
41
1
10
35.3156216059819
20
-1.42874799747335
30
0
41
1
10
35.3600879884632
20
-1.47133420779573
30
0
41
1
10
35.4939866682899
20
-1.59726580627608
30
0
41
1
10
35.5842529220562
20
-1.67912288325613
30
0
41
1
10
35.8576650628496
20
-1.91921557552558
30
0
41
1
10
36.0434042341302
20
-2.07201477865436
30
0
41
1
10
36.4204209525274
20
-2.36600285191113
30
0
41
1
10
36.6117038605666
20
-2.50718048370928
30
0
41
1
10
36.805367350604
20
-2.64336760013745
30
0
0
SPLINE
5
120
100
AcDbEntity
8
1
62
256
6
ByLayer
370
18
48
1
60
0
100
AcDbSpline
70
4
71
3
72
18
73
14
40
0
40
0
40
0
40
0
40
0.250000000000059
40
0.250000000000059
40
0.375000000000048
40
0.375000000000048
40
0.500000000000038
40
0.500000000000038
40
0.750000000000018
40
0.750000000000018
40
0.875000000000009
40
0.875000000000009
40
1
40
1
40
1
40
1
41
1
10
34.6559248988373
20
-0.71750521657853
30
0
41
1
10
34.642617381239
20
-0.701230159459499
30
0
41
1
10
34.6308027819987
20
-0.684308605858405
30
0
41
1
10
34.6156851539221
20
-0.657796523796037
30
0
41
1
10
34.6110812949961
20
-0.648770272041077
30
0
41
1
10
34.6028252541657
20
-0.630304051594209
30
0
41
1
10
34.59919439459
20
-0.620891552898826
30
0
41
1
10
34.5900502128299
20
-0.592730234793635
30
0
41
1
10
34.5861755745062
20
-0.5738323717311
30
0
41
1
10
34.5836256085343
20
-0.545291647162969
30
0
41
1
10
34.5833239793198
20
-0.535709603908316
30
0
41
1
10
34.5837868755029
20
-0.516785874906077
30
0
41
1
10
34.5845446059066
20
-0.507416339936015
30
0
41
1
10
34.5857907885727
20
-0.498130948408004
30
0
0
SPLINE
5
121
100
AcDbEntity
8
1
62
256
6
ByLayer
370
18
48
1
60
0
100
AcDbSpline
70
4
71
3
72
13
73
9
40
0
40
0
40
0
40
0
40
0.168458212502104
40
0.355853010893033
40
0.543247809283963
40
0.730642607674893
40
0.918037406065823
40
1
40
1
40
1
40
1
41
1
10
34.5857907885727
20
-0.498130948408004
30
0
41
1
10
34.0988605257152
20
-0.298139898912723
30
0
41
1
10
33.0702635961909
20
0.131342048168079
30
0
41
1
10
31.5
20
0.779844074697507
30
0
41
1
10
29.875
20
1.42858247308536
30
0
41
1
10
28.2500000000001
20
2.02294188262729
30
0
41
1
10
26.9297529133028
20
2.44622505225948
30
0
41
1
10
26.1511724932721
20
2.66325279166443
30
0
41
1
10
25.9142587399082
20
2.72605686547857
30
0
0
SPLINE
5
122
100
AcDbEntity
8
1
62
256
6
ByLayer
370
13
48
1
60
0
100
AcDbSpline
70
4
71
3
72
19
73
15
40
0
40
0
40
0
40
0
40
0.0424553442321159
40
0.145035934351267
40
0.22197137694063
40
0.298906819529994
40
0.350197114589569
40
0.401487409649145
40
0.478422852238508
40
0.555358294827872
40
0.657938884947023
40
0.760519475066174
40
0.863100065185325
40
1
40
1
40
1
40
1
41
1
10
28.9225437463077
20
-2.7625765709528
30
0
41
1
10
28.6983624975385
20
-2.70940671867189
30
0
41
1
10
27.9325145821026
20
-2.51685513520718
30
0
41
1
10
26.7604166666667
20
-2.16794138738428
30
0
41
1
10
25.4062500000001
20
-1.7026386351481
30
0
41
0.999999999999999
10
24.3229166666667
20
-1.29503745329996
30
0
41
1
10
23.375
20
-0.919882041237031
30
0
41
0.999999999999999
10
22.4270833333334
20
-0.533866770310312
30
0
41
1
10
21.34375
20
-0.0824957579251872
30
0
41
1
10
19.9895833333333
20
0.485090968507279
30
0
41
1
10
18.5
20
1.09499270773947
30
0
41
1
10
16.875
20
1.71850601655765
30
0
41
1
10
15.0687800925905
20
2.33436884784152
30
0
41
1
10
13.8042268518477
20
2.68357986804281
30
0
41
1
10
13.0813402777714
20
2.84896796989398
30
0
0
SPLINE
5
123
100
AcDbEntity
8
1
62
256
6
ByLayer
370
13
48
1
60
0
100
AcDbSpline
70
4
71
3
72
10
73
6
40
0
40
0
40
0
40
0
40
0.357418677629449
40
0.923235159410897
40
1
40
1
40
1
40
1
41
1
10
37.4014906906197
20
2.22035260527028
30
0
41
1
10
37.0593271270798
20
2.41852273033283
30
0
41
1
10
36.1754968968732
20
2.91500336578522
30
0
41
1
10
35.2181782536247
20
3.40326540514343
30
0
41
1
10
34.6030231739161
20
3.68529859911254
30
0
41
1
10
34.5295347608741
20
3.7185342161016
30
0
0
SPLINE
5
124
100
AcDbEntity
8
1
62
256
6
ByLayer
370
18
48
1
60
0
100
AcDbSpline
70
4
71
3
72
8
73
4
40
0
40
0
40
0
40
0
40
1
40
1
40
1
40
1
41
1
10
37.3871573045973
20
-4.84130418884331
30
0
41
1
10
37.3906584965626
20
-4.84610632539926
30
0
41
1
10
37.3941443516101
20
-4.85084998261121
30
0
41
1
10
37.3976194087711
20
-4.85553393915524
30
0
0
SPLINE
5
125
100
AcDbEntity
8
1
62
256
6
ByLayer
370
18
48
1
60
0
100
AcDbSpline
70
4
71
3
72
28
73
24
40
0
40
0
40
0
40
0
40
0.124999999999998
40
0.124999999999998
40
0.249999999999996
40
0.249999999999996
40
0.374999999999994
40
0.374999999999994
40
0.406249999999995
40
0.406249999999995
40
0.437499999999996
40
0.437499999999996
40
0.499999999999997
40
0.499999999999997
40
0.624999999999999
40
0.624999999999999
40
0.750000000000002
40
0.750000000000002
40
0.875000000000004
40
0.875000000000004
40
0.937500000000002
40
0.937500000000002
40
1
40
1
40
1
40
1
41
1
10
36.8483370619783
20
-3.47175691222577
30
0
41
1
10
36.8615541970223
20
-3.55032364909744
30
0
41
1
10
36.8763699177877
20
-3.62595797218441
30
0
41
1
10
36.9088030250389
20
-3.77208732120639
30
0
41
1
10
36.9264229153712
20
-3.84257774812127
30
0
41
1
10
36.9642428483896
20
-3.97882563162199
30
0
41
1
10
36.9844440399413
20
-4.04458098075574
30
0
41
1
10
37.0112404933885
20
-4.12394112181289
30
0
41
1
10
37.0166772747725
20
-4.13967100293084
30
0
41
1
10
37.0277050280653
20
-4.17084792172213
30
0
41
1
10
37.0333043808587
20
-4.18631738021094
30
0
41
1
10
37.0502673472036
20
-4.23212649381247
30
0
41
1
10
37.0617761906881
20
-4.2618199853797
30
0
41
1
10
37.0968716758115
20
-4.34849641161068
30
0
41
1
10
37.1210254083704
20
-4.40308317284894
30
0
41
1
10
37.1707318661225
20
-4.50634542280733
30
0
41
1
10
37.1962851118941
20
-4.55501871188616
30
0
41
1
10
37.248731532539
20
-4.64670358326904
30
0
41
1
10
37.2756249203099
20
-4.68971426600029
30
0
41
1
10
37.3169579367645
20
-4.75003476537265
30
0
41
1
10
37.3308614886123
20
-4.76938139334541
30
0
41
1
10
37.3588555273029
20
-4.80649864105905
30
0
41
1
10
37.3729555846451
20
-4.82428325435222
30
0
41
1
10
37.3871573045973
20
-4.84130418884328
30
0
0
SPLINE
5
126
100
AcDbEntity
8
1
62
256
6
ByLayer
370
18
48
1
60
0
100
AcDbSpline
70
4
71
3
72
18
73
14
40
0
40
0
40
0
40
0
40
0.0322012354183697
40
0.142750380222479
40
0.253299525026587
40
0.363848669830696
40
0.474397814634805
40
0.584946959438914
40
0.695496104243023
40
0.778407962846105
40
0.861319821449186
40
0.944231680052268
40
1
40
1
40
1
40
1
41
1
10
36.8483370633267
20
-3.47175691122271
30
0
41
1
10
36.6905580422178
20
-3.40639233872668
30
0
41
1
10
35.9911123544422
20
-3.10769881645493
30
0
41
1
10
34.75
20
-2.51057003722903
30
0
41
1
10
33.125
20
-1.62929649503883
30
0
41
1
10
31.5
20
-0.677502978109885
30
0
41
1
10
29.875
20
0.298565743793262
30
0
41
1
10
28.25
20
1.26325742588594
30
0
41
1
10
26.7604166666668
20
2.10091505640065
30
0
41
1
10
25.40625
20
2.79801150642425
30
0
41
1
10
24.1875
20
3.36018400223264
30
0
41
1
10
23.1017474115226
20
3.7927831162435
30
0
41
1
10
22.4222448230451
20
4.02248566664758
30
0
41
1
10
22.1489922345677
20
4.10768737822417
30
0
0
SPLINE
5
127
100
AcDbEntity
8
1
62
256
6
ByLayer
370
18
48
1
60
0
100
AcDbSpline
70
4
71
3
72
21
73
17
40
0
40
0
40
0
40
0
40
0.0390981285304917
40
0.119173284486284
40
0.199248440442076
40
0.279323596397869
40
0.339379963364713
40
0.399436330331557
40
0.439473908309453
40
0.47951148628735
40
0.539567853254194
40
0.599624220221038
40
0.679699376176831
40
0.759774532132623
40
0.839849688088415
40
1
40
1
40
1
40
1
41
1
10
32.2934353433807
20
-4.67578677042548
30
0
41
1
10
32.0289568955872
20
-4.73635568057117
30
0
41
1
10
31.2228117811269
20
-4.89662168638591
30
0
41
1
10
29.875
20
-5.02995134332596
30
0
41
1
10
28.25
20
-4.97654235034017
30
0
41
1
10
26.7604166666667
20
-4.73325484157292
30
0
41
1
10
25.40625
20
-4.36577760390642
30
0
41
0.999999999999999
10
24.3229166666667
20
-3.97311234911212
30
0
41
1
10
23.375
20
-3.56828289023403
30
0
41
0.999999999999999
10
22.4270833333333
20
-3.12256765794368
30
0
41
1
10
21.34375
20
-2.55462365887078
30
0
41
1
10
19.9895833333333
20
-1.77175165171175
30
0
41
1
10
18.5
20
-0.850746174916736
30
0
41
1
10
16.875
20
0.192703619777262
30
0
41
1
10
14.7083333333333
20
1.57141509459018
30
0
41
1
10
13.0833333333334
20
2.52709244899151
30
0
41
1
10
12
20
3.07381211914631
30
0
0
SPLINE
5
128
100
AcDbEntity
8
1
62
256
6
ByLayer
370
18
48
1
60
0
100
AcDbSpline
70
4
71
3
72
24
73
20
40
0
40
0
40
0
40
0
40
0.249999999999965
40
0.249999999999965
40
0.374999999999965
40
0.374999999999965
40
0.499999999999965
40
0.499999999999965
40
0.624999999999967
40
0.624999999999967
40
0.687499999999972
40
0.687499999999972
40
0.749999999999976
40
0.749999999999976
40
0.874999999999988
40
0.874999999999988
40
0.937499999999994
40
0.937499999999994
40
1
40
1
40
1
40
1
41
1
10
37.397619408771
20
-4.85553393915521
30
0
41
1
10
37.4050169896509
20
-4.86550519899214
30
0
41
1
10
37.4118447725084
20
-4.87690461781938
30
0
41
1
10
37.4208216105974
20
-4.8966240298123
30
0
41
1
10
37.4236004824276
20
-4.90363830222248
30
0
41
1
10
37.4286016855491
20
-4.91872513741458
30
0
41
1
10
37.430829718277
20
-4.92681105182189
30
0
41
1
10
37.4344976686006
20
-4.94428019906911
30
0
41
1
10
37.4359005073918
20
-4.95348358586398
30
0
41
1
10
37.4371640914557
20
-4.96814348701338
30
0
41
1
10
37.4374442303678
20
-4.97317341579617
30
0
41
1
10
37.4376727945855
20
-4.98355990029685
30
0
41
1
10
37.4376189893016
20
-4.98894926976393
30
0
41
1
10
37.4368782882047
20
-5.00535770824197
30
0
41
1
10
37.4356281635579
20
-5.01664179431901
30
0
41
1
10
37.4323332119383
20
-5.03416931742123
30
0
41
1
10
37.4309945416266
20
-5.04010628385993
30
0
41
1
10
37.4278788727882
20
-5.0518824382753
30
0
41
1
10
37.4260956723733
20
-5.05775879305639
30
0
41
1
10
37.4240809686174
20
-5.06362203082614
30
0
0
SPLINE
5
129
100
AcDbEntity
8
1
62
256
6
ByLayer
370
13
48
1
60
0
100
AcDbSpline
70
4
71
3
72
19
73
15
40
0
40
0
40
0
40
0
40
0.0646363073767876
40
0.167347050578385
40
0.270057793779983
40
0.37276853698158
40
0.475479280183178
40
0.578190023384775
40
0.680900766586373
40
0.757933823987571
40
0.834966881388769
40
0.911999938789967
40
0.989032996191165
40
1
40
1
40
1
40
1
41
1
10
37.3976194087713
20
-4.85553393915529
30
0
41
1
10
37.0567462725142
20
-4.76807774323172
30
0
41
1
10
36.1742064695904
20
-4.50818551123547
30
0
41
1
10
34.7499999999999
20
-3.95164475152987
30
0
41
1
10
33.125
20
-3.16453080631766
30
0
41
1
10
31.5
20
-2.23434853974166
30
0
41
1
10
29.8749999999999
20
-1.22566463745199
30
0
41
1
10
28.25
20
-0.163581326915306
30
0
41
1
10
26.7604166666667
20
0.819199380172677
30
0
41
1
10
25.4062499999999
20
1.68482661142878
30
0
41
1
10
24.1875
20
2.42266789690129
30
0
41
1
10
22.96875
20
3.10723058716798
30
0
41
1
10
22.0984132030761
20
3.54431027343423
30
0
41
1
10
21.6343264061522
20
3.75876254929719
30
0
41
1
10
21.5764896092283
20
3.78519435682639
30
0
0
SPLINE
5
12A
100
AcDbEntity
8
1
62
256
6
ByLayer
370
13
48
1
60
0
100
AcDbSpline
70
4
71
3
72
18
73
14
40
0
40
0
40
0
40
0
40
0.0927285810293122
40
0.168334532610203
40
0.243940484191093
40
0.294344451911687
40
0.344748419632281
40
0.420354371213172
40
0.495960322794062
40
0.59676825823525
40
0.697576193676437
40
0.798384129117625
40
1
40
1
40
1
40
1
41
1
10
28.119762723918
20
-5.26932065611123
30
0
41
1
10
27.621508482612
20
-5.28627275725577
30
0
41
1
10
26.717004241306
20
-5.2585208058058
30
0
41
1
10
25.40625
20
-5.06531073058303
30
0
41
0.999999999999999
10
24.3229166666667
20
-4.7973447733325
30
0
41
1
10
23.3749999999999
20
-4.48743860316802
30
0
41
0.999999999999999
10
22.4270833333333
20
-4.12102838385332
30
0
41
1
10
21.34375
20
-3.62834723873584
30
0
41
1
10
19.9895833333333
20
-2.9133954114713
30
0
41
1
10
18.5
20
-2.02326952694608
30
0
41
1
10
16.875
20
-0.965972966747643
30
0
41
1
10
14.7083333333333
20
0.497384392088947
30
0
41
1
10
13.0833333333333
20
1.5910309644996
30
0
41
1
10
12
20
2.25093992915916
30
0
0
SPLINE
5
12B
100
AcDbEntity
8
1
62
256
6
ByLayer
370
13
48
1
60
0
100
AcDbSpline
70
4
71
3
72
15
73
11
40
0
40
0
40
0
40
0
40
0.0455517835222772
40
0.169770924732119
40
0.335396446345241
40
0.501021967958364
40
0.666647489571486
40
0.832273011184608
40
0.997898532797731
40
1
40
1
40
1
40
1
41
1
10
24.959328248432
20
3.04139979961232
30
0
41
1
10
25.1083021656214
20
3.01830001818039
30
0
41
1
10
25.6635260828107
20
2.92669072165035
30
0
41
1
10
26.7604166666668
20
2.70603717146528
30
0
41
1
10
28.2500000000001
20
2.32105646524082
30
0
41
1
10
29.875
20
1.81222450214858
30
0
41
1
10
31.5
20
1.23261930045049
30
0
41
1
10
33.125
20
0.606375303545576
30
0
41
1
10
34.2152060346144
20
0.169863278291956
30
0
41
1
10
34.763745402562
20
-0.0492887065922218
30
0
41
1
10
34.7706181038431
20
-0.0520343993468657
30
0
0
SPLINE
5
12C
100
AcDbEntity
8
1
62
256
6
ByLayer
370
18
48
1
60
0
100
AcDbSpline
70
4
71
3
72
26
73
22
40
0
40
0
40
0
40
0
40
0.124999999999983
40
0.124999999999983
40
0.249999999999966
40
0.249999999999966
40
0.312499999999957
40
0.312499999999957
40
0.374999999999949
40
0.374999999999949
40
0.499999999999932
40
0.499999999999932
40
0.562499999999923
40
0.562499999999923
40
0.624999999999915
40
0.624999999999915
40
0.749999999999943
40
0.749999999999943
40
0.874999999999972
40
0.874999999999972
40
1
40
1
40
1
40
1
41
1
10
34.7706181038432
20
-0.0520343993468941
30
0
41
1
10
34.7911747092568
20
-0.0218882158221163
30
0
41
1
10
34.8136090319101
20
0.0063436960505214
30
0
41
1
10
34.8618971380172
20
0.0593245576257004
30
0
41
1
10
34.8877552344913
20
0.0840692835275547
30
0
41
1
10
34.9291146762593
20
0.118585062493509
30
0
41
1
10
34.9433891211907
20
0.129693281720137
30
0
41
1
10
34.9724417191574
20
0.150750142031285
30
0
41
1
10
34.9872337982475
20
0.160717331265914
30
0
41
1
10
35.032395572125
20
0.18898860157779
30
0
41
1
10
35.0635474802776
20
0.20566858046746
30
0
41
1
10
35.1118658274602
20
0.227513577362771
30
0
41
1
10
35.1282379122883
20
0.234264402689092
30
0
41
1
10
35.1615278257253
20
0.246699193657747
30
0
41
1
10
35.1783938076755
20
0.252359661905388
30
0
41
1
10
35.2291594682732
20
0.267561467322878
30
0
41
1
10
35.2634194178475
20
0.27540233089303
30
0
41
1
10
35.3328073116285
20
0.286788677800047
30
0
41
1
10
35.367935411424
20
0.290332509212504
30
0
41
1
10
35.4391138428947
20
0.293276189765123
30
0
41
1
10
35.4748553850757
20
0.292657616078458
30
0
41
1
10
35.5106107516781
20
0.290106328378698
30
0
0
SPLINE
5
12D
100
AcDbEntity
8
1
62
256
6
ByLayer
370
13
48
1
60
0
100
AcDbSpline
70
4
71
3
72
19
73
15
40
0
40
0
40
0
40
0
40
0.175492987593531
40
0.277291814088871
40
0.37909064058421
40
0.48088946707955
40
0.557238586951055
40
0.63358770682256
40
0.68448712007023
40
0.7353865333179
40
0.811735653189405
40
0.88808477306091
40
0.98988359955625
40
1
40
1
40
1
40
1
41
1
10
12.4486307243675
20
3.03545950101781
30
0
41
1
10
13.3824204829117
20
2.88515083239844
30
0
41
1
10
14.8578769081225
20
2.54840361858103
30
0
41
1
10
16.875
20
1.92163148115955
30
0
41
1
10
18.5
20
1.33751118941129
30
0
41
1
10
19.9895833333333
20
0.753077114836742
30
0
41
1
10
21.34375
20
0.199949688928399
30
0
41
0.999999999999999
10
22.4270833333334
20
-0.245918172434614
30
0
41
1
10
23.375
20
-0.63173028596492
30
0
41
0.999999999999999
10
24.3229166666667
20
-1.01029167098415
30
0
41
1
10
25.4062500000001
20
-1.42650210769082
30
0
41
1
10
26.7604166666667
20
-1.90991961118829
30
0
41
1
10
27.7621622142319
20
-2.22704500091672
30
0
41
1
10
28.3576577617971
20
-2.3958428977721
30
0
41
1
10
28.4114866426957
20
-2.41093744376084
30
0
0
SPLINE
5
12E
100
AcDbEntity
8
1
62
256
6
ByLayer
370
13
48
1
60
0
100
AcDbSpline
70
4
71
3
72
9
73
5
40
0
40
0
40
0
40
0
40
0.846081032232499
40
1
40
1
40
1
40
1
41
1
10
12
20
-1.06326049333884
30
0
41
1
10
13.0833333333333
20
-1.49598936876438
30
0
41
1
10
14.3637465467992
20
-1.97071488495698
30
0
41
1
10
15.644159760265
20
-2.35442638910928
30
0
41
1
10
15.8412396403976
20
-2.41118615389178
30
0
0
SPLINE
5
12F
100
AcDbEntity
8
1
62
256
6
ByLayer
370
18
48
1
60
0
100
AcDbSpline
70
4
71
3
72
32
73
28
40
0
40
0
40
0
40
0
40
0.250000000000008
40
0.250000000000008
40
0.375000000000011
40
0.375000000000011
40
0.500000000000015
40
0.500000000000015
40
0.625000000000021
40
0.625000000000021
40
0.687500000000026
40
0.687500000000026
40
0.75000000000003
40
0.75000000000003
40
0.781250000000032
40
0.781250000000032
40
0.812500000000034
40
0.812500000000034
40
0.843750000000036
40
0.843750000000036
40
0.875000000000038
40
0.875000000000038
40
0.90625000000004
40
0.90625000000004
40
0.937500000000042
40
0.937500000000042
40
1
40
1
40
1
40
1
41
1
10
8.66485116986698
20
4.12932177287172
30
0
41
1
10
8.63926334943545
20
4.14697633676644
30
0
41
1
10
8.61435416272647
20
4.16493938934627
30
0
41
1
10
8.57873526535113
20
4.19276498364465
30
0
41
1
10
8.56715720865773
20
4.2021893942096
30
0
41
1
10
8.54486081117693
20
4.2214935376324
30
0
41
1
10
8.53415865707186
20
4.23134765862918
30
0
41
1
10
8.51430199119574
20
4.25167223974228
30
0
41
1
10
8.50508825261394
20
4.26215640873343
30
0
41
1
10
8.49380154966977
20
4.27851452580049
30
0
41
1
10
8.49045721693773
20
4.28408248439237
30
0
41
1
10
8.48518427692679
20
4.29562094623191
30
0
41
1
10
8.48327105972382
20
4.30154190168813
30
0
41
1
10
8.4825287742695
20
4.31052853030229
30
0
41
1
10
8.48265036694841
20
4.31357318729599
30
0
41
1
10
8.48388434863608
20
4.31949701330879
30
0
41
1
10
8.48501437156114
20
4.32243814076878
30
0
41
1
10
8.48845441928361
20
4.32797890391205
30
0
41
1
10
8.49072264332344
20
4.33053486737936
30
0
41
1
10
8.49638520572603
20
4.33520948000009
30
0
41
1
10
8.49973299067358
20
4.33727502641344
30
0
41
1
10
8.50703410326764
20
4.3408066359826
30
0
41
1
10
8.51103060855124
20
4.34229729971202
30
0
41
1
10
8.51922466493707
20
4.3447646718727
30
0
41
1
10
8.52346604004828
20
4.34576277709559
30
0
41
1
10
8.53650859857908
20
4.34823849325159
30
0
41
1
10
8.54551086141223
20
4.34918567410466
30
0
41
1
10
8.55455747039559
20
4.34972000224087
30
0
0
SPLINE
5
130
100
AcDbEntity
8
1
62
256
6
ByLayer
370
18
48
1
60
0
100
AcDbSpline
70
4
71
3
72
37
73
33
40
0
40
0
40
0
40
0
40
0.12500000000005
40
0.12500000000005
40
0.187500000000067
40
0.187500000000067
40
0.250000000000083
40
0.250000000000083
40
0.312500000000099
40
0.312500000000099
40
0.3437500000001
40
0.3437500000001
40
0.375000000000101
40
0.375000000000101
40
0.437500000000102
40
0.468750000000103
40
0.468750000000103
40
0.500000000000103
40
0.500000000000103
40
0.562500000000093
40
0.562500000000093
40
0.593750000000088
40
0.593750000000088
40
0.625000000000082
40
0.625000000000082
40
0.750000000000055
40
0.750000000000055
40
0.812500000000042
40
0.812500000000042
40
0.875000000000028
40
0.875000000000028
40
1
40
1
40
1
40
1
41
1
10
8.55455747039557
20
4.34972000224087
30
0
41
1
10
8.60334035386182
20
4.35260131028119
30
0
41
1
10
8.65151723362305
20
4.35728358114582
30
0
41
1
10
8.72244670628169
20
4.36822876001631
30
0
41
1
10
8.74586499855928
20
4.37253687164682
30
0
41
1
10
8.79213644939082
20
4.38279508005482
30
0
41
1
10
8.81506837891004
20
4.38878071004075
30
0
41
1
10
8.85908083859584
20
4.40245391178723
30
0
41
1
10
8.88028522142818
20
4.41016219222354
30
0
41
1
10
8.91067817778554
20
4.42323363652508
30
0
41
1
10
8.92057306558849
20
4.42784268952809
30
0
41
1
10
8.93984853445258
20
4.43760372329206
30
0
41
1
10
8.94919966752821
20
4.44274571548905
30
0
41
1
10
8.97589876285389
20
4.45869980960336
30
0
41
1
10
9.00016457864518
20
4.47584606333592
30
0
41
1
10
9.02081341548791
20
4.49469746605524
30
0
41
1
10
9.03378104366516
20
4.50763288175216
30
0
41
1
10
9.03989032957313
20
4.51431606911265
30
0
41
1
10
9.0568085473584
20
4.53462401799473
30
0
41
1
10
9.06622978478657
20
4.54849250275953
30
0
41
1
10
9.07801294495556
20
4.56966325579236
30
0
41
1
10
9.08154797457411
20
4.57678184295366
30
0
41
1
10
9.08789263219285
20
4.59112471036858
30
0
41
1
10
9.09070821022851
20
4.59836951100758
30
0
41
1
10
9.10299239790919
20
4.63445874186229
30
0
41
1
10
9.10729998539099
20
4.66303130139164
30
0
41
1
10
9.10842984759913
20
4.70531845792078
30
0
41
1
10
9.10789482518615
20
4.71931981034942
30
0
41
1
10
9.10529664859342
20
4.74712096076027
30
0
41
1
10
9.10322897495649
20
4.76092232142005
30
0
41
1
10
9.09514265003929
20
4.80170209949685
30
0
41
1
10
9.08725522201593
20
4.82817726781818
30
0
41
1
10
9.07754931150893
20
4.85401341894081
30
0
0
SPLINE
5
131
100
AcDbEntity
8
1
62
256
6
ByLayer
370
18
48
1
60
0
100
AcDbSpline
70
4
71
3
72
41
73
37
40
0
40
0
40
0
40
0
40
0.0312499999999996
40
0.0312499999999996
40
0.0624999999999992
40
0.0624999999999992
40
0.125000000000002
40
0.125000000000002
40
0.156250000000002
40
0.156250000000002
40
0.187500000000001
40
0.187500000000001
40
0.250000000000005
40
0.250000000000005
40
0.312500000000008
40
0.312500000000008
40
0.34375000000001
40
0.34375000000001
40
0.375000000000012
40
0.375000000000012
40
0.500000000000008
40
0.500000000000008
40
0.531250000000007
40
0.531250000000007
40
0.562500000000007
40
0.625000000000005
40
0.625000000000005
40
0.687500000000003
40
0.687500000000003
40
0.750000000000002
40
0.750000000000002
40
0.8125
40
0.8125
40
0.874999999999998
40
0.874999999999998
40
1
40
1
40
1
40
1
41
1
10
7.64045637160086
20
5.75838507444945
30
0
41
1
10
7.66545985092651
20
5.75761081531783
30
0
41
1
10
7.69202589965425
20
5.75660407017742
30
0
41
1
10
7.74779525949737
20
5.75427101729125
30
0
41
1
10
7.77700058601076
20
5.7529441141738
30
0
41
1
10
7.86805355833943
20
5.74864164520707
30
0
41
1
10
7.93331047597044
20
5.74535177318665
30
0
41
1
10
8.03667223752441
20
5.74021611970915
30
0
41
1
10
8.07211061081406
20
5.73846566779707
30
0
41
1
10
8.14362084620529
20
5.73499530318585
30
0
41
1
10
8.17981839215017
20
5.73326894683174
30
0
41
1
10
8.28957770113405
20
5.72816939652643
30
0
41
1
10
8.36429795596635
20
5.72487837132221
30
0
41
1
10
8.51626196960186
20
5.71870242623498
30
0
41
1
10
8.59351009962376
20
5.71581605538512
30
0
41
1
10
8.71101946166405
20
5.711876554632
30
0
41
1
10
8.75049077258623
20
5.71062716723637
30
0
41
1
10
8.82983206552689
20
5.70827151667223
30
0
41
1
10
8.86959979670073
20
5.70716816226005
30
0
41
1
10
9.06889035276146
20
5.70203445683876
30
0
41
1
10
9.2297515853121
20
5.699164793226
30
0
41
1
10
9.43229148495791
20
5.69716166088068
30
0
41
1
10
9.47289545637324
20
5.69683950149971
30
0
41
1
10
9.55404771698591
20
5.69635160692974
30
0
41
1
10
9.67574939251864
20
5.69585340841641
30
0
41
1
10
9.79737412791357
20
5.69603844584861
30
0
41
1
10
9.9594762009468
20
5.69685110365586
30
0
41
1
10
10.0404951025228
20
5.69754041169327
30
0
41
1
10
10.2024715119079
20
5.69943292571196
30
0
41
1
10
10.2832645929151
20
5.70063429433466
30
0
41
1
10
10.444325883398
20
5.70347543739024
30
0
41
1
10
10.52461945609
20
5.70511552510823
30
0
41
1
10
10.6847497637159
20
5.70875544622186
30
0
41
1
10
10.7646294519284
20
5.71075658918019
30
0
41
1
10
11.0030062999266
20
5.71714903978051
30
0
41
1
10
11.1603988814415
20
5.72193642851477
30
0
41
1
10
11.3163586137524
20
5.72682825628243
30
0
0
SPLINE
5
132
100
AcDbEntity
8
1
62
256
6
ByLayer
370
18
48
1
60
0
100
AcDbSpline
70
4
71
3
72
34
73
30
40
0
40
0
40
0
40
0
40
0.250000000000007
40
0.250000000000007
40
0.375000000000012
40
0.375000000000012
40
0.500000000000017
40
0.500000000000017
40
0.625000000000022
40
0.625000000000022
40
0.687500000000024
40
0.687500000000024
40
0.718750000000026
40
0.718750000000026
40
0.750000000000028
40
0.750000000000028
40
0.78125000000003
40
0.78125000000003
40
0.812500000000032
40
0.812500000000032
40
0.843750000000034
40
0.843750000000034
40
0.875000000000036
40
0.875000000000036
40
0.906250000000038
40
0.906250000000038
40
0.93750000000004
40
0.93750000000004
40
1
40
1
40
1
40
1
41
1
10
8.42833056299088
20
-4.51765807012575
30
0
41
1
10
8.40105702635373
20
-4.50206573594772
30
0
41
1
10
8.37445256455402
20
-4.48594759304933
30
0
41
1
10
8.33628257120114
20
-4.46049846998528
30
0
41
1
10
8.32385279025107
20
-4.45180076235383
30
0
41
1
10
8.29985600313736
20
-4.43379610261468
30
0
41
1
10
8.28827912369013
20
-4.42449064955318
30
0
41
1
10
8.2667888071814
20
-4.40512419138921
30
0
41
1
10
8.25677832250213
20
-4.39505360425019
30
0
41
1
10
8.24429853613444
20
-4.37882956554816
30
0
41
1
10
8.24062170924145
20
-4.37329522949605
30
0
41
1
10
8.23631506304233
20
-4.36468750261702
30
0
41
1
10
8.23508379036264
20
-4.36176653955485
30
0
41
1
10
8.23319716557276
20
-4.35578092109011
30
0
41
1
10
8.23255063181915
20
-4.35273117854058
30
0
41
1
10
8.23211386767215
20
-4.34662467086454
30
0
41
1
10
8.23232982279117
20
-4.34351173135781
30
0
41
1
10
8.23390773193822
20
-4.33748974338317
30
0
41
1
10
8.23525575123602
20
-4.33457404112553
30
0
41
1
10
8.23933853452098
20
-4.328982813252
30
0
41
1
10
8.24199158314292
20
-4.32643887992145
30
0
41
1
10
8.24831323481916
20
-4.32191268531795
30
0
41
1
10
8.25200060740517
20
-4.31992681772448
30
0
41
1
10
8.25980560132814
20
-4.31658637734799
30
0
41
1
10
8.26400364104987
20
-4.31518563619019
30
0
41
1
10
8.27266189987722
20
-4.3128367820284
30
0
41
1
10
8.27708162067825
20
-4.31189494816391
30
0
41
1
10
8.2905311581342
20
-4.30955915779569
30
0
41
1
10
8.29977905434208
20
-4.30864471177628
30
0
41
1
10
8.30908848498632
20
-4.30811663129643
30
0
0
SPLINE
5
133
100
AcDbEntity
8
1
62
256
6
ByLayer
370
18
48
1
60
0
100
AcDbSpline
70
4
71
3
72
41
73
37
40
0
40
0
40
0
40
0
40
0.0624999999999887
40
0.0624999999999887
40
0.124999999999977
40
0.124999999999977
40
0.187499999999966
40
0.187499999999966
40
0.218749999999967
40
0.218749999999967
40
0.249999999999968
40
0.281249999999969
40
0.281249999999969
40
0.31249999999997
40
0.31249999999997
40
0.37499999999996
40
0.37499999999996
40
0.40624999999996
40
0.40624999999996
40
0.43749999999996
40
0.43749999999996
40
0.499999999999962
40
0.499999999999962
40
0.531249999999964
40
0.531249999999964
40
0.562499999999967
40
0.562499999999967
40
0.62499999999997
40
0.62499999999997
40
0.687499999999975
40
0.687499999999975
40
0.749999999999979
40
0.749999999999979
40
0.87499999999999
40
0.87499999999999
40
1
40
1
40
1
40
1
41
1
10
8.30908848498629
20
-4.30811663129643
30
0
41
1
10
8.33953780738787
20
-4.30638938358391
30
0
41
1
10
8.36977995685851
20
-4.30403029370177
30
0
41
1
10
8.42974969565921
20
-4.29773395943215
30
0
41
1
10
8.45947802540613
20
-4.29379920951845
30
0
41
1
10
8.51827714410828
20
-4.28389615137979
30
0
41
1
10
8.54734942749417
20
-4.27793291918266
30
0
41
1
10
8.59030119244699
20
-4.26693380887545
30
0
41
1
10
8.60448551952624
20
-4.26292442497811
30
0
41
1
10
8.63217450246992
20
-4.25423917084453
30
0
41
1
10
8.65928219680447
20
-4.24486343900011
30
0
41
1
10
8.68510232243989
20
-4.23394458953365
30
0
41
1
10
8.71020537793274
20
-4.22215769575243
30
0
41
1
10
8.72244707641883
20
-4.21580170051229
30
0
41
1
10
8.75763321507861
20
-4.19545496072951
30
0
41
1
10
8.77864918466068
20
-4.1804310582437
30
0
41
1
10
8.80646304167431
20
-4.1556028213887
30
0
41
1
10
8.81511627124516
20
-4.14694468415206
30
0
41
1
10
8.83118191798889
20
-4.12884703222352
30
0
41
1
10
8.83861531363755
20
-4.11936518528756
30
0
41
1
10
8.85864009487651
20
-4.09038697064085
30
0
41
1
10
8.86914514459906
20
-4.07019437810405
30
0
41
1
10
8.88138388221694
20
-4.03874393619608
30
0
41
1
10
8.88488452723277
20
-4.0280245668383
30
0
41
1
10
8.89074697909609
20
-4.00646197398723
30
0
41
1
10
8.89311500698861
20
-3.99562089478184
30
0
41
1
10
8.89875955599345
20
-3.96292511843771
30
0
41
1
10
8.90058717785655
20
-3.94089821232245
30
0
41
1
10
8.90124743372184
20
-3.89641040997009
30
0
41
1
10
8.90007488900704
20
-3.87394935547604
30
0
41
1
10
8.89531062432621
20
-3.82860938371334
30
0
41
1
10
8.89173196227281
20
-3.80589029617124
30
0
41
1
10
8.87822538264015
20
-3.73789246589681
30
0
41
1
10
8.86555047624515
20
-3.69259234569614
30
0
41
1
10
8.83521896355009
20
-3.60172871620401
30
0
41
1
10
8.81753194133407
20
-3.55616967841112
30
0
41
1
10
8.79794918110787
20
-3.51039975565047
30
0
0
SPLINE
5
134
100
AcDbEntity
8
1
62
256
6
ByLayer
370
18
48
1
60
0
100
AcDbSpline
70
4
71
3
72
21
73
17
40
0
40
0
40
0
40
0
40
0.249999999999991
40
0.249999999999991
40
0.499999999999981
40
0.499999999999981
40
0.531249999999982
40
0.531249999999982
40
0.562499999999982
40
0.624999999999984
40
0.624999999999984
40
0.749999999999989
40
0.749999999999989
40
0.874999999999995
40
0.874999999999995
40
1
40
1
40
1
40
1
41
1
10
8.7979491811079
20
-3.51039975565047
30
0
41
1
10
8.63768478437214
20
-3.32373062510933
30
0
41
1
10
8.4913467176207
20
-3.12391654808135
30
0
41
1
10
8.22513732721293
20
-2.6963023915412
30
0
41
1
10
8.10524706489846
20
-2.46852702799981
30
0
41
1
10
7.98464981057691
20
-2.1950865783088
30
0
41
1
10
7.97143461246512
20
-2.16443032090822
30
0
41
1
10
7.94547755863576
20
-2.10281547226538
30
0
41
1
10
7.90726847941244
20
-2.00998433116911
30
0
41
1
10
7.87119586581423
20
-1.91593435324637
30
0
41
1
10
7.80179583156064
20
-1.72622512819555
30
0
41
1
10
7.75918527818069
20
-1.59760855276505
30
0
41
1
10
7.68082306462958
20
-1.33612814923845
30
0
41
1
10
7.64507114994507
20
-1.2032646561303
30
0
41
1
10
7.58010736283757
20
-0.933265372646162
30
0
41
1
10
7.55089495674338
20
-0.796130109687425
30
0
41
1
10
7.52486615976858
20
-0.656807001722228
30
0
0
SPLINE
5
135
100
AcDbEntity
8
1
62
256
6
ByLayer
370
18
48
1
60
0
100
AcDbSpline
70
4
71
3
72
15
73
11
40
0
40
0
40
0
40
0
40
0.249999999999994
40
0.249999999999994
40
0.374999999999991
40
0.437499999999989
40
0.437499999999989
40
0.499999999999988
40
0.499999999999988
40
1
40
1
40
1
40
1
41
1
10
7.52486615976858
20
-0.656807001722228
30
0
41
1
10
7.51776806008934
20
-0.618813339974508
30
0
41
1
10
7.51362109283281
20
-0.58070217824141
30
0
41
1
10
7.51230628840142
20
-0.523345271821341
30
0
41
1
10
7.51287754055875
20
-0.49461921327233
30
0
41
1
10
7.51540652110043
20
-0.46581842377023
30
0
41
1
10
7.51754246428334
20
-0.446600859780062
30
0
41
1
10
7.51884014200573
20
-0.436956501077873
30
0
41
1
10
7.53248021425105
20
-0.350865896747564
30
0
41
1
10
7.55838642003263
20
-0.278991232510379
30
0
41
1
10
7.5969590443182
20
-0.211412145184681
30
0
0
SPLINE
5
136
100
AcDbEntity
8
1
62
256
6
ByLayer
370
18
48
1
60
0
100
AcDbSpline
70
4
71
3
72
8
73
4
40
0
40
0
40
0
40
0
40
1
40
1
40
1
40
1
41
1
10
37.3846687486049
20
2.26727561951557
30
0
41
1
10
37.5466671665052
20
1.84807848210224
30
0
41
1
10
37.7086361031913
20
1.42870602546458
30
0
41
1
10
37.8705907410769
20
1.00926045553936
30
0
0
SPLINE
5
137
100
AcDbEntity
8
1
62
256
6
ByLayer
370
18
48
1
60
0
100
AcDbSpline
70
4
71
3
72
8
73
4
40
0
40
0
40
0
40
0
40
1
40
1
40
1
40
1
41
1
10
37.3846687486049
20
2.26727561951489
30
0
41
1
10
37.390314177304
20
2.25173469704188
30
0
41
1
10
37.395914980623
20
2.23609223828612
30
0
41
1
10
37.4014906906197
20
2.22035260527031
30
0
0
SPLINE
5
138
100
AcDbEntity
8
1
62
256
6
ByLayer
370
18
48
1
60
0
100
AcDbSpline
70
4
71
3
72
24
73
20
40
0
40
0
40
0
40
0
40
0.249999999999975
40
0.249999999999975
40
0.374999999999981
40
0.374999999999981
40
0.499999999999987
40
0.499999999999987
40
0.624999999999993
40
0.624999999999993
40
0.687499999999997
40
0.687499999999997
40
0.750000000000001
40
0.750000000000001
40
0.875000000000001
40
0.875000000000001
40
0.937500000000001
40
0.937500000000001
40
1
40
1
40
1
40
1
41
1
10
37.4014906906198
20
2.22035260527025
30
0
41
1
10
37.4088135225194
20
2.19968097547786
30
0
41
1
10
37.4155571623951
20
2.17987310958318
30
0
41
1
10
37.4243871851962
20
2.15167628185938
30
0
41
1
10
37.4271136159537
20
2.14253224067545
30
0
41
1
10
37.4320002150969
20
2.12484161698916
30
0
41
1
10
37.4341709394529
20
2.11625428487881
30
0
41
1
10
37.4376869577296
20
2.10000714011514
30
0
41
1
10
37.4390112517296
20
2.09245565439406
30
0
41
1
10
37.4401512707761
20
2.08216366226921
30
0
41
1
10
37.4403892533866
20
2.07890651752615
30
0
41
1
10
37.44053107335
20
2.07278627391153
30
0
41
1
10
37.4404321422509
20
2.06991220335075
30
0
41
1
10
37.4395595036678
20
2.06214181304512
30
0
41
1
10
37.4382199995508
20
2.05803606572533
30
0
41
1
10
37.4348111542664
20
2.05376188610234
30
0
41
1
10
37.4334422810963
20
2.05266192129506
30
0
41
1
10
37.4302764454581
20
2.05117260051657
30
0
41
1
10
37.4284732647469
20
2.05077395896959
30
0
41
1
10
37.4264427866877
20
2.05072350935191
30
0
0
SPLINE
5
139
100
AcDbEntity
8
1
62
256
6
ByLayer
370
18
48
1
60
0
100
AcDbSpline
70
4
71
3
72
46
73
42
40
0
40
0
40
0
40
0
40
0.0625000000000242
40
0.0625000000000242
40
0.125000000000048
40
0.125000000000048
40
0.140625000000054
40
0.140625000000054
40
0.15625000000006
40
0.187500000000072
40
0.218750000000084
40
0.218750000000084
40
0.250000000000096
40
0.250000000000096
40
0.31250000000012
40
0.31250000000012
40
0.328125000000121
40
0.328125000000121
40
0.343750000000123
40
0.343750000000123
40
0.375000000000118
40
0.375000000000118
40
0.437500000000109
40
0.437500000000109
40
0.468750000000105
40
0.468750000000105
40
0.5000000000001
40
0.5000000000001
40
0.562500000000091
40
0.562500000000091
40
0.625000000000083
40
0.625000000000083
40
0.656250000000079
40
0.656250000000079
40
0.687500000000074
40
0.687500000000074
40
0.750000000000055
40
0.750000000000055
40
0.875000000000028
40
0.875000000000028
40
1
40
1
40
1
40
1
41
1
10
37.6613173597697
20
0.301906957190937
30
0
41
1
10
37.6886089274058
20
0.292963172741622
30
0
41
1
10
37.7118852608016
20
0.284276191953381
30
0
41
1
10
37.7487815029056
20
0.267519872292723
30
0
41
1
10
37.7624203576563
20
0.259449311925266
30
0
41
1
10
37.771815301544
20
0.249850635366982
30
0
41
1
10
37.7733030846708
20
0.247958984076263
30
0
41
1
10
37.7754445361533
20
0.244260449921882
30
0
41
1
10
37.7774166105418
20
0.238828579141085
30
0
41
1
10
37.7743086390212
20
0.230373272608972
30
0
41
1
10
37.7645083609201
20
0.224292764086215
30
0
41
1
10
37.7507564116085
20
0.218581675751892
30
0
41
1
10
37.7418298780205
20
0.215900100703919
30
0
41
1
10
37.7094960947654
20
0.208623681045594
30
0
41
1
10
37.6804951040749
20
0.204736067696871
30
0
41
1
10
37.6354361024217
20
0.201016195841419
30
0
41
1
10
37.6259835489018
20
0.200329250942758
30
0
41
1
10
37.6062081383183
20
0.19906797054486
30
0
41
1
10
37.5958671738626
20
0.198492779942598
30
0
41
1
10
37.563675190881
20
0.196939701765302
30
0
41
1
10
37.5408777245212
20
0.196143335181603
30
0
41
1
10
37.4689441797376
20
0.194387700388177
30
0
41
1
10
37.4162863993618
20
0.194058418900795
30
0
41
1
10
37.3316492986731
20
0.194575285204706
30
0
41
1
10
37.3024655508205
20
0.19491742238128
30
0
41
1
10
37.242483691795
20
0.19590669873034
30
0
41
1
10
37.2119383276872
20
0.196549224069344
30
0
41
1
10
37.1188700987633
20
0.19885880117883
30
0
41
1
10
37.0549257152002
20
0.200905021887536
30
0
41
1
10
36.9241164993271
20
0.205776449479515
30
0
41
1
10
36.8572463666097
20
0.208603070167385
30
0
41
1
10
36.7551842497977
20
0.213311632818716
30
0
41
1
10
36.7208689716152
20
0.214959726547221
30
0
41
1
10
36.6517055817066
20
0.218398039410261
30
0
41
1
10
36.6168155686752
20
0.220190503701701
30
0
41
1
10
36.5117204117183
20
0.22574589427677
30
0
41
1
10
36.4412932667809
20
0.229674496629997
30
0
41
1
10
36.229133722241
20
0.242003549464329
30
0
41
1
10
36.0865344094429
20
0.250940318944856
30
0
41
1
10
35.7997074789814
20
0.269821214628763
30
0
41
1
10
35.6554725526163
20
0.279769862387127
30
0
41
1
10
35.5106107516781
20
0.290106328378556
30
0
0
SPLINE
5
13A
100
AcDbEntity
8
1
62
256
6
ByLayer
370
18
48
1
60
0
100
AcDbSpline
70
4
71
3
72
42
73
38
40
0
40
0
40
0
40
0
40
0.0312500000000018
40
0.0312500000000018
40
0.0625000000000035
40
0.0625000000000035
40
0.0937500000000053
40
0.0937500000000053
40
0.125000000000007
40
0.125000000000007
40
0.187500000000011
40
0.187500000000011
40
0.250000000000014
40
0.250000000000014
40
0.281250000000013
40
0.281250000000013
40
0.312500000000013
40
0.312500000000013
40
0.375000000000012
40
0.375000000000012
40
0.406250000000011
40
0.406250000000011
40
0.43750000000001
40
0.43750000000001
40
0.500000000000009
40
0.500000000000009
40
0.562500000000008
40
0.562500000000008
40
0.625000000000007
40
0.625000000000007
40
0.687500000000006
40
0.687500000000006
40
0.750000000000005
40
0.750000000000005
40
0.875000000000002
40
0.875000000000002
40
1
40
1
40
1
40
1
41
1
10
7.59695904431817
20
-0.211412145184653
30
0
41
1
10
7.61794960132238
20
-0.174636771170697
30
0
41
1
10
7.64097252827241
20
-0.139590102871068
30
0
41
1
10
7.69048695704973
20
-0.072447648133334
30
0
41
1
10
7.71698065128231
20
-0.0403537246575354
30
0
41
1
10
7.77300513757382
20
0.0212498148993916
30
0
41
1
10
7.80253724158601
20
0.0507583161702883
30
0
41
1
10
7.86431409979375
20
0.107466625141029
30
0
41
1
10
7.89665830412059
20
0.134728427360415
30
0
41
1
10
7.99571567429513
20
0.212146784513749
30
0
41
1
10
8.06488560700296
20
0.258455214512566
30
0
41
1
10
8.20797581392657
20
0.343042819099963
30
0
41
1
10
8.28191111325643
20
0.381296397261536
30
0
41
1
10
8.39574466386307
20
0.433732694999833
30
0
41
1
10
8.43424099178299
20
0.450405136766165
30
0
41
1
10
8.51182723110634
20
0.482091671272514
30
0
41
1
10
8.55088694259965
20
0.497097207487173
30
0
41
1
10
8.66879407015963
20
0.539829779119913
30
0
41
1
10
8.74836598689421
20
0.565283912613666
30
0
41
1
10
8.86897129613362
20
0.599563091288786
30
0
41
1
10
8.90938195551431
20
0.61033600990524
30
0
41
1
10
8.99059680911975
20
0.630652383777402
30
0
41
1
10
9.03142824069309
20
0.640201182180533
30
0
41
1
10
9.15417467790715
20
0.667032173570107
30
0
41
1
10
9.23640012425585
20
0.682523413085192
30
0
41
1
10
9.40156338726149
20
0.709190218231299
30
0
41
1
10
9.48450154240271
20
0.72036368145308
30
0
41
1
10
9.65104025770086
20
0.738705472945583
30
0
41
1
10
9.73456180499625
20
0.745860698051501
30
0
41
1
10
9.90164857584077
20
0.756356271827087
30
0
41
1
10
9.98527951222144
20
0.759703303457997
30
0
41
1
10
10.1527085107826
20
0.762771514526037
30
0
41
1
10
10.2365886347317
20
0.762488367787199
30
0
41
1
10
10.4876152313647
20
0.75638950052857
30
0
41
1
10
10.6542760524991
20
0.745363660698132
30
0
41
1
10
10.9862922419992
20
0.710120198185109
30
0
41
1
10
11.1516466999487
20
0.685893353127767
30
0
41
1
10
11.3163586137526
20
0.655142529879186
30
0
0
SPLINE
5
13B
100
AcDbEntity
8
1
62
256
6
ByLayer
370
18
48
1
60
0
100
AcDbSpline
70
4
71
3
72
8
73
4
40
0
40
0
40
0
40
0
40
1
40
1
40
1
40
1
41
1
10
11.453174727128
20
2.34434091041635
30
0
41
1
10
11.4086629285515
20
2.37269946935527
30
0
41
1
10
11.3630775629579
20
2.40111122509723
30
0
41
1
10
11.3163586137524
20
2.42951398873674
30
0
0
SPLINE
5
13C
100
AcDbEntity
8
1
62
256
6
ByLayer
370
18
48
1
60
0
100
AcDbSpline
70
4
71
3
72
8
73
4
40
0
40
0
40
0
40
0
40
1
40
1
40
1
40
1
41
1
10
36.9267875064835
20
-5.95507449796028
30
0
41
1
10
36.9404241403316
20
-5.95722414317635
30
0
41
1
10
36.9536504761612
20
-5.95945168179799
30
0
41
1
10
36.9664082004296
20
-5.96177138965714
30
0
0
SPLINE
5
13D
100
AcDbEntity
8
1
62
256
6
ByLayer
370
18
48
1
60
0
100
AcDbSpline
70
4
71
3
72
36
73
32
40
0
40
0
40
0
40
0
40
0.0312499999999288
40
0.0312499999999288
40
0.0624999999998575
40
0.0624999999998575
40
0.0937499999997863
40
0.0937499999997863
40
0.109374999999751
40
0.109374999999751
40
0.124999999999715
40
0.124999999999715
40
0.140624999999679
40
0.140624999999679
40
0.156249999999644
40
0.156249999999644
40
0.187499999999644
40
0.187499999999644
40
0.218749999999644
40
0.218749999999644
40
0.249999999999645
40
0.249999999999645
40
0.312499999999674
40
0.312499999999674
40
0.374999999999703
40
0.374999999999703
40
0.499999999999762
40
0.499999999999762
40
0.749999999999881
40
0.749999999999881
40
1
40
1
40
1
40
1
41
1
10
36.9664082004454
20
-5.96177138965336
30
0
41
1
10
36.9696162515137
20
-5.96235470225042
30
0
41
1
10
36.9729271700411
20
-5.96290279240733
30
0
41
1
10
36.9798604764005
20
-5.96389613955782
30
0
41
1
10
36.9834930255624
20
-5.96434343799996
30
0
41
1
10
36.9911652269741
20
-5.96505883136544
30
0
41
1
10
36.9951998505956
20
-5.96533278081654
30
0
41
1
10
37.0018704241256
20
-5.96549044509126
30
0
41
1
10
37.0041606705509
20
-5.96549817251562
30
0
41
1
10
37.0089173163695
20
-5.96538608161504
30
0
41
1
10
37.0113945216381
20
-5.96526348513359
30
0
41
1
10
37.0163164874495
20
-5.9648584154821
30
0
41
1
10
37.0188406067401
20
-5.96456704531283
30
0
41
1
10
37.0236263955657
20
-5.96383396362205
30
0
41
1
10
37.0259042067544
20
-5.9633927873405
30
0
41
1
10
37.0322444010297
20
-5.96192173073777
30
0
41
1
10
37.035697278238
20
-5.96078651548035
30
0
41
1
10
37.0415461279791
20
-5.95848722776284
30
0
41
1
10
37.0439634340275
20
-5.95731594704844
30
0
41
1
10
37.0482672927756
20
-5.95495234848082
30
0
41
1
10
37.0501085924729
20
-5.95377947013111
30
0
41
1
10
37.0550777101668
20
-5.95028647140828
30
0
41
1
10
37.0576702204279
20
-5.94798608841364
30
0
41
1
10
37.0621772394563
20
-5.94341393501907
30
0
41
1
10
37.0640713148263
20
-5.94114214570473
30
0
41
1
10
37.0691026454599
20
-5.93435916351626
30
0
41
1
10
37.0715858180679
20
-5.92990774419135
30
0
41
1
10
37.077820609602
20
-5.91665160265089
30
0
41
1
10
37.0803519843332
20
-5.90794158456441
30
0
41
1
10
37.084201959033
20
-5.8906225043909
30
0
41
1
10
37.0854493957424
20
-5.88201996306432
30
0
41
1
10
37.0863413629776
20
-5.87343958935929
30
0
0
SPLINE
5
13E
100
AcDbEntity
8
1
62
256
6
ByLayer
370
18
48
1
60
0
100
AcDbSpline
70
4
71
3
72
20
73
16
40
0
40
0
40
0
40
0
40
0.0312499999999254
40
0.0312499999999254
40
0.0624999999998508
40
0.0624999999998508
40
0.0937499999997761
40
0.0937499999997761
40
0.124999999999702
40
0.124999999999702
40
0.249999999999742
40
0.249999999999742
40
0.49999999999983
40
0.49999999999983
40
1
40
1
40
1
40
1
41
1
10
36.9267875064871
20
-5.95507449796068
30
0
41
1
10
36.9264498007366
20
-5.95502126286169
30
0
41
1
10
36.9260736076032
20
-5.95497767744297
30
0
41
1
10
36.9252045159623
20
-5.95495695914991
30
0
41
1
10
36.9246726037001
20
-5.95499215277206
30
0
41
1
10
36.9237735139982
20
-5.95516922526568
30
0
41
1
10
36.9234324334653
20
-5.95528973213348
30
0
41
1
10
36.9228775579158
20
-5.95552980625669
30
0
41
1
10
36.9226557660637
20
-5.95565440501653
30
0
41
1
10
36.9216967239376
20
-5.95626848896171
30
0
41
1
10
36.9213037685372
20
-5.95675982933076
30
0
41
1
10
36.9202929245401
20
-5.95820594923674
30
0
41
1
10
36.9199645201888
20
-5.95914781152464
30
0
41
1
10
36.9192129219422
20
-5.96195812510774
30
0
41
1
10
36.9191092014796
20
-5.96380386240924
30
0
41
1
10
36.9191184123862
20
-5.96563634407082
30
0
0
SPLINE
5
13F
100
AcDbEntity
8
1
62
256
6
ByLayer
370
18
48
1
60
0
100
AcDbSpline
70
4
71
3
72
24
73
20
40
0
40
0
40
0
40
0
40
0.125000000000001
40
0.125000000000001
40
0.250000000000002
40
0.250000000000002
40
0.312500000000002
40
0.312500000000002
40
0.375000000000003
40
0.375000000000003
40
0.500000000000003
40
0.625000000000004
40
0.625000000000004
40
0.687500000000003
40
0.687500000000003
40
0.750000000000003
40
0.750000000000003
40
0.875000000000001
40
1
40
1
40
1
40
1
41
1
10
37.9729229392428
20
0.217228766366929
30
0
41
1
10
37.9740361340896
20
0.221066201018061
30
0
41
1
10
37.9726107637705
20
0.22509018247473
30
0
41
1
10
37.9650181986314
20
0.233486599001196
30
0
41
1
10
37.9588479837698
20
0.237859256000036
30
0
41
1
10
37.9460754007152
20
0.24467670788124
30
0
41
1
10
37.9412300519208
20
0.24699238795543
30
0
41
1
10
37.9303496259009
20
0.251711175458439
30
0
41
1
10
37.924297351251
20
0.254120504793661
30
0
41
1
10
37.904434929094
20
0.2614386724334
30
0
41
1
10
37.8736413307122
20
0.271361735209922
30
0
41
1
10
37.8345160368104
20
0.281604711435335
30
0
41
1
10
37.8020005024969
20
0.289408722651558
30
0
41
1
10
37.7906318323092
20
0.292030416314162
30
0
41
1
10
37.7668066488249
20
0.297315573725655
30
0
41
1
10
37.7543046810591
20
0.29998817107608
30
0
41
1
10
37.7155327903353
20
0.307984066561801
30
0
41
1
10
37.6604526275568
20
0.318597741218838
30
0
41
1
10
37.5986757293097
20
0.329117386520295
30
0
41
1
10
37.5660494041821
20
0.334352807526386
30
0
0
SPLINE
5
140
100
AcDbEntity
8
1
62
256
6
ByLayer
370
18
48
1
60
0
100
AcDbSpline
70
4
71
3
72
10
73
6
40
0
40
0
40
0
40
0
40
0.5
40
0.5
40
1
40
1
40
1
40
1
41
1
10
37.8706678708165
20
1.00906069757215
30
0
41
1
10
37.8723813717749
20
1.00219026008969
30
0
41
1
10
37.8736218113352
20
0.996467487477133
30
0
41
1
10
37.8750120802053
20
0.987680112149178
30
0
41
1
10
37.8751436941108
20
0.984725314279899
30
0
41
1
10
37.8747162233985
20
0.983198079575402
30
0
0
SPLINE
5
141
100
AcDbEntity
8
1
62
256
6
ByLayer
370
18
48
1
60
0
100
AcDbSpline
70
4
71
3
72
35
73
31
40
0
40
0
40
0
40
0
40
0.0243803887496825
40
0.0488591885532573
40
0.0734310330484395
40
0.09809055605619
40
0.122832361094244
40
0.147651048010759
40
0.172541272895729
40
0.197497805221782
40
0.22251556176631
40
0.247589595501505
40
0.326134631312343
40
0.406697238067905
40
0.489106474940287
40
0.573202519384516
40
0.648688928509636
40
0.728240727173601
40
0.811715684669393
40
0.898996759369273
40
0.907093275320689
40
0.915638173016084
40
0.924630330372219
40
0.934068595925969
40
0.943951795385178
40
0.954278738502198
40
0.965048226306057
40
0.976259058718075
40
0.987910042566043
40
1
40
1
40
1
40
1
41
1
10
37.8706441675206
20
1.00923807649841
30
0
41
1
10
37.8698946157891
20
1.01033731494081
30
0
41
1
10
37.8683924867725
20
1.01254022888429
30
0
41
1
10
37.8650593748981
20
1.01602263095919
30
0
41
1
10
37.8609265512922
20
1.01964180206437
30
0
41
1
10
37.8559139274692
20
1.02340788433622
30
0
41
1
10
37.8500417798586
20
1.02731441894275
30
0
41
1
10
37.8433049786448
20
1.03135869544445
30
0
41
1
10
37.8357065277457
20
1.0355364225839
30
0
41
1
10
37.8272487089178
20
1.03984312124072
30
0
41
1
10
37.8179352577476
20
1.04427378683732
30
0
41
1
10
37.8005547755435
20
1.05205308028613
30
0
41
1
10
37.771503049689
20
1.06371446513782
30
0
41
1
10
37.7253680245487
20
1.07997964739252
30
0
41
1
10
37.6701176414222
20
1.0975195697055
30
0
41
1
10
37.6083731768557
20
1.11543719174605
30
0
41
1
10
37.5406260021167
20
1.1336004976541
30
0
41
1
10
37.4669758853817
20
1.15210143039076
30
0
41
1
10
37.3836102393524
20
1.17179769295035
30
0
41
1
10
37.3200148037916
20
1.18592788923488
30
0
41
1
10
37.2820102758522
20
1.19405394666728
30
0
41
1
10
37.2725896470476
20
1.19604919289836
30
0
41
1
10
37.2626262504439
20
1.19814278465787
30
0
41
1
10
37.2521149583569
20
1.20033436214675
30
0
41
1
10
37.2410509619736
20
1.2026241590215
30
0
41
1
10
37.2294294071185
20
1.20501202119243
30
0
41
1
10
37.2172461135965
20
1.20749770615984
30
0
41
1
10
37.2044952575227
20
1.21008058287111
30
0
41
1
10
37.1911787420644
20
1.21276041283127
30
0
41
1
10
37.1820739436292
20
1.21457610508466
30
0
41
1
10
37.1774373698632
20
1.21550073742318
30
0
0
SPLINE
5
142
100
AcDbEntity
8
1
62
256
6
ByLayer
370
18
48
1
60
0
100
AcDbSpline
70
4
71
3
72
24
73
20
40
0
40
0
40
0
40
0
40
0.250000000000016
40
0.250000000000016
40
0.312500000000007
40
0.312500000000007
40
0.374999999999999
40
0.374999999999999
40
0.500000000000036
40
0.500000000000036
40
0.562500000000052
40
0.562500000000052
40
0.625000000000069
40
0.625000000000069
40
0.750000000000046
40
0.750000000000046
40
0.875000000000023
40
0.875000000000023
40
1
40
1
40
1
40
1
41
1
10
37.4264427866836
20
2.05072350935447
30
0
41
1
10
37.4111944944585
20
2.05034754053278
30
0
41
1
10
37.3908906107047
20
2.05363275595002
30
0
41
1
10
37.3590018327172
20
2.06267619592643
30
0
41
1
10
37.3522837762454
20
2.06473943572462
30
0
41
1
10
37.3384239433483
20
2.06929562662285
30
0
41
1
10
37.3312548529965
20
2.07179574218182
30
0
41
1
10
37.3090465827095
20
2.079948750921
30
0
41
1
10
37.293303091216
20
2.0862573069393
30
0
41
1
10
37.2683300512178
20
2.09698462642055
30
0
41
1
10
37.2597462394921
20
2.10078655182406
30
0
41
1
10
37.2422884071488
20
2.10873772763441
30
0
41
1
10
37.2334354310791
20
2.11287641165842
30
0
41
1
10
37.2065163435021
20
2.1257593890206
30
0
41
1
10
37.1880970804942
20
2.13496307225253
30
0
41
1
10
37.1503511054299
20
2.15450785199141
30
0
41
1
10
37.1309271391541
20
2.16490489966154
30
0
41
1
10
37.0919003591122
20
2.18637382822308
30
0
41
1
10
37.072244286903
20
2.19747481046022
30
0
41
1
10
37.0524476141209
20
2.2088956896574
30
0
0
SPLINE
5
143
100
AcDbEntity
8
1
62
256
6
ByLayer
370
13
48
1
60
0
100
AcDbSpline
70
4
71
3
72
9
73
5
40
0
40
0
40
0
40
0
40
0.640810925008097
40
1
40
1
40
1
40
1
41
1
10
37.4264427866837
20
2.05072350935441
30
0
41
1
10
37.0759618577891
20
2.26276740896594
30
0
41
1
10
36.5290284095336
20
2.58457695371112
30
0
41
1
10
35.982094961278
20
2.88976103485274
30
0
41
1
10
35.785642441917
20
2.99686280220146
30
0
0
SPLINE
5
144
100
AcDbEntity
8
1
62
256
6
ByLayer
370
18
48
1
60
0
100
AcDbSpline
70
4
71
3
72
12
73
8
40
0
40
0
40
0
40
0
40
0.500000000000002
40
0.500000000000002
40
0.750000000000001
40
0.750000000000001
40
1
40
1
40
1
40
1
41
1
10
37.1774491289753
20
1.21564804835015
30
0
41
1
10
37.1438620374796
20
1.38186188184503
30
0
41
1
10
37.1199166440695
20
1.54758239944076
30
0
41
1
10
37.0909422827004
20
1.79585914171173
30
0
41
1
10
37.0824314752267
20
1.87855919000302
30
0
41
1
10
37.0666783311966
20
2.04384176750142
30
0
41
1
10
37.0594399891455
20
2.12641620785152
30
0
41
1
10
37.0524476141202
20
2.20889568965782
30
0
0
SPLINE
5
145
100
AcDbEntity
8
1
62
256
6
ByLayer
370
18
48
1
60
0
100
AcDbSpline
70
4
71
3
72
38
73
34
40
0
40
0
40
0
40
0
40
0.0855541730061933
40
0.0855541730061933
40
0.128331259509289
40
0.128331259509289
40
0.171108346012384
40
0.171108346012384
40
0.256662519018574
40
0.256662519018574
40
0.342216692024764
40
0.342216692024764
40
0.427770865030955
40
0.427770865030955
40
0.513325038037145
40
0.513325038037145
40
0.598879211043336
40
0.598879211043336
40
0.641656297546432
40
0.641656297546432
40
0.663044840797982
40
0.663044840797982
40
0.684433384049532
40
0.684433384049532
40
0.769987557055729
40
0.769987557055729
40
0.855541730061925
40
0.855541730061925
40
0.941095903068122
40
0.941095903068122
40
0.98387298957122
40
0.98387298957122
40
1
40
1
40
1
40
1
41
1
10
37.0524476141197
20
2.20889568965762
30
0
41
1
10
36.7903219248361
20
2.37772812157542
30
0
41
1
10
36.5282879399996
20
2.54315559011709
30
0
41
1
10
36.1350306709811
20
2.78571366777001
30
0
41
1
10
36.0039040395149
20
2.86562485288431
30
0
41
1
10
35.7414391728428
20
3.02337827942068
30
0
41
1
10
35.6099837290303
20
3.10128657814297
30
0
41
1
10
35.2166986101362
20
3.33069204620171
30
0
41
1
10
34.9555330108182
20
3.47811986604381
30
0
41
1
10
34.4340549799131
20
3.76099433465859
30
0
41
1
10
34.1737960246847
20
3.89646858175132
30
0
41
1
10
33.6540165668524
20
4.15533945392147
30
0
41
1
10
33.3944747852645
20
4.27876487984133
30
0
41
1
10
32.8757916257356
20
4.51323422423718
30
0
41
1
10
32.6166691926269
20
4.62424066705123
30
0
41
1
10
32.0975816328118
20
4.8325057682074
30
0
41
1
10
31.8376055531195
20
4.92978907606982
30
0
41
1
10
31.4460442192252
20
5.06453129936719
30
0
41
1
10
31.3152525114708
20
5.10757288491649
30
0
41
1
10
31.1186102483831
20
5.16927063600352
30
0
41
1
10
31.052987049409
20
5.18936067054969
30
0
41
1
10
30.9215805508518
20
5.22858606387547
30
0
41
1
10
30.8558280196102
20
5.24771141966468
30
0
41
1
10
30.5276044977254
20
5.34068381223383
30
0
41
1
10
30.2660049305291
20
5.40683556319877
30
0
41
1
10
29.7443160371475
20
5.52272792901738
30
0
41
1
10
29.4842432409654
20
5.57245634724879
30
0
41
1
10
28.9649879602512
20
5.65514949593683
30
0
41
1
10
28.7058041003404
20
5.68811192408373
30
0
41
1
10
28.317153096365
20
5.72458257513392
30
0
41
1
10
28.1876158728294
20
5.73459415808077
30
0
41
1
10
28.0091558774798
20
5.74554986927043
30
0
41
1
10
27.9602882755711
20
5.74825481558926
30
0
41
1
10
27.9114105063698
20
5.75066306332425
30
0
0
SPLINE
5
146
100
AcDbEntity
8
1
62
256
6
ByLayer
370
13
48
1
60
0
100
AcDbSpline
70
4
71
3
72
19
73
15
40
0
40
0
40
0
40
0
40
0.0850731847418449
40
0.17656586626766
40
0.245185377412022
40
0.313804888556384
40
0.359551229319292
40
0.405297570082199
40
0.473917081226561
40
0.542536592370922
40
0.634029273896738
40
0.725521955422553
40
0.817014636948369
40
1
40
1
40
1
40
1
41
1
10
29.7609834240294
20
-5.15868368318681
30
0
41
1
10
29.2573222826863
20
-5.26189006670947
30
0
41
1
10
28.2119944746766
20
-5.41047444334666
30
0
41
1
10
26.7604166666667
20
-5.41560849104985
30
0
41
1
10
25.4062500000001
20
-5.24984815586106
30
0
41
1
10
24.3229166666668
20
-5.00508906502313
30
0
41
1
10
23.3750000000001
20
-4.71216932296011
30
0
41
1
10
22.4270833333334
20
-4.35983058313283
30
0
41
1
10
21.3437500000001
20
-3.87901381756811
30
0
41
1
10
19.9895833333334
20
-3.17218285074463
30
0
41
1
10
18.5000000000001
20
-2.28202383563695
30
0
41
1
10
16.8750000000001
20
-1.21356530343965
30
0
41
1
10
14.7083333333334
20
0.278877529254118
30
0
41
1
10
13.0833333333335
20
1.40890982908081
30
0
41
1
10
12.0000000000001
20
2.09772674689154
30
0
0
SPLINE
5
147
100
AcDbEntity
8
1
62
256
6
ByLayer
370
18
48
1
60
0
100
AcDbSpline
70
4
71
3
72
83
73
79
40
0
40
0
40
0
40
0
40
0.0060440472424903
40
0.0060440472424903
40
0.0160840063612546
40
0.0160840063612546
40
0.0361639245987819
40
0.0361639245987819
40
0.076323761073835
40
0.076323761073835
40
0.116483597548888
40
0.116483597548888
40
0.156643434023941
40
0.156643434023941
40
0.176723352261468
40
0.176723352261468
40
0.196803270498994
40
0.196803270498994
40
0.236963106974049
40
0.236963106974049
40
0.247003066092812
40
0.247003066092812
40
0.257043025211576
40
0.277122943449103
40
0.277122943449103
40
0.29720286168663
40
0.29720286168663
40
0.317282779924158
40
0.317282779924158
40
0.357442616399212
40
0.357442616399212
40
0.377522534636739
40
0.377522534636739
40
0.397602452874267
40
0.397602452874267
40
0.437762289349321
40
0.437762289349321
40
0.457842207586848
40
0.457842207586848
40
0.467882166705611
40
0.467882166705611
40
0.477922125824374
40
0.477922125824374
40
0.518081962299426
40
0.518081962299426
40
0.538161880536951
40
0.538161880536951
40
0.558241798774476
40
0.558241798774476
40
0.598401635249526
40
0.598401635249526
40
0.618481553487051
40
0.618481553487051
40
0.638561471724576
40
0.638561471724576
40
0.678721308199628
40
0.678721308199628
40
0.698801226437154
40
0.698801226437154
40
0.708841185555916
40
0.708841185555916
40
0.718881144674679
40
0.718881144674679
40
0.759040981149725
40
0.759040981149725
40
0.839360654099817
40
0.839360654099817
40
0.85944057233734
40
0.85944057233734
40
0.879520490574863
40
0.879520490574863
40
0.919680327049909
40
0.919680327049909
40
0.939760245287432
40
0.939760245287432
40
0.959840163524955
40
0.959840163524955
40
1
40
1
40
1
40
1
41
1
10
31.5038411371588
20
-4.86654515029605
30
0
41
1
10
31.4643560786622
20
-4.88218601474063
30
0
41
1
10
31.4248378180704
20
-4.89764524932505
30
0
41
1
10
31.3195822295723
20
-4.93829638158971
30
0
41
1
10
31.2537312614428
20
-4.96318551906739
30
0
41
1
10
31.0563158828015
20
-5.03616181521966
30
0
41
1
10
30.9249741018816
20
-5.08253242308302
30
0
41
1
10
30.5316287472548
20
-5.21489775438297
30
0
41
1
10
30.270295280475
20
-5.29418200923556
30
0
41
1
10
29.7488869064801
20
-5.4348098727678
30
0
41
1
10
29.4888311489258
20
-5.49614270434833
30
0
41
1
10
28.9691997911747
20
-5.60039293679378
30
0
41
1
10
28.7096206863274
20
-5.64330938755546
30
0
41
1
10
28.3199145305733
20
-5.69340396063214
30
0
41
1
10
28.1899520465985
20
-5.70772632843386
30
0
41
1
10
27.929731162404
20
-5.73179720484245
30
0
41
1
10
27.7994789556893
20
-5.74153060043508
30
0
41
1
10
27.4081594386769
20
-5.76359865915526
30
0
41
1
10
27.1465444605542
20
-5.76876025736618
30
0
41
1
10
26.8179899407244
20
-5.76262243053168
30
0
41
1
10
26.7521524408454
20
-5.76077663124093
30
0
41
1
10
26.6206838336694
20
-5.75590228537905
30
0
41
1
10
26.423694015125
20
-5.74681509357095
30
0
41
1
10
26.2272916640989
20
-5.73239703548632
30
0
41
1
10
25.9658579608323
20
-5.70839683732078
30
0
41
1
10
25.835360969712
20
-5.69400331391003
30
0
41
1
10
25.5747058108699
20
-5.66041784258744
30
0
41
1
10
25.444553753812
20
-5.64120114229195
30
0
41
1
10
25.0543149291411
20
-5.57680150003083
30
0
41
1
10
24.7944496559913
20
-5.5249595667371
30
0
41
1
10
24.4048052820608
20
-5.4334169372506
30
0
41
1
10
24.2749465289535
20
-5.40060509476004
30
0
41
1
10
24.0151843171423
20
-5.33034577982764
30
0
41
1
10
23.8852697263616
20
-5.2929365433379
30
0
41
1
10
23.4951398452362
20
-5.17435697968099
30
0
41
1
10
23.2345875984655
20
-5.08663144402112
30
0
41
1
10
22.8423306426669
20
-4.94175315976301
30
0
41
1
10
22.7113445626567
20
-4.8912194608248
30
0
41
1
10
22.5144036871948
20
-4.81219364679291
30
0
41
1
10
22.4486786988738
20
-4.78532237226409
30
0
41
1
10
22.3170568062638
20
-4.73055547344302
30
0
41
1
10
22.2511459162395
20
-4.70264789952341
30
0
41
1
10
21.9222291926967
20
-4.56094785398471
30
0
41
1
10
21.6603108727301
20
-4.44028446653994
30
0
41
1
10
21.268789216267
20
-4.24870451107293
30
0
41
1
10
21.1385107852667
20
-4.18306982077715
30
0
41
1
10
20.8782067978449
20
-4.04863051980638
30
0
41
1
10
20.7481848439585
20
-3.97981923292639
30
0
41
1
10
20.358409098696
20
-3.768579320714
30
0
41
1
10
20.0989371122704
20
-3.62135685303812
30
0
41
1
10
19.709550090262
20
-3.39161984401832
30
0
41
1
10
19.5797112336034
20
-3.31360679404745
30
0
41
1
10
19.3198137976188
20
-3.15491618743954
30
0
41
1
10
19.1897683334874
20
-3.07419300057583
30
0
41
1
10
18.7991975269499
20
-2.82795447874938
30
0
41
1
10
18.5382137789222
20
-2.65846065158408
30
0
41
1
10
18.1451465679998
20
-2.3968764421306
30
0
41
1
10
18.0138628246595
20
-2.30843879291564
30
0
41
1
10
17.8164424008643
20
-2.17407076557277
30
0
41
1
10
17.7505785262035
20
-2.12901447277517
30
0
41
1
10
17.6191060167787
20
-2.03864395680026
30
0
41
1
10
17.5534452152054
20
-1.99329398173785
30
0
41
1
10
17.2254887625883
20
-1.76575972137229
30
0
41
1
10
16.9642200466305
20
-1.58124680920116
30
0
41
1
10
16.1822990093933
20
-1.02217083219091
30
0
41
1
10
15.6634800852104
20
-0.642194521471282
30
0
41
1
10
15.0140011725944
20
-0.163630045507347
30
0
41
1
10
14.8840395401087
20
-0.0677679003467233
30
0
41
1
10
14.6239008672461
20
0.124154746128795
30
0
41
1
10
14.4937308710151
20
0.220228497428764
30
0
41
1
10
14.1027037686366
20
0.508483564414121
30
0
41
1
10
13.8413136859932
20
0.700667557589981
30
0
41
1
10
13.4474032216937
20
0.987918632105902
30
0
41
1
10
13.3156677759962
20
1.08359767146445
30
0
41
1
10
13.0525162685731
20
1.27371493180877
30
0
41
1
10
12.9210165096306
20
1.36821011520266
30
0
41
1
10
12.5265164938885
20
1.64974149654722
30
0
41
1
10
12.2634728730377
20
1.83481065623138
30
0
41
1
10
12.0000000000001
20
2.01668060487035
30
0
0
SPLINE
5
148
100
AcDbEntity
8
1
62
256
6
ByLayer
370
18
48
1
60
0
100
AcDbSpline
70
4
71
3
72
8
73
4
40
0
40
0
40
0
40
0
40
1
40
1
40
1
40
1
41
1
10
12.0000000000001
20
2.01668060487035
30
0
41
1
10
11.8165404156718
20
2.12578829687388
30
0
41
1
10
11.634225420242
20
2.23500461174012
30
0
41
1
10
11.4531747271296
20
2.34434091041618
30
0
0
SPLINE
5
149
100
AcDbEntity
8
1
62
256
6
ByLayer
370
18
48
1
60
0
100
AcDbSpline
70
4
71
3
72
46
73
42
40
0
40
0
40
0
40
0
40
0.0166259865853503
40
0.0391594163819394
40
0.0616928461785284
40
0.0842262759751174
40
0.106759705771707
40
0.129293135568295
40
0.151826565364885
40
0.174359995161474
40
0.196893424958063
40
0.219426854754652
40
0.241960284551241
40
0.26449371434783
40
0.287027144144419
40
0.309560573941008
40
0.332094003737597
40
0.354627433534186
40
0.377160863330775
40
0.399694293127364
40
0.422227722923953
40
0.467294582517131
40
0.48982801231372
40
0.512361442110309
40
0.557428301703487
40
0.579961731500076
40
0.602495161296665
40
0.647562020889843
40
0.670095450686433
40
0.692628880483022
40
0.7376957400762
40
0.760229169872789
40
0.782762599669378
40
0.827829459262556
40
0.850362889059145
40
0.872896318855734
40
0.895429748652323
40
0.917963178448912
40
0.940496608245501
40
0.96303003804209
40
1
40
1
40
1
40
1
41
1
10
11.9218403438661
20
1.03968382993858
30
0
41
1
10
12.0092769577018
20
0.974119515416334
30
0
41
1
10
12.2151654411656
20
0.81927495311777
30
0
41
1
10
12.5393381423785
20
0.574089424749104
30
0
41
1
10
12.8943194814565
20
0.304425158774592
30
0
41
1
10
13.2490799290101
20
0.0343113116620088
30
0
41
1
10
13.6036220183434
20
-0.235726356215565
30
0
41
1
10
13.9579335690529
20
-0.505115436858489
30
0
41
1
10
14.312020186175
20
-0.773272767988971
30
0
41
1
10
14.6658790496975
20
-1.03968229012722
30
0
41
1
10
15.0195297868484
20
-1.30378570850027
30
0
41
1
10
15.3729729334285
20
-1.56516636239888
30
0
41
1
10
15.7262345304722
20
-1.82308994025368
30
0
41
1
10
16.0793242050517
20
-2.07719404313039
30
0
41
1
10
16.4322711572645
20
-2.32700857069932
30
0
41
1
10
16.7850973790217
20
-2.57206081360445
30
0
41
1
10
17.1378335957019
20
-2.81167998705956
30
0
41
1
10
17.4905055934597
20
-3.04557067138671
30
0
41
1
10
17.843140623238
20
-3.27327511898773
30
0
41
1
10
18.1957608810499
20
-3.49439929654318
30
0
41
1
10
18.6659293044157
20
-3.77956101394659
30
0
41
1
10
19.1361821468107
20
-4.0498114411341
30
0
41
1
10
19.606587642045
20
-4.30331308170835
30
0
41
1
10
20.0771243311215
20
-4.54532051259557
30
0
41
1
10
20.5479060474309
20
-4.76905777579418
30
0
41
1
10
21.0189696969084
20
-4.97324603504819
30
0
41
1
10
21.4902383488735
20
-5.16410922753397
30
0
41
1
10
21.96184250981
20
-5.33404820217089
30
0
41
1
10
22.4338187171264
20
-5.48211446144245
30
0
41
1
10
22.9060636111222
20
-5.61541636618492
30
0
41
1
10
23.3787120033342
20
-5.72571098704873
30
0
41
1
10
23.8516459368078
20
-5.81245776758303
30
0
41
1
10
24.3247391095558
20
-5.88344742389793
30
0
41
1
10
24.7980233994593
20
-5.93008494416685
30
0
41
1
10
25.2713869985629
20
-5.95231509992703
30
0
41
1
10
25.6264286156485
20
-5.95681600040152
30
0
41
1
10
25.9814572219157
20
-5.94893430301838
30
0
41
1
10
26.3364380099912
20
-5.92874929812129
30
0
41
1
10
26.6913261835297
20
-5.89641104122225
30
0
41
1
10
27.1218513184226
20
-5.84256875213961
30
0
41
1
10
27.4339442464375
20
-5.78942227640448
30
0
41
1
10
27.627754279776
20
-5.7511342135324
30
0
0
SPLINE
5
14A
100
AcDbEntity
8
1
62
256
6
ByLayer
370
18
48
1
60
0
100
AcDbSpline
70
4
71
3
72
16
73
12
40
0
40
0
40
0
40
0
40
0.249999999999961
40
0.249999999999961
40
0.374999999999968
40
0.374999999999968
40
0.499999999999975
40
0.499999999999975
40
0.749999999999987
40
0.749999999999987
40
1
40
1
40
1
40
1
41
1
10
37.086885371645
20
-5.98147342068265
30
0
41
1
10
37.1289672791841
20
-5.98104803617937
30
0
41
1
10
37.1710354183808
20
-5.9779579783517
30
0
41
1
10
37.2342052699816
20
-5.96897306265436
30
0
41
1
10
37.2552732579018
20
-5.96525004818855
30
0
41
1
10
37.297448657513
20
-5.95624575972326
30
0
41
1
10
37.3186198489447
20
-5.95094532956665
30
0
41
1
10
37.381725102915
20
-5.93264720749582
30
0
41
1
10
37.4230933973248
20
-5.91733726539769
30
0
41
1
10
37.50437747027
20
-5.87979712209173
30
0
41
1
10
37.5442954569122
20
-5.85757833587391
30
0
41
1
10
37.5833931514497
20
-5.83122973526801
30
0
0
SPLINE
5
14B
100
AcDbEntity
8
1
62
256
6
ByLayer
370
18
48
1
60
0
100
AcDbSpline
70
4
71
3
72
15
73
11
40
0
40
0
40
0
40
0
40
0.0274377736398309
40
0.0969065040941286
40
0.201109599775575
40
0.305312695457022
40
0.444250156365618
40
0.583187617274213
40
0.722125078182809
40
1
40
1
40
1
40
1
41
1
10
23.6959097235055
20
1.04173596365408
30
0
41
1
10
23.5889398156703
20
1.11480673885998
30
0
41
1
10
23.2111365745018
20
1.37191353425916
30
0
41
0.999999999999999
10
22.4270833333333
20
1.89688401647547
30
0
41
1
10
21.3437500000001
20
2.59140708745565
30
0
41
1
10
19.9895833333333
20
3.39289391320315
30
0
41
1
10
18.5
20
4.16730225436419
30
0
41
1
10
16.875
20
4.84033738662188
30
0
41
1
10
14.7083333333333
20
5.47746560226466
30
0
41
1
10
13.0833333333333
20
5.62650293926475
30
0
41
1
10
12
20
5.57221713433589
30
0
0
SPLINE
5
14C
100
AcDbEntity
8
1
62
256
6
ByLayer
370
18
48
1
60
0
100
AcDbSpline
70
4
71
3
72
25
73
21
40
0
40
0
40
0
40
0
40
0.124999999999977
40
0.249999999999953
40
0.249999999999953
40
0.312499999999942
40
0.312499999999942
40
0.37499999999993
40
0.37499999999993
40
0.499999999999956
40
0.499999999999956
40
0.624999999999982
40
0.624999999999982
40
0.750000000000007
40
0.750000000000007
40
0.81249999999999
40
0.81249999999999
40
0.874999999999972
40
0.874999999999972
40
1
40
1
40
1
40
1
41
1
10
37.4240809686138
20
-5.06362203082529
30
0
41
1
10
37.416656151779
20
-5.08522791422166
30
0
41
1
10
37.399301532702
20
-5.12703303857489
30
0
41
1
10
37.3771014666291
20
-5.16611018959992
30
0
41
1
10
37.3585620524317
20
-5.19435256197974
30
0
41
1
10
37.3520367578791
20
-5.20362365734456
30
0
41
1
10
37.3385515521003
20
-5.22150150849046
30
0
41
1
10
37.3315778547029
20
-5.23013482927973
30
0
41
1
10
37.309974509765
20
-5.25513209234487
30
0
41
1
10
37.294659428108
20
-5.27058915962095
30
0
41
1
10
37.2623211612724
20
-5.29924098823739
30
0
41
1
10
37.2451674283394
20
-5.31250393684621
30
0
41
1
10
37.2101022228279
20
-5.33608907731613
30
0
41
1
10
37.1921260755594
20
-5.34649695708274
30
0
41
1
10
37.1645353478239
20
-5.36017967528571
30
0
41
1
10
37.1552331904993
20
-5.36441666339022
30
0
41
1
10
37.136420586323
20
-5.37225525867686
30
0
41
1
10
37.1268905641755
20
-5.37586246088952
30
0
41
1
10
37.0982431834083
20
-5.38566412641245
30
0
41
1
10
37.0790077168207
20
-5.39085513217
30
0
41
1
10
37.0596358896996
20
-5.39480319259351
30
0
0
SPLINE
5
14D
100
AcDbEntity
8
1
62
256
6
ByLayer
370
13
48
1
60
0
100
AcDbSpline
70
4
71
3
72
18
73
14
40
0
40
0
40
0
40
0
40
0.072447323934472
40
0.184666404173543
40
0.296885484412614
40
0.409104564651686
40
0.521323644890757
40
0.633542725129828
40
0.7457618053689
40
0.829926115548203
40
0.914090425727507
40
0.99825473590681
40
1
40
1
40
1
40
1
41
1
10
37.4240809686082
20
-5.06362203082395
30
0
41
1
10
37.0743873124055
20
-4.98163004246621
30
0
41
1
10
36.1830269895361
20
-4.73647317357668
30
0
41
1
10
34.7500000000001
20
-4.19647117115528
30
0
41
1
10
33.1250000000001
20
-3.42196763573176
30
0
41
1
10
31.5000000000001
20
-2.49395310602966
30
0
41
1
10
29.8750000000001
20
-1.47683305590857
30
0
41
1
10
28.2500000000001
20
-0.396083217274082
30
0
41
1
10
26.7604166666669
20
0.612512915127667
30
0
41
1
10
25.4062500000001
20
1.50760499134995
30
0
41
1
10
24.1875000000001
20
2.27613819864513
30
0
41
1
10
23.3665758409196
20
2.7602085003407
30
0
41
1
10
22.951901681839
20
2.99254576963566
30
0
41
1
10
22.9434775227584
20
2.99726068376435
30
0
0
SPLINE
5
14E
100
AcDbEntity
8
1
62
256
6
ByLayer
370
18
48
1
60
0
100
AcDbSpline
70
4
71
3
72
12
73
8
40
0
40
0
40
0
40
0
40
0.500000000000159
40
0.500000000000159
40
0.75000000000008
40
0.75000000000008
40
1
40
1
40
1
40
1
41
1
10
37.086341362975
20
-5.87343958935941
30
0
41
1
10
37.1041079604859
20
-5.86865591750185
30
0
41
1
10
37.120685252412
20
-5.86297027012392
30
0
41
1
10
37.1440478982107
20
-5.85334152311398
30
0
41
1
10
37.1515960753686
20
-5.84993723410798
30
0
41
1
10
37.1658160599499
20
-5.84301265960096
30
0
41
1
10
37.1725531196496
20
-5.83946721062713
30
0
41
1
10
37.1789826003377
20
-5.83585527670976
30
0
0
SPLINE
5
14F
100
AcDbEntity
8
1
62
256
6
ByLayer
370
18
48
1
60
0
100
AcDbSpline
70
4
71
3
72
12
73
8
40
0
40
0
40
0
40
0
40
0.5
40
0.5
40
0.75
40
0.75
40
1
40
1
40
1
40
1
41
1
10
37.1789971696256
20
-5.83578495366123
30
0
41
1
10
37.1469152951839
20
-5.76719826665058
30
0
41
1
10
37.1245125939126
20
-5.69483798783253
30
0
41
1
10
37.0970135878766
20
-5.58386474924367
30
0
41
1
10
37.0888776401766
20
-5.54644634290409
30
0
41
1
10
37.0736538644467
20
-5.47102815618646
30
0
41
1
10
37.0665708955793
20
-5.43302666485471
30
0
41
1
10
37.0596358896991
20
-5.39480319259363
30
0
0
SPLINE
5
150
100
AcDbEntity
8
1
62
256
6
ByLayer
370
18
48
1
60
0
100
AcDbSpline
70
4
71
3
72
89
73
85
40
0
40
0
40
0
40
0
40
0.035974458670642
40
0.035974458670642
40
0.0539616880059623
40
0.0539616880059623
40
0.0719489173412827
40
0.0719489173412827
40
0.107923376011923
40
0.107923376011923
40
0.143897834682564
40
0.143897834682564
40
0.179872293353205
40
0.179872293353205
40
0.215846752023845
40
0.215846752023845
40
0.251821210694486
40
0.251821210694486
40
0.269808440029806
40
0.269808440029806
40
0.278802054697466
40
0.278802054697466
40
0.287795669365127
40
0.323770128035769
40
0.323770128035769
40
0.359744586706411
40
0.359744586706411
40
0.431693504047694
40
0.431693504047694
40
0.467667962718336
40
0.467667962718336
40
0.485655192053656
40
0.485655192053656
40
0.494648806721317
40
0.494648806721317
40
0.503642421388977
40
0.503642421388977
40
0.521629650724297
40
0.521629650724297
40
0.539616880059618
40
0.539616880059618
40
0.575591338730261
40
0.575591338730261
40
0.593578568065582
40
0.593578568065582
40
0.611565797400903
40
0.611565797400903
40
0.647540256071544
40
0.647540256071544
40
0.665527485406865
40
0.665527485406865
40
0.683514714742186
40
0.683514714742186
40
0.701501944077506
40
0.701501944077506
40
0.710495558745166
40
0.710495558745166
40
0.719489173412827
40
0.719489173412827
40
0.737476402748149
40
0.737476402748149
40
0.755463632083471
40
0.755463632083471
40
0.791438090754114
40
0.791438090754114
40
0.809425320089436
40
0.809425320089436
40
0.827412549424758
40
0.827412549424758
40
0.863387008095402
40
0.863387008095402
40
0.881374237430724
40
0.881374237430724
40
0.899361466766047
40
0.899361466766047
40
0.917348696101369
40
0.917348696101369
40
0.92634231076903
40
0.92634231076903
40
0.935335925436691
40
0.935335925436691
40
0.971310384107335
40
0.971310384107335
40
1
40
1
40
1
40
1
41
1
10
37.0596358896991
20
-5.3948031925936
30
0
41
1
10
36.7968838438925
20
-5.32838743354736
30
0
41
1
10
36.534240476894
20
-5.25339647360599
30
0
41
1
10
36.140065777811
20
-5.12815947420074
30
0
41
1
10
36.0086313450051
20
-5.08428967142456
30
0
41
1
10
35.7455285244468
20
-4.99235448663978
30
0
41
1
10
35.6137404151086
20
-4.94423819102931
30
0
41
1
10
35.2195909346518
20
-4.7944018906187
30
0
41
1
10
34.9579671509379
20
-4.68701577200477
30
0
41
1
10
34.4355354825078
20
-4.45919148662307
30
0
41
1
10
34.1747802568948
20
-4.33869277863863
30
0
41
1
10
33.6540035170852
20
-4.08477591676481
30
0
41
1
10
33.3939818972789
20
-3.9513650653511
30
0
41
1
10
32.8744440591345
20
-3.67156805032741
30
0
41
1
10
32.6149536602385
20
-3.52507346021321
30
0
41
1
10
32.0950168142219
20
-3.22050628186904
30
0
41
1
10
31.8345384396735
20
-3.06255887672063
30
0
41
1
10
31.4419557417944
20
-2.81850061722855
30
0
41
1
10
31.3107789118312
20
-2.73596115582737
30
0
41
1
10
31.113495284482
20
-2.61040026592869
30
0
41
1
10
31.0476198648313
20
-2.5682358752897
30
0
41
1
10
30.915813463361
20
-2.4834037465065
30
0
41
1
10
30.586638767529
20
-2.27037679756884
30
0
41
1
10
30.2591000836027
20
-2.05272609076624
30
0
41
1
10
29.7366553666348
20
-1.69923200025525
30
0
41
1
10
29.4762632407777
20
-1.51982005715999
30
0
41
1
10
28.6960881042351
20
-0.975792790208601
30
0
41
1
10
28.1773032017961
20
-0.605413847524147
30
0
41
1
10
27.3962897896377
20
-0.0447960356885631
30
0
41
1
10
27.1354901837327
20
0.142946565929634
30
0
41
1
10
26.7428592414683
20
0.424836898892778
30
0
41
1
10
26.6117321561668
20
0.518819277344278
30
0
41
1
10
26.4145743332396
20
0.659688391019671
30
0
41
1
10
26.3487358278721
20
0.706658196459699
30
0
41
1
10
26.2170891681196
20
0.800406758731015
30
0
41
1
10
26.1513389587814
20
0.847144595828297
30
0
41
1
10
25.9542938504678
20
0.986924365138947
30
0
41
1
10
25.8232058761803
20
1.07953305382168
30
0
41
1
10
25.5614820854261
20
1.26345204702446
30
0
41
1
10
25.4308473398613
20
1.35476010348413
30
0
41
1
10
25.0393425470056
20
1.6265070481185
30
0
41
1
10
24.778904875716
20
1.80481433032293
30
0
41
1
10
24.3888379884527
20
2.06746292387183
30
0
41
1
10
24.2589159870383
20
2.15420633244275
30
0
41
1
10
23.9991777191842
20
2.32594704035682
30
0
41
1
10
23.8693441665102
20
2.4109430631728
30
0
41
1
10
23.4797070470055
20
2.66310350948692
30
0
41
1
10
23.2198243768365
20
2.82744698599066
30
0
41
1
10
22.8291671782762
20
3.06726876962088
30
0
41
1
10
22.6988121663508
20
3.14608583161441
30
0
41
1
10
22.4376836422358
20
3.30135788845433
30
0
41
1
10
22.3069013714429
20
3.37782299618252
30
0
41
1
10
22.0448230147451
20
3.52827585758811
30
0
41
1
10
21.9135301848644
20
3.60225975192304
30
0
41
1
10
21.7161484585484
20
3.71126081447076
30
0
41
1
10
21.6502282228392
20
3.74729366100308
30
0
41
1
10
21.5185176447798
20
3.81852628266967
30
0
41
1
10
21.4527446571582
20
3.85371740739748
30
0
41
1
10
21.2556598635045
20
3.95799727679562
30
0
41
1
10
21.1245797414124
20
4.02579277903766
30
0
41
1
10
20.8628306447051
20
4.15800814254794
30
0
41
1
10
20.7321714961923
20
4.22242035915906
30
0
41
1
10
20.3407818750502
20
4.41035026206461
30
0
41
1
10
20.0806392398452
20
4.52856475521475
30
0
41
1
10
19.6909642870378
20
4.69467030163898
30
0
41
1
10
19.5611397552734
20
4.74820661074259
30
0
41
1
10
19.3014904422176
20
4.85158181556852
30
0
41
1
10
19.1716798931048
20
4.90139322626391
30
0
41
1
10
18.7821491684879
20
5.04497498031131
30
0
41
1
10
18.5223128865662
20
5.13290074891256
30
0
41
1
10
18.1316164909614
20
5.25260406685641
30
0
41
1
10
18.0012293477799
20
5.29048605562934
30
0
41
1
10
17.7400411295642
20
5.36217977094512
30
0
41
1
10
17.6092389218312
20
5.3960001615512
30
0
41
1
10
17.3471492177521
20
5.45938398037117
30
0
41
1
10
17.2158616992117
20
5.48894198994171
30
0
41
1
10
17.0184774122616
20
5.53004858685324
30
0
41
1
10
16.9525537021575
20
5.54322207287029
30
0
41
1
10
16.8208897391734
20
5.56841959938527
30
0
41
1
10
16.7551375909565
20
5.580447415599
30
0
41
1
10
16.4267411675052
20
5.63775265116206
30
0
41
1
10
16.1651812665672
20
5.67456910084229
30
0
41
1
10
15.6965849696656
20
5.72416845009801
30
0
41
1
10
15.4892018378752
20
5.74037137559546
30
0
41
1
10
15.2820953658886
20
5.75088462803421
30
0
0
SPLINE
5
151
100
AcDbEntity
8
1
62
256
6
ByLayer
370
18
48
1
60
0
100
AcDbSpline
70
4
71
3
72
51
73
47
40
0
40
0
40
0
40
0
40
0.007723547114886
40
0.0230726908203838
40
0.0384218345258816
40
0.0537709782313794
40
0.0691201219368772
40
0.084469265642375
40
0.0998184093478728
40
0.115167553053371
40
0.130516696758868
40
0.145865840464366
40
0.161214984169864
40
0.176564127875362
40
0.207262415286357
40
0.237960702697353
40
0.253309846402851
40
0.268658990108349
40
0.299357277519344
40
0.314706421224842
40
0.33005556493034
40
0.360753852341335
40
0.376102996046833
40
0.391452139752331
40
0.422150427163327
40
0.437499570868824
40
0.452848714574322
40
0.483547001985318
40
0.498896145690816
40
0.514245289396313
40
0.529594433101811
40
0.544943576807309
40
0.560292720512807
40
0.575641864218304
40
0.6063401516293
40
0.667736726451291
40
0.698435013862287
40
0.729133301273283
40
0.790529876095274
40
0.821228163506269
40
0.851926450917265
40
0.913323025739256
40
0.928672169444754
40
0.944021313150252
40
0.974719600561247
40
1
40
1
40
1
40
1
41
1
10
13.7399782740807
20
5.93999974687793
30
0
41
1
10
13.7992593491266
20
5.9369117731419
30
0
41
1
10
13.976377239926
20
5.9262341283235
30
0
41
1
10
14.271470475932
20
5.90121694645086
30
0
41
1
10
14.6254169242377
20
5.85972496948426
30
0
41
1
10
14.9796503310652
20
5.80689066691974
30
0
41
1
10
15.3341431153699
20
5.74267154973543
30
0
41
1
10
15.6888987629821
20
5.66727796902469
30
0
41
1
10
16.0439033931824
20
5.58075488243313
30
0
41
1
10
16.3991458617538
20
5.48321685640607
30
0
41
1
10
16.7546117107929
20
5.37492878196522
30
0
41
1
10
17.1102963940263
20
5.25606995979496
30
0
41
1
10
17.4661895950852
20
5.12681867342445
30
0
41
1
10
17.9409612433772
20
4.94091130922712
30
0
41
1
10
18.5348409054308
20
4.6839996911157
30
0
41
1
10
19.1291730940497
20
4.39604130742254
30
0
41
1
10
19.6048168530266
20
4.14849585620729
30
0
41
1
10
20.080557192685
20
3.89010595493517
30
0
41
1
10
20.556415369468
20
3.61592653633971
30
0
41
1
10
21.0323026427849
20
3.32777165423886
30
0
41
1
10
21.508183327394
20
3.03094687377441
30
0
41
1
10
21.9840295571877
20
2.7217823316071
30
0
41
1
10
22.4597393689727
20
2.40232422366469
30
0
41
1
10
22.9353275980359
20
2.07668223332334
30
0
41
1
10
23.4107003454673
20
1.74260608863136
30
0
41
1
10
23.8857522357654
20
1.40227901266059
30
0
41
1
10
24.3605591927491
20
1.05847401660444
30
0
41
1
10
24.834962440747
20
0.710430000374373
30
0
41
1
10
25.3087738774438
20
0.360409006789325
30
0
41
1
10
25.6637945580352
20
0.097438559244523
30
0
41
1
10
26.0184501694409
20
-0.165469517916961
30
0
41
1
10
26.3727222818045
20
-0.427765329672781
30
0
41
1
10
26.7265852784403
20
-0.688930704492265
30
0
41
1
10
27.1978161147596
20
-1.0349610175937
30
0
41
1
10
28.0212188316887
20
-1.63312943752419
30
0
41
1
10
28.9610421704024
20
-2.29334928852108
30
0
41
1
10
29.9030859410738
20
-2.91732118692323
30
0
41
1
10
30.8476388216429
20
-3.51278594862851
30
0
41
1
10
31.7977975369189
20
-4.05915083319059
30
0
41
1
10
32.7573655713073
20
-4.54408074582372
30
0
41
1
10
33.723963538005
20
-4.98342688257216
30
0
41
1
10
34.5807560644757
20
-5.30253386888685
30
0
41
1
10
35.3255347124343
20
-5.52156647782689
30
0
41
1
10
35.8248346085754
20
-5.65249498528175
30
0
41
1
10
36.4100883951585
20
-5.77735546292317
30
0
41
1
10
36.8750722526142
20
-5.8476393602281
30
0
41
1
10
37.0863413629835
20
-5.8734395893604
30
0
0
SPLINE
5
152
100
AcDbEntity
8
1
62
256
6
ByLayer
370
18
48
1
60
0
100
AcDbSpline
70
4
71
3
72
8
73
4
40
0
40
0
40
0
40
0
40
1
40
1
40
1
40
1
41
1
10
12.0000000000001
20
0.472702162712551
30
0
41
1
10
11.999608925391
20
0.486021842910674
30
0
41
1
10
11.9992902412931
20
0.499343555946837
30
0
41
1
10
11.9990459412615
20
0.512666249519071
30
0
0
SPLINE
5
153
100
AcDbEntity
8
1
62
256
6
ByLayer
370
18
48
1
60
0
100
AcDbSpline
70
4
71
3
72
19
73
15
40
0
40
0
40
0
40
0
40
0.0112502780068971
40
0.110996600287967
40
0.210742922569037
40
0.310489244850108
40
0.410235567131178
40
0.509981889412248
40
0.609728211693318
40
0.684537953404121
40
0.759347695114923
40
0.834157436825726
40
0.908967178536528
40
1
40
1
40
1
40
1
41
1
10
36.5582819631153
20
1.04210422839407
30
0
41
1
10
36.4971879754102
20
1.08270983629887
30
0
41
1
10
35.8944273210384
20
1.48249020457862
30
0
41
1
10
34.75
20
2.22396464396087
30
0
41
1
10
33.125
20
3.19017928078108
30
0
41
1
10
31.5
20
4.03454587075993
30
0
41
1
10
29.8749999999999
20
4.72155628703251
30
0
41
1
10
28.25
20
5.2282515359872
30
0
41
1
10
26.7604166666667
20
5.505740875226
30
0
41
1
10
25.40625
20
5.60439097527797
30
0
41
1
10
24.1875
20
5.57001102302533
30
0
41
1
10
22.96875
20
5.41471975011834
30
0
41
1
10
21.6619014984037
20
5.12306096387377
30
0
41
1
10
20.7613029968076
20
4.82937802795598
30
0
41
1
10
20.2669544952114
20
4.6433885038152
30
0
0
SPLINE
5
154
100
AcDbEntity
8
1
62
256
6
ByLayer
370
18
48
1
60
0
100
AcDbSpline
70
4
71
3
72
8
73
4
40
0
40
0
40
0
40
0
40
1
40
1
40
1
40
1
41
1
10
37.5660494041821
20
0.334352807526358
30
0
41
1
10
37.5963739428769
20
0.323613908865809
30
0
41
1
10
37.628071971885
20
0.312801714890952
30
0
41
1
10
37.6613173895393
20
0.301906945818189
30
0
0
SPLINE
5
155
100
AcDbEntity
8
1
62
256
6
ByLayer
370
18
48
1
60
0
100
AcDbSpline
70
4
71
3
72
8
73
4
40
0
40
0
40
0
40
0
40
1
40
1
40
1
40
1
41
1
10
36.9731049986911
20
0.767881672426626
30
0
41
1
10
36.9611129228396
20
0.772642955291616
30
0
41
1
10
36.9490991818686
20
0.777350865988865
30
0
41
1
10
36.9370604434273
20
0.781994602618283
30
0
0
SPLINE
5
156
100
AcDbEntity
8
1
62
256
6
ByLayer
370
18
48
1
60
0
100
AcDbSpline
70
4
71
3
72
8
73
4
40
0
40
0
40
0
40
0
40
1
40
1
40
1
40
1
41
1
10
36.9257976998382
20
0.869839063127955
30
0
41
1
10
36.9396004746136
20
0.855379225612353
30
0
41
1
10
36.9529400843104
20
0.840523990234544
30
0
41
1
10
36.9657534997892
20
0.825220139724991
30
0
0
SPLINE
5
157
100
AcDbEntity
8
1
62
256
6
ByLayer
370
18
48
1
60
0
100
AcDbSpline
70
4
71
3
72
20
73
16
40
0
40
0
40
0
40
0
40
0.0312499999998823
40
0.0312499999998823
40
0.0624999999997645
40
0.0624999999997645
40
0.0937499999996468
40
0.0937499999996468
40
0.124999999999529
40
0.124999999999529
40
0.249999999999552
40
0.249999999999552
40
0.499999999999699
40
0.499999999999699
40
1
40
1
40
1
40
1
41
1
10
36.9257976998383
20
0.869839063127813
30
0
41
1
10
36.9254106616362
20
0.87024452576884
30
0
41
1
10
36.9249760237373
20
0.870623134979382
30
0
41
1
10
36.9238964257298
20
0.870980141115552
30
0
41
1
10
36.9232954132565
20
0.870817370568318
30
0
41
1
10
36.9224615531514
20
0.870100947667822
30
0
41
1
10
36.9221715875935
20
0.869630631460637
30
0
41
1
10
36.9216828576256
20
0.868676167488587
30
0
41
1
10
36.9214875193125
20
0.868178438050649
30
0
41
1
10
36.9206237938008
20
0.865642572266523
30
0
41
1
10
36.9202673101514
20
0.863522905144805
30
0
41
1
10
36.9193686117453
20
0.857191423480344
30
0
41
1
10
36.9190969747864
20
0.852915151820156
30
0
41
1
10
36.9185289277459
20
0.840094768934279
30
0
41
1
10
36.9185474121414
20
0.831532441924196
30
0
41
1
10
36.9186820001862
20
0.822965240500167
30
0
0
SPLINE
5
158
100
AcDbEntity
8
1
62
256
6
ByLayer
370
13
48
1
60
0
100
AcDbSpline
70
4
71
3
72
8
73
4
40
0
40
0
40
0
40
0
40
1
40
1
40
1
40
1
41
1
10
36.9731049986911
20
0.767881672426626
30
0
41
1
10
36.9706544990571
20
0.786994494859414
30
0
41
1
10
36.9682039994232
20
0.806107317292231
30
0
41
1
10
36.9657534997892
20
0.825220139725019
30
0
0
SPLINE
5
159
100
AcDbEntity
8
1
62
256
6
ByLayer
370
18
48
1
60
0
100
AcDbSpline
70
4
71
3
72
34
73
30
40
0
40
0
40
0
40
0
40
0.0312500000000088
40
0.0312500000000088
40
0.0625000000000176
40
0.0625000000000176
40
0.0937500000000265
40
0.0937500000000265
40
0.125000000000035
40
0.125000000000035
40
0.140624999999996
40
0.140624999999996
40
0.156249999999958
40
0.156249999999958
40
0.187499999999949
40
0.187499999999949
40
0.21874999999994
40
0.21874999999994
40
0.249999999999931
40
0.249999999999931
40
0.312499999999943
40
0.312499999999943
40
0.374999999999954
40
0.374999999999954
40
0.499999999999964
40
0.499999999999964
40
0.749999999999982
40
0.749999999999982
40
1
40
1
40
1
40
1
41
1
10
36.965753499788
20
0.825220139726156
30
0
41
1
10
36.9689139053265
20
0.821445472933164
30
0
41
1
10
36.9721791125686
20
0.817760575362314
30
0
41
1
10
36.9790330468472
20
0.810668598234741
30
0
41
1
10
36.9826244287771
20
0.807254580884432
30
0
41
1
10
36.9902448418492
20
0.801009204826016
30
0
41
1
10
36.9943052700646
20
0.798128879108475
30
0
41
1
10
37.00321220618
20
0.793632209372504
30
0
41
1
10
37.0080925108041
20
0.792055532151323
30
0
41
1
10
37.0154970489244
20
0.79205343144875
30
0
41
1
10
37.0179938325214
20
0.792465520243752
30
0
41
1
10
37.0226092853771
20
0.794053947758357
30
0
41
1
10
37.0248022318478
20
0.795246492453771
30
0
41
1
10
37.0306838865799
20
0.799496336686332
30
0
41
1
10
37.0338602272602
20
0.80325308507031
30
0
41
1
10
37.0392008844543
20
0.811179567983515
30
0
41
1
10
37.0414356521882
20
0.815467803014485
30
0
41
1
10
37.0453393421509
20
0.824164109925988
30
0
41
1
10
37.0470138535906
20
0.82859130786764
30
0
41
1
10
37.0515446359761
20
0.842013592235105
30
0
41
1
10
37.053917318056
20
0.851146757195011
30
0
41
1
10
37.0580384321119
20
0.869591767671039
30
0
41
1
10
37.0597695245233
20
0.878910910751642
30
0
41
1
10
37.0643614715741
20
0.907025935477719
30
0
41
1
10
37.066618907251
20
0.925862537060993
30
0
41
1
10
37.0722580011109
20
0.982503528928333
30
0
41
1
10
37.0745038336255
20
1.02045247515437
30
0
41
1
10
37.0778602395224
20
1.09640756297941
30
0
41
1
10
37.0789054443676
20
1.1344194146557
30
0
41
1
10
37.079618380497
20
1.17244728852464
30
0
0
SPLINE
5
15A
100
AcDbEntity
8
1
62
256
6
ByLayer
370
18
48
1
60
0
100
AcDbSpline
70
4
71
3
72
12
73
8
40
0
40
0
40
0
40
0
40
0.500000000000004
40
0.500000000000004
40
0.750000000000002
40
0.750000000000002
40
1
40
1
40
1
40
1
41
1
10
37.079618380497
20
1.17244728852467
30
0
41
1
10
37.0984502064937
20
1.17442601334156
30
0
41
1
10
37.1160451440261
20
1.17937887553427
30
0
41
1
10
37.1408497972935
20
1.19067970377785
30
0
41
1
10
37.1487370828374
20
1.19504587004383
30
0
41
1
10
37.1636399678511
20
1.20463613181519
30
0
41
1
10
37.1707004821535
20
1.20988125553688
30
0
41
1
10
37.1774372549517
20
1.2155007603032
30
0
0
SPLINE
5
15B
100
AcDbEntity
8
1
62
256
6
ByLayer
370
18
48
1
60
0
100
AcDbSpline
70
4
71
3
72
24
73
20
40
0
40
0
40
0
40
0
40
0.0166795793355014
40
0.0498887109774395
40
0.0830978426193781
40
0.149516105903255
40
0.182725237545193
40
0.215934369187132
40
0.282352632471009
40
0.415189159038762
40
0.481607422322639
40
0.548025685606516
40
0.614443948890392
40
0.680862212174269
40
0.747280475458146
40
0.813698738742023
40
0.8801170020259
40
0.946535265309776
40
1
40
1
40
1
40
1
41
1
10
26.1825343884657
20
5.94632577981673
30
0
41
1
10
26.2420092463112
20
5.94404162958742
30
0
41
1
10
26.4198987543925
20
5.93582625640087
30
0
41
1
10
26.7161957413193
20
5.91528757576148
30
0
41
1
10
27.18981245661
20
5.86795866704574
30
0
41
1
10
27.6633583287693
20
5.79875753437577
30
0
41
1
10
28.1367812792649
20
5.70832164949084
30
0
41
1
10
28.6100944756943
20
5.60392775067598
30
0
41
1
10
29.4383260664734
20
5.38449973073065
30
0
41
1
10
30.3862248503066
20
5.05278696977553
30
0
41
1
10
31.3385985804263
20
4.64579260157589
30
0
41
1
10
32.0557813846871
20
4.30410343077205
30
0
41
1
10
32.7766988380336
20
3.92800496922499
30
0
41
1
10
33.5021212158263
20
3.51938537704649
30
0
41
1
10
34.2330214743004
20
3.08033375534276
30
0
41
1
10
34.9700890301215
20
2.61305983392205
30
0
41
1
10
35.7142581335401
20
2.12018835803536
30
0
41
1
10
36.4173252943503
20
1.63810119498908
30
0
41
1
10
36.874614193265
20
1.31732971073964
30
0
41
1
10
37.0796183805007
20
1.17244728852202
30
0
0
SPLINE
5
15C
100
AcDbEntity
8
1
62
256
6
ByLayer
370
18
48
1
60
0
100
AcDbSpline
70
4
71
3
72
16
73
12
40
0
40
0
40
0
40
0
40
0.250000000000051
40
0.250000000000051
40
0.500000000000103
40
0.500000000000103
40
0.750000000000154
40
0.750000000000154
40
0.875000000000077
40
0.875000000000077
40
1
40
1
40
1
40
1
41
1
10
37.0868853716549
20
-5.98147342068151
30
0
41
1
10
37.0790071115439
20
-5.98054733435959
30
0
41
1
10
37.0709099792124
20
-5.97961857398087
30
0
41
1
10
37.0540849807605
20
-5.97777486916527
30
0
41
1
10
37.0453533717428
20
-5.97685839080913
30
0
41
1
10
37.0269318878467
20
-5.97508070443087
30
0
41
1
10
37.0173186476042
20
-5.97422357315912
30
0
41
1
10
37.0017960113019
20
-5.97306192655103
30
0
41
1
10
36.9964351124836
20
-5.97269583398767
30
0
41
1
10
36.985152016351
20
-5.9720351735406
30
0
41
1
10
36.9792428375754
20
-5.9717414359406
30
0
41
1
10
36.973058285552
20
-5.97151774274866
30
0
0
SPLINE
5
15D
100
AcDbEntity
8
1
62
256
6
ByLayer
370
18
48
1
60
0
100
AcDbSpline
70
4
71
3
72
43
73
39
40
0
40
0
40
0
40
0
40
0.0131836900119133
40
0.0384739244661598
40
0.0637641589204063
40
0.0890543933746529
40
0.114344627828899
40
0.139634862283146
40
0.164925096737392
40
0.190215331191639
40
0.215505565645885
40
0.240795800100132
40
0.266086034554379
40
0.291376269008625
40
0.316666503462872
40
0.341956737917118
40
0.367246972371365
40
0.392537206825611
40
0.417827441279858
40
0.443117675734104
40
0.468407910188351
40
0.518988379096844
40
0.54427861355109
40
0.569568848005337
40
0.62014931691383
40
0.645439551368077
40
0.670729785822323
40
0.721310254730816
40
0.746600489185063
40
0.771890723639309
40
0.822471192547802
40
0.847761427002049
40
0.873051661456295
40
0.923632130364788
40
0.948922364819035
40
0.974212599273281
40
0.999502833727528
40
1
40
1
40
1
40
1
41
1
10
11.9990459412615
20
0.5126662495191
30
0
41
1
10
12.0608122119889
20
0.465449204739343
30
0
41
1
10
12.2410324237877
20
0.327540501797245
30
0
41
1
10
12.5395648951402
20
0.0986074920811575
30
0
41
1
10
12.8945481122307
20
-0.17381885179617
30
0
41
1
10
13.2493085740051
20
-0.445709086777697
30
0
41
1
10
13.6038476473649
20
-0.716523096110592
30
0
41
1
10
13.9581600230615
20
-0.985701443585214
30
0
41
1
10
14.3122485919435
20
-1.25267342889799
30
0
41
1
10
14.666107651249
20
-1.51690629497657
30
0
41
1
10
15.0197553314481
20
-1.77787125200487
30
0
41
1
10
15.3732000302439
20
-2.03510890806643
30
0
41
1
10
15.7264625235523
20
-2.28798512508038
30
0
41
1
10
16.0795516763924
20
-2.53608020278855
30
0
41
1
10
16.4324971541502
20
-2.77893937929593
30
0
41
1
10
16.7853242043652
20
-3.01609647804318
30
0
41
1
10
17.1380615181074
20
-3.24697058166768
30
0
41
1
10
17.4907330667344
20
-3.47121415082819
30
0
41
1
10
17.8433668844145
20
-3.68840274407333
30
0
41
1
10
18.1959872807337
20
-3.89813415475837
30
0
41
1
10
18.6661592857529
20
-4.16707952106648
30
0
41
1
10
19.1364087629226
20
-4.41946932100723
30
0
41
1
10
19.6068155107666
20
-4.6536801452518
30
0
41
1
10
20.077353508389
20
-4.87534432370398
30
0
41
1
10
20.5481328732683
20
-5.07743985027045
30
0
41
1
10
21.0191979456549
20
-5.25875786594563
30
0
41
1
10
21.4904662426237
20
-5.42585363229301
30
0
41
1
10
21.9620689756219
20
-5.57101087407631
30
0
41
1
10
22.4340477089307
20
-5.69333851707893
30
0
41
1
10
22.906292608305
20
-5.80018061516043
30
0
41
1
10
23.3789387967983
20
-5.88335461435364
30
0
41
1
10
23.851874945361
20
-5.94233714730498
30
0
41
1
10
24.3249675287633
20
-5.98504492566138
30
0
41
1
10
24.7982491718049
20
-6.00310510597515
30
0
41
1
10
25.2716154926588
20
-5.99645176786245
30
0
41
1
10
25.6266574283317
20
-5.97909181968919
30
0
41
1
10
25.8656687307227
20
-5.95909863986526
30
0
41
1
10
25.9863292590724
20
-5.94688076022635
30
0
41
1
10
25.9886555215962
20
-5.94664441721025
30
0
0
SPLINE
5
15E
100
AcDbEntity
8
1
62
256
6
ByLayer
370
18
48
1
60
0
100
AcDbSpline
70
4
71
3
72
45
73
41
40
0
40
0
40
0
40
0
40
0.122767175846557
40
0.122767175846557
40
0.138113072827377
40
0.138113072827377
40
0.153458969808196
40
0.184150763769836
40
0.184150763769836
40
0.245534351693114
40
0.245534351693114
40
0.306917939616393
40
0.306917939616393
40
0.368301527539671
40
0.368301527539671
40
0.42968511546295
40
0.42968511546295
40
0.460376909424588
40
0.460376909424588
40
0.475722806405409
40
0.491068703386229
40
0.491068703386229
40
0.552452291309513
40
0.552452291309513
40
0.613835879232796
40
0.613835879232796
40
0.67521946715608
40
0.67521946715608
40
0.736603055079363
40
0.736603055079363
40
0.797986643002647
40
0.797986643002647
40
0.813332539983468
40
0.813332539983468
40
0.828678436964289
40
0.859370230925933
40
0.859370230925933
40
0.982137406772506
40
0.982137406772506
40
1
40
1
40
1
40
1
41
1
10
12.0000000000001
20
0.472137666072229
30
0
41
1
10
12.5271233288381
20
0.0689050012010455
30
0
41
1
10
13.0520908423336
20
-0.335991241375098
30
0
41
1
10
13.6448104081527
20
-0.787426021126578
30
0
41
1
10
13.7107238979929
20
-0.83754852679877
30
0
41
1
10
13.8423257836491
20
-0.93743094655116
30
0
41
1
10
14.0394880646741
20
-1.08678486601735
30
0
41
1
10
14.2360030746481
20
-1.23464240652749
30
0
41
1
10
14.6283605581669
20
-1.52814970108716
30
0
41
1
10
14.8890400400552
20
-1.7208696811995
30
0
41
1
10
15.4095378092852
20
-2.0994070933744
30
0
41
1
10
15.66935042818
20
-2.28519087769129
30
0
41
1
10
16.1890506697005
20
-2.64869565902285
30
0
41
1
10
16.448933506931
20
-2.82643979734681
30
0
41
1
10
16.9697580539405
20
-3.17263797623053
30
0
41
1
10
17.2307107845949
20
-3.34105654665561
30
0
41
1
10
17.6236795470066
20
-3.58580608655805
30
0
41
1
10
17.7549260225246
20
-3.66607431130973
30
0
41
1
10
17.9522740002642
20
-3.78438517746605
30
0
41
1
10
18.0841131054513
20
-3.86262745958865
30
0
41
1
10
18.2156223706841
20
-3.93902084731832
30
0
41
1
10
18.5440210346216
20
-4.1276678625469
30
0
41
1
10
18.8055421273545
20
-4.27116304394335
30
0
41
1
10
19.3271673909811
20
-4.54280687330387
30
0
41
1
10
19.5872732253468
20
-4.67092502891094
30
0
41
1
10
20.1070607684237
20
-4.91108440623418
30
0
41
1
10
20.366744502017
20
-5.02310967386734
30
0
41
1
10
20.8866619418556
20
-5.23037637766541
30
0
41
1
10
21.1468950882129
20
-5.32561960979993
30
0
41
1
10
21.6688628946361
20
-5.49849559103492
30
0
41
1
10
21.9305900224153
20
-5.5761382148909
30
0
41
1
10
22.2592788112585
20
-5.66165877087937
30
0
41
1
10
22.3251163268015
20
-5.67819096818235
30
0
41
1
10
22.4568649632014
20
-5.71006094088818
30
0
41
1
10
22.6542314580262
20
-5.75598752763287
30
0
41
1
10
22.850903339881
20
-5.79628154373003
30
0
41
1
10
23.5052605442104
20
-5.91812708575233
30
0
41
1
10
24.0248929403369
20
-5.97583352423612
30
0
41
1
10
24.6201840418551
20
-5.99648365976461
30
0
41
1
10
24.6957958313449
20
-5.99826793867874
30
0
41
1
10
24.7714181705519
20
-5.99921152315778
30
0
0
SPLINE
5
15F
100
AcDbEntity
8
1
62
256
6
ByLayer
370
18
48
1
60
0
100
AcDbSpline
70
4
71
3
72
16
73
12
40
0
40
0
40
0
40
0
40
0.249999999999948
40
0.249999999999948
40
0.499999999999895
40
0.499999999999895
40
0.749999999999843
40
0.749999999999843
40
0.874999999999922
40
0.874999999999922
40
1
40
1
40
1
40
1
41
1
10
37.0890607163005
20
0.660447033660176
30
0
41
1
10
37.0810320838879
20
0.671063774881532
30
0
41
1
10
37.0727779057898
20
0.68148997477229
30
0
41
1
10
37.0556215778806
20
0.701797563998156
30
0
41
1
10
37.0467152896892
20
0.711693652913397
30
0
41
1
10
37.0279230818596
20
0.730589156580891
30
0
41
1
10
37.0181177737483
20
0.739535143446119
30
0
41
1
10
37.0023020310508
20
0.751600349941242
30
0
41
1
10
36.9968425984498
20
0.755392942340649
30
0
41
1
10
36.98536580094
20
0.762297329993032
30
0
41
1
10
36.9793677379486
20
0.76539514106031
30
0
41
1
10
36.9731049987047
20
0.767881672453058
30
0
0
SPLINE
5
160
100
AcDbEntity
8
1
62
256
6
ByLayer
370
18
48
1
60
0
100
AcDbSpline
70
4
71
3
72
16
73
12
40
0
40
0
40
0
40
0
40
0.50000000000001
40
0.50000000000001
40
0.750000000000015
40
0.750000000000015
40
0.875000000000014
40
0.875000000000014
40
0.937500000000007
40
0.937500000000007
40
1
40
1
40
1
40
1
41
1
10
36.9186820001875
20
0.822965240506562
30
0
41
1
10
36.9207835652219
20
0.815678676432128
30
0
41
1
10
36.9230273493017
20
0.808426987541338
30
0
41
1
10
36.9270134227584
20
0.797766562656335
30
0
41
1
10
36.9284399187775
20
0.794240958006327
30
0
41
1
10
36.930984829542
20
0.789145143016441
30
0
41
1
10
36.9319027146475
20
0.787469610602756
30
0
41
1
10
36.9335058597047
20
0.785133502924509
30
0
41
1
10
36.9340776873586
20
0.784382692318246
30
0
41
1
10
36.9353902637846
20
0.783006936466791
30
0
41
1
10
36.9361412244568
20
0.782349174630127
30
0
41
1
10
36.9370604427053
20
0.781994601716889
30
0
0
SPLINE
5
161
100
AcDbEntity
8
1
62
256
6
ByLayer
370
18
48
1
60
0
100
AcDbSpline
70
4
71
3
72
27
73
23
40
0
40
0
40
0
40
0
40
0.0101924052056371
40
0.0409437028261212
40
0.071695000446605
40
0.102446298067089
40
0.133197595687573
40
0.163948893308057
40
0.225451488549024
40
0.256202786169508
40
0.286954083789992
40
0.34845667903096
40
0.471461869512895
40
0.532964464753863
40
0.594467059994831
40
0.655969655235799
40
0.717472250476766
40
0.778974845717734
40
0.840477440958702
40
0.901980036199669
40
0.963482631440637
40
1
40
1
40
1
40
1
41
1
10
25.1777030396192
20
5.99904048004572
30
0
41
1
10
25.2169446632801
20
5.99871375524711
30
0
41
1
10
25.3745842021644
20
5.99658465541896
30
0
41
1
10
25.6506390258969
20
5.98710856176851
30
0
41
1
10
26.0058753911365
20
5.96383024535101
30
0
41
1
10
26.3611207465716
20
5.92951250979306
30
0
41
1
10
26.7163571680267
20
5.88425325904763
30
0
41
1
10
27.18997436461
20
5.80940694922262
30
0
41
1
10
27.663519160455
20
5.71299934329485
30
0
41
1
10
28.136942345746
20
5.59561436502881
30
0
41
1
10
28.6102517685106
20
5.46444751379431
30
0
41
1
10
29.4384809249905
20
5.19927075940032
30
0
41
1
10
30.3864218154997
20
4.817908405818
30
0
41
1
10
31.33874785078
20
4.36437887335475
30
0
41
1
10
32.055937693856
20
3.98990959591325
30
0
41
1
10
32.7768532772066
20
3.58323072192667
30
0
41
1
10
33.5023072544108
20
3.14650509074315
30
0
41
1
10
34.2331728743727
20
2.68197474436843
30
0
41
1
10
34.970261211169
20
2.19221328220371
30
0
41
1
10
35.7143842635085
20
1.68000187674178
30
0
41
1
10
36.3645832106149
20
1.22050203067093
30
0
41
1
10
36.7678774138281
20
0.931459706295726
30
0
41
1
10
36.9186820001991
20
0.822965240498263
30
0
0
SPLINE
5
162
100
AcDbEntity
8
1
62
256
6
ByLayer
370
18
48
1
60
0
100
AcDbSpline
70
4
71
3
72
14
73
10
40
0
40
0
40
0
40
0
40
0.25
40
0.25
40
0.5
40
0.5
40
0.75
40
0.75
40
1
40
1
40
1
40
1
41
1
10
37.0890607162941
20
0.660447033656965
30
0
41
1
10
37.1294490026967
20
0.631464684933519
30
0
41
1
10
37.1698151075062
20
0.602660216144528
30
0
41
1
10
37.2506013705079
20
0.545580640725973
30
0
41
1
10
37.2910347633469
20
0.517294973130134
30
0
41
1
10
37.3720147223779
20
0.461521048175257
30
0
41
1
10
37.4118205658727
20
0.434544490688751
30
0
41
1
10
37.4900262341398
20
0.382728906125919
30
0
41
1
10
37.5284276258569
20
0.357887021171962
30
0
41
1
10
37.5660494041821
20
0.334352807526386
30
0
0
SPLINE
5
163
100
AcDbEntity
8
1
62
256
6
ByLayer
370
18
48
1
60
0
100
AcDbSpline
70
4
71
3
72
10
73
6
40
0
40
0
40
0
40
0
40
0.5
40
0.5
40
1
40
1
40
1
40
1
41
1
10
11.9216703242517
20
-5.94863980226367
30
0
41
1
10
11.9294099063471
20
-5.95717793544355
30
0
41
1
10
11.9400259209391
20
-5.96533365528558
30
0
41
1
10
11.9661023480692
20
-5.98046828541024
30
0
41
1
10
11.9815572392395
20
-5.98744379137207
30
0
41
1
10
11.9990474529243
20
-5.99367562635169
30
0
0
SPLINE
5
164
100
AcDbEntity
8
1
62
256
6
ByLayer
370
18
48
1
60
0
100
AcDbSpline
70
4
71
3
72
16
73
12
40
0
40
0
40
0
40
0
40
0.124999999999997
40
0.124999999999997
40
0.249999999999995
40
0.249999999999995
40
0.499999999999996
40
0.499999999999996
40
0.749999999999998
40
0.749999999999998
40
1
40
1
40
1
40
1
41
1
10
11.4480719117138
20
-5.53513024904274
30
0
41
1
10
11.4667052711093
20
-5.54996435779339
30
0
41
1
10
11.4841234470972
20
-5.56477336058492
30
0
41
1
10
11.5179218140426
20
-5.59413758044934
30
0
41
1
10
11.5342619482655
20
-5.60869894242001
30
0
41
1
10
11.5823252493655
20
-5.65192254834909
30
0
41
1
10
11.6131116022293
20
-5.68012115406529
30
0
41
1
10
11.6733524043296
20
-5.73515930820687
30
0
41
1
10
11.7027650187816
20
-5.76200485591912
30
0
41
1
10
11.7604391480738
20
-5.81436930026376
30
0
41
1
10
11.7886919544418
20
-5.83988932017147
30
0
41
1
10
11.8163586137539
20
-5.86478472757153
30
0
0
SPLINE
5
165
100
AcDbEntity
8
1
62
256
6
ByLayer
370
18
48
1
60
0
100
AcDbSpline
70
4
71
3
72
8
73
4
40
0
40
0
40
0
40
0
40
1
40
1
40
1
40
1
41
1
10
11.8163586137523
20
-5.86478472757261
30
0
41
1
10
11.8493201716357
20
-5.89444466601293
30
0
41
1
10
11.8845485735341
20
-5.92241562149914
30
0
41
1
10
11.9216703242517
20
-5.94863980226367
30
0
0
SPLINE
5
166
100
AcDbEntity
8
1
62
256
6
ByLayer
370
18
48
1
60
0
100
AcDbSpline
70
4
71
3
72
10
73
6
40
0
40
0
40
0
40
0
40
0.5
40
0.5
40
1
40
1
40
1
40
1
41
1
10
11.4480719117219
20
-5.53513024904305
30
0
41
1
10
11.4266335707922
20
-5.52812170516907
30
0
41
1
10
11.4049032503608
20
-5.52176623429577
30
0
41
1
10
11.3610076626958
20
-5.51050423523787
30
0
41
1
10
11.3388152725351
20
-5.5055883938391
30
0
41
1
10
11.3163586137524
20
-5.50144522901715
30
0
0
SPLINE
5
167
100
AcDbEntity
8
1
62
256
6
ByLayer
370
18
48
1
60
0
100
AcDbSpline
70
4
71
3
72
19
73
15
40
0
40
0
40
0
40
0
40
0.249999999999998
40
0.249999999999998
40
0.499999999999996
40
0.499999999999996
40
0.531249999999996
40
0.531249999999996
40
0.562499999999996
40
0.562499999999996
40
0.624999999999997
40
0.749999999999998
40
0.749999999999998
40
1
40
1
40
1
40
1
41
1
10
9.07754931150893
20
4.85401341894081
30
0
41
1
10
8.90436962347624
20
4.97993091011733
30
0
41
1
10
8.74366114898177
20
5.09678560763592
30
0
41
1
10
8.44615800931786
20
5.30794203948091
30
0
41
1
10
8.30935022750504
20
5.40226596751242
30
0
41
1
10
8.16834857263112
20
5.49246386115351
30
0
41
1
10
8.15286120880216
20
5.50226360814403
30
0
41
1
10
8.12224408311533
20
5.52140510343969
30
0
41
1
10
8.10710115604226
20
5.53075483797639
30
0
41
1
10
8.06230330174742
20
5.55803736245997
30
0
41
1
10
7.97540266773436
20
5.60943377873883
30
0
41
1
10
7.89630005176218
20
5.65112946456773
30
0
41
1
10
7.74785825448339
20
5.72095181086434
30
0
41
1
10
7.66185766499564
20
5.74948195308494
30
0
41
1
10
7.58775471231243
20
5.75760831381965
30
0
0
SPLINE
5
168
100
AcDbEntity
8
1
62
256
6
ByLayer
370
18
48
1
60
0
100
AcDbSpline
70
4
71
3
72
14
73
10
40
0
40
0
40
0
40
0
40
0.471893788069734
40
0.471893788069734
40
0.707840682104605
40
0.707840682104605
40
0.943787576139476
40
0.943787576139476
40
1
40
1
40
1
40
1
41
1
10
7.58775471231243
20
5.75760831381965
30
0
41
1
10
7.58096906210861
20
5.7583524493686
30
0
41
1
10
7.57641185954881
20
5.7589306083066
30
0
41
1
10
7.5736484482938
20
5.7595333466771
30
0
41
1
10
7.57340941095813
20
5.75969013720885
30
0
41
1
10
7.57447623846644
20
5.75991222763153
30
0
41
1
10
7.5757760390548
20
5.75997542811947
30
0
41
1
10
7.57835110073336
20
5.75999853123207
30
0
41
1
10
7.57889067969413
20
5.76000045432875
30
0
41
1
10
7.57947480021446
20
5.75999990625996
30
0
0
SPLINE
5
169
100
AcDbEntity
8
1
62
256
6
ByLayer
370
18
48
1
60
0
100
AcDbSpline
70
4
71
3
72
10
73
6
40
0
40
0
40
0
40
0
40
0.474106307052949
40
0.474106307052949
40
1
40
1
40
1
40
1
41
1
10
7.60149908221817
20
5.75955934874492
30
0
41
1
10
7.60642520706767
20
5.75942332737046
30
0
41
1
10
7.61197687148919
20
5.75925942176102
30
0
41
1
10
7.6248523776554
20
5.75886894127137
30
0
41
1
10
7.6323212364866
20
5.75863698749595
30
0
41
1
10
7.64045637160086
20
5.75838507444948
30
0
0
SPLINE
5
16A
100
AcDbEntity
8
1
62
256
6
ByLayer
370
18
48
1
60
0
100
AcDbSpline
70
4
71
3
72
32
73
28
40
0
40
0
40
0
40
0
40
0.0327919634135851
40
0.0327919634135851
40
0.107192581612546
40
0.107192581612546
40
0.181593199811508
40
0.181593199811508
40
0.218793508910988
40
0.218793508910988
40
0.255993818010469
40
0.255993818010469
40
0.330394436209424
40
0.330394436209424
40
0.40479505440838
40
0.40479505440838
40
0.553596290806285
40
0.553596290806285
40
0.627996909005237
40
0.627996909005237
40
0.70239752720419
40
0.70239752720419
40
0.776798145403142
40
0.776798145403142
40
0.851198763602095
40
0.851198763602095
40
1
40
1
40
1
40
1
41
1
10
7.85923734787849
20
-5.75999714611095
30
0
41
1
10
7.89445903732579
20
-5.75998145285047
30
0
41
1
10
7.92996178069924
20
-5.75990186460649
30
0
41
1
10
8.04682990364032
20
-5.7594992640629
30
0
41
1
10
8.12922145518633
20
-5.75900019850226
30
0
41
1
10
8.29606370791632
20
-5.75786941874941
30
0
41
1
10
8.38051837981456
20
-5.75723509505499
30
0
41
1
10
8.50852702371458
20
-5.75631497529483
30
0
41
1
10
8.55141881138749
20
-5.75601275166764
30
0
41
1
10
8.63762057128031
20
-5.7554324595128
30
0
41
1
10
8.68094921082505
20
-5.75515429341243
30
0
41
1
10
8.81101731564985
20
-5.75437623739808
30
0
41
1
10
8.89800609162111
20
-5.75393280852441
30
0
41
1
10
9.07247853512405
20
-5.75324830172124
30
0
41
1
10
9.16006298968011
20
-5.75300681036094
30
0
41
1
10
9.42246053624618
20
-5.75261114694044
30
0
41
1
10
9.59707446730334
20
-5.75279337890888
30
0
41
1
10
9.85858042247446
20
-5.75359343855303
30
0
41
1
10
9.94567944740231
20
-5.75394534151928
30
0
41
1
10
10.1197442807418
20
-5.75476830836649
30
0
41
1
10
10.2066619333448
20
-5.75523914748706
30
0
41
1
10
10.3797790842772
20
-5.75622867522804
30
0
41
1
10
10.466050742454
20
-5.75674766107122
30
0
41
1
10
10.6380417045577
20
-5.75775224888554
30
0
41
1
10
10.723807728073
20
-5.75823803564032
30
0
41
1
10
10.979825034925
20
-5.75950128963902
30
0
41
1
10
11.1488607936806
20
-5.76008997626028
30
0
41
1
10
11.3163586137526
20
-5.75998878276511
30
0
0
SPLINE
5
16B
100
AcDbEntity
8
1
62
256
6
ByLayer
370
18
48
1
60
0
100
AcDbSpline
70
4
71
3
72
11
73
7
40
0
40
0
40
0
40
0
40
0.250000000000022
40
0.250000000000022
40
0.500000000000043
40
1
40
1
40
1
40
1
41
1
10
11.6336309550987
20
0.583177852579297
30
0
41
1
10
11.6494842685427
20
0.578644458037786
30
0
41
1
10
11.6652779430288
20
0.574085468652896
30
0
41
1
10
11.6964811899587
20
0.564992220369987
30
0
41
1
10
11.742733812296
20
0.551383037769256
30
0
41
1
10
11.7873483104573
20
0.537864889879046
30
0
41
1
10
11.8163586137528
20
0.52889350902953
30
0
0
SPLINE
5
16C
100
AcDbEntity
8
1
62
256
6
ByLayer
370
18
48
1
60
0
100
AcDbSpline
70
4
71
3
72
10
73
6
40
0
40
0
40
0
40
0
40
0.5
40
0.5
40
1
40
1
40
1
40
1
41
1
10
11.3163586137526
20
0.655142529879413
30
0
41
1
10
11.371283980123
20
0.644888261113351
30
0
41
1
10
11.4252365706871
20
0.634129194625814
30
0
41
1
10
11.5310600589277
20
0.610521336101812
30
0
41
1
10
11.5829309177079
20
0.597675974601088
30
0
41
1
10
11.6336309550987
20
0.583177852579269
30
0
0
SPLINE
5
16D
100
AcDbEntity
8
1
62
256
6
ByLayer
370
18
48
1
60
0
100
AcDbSpline
70
4
71
3
72
8
73
4
40
0
40
0
40
0
40
0
40
1
40
1
40
1
40
1
41
1
10
11.8163586137524
20
0.528893509029558
30
0
41
1
10
11.8775183991864
20
0.509979962272979
30
0
41
1
10
11.9387331632804
20
0.491061580449923
30
0
41
1
10
12.0000000000001
20
0.472138619129936
30
0
0
SPLINE
5
16E
100
AcDbEntity
8
1
62
256
6
ByLayer
370
18
48
1
60
0
100
AcDbSpline
70
4
71
3
72
10
73
6
40
0
40
0
40
0
40
0
40
0.5
40
0.5
40
1
40
1
40
1
40
1
41
1
10
11.9218403438661
20
1.03968382993858
30
0
41
1
10
11.9295726143036
20
0.951442111185713
30
0
41
1
10
11.9401851740891
20
0.863413648314747
30
0
41
1
10
11.9662153150395
20
0.687706140268517
30
0
41
1
10
11.9816281204646
20
0.600074178776595
30
0
41
1
10
11.9990459412615
20
0.5126662495191
30
0
0
SPLINE
5
16F
100
AcDbEntity
8
1
62
256
6
ByLayer
370
18
48
1
60
0
100
AcDbSpline
70
4
71
3
72
16
73
12
40
0
40
0
40
0
40
0
40
0.125
40
0.125
40
0.249999999999999
40
0.249999999999999
40
0.5
40
0.5
40
0.75
40
0.75
40
1
40
1
40
1
40
1
41
1
10
11.4531747271171
20
2.34434091041263
30
0
41
1
10
11.4712495436136
20
2.30442821731813
30
0
41
1
10
11.4882801395607
20
2.26411681783662
30
0
41
1
10
11.5214063049445
20
2.18303014667543
30
0
41
1
10
11.5374707386308
20
2.1422459865951
30
0
41
1
10
11.5847884160876
20
2.01935351416049
30
0
41
1
10
11.6151854029551
20
1.93671069821116
30
0
41
1
10
11.6747215494411
20
1.7703183414948
30
0
41
1
10
11.7038245572646
20
1.68655830864239
30
0
41
1
10
11.7609310385435
20
1.51800492313896
30
0
41
1
10
11.7889267948987
20
1.43320927294229
30
0
41
1
10
11.8163586137529
20
1.34791034261588
30
0
0
SPLINE
5
170
100
AcDbEntity
8
1
62
256
6
ByLayer
370
18
48
1
60
0
100
AcDbSpline
70
4
71
3
72
8
73
4
40
0
40
0
40
0
40
0
40
1
40
1
40
1
40
1
41
1
10
11.8163586137524
20
1.34791034261579
30
0
41
1
10
11.8493925117575
20
1.24519181055902
30
0
41
1
10
11.8846799500708
20
1.14249901356101
30
0
41
1
10
11.9218403438661
20
1.03968382993858
30
0
0
SPLINE
5
171
100
AcDbEntity
8
1
62
256
6
ByLayer
370
18
48
1
60
0
100
AcDbSpline
70
4
71
3
72
55
73
51
40
0
40
0
40
0
40
0
40
0.006229451451967
40
0.0349464118869454
40
0.0493048921044346
40
0.0636633723219238
40
0.078021852539413
40
0.0923803327569022
40
0.106738812974391
40
0.121097293191881
40
0.13545577340937
40
0.149814253626859
40
0.164172733844348
40
0.178531214061837
40
0.192889694279327
40
0.207248174496816
40
0.221606654714305
40
0.235965134931794
40
0.264682095366772
40
0.293399055801751
40
0.30775753601924
40
0.322116016236729
40
0.350832976671707
40
0.365191456889197
40
0.379549937106686
40
0.408266897541664
40
0.422625377759153
40
0.436983857976643
40
0.465700818411621
40
0.48005929862911
40
0.494417778846599
40
0.523134739281578
40
0.537493219499067
40
0.551851699716556
40
0.566210179934045
40
0.580568660151535
40
0.594927140369024
40
0.609285620586513
40
0.638002581021491
40
0.695436501891448
40
0.724153462326426
40
0.752870422761405
40
0.810304343631362
40
0.83902130406634
40
0.867738264501318
40
0.925172185371275
40
0.939530665588764
40
0.953889145806254
40
0.982606106241232
40
1
40
1
40
1
40
1
41
1
10
11.9990480345661
20
5.98633411864614
30
0
41
1
10
12.0500945119762
20
5.98885310214749
30
0
41
1
10
12.3364533094564
20
6.0009522087318
30
0
41
1
10
12.7404577792593
20
6.00192472822442
30
0
41
1
10
13.2112523045308
20
5.97980970592806
30
0
41
1
10
13.5644913015371
20
5.95173741038508
30
0
41
1
10
13.9179179522893
20
5.91214486948823
30
0
41
1
10
14.271579325896
20
5.86103699258351
30
0
41
1
10
14.6255254241784
20
5.79848641080415
30
0
41
1
10
14.97975669746
20
5.72469381342691
30
0
41
1
10
15.3342528404557
20
5.63969291620336
30
0
41
1
10
15.6890085410786
20
5.54364627977193
30
0
41
1
10
16.0440108491708
20
5.4366918178784
30
0
41
1
10
16.3992524342676
20
5.31904507307348
30
0
41
1
10
16.7547204233251
20
5.19094731906139
30
0
41
1
10
17.1104055693329
20
5.05258562887633
30
0
41
1
10
17.4662969441947
20
4.9042234302232
30
0
41
1
10
17.9410693145559
20
4.6934737944469
30
0
41
1
10
18.534954534494
20
4.40657503172784
30
0
41
1
10
19.1292800516699
20
4.09048788698917
30
0
41
1
10
19.6049254275615
20
3.82168063903626
30
0
41
1
10
20.0806674680698
20
3.54278598966897
30
0
41
1
10
20.5565222833174
20
3.24953969756368
30
0
41
1
10
21.0324113970435
20
2.94377061997781
30
0
41
1
10
21.5082954126376
20
2.63026544086128
30
0
41
1
10
21.9841374774904
20
2.30607550153849
30
0
41
1
10
22.4598471533378
20
1.97322724894406
30
0
41
1
10
22.9354362911486
20
1.63527559039429
30
0
41
1
10
23.4108056266302
20
1.29068909212742
30
0
41
1
10
23.8858613921466
20
0.941614250357532
30
0
41
1
10
24.3606766586692
20
0.590248239943264
30
0
41
1
10
24.8350726238508
20
0.236530838222166
30
0
41
1
10
25.308880915494
20
-0.117325511684697
30
0
41
1
10
25.6638996436484
20
-0.382240775194788
30
0
41
1
10
26.0185521674609
20
-0.646145938116547
30
0
41
1
10
26.3728227751528
20
-0.908509603649946
30
0
41
1
10
26.7266913714562
20
-1.1688129784834
30
0
41
1
10
27.1979352039218
20
-1.51243241439468
30
0
41
1
10
28.0213327586367
20
-2.10315556354163
30
0
41
1
10
28.9611678535605
20
-2.74769364086435
30
0
41
1
10
29.9031782105982
20
-3.34889838637579
30
0
41
1
10
30.8477517904115
20
-3.91711057793944
30
0
41
1
10
31.7979875687311
20
-4.4297770313448
30
0
41
1
10
32.7574056103232
20
-4.87461208287041
30
0
41
1
10
33.7240592088903
20
-5.27018327279592
30
0
41
1
10
34.5809891523375
20
-5.54628629247179
30
0
41
1
10
35.3256229713199
20
-5.72533460085512
30
0
41
1
10
35.8248878331277
20
-5.82888451466394
30
0
41
1
10
36.355327793768
20
-5.91214947685503
30
0
41
1
10
36.7642120698808
20
-5.95336432818701
30
0
41
1
10
36.9191184123868
20
-5.96563634407084
30
0
0
SPLINE
5
172
100
AcDbEntity
8
1
62
256
6
ByLayer
370
18
48
1
60
0
100
AcDbSpline
70
4
71
3
72
69
73
65
40
0
40
0
40
0
40
0
40
0.0624999999999998
40
0.0624999999999998
40
0.0703124999999998
40
0.0703124999999998
40
0.0781249999999998
40
0.0937499999999999
40
0.0937499999999999
40
0.125
40
0.125
40
0.1875
40
0.1875
40
0.21875
40
0.21875
40
0.234375000000001
40
0.242187500000001
40
0.242187500000001
40
0.250000000000002
40
0.250000000000002
40
0.312500000000006
40
0.312500000000006
40
0.37500000000001
40
0.37500000000001
40
0.406250000000012
40
0.406250000000012
40
0.421875000000013
40
0.421875000000013
40
0.437500000000013
40
0.437500000000013
40
0.500000000000014
40
0.500000000000014
40
0.562500000000015
40
0.562500000000015
40
0.593750000000016
40
0.593750000000016
40
0.609375000000016
40
0.609375000000016
40
0.617187500000016
40
0.617187500000016
40
0.625000000000015
40
0.625000000000015
40
0.687500000000015
40
0.687500000000015
40
0.750000000000015
40
0.750000000000015
40
0.781250000000015
40
0.781250000000015
40
0.789062500000015
40
0.789062500000015
40
0.796875000000015
40
0.796875000000015
40
0.812500000000014
40
0.812500000000014
40
0.87500000000001
40
0.87500000000001
40
0.937500000000006
40
0.937500000000006
40
0.968750000000005
40
0.968750000000005
40
0.976562500000004
40
0.976562500000004
40
0.984375000000002
40
1
40
1
40
1
40
1
41
1
10
12.0000000000001
20
5.98945163747942
30
0
41
1
10
12.5272454824689
20
6.01280694918512
30
0
41
1
10
13.0525061430275
20
5.99738572756132
30
0
41
1
10
13.6453479331821
20
5.936854057689
30
0
41
1
10
13.7112786540491
20
5.9295221836052
30
0
41
1
10
13.8429408044334
20
5.91368572468394
30
0
41
1
10
14.0402014765598
20
5.88816639871845
30
0
41
1
10
14.2368330753064
20
5.85739573781501
30
0
41
1
10
14.6294333033266
20
5.78899989311594
30
0
41
1
10
14.8902856339944
20
5.73432775806191
30
0
41
1
10
15.6714749307223
20
5.54384071767925
30
0
41
1
10
16.1904033053497
20
5.3815426706102
30
0
41
1
10
16.9712942726862
20
5.08826945750982
30
0
41
1
10
17.2320168808593
20
4.98216622279773
30
0
41
1
10
17.6244143256551
20
4.81086946156998
30
0
41
1
10
17.8209411540251
20
4.72218510095544
30
0
41
1
10
18.0180881594076
20
4.62899717081837
30
0
41
1
10
18.1496716080163
20
4.56587567784555
30
0
41
1
10
18.2155909453727
20
4.53379126028813
30
0
41
1
10
18.8083948374656
20
4.24117031097356
30
0
41
1
10
19.330207230478
20
3.95452832475729
30
0
41
1
10
20.370902864773
20
3.33722112472825
30
0
41
1
10
20.8898179764576
20
3.00655634414281
30
0
41
1
10
21.6712526187442
20
2.48348374557355
30
0
41
1
10
21.9322320946815
20
2.30459349342226
30
0
41
1
10
22.3251125162072
20
2.03017603986629
30
0
41
1
10
22.4563084260468
20
1.93768948193991
30
0
41
1
10
22.719288589301
20
1.7508056593056
30
0
41
1
10
22.851239615032
20
1.65628645435751
30
0
41
1
10
23.5087044657126
20
1.18218196388338
30
0
41
1
10
24.0299632530155
20
0.796345593486137
30
0
41
1
10
25.0703169754572
20
0.021427555066964
30
0
41
1
10
25.5893462670495
20
-0.367742802491875
30
0
41
1
10
26.3712740544519
20
-0.947137593491448
30
0
41
1
10
26.632490452781
20
-1.13952903136766
30
0
41
1
10
27.0258969988459
20
-1.42602766555083
30
0
41
1
10
27.1572962865397
20
-1.52117897240339
30
0
41
1
10
27.3548794199671
20
-1.66326345708532
30
0
41
1
10
27.4208004362425
20
-1.71050269325661
30
0
41
1
10
27.5523861138859
20
-1.80444052767496
30
0
41
1
10
27.618103597877
20
-1.8511771746472
30
0
41
1
10
28.2089472731097
20
-2.26965306635933
30
0
41
1
10
28.7297638377945
20
-2.62639406087126
30
0
41
1
10
29.7696521755962
20
-3.30167424207428
30
0
41
1
10
30.2887650848795
20
-3.620127083011
30
0
41
1
10
31.0715020668746
20
-4.0629691765817
30
0
41
1
10
31.3330884017277
20
-4.20477743036412
30
0
41
1
10
31.6614559249971
20
-4.37408754749322
30
0
41
1
10
31.7271988390244
20
-4.40755165007869
30
0
41
1
10
31.8588384937859
20
-4.473664374046
30
0
41
1
10
31.9247817122887
20
-4.50633521195655
30
0
41
1
10
32.1222721341879
20
-4.60280698087155
30
0
41
1
10
32.2536159862351
20
-4.66513734095076
30
0
41
1
10
32.909054997675
20
-4.96675720457043
30
0
41
1
10
33.429342060611
20
-5.17596988957411
30
0
41
1
10
34.4690439337618
20
-5.52705129223753
30
0
41
1
10
34.9884135545964
20
-5.66887856014409
30
0
41
1
10
35.7718563623172
20
-5.82766225232714
30
0
41
1
10
36.0337408815561
20
-5.87160679553605
30
0
41
1
10
36.3626061008954
20
-5.91487778755646
30
0
41
1
10
36.4284841974231
20
-5.92295182351376
30
0
41
1
10
36.5602667243777
20
-5.93790499145987
30
0
41
1
10
36.757861816091
20
-5.95853078034213
30
0
41
1
10
36.9552868007051
20
-5.97374276241663
30
0
41
1
10
37.0868853716453
20
-5.9814734206839
30
0
0
SPLINE
5
173
100
AcDbEntity
8
1
62
256
6
ByLayer
370
18
48
1
60
0
100
AcDbSpline
70
4
71
3
72
52
73
48
40
0
40
0
40
0
40
0
40
0.0116357593916779
40
0.0116357593916779
40
0.0565614066920609
40
0.0565614066920609
40
0.0677928185171563
40
0.0677928185171563
40
0.0790242303422516
40
0.101487053992441
40
0.101487053992441
40
0.191338348593199
40
0.191338348593199
40
0.202569760418293
40
0.202569760418293
40
0.213801172243386
40
0.236263995893575
40
0.236263995893575
40
0.281189643193955
40
0.281189643193955
40
0.371040937794716
40
0.371040937794716
40
0.460892232395478
40
0.460892232395478
40
0.472123644220572
40
0.472123644220572
40
0.483355056045666
40
0.505817879695854
40
0.505817879695854
40
0.550743526996229
40
0.550743526996229
40
0.64059482159698
40
0.64059482159698
40
0.730446116197732
40
0.730446116197732
40
0.75290893984792
40
0.75290893984792
40
0.775371763498109
40
0.820297410798486
40
0.820297410798486
40
0.865223058098863
40
0.865223058098863
40
0.887685881749053
40
0.887685881749053
40
0.910148705399242
40
0.910148705399242
40
1
40
1
40
1
40
1
41
1
10
19.6606649985807
20
4.77681713913483
30
0
41
1
10
19.7284663838619
20
4.80663097805442
30
0
41
1
10
19.7962713639225
20
4.83596339337581
30
0
41
1
10
20.1259241771539
20
4.97617815476832
30
0
41
1
10
20.3879254575745
20
5.08026793090613
30
0
41
1
10
20.7161558318692
20
5.20083434767153
30
0
41
1
10
20.7818433659073
20
5.22447127681502
30
0
41
1
10
20.9131010523165
20
5.27070788384162
30
0
41
1
10
21.1098870947183
20
5.33853507779662
30
0
41
1
10
21.3064297151091
20
5.40175369222752
30
0
41
1
10
21.9612804241816
20
5.60211107459213
30
0
41
1
10
22.4841793290274
20
5.72933980629793
30
0
41
1
10
23.0750380953217
20
5.83322103643962
30
0
41
1
10
23.1407089233979
20
5.84421408175314
30
0
41
1
10
23.2718327552263
20
5.86505745571827
30
0
41
1
10
23.4683026217847
20
5.8946283350856
30
0
41
1
10
23.6641865013999
20
5.91913288926563
30
0
41
1
10
24.055331371782
20
5.96142003364804
30
0
41
1
10
24.3152656336119
20
5.98064345826504
30
0
41
1
10
25.0937801337961
20
6.0116475060295
30
0
41
1
10
25.611050075953
20
5.99681131551463
30
0
41
1
10
26.6482770442488
20
5.89651621886688
30
0
41
1
10
27.1682720461471
20
5.81112288860606
30
0
41
1
10
27.7585718952306
20
5.67515048465634
30
0
41
1
10
27.8242825997254
20
5.65947531416174
30
0
41
1
10
27.9555093782907
20
5.62710183509822
30
0
41
1
10
28.1521264091971
20
5.57699410628587
30
0
41
1
10
28.3481285835863
20
5.522292962367
30
0
41
1
10
28.7394647064138
20
5.40691123058045
30
0
41
1
10
28.9994665880592
20
5.32202135467449
30
0
41
1
10
29.7780409631763
20
5.04465745653189
30
0
41
1
10
30.2951891256103
20
4.82953159874205
30
0
41
1
10
31.3321032819048
20
4.34392931445373
30
0
41
1
10
31.8518249541943
20
4.07341034407222
30
0
41
1
10
32.5070177206241
20
3.70351843837361
30
0
41
1
10
32.6384576598053
20
3.62788034542058
30
0
41
1
10
32.9008605121603
20
3.47418564457749
30
0
41
1
10
33.2940791016975
20
3.23983690618846
30
0
41
1
10
33.6866233149153
20
2.99465686303617
30
0
41
1
10
34.2102439193527
20
2.65912569224949
30
0
41
1
10
34.4721687068872
20
2.48704900635065
30
0
41
1
10
34.8658172649606
20
2.22315840442093
30
0
41
1
10
34.9972443571889
20
2.1341717757297
30
0
41
1
10
35.2595609180394
20
1.95500374401038
30
0
41
1
10
35.3905428055491
20
1.86476176417068
30
0
41
1
10
36.0448313607694
20
1.41062393692513
30
0
41
1
10
36.5662792275687
20
1.03796030809227
30
0
41
1
10
37.0890607162943
20
0.660447033656965
30
0
0
SPLINE
5
174
100
AcDbEntity
8
1
62
256
6
ByLayer
370
18
48
1
60
0
100
AcDbSpline
70
4
71
2
72
6
73
3
40
0
40
0
40
0
40
1
40
1
40
1
41
1
10
37.8747343208776
20
-0.478732230388516
30
0
41
1
10
37.9145358518241
20
-0.162763323349964
30
0
41
1
10
37.9543269155012
20
0.153121487088924
30
0
0
SPLINE
5
175
100
AcDbEntity
8
1
62
256
6
ByLayer
370
18
48
1
60
0
100
AcDbSpline
70
4
71
2
72
6
73
3
40
0
40
0
40
0
40
1
40
1
40
1
41
1
10
37.9679991549452
20
0.261659716277535
30
0
41
1
10
37.9705866885276
20
0.282201064874414
30
0
41
1
10
37.9731741778436
20
0.302742057824759
30
0
0
SPLINE
5
176
100
AcDbEntity
8
1
62
256
6
ByLayer
370
18
48
1
60
0
100
AcDbSpline
70
4
71
3
72
18
73
14
40
0
40
0
40
0
40
0
40
0.163982583340291
40
0.29490151980711
40
0.393396146338264
40
0.475542602510051
40
0.548728034354288
40
0.629571126524793
40
0.731499376055273
40
0.817018430203692
40
0.88001422648296
40
0.943081710659656
40
1
40
1
40
1
40
1
41
1
10
15.038255756463
20
-5.26941478931093
30
0
41
1
10
15.2898448598931
20
-5.26142517380876
30
0
41
1
10
15.7403207660644
20
-5.23954295115328
30
0
41
1
10
16.3397551572444
20
-5.19166181235616
30
0
41
1
10
16.8070765977613
20
-5.1435573492561
30
0
41
1
10
17.1886217522967
20
-5.09725130059482
30
0
41
1
10
17.5495008040322
20
-5.04797156233303
30
0
41
1
10
17.9414333141037
20
-4.98842958801089
30
0
41
1
10
18.3489455684345
20
-4.91929809674337
30
0
41
1
10
18.7299229419167
20
-4.84792098660208
30
0
41
1
10
19.0520376697005
20
-4.78314368229002
30
0
41
1
10
19.3302463491572
20
-4.72404204081488
30
0
41
1
10
19.5125969548177
20
-4.68339076934853
30
0
41
1
10
19.5990893063385
20
-4.66368600119918
30
0
0
SPLINE
5
177
100
AcDbEntity
8
1
62
256
6
ByLayer
370
18
48
1
60
0
100
AcDbSpline
70
4
71
1
72
4
73
2
40
0
40
0
40
1
40
1
41
1
10
36.036942275798
20
3.63652171675415
30
0
41
1
10
35.8753423817613
20
3.70041319730973
30
0
0
SPLINE
5
178
100
AcDbEntity
8
1
62
256
6
ByLayer
370
18
48
1
60
0
100
AcDbSpline
70
4
71
3
72
9
73
5
40
0
40
0
40
0
40
0
40
0.520386767450468
40
1
40
1
40
1
40
1
41
1
10
33.0145432245428
20
4.63745321770691
30
0
41
1
10
32.8410073160931
20
4.67848271386947
30
0
41
1
10
32.510286399518
20
4.75344732028213
30
0
41
1
10
32.1834887365978
20
4.8212365772736
30
0
41
1
10
32.02858133896
20
4.85190917381783
30
0
0
SPLINE
5
179
100
AcDbEntity
8
1
62
256
6
ByLayer
370
18
48
1
60
0
100
AcDbSpline
70
4
71
3
72
13
73
9
40
0
40
0
40
0
40
0
40
0.2385055604302
40
0.403945305191892
40
0.526548760811784
40
0.646941912223638
40
0.797205277899168
40
1
40
1
40
1
40
1
41
1
10
25.9580902713857
20
2.71440059149575
30
0
41
1
10
25.8231676456737
20
2.75051943330675
30
0
41
1
10
25.5971852441011
20
2.81552450142976
30
0
41
1
10
25.3062362120499
20
2.90970438610796
30
0
41
1
10
25.0862897659584
20
2.98610902153976
30
0
41
1
10
24.8675806876953
20
3.06648551011816
30
0
41
1
10
24.6059544654908
20
3.16863097583854
30
0
41
1
10
24.4117281708819
20
3.25002808070863
30
0
41
1
10
24.3005283112422
20
3.2985070105531
30
0
0
SPLINE
5
17A
100
AcDbEntity
8
1
62
256
6
ByLayer
370
18
48
1
60
0
100
AcDbSpline
70
4
71
2
72
6
73
3
40
0
40
0
40
0
40
1
40
1
40
1
41
1
10
13.0939277684891
20
2.84608463824773
30
0
41
1
10
12.5546623069834
20
2.96958371382996
30
0
41
1
10
12
20
3.15940625359608
30
0
0
SPLINE
5
17B
100
AcDbEntity
8
1
62
256
6
ByLayer
370
18
48
1
60
0
100
AcDbSpline
70
4
71
3
72
14
73
10
40
0
40
0
40
0
40
0
40
0.12534838343504
40
0.304146286211863
40
0.501223992732414
40
0.668871703933282
40
0.816067429051784
40
0.969887373916228
40
1
40
1
40
1
40
1
41
1
10
22.1935743132447
20
4.09372289897442
30
0
41
1
10
22.0669141986467
20
4.13273941481839
30
0
41
1
10
21.7635626779564
20
4.22484898960644
30
0
41
1
10
21.2779142359757
20
4.36680129508844
30
0
41
1
10
20.7763320322933
20
4.50610862748829
30
0
41
1
10
20.2890329092555
20
4.62942665091168
30
0
41
1
10
19.8353247962951
20
4.73612235352056
30
0
41
1
10
19.5155175491354
20
4.80539331605848
30
0
41
1
10
19.3377635593095
20
4.84182719161578
30
0
41
1
10
19.3086611754788
20
4.84773644082782
30
0
0
SPLINE
5
17C
100
AcDbEntity
8
1
62
256
6
ByLayer
370
18
48
1
60
0
100
AcDbSpline
70
4
71
3
72
20
73
16
40
0
40
0
40
0
40
0
40
0.108198568919628
40
0.215493410406868
40
0.310425523003495
40
0.387792785998747
40
0.477233579745998
40
0.568675267181072
40
0.653829541961168
40
0.711921141792131
40
0.733896042733062
40
0.771398587987682
40
0.827775359955594
40
0.947751193032062
40
1
40
1
40
1
40
1
41
1
10
28.1190265664034
20
-5.26934567893522
30
0
41
1
10
28.2794204420868
20
-5.26324457532144
30
0
41
1
10
28.5916487688013
20
-5.2482230541722
30
0
41
1
10
29.0130011713518
20
-5.21884220506993
30
0
41
1
10
29.3880844654682
20
-5.18458200023542
30
0
41
1
10
29.753942355887
20
-5.14422738146629
30
0
41
1
10
30.11507559487
20
-5.09802069828879
30
0
41
1
10
30.4862284989302
20
-5.04346320364752
30
0
41
1
10
30.8138443006801
20
-4.98925032749932
30
0
41
1
10
31.0451340670572
20
-4.94751598360295
30
0
41
1
10
31.2108110128275
20
-4.91620057596413
30
0
41
1
10
31.3724217152333
20
-4.88465992181557
30
0
41
1
10
31.6703645914318
20
-4.82360759956336
30
0
41
1
10
31.9879975666547
20
-4.75267107177623
30
0
41
1
10
32.2272581938388
20
-4.69547550340647
30
0
41
1
10
32.2998353133766
20
-4.67777459646985
30
0
0
SPLINE
5
17D
100
AcDbEntity
8
1
62
256
6
ByLayer
370
18
48
1
60
0
100
AcDbSpline
70
4
71
2
72
6
73
3
40
0
40
0
40
0
40
1
40
1
40
1
41
1
10
37.9730438261959
20
0.222315348528696
30
0
41
1
10
37.9238187386434
20
0.606247514457039
30
0
41
1
10
37.8745411750467
20
0.990593245261152
30
0
0
SPLINE
5
17E
100
AcDbEntity
8
1
62
256
6
ByLayer
370
18
48
1
60
0
100
AcDbSpline
70
4
71
1
72
4
73
2
40
0
40
0
40
1
40
1
41
1
10
12.6177581976986
20
5.99910237704643
30
0
41
1
10
12.6177767609361
20
5.99910217731829
30
0
0
SPLINE
5
17F
100
AcDbEntity
8
1
62
256
6
ByLayer
370
18
48
1
60
0
100
AcDbSpline
70
4
71
2
72
6
73
3
40
0
40
0
40
0
40
1
40
1
40
1
41
1
10
25.0347911445909
20
-5.99909344612837
30
0
41
1
10
25.0347717797624
20
-5.999093458826
30
0
41
1
10
25.0347524149412
20
-5.99909337094778
30
0
0
SPLINE
5
180
100
AcDbEntity
8
1
62
256
6
ByLayer
370
18
48
1
60
0
100
AcDbSpline
70
4
71
2
72
6
73
3
40
0
40
0
40
0
40
1
40
1
40
1
41
1
10
25.1737408266101
20
5.99907277852984
30
0
41
1
10
25.1737545496829
20
5.99907276270685
30
0
41
1
10
25.1737682727621
20
5.99907267947646
30
0
0
LINE
5
79
100
AcDbEntity
8
80
62
256
6
ByLayer
370
18
48
1
60
0
100
AcDbLine
10
0
20
0
30
0
11
-5
21
0
31
0
39
0
210
0
220
0
230
1
0
LINE
5
7A
100
AcDbEntity
8
4
62
256
6
ByLayer
370
18
48
0.05
60
0
100
AcDbLine
10
0
20
0
30
0
11
38
21
0
31
0
39
0
210
0
220
0
230
1
0
LINE
5
7C
100
AcDbEntity
8
81
62
256
6
ByLayer
370
18
48
1
60
0
100
AcDbLine
10
38
20
0
30
0
11
43
21
0
31
0
39
0
210
0
220
0
230
1
0
LINE
5
7D
100
AcDbEntity
8
SK4
62
256
6
ByLayer
370
18
48
0.05
60
0
100
AcDbLine
10
-45
20
0
30
0
11
38
21
0
31
0
39
0
210
0
220
0
230
1
0
LINE
5
7F
100
AcDbEntity
8
1
62
256
6
ByLayer
370
18
48
1
60
0
100
AcDbLine
10
0
20
6
30
0
11
0
21
0
31
0
39
0
210
0
220
0
230
1
0
LINE
5
80
100
AcDbEntity
8
1
62
256
6
ByLayer
370
18
48
1
60
0
100
AcDbLine
10
0
20
0
30
0
11
0
21
-6
31
0
39
0
210
0
220
0
230
1
0
LINE
5
81
100
AcDbEntity
8
1
62
256
6
ByLayer
370
18
48
1
60
0
100
AcDbLine
10
37.874716
20
-0.476275
30
0
11
37.853924
21
-0.485031
31
0
39
0
210
0
220
0
230
1
0
LINE
5
82
100
AcDbEntity
8
1
62
256
6
ByLayer
370
18
48
1
60
0
100
AcDbLine
10
37.963277
20
0.298486
30
0
11
37.972923
21
0.303349
31
0
39
0
210
0
220
0
230
1
0
LINE
5
83
100
AcDbEntity
8
1
62
256
6
ByLayer
370
18
48
1
60
0
100
AcDbLine
10
37.972923
20
0.303349
30
0
11
37.970262
21
0.304309
31
0
39
0
210
0
220
0
230
1
0
LINE
5
84
100
AcDbEntity
8
1
62
256
6
ByLayer
370
18
48
1
60
0
100
AcDbLine
10
37.847606
20
-0.246683
30
0
11
37.871653
21
-0.017345
31
0
39
0
210
0
220
0
230
1
0
LINE
5
85
100
AcDbEntity
8
1
62
256
6
ByLayer
370
18
48
1
60
0
100
AcDbLine
10
37.840177
20
-0.025129
30
0
11
37.840374
21
-0.017716
31
0
39
0
210
0
220
0
230
1
0
LINE
5
86
100
AcDbEntity
8
1
62
256
6
ByLayer
370
18
48
1
60
0
100
AcDbLine
10
37.867861
20
1.016352
30
0
11
37.972923
21
4.968861
31
0
39
0
210
0
220
0
230
1
0
LINE
5
87
100
AcDbEntity
8
1
62
256
6
ByLayer
370
18
48
1
60
0
100
AcDbLine
10
37.784596
20
-0.023117
30
0
11
37.840177
21
-0.025129
31
0
39
0
210
0
220
0
230
1
0
LINE
5
88
100
AcDbEntity
8
1
62
256
6
ByLayer
370
13
48
1
60
0
100
AcDbLine
10
36.926788
20
-5.955074
30
0
11
36.93574
21
-5.968196
31
0
39
0
210
0
220
0
230
1
0
LINE
5
89
100
AcDbEntity
8
1
62
256
6
ByLayer
370
18
48
1
60
0
100
AcDbLine
10
37.841536
20
-0.01778
30
0
11
37.972923
21
-4.973415
31
0
39
0
210
0
220
0
230
1
0
LINE
5
8A
100
AcDbEntity
8
1
62
256
6
ByLayer
370
18
48
1
60
0
100
AcDbLine
10
37.81389
20
-0.071684
30
0
11
37.828271
21
-0.024699
31
0
39
0
210
0
220
0
230
1
0
LINE
5
8B
100
AcDbEntity
8
1
62
256
6
ByLayer
370
18
48
1
60
0
100
AcDbLine
10
37.812153
20
-0.070371
30
0
11
37.81389
21
-0.071684
31
0
39
0
210
0
220
0
230
1
0
LINE
5
8C
100
AcDbEntity
8
1
62
256
6
ByLayer
370
18
48
1
60
0
100
AcDbLine
10
37.812259
20
-0.024117
30
0
11
37.812153
21
-0.070371
31
0
39
0
210
0
220
0
230
1
0
LINE
5
8D
100
AcDbEntity
8
1
62
256
6
ByLayer
370
18
48
1
60
0
100
AcDbLine
10
37.790901
20
-0.313028
30
0
11
37.784596
21
-0.023117
31
0
39
0
210
0
220
0
230
1
0
LINE
5
8E
100
AcDbEntity
8
1
62
256
6
ByLayer
370
13
48
1
60
0
100
AcDbLine
10
11.639946
20
5.791543
30
0
11
12
21
5.572217
31
0
39
0
210
0
220
0
230
1
0
LINE
5
8F
100
AcDbEntity
8
1
62
256
6
ByLayer
370
13
48
1
60
0
100
AcDbLine
10
37.526557
20
-0.021779
30
0
11
37.790901
21
-0.313028
31
0
39
0
210
0
220
0
230
1
0
LINE
5
90
100
AcDbEntity
8
1
62
256
6
ByLayer
370
13
48
1
60
0
100
AcDbLine
10
11.816359
20
-5.864785
30
0
11
11.816359
21
-5.893975
31
0
39
0
210
0
220
0
230
1
0
LINE
5
91
100
AcDbEntity
8
1
62
256
6
ByLayer
370
18
48
1
60
0
100
AcDbLine
10
37.874716
20
-4.829483
30
0
11
37.780472
21
-1.23666
31
0
39
0
210
0
220
0
230
1
0
LINE
5
92
100
AcDbEntity
8
1
62
256
6
ByLayer
370
18
48
1
60
0
100
AcDbLine
10
12
20
-5.208662
30
0
11
12
21
-5.615941
31
0
39
0
210
0
220
0
230
1
0
LINE
5
93
100
AcDbEntity
8
1
62
256
6
ByLayer
370
13
48
1
60
0
100
AcDbLine
10
8.428331
20
-4.517658
30
0
11
12
21
-5.208662
31
0
39
0
210
0
220
0
230
1
0
LINE
5
94
100
AcDbEntity
8
1
62
256
6
ByLayer
370
18
48
1
60
0
100
AcDbLine
10
12
20
-5.208662
30
0
11
12
21
-5.022191
31
0
39
0
210
0
220
0
230
1
0
LINE
5
95
100
AcDbEntity
8
1
62
256
6
ByLayer
370
18
48
1
60
0
100
AcDbLine
10
36.805367
20
-2.643368
30
0
11
37.765079
21
-1.260611
31
0
39
0
210
0
220
0
230
1
0
LINE
5
96
100
AcDbEntity
8
1
62
256
6
ByLayer
370
13
48
1
60
0
100
AcDbLine
10
37.765079
20
-1.260611
30
0
11
34.655925
21
-0.717505
31
0
39
0
210
0
220
0
230
1
0
LINE
5
97
100
AcDbEntity
8
1
62
256
6
ByLayer
370
13
48
1
60
0
100
AcDbLine
10
8.309088
20
-4.308117
30
0
11
12
21
-5.022191
31
0
39
0
210
0
220
0
230
1
0
LINE
5
98
100
AcDbEntity
8
1
62
256
6
ByLayer
370
18
48
1
60
0
100
AcDbLine
10
12
20
-5.022191
30
0
11
12
21
-4.129895
31
0
39
0
210
0
220
0
230
1
0
LINE
5
99
100
AcDbEntity
8
1
62
256
6
ByLayer
370
18
48
1
60
0
100
AcDbLine
10
9.077549
20
4.854013
30
0
11
12
21
3.073812
31
0
39
0
210
0
220
0
230
1
0
LINE
5
9A
100
AcDbEntity
8
1
62
256
6
ByLayer
370
13
48
1
60
0
100
AcDbLine
10
8.554557
20
4.34972
30
0
11
12
21
2.25094
31
0
39
0
210
0
220
0
230
1
0
LINE
5
9B
100
AcDbEntity
8
1
62
256
6
ByLayer
370
18
48
1
60
0
100
AcDbLine
10
12
20
3.073812
30
0
11
12
21
3.159406
31
0
39
0
210
0
220
0
230
1
0
LINE
5
9C
100
AcDbEntity
8
1
62
256
6
ByLayer
370
18
48
1
60
0
100
AcDbLine
10
12
20
2.25094
30
0
11
12
21
3.073812
31
0
39
0
210
0
220
0
230
1
0
LINE
5
9D
100
AcDbEntity
8
1
62
256
6
ByLayer
370
13
48
1
60
0
100
AcDbLine
10
8.664851
20
4.129322
30
0
11
12
21
2.097727
31
0
39
0
210
0
220
0
230
1
0
LINE
5
9E
100
AcDbEntity
8
1
62
256
6
ByLayer
370
18
48
1
60
0
100
AcDbLine
10
12
20
2.097727
30
0
11
12
21
2.25094
31
0
39
0
210
0
220
0
230
1
0
LINE
5
9F
100
AcDbEntity
8
1
62
256
6
ByLayer
370
18
48
1
60
0
100
AcDbLine
10
12
20
3.159411
30
0
11
12
21
5.572217
31
0
39
0
210
0
220
0
230
1
0
LINE
5
A0
100
AcDbEntity
8
1
62
256
6
ByLayer
370
13
48
1
60
0
100
AcDbLine
10
11.316359
20
-5.76
30
0
11
11.316359
21
-5.501445
31
0
39
0
210
0
220
0
230
1
0
LINE
5
A1
100
AcDbEntity
8
1
62
256
6
ByLayer
370
18
48
1
60
0
100
AcDbLine
10
8.797949
20
-3.5104
30
0
11
12
21
-4.129895
31
0
39
0
210
0
220
0
230
1
0
LINE
5
A2
100
AcDbEntity
8
1
62
256
6
ByLayer
370
18
48
1
60
0
100
AcDbLine
10
12
20
-4.129895
30
0
11
12
21
-1.522603
31
0
39
0
210
0
220
0
230
1
0
LINE
5
A3
100
AcDbEntity
8
1
62
256
6
ByLayer
370
13
48
1
60
0
100
AcDbLine
10
7.524866
20
-0.656807
30
0
11
12
21
-1.522603
31
0
39
0
210
0
220
0
230
1
0
LINE
5
A4
100
AcDbEntity
8
1
62
256
6
ByLayer
370
18
48
1
60
0
100
AcDbLine
10
12
20
-1.522603
30
0
11
12
21
-1.06326
31
0
39
0
210
0
220
0
230
1
0
LINE
5
A5
100
AcDbEntity
8
1
62
256
6
ByLayer
370
18
48
1
60
0
100
AcDbLine
10
37.905004
20
-0.016903
30
0
11
37.972923
21
0.217229
31
0
39
0
210
0
220
0
230
1
0
LINE
5
A6
100
AcDbEntity
8
1
62
256
6
ByLayer
370
13
48
1
60
0
100
AcDbLine
10
35.510611
20
0.290106
30
0
11
37.312293
21
-0.024611
31
0
39
0
210
0
220
0
230
1
0
LINE
5
A7
100
AcDbEntity
8
1
62
256
6
ByLayer
370
18
48
1
60
0
100
AcDbLine
10
37.905004
20
-0.016903
30
0
11
37.312293
21
-0.024611
31
0
39
0
210
0
220
0
230
1
0
LINE
5
A8
100
AcDbEntity
8
1
62
256
6
ByLayer
370
13
48
1
60
0
100
AcDbLine
10
7.596959
20
-0.211412
30
0
11
12
21
-1.06326
31
0
39
0
210
0
220
0
230
1
0
LINE
5
A9
100
AcDbEntity
8
1
62
256
6
ByLayer
370
18
48
1
60
0
100
AcDbLine
10
12
20
0.508705
30
0
11
12
21
-1.06326
31
0
39
0
210
0
220
0
230
1
0
LINE
5
AA
100
AcDbEntity
8
1
62
256
6
ByLayer
370
13
48
1
60
0
100
AcDbLine
10
11.316359
20
0.655143
30
0
11
11.316359
21
2.429514
31
0
39
0
210
0
220
0
230
1
0
LINE
5
AB
100
AcDbEntity
8
1
62
256
6
ByLayer
370
13
48
1
60
0
100
AcDbLine
10
11.816359
20
1.34791
30
0
11
11.816359
21
0.528894
31
0
39
0
210
0
220
0
230
1
0
LINE
5
AC
100
AcDbEntity
8
1
62
256
6
ByLayer
370
18
48
1
60
0
100
AcDbLine
10
12
20
2.097727
30
0
11
12
21
2.016681
31
0
39
0
210
0
220
0
230
1
0
LINE
5
AD
100
AcDbEntity
8
1
62
256
6
ByLayer
370
18
48
1
60
0
100
AcDbLine
10
36.919118
20
-5.965636
30
0
11
36.922911
21
-5.967085
31
0
39
0
210
0
220
0
230
1
0
LINE
5
AE
100
AcDbEntity
8
1
62
256
6
ByLayer
370
18
48
1
60
0
100
AcDbLine
10
12
20
5.989434
30
0
11
12
21
5.989452
31
0
39
0
210
0
220
0
230
1
0
LINE
5
AF
100
AcDbEntity
8
1
62
256
6
ByLayer
370
18
48
1
60
0
100
AcDbLine
10
12
20
5.989434
30
0
11
12
21
5.572217
31
0
39
0
210
0
220
0
230
1
0
LINE
5
B0
100
AcDbEntity
8
1
62
256
6
ByLayer
370
13
48
1
60
0
100
AcDbLine
10
36.925798
20
0.869839
30
0
11
36.93706
21
0.781995
31
0
39
0
210
0
220
0
230
1
0
LINE
5
B1
100
AcDbEntity
8
1
62
256
6
ByLayer
370
13
48
1
60
0
100
AcDbLine
10
1.997679
20
-5.76
30
0
11
1.997679
21
0
31
0
39
0
210
0
220
0
230
1
0
LINE
5
B2
100
AcDbEntity
8
1
62
256
6
ByLayer
370
13
48
1
60
0
100
AcDbLine
10
1.997679
20
0
30
0
11
1.997679
21
5.76
31
0
39
0
210
0
220
0
230
1
0
LINE
5
B3
100
AcDbEntity
8
1
62
256
6
ByLayer
370
13
48
1
60
0
100
AcDbLine
10
1.497679
20
5.893975
30
0
11
1.497679
21
0
31
0
39
0
210
0
220
0
230
1
0
LINE
5
B4
100
AcDbEntity
8
1
62
256
6
ByLayer
370
13
48
1
60
0
100
AcDbLine
10
1.497679
20
0
30
0
11
1.497679
21
-5.893975
31
0
39
0
210
0
220
0
230
1
0
LINE
5
B5
100
AcDbEntity
8
1
62
256
6
ByLayer
370
18
48
1
60
0
100
AcDbLine
10
1.314038
20
6
30
0
11
1.314038
21
0
31
0
39
0
210
0
220
0
230
1
0
LINE
5
B6
100
AcDbEntity
8
1
62
256
6
ByLayer
370
18
48
1
60
0
100
AcDbLine
10
1.314038
20
0
30
0
11
1.314038
21
-6
31
0
39
0
210
0
220
0
230
1
0
LINE
5
B7
100
AcDbEntity
8
1
62
256
6
ByLayer
370
18
48
1
60
0
100
AcDbLine
10
12
20
0.472139
30
0
11
12
21
0.472702
31
0
39
0
210
0
220
0
230
1
0
LINE
5
B8
100
AcDbEntity
8
SK1
62
256
6
ByLayer
370
18
48
1
60
0
100
AcDbLine
10
-45
20
-5.2
30
0
11
-45
21
5.2
31
0
39
0
210
0
220
0
230
1
0
LINE
5
BA
100
AcDbEntity
8
SK1
62
256
6
ByLayer
370
18
48
1
60
0
100
AcDbLine
10
0
20
6
30
0
11
0
21
0
31
0
39
0
210
0
220
0
230
1
0
LINE
5
BB
100
AcDbEntity
8
SK1
62
256
6
ByLayer
370
18
48
1
60
0
100
AcDbLine
10
0
20
0
30
0
11
0
21
-6
31
0
39
0
210
0
220
0
230
1
0
LINE
5
BC
100
AcDbEntity
8
SK1
62
256
6
ByLayer
370
18
48
1
60
0
100
AcDbLine
10
-44.2
20
6
30
0
11
-44.2
21
-6
31
0
39
0
210
0
220
0
230
1
0
LINE
5
BD
100
AcDbEntity
8
SK1
62
256
6
ByLayer
370
18
48
1
60
0
100
AcDbLine
10
-26.5
20
4.4
30
0
11
-28.1
21
6
31
0
39
0
210
0
220
0
230
1
0
LINE
5
BE
100
AcDbEntity
8
SK1
62
256
6
ByLayer
370
18
48
1
60
0
100
AcDbLine
10
-16.9
20
6
30
0
11
-18.5
21
4.4
31
0
39
0
210
0
220
0
230
1
0
LINE
5
BF
100
AcDbEntity
8
SK1
62
256
6
ByLayer
370
18
48
1
60
0
100
AcDbLine
10
-26.5
20
4.4
30
0
11
-18.5
21
4.4
31
0
39
0
210
0
220
0
230
1
0
LINE
5
C0
100
AcDbEntity
8
1
62
256
6
ByLayer
370
18
48
1
60
0
100
AcDbLine
10
1.314038
20
6
30
0
11
0
21
6
31
0
39
0
210
0
220
0
230
1
0
LINE
5
C1
100
AcDbEntity
8
1
62
256
6
ByLayer
370
18
48
1
60
0
100
AcDbLine
10
0
20
-6
30
0
11
1.314038
21
-6
31
0
39
0
210
0
220
0
230
1
0
LINE
5
C2
100
AcDbEntity
8
1
62
256
6
ByLayer
370
18
48
1
60
0
100
AcDbLine
10
12.006674
20
3.155341
30
0
11
8.094
21
5.538733
31
0
39
0
210
0
220
0
230
1
0
LINE
5
C3
100
AcDbEntity
8
1
62
256
6
ByLayer
370
18
48
1
60
0
100
AcDbLine
10
11.816359
20
-5.893975
30
0
11
11.953698
21
-5.973268
31
0
39
0
210
0
220
0
230
1
0
LINE
5
C4
100
AcDbEntity
8
1
62
256
6
ByLayer
370
18
48
1
60
0
100
AcDbLine
10
7.584873
20
5.76
30
0
11
1.997679
21
5.76
31
0
39
0
210
0
220
0
230
1
0
LINE
5
C5
100
AcDbEntity
8
1
62
256
6
ByLayer
370
18
48
1
60
0
100
AcDbLine
10
1.997679
20
-5.76
30
0
11
7.861818
21
-5.76
31
0
39
0
210
0
220
0
230
1
0
LINE
5
C6
100
AcDbEntity
8
1
62
256
6
ByLayer
370
18
48
1
60
0
100
AcDbLine
10
1.497679
20
5.893975
30
0
11
1.314038
21
6
31
0
39
0
210
0
220
0
230
1
0
LINE
5
C7
100
AcDbEntity
8
1
62
256
6
ByLayer
370
18
48
1
60
0
100
AcDbLine
10
1.314038
20
-6
30
0
11
1.497679
21
-5.893975
31
0
39
0
210
0
220
0
230
1
0
LINE
5
C8
100
AcDbEntity
8
SK1
62
256
6
ByLayer
370
18
48
1
60
0
100
AcDbLine
10
-45
20
-5.2
30
0
11
-44.2
21
-6
31
0
39
0
210
0
220
0
230
1
0
LINE
5
C9
100
AcDbEntity
8
SK1
62
256
6
ByLayer
370
18
48
1
60
0
100
AcDbLine
10
-44.2
20
6
30
0
11
-45
21
5.2
31
0
39
0
210
0
220
0
230
1
0
LINE
5
CA
100
AcDbEntity
8
SK1
62
256
6
ByLayer
370
18
48
1
60
0
100
AcDbLine
10
0
20
6
30
0
11
-16.9
21
6
31
0
39
0
210
0
220
0
230
1
0
LINE
5
CB
100
AcDbEntity
8
SK1
62
256
6
ByLayer
370
18
48
1
60
0
100
AcDbLine
10
-28.1
20
6
30
0
11
-44.2
21
6
31
0
39
0
210
0
220
0
230
1
0
LINE
5
CC
100
AcDbEntity
8
SK1
62
256
6
ByLayer
370
18
48
1
60
0
100
AcDbLine
10
-44.2
20
-6
30
0
11
0
21
-6
31
0
39
0
210
0
220
0
230
1
0
LINE
5
CD
100
AcDbEntity
8
SK2
62
256
6
ByLayer
370
18
48
1
60
0
100
AcDbLine
10
-52.45
20
6
30
0
11
-52.45
21
-24.056066
31
0
39
0
210
0
220
0
230
1
0
LINE
5
CF
100
AcDbEntity
8
SK2
62
256
6
ByLayer
370
18
48
1
60
0
100
AcDbLine
10
-45.7875
20
6
30
0
11
-54.45
21
6
31
0
39
0
210
0
220
0
230
1
0
LINE
5
D0
100
AcDbEntity
8
SK2
62
256
6
ByLayer
370
18
48
1
60
0
100
AcDbLine
10
-45.7875
20
-6
30
0
11
-54.45
21
-6
31
0
39
0
210
0
220
0
230
1
0
LINE
5
D1
100
AcDbEntity
8
1
62
256
6
ByLayer
370
18
48
1
60
1
100
AcDbLine
10
-52.45
20
6
30
0
11
-51.989216
21
2.500002
31
0
39
0
210
0
220
0
230
1
0
LINE
5
D2
100
AcDbEntity
8
1
62
256
6
ByLayer
370
18
48
1
60
1
100
AcDbLine
10
-51.989216
20
2.500002
30
0
11
-52.910784
21
2.499998
31
0
39
0
210
0
220
0
230
1
0
LINE
5
D3
100
AcDbEntity
8
1
62
256
6
ByLayer
370
18
48
1
60
1
100
AcDbLine
10
-52.910784
20
2.499998
30
0
11
-52.45
21
6
31
0
39
0
210
0
220
0
230
1
0
LINE
5
D4
100
AcDbEntity
8
1
62
256
6
ByLayer
370
18
48
1
60
1
100
AcDbLine
10
-52.45
20
-6
30
0
11
-52.910784
21
-2.500002
31
0
39
0
210
0
220
0
230
1
0
LINE
5
D5
100
AcDbEntity
8
1
62
256
6
ByLayer
370
18
48
1
60
1
100
AcDbLine
10
-52.910784
20
-2.500002
30
0
11
-51.989216
21
-2.499998
31
0
39
0
210
0
220
0
230
1
0
LINE
5
D6
100
AcDbEntity
8
1
62
256
6
ByLayer
370
18
48
1
60
1
100
AcDbLine
10
-51.989216
20
-2.499998
30
0
11
-52.45
21
-6
31
0
39
0
210
0
220
0
230
1
0
LINE
5
D7
100
AcDbEntity
8
SK2
62
256
6
ByLayer
370
13
48
1
60
0
100
AcDbLine
10
8.107019
20
-5.76
30
0
11
8.107019
21
33.590131
31
0
39
0
210
0
220
0
230
1
0
LINE
5
D8
100
AcDbEntity
8
SK2
62
256
6
ByLayer
370
13
48
1
60
0
100
AcDbLine
10
9.728859
20
5.76
30
0
11
6.107019
21
5.76
31
0
39
0
210
0
220
0
230
1
0
LINE
5
D9
100
AcDbEntity
8
SK2
62
256
6
ByLayer
370
13
48
1
60
0
100
AcDbLine
10
9.728859
20
-5.76
30
0
11
6.107019
21
-5.76
31
0
39
0
210
0
220
0
230
1
0
LINE
5
DA
100
AcDbEntity
8
1
62
256
6
ByLayer
370
18
48
1
60
1
100
AcDbLine
10
8.107019
20
5.76
30
0
11
8.567803
21
2.260002
31
0
39
0
210
0
220
0
230
1
0
LINE
5
DB
100
AcDbEntity
8
1
62
256
6
ByLayer
370
18
48
1
60
1
100
AcDbLine
10
8.567803
20
2.260002
30
0
11
7.646235
21
2.259998
31
0
39
0
210
0
220
0
230
1
0
LINE
5
DC
100
AcDbEntity
8
1
62
256
6
ByLayer
370
18
48
1
60
1
100
AcDbLine
10
7.646235
20
2.259998
30
0
11
8.107019
21
5.76
31
0
39
0
210
0
220
0
230
1
0
LINE
5
DD
100
AcDbEntity
8
1
62
256
6
ByLayer
370
18
48
1
60
1
100
AcDbLine
10
8.107019
20
-5.76
30
0
11
7.646235
21
-2.260002
31
0
39
0
210
0
220
0
230
1
0
LINE
5
DE
100
AcDbEntity
8
1
62
256
6
ByLayer
370
18
48
1
60
1
100
AcDbLine
10
7.646235
20
-2.260002
30
0
11
8.567803
21
-2.259998
31
0
39
0
210
0
220
0
230
1
0
LINE
5
DF
100
AcDbEntity
8
1
62
256
6
ByLayer
370
18
48
1
60
1
100
AcDbLine
10
8.567803
20
-2.259998
30
0
11
8.107019
21
-5.76
31
0
39
0
210
0
220
0
230
1
0
LINE
5
E0
100
AcDbEntity
8
2
62
256
6
ByLayer
370
18
48
1
60
0
100
AcDbLine
10
50
20
-6
30
0
11
50
21
24.056066
31
0
39
0
210
0
220
0
230
1
0
LINE
5
E2
100
AcDbEntity
8
2
62
256
6
ByLayer
370
18
48
1
60
0
100
AcDbLine
10
39.5875
20
6
30
0
11
52
21
6
31
0
39
0
210
0
220
0
230
1
0
LINE
5
E3
100
AcDbEntity
8
2
62
256
6
ByLayer
370
18
48
1
60
0
100
AcDbLine
10
39.5875
20
-6
30
0
11
52
21
-6
31
0
39
0
210
0
220
0
230
1
0
LINE
5
E4
100
AcDbEntity
8
1
62
256
6
ByLayer
370
18
48
1
60
1
100
AcDbLine
10
50
20
6
30
0
11
50.460784
21
2.500002
31
0
39
0
210
0
220
0
230
1
0
LINE
5
E5
100
AcDbEntity
8
1
62
256
6
ByLayer
370
18
48
1
60
1
100
AcDbLine
10
50.460784
20
2.500002
30
0
11
49.539216
21
2.499998
31
0
39
0
210
0
220
0
230
1
0
LINE
5
E6
100
AcDbEntity
8
1
62
256
6
ByLayer
370
18
48
1
60
1
100
AcDbLine
10
49.539216
20
2.499998
30
0
11
50
21
6
31
0
39
0
210
0
220
0
230
1
0
LINE
5
E7
100
AcDbEntity
8
1
62
256
6
ByLayer
370
18
48
1
60
1
100
AcDbLine
10
50
20
-6
30
0
11
49.539216
21
-2.500002
31
0
39
0
210
0
220
0
230
1
0
LINE
5
E8
100
AcDbEntity
8
1
62
256
6
ByLayer
370
18
48
1
60
1
100
AcDbLine
10
49.539216
20
-2.500002
30
0
11
50.460784
21
-2.499998
31
0
39
0
210
0
220
0
230
1
0
LINE
5
E9
100
AcDbEntity
8
1
62
256
6
ByLayer
370
18
48
1
60
1
100
AcDbLine
10
50.460784
20
-2.499998
30
0
11
50
21
-6
31
0
39
0
210
0
220
0
230
1
0
LINE
5
EA
100
AcDbEntity
8
SK2
62
256
6
ByLayer
370
18
48
1
60
0
100
AcDbLine
10
38
20
-53.101968
30
0
11
-45
21
-53.101968
31
0
39
0
210
0
220
0
230
1
0
LINE
5
EB
100
AcDbEntity
8
SK2
62
256
6
ByLayer
370
18
48
1
60
0
100
AcDbLine
10
-45
20
-6.7875
30
0
11
-45
21
-55.101968
31
0
39
0
210
0
220
0
230
1
0
LINE
5
EC
100
AcDbEntity
8
SK2
62
256
6
ByLayer
370
18
48
1
60
0
100
AcDbLine
10
38
20
-7.5875
30
0
11
38
21
-55.101968
31
0
39
0
210
0
220
0
230
1
0
LINE
5
ED
100
AcDbEntity
8
1
62
256
6
ByLayer
370
18
48
1
60
1
100
AcDbLine
10
-45
20
-53.101968
30
0
11
-41.500002
21
-52.641184
31
0
39
0
210
0
220
0
230
1
0
LINE
5
EE
100
AcDbEntity
8
1
62
256
6
ByLayer
370
18
48
1
60
1
100
AcDbLine
10
-41.500002
20
-52.641184
30
0
11
-41.499998
21
-53.562752
31
0
39
0
210
0
220
0
230
1
0
LINE
5
EF
100
AcDbEntity
8
1
62
256
6
ByLayer
370
18
48
1
60
1
100
AcDbLine
10
-41.499998
20
-53.562752
30
0
11
-45
21
-53.101968
31
0
39
0
210
0
220
0
230
1
0
LINE
5
F0
100
AcDbEntity
8
1
62
256
6
ByLayer
370
18
48
1
60
1
100
AcDbLine
10
38
20
-53.101968
30
0
11
34.500002
21
-53.562752
31
0
39
0
210
0
220
0
230
1
0
LINE
5
F1
100
AcDbEntity
8
1
62
256
6
ByLayer
370
18
48
1
60
1
100
AcDbLine
10
34.500002
20
-53.562752
30
0
11
34.499998
21
-52.641184
31
0
39
0
210
0
220
0
230
1
0
LINE
5
F2
100
AcDbEntity
8
1
62
256
6
ByLayer
370
18
48
1
60
1
100
AcDbLine
10
34.499998
20
-52.641184
30
0
11
38
21
-53.101968
31
0
39
0
210
0
220
0
230
1
0
LINE
5
185
100
AcDbEntity
8
1
62
256
6
ByLayer
370
18
48
1
60
1
100
AcDbLine
10
-52.45
20
6
30
0
11
-51.989216
21
2.500002
31
0
39
0
210
0
220
0
230
1
0
LINE
5
186
100
AcDbEntity
8
1
62
256
6
ByLayer
370
18
48
1
60
1
100
AcDbLine
10
-51.989216
20
2.500002
30
0
11
-52.910784
21
2.499998
31
0
39
0
210
0
220
0
230
1
0
LINE
5
187
100
AcDbEntity
8
1
62
256
6
ByLayer
370
18
48
1
60
1
100
AcDbLine
10
-52.910784
20
2.499998
30
0
11
-52.45
21
6
31
0
39
0
210
0
220
0
230
1
0
LINE
5
189
100
AcDbEntity
8
1
62
256
6
ByLayer
370
18
48
1
60
1
100
AcDbLine
10
-52.45
20
-6
30
0
11
-52.910784
21
-2.500002
31
0
39
0
210
0
220
0
230
1
0
LINE
5
18A
100
AcDbEntity
8
1
62
256
6
ByLayer
370
18
48
1
60
1
100
AcDbLine
10
-52.910784
20
-2.500002
30
0
11
-51.989216
21
-2.499998
31
0
39
0
210
0
220
0
230
1
0
LINE
5
18B
100
AcDbEntity
8
1
62
256
6
ByLayer
370
18
48
1
60
1
100
AcDbLine
10
-51.989216
20
-2.499998
30
0
11
-52.45
21
-6
31
0
39
0
210
0
220
0
230
1
0
LINE
5
18F
100
AcDbEntity
8
1
62
256
6
ByLayer
370
18
48
1
60
1
100
AcDbLine
10
8.107019
20
5.76
30
0
11
8.567803
21
2.260002
31
0
39
0
210
0
220
0
230
1
0
LINE
5
190
100
AcDbEntity
8
1
62
256
6
ByLayer
370
18
48
1
60
1
100
AcDbLine
10
8.567803
20
2.260002
30
0
11
7.646235
21
2.259998
31
0
39
0
210
0
220
0
230
1
0
LINE
5
191
100
AcDbEntity
8
1
62
256
6
ByLayer
370
18
48
1
60
1
100
AcDbLine
10
7.646235
20
2.259998
30
0
11
8.107019
21
5.76
31
0
39
0
210
0
220
0
230
1
0
LINE
5
193
100
AcDbEntity
8
1
62
256
6
ByLayer
370
18
48
1
60
1
100
AcDbLine
10
8.107019
20
-5.76
30
0
11
7.646235
21
-2.260002
31
0
39
0
210
0
220
0
230
1
0
LINE
5
194
100
AcDbEntity
8
1
62
256
6
ByLayer
370
18
48
1
60
1
100
AcDbLine
10
7.646235
20
-2.260002
30
0
11
8.567803
21
-2.259998
31
0
39
0
210
0
220
0
230
1
0
LINE
5
195
100
AcDbEntity
8
1
62
256
6
ByLayer
370
18
48
1
60
1
100
AcDbLine
10
8.567803
20
-2.259998
30
0
11
8.107019
21
-5.76
31
0
39
0
210
0
220
0
230
1
0
LINE
5
199
100
AcDbEntity
8
1
62
256
6
ByLayer
370
18
48
1
60
1
100
AcDbLine
10
50
20
6
30
0
11
50.460784
21
2.500002
31
0
39
0
210
0
220
0
230
1
0
LINE
5
19A
100
AcDbEntity
8
1
62
256
6
ByLayer
370
18
48
1
60
1
100
AcDbLine
10
50.460784
20
2.500002
30
0
11
49.539216
21
2.499998
31
0
39
0
210
0
220
0
230
1
0
LINE
5
19B
100
AcDbEntity
8
1
62
256
6
ByLayer
370
18
48
1
60
1
100
AcDbLine
10
49.539216
20
2.499998
30
0
11
50
21
6
31
0
39
0
210
0
220
0
230
1
0
LINE
5
19D
100
AcDbEntity
8
1
62
256
6
ByLayer
370
18
48
1
60
1
100
AcDbLine
10
50
20
-6
30
0
11
49.539216
21
-2.500002
31
0
39
0
210
0
220
0
230
1
0
LINE
5
19E
100
AcDbEntity
8
1
62
256
6
ByLayer
370
18
48
1
60
1
100
AcDbLine
10
49.539216
20
-2.500002
30
0
11
50.460784
21
-2.499998
31
0
39
0
210
0
220
0
230
1
0
LINE
5
19F
100
AcDbEntity
8
1
62
256
6
ByLayer
370
18
48
1
60
1
100
AcDbLine
10
50.460784
20
-2.499998
30
0
11
50
21
-6
31
0
39
0
210
0
220
0
230
1
0
LINE
5
1A2
100
AcDbEntity
8
1
62
256
6
ByLayer
370
18
48
1
60
1
100
AcDbLine
10
-45
20
-53.101968
30
0
11
-41.500002
21
-52.641184
31
0
39
0
210
0
220
0
230
1
0
LINE
5
1A3
100
AcDbEntity
8
1
62
256
6
ByLayer
370
18
48
1
60
1
100
AcDbLine
10
-41.500002
20
-52.641184
30
0
11
-41.499998
21
-53.562752
31
0
39
0
210
0
220
0
230
1
0
LINE
5
1A4
100
AcDbEntity
8
1
62
256
6
ByLayer
370
18
48
1
60
1
100
AcDbLine
10
-41.499998
20
-53.562752
30
0
11
-45
21
-53.101968
31
0
39
0
210
0
220
0
230
1
0
LINE
5
1A6
100
AcDbEntity
8
1
62
256
6
ByLayer
370
18
48
1
60
1
100
AcDbLine
10
38
20
-53.101968
30
0
11
34.500002
21
-53.562752
31
0
39
0
210
0
220
0
230
1
0
LINE
5
1A7
100
AcDbEntity
8
1
62
256
6
ByLayer
370
18
48
1
60
1
100
AcDbLine
10
34.500002
20
-53.562752
30
0
11
34.499998
21
-52.641184
31
0
39
0
210
0
220
0
230
1
0
LINE
5
1A8
100
AcDbEntity
8
1
62
256
6
ByLayer
370
18
48
1
60
1
100
AcDbLine
10
34.499998
20
-52.641184
30
0
11
38
21
-53.101968
31
0
39
0
210
0
220
0
230
1
0
MTEXT
5
181
100
AcDbEntity
8
SK2
62
256
6
ByLayer
370
18
48
1
60
0
100
AcDbMText
10
-54.014634
20
-22.121222
30
0
210
0
220
0
230
1
1
%%c
40
3.5
41
0
44
1.084337
50
90
71
7
72
5
7
iso_b_vert
0
MTEXT
5
184
100
AcDbEntity
8
SK2
62
256
6
ByLayer
370
18
48
1
60
0
100
AcDbMText
10
-54.014634
20
-15.148566
30
0
210
0
220
0
230
1
1
\W0.5321;12
40
3.5
41
0
44
1.084337
50
90
71
7
72
5
7
iso_b_vert
0
MTEXT
5
18D
100
AcDbEntity
8
SK2
62
256
6
ByLayer
370
18
48
1
60
0
100
AcDbMText
10
6.542385
20
17.694844
30
0
210
0
220
0
230
1
1
%%c
40
3.5
41
0
44
1.084337
50
90
71
7
72
5
7
iso_b_vert
0
MTEXT
5
18E
100
AcDbEntity
8
SK2
62
256
6
ByLayer
370
18
48
1
60
0
100
AcDbMText
10
6.542385
20
24.6675
30
0
210
0
220
0
230
1
1
\W0.6261;11.52
40
3.5
41
0
44
1.084337
50
90
71
7
72
5
7
iso_b_vert
0
MTEXT
5
197
100
AcDbEntity
8
2
62
256
6
ByLayer
370
18
48
1
60
0
100
AcDbMText
10
48.435366
20
13.934844
30
0
210
0
220
0
230
1
1
%%c
40
3.5
41
0
44
1.084337
50
90
71
7
72
5
7
iso_b_vert
0
MTEXT
5
198
100
AcDbEntity
8
2
62
256
6
ByLayer
370
18
48
1
60
0
100
AcDbMText
10
48.435366
20
20.9075
30
0
210
0
220
0
230
1
1
\W0.5321;12
40
3.5
41
0
44
1.084337
50
90
71
7
72
5
7
iso_b_vert
0
MTEXT
5
1A1
100
AcDbEntity
8
SK2
62
256
6
ByLayer
370
18
48
1
60
0
100
AcDbMText
10
-5.404966
20
-52.069334
30
0
210
0
220
0
230
1
1
\W0.6740;83
40
3.5
41
0
44
1.084337
50
0
71
7
72
5
7
iso_b_vert
0
MTEXT
5
1AA
100
AcDbEntity
8
SK6
62
256
6
ByLayer
370
18
48
1
60
0
100
AcDbMText
10
-28.381047
20
-62.128524
30
0
210
0
220
0
230
1
1
\W0.7028;1K334-1200-100-XD   1730
40
3
41
0
44
1.084337
50
0
71
7
72
5
7
iso_b_vert
0
HATCH
5
188
100
AcDbEntity
8
SK2
62
256
6
ByLayer
370
13
48
1
60
0
100
AcDbHatch
10
0
20
0
30
0
210
0
220
0
230
1
2
ANSI31
70
0
71
0
91
1
92
5
93
3
72
1
10
-52.4500000000001
20
6
11
-51.9892162584473
21
2.50000169255318
72
1
10
-51.9892162584473
20
2.50000169255318
11
-52.9107837415528
21
2.49999830744682
72
1
10
-52.9107837415528
20
2.49999830744682
11
-52.4500000000001
21
6
97
0
75
0
76
1
52
0
41
0.0062
77
0
78
1
53
45
43
0
44
0
45
-0.0139193969876572
46
0.0139193969876572
79
0
47
0
98
1
10
0
20
0
0
HATCH
5
18C
100
AcDbEntity
8
SK2
62
256
6
ByLayer
370
13
48
1
60
0
100
AcDbHatch
10
0
20
0
30
0
210
0
220
0
230
1
2
ANSI31
70
0
71
0
91
1
92
5
93
3
72
1
10
-52.4500000000001
20
-6
11
-52.9107837415528
21
-2.50000169255318
72
1
10
-52.9107837415528
20
-2.50000169255318
11
-51.9892162584473
21
-2.49999830744682
72
1
10
-51.9892162584473
20
-2.49999830744682
11
-52.4500000000001
21
-6
97
0
75
0
76
1
52
0
41
0.0062
77
0
78
1
53
45
43
0
44
0
45
-0.0139193969876572
46
0.0139193969876572
79
0
47
0
98
1
10
0
20
0
0
HATCH
5
192
100
AcDbEntity
8
SK2
62
256
6
ByLayer
370
13
48
1
60
0
100
AcDbHatch
10
0
20
0
30
0
210
0
220
0
230
1
2
ANSI31
70
0
71
0
91
1
92
5
93
3
72
1
10
8.10701876795659
20
5.75999999999996
11
8.56780250950936
21
2.26000169255315
72
1
10
8.56780250950936
20
2.26000169255315
11
7.64623502640382
21
2.25999830744678
72
1
10
7.64623502640382
20
2.25999830744678
11
8.10701876795659
21
5.75999999999996
97
0
75
0
76
1
52
0
41
0.0062
77
0
78
1
53
45
43
0
44
0
45
-0.0139193969876572
46
0.0139193969876572
79
0
47
0
98
1
10
0
20
0
0
HATCH
5
196
100
AcDbEntity
8
SK2
62
256
6
ByLayer
370
13
48
1
60
0
100
AcDbHatch
10
0
20
0
30
0
210
0
220
0
230
1
2
ANSI31
70
0
71
0
91
1
92
5
93
3
72
1
10
8.10701876795659
20
-5.76000000000005
11
7.64623502640382
21
-2.26000169255323
72
1
10
7.64623502640382
20
-2.26000169255323
11
8.56780250950936
21
-2.25999830744686
72
1
10
8.56780250950936
20
-2.25999830744686
11
8.10701876795659
21
-5.76000000000005
97
0
75
0
76
1
52
0
41
0.0062
77
0
78
1
53
45
43
0
44
0
45
-0.0139193969876572
46
0.0139193969876572
79
0
47
0
98
1
10
0
20
0
0
HATCH
5
19C
100
AcDbEntity
8
2
62
256
6
ByLayer
370
13
48
1
60
0
100
AcDbHatch
10
0
20
0
30
0
210
0
220
0
230
1
2
ANSI31
70
0
71
0
91
1
92
5
93
3
72
1
10
50
20
5.99999999999986
11
50.4607837415528
21
2.50000169255304
72
1
10
50.4607837415528
20
2.50000169255304
11
49.5392162584472
21
2.49999830744667
72
1
10
49.5392162584472
20
2.49999830744667
11
50
21
5.99999999999986
97
0
75
0
76
1
52
0
41
0.0062
77
0
78
1
53
45
43
0
44
0
45
-0.0139193969876572
46
0.0139193969876572
79
0
47
0
98
1
10
0
20
0
0
HATCH
5
1A0
100
AcDbEntity
8
2
62
256
6
ByLayer
370
13
48
1
60
0
100
AcDbHatch
10
0
20
0
30
0
210
0
220
0
230
1
2
ANSI31
70
0
71
0
91
1
92
5
93
3
72
1
10
50
20
-6.00000000000014
11
49.5392162584472
21
-2.50000169255333
72
1
10
49.5392162584472
20
-2.50000169255333
11
50.4607837415528
21
-2.49999830744696
72
1
10
50.4607837415528
20
-2.49999830744696
11
50
21
-6.00000000000014
97
0
75
0
76
1
52
0
41
0.0062
77
0
78
1
53
45
43
0
44
0
45
-0.0139193969876572
46
0.0139193969876572
79
0
47
0
98
1
10
0
20
0
0
HATCH
5
1A5
100
AcDbEntity
8
SK2
62
256
6
ByLayer
370
13
48
1
60
0
100
AcDbHatch
10
0
20
0
30
0
210
0
220
0
230
1
2
ANSI31
70
0
71
0
91
1
92
5
93
3
72
1
10
-45
20
-53.1019679035069
11
-41.5000016925532
21
-52.6411841619542
72
1
10
-41.5000016925532
20
-52.6411841619542
11
-41.4999983074468
21
-53.5627516450597
72
1
10
-41.4999983074468
20
-53.5627516450597
11
-45
21
-53.1019679035069
97
0
75
0
76
1
52
0
41
0.0062
77
0
78
1
53
45
43
0
44
0
45
-0.0139193969876572
46
0.0139193969876572
79
0
47
0
98
1
10
0
20
0
0
HATCH
5
1A9
100
AcDbEntity
8
SK2
62
256
6
ByLayer
370
13
48
1
60
0
100
AcDbHatch
10
0
20
0
30
0
210
0
220
0
230
1
2
ANSI31
70
0
71
0
91
1
92
5
93
3
72
1
10
38
20
-53.1019679035069
11
34.5000016925532
21
-53.5627516450597
72
1
10
34.5000016925532
20
-53.5627516450597
11
34.4999983074468
21
-52.6411841619542
72
1
10
34.4999983074468
20
-52.6411841619542
11
38
21
-53.1019679035069
97
0
75
0
76
1
52
0
41
0.0062
77
0
78
1
53
45
43
0
44
0
45
-0.0139193969876572
46
0.0139193969876572
79
0
47
0
98
1
10
0
20
0
0
DIMENSION
5
1AD
100
AcDbEntity
8
2
62
256
6
ByLayer
370
18
48
1
60
0
100
AcDbDimension
2
_U0
10
12
20
-21.101968
30
0
11
25
21
-21.101968
31
0
70
32
71
1
72
1
41
1
210
0
220
0
230
1
3
Standard
100
AcDbAlignedDimension
13
38
23
-6
33
0
14
12
24
-6
34
0
50
0
100
AcDbRotatedDimension
1001
ACAD
1000
DSTYLE
1002
{
1070
   371
1070
    13
1070
   372
1070
    13
1070
   170
1070
     0
1070
   144
1040
1.0
1070
   277
1070
     2
1070
   284
1070
     8
1070
   278
1070
    46
1070
   146
1040
1.0
1070
   345
1005
16
1070
   347
1005
16
1070
   346
1005
16
1070
   344
1005
0
1070
   343
1005
0
1070
   172
1070
     1
1070
    76
1070
     0
1070
    75
1070
     0
1070
   282
1070
     0
1070
   281
1070
     0
1070
    71
1070
     0
1070
    74
1070
     0
1070
   279
1070
     0
1070
   173
1070
     1
1070
   340
1005
182
1070
   271
1070
     2
1070
   272
1070
     2
1070
    77
1070
     1
1070
    73
1070
     1
1070
   171
1070
     3
1070
   274
1070
     4
1070
   177
1070
     2
1070
   176
1070
     2
1070
   178
1070
     2
1070
    78
1070
     8
1070
    48
1040
-0.1
1070
    41
1040
3.5
1070
   147
1040
1.75
1070
    42
1040
1.5875
1070
    44
1040
2.0
1070
   140
1040
3.5
1002
}
1001
ACAD_DSTYLE_DIM_LINETYPE
1070
   380
1005
16
1001
ACAD_DSTYLE_DIM_EXT1_LINETYPE
1070
   381
1005
16
1001
ACAD_DSTYLE_DIM_EXT2_LINETYPE
1070
   382
1005
16
0
DIMENSION
5
1C6
100
AcDbEntity
8
SK2
62
256
6
ByLayer
370
18
48
1
60
0
100
AcDbDimension
2
_U1
10
1.997679
20
-36.101968
30
0
11
19.998839
21
-36.101968
31
0
70
32
71
1
72
1
41
1
210
0
220
0
230
1
3
Standard
100
AcDbAlignedDimension
13
38
23
-6
33
0
14
1.997679
24
-5.76
34
0
50
0
100
AcDbRotatedDimension
1001
ACAD
1000
DSTYLE
1002
{
1070
   371
1070
    13
1070
   372
1070
    13
1070
   170
1070
     0
1070
   144
1040
1.0
1070
   277
1070
     2
1070
   284
1070
     8
1070
   278
1070
    46
1070
   146
1040
1.0
1070
   345
1005
16
1070
   347
1005
16
1070
   346
1005
16
1070
   344
1005
0
1070
   343
1005
0
1070
   172
1070
     1
1070
    76
1070
     0
1070
    75
1070
     0
1070
   282
1070
     0
1070
   281
1070
     0
1070
    71
1070
     0
1070
    74
1070
     0
1070
   279
1070
     0
1070
   173
1070
     1
1070
   340
1005
182
1070
   271
1070
     2
1070
   272
1070
     2
1070
    77
1070
     1
1070
    73
1070
     1
1070
   171
1070
     3
1070
   274
1070
     4
1070
   177
1070
     2
1070
   176
1070
     2
1070
   178
1070
     2
1070
    78
1070
     8
1070
    48
1040
-0.1
1070
    41
1040
3.5
1070
   147
1040
1.75
1070
    42
1040
1.5875
1070
    44
1040
2.0
1070
   140
1040
3.5
1002
}
1001
ACAD_DSTYLE_DIM_LINETYPE
1070
   380
1005
16
1001
ACAD_DSTYLE_DIM_EXT1_LINETYPE
1070
   381
1005
16
1001
ACAD_DSTYLE_DIM_EXT2_LINETYPE
1070
   382
1005
16
0
ENDSEC
0
SECTION
2
OBJECTS
0
DICTIONARY
5
24e
330
0
100
AcDbDictionary
280
0
281
1
3
ACAD_GROUP
350
24f
3
ACAD_MLINESTYLE
350
250
0
DICTIONARY
5
24f
330
0
100
AcDbDictionary
280
0
281
1
0
DICTIONARY
5
250
330
0
100
AcDbDictionary
280
0
281
1
3
Standard
350
18
0
MLINESTYLE
5
18
330
250
100
AcDbMlineStyle
2
Standard
70
0
3

62
256
51
90
52
90
71
2
49
-0.5
62
256
6
ByLayer
49
0.5
62
256
6
ByLayer
0
RASTERVARIABLES
5
23c
330

100
AcDbRasterVariables
90
0
70
1
71
1
72
1
0
ENDSEC
0
EOF
