  0
SECTION
  2
HEADER
  9
$ACADVER
  1
AC1015
  9
$ACADMAINTVER
 70
     6
  9
$DWGCODEPAGE
  3
ANSI_1252
  9
$INSBASE
 10
0.0
 20
0.0
 30
0.0
  9
$EXTMIN
 10
1.000000000000000E+20
 20
1.000000000000000E+20
 30
1.000000000000000E+20
  9
$EXTMAX
 10
-1.000000000000000E+20
 20
-1.000000000000000E+20
 30
-1.000000000000000E+20
  9
$LIMMIN
 10
-170.0
 20
-170.0
  9
$LIMMAX
 10
519.0
 20
260.0
  9
$ORTHOMODE
 70
     0
  9
$REGENMODE
 70
     1
  9
$FILLMODE
 70
     1
  9
$QTEXTMODE
 70
     0
  9
$MIRRTEXT
 70
     0
  9
$LTSCALE
 40
1.0
  9
$ATTMODE
 70
     1
  9
$TEXTSIZE
 40
3.5
  9
$TRACEWID
 40
1.0
  9
$TEXTSTYLE
  7
SIMPLEX
  9
$CLAYER
  8
1
  9
$CELTYPE
  6
BYLAYER
  9
$CECOLOR
 62
   256
  9
$CELTSCALE
 40
1.0
  9
$DISPSILH
 70
     0
  9
$DIMSCALE
 40
1.0
  9
$DIMASZ
 40
2.5
  9
$DIMEXO
 40
0.0
  9
$DIMDLI
 40
3.75
  9
$DIMRND
 40
0.0
  9
$DIMDLE
 40
0.0
  9
$DIMEXE
 40
1.25
  9
$DIMTP
 40
0.0
  9
$DIMTM
 40
0.0
  9
$DIMTXT
 40
3.5
  9
$DIMCEN
 40
0.0
  9
$DIMTSZ
 40
0.0
  9
$DIMTOL
 70
     0
  9
$DIMLIM
 70
     0
  9
$DIMTIH
 70
     0
  9
$DIMTOH
 70
     0
  9
$DIMSE1
 70
     0
  9
$DIMSE2
 70
     0
  9
$DIMTAD
 70
     1
  9
$DIMZIN
 70
     8
  9
$DIMBLK
  1

  9
$DIMASO
 70
     1
  9
$DIMSHO
 70
     1
  9
$DIMPOST
  1

  9
$DIMAPOST
  1

  9
$DIMALT
 70
     0
  9
$DIMALTD
 70
     3
  9
$DIMALTF
 40
0.039370078
  9
$DIMLFAC
 40
1.0
  9
$DIMTOFL
 70
     0
  9
$DIMTVP
 40
0.0
  9
$DIMTIX
 70
     0
  9
$DIMSOXD
 70
     0
  9
$DIMSAH
 70
     0
  9
$DIMBLK1
  1

  9
$DIMBLK2
  1

  9
$DIMSTYLE
  2
STANDARD
  9
$DIMCLRD
 70
     0
  9
$DIMCLRE
 70
     0
  9
$DIMCLRT
 70
     0
  9
$DIMTFAC
 40
1.0
  9
$DIMGAP
 40
0.625
  9
$DIMJUST
 70
     0
  9
$DIMSD1
 70
     0
  9
$DIMSD2
 70
     0
  9
$DIMTOLJ
 70
     0
  9
$DIMTZIN
 70
     8
  9
$DIMALTZ
 70
     0
  9
$DIMALTTZ
 70
     0
  9
$DIMUPT
 70
     0
  9
$DIMDEC
 70
     2
  9
$DIMTDEC
 70
     2
  9
$DIMALTU
 70
     2
  9
$DIMALTTD
 70
     3
  9
$DIMTXSTY
  7
SIMPLEX
  9
$DIMAUNIT
 70
     0
  9
$DIMADEC
 70
     2
  9
$DIMALTRND
 40
0.0
  9
$DIMAZIN
 70
     2
  9
$DIMDSEP
 70
    46
  9
$DIMATFIT
 70
     3
  9
$DIMFRAC
 70
     0
  9
$DIMLDRBLK
  1

  9
$DIMLUNIT
 70
     2
  9
$DIMLWD
 70
    -2
  9
$DIMLWE
 70
    -2
  9
$DIMTMOVE
 70
     0
  9
$LUNITS
 70
     2
  9
$LUPREC
 70
     4
  9
$SKETCHINC
 40
1.0
  9
$FILLETRAD
 40
0.0
  9
$AUNITS
 70
     0
  9
$AUPREC
 70
     0
  9
$MENU
  1
c:\tdm21\cad\caduti13\tdm13
  9
$ELEVATION
 40
0.0
  9
$PELEVATION
 40
0.0
  9
$THICKNESS
 40
0.0
  9
$LIMCHECK
 70
     0
  9
$CHAMFERA
 40
0.0
  9
$CHAMFERB
 40
0.0
  9
$CHAMFERC
 40
0.0
  9
$CHAMFERD
 40
0.0
  9
$SKPOLY
 70
     0
  9
$TDCREATE
 40
2454957.593642639
  9
$TDUCREATE
 40
2454957.510309306
  9
$TDUPDATE
 40
2456860.761088542
  9
$TDUUPDATE
 40
2456860.677755208
  9
$TDINDWG
 40
0.0009643519
  9
$TDUSRTIMER
 40
0.0009475231
  9
$USRTIMER
 70
     1
  9
$ANGBASE
 50
0.0
  9
$ANGDIR
 70
     0
  9
$PDMODE
 70
     1
  9
$PDSIZE
 40
0.0
  9
$PLINEWID
 40
0.0
  9
$SPLFRAME
 70
     0
  9
$SPLINETYPE
 70
     6
  9
$SPLINESEGS
 70
     8
  9
$HANDSEED
  5
703
  9
$SURFTAB1
 70
     6
  9
$SURFTAB2
 70
     6
  9
$SURFTYPE
 70
     6
  9
$SURFU
 70
     6
  9
$SURFV
 70
     6
  9
$UCSBASE
  2

  9
$UCSNAME
  2

  9
$UCSORG
 10
0.0
 20
0.0
 30
0.0
  9
$UCSXDIR
 10
1.0
 20
0.0
 30
0.0
  9
$UCSYDIR
 10
0.0
 20
1.0
 30
0.0
  9
$UCSORTHOREF
  2

  9
$UCSORTHOVIEW
 70
     0
  9
$UCSORGTOP
 10
0.0
 20
0.0
 30
0.0
  9
$UCSORGBOTTOM
 10
0.0
 20
0.0
 30
0.0
  9
$UCSORGLEFT
 10
0.0
 20
0.0
 30
0.0
  9
$UCSORGRIGHT
 10
0.0
 20
0.0
 30
0.0
  9
$UCSORGFRONT
 10
0.0
 20
0.0
 30
0.0
  9
$UCSORGBACK
 10
0.0
 20
0.0
 30
0.0
  9
$PUCSBASE
  2

  9
$PUCSNAME
  2

  9
$PUCSORG
 10
0.0
 20
0.0
 30
0.0
  9
$PUCSXDIR
 10
1.0
 20
0.0
 30
0.0
  9
$PUCSYDIR
 10
0.0
 20
1.0
 30
0.0
  9
$PUCSORTHOREF
  2

  9
$PUCSORTHOVIEW
 70
     0
  9
$PUCSORGTOP
 10
0.0
 20
0.0
 30
0.0
  9
$PUCSORGBOTTOM
 10
0.0
 20
0.0
 30
0.0
  9
$PUCSORGLEFT
 10
0.0
 20
0.0
 30
0.0
  9
$PUCSORGRIGHT
 10
0.0
 20
0.0
 30
0.0
  9
$PUCSORGFRONT
 10
0.0
 20
0.0
 30
0.0
  9
$PUCSORGBACK
 10
0.0
 20
0.0
 30
0.0
  9
$USERI1
 70
     0
  9
$USERI2
 70
     0
  9
$USERI3
 70
     0
  9
$USERI4
 70
     0
  9
$USERI5
 70
     0
  9
$USERR1
 40
0.0
  9
$USERR2
 40
0.0
  9
$USERR3
 40
0.0
  9
$USERR4
 40
0.0
  9
$USERR5
 40
0.0
  9
$WORLDVIEW
 70
     1
  9
$SHADEDGE
 70
     3
  9
$SHADEDIF
 70
    70
  9
$TILEMODE
 70
     1
  9
$MAXACTVP
 70
    64
  9
$PINSBASE
 10
0.0
 20
0.0
 30
0.0
  9
$PLIMCHECK
 70
     0
  9
$PEXTMIN
 10
0.0
 20
0.0
 30
0.0
  9
$PEXTMAX
 10
0.0
 20
0.0
 30
0.0
  9
$PLIMMIN
 10
0.0
 20
0.0
  9
$PLIMMAX
 10
12.0
 20
9.0
  9
$UNITMODE
 70
     0
  9
$VISRETAIN
 70
     0
  9
$PLINEGEN
 70
     0
  9
$PSLTSCALE
 70
     1
  9
$TREEDEPTH
 70
  3020
  9
$CMLSTYLE
  2
STANDARD
  9
$CMLJUST
 70
     0
  9
$CMLSCALE
 40
20.0
  9
$PROXYGRAPHICS
 70
     1
  9
$MEASUREMENT
 70
     1
  9
$CELWEIGHT
370
    -1
  9
$ENDCAPS
280
     0
  9
$JOINSTYLE
280
     0
  9
$LWDISPLAY
290
     0
  9
$INSUNITS
 70
     4
  9
$HYPERLINKBASE
  1

  9
$STYLESHEET
  1
MONOCHROME.CTB
  9
$XEDIT
290
     1
  9
$CEPSNTYPE
380
     0
  9
$PSTYLEMODE
290
     1
  9
$FINGERPRINTGUID
  2
{46B44192-1510-48B1-B61B-CBE2ADA013A7}
  9
$VERSIONGUID
  2
{6160D478-9A74-4C97-9D8A-D4A65CE74B12}
  9
$EXTNAMES
290
     1
  9
$PSVPSCALE
 40
0.0
  9
$OLESTARTUP
290
     0
  0
ENDSEC
  0
SECTION
  2
CLASSES
  0
CLASS
  1
ACDBDICTIONARYWDFLT
  2
AcDbDictionaryWithDefault
  3
ObjectDBX Classes
 90
        0
280
     0
281
     0
  0
CLASS
  1
ACDBPLACEHOLDER
  2
AcDbPlaceHolder
  3
ObjectDBX Classes
 90
        0
280
     0
281
     0
  0
CLASS
  1
LAYOUT
  2
AcDbLayout
  3
ObjectDBX Classes
 90
        0
280
     0
281
     0
  0
CLASS
  1
DICTIONARYVAR
  2
AcDbDictionaryVar
  3
ObjectDBX Classes
 90
        0
280
     0
281
     0
  0
CLASS
  1
TABLESTYLE
  2
AcDbTableStyle
  3
ObjectDBX Classes
 90
     4095
280
     0
281
     0
  0
CLASS
  1
SCALE
  2
AcDbScale
  3
ObjectDBX Classes
 90
     1153
280
     0
281
     0
  0
CLASS
  1
MATERIAL
  2
AcDbMaterial
  3
ObjectDBX Classes
 90
     1153
280
     0
281
     0
  0
CLASS
  1
VISUALSTYLE
  2
AcDbVisualStyle
  3
ObjectDBX Classes
 90
     4095
280
     0
281
     0
  0
ENDSEC
  0
SECTION
  2
TABLES
  0
TABLE
  2
VPORT
  5
8
330
0
100
AcDbSymbolTable
 70
     1
  0
VPORT
  5
39A
330
8
100
AcDbSymbolTableRecord
100
AcDbViewportTableRecord
  2
*Active
 70
     0
 10
0.0
 20
0.0
 11
1.0
 21
1.0
 12
218.9201881351169
 22
109.7549380673833
 13
0.0
 23
0.0
 14
5.0
 24
5.0
 15
5.0
 25
5.0
 16
0.0
 26
0.0
 36
1.0
 17
0.0
 27
0.0
 37
0.0
 40
564.6711112651689
 41
1.066073697585768
 42
50.0
 43
0.0
 44
0.0
 50
0.0
 51
0.0
 71
     0
 72
  2000
 73
     1
 74
     1
 75
     0
 76
     0
 77
     0
 78
     0
281
     0
 65
     1
110
0.0
120
0.0
130
0.0
111
1.0
121
0.0
131
0.0
112
0.0
122
1.0
132
0.0
 79
     0
146
0.0
  0
ENDTAB
  0
TABLE
  2
LTYPE
  5
5
330
0
100
AcDbSymbolTable
 70
     3
  0
LTYPE
  5
12
330
5
100
AcDbSymbolTableRecord
100
AcDbLinetypeTableRecord
  2
BYBLOCK
 70
     0
  3

 72
    65
 73
     0
 40
0.0
  0
LTYPE
  5
13
330
5
100
AcDbSymbolTableRecord
100
AcDbLinetypeTableRecord
  2
BYLAYER
 70
     0
  3

 72
    65
 73
     0
 40
0.0
  0
LTYPE
  5
14
330
5
100
AcDbSymbolTableRecord
100
AcDbLinetypeTableRecord
  2
CONTINUOUS
 70
     0
  3
Solid line
 72
    65
 73
     0
 40
0.0
  0
LTYPE
  5
20
330
5
100
AcDbSymbolTableRecord
100
AcDbLinetypeTableRecord
  2
HIDDEN
 70
     0
  3
Hidden __ __ __ __ __ __ __ __ __ __ __ __ __ _
 72
    65
 73
     2
 40
9.524999999999997
 49
6.349999999999998
 74
     0
 49
-3.174999999999998
 74
     0
  0
LTYPE
  5
351
330
5
100
AcDbSymbolTableRecord
100
AcDbLinetypeTableRecord
  2
CENTER
 70
     0
  3
Dash dot __ . __ . __ . __ . __ . __ . __ . __
 72
    65
 73
     4
 40
25.4
 49
12.7
 74
     0
 49
-6.349999999999998
 74
     0
 49
0.0
 74
     0
 49
-6.349999999999998
 74
     0
  0
ENDTAB
  0
TABLE
  2
LAYER
  5
2
330
0
100
AcDbSymbolTable
 70
    16
  0
LAYER
  5
F
330
2
100
AcDbSymbolTableRecord
100
AcDbLayerTableRecord
  2
0
 70
     0
 62
     7
  6
CONTINUOUS
370
    -3
390
300
  0
LAYER
  5
23
330
2
100
AcDbSymbolTableRecord
100
AcDbLayerTableRecord
  2
1
 70
     0
 62
     4
  6
CONTINUOUS
370
    -3
390
300
  0
LAYER
  5
24
330
2
100
AcDbSymbolTableRecord
100
AcDbLayerTableRecord
  2
SK1
 70
     0
 62
     4
  6
CONTINUOUS
370
    -3
390
300
  0
LAYER
  5
25
330
2
100
AcDbSymbolTableRecord
100
AcDbLayerTableRecord
  2
2
 70
     0
 62
     7
  6
CONTINUOUS
370
    -3
390
300
  0
LAYER
  5
26
330
2
100
AcDbSymbolTableRecord
100
AcDbLayerTableRecord
  2
2L
 70
     0
 62
     7
  6
CONTINUOUS
370
    -3
390
300
  0
LAYER
  5
27
330
2
100
AcDbSymbolTableRecord
100
AcDbLayerTableRecord
  2
SK2
 70
     0
 62
     7
  6
CONTINUOUS
370
    -3
390
300
  0
LAYER
  5
28
330
2
100
AcDbSymbolTableRecord
100
AcDbLayerTableRecord
  2
3
 70
     0
 62
     1
  6
HIDDEN
370
    -3
390
300
  0
LAYER
  5
29
330
2
100
AcDbSymbolTableRecord
100
AcDbLayerTableRecord
  2
SK3
 70
     0
 62
     1
  6
HIDDEN
370
    -3
390
300
  0
LAYER
  5
2A
330
2
100
AcDbSymbolTableRecord
100
AcDbLayerTableRecord
  2
4
 70
     0
 62
     2
  6
CENTER
370
    -3
390
300
  0
LAYER
  5
2B
330
2
100
AcDbSymbolTableRecord
100
AcDbLayerTableRecord
  2
SK4
 70
     0
 62
     2
  6
CENTER
370
    -3
390
300
  0
LAYER
  5
2C
330
2
100
AcDbSymbolTableRecord
100
AcDbLayerTableRecord
  2
5
 70
     0
 62
    -7
  6
CONTINUOUS
370
    -3
390
300
  0
LAYER
  5
2D
330
2
100
AcDbSymbolTableRecord
100
AcDbLayerTableRecord
  2
6
 70
     0
 62
     5
  6
CONTINUOUS
370
    -3
390
300
  0
LAYER
  5
2E
330
2
100
AcDbSymbolTableRecord
100
AcDbLayerTableRecord
  2
SK6
 70
     0
 62
     5
  6
CONTINUOUS
370
    -3
390
300
  0
LAYER
  5
2F
330
2
100
AcDbSymbolTableRecord
100
AcDbLayerTableRecord
  2
DEFPOINTS
 70
     0
 62
     7
  6
CONTINUOUS
290
     0
370
    -3
390
300
  0
LAYER
  5
375
330
2
100
AcDbSymbolTableRecord
100
AcDbLayerTableRecord
  2
CUT
 70
     0
 62
     1
  6
CONTINUOUS
370
    -3
390
300
  0
LAYER
  5
376
330
2
100
AcDbSymbolTableRecord
100
AcDbLayerTableRecord
  2
NOCUT
 70
     0
 62
     7
  6
CONTINUOUS
370
    -3
390
300
  0
ENDTAB
  0
TABLE
  2
STYLE
  5
3
330
0
100
AcDbSymbolTable
 70
     4
  0
STYLE
  5
10
330
3
100
AcDbSymbolTableRecord
100
AcDbTextStyleTableRecord
  2
STANDARD
 70
     0
 40
0.0
 41
1.0
 50
0.0
 71
     0
 42
5.0
  3
txt
  4

  0
STYLE
  5
1D
330
3
100
AcDbSymbolTableRecord
100
AcDbTextStyleTableRecord
  2
TXT
 70
     0
 40
8.0
 41
1.0
 50
0.0
 71
     0
 42
8.0
  3
txt
  4

  0
STYLE
  5
1E
330
3
100
AcDbSymbolTableRecord
100
AcDbTextStyleTableRecord
  2
SIMPLEX
 70
     0
 40
0.0
 41
1.0
 50
0.0
 71
     0
 42
3.5
  3
simplex
  4

  0
STYLE
  5
34C
330
3
100
AcDbSymbolTableRecord
100
AcDbTextStyleTableRecord
  2

 70
     1
 40
0.0
 41
1.0
 50
0.0
 71
     0
 42
2.5
  3
ltypeshp.shx
  4

  0
ENDTAB
  0
TABLE
  2
VIEW
  5
6
330
0
100
AcDbSymbolTable
 70
     0
  0
ENDTAB
  0
TABLE
  2
UCS
  5
7
330
0
100
AcDbSymbolTable
 70
     0
  0
ENDTAB
  0
TABLE
  2
APPID
  5
9
330
0
100
AcDbSymbolTable
 70
     1
  0
APPID
  5
11
330
9
100
AcDbSymbolTableRecord
100
AcDbRegAppTableRecord
  2
ACAD
 70
     0
  0
ENDTAB
  0
TABLE
  2
DIMSTYLE
  5
A
330
0
100
AcDbSymbolTable
 70
     1
100
AcDbDimStyleTable
  0
DIMSTYLE
105
3F
102
{ACAD_REACTORS
330
695
330
6A3
330
6B0
330
6BE
330
6CB
102
}
330
A
100
AcDbSymbolTableRecord
100
AcDbDimStyleTableRecord
  2
STANDARD
 70
     0
 41
2.5
 42
0.0
 43
3.75
 44
1.25
 73
     0
 74
     0
 77
     1
 78
     8
 79
     2
140
3.5
141
0.0
143
0.039370078
147
0.625
171
     3
178
     0
179
     2
271
     2
272
     2
274
     3
283
     0
284
     8
340
1E
  0
ENDTAB
  0
TABLE
  2
BLOCK_RECORD
  5
1
330
0
100
AcDbSymbolTable
 70
     5
  0
BLOCK_RECORD
  5
18
330
1
100
AcDbSymbolTableRecord
100
AcDbBlockTableRecord
  2
*MODEL_SPACE
340
303
  0
BLOCK_RECORD
  5
338
330
1
100
AcDbSymbolTableRecord
100
AcDbBlockTableRecord
  2
*Paper_Space
340
33B
  0
BLOCK_RECORD
  5
696
330
1
100
AcDbSymbolTableRecord
100
AcDbBlockTableRecord
  2
*D0
340
0
  0
BLOCK_RECORD
  5
6A4
330
1
100
AcDbSymbolTableRecord
100
AcDbBlockTableRecord
  2
*D1
340
0
  0
BLOCK_RECORD
  5
6B1
330
1
100
AcDbSymbolTableRecord
100
AcDbBlockTableRecord
  2
*D2
340
0
  0
BLOCK_RECORD
  5
6BF
330
1
100
AcDbSymbolTableRecord
100
AcDbBlockTableRecord
  2
*D3
340
0
  0
BLOCK_RECORD
  5
6CC
330
1
100
AcDbSymbolTableRecord
100
AcDbBlockTableRecord
  2
*D4
340
0
  0
ENDTAB
  0
ENDSEC
  0
SECTION
  2
BLOCKS
  0
BLOCK
  5
32
330
18
100
AcDbEntity
  8
0
100
AcDbBlockBegin
  2
*MODEL_SPACE
 70
     0
 10
0.0
 20
0.0
 30
0.0
  3
*MODEL_SPACE
  1

  0
ENDBLK
  5
33
330
18
100
AcDbEntity
  8
0
100
AcDbBlockEnd
  0
BLOCK
  5
339
330
338
100
AcDbEntity
 67
     1
  8
0
100
AcDbBlockBegin
  2
*Paper_Space
 70
     0
 10
0.0
 20
0.0
 30
0.0
  3
*Paper_Space
  1

  0
ENDBLK
  5
33A
330
338
100
AcDbEntity
 67
     1
  8
0
100
AcDbBlockEnd
  0
BLOCK
  5
697
330
696
100
AcDbEntity
  8
0
100
AcDbBlockBegin
  2
*D0
 70
     1
 10
0.0
 20
0.0
 30
0.0
  3
*D0
  1

  0
LINE
  5
699
330
696
100
AcDbEntity
  8
2
 62
     0
370
    -2
100
AcDbLine
 10
47.0
 20
2.5
 30
0.0
 11
63.25000000000001
 21
2.500000000000056
 31
0.0
  0
LINE
  5
69A
330
696
100
AcDbEntity
  8
2
 62
     0
370
    -2
100
AcDbLine
 10
47.0
 20
-2.5
 30
0.0
 11
63.25000000000002
 21
-2.499999999999944
 31
0.0
  0
LINE
  5
69B
330
696
100
AcDbEntity
  8
2
 62
     0
370
    -2
100
AcDbLine
 10
62.00000000000003
 20
-4.999999999999948
 30
0.0
 11
62.00000000000006
 21
-14.90299999999995
 31
0.0
  0
LINE
  5
69C
330
696
100
AcDbEntity
  8
2
 62
     0
370
    -2
100
AcDbLine
 10
62.0
 20
5.000000000000052
 30
0.0
 11
61.99999999999999
 21
7.500000000000052
 31
0.0
  0
SOLID
  5
69D
330
696
100
AcDbEntity
  8
2
 62
     0
100
AcDbTrace
 10
61.58333333333334
 20
5.000000000000051
 30
0.0
 11
62.41666666666666
 21
5.000000000000052
 31
0.0
 12
62.00000000000001
 22
2.500000000000052
 32
0.0
 13
62.00000000000001
 23
2.500000000000052
 33
0.0
  0
SOLID
  5
69E
330
696
100
AcDbEntity
  8
2
 62
     0
100
AcDbTrace
 10
62.41666666666669
 20
-4.999999999999948
 30
0.0
 11
61.58333333333336
 21
-4.999999999999949
 31
0.0
 12
62.00000000000002
 22
-2.499999999999948
 32
0.0
 13
62.00000000000002
 23
-2.499999999999948
 33
0.0
  0
MTEXT
  5
69F
330
696
100
AcDbEntity
  8
2
 62
     0
100
AcDbMText
 10
59.60925000000005
 20
-11.20149999999995
 30
0.0
 40
3.5
 41
0.0
 71
     5
 72
     1
  1
M5
  7
SIMPLEX
 11
-2.842170943040401E-15
 21
1.0
 31
0.0
 73
     1
 44
1.0
  0
POINT
  5
6A0
330
696
100
AcDbEntity
  8
DEFPOINTS
 62
     0
100
AcDbPoint
 10
47.0
 20
2.5
 30
0.0
  0
POINT
  5
6A1
330
696
100
AcDbEntity
  8
DEFPOINTS
 62
     0
100
AcDbPoint
 10
47.0
 20
-2.5
 30
0.0
  0
POINT
  5
6A2
330
696
100
AcDbEntity
  8
DEFPOINTS
 62
     0
100
AcDbPoint
 10
62.00000000000002
 20
-2.499999999999948
 30
0.0
  0
ENDBLK
  5
698
330
696
100
AcDbEntity
  8
0
100
AcDbBlockEnd
  0
BLOCK
  5
6A5
330
6A4
100
AcDbEntity
  8
0
100
AcDbBlockBegin
  2
*D1
 70
     1
 10
0.0
 20
0.0
 30
0.0
  3
*D1
  1

  0
LINE
  5
6A7
330
6A4
100
AcDbEntity
  8
2
 62
     0
370
    -2
100
AcDbLine
 10
0.0
 20
0.0
 30
0.0
 11
0.0
 21
76.25
 31
0.0
  0
LINE
  5
6A8
330
6A4
100
AcDbEntity
  8
2
 62
     0
370
    -2
100
AcDbLine
 10
47.0
 20
0.0
 30
0.0
 11
47.0
 21
76.25
 31
0.0
  0
LINE
  5
6A9
330
6A4
100
AcDbEntity
  8
2
 62
     0
370
    -2
100
AcDbLine
 10
2.5
 20
75.0
 30
0.0
 11
44.5
 21
75.0
 31
0.0
  0
SOLID
  5
6AA
330
6A4
100
AcDbEntity
  8
2
 62
     0
100
AcDbTrace
 10
2.5
 20
75.41666666666667
 30
0.0
 11
2.5
 21
74.58333333333333
 31
0.0
 12
0.0
 22
75.0
 32
0.0
 13
0.0
 23
75.0
 33
0.0
  0
SOLID
  5
6AB
330
6A4
100
AcDbEntity
  8
2
 62
     0
100
AcDbTrace
 10
44.5
 20
74.58333333333333
 30
0.0
 11
44.5
 21
75.41666666666667
 31
0.0
 12
47.0
 22
75.0
 32
0.0
 13
47.0
 23
75.0
 33
0.0
  0
MTEXT
  5
6AC
330
6A4
100
AcDbEntity
  8
2
 62
     0
100
AcDbMText
 10
23.5
 20
77.4205
 30
0.0
 40
3.5
 41
0.0
 71
     5
 72
     1
  1
47
  7
SIMPLEX
 73
     1
 44
1.0
  0
POINT
  5
6AD
330
6A4
100
AcDbEntity
  8
DEFPOINTS
 62
     0
100
AcDbPoint
 10
0.0
 20
0.0
 30
0.0
  0
POINT
  5
6AE
330
6A4
100
AcDbEntity
  8
DEFPOINTS
 62
     0
100
AcDbPoint
 10
47.0
 20
0.0
 30
0.0
  0
POINT
  5
6AF
330
6A4
100
AcDbEntity
  8
DEFPOINTS
 62
     0
100
AcDbPoint
 10
47.0
 20
75.0
 30
0.0
  0
ENDBLK
  5
6A6
330
6A4
100
AcDbEntity
  8
0
100
AcDbBlockEnd
  0
BLOCK
  5
6B2
330
6B1
100
AcDbEntity
  8
0
100
AcDbBlockBegin
  2
*D2
 70
     1
 10
0.0
 20
0.0
 30
0.0
  3
*D2
  1

  0
LINE
  5
6B4
330
6B1
100
AcDbEntity
  8
SK2
 62
     0
370
    -2
100
AcDbLine
 10
-17.09999999999999
 20
3.0
 30
0.0
 11
-41.3500000000153
 21
2.999999999876242
 31
0.0
  0
LINE
  5
6B5
330
6B1
100
AcDbEntity
  8
SK2
 62
     0
370
    -2
100
AcDbLine
 10
-17.09999999999999
 20
-3.0
 30
0.0
 11
-41.34999999998468
 21
-3.000000000123758
 31
0.0
  0
LINE
  5
6B6
330
6B1
100
AcDbEntity
  8
SK2
 62
     0
370
    -2
100
AcDbLine
 10
-40.09999999997193
 20
-5.500000000117378
 30
0.0
 11
-40.09999999992223
 21
-15.23850000011738
 31
0.0
  0
LINE
  5
6B7
330
6B1
100
AcDbEntity
  8
SK2
 62
     0
370
    -2
100
AcDbLine
 10
-40.10000000002805
 20
5.499999999882622
 30
0.0
 11
-40.10000000004081
 21
7.999999999882622
 31
0.0
  0
SOLID
  5
6B8
330
6B1
100
AcDbEntity
  8
SK2
 62
     0
100
AcDbTrace
 10
-40.51666666669472
 20
5.499999999880496
 30
0.0
 11
-39.68333333336139
 21
5.499999999884748
 31
0.0
 12
-40.1000000000153
 22
2.999999999882621
 32
0.0
 13
-40.1000000000153
 23
2.999999999882621
 33
0.0
  0
SOLID
  5
6B9
330
6B1
100
AcDbEntity
  8
SK2
 62
     0
100
AcDbTrace
 10
-39.68333333330526
 20
-5.500000000115252
 30
0.0
 11
-40.51666666663859
 21
-5.500000000119504
 31
0.0
 12
-40.09999999998468
 22
-3.000000000117379
 32
0.0
 13
-40.09999999998468
 23
-3.000000000117379
 33
0.0
  0
MTEXT
  5
6BA
330
6B1
100
AcDbEntity
  8
SK2
 62
     0
100
AcDbMText
 10
-42.4907499999407
 20
-11.61925000012958
 30
0.0
 40
3.5
 41
0.0
 71
     5
 72
     1
  1
%%c6
  7
SIMPLEX
 11
-5.102881080650453E-12
 21
1.0
 31
0.0
 73
     1
 44
1.0
  0
POINT
  5
6BB
330
6B1
100
AcDbEntity
  8
DEFPOINTS
 62
     0
100
AcDbPoint
 10
-17.09999999999999
 20
3.0
 30
0.0
  0
POINT
  5
6BC
330
6B1
100
AcDbEntity
  8
DEFPOINTS
 62
     0
100
AcDbPoint
 10
-17.09999999999999
 20
-3.0
 30
0.0
  0
POINT
  5
6BD
330
6B1
100
AcDbEntity
  8
DEFPOINTS
 62
     0
100
AcDbPoint
 10
-40.09999999998468
 20
-3.000000000117379
 30
0.0
  0
ENDBLK
  5
6B3
330
6B1
100
AcDbEntity
  8
0
100
AcDbBlockEnd
  0
BLOCK
  5
6C0
330
6BF
100
AcDbEntity
  8
0
100
AcDbBlockBegin
  2
*D3
 70
     1
 10
0.0
 20
0.0
 30
0.0
  3
*D3
  1

  0
LINE
  5
6C2
330
6BF
100
AcDbEntity
  8
2
 62
     0
370
    -2
100
AcDbLine
 10
31.0
 20
3.0
 30
0.0
 11
31.0
 21
61.25
 31
0.0
  0
LINE
  5
6C3
330
6BF
100
AcDbEntity
  8
2
 62
     0
370
    -2
100
AcDbLine
 10
47.0
 20
2.5
 30
0.0
 11
47.0
 21
61.25
 31
0.0
  0
LINE
  5
6C4
330
6BF
100
AcDbEntity
  8
2
 62
     0
370
    -2
100
AcDbLine
 10
33.5
 20
60.0
 30
0.0
 11
44.5
 21
60.0
 31
0.0
  0
SOLID
  5
6C5
330
6BF
100
AcDbEntity
  8
2
 62
     0
100
AcDbTrace
 10
33.5
 20
60.41666666666666
 30
0.0
 11
33.5
 21
59.58333333333334
 31
0.0
 12
31.0
 22
60.0
 32
0.0
 13
31.0
 23
60.0
 33
0.0
  0
SOLID
  5
6C6
330
6BF
100
AcDbEntity
  8
2
 62
     0
100
AcDbTrace
 10
44.5
 20
59.58333333333334
 30
0.0
 11
44.5
 21
60.41666666666666
 31
0.0
 12
47.0
 22
60.0
 32
0.0
 13
47.0
 23
60.0
 33
0.0
  0
MTEXT
  5
6C7
330
6BF
100
AcDbEntity
  8
2
 62
     0
100
AcDbMText
 10
39.0
 20
62.39075
 30
0.0
 40
3.5
 41
0.0
 71
     5
 72
     1
  1
16
  7
SIMPLEX
 73
     1
 44
1.0
  0
POINT
  5
6C8
330
6BF
100
AcDbEntity
  8
DEFPOINTS
 62
     0
100
AcDbPoint
 10
31.0
 20
3.0
 30
0.0
  0
POINT
  5
6C9
330
6BF
100
AcDbEntity
  8
DEFPOINTS
 62
     0
100
AcDbPoint
 10
47.0
 20
2.5
 30
0.0
  0
POINT
  5
6CA
330
6BF
100
AcDbEntity
  8
DEFPOINTS
 62
     0
100
AcDbPoint
 10
47.0
 20
60.0
 30
0.0
  0
ENDBLK
  5
6C1
330
6BF
100
AcDbEntity
  8
0
100
AcDbBlockEnd
  0
BLOCK
  5
6CD
330
6CC
100
AcDbEntity
  8
0
100
AcDbBlockBegin
  2
*D4
 70
     1
 10
0.0
 20
0.0
 30
0.0
  3
*D4
  1

  0
LINE
  5
6CF
330
6CC
100
AcDbEntity
  8
SK2
 62
     0
370
    -2
100
AcDbLine
 10
-25.09999999999999
 20
2.5
 30
0.0
 11
-25.09999999999999
 21
91.25
 31
0.0
  0
LINE
  5
6D0
330
6CC
100
AcDbEntity
  8
SK2
 62
     0
370
    -2
100
AcDbLine
 10
47.0
 20
2.5
 30
0.0
 11
47.0
 21
91.25
 31
0.0
  0
LINE
  5
6D1
330
6CC
100
AcDbEntity
  8
SK2
 62
     0
370
    -2
100
AcDbLine
 10
-22.59999999999999
 20
90.0
 30
0.0
 11
44.5
 21
90.0
 31
0.0
  0
SOLID
  5
6D2
330
6CC
100
AcDbEntity
  8
SK2
 62
     0
100
AcDbTrace
 10
-22.59999999999999
 20
90.41666666666667
 30
0.0
 11
-22.59999999999999
 21
89.58333333333333
 31
0.0
 12
-25.09999999999999
 22
90.0
 32
0.0
 13
-25.09999999999999
 23
90.0
 33
0.0
  0
SOLID
  5
6D3
330
6CC
100
AcDbEntity
  8
SK2
 62
     0
100
AcDbTrace
 10
44.5
 20
89.58333333333333
 30
0.0
 11
44.5
 21
90.41666666666667
 31
0.0
 12
47.0
 22
90.0
 32
0.0
 13
47.0
 23
90.0
 33
0.0
  0
MTEXT
  5
6D4
330
6CC
100
AcDbEntity
  8
SK2
 62
     0
100
AcDbMText
 10
10.95
 20
92.39775
 30
0.0
 40
3.5
 41
0.0
 71
     5
 72
     1
  1
72.1
  7
SIMPLEX
 73
     1
 44
1.0
  0
POINT
  5
6D5
330
6CC
100
AcDbEntity
  8
DEFPOINTS
 62
     0
100
AcDbPoint
 10
-25.09999999999999
 20
2.5
 30
0.0
  0
POINT
  5
6D6
330
6CC
100
AcDbEntity
  8
DEFPOINTS
 62
     0
100
AcDbPoint
 10
47.0
 20
2.5
 30
0.0
  0
POINT
  5
6D7
330
6CC
100
AcDbEntity
  8
DEFPOINTS
 62
     0
100
AcDbPoint
 10
47.0
 20
90.0
 30
0.0
  0
ENDBLK
  5
6CE
330
6CC
100
AcDbEntity
  8
0
100
AcDbBlockEnd
  0
ENDSEC
  0
SECTION
  2
ENTITIES
  0
LINE
  5
3D6
330
18
100
AcDbEntity
  8
SK4
100
AcDbLine
 10
-27.09999999999999
 20
0.0
 30
0.0
 11
31.0
 21
0.0
 31
0.0
  0
LINE
  5
3D7
330
18
100
AcDbEntity
  8
4
100
AcDbLine
 10
29.0
 20
0.0
 30
0.0
 11
49.0
 21
0.0
 31
0.0
  0
LINE
  5
3D8
330
18
100
AcDbEntity
  8
SK4
100
AcDbLine
 10
29.0
 20
0.0
 30
0.0
 11
49.0
 21
0.0
 31
0.0
  0
LINE
  5
3D9
330
18
100
AcDbEntity
  8
3
100
AcDbLine
 10
47.0
 20
0.5
 30
0.0
 11
0.0
 21
0.5
 31
0.0
  0
LINE
  5
3DA
330
18
100
AcDbEntity
  8
3
100
AcDbLine
 10
47.0
 20
-0.5
 30
0.0
 11
0.0
 21
-0.5
 31
0.0
  0
LINE
  5
3DB
330
18
100
AcDbEntity
  8
SK3
100
AcDbLine
 10
-25.09999999999999
 20
0.5
 30
0.0
 11
0.0
 21
0.5
 31
0.0
  0
LINE
  5
3DC
330
18
100
AcDbEntity
  8
SK3
100
AcDbLine
 10
-25.09999999999999
 20
-0.5
 30
0.0
 11
0.0
 21
-0.5
 31
0.0
  0
ARC
  5
3DD
330
18
100
AcDbEntity
  8
1
100
AcDbCircle
 10
47.42495676251301
 20
-11.96123787962398
 30
0.0
 40
19.32360611756697
100
AcDbArc
 50
148.2109624459223
 51
150.5394440026368
  0
ARC
  5
3DE
330
18
100
AcDbEntity
  8
1
100
AcDbCircle
 10
22.72567971231053
 20
5.811116808825979
 30
0.0
 40
10.72472194475086
100
AcDbArc
 50
317.2414717115965
 51
320.4904243177328
  0
LINE
  5
3DF
330
18
100
AcDbEntity
  8
1
100
AcDbLine
 10
30.6
 20
2.973959538877641
 30
0.0
 11
30.6
 21
1.907615871885002
 31
0.0
  0
LINE
  5
3E0
330
18
100
AcDbEntity
  8
1
100
AcDbLine
 10
30.6
 20
1.712048250087134
 30
0.0
 11
30.6
 21
1.714113513604389
 31
0.0
  0
LINE
  5
3E1
330
18
100
AcDbEntity
  8
1
100
AcDbLine
 10
23.0
 20
2.991530920310037
 30
0.0
 11
23.0
 21
0.4514222755794697
 31
0.0
  0
LINE
  5
3E2
330
18
100
AcDbEntity
  8
1
100
AcDbLine
 10
23.00000000000001
 20
0.4514222755794706
 30
0.0
 11
30.59999999999999
 21
-1.828554791709194
 31
0.0
  0
LINE
  5
3E3
330
18
100
AcDbEntity
  8
1
100
AcDbLine
 10
30.6
 20
-1.47000388758082
 30
0.0
 11
30.6
 21
-1.828554791709193
 31
0.0
  0
LINE
  5
3E4
330
18
100
AcDbEntity
  8
1
100
AcDbLine
 10
31.0
 20
-0.751596952227944
 30
0.0
 11
31.00000000000001
 21
1.241759372119504
 31
0.0
  0
LINE
  5
3E5
330
18
100
AcDbEntity
  8
1
100
AcDbLine
 10
30.6
 20
1.712048240209998
 30
0.0
 11
30.6
 21
1.714113513604659
 31
0.0
  0
LINE
  5
3E6
330
18
100
AcDbEntity
  8
1
100
AcDbLine
 10
30.59999999999999
 20
1.714113513604659
 30
0.0
 11
30.59999999999999
 21
1.907615872082054
 31
0.0
  0
LINE
  5
3E7
330
18
100
AcDbEntity
  8
1
100
AcDbLine
 10
23.00000000000001
 20
2.991530920310036
 30
0.0
 11
24.89999997733759
 21
2.88581834131183
 31
0.0
  0
LINE
  5
3E8
330
18
100
AcDbEntity
  8
1
100
AcDbLine
 10
24.89999997733759
 20
2.88581834131183
 30
0.0
 11
26.80000006151579
 21
2.663186444991714
 31
0.0
  0
LINE
  5
3E9
330
18
100
AcDbEntity
  8
1
100
AcDbLine
 10
26.80000006151579
 20
2.663186444991714
 30
0.0
 11
28.7000000509975
 21
2.332655087359694
 31
0.0
  0
LINE
  5
3EA
330
18
100
AcDbEntity
  8
1
100
AcDbLine
 10
28.7000000509975
 20
2.332655087359694
 30
0.0
 11
30.59999999999999
 21
1.907615871289829
 31
0.0
  0
ARC
  5
3EB
330
18
100
AcDbEntity
  8
1
100
AcDbCircle
 10
378.2832211161031
 20
205.3715319293311
 30
0.0
 40
402.5386953667345
100
AcDbArc
 50
210.2624266534037
 51
210.3752218180894
  0
LINE
  5
3EC
330
18
100
AcDbEntity
  8
1
100
AcDbLine
 10
30.6
 20
1.712048250087133
 30
0.0
 11
30.64963327591372
 21
1.664877667826395
 31
0.0
  0
LINE
  5
3ED
330
18
100
AcDbEntity
  8
1
100
AcDbLine
 10
30.64963327591372
 20
1.664877667826395
 30
0.0
 11
30.74965251287005
 21
1.559587847289305
 31
0.0
  0
LINE
  5
3EE
330
18
100
AcDbEntity
  8
1
100
AcDbLine
 10
30.74965251287005
 20
1.559587847289305
 30
0.0
 11
30.85010100304089
 21
1.441105713273831
 31
0.0
  0
LINE
  5
3EF
330
18
100
AcDbEntity
  8
1
100
AcDbLine
 10
30.85010100304089
 20
1.441105713273831
 30
0.0
 11
31.00000000000001
 21
1.241759372119504
 31
0.0
  0
ARC
  5
3F0
330
18
100
AcDbEntity
  8
1
100
AcDbCircle
 10
29.35674662329444
 20
-26.68467335359365
 30
0.0
 40
29.68467429643589
100
AcDbArc
 50
87.59963676345946
 51
89.99857765868737
  0
LINE
  5
3F1
330
18
100
AcDbEntity
  8
1
100
AcDbLine
 10
29.35748353162576
 20
3.0
 30
0.0
 11
0.0000000000000018
 21
3.0
 31
0.0
  0
LINE
  5
3F2
330
18
100
AcDbEntity
  8
1
100
AcDbLine
 10
30.6
 20
-1.828554791709196
 30
0.0
 11
30.6
 21
-2.9589890409484
 31
0.0
  0
LINE
  5
3F3
330
18
100
AcDbEntity
  8
1
100
AcDbLine
 10
22.99999999999999
 20
-1.690847659808758
 30
0.0
 11
22.99999999999999
 21
-3.0
 31
0.0
  0
ARC
  5
3F4
330
18
100
AcDbEntity
  8
1
100
AcDbCircle
 10
18.91686423197505
 20
32.11704842803307
 30
0.0
 40
35.14929166035539
100
AcDbArc
 50
276.6708687604083
 51
281.3337626773811
  0
LINE
  5
3F5
330
18
100
AcDbEntity
  8
1
100
AcDbLine
 10
23.00000000000001
 20
-1.690847659808755
 30
0.0
 11
24.89999997055685
 21
-2.152866474425648
 31
0.0
  0
LINE
  5
3F6
330
18
100
AcDbEntity
  8
1
100
AcDbLine
 10
24.89999997055685
 20
-2.152866474425648
 30
0.0
 11
26.80000005475694
 21
-2.527661140950706
 31
0.0
  0
LINE
  5
3F7
330
18
100
AcDbEntity
  8
1
100
AcDbLine
 10
26.80000005475694
 20
-2.527661140950706
 30
0.0
 11
28.70000004757023
 21
-2.800047280918401
 31
0.0
  0
LINE
  5
3F8
330
18
100
AcDbEntity
  8
1
100
AcDbLine
 10
28.70000004757023
 20
-2.800047280918401
 30
0.0
 11
30.6
 21
-2.958989040819413
 31
0.0
  0
LINE
  5
3F9
330
18
100
AcDbEntity
  8
1
100
AcDbLine
 10
31.0
 20
1.241759372119504
 30
0.0
 11
31.0
 21
1.823507562837722
 31
0.0
  0
LINE
  5
3FA
330
18
100
AcDbEntity
  8
1
100
AcDbLine
 10
31.0
 20
-1.012029354243061
 30
0.0
 11
31.0
 21
-0.7515969522279438
 31
0.0
  0
LINE
  5
3FB
330
18
100
AcDbEntity
  8
1
100
AcDbLine
 10
31.00000000000001
 20
-1.781683420812063
 30
0.0
 11
31.0
 21
-1.012029354243062
 31
0.0
  0
LINE
  5
3FC
330
18
100
AcDbEntity
  8
1
100
AcDbLine
 10
-0.0000000000000071
 20
-3.0
 30
0.0
 11
22.99999999999999
 21
-3.0
 31
0.0
  0
LINE
  5
3FD
330
18
100
AcDbEntity
  8
1
 62
     1
100
AcDbLine
 10
43.37205913666126
 20
2.471605027654142
 30
0.0
 11
43.43165487113659
 21
2.465172180447861
 31
0.0
  0
LINE
  5
3FE
330
18
100
AcDbEntity
  8
1
 62
     1
100
AcDbLine
 10
32.98845298923241
 20
-2.500000000000002
 30
0.0
 11
32.90350692820588
 21
-2.352869174998997
 31
0.0
  0
LINE
  5
3FF
330
18
100
AcDbEntity
  8
1
 62
     1
100
AcDbLine
 10
35.38845298923242
 20
-2.500000000000003
 30
0.0
 11
35.0
 21
-1.82718
 31
0.0
  0
LINE
  5
400
330
18
100
AcDbEntity
  8
1
 62
     1
100
AcDbLine
 10
39.38845298923242
 20
-2.500000000000003
 30
0.0
 11
39.0
 21
-1.82718
 31
0.0
  0
LINE
  5
401
330
18
100
AcDbEntity
  8
1
 62
     1
100
AcDbLine
 10
39.0
 20
-1.82718
 30
0.0
 11
38.61154701076759
 21
-2.500000000000003
 31
0.0
  0
LINE
  5
402
330
18
100
AcDbEntity
  8
1
 62
     1
100
AcDbLine
 10
36.18845298923242
 20
-2.500000000000003
 30
0.0
 11
35.8
 21
-1.82718
 31
0.0
  0
LINE
  5
403
330
18
100
AcDbEntity
  8
1
 62
     1
100
AcDbLine
 10
46.84433306953483
 20
-0.4387098732871461
 30
0.0
 11
46.38433408003628
 21
-0.3582931013761657
 31
0.0
  0
LINE
  5
404
330
18
100
AcDbEntity
  8
1
 62
     1
100
AcDbLine
 10
46.84433306953483
 20
-1.687649801284316
 30
0.0
 11
46.38433408003628
 21
-1.667021956782464
 31
0.0
  0
LINE
  5
405
330
18
100
AcDbEntity
  8
1
 62
     1
100
AcDbLine
 10
46.84433306953483
 20
-0.4387098732875552
 30
0.0
 11
46.84433306953483
 21
-1.687649801284316
 31
0.0
  0
LINE
  5
406
330
18
100
AcDbEntity
  8
1
 62
     1
100
AcDbLine
 10
45.99116351993528
 20
-0.2852233760070786
 30
0.0
 11
45.63126534419253
 21
-0.2149030342616939
 31
0.0
  0
LINE
  5
407
330
18
100
AcDbEntity
  8
1
 62
     1
100
AcDbLine
 10
45.99116351993528
 20
-1.645033061138458
 30
0.0
 11
45.63126534419255
 21
-1.621412125426504
 31
0.0
  0
LINE
  5
408
330
18
100
AcDbEntity
  8
1
 62
     1
100
AcDbLine
 10
45.99116351993528
 20
-0.2852233760070783
 30
0.0
 11
45.99116351993528
 21
-1.645033061138454
 31
0.0
  0
LINE
  5
409
330
18
100
AcDbEntity
  8
1
 62
     1
100
AcDbLine
 10
45.13799397033571
 20
-0.1133212048287969
 30
0.0
 11
44.87819660832987
 21
-0.0574619456757344
 31
0.0
  0
LINE
  5
40A
330
18
100
AcDbEntity
  8
1
 62
     1
100
AcDbLine
 10
45.13799397033571
 20
-1.583669430139285
 30
0.0
 11
44.87819660799577
 21
-1.561321673816625
 31
0.0
  0
LINE
  5
40B
330
18
100
AcDbEntity
  8
1
 62
     1
100
AcDbLine
 10
44.28482442073616
 20
0.0760067030728543
 30
0.0
 11
44.12512787250502
 21
0.1132838728412542
 31
0.0
  0
LINE
  5
40C
330
18
100
AcDbEntity
  8
1
 62
     1
100
AcDbLine
 10
44.12512787250501
 20
0.1132838728412986
 30
0.0
 11
44.12512787250502
 21
-1.487079015227807
 31
0.0
  0
LINE
  5
40D
330
18
100
AcDbEntity
  8
1
 62
     1
100
AcDbLine
 10
44.28482442073616
 20
-1.503985853870344
 30
0.0
 11
44.12512787250503
 21
-1.487079015227811
 31
0.0
  0
LINE
  5
40E
330
18
100
AcDbEntity
  8
1
 62
     1
100
AcDbLine
 10
44.28482442073616
 20
0.0760067030728729
 30
0.0
 11
44.28482442073616
 21
-1.503985853870344
 31
0.0
  0
LINE
  5
40F
330
18
100
AcDbEntity
  8
1
 62
     1
100
AcDbLine
 10
43.4316548711366
 20
0.2815044544830853
 30
0.0
 11
43.37205913666126
 21
0.2964254641334658
 31
0.0
  0
LINE
  5
410
330
18
100
AcDbEntity
  8
1
 62
     1
100
AcDbLine
 10
46.2
 20
-1.477254936477808
 30
0.0
 11
46.36498790461424
 21
-1.635753970542221
 31
0.0
  0
ARC
  5
411
330
18
100
AcDbEntity
  8
1
 62
     1
100
AcDbCircle
 10
60.87160289635646
 20
-13.49347852332292
 30
0.0
 40
18.96432055806187
100
AcDbArc
 50
140.6821011589092
 51
141.6887361586572
  0
ARC
  5
412
330
18
100
AcDbEntity
  8
1
 62
     1
100
AcDbCircle
 10
65.40474273763704
 20
-16.67798799282693
 30
0.0
 40
25.07286968881929
100
AcDbArc
 50
142.9265998197859
 51
143.9315228284654
  0
ARC
  5
413
330
18
100
AcDbEntity
  8
1
 62
     1
100
AcDbCircle
 10
51.85349054963793
 20
4.181426272069197
 30
0.0
 40
8.63986567775731
100
AcDbArc
 50
221.673708877507
 51
223.9309545159229
  0
LINE
  5
414
330
18
100
AcDbEntity
  8
1
 62
     1
100
AcDbLine
 10
41.78845298923243
 20
0.7050562003300687
 30
0.0
 11
41.78845298923243
 21
-1.05931402921523
 31
0.0
  0
LINE
  5
415
330
18
100
AcDbEntity
  8
1
 62
     1
100
AcDbLine
 10
39.38845298923241
 20
1.286596198103296
 30
0.0
 11
39.38845298923242
 21
-0.4546311545270101
 31
0.0
  0
LINE
  5
416
330
18
100
AcDbEntity
  8
1
 62
     1
100
AcDbLine
 10
37.01154701076759
 20
1.780837467696252
 30
0.0
 11
37.01154701076759
 21
0.1732699537479329
 31
0.0
  0
LINE
  5
417
330
18
100
AcDbEntity
  8
1
 62
     1
100
AcDbLine
 10
35.41154701076759
 20
2.05171302396957
 30
0.0
 11
35.41154701076759
 21
0.592200136078733
 31
0.0
  0
LINE
  5
418
330
18
100
AcDbEntity
  8
1
 62
     1
100
AcDbLine
 10
33.81154701076758
 20
2.26358256776568
 30
0.0
 11
33.81154701076759
 21
0.9940986577362776
 31
0.0
  0
LINE
  5
419
330
18
100
AcDbEntity
  8
1
 62
     1
100
AcDbLine
 10
32.18845298923242
 20
2.411971911372366
 30
0.0
 11
32.18845298923242
 21
1.372533025385887
 31
0.0
  0
LINE
  5
41A
330
18
100
AcDbEntity
  8
1
 62
     1
100
AcDbLine
 10
31.38845298923241
 20
2.459042226929797
 30
0.0
 11
31.38845298923241
 21
1.544767466443106
 31
0.0
  0
ARC
  5
41B
330
18
100
AcDbEntity
  8
1
 62
     1
100
AcDbCircle
 10
202.3944824040009
 20
-97.62351979820293
 30
0.0
 40
187.3463627624024
100
AcDbArc
 50
149.2426947830141
 51
149.475816347757
  0
ARC
  5
41C
330
18
100
AcDbEntity
  8
1
 62
     1
100
AcDbCircle
 10
53.03800916185188
 20
5.13701980680114
 30
0.0
 40
10.82113733932404
100
AcDbArc
 50
218.7603884070819
 51
221.0564708982113
  0
ARC
  5
41D
330
18
100
AcDbEntity
  8
1
 62
     1
100
AcDbCircle
 10
56.8564798175564
 20
7.728544758644862
 30
0.0
 40
16.78884217951243
100
AcDbArc
 50
214.3771594580838
 51
216.5653849621888
  0
ARC
  5
41E
330
18
100
AcDbEntity
  8
1
 62
     1
100
AcDbCircle
 10
96.57572495133309
 20
-35.86063988817458
 30
0.0
 40
63.51233654813139
100
AcDbArc
 50
147.5166889259529
 51
148.1752052963724
  0
ARC
  5
41F
330
18
100
AcDbEntity
  8
1
 62
     1
100
AcDbCircle
 10
81.2354586018393
 20
-26.67635540097115
 30
0.0
 40
45.00226524858952
100
AcDbArc
 50
146.2899481376825
 51
147.1445881566669
  0
ARC
  5
420
330
18
100
AcDbEntity
  8
1
 62
     1
100
AcDbCircle
 10
54.67467234485532
 20
6.304082245240149
 30
0.0
 40
13.50304139950339
100
AcDbArc
 50
216.3559443591402
 51
218.6228258021305
  0
ARC
  5
421
330
18
100
AcDbEntity
  8
1
 62
     1
100
AcDbCircle
 10
71.83590648589157
 20
-20.86717896729483
 30
0.0
 40
33.34015595669986
100
AcDbArc
 50
144.7766241525532
 51
145.7269614314688
  0
ARC
  5
422
330
18
100
AcDbEntity
  8
1
 62
     1
100
AcDbCircle
 10
63.28583942393861
 20
11.56565069362597
 30
0.0
 40
25.65164969255469
100
AcDbArc
 50
211.4391800067732
 51
213.0651738409854
  0
ARC
  5
423
330
18
100
AcDbEntity
  8
1
 62
     1
100
AcDbCircle
 10
125.9406747382733
 20
-53.12025984612153
 30
0.0
 40
98.22113026071312
100
AcDbArc
 50
148.4925931982137
 51
148.9289362494397
  0
ARC
  5
424
330
18
100
AcDbEntity
  8
1
 62
     1
100
AcDbCircle
 10
59.68515149067998
 20
9.460443108393982
 30
0.0
 40
20.79136697058177
100
AcDbArc
 50
212.7561008752989
 51
214.6845257682021
  0
ARC
  5
425
330
18
100
AcDbEntity
  8
1
 62
     1
100
AcDbCircle
 10
93.35364965886367
 20
28.20200582752576
 30
0.0
 40
62.77771207029464
100
AcDbArc
 50
208.5314931153707
 51
209.2651762968875
  0
LINE
  5
426
330
18
100
AcDbEntity
  8
1
 62
     1
100
AcDbLine
 10
38.58845298923242
 20
-2.500000000000015
 30
0.0
 11
38.2
 21
-1.82718
 31
0.0
  0
LINE
  5
427
330
18
100
AcDbEntity
  8
1
 62
     1
100
AcDbLine
 10
38.58845298923242
 20
-2.487036308668027
 30
0.0
 11
38.58845298923242
 21
-2.5
 31
0.0
  0
LINE
  5
428
330
18
100
AcDbEntity
  8
1
 62
     1
100
AcDbLine
 10
38.61154701076759
 20
-2.487651967362367
 30
0.0
 11
38.99999999999999
 21
-1.810595118022663
 31
0.0
  0
ARC
  5
429
330
18
100
AcDbEntity
  8
1
 62
     1
100
AcDbCircle
 10
81.91423926755665
 20
21.93042117995964
 30
0.0
 40
49.04353443048632
100
AcDbArc
 50
208.9522468374784
 51
209.8763507619582
  0
LINE
  5
42A
330
18
100
AcDbEntity
  8
1
 62
     1
100
AcDbLine
 10
39.0
 20
-1.82718
 30
0.0
 11
39.0
 21
-1.827176147545387
 31
0.0
  0
LINE
  5
42B
330
18
100
AcDbEntity
  8
1
 62
     1
100
AcDbLine
 10
39.0
 20
-1.827176147545387
 30
0.0
 11
39.0
 21
-1.826051679735948
 31
0.0
  0
LINE
  5
42C
330
18
100
AcDbEntity
  8
1
 62
     1
100
AcDbLine
 10
39.0
 20
-1.826051679735948
 30
0.0
 11
39.0
 21
-1.810595118022608
 31
0.0
  0
LINE
  5
42D
330
18
100
AcDbEntity
  8
1
 62
     1
100
AcDbLine
 10
39.38845298923242
 20
-2.499639303476341
 30
0.0
 11
39.38845298923242
 21
-2.499999999994625
 31
0.0
  0
ARC
  5
42E
330
18
100
AcDbEntity
  8
1
 62
     1
100
AcDbCircle
 10
67.88892321092244
 20
14.17517438083589
 30
0.0
 40
31.63424083174002
100
AcDbArc
 50
210.385818891676
 51
211.7492750471467
  0
LINE
  5
42F
330
18
100
AcDbEntity
  8
1
 62
     1
100
AcDbLine
 10
40.2115470107676
 20
-2.493814680761667
 30
0.0
 11
40.59999999999998
 21
-1.826064008649726
 31
0.0
  0
LINE
  5
430
330
18
100
AcDbEntity
  8
1
 62
     1
100
AcDbLine
 10
39.80000000000001
 20
-1.824901762376902
 30
0.0
 11
39.94489932265753
 21
-2.078152871808949
 31
0.0
  0
LINE
  5
431
330
18
100
AcDbEntity
  8
1
 62
     1
100
AcDbLine
 10
39.94489932265753
 20
-2.078152871808954
 30
0.0
 11
39.8
 21
-1.82718
 31
0.0
  0
LINE
  5
432
330
18
100
AcDbEntity
  8
1
 62
     1
100
AcDbLine
 10
39.94489932265753
 20
-2.078152871808949
 30
0.0
 11
40.18845298923242
 21
-2.494237903433052
 31
0.0
  0
LINE
  5
433
330
18
100
AcDbEntity
  8
1
 62
     1
100
AcDbLine
 10
39.41154701076758
 20
-2.499735868368544
 30
0.0
 11
39.80000000000001
 21
-1.824901762376902
 31
0.0
  0
LINE
  5
434
330
18
100
AcDbEntity
  8
1
 62
     1
100
AcDbLine
 10
39.41154701076758
 20
-2.49973586836854
 30
0.0
 11
39.41154701076759
 21
-2.499999999996064
 31
0.0
  0
LINE
  5
435
330
18
100
AcDbEntity
  8
1
 62
     1
100
AcDbLine
 10
39.8
 20
-1.82718
 30
0.0
 11
39.41154701076759
 21
-2.500000000000003
 31
0.0
  0
LINE
  5
436
330
18
100
AcDbEntity
  8
1
 62
     1
100
AcDbLine
 10
39.8
 20
-1.82718
 30
0.0
 11
39.80000000000002
 21
-1.824901762376893
 31
0.0
  0
ARC
  5
437
330
18
100
AcDbEntity
  8
1
 62
     1
100
AcDbCircle
 10
-271.0139286978886
 20
-171.1528874453183
 30
0.0
 40
349.2146689264786
100
AcDbArc
 50
28.94161192558549
 51
29.07305161588919
  0
LINE
  5
438
330
18
100
AcDbEntity
  8
1
 62
     1
100
AcDbLine
 10
34.58845298923242
 20
-2.500000000000002
 30
0.0
 11
34.2
 21
-1.82718
 31
0.0
  0
LINE
  5
439
330
18
100
AcDbEntity
  8
1
 62
     1
100
AcDbLine
 10
34.58845298923242
 20
-2.161608898757848
 30
0.0
 11
34.58845298923242
 21
-2.5
 31
0.0
  0
ARC
  5
43A
330
18
100
AcDbEntity
  8
1
 62
     1
100
AcDbCircle
 10
8.43603027933094
 20
14.7759838822021
 30
0.0
 40
31.17921542119809
100
AcDbArc
 50
327.0892565853807
 51
328.4274270730807
  0
LINE
  5
43B
330
18
100
AcDbEntity
  8
1
 62
     1
100
AcDbLine
 10
34.61154701076759
 20
-2.164680405876051
 30
0.0
 11
34.61154701076759
 21
-2.5
 31
0.0
  0
LINE
  5
43C
330
18
100
AcDbEntity
  8
1
 62
     1
100
AcDbLine
 10
35.0
 20
-1.82718
 30
0.0
 11
34.61154701076759
 21
-2.500000000000003
 31
0.0
  0
LINE
  5
43D
330
18
100
AcDbEntity
  8
1
 62
     1
100
AcDbLine
 10
35.0
 20
-1.548755813107529
 30
0.0
 11
35.38845298923242
 21
-2.260320855018283
 31
0.0
  0
LINE
  5
43E
330
18
100
AcDbEntity
  8
1
 62
     1
100
AcDbLine
 10
35.0
 20
-1.82718
 30
0.0
 11
35.0
 21
-1.827121037441169
 31
0.0
  0
LINE
  5
43F
330
18
100
AcDbEntity
  8
1
 62
     1
100
AcDbLine
 10
35.0
 20
-1.827121037441169
 30
0.0
 11
35.0
 21
-1.809282788447234
 31
0.0
  0
LINE
  5
440
330
18
100
AcDbEntity
  8
1
 62
     1
100
AcDbLine
 10
35.0
 20
-1.809282788447234
 30
0.0
 11
35.0
 21
-1.548755813107485
 31
0.0
  0
LINE
  5
441
330
18
100
AcDbEntity
  8
1
 62
     1
100
AcDbLine
 10
37.81154701076759
 20
-2.457650025341575
 30
0.0
 11
38.2
 21
-1.783247096177202
 31
0.0
  0
LINE
  5
442
330
18
100
AcDbEntity
  8
1
 62
     1
100
AcDbLine
 10
38.2
 20
-1.82718
 30
0.0
 11
37.81154701076759
 21
-2.500000000000003
 31
0.0
  0
LINE
  5
443
330
18
100
AcDbEntity
  8
1
 62
     1
100
AcDbLine
 10
38.2
 20
-1.82718
 30
0.0
 11
38.2
 21
-1.827170058150179
 31
0.0
  0
LINE
  5
444
330
18
100
AcDbEntity
  8
1
 62
     1
100
AcDbLine
 10
38.2
 20
-1.827170058150179
 30
0.0
 11
38.2
 21
-1.824245295219484
 31
0.0
  0
LINE
  5
445
330
18
100
AcDbEntity
  8
1
 62
     1
100
AcDbLine
 10
38.2
 20
-1.824245295219484
 30
0.0
 11
38.2
 21
-1.783247096177116
 31
0.0
  0
LINE
  5
446
330
18
100
AcDbEntity
  8
1
 62
     1
100
AcDbLine
 10
37.39999999999999
 20
-1.743054711780733
 30
0.0
 11
37.78845298923241
 21
-2.456519709061751
 31
0.0
  0
LINE
  5
447
330
18
100
AcDbEntity
  8
1
 62
     1
100
AcDbLine
 10
37.4
 20
-1.82718
 30
0.0
 11
37.4
 21
-1.827161381352734
 31
0.0
  0
LINE
  5
448
330
18
100
AcDbEntity
  8
1
 62
     1
100
AcDbLine
 10
37.4
 20
-1.827161381352734
 30
0.0
 11
37.39999999999999
 21
-1.821642912784853
 31
0.0
  0
LINE
  5
449
330
18
100
AcDbEntity
  8
1
 62
     1
100
AcDbLine
 10
37.39999999999999
 20
-1.821642912784853
 30
0.0
 11
37.40000000000001
 21
-1.743054711780732
 31
0.0
  0
LINE
  5
44A
330
18
100
AcDbEntity
  8
1
 62
     1
100
AcDbLine
 10
37.78845298923241
 20
-2.49999999999999
 30
0.0
 11
37.4
 21
-1.82718
 31
0.0
  0
LINE
  5
44B
330
18
100
AcDbEntity
  8
1
 62
     1
100
AcDbLine
 10
37.7884529892324
 20
-2.456519709052845
 30
0.0
 11
37.78845298923241
 21
-2.5
 31
0.0
  0
ARC
  5
44C
330
18
100
AcDbEntity
  8
1
 62
     1
100
AcDbCircle
 10
-18.36641456308158
 20
30.29762375817233
 30
0.0
 40
64.31565070609531
100
AcDbArc
 50
329.4328688845335
 51
330.1204129700263
  0
LINE
  5
44D
330
18
100
AcDbEntity
  8
1
 62
     1
100
AcDbLine
 10
37.01154701076759
 20
-2.409946106170486
 30
0.0
 11
37.01154701076759
 21
-2.5
 31
0.0
  0
LINE
  5
44E
330
18
100
AcDbEntity
  8
1
 62
     1
100
AcDbLine
 10
37.4
 20
-1.82718
 30
0.0
 11
37.01154701076759
 21
-2.500000000000003
 31
0.0
  0
LINE
  5
44F
330
18
100
AcDbEntity
  8
1
 62
     1
100
AcDbLine
 10
36.59999999999999
 20
-1.690307505034374
 30
0.0
 11
36.98845298923242
 21
-2.408309276526296
 31
0.0
  0
LINE
  5
450
330
18
100
AcDbEntity
  8
1
 62
     1
100
AcDbLine
 10
36.6
 20
-1.82718
 30
0.0
 11
36.59999999999999
 21
-1.827150260277469
 31
0.0
  0
LINE
  5
451
330
18
100
AcDbEntity
  8
1
 62
     1
100
AcDbLine
 10
36.59999999999999
 20
-1.827150260277469
 30
0.0
 11
36.59999999999999
 21
-1.818272465446405
 31
0.0
  0
LINE
  5
452
330
18
100
AcDbEntity
  8
1
 62
     1
100
AcDbLine
 10
36.59999999999999
 20
-1.818272465446405
 30
0.0
 11
36.59999999999999
 21
-1.690307505034254
 31
0.0
  0
LINE
  5
453
330
18
100
AcDbEntity
  8
1
 62
     1
100
AcDbLine
 10
36.98845298923241
 20
-2.49999999999999
 30
0.0
 11
36.6
 21
-1.82718
 31
0.0
  0
LINE
  5
454
330
18
100
AcDbEntity
  8
1
 62
     1
100
AcDbLine
 10
36.98845298923241
 20
-2.408309276469494
 30
0.0
 11
36.98845298923241
 21
-2.5
 31
0.0
  0
ARC
  5
455
330
18
100
AcDbEntity
  8
1
 62
     1
100
AcDbCircle
 10
-5.92269402391873
 20
23.10504553062394
 30
0.0
 40
49.22390243640571
100
AcDbArc
 50
328.8671791709734
 51
329.7531664627272
  0
LINE
  5
456
330
18
100
AcDbEntity
  8
1
 62
     1
100
AcDbLine
 10
36.21154701076759
 20
-2.344883794131667
 30
0.0
 11
36.21154701076759
 21
-2.5
 31
0.0
  0
LINE
  5
457
330
18
100
AcDbEntity
  8
1
 62
     1
100
AcDbLine
 10
36.6
 20
-1.82718
 30
0.0
 11
36.21154701076759
 21
-2.500000000000003
 31
0.0
  0
LINE
  5
458
330
18
100
AcDbEntity
  8
1
 62
     1
100
AcDbLine
 10
35.8
 20
-1.625385350911938
 30
0.0
 11
36.18845298923242
 21
-2.342752238273406
 31
0.0
  0
LINE
  5
459
330
18
100
AcDbEntity
  8
1
 62
     1
100
AcDbLine
 10
36.18845298923242
 20
-2.342752238078065
 30
0.0
 11
36.18845298923242
 21
-2.5
 31
0.0
  0
ARC
  5
45A
330
18
100
AcDbEntity
  8
1
 62
     1
100
AcDbCircle
 10
2.425629781395187
 20
18.27465933300382
 30
0.0
 40
38.85695498002147
100
AcDbArc
 50
328.0929071714133
 51
329.1937594989334
  0
LINE
  5
45B
330
18
100
AcDbEntity
  8
1
 62
     1
100
AcDbLine
 10
35.41154701076759
 20
-2.262931792820688
 30
0.0
 11
35.41154701076759
 21
-2.5
 31
0.0
  0
LINE
  5
45C
330
18
100
AcDbEntity
  8
1
 62
     1
100
AcDbLine
 10
35.8
 20
-1.82718
 30
0.0
 11
35.41154701076759
 21
-2.500000000000002
 31
0.0
  0
LINE
  5
45D
330
18
100
AcDbEntity
  8
1
 62
     1
100
AcDbLine
 10
35.8
 20
-1.82718
 30
0.0
 11
35.8
 21
-1.82713679299069
 31
0.0
  0
LINE
  5
45E
330
18
100
AcDbEntity
  8
1
 62
     1
100
AcDbLine
 10
35.8
 20
-1.82713679299069
 30
0.0
 11
35.8
 21
-1.814150464563278
 31
0.0
  0
LINE
  5
45F
330
18
100
AcDbEntity
  8
1
 62
     1
100
AcDbLine
 10
35.8
 20
-1.814150464563278
 30
0.0
 11
35.8
 21
-1.625385350911934
 31
0.0
  0
ARC
  5
460
330
18
100
AcDbEntity
  8
1
 62
     1
100
AcDbCircle
 10
11.90738987279428
 20
-12.92824947450196
 30
0.0
 40
22.10828112159834
100
AcDbArc
 50
28.21810617257395
 51
30.27705475083593
  0
ARC
  5
461
330
18
100
AcDbEntity
  8
1
 62
     1
100
AcDbCircle
 10
-3.08022528002012
 20
-23.22248714214111
 30
0.0
 40
40.67881445501722
100
AcDbArc
 50
32.07674005810929
 51
33.09272983928989
  0
ARC
  5
462
330
18
100
AcDbEntity
  8
1
 62
     1
100
AcDbCircle
 10
58.53539032294958
 20
-17.85375163488298
 30
0.0
 40
31.1800063614154
100
AcDbArc
 50
149.031686346775
 51
150.4483580205924
  0
LINE
  5
463
330
18
100
AcDbEntity
  8
1
 62
     1
100
AcDbLine
 10
31.8
 20
-1.809625335780415
 30
0.0
 11
31.8
 21
-1.137380913215036
 31
0.0
  0
ARC
  5
464
330
18
100
AcDbEntity
  8
1
 62
     1
100
AcDbCircle
 10
21.16583604718325
 20
6.944909929552062
 30
0.0
 40
13.35698533617514
100
AcDbArc
 50
320.0912855999998
 51
322.7640518487233
  0
ARC
  5
465
330
18
100
AcDbEntity
  8
1
 62
     1
100
AcDbCircle
 10
-8.275950375496187
 20
-24.92506374077065
 30
0.0
 40
46.26456686940116
100
AcDbArc
 50
28.99937447623368
 51
29.97595160735853
  0
ARC
  5
466
330
18
100
AcDbEntity
  8
1
 62
     1
100
AcDbCircle
 10
-16.46405412036288
 20
-30.95917919820752
 30
0.0
 40
56.7341002373434
100
AcDbArc
 50
30.95702016996528
 51
31.71143719769713
  0
ARC
  5
467
330
18
100
AcDbEntity
  8
1
 62
     1
100
AcDbCircle
 10
96.63144083749458
 20
-39.30951036476271
 30
0.0
 40
74.19665077516679
100
AcDbArc
 50
149.6546462237896
 51
150.2538172170562
  0
LINE
  5
468
330
18
100
AcDbEntity
  8
1
 62
     1
100
AcDbLine
 10
32.6
 20
-1.824532890607838
 30
0.0
 11
32.6
 21
-1.254540044715273
 31
0.0
  0
ARC
  5
469
330
18
100
AcDbEntity
  8
1
 62
     1
100
AcDbCircle
 10
19.102171942429
 20
8.32267867318456
 30
0.0
 40
16.55037617843715
100
AcDbArc
 50
322.3811770570798
 51
324.6428600435993
  0
LINE
  5
46A
330
18
100
AcDbEntity
  8
1
 62
     1
100
AcDbLine
 10
32.21154701076758
 20
-1.779761811219398
 30
0.0
 11
32.21154701076758
 21
-2.496201310686129
 31
0.0
  0
ARC
  5
46B
330
18
100
AcDbEntity
  8
1
 62
     1
100
AcDbCircle
 10
-253.9617061122411
 20
-166.6989418408884
 30
0.0
 40
330.6073154373946
100
AcDbArc
 50
29.80854444380355
 51
29.91414025917787
  0
LINE
  5
46C
330
18
100
AcDbEntity
  8
1
 62
     1
100
AcDbLine
 10
32.98845298923241
 20
-1.918299126365896
 30
0.0
 11
32.98845298923241
 21
-2.5
 31
0.0
  0
ARC
  5
46D
330
18
100
AcDbEntity
  8
1
 62
     1
100
AcDbCircle
 10
-39.64018707168105
 20
-43.98045027304114
 30
0.0
 40
83.92941832433527
100
AcDbArc
 50
30.07684873464131
 51
30.6018701466089
  0
ARC
  5
46E
330
18
100
AcDbEntity
  8
1
 62
     1
100
AcDbCircle
 10
16.41802006553617
 20
10.01268388473096
 30
0.0
 40
20.43983832610182
100
AcDbArc
 50
324.2743965656512
 51
326.1839224369488
  0
LINE
  5
46F
330
18
100
AcDbEntity
  8
1
 62
     1
100
AcDbLine
 10
33.01154701076759
 20
-1.922222226587141
 30
0.0
 11
33.01154701076759
 21
-2.5
 31
0.0
  0
LINE
  5
470
330
18
100
AcDbEntity
  8
1
 62
     1
100
AcDbLine
 10
33.4
 20
-1.82718
 30
0.0
 11
33.01154701076759
 21
-2.500000000000003
 31
0.0
  0
ARC
  5
471
330
18
100
AcDbEntity
  8
1
 62
     1
100
AcDbCircle
 10
-89.1368146386413
 20
-71.34371508269791
 30
0.0
 40
141.1120730415763
100
AcDbArc
 50
29.41116372774152
 51
29.73078534507149
  0
LINE
  5
472
330
18
100
AcDbEntity
  8
1
 62
     1
100
AcDbLine
 10
33.4
 20
-1.82718
 30
0.0
 11
33.4
 21
-1.827082711963814
 31
0.0
  0
LINE
  5
473
330
18
100
AcDbEntity
  8
1
 62
     1
100
AcDbLine
 10
33.4
 20
-1.827082711963814
 30
0.0
 11
33.4
 21
-1.797283307942335
 31
0.0
  0
LINE
  5
474
330
18
100
AcDbEntity
  8
1
 62
     1
100
AcDbLine
 10
33.4
 20
-1.797283307942335
 30
0.0
 11
33.4
 21
-1.362662915898977
 31
0.0
  0
LINE
  5
475
330
18
100
AcDbEntity
  8
1
 62
     1
100
AcDbLine
 10
33.78845298923243
 20
-2.500000000000015
 30
0.0
 11
33.4
 21
-1.82718
 31
0.0
  0
LINE
  5
476
330
18
100
AcDbEntity
  8
1
 62
     1
100
AcDbLine
 10
33.78845298923243
 20
-2.047327294910566
 30
0.0
 11
33.78845298923243
 21
-2.5
 31
0.0
  0
ARC
  5
477
330
18
100
AcDbEntity
  8
1
 62
     1
100
AcDbCircle
 10
12.95006078026638
 20
12.111480163392
 30
0.0
 40
25.21453218048401
100
AcDbArc
 50
325.8284428547515
 51
327.4334090792849
  0
LINE
  5
478
330
18
100
AcDbEntity
  8
1
 62
     1
100
AcDbLine
 10
33.81154701076759
 20
-2.050837239850492
 30
0.0
 11
33.81154701076759
 21
-2.5
 31
0.0
  0
LINE
  5
479
330
18
100
AcDbEntity
  8
1
 62
     1
100
AcDbLine
 10
34.2
 20
-1.82718
 30
0.0
 11
33.81154701076759
 21
-2.500000000000003
 31
0.0
  0
LINE
  5
47A
330
18
100
AcDbEntity
  8
1
 62
     1
100
AcDbLine
 10
34.2
 20
-1.82718
 30
0.0
 11
34.2
 21
-1.827103014877457
 31
0.0
  0
LINE
  5
47B
330
18
100
AcDbEntity
  8
1
 62
     1
100
AcDbLine
 10
34.2
 20
-1.827103014877457
 30
0.0
 11
34.2
 21
-1.803665155605112
 31
0.0
  0
LINE
  5
47C
330
18
100
AcDbEntity
  8
1
 62
     1
100
AcDbLine
 10
34.2
 20
-1.803665155605112
 30
0.0
 11
34.2
 21
-1.460970858066096
 31
0.0
  0
LINE
  5
47D
330
18
100
AcDbEntity
  8
1
 62
     1
100
AcDbLine
 10
46.84433306953482
 20
1.921468363943147
 30
0.0
 11
46.38433408003628
 21
2.004507503671238
 31
0.0
  0
LINE
  5
47E
330
18
100
AcDbEntity
  8
1
 62
     1
100
AcDbLine
 10
46.38433408003628
 20
2.146455843326847
 30
0.0
 11
46.84433306953483
 21
2.096802906912201
 31
0.0
  0
LINE
  5
47F
330
18
100
AcDbEntity
  8
1
 62
     1
100
AcDbLine
 10
46.38433408003628
 20
2.146455843326847
 30
0.0
 11
46.38433408003628
 21
2.146424852752229
 31
0.0
  0
LINE
  5
480
330
18
100
AcDbEntity
  8
1
 62
     1
100
AcDbLine
 10
46.38433408003628
 20
2.146424852752229
 30
0.0
 11
46.38433408003628
 21
2.137191844138835
 31
0.0
  0
LINE
  5
481
330
18
100
AcDbEntity
  8
1
 62
     1
100
AcDbLine
 10
46.38433408003628
 20
2.137191844138835
 30
0.0
 11
46.38433408003628
 21
2.004507503671237
 31
0.0
  0
LINE
  5
482
330
18
100
AcDbEntity
  8
1
 62
     1
100
AcDbLine
 10
45.99116351993526
 20
2.073054975125885
 30
0.0
 11
45.63126534419255
 21
2.133731633526879
 31
0.0
  0
LINE
  5
483
330
18
100
AcDbEntity
  8
1
 62
     1
100
AcDbLine
 10
45.63126534419253
 20
2.227743139408671
 30
0.0
 11
45.99116351993528
 21
2.188895225296115
 31
0.0
  0
LINE
  5
484
330
18
100
AcDbEntity
  8
1
 62
     1
100
AcDbLine
 10
45.63126534419253
 20
2.227743139408671
 30
0.0
 11
45.63126534419253
 21
2.227722266581185
 31
0.0
  0
LINE
  5
485
330
18
100
AcDbEntity
  8
1
 62
     1
100
AcDbLine
 10
45.63126534419253
 20
2.227722266581185
 30
0.0
 11
45.63126534419253
 21
2.221542647566956
 31
0.0
  0
LINE
  5
486
330
18
100
AcDbEntity
  8
1
 62
     1
100
AcDbLine
 10
45.63126534419253
 20
2.221542647566956
 30
0.0
 11
45.63126534419253
 21
2.133731633526879
 31
0.0
  0
LINE
  5
487
330
18
100
AcDbEntity
  8
1
 62
     1
100
AcDbLine
 10
45.13799397033571
 20
2.213513821918065
 30
0.0
 11
44.87819660798105
 21
2.253896094934546
 31
0.0
  0
LINE
  5
488
330
18
100
AcDbEntity
  8
1
 62
     1
100
AcDbLine
 10
44.87819660834877
 20
2.309030435490495
 30
0.0
 11
45.13799397033571
 21
2.280987543680031
 31
0.0
  0
LINE
  5
489
330
18
100
AcDbEntity
  8
1
 62
     1
100
AcDbLine
 10
44.28482442073616
 20
2.341694451536096
 30
0.0
 11
44.12512787250503
 21
2.364237241694381
 31
0.0
  0
LINE
  5
48A
330
18
100
AcDbEntity
  8
1
 62
     1
100
AcDbLine
 10
44.28482442073616
 20
2.373079862063946
 30
0.0
 11
44.28482442073616
 21
2.373072637307289
 31
0.0
  0
LINE
  5
48B
330
18
100
AcDbEntity
  8
1
 62
     1
100
AcDbLine
 10
44.28482442073616
 20
2.373072637307289
 30
0.0
 11
44.28482442073615
 21
2.370958283821579
 31
0.0
  0
LINE
  5
48C
330
18
100
AcDbEntity
  8
1
 62
     1
100
AcDbLine
 10
44.28482442073615
 20
2.370958283821579
 30
0.0
 11
44.28482442073615
 21
2.341694451536095
 31
0.0
  0
LINE
  5
48D
330
18
100
AcDbEntity
  8
1
 62
     1
100
AcDbLine
 10
44.125127872505
 20
2.390317731572319
 30
0.0
 11
44.28482442073614
 21
2.373079862063946
 31
0.0
  0
LINE
  5
48E
330
18
100
AcDbEntity
  8
1
 62
     1
100
AcDbLine
 10
44.12512787250502
 20
2.390317731572319
 30
0.0
 11
44.12512787250502
 21
2.39031169918756
 31
0.0
  0
LINE
  5
48F
330
18
100
AcDbEntity
  8
1
 62
     1
100
AcDbLine
 10
44.12512787250502
 20
2.39031169918756
 30
0.0
 11
44.12512787250501
 21
2.388548774656087
 31
0.0
  0
LINE
  5
490
330
18
100
AcDbEntity
  8
1
 62
     1
100
AcDbLine
 10
44.12512787250501
 20
2.388548774656087
 30
0.0
 11
44.12512787250502
 21
2.364237241694382
 31
0.0
  0
LINE
  5
491
330
18
100
AcDbEntity
  8
1
 62
     1
100
AcDbLine
 10
43.37205913666127
 20
2.471605027654142
 30
0.0
 11
43.37205913666126
 21
2.471603241362444
 31
0.0
  0
LINE
  5
492
330
18
100
AcDbEntity
  8
1
 62
     1
100
AcDbLine
 10
43.37205913666126
 20
2.471603241362444
 30
0.0
 11
43.37205913666127
 21
2.471084705872193
 31
0.0
  0
LINE
  5
493
330
18
100
AcDbEntity
  8
1
 62
     1
100
AcDbLine
 10
43.37205913666127
 20
2.471084705872193
 30
0.0
 11
43.37205913666127
 21
2.464064825767648
 31
0.0
  0
ARC
  5
494
330
18
100
AcDbEntity
  8
1
 62
     1
100
AcDbCircle
 10
41.83512779166733
 20
-4.93372291475258
 30
0.0
 40
6.056220101398421
100
AcDbArc
 50
51.18445057127265
 51
53.94014625616519
  0
LINE
  5
495
330
18
100
AcDbEntity
  8
1
 62
     1
100
AcDbLine
 10
45.40000000000001
 20
-1.286164867002457
 30
0.0
 11
45.40000000000001
 21
-0.0378607071851758
 31
0.0
  0
ARC
  5
496
330
18
100
AcDbEntity
  8
1
 62
     1
100
AcDbCircle
 10
42.84276118189026
 20
-3.294991481739148
 30
0.0
 40
3.251943693521645
100
AcDbArc
 50
30.97096046369001
 51
38.15123521382404
  0
LINE
  5
497
330
18
100
AcDbEntity
  8
1
 62
     1
100
AcDbLine
 10
45.63126534419253
 20
-0.2149030342616939
 30
0.0
 11
45.63126534419253
 21
-1.621412125426503
 31
0.0
  0
ARC
  5
498
330
18
100
AcDbEntity
  8
1
 62
     1
100
AcDbCircle
 10
44.47575310014633
 20
2.678459020816935
 30
0.0
 40
2.869251501118639
100
AcDbArc
 50
283.3445409614421
 51
288.7912332332564
  0
LINE
  5
499
330
18
100
AcDbEntity
  8
1
 62
     1
100
AcDbLine
 10
45.13799397033571
 20
-0.1133212048287976
 30
0.0
 11
45.13799397033571
 21
-1.583669430139286
 31
0.0
  0
ARC
  5
49A
330
18
100
AcDbEntity
  8
1
 62
     1
100
AcDbCircle
 10
47.5043898036502
 20
-3.401948174823839
 30
0.0
 40
2.984260005633909
100
AcDbArc
 50
134.8453148485615
 51
142.4622351345734
  0
ARC
  5
49B
330
18
100
AcDbEntity
  8
1
 62
     1
100
AcDbCircle
 10
44.88359871602922
 20
3.030325375932678
 30
0.0
 40
3.984806994807238
100
AcDbArc
 50
299.4755798174727
 51
302.080989228903
  0
ARC
  5
49C
330
18
100
AcDbEntity
  8
1
 62
     1
100
AcDbCircle
 10
50.57810276046533
 20
-4.422848834254747
 30
0.0
 40
4.628425678637917
100
AcDbArc
 50
140.6306990356321
 51
143.7750991374634
  0
ARC
  5
49D
330
18
100
AcDbEntity
  8
1
 62
     1
100
AcDbCircle
 10
44.75385138971007
 20
2.786889168466393
 30
0.0
 40
3.311921070647704
100
AcDbArc
 50
291.9374127972649
 51
295.890273148143
  0
ARC
  5
49E
330
18
100
AcDbEntity
  8
1
 62
     1
100
AcDbCircle
 10
48.94123588977283
 20
-3.862133120018648
 30
0.0
 40
3.690309772340026
100
AcDbArc
 50
137.9730733282504
 51
143.0736402248324
  0
LINE
  5
49F
330
18
100
AcDbEntity
  8
1
 62
     1
100
AcDbLine
 10
46.2
 20
-1.391579547335961
 30
0.0
 11
46.2
 21
-0.1926235472177046
 31
0.0
  0
ARC
  5
4A0
330
18
100
AcDbEntity
  8
1
 62
     1
100
AcDbCircle
 10
40.99476240144165
 20
-6.169495777174809
 30
0.0
 40
7.925749723625527
100
AcDbArc
 50
47.15576844299395
 51
48.9475047321192
  0
ARC
  5
4A1
330
18
100
AcDbEntity
  8
1
 62
     1
100
AcDbCircle
 10
43.12595167710003
 20
-3.64661582733247
 30
0.0
 40
3.812493029608961
100
AcDbArc
 50
31.28030620866675
 51
36.26273526616501
  0
LINE
  5
4A2
330
18
100
AcDbEntity
  8
1
 62
     1
100
AcDbLine
 10
46.38433408003628
 20
-0.3582931013761702
 30
0.0
 11
46.38433408003628
 21
-1.667021956782464
 31
0.0
  0
LINE
  5
4A3
330
18
100
AcDbEntity
  8
1
 62
     1
100
AcDbLine
 10
42.59928582294718
 20
2.5
 30
0.0
 11
42.61154701076759
 21
2.5
 31
0.0
  0
ARC
  5
4A4
330
18
100
AcDbEntity
  8
1
 62
     1
100
AcDbCircle
 10
41.889789705957
 20
-2.121082509692306
 30
0.0
 40
2.7116793413146
100
AcDbArc
 50
75.56210918640582
 51
83.43108494585393
  0
LINE
  5
4A5
330
18
100
AcDbEntity
  8
1
 62
     1
100
AcDbLine
 10
42.2
 20
-0.7804231540128074
 30
0.0
 11
42.2
 21
0.5727865476797644
 31
0.0
  0
LINE
  5
4A6
330
18
100
AcDbEntity
  8
1
 62
     1
100
AcDbLine
 10
42.2
 20
-0.7804231540128199
 30
0.0
 11
42.25009218674406
 21
-0.8226946363113752
 31
0.0
  0
LINE
  5
4A7
330
18
100
AcDbEntity
  8
1
 62
     1
100
AcDbLine
 10
42.25009218674406
 20
-0.8226946363113752
 30
0.0
 11
42.29995135662926
 21
-0.8700696816505296
 31
0.0
  0
LINE
  5
4A8
330
18
100
AcDbEntity
  8
1
 62
     1
100
AcDbLine
 10
42.29995135662926
 20
-0.8700696816505296
 30
0.0
 11
42.34945505448453
 21
-0.9223044807849181
 31
0.0
  0
LINE
  5
4A9
330
18
100
AcDbEntity
  8
1
 62
     1
100
AcDbLine
 10
42.34945505448453
 20
-0.9223044807849181
 30
0.0
 11
42.3985001676131
 21
-0.9791522026090769
 31
0.0
  0
LINE
  5
4AA
330
18
100
AcDbEntity
  8
1
 62
     1
100
AcDbLine
 10
42.3985001676131
 20
-0.9791522026090769
 30
0.0
 11
42.44699608964121
 21
-1.040358684663779
 31
0.0
  0
LINE
  5
4AB
330
18
100
AcDbEntity
  8
1
 62
     1
100
AcDbLine
 10
42.44699608964121
 20
-1.040358684663779
 30
0.0
 11
42.49486199664703
 21
-1.105660557852702
 31
0.0
  0
LINE
  5
4AC
330
18
100
AcDbEntity
  8
1
 62
     1
100
AcDbLine
 10
42.49486199664703
 20
-1.105660557852702
 30
0.0
 11
42.58845298923244
 21
-1.247510287220954
 31
0.0
  0
LINE
  5
4AD
330
18
100
AcDbEntity
  8
1
 62
     1
100
AcDbLine
 10
42.58845298923244
 20
0.4991397984851516
 30
0.0
 11
42.58845298923244
 21
-1.247510288733017
 31
0.0
  0
ARC
  5
4AE
330
18
100
AcDbEntity
  8
1
 62
     1
100
AcDbCircle
 10
42.99660057486653
 20
3.679519010005152
 30
0.0
 40
3.207292536364999
100
AcDbArc
 50
248.316082922466
 51
255.6185620154994
  0
LINE
  5
4AF
330
18
100
AcDbEntity
  8
1
 62
     1
100
AcDbLine
 10
41.81154701076759
 20
0.6991760220459966
 30
0.0
 11
41.8115470107676
 21
-1.064860412910921
 31
0.0
  0
LINE
  5
4B0
330
18
100
AcDbEntity
  8
1
 62
     1
100
AcDbLine
 10
41.81154701076758
 20
-1.064860412910942
 30
0.0
 11
41.85979593471475
 21
-1.016529074323011
 31
0.0
  0
LINE
  5
4B1
330
18
100
AcDbEntity
  8
1
 62
     1
100
AcDbLine
 10
41.85979593471475
 20
-1.016529074323011
 30
0.0
 11
41.90829298223974
 21
-0.9718818459100431
 31
0.0
  0
LINE
  5
4B2
330
18
100
AcDbEntity
  8
1
 62
     1
100
AcDbLine
 10
41.90829298223974
 20
-0.9718818459100431
 30
0.0
 11
41.95695671744942
 21
-0.9309129268761858
 31
0.0
  0
LINE
  5
4B3
330
18
100
AcDbEntity
  8
1
 62
     1
100
AcDbLine
 10
41.95695671744942
 20
-0.9309129268761858
 30
0.0
 11
42.00571500290753
 21
-0.8935954148413124
 31
0.0
  0
LINE
  5
4B4
330
18
100
AcDbEntity
  8
1
 62
     1
100
AcDbLine
 10
42.00571500290753
 20
-0.8935954148413124
 30
0.0
 11
42.05448276334029
 21
-0.8599140946450983
 31
0.0
  0
LINE
  5
4B5
330
18
100
AcDbEntity
  8
1
 62
     1
100
AcDbLine
 10
42.05448276334029
 20
-0.8599140946450983
 30
0.0
 11
42.1031832298812
 21
-0.8298378106086788
 31
0.0
  0
LINE
  5
4B6
330
18
100
AcDbEntity
  8
1
 62
     1
100
AcDbLine
 10
42.1031832298812
 20
-0.8298378106086788
 30
0.0
 11
42.15171990901798
 21
-0.8033495952002928
 31
0.0
  0
LINE
  5
4B7
330
18
100
AcDbEntity
  8
1
 62
     1
100
AcDbLine
 10
42.15171990901798
 20
-0.8033495952002928
 30
0.0
 11
42.2
 21
-0.7804231540128199
 31
0.0
  0
ARC
  5
4B8
330
18
100
AcDbEntity
  8
1
 62
     1
100
AcDbCircle
 10
41.51053426995405
 20
-1.823782468363556
 30
0.0
 40
2.544036343017471
100
AcDbArc
 50
83.72837721123582
 51
92.49019815281802
  0
LINE
  5
4B9
330
18
100
AcDbEntity
  8
1
 62
     1
100
AcDbLine
 10
41.4
 20
-0.6375238984078604
 30
0.0
 11
41.4
 21
0.7178461828500701
 31
0.0
  0
LINE
  5
4BA
330
18
100
AcDbEntity
  8
1
 62
     1
100
AcDbLine
 10
41.40000000000001
 20
-0.6375238984078604
 30
0.0
 11
41.42506422655104
 21
-0.6546803879397171
 31
0.0
  0
LINE
  5
4BB
330
18
100
AcDbEntity
  8
1
 62
     1
100
AcDbLine
 10
41.42506422655104
 20
-0.6546803879397171
 30
0.0
 11
41.45009219045031
 21
-0.6732007580168161
 31
0.0
  0
LINE
  5
4BC
330
18
100
AcDbEntity
  8
1
 62
     1
100
AcDbLine
 10
41.45009219045031
 20
-0.6732007580168161
 30
0.0
 11
41.4999513634859
 21
-0.7142105663985429
 31
0.0
  0
LINE
  5
4BD
330
18
100
AcDbEntity
  8
1
 62
     1
100
AcDbLine
 10
41.4999513634859
 20
-0.7142105663985429
 30
0.0
 11
41.5494550627716
 21
-0.7603288461503168
 31
0.0
  0
LINE
  5
4BE
330
18
100
AcDbEntity
  8
1
 62
     1
100
AcDbLine
 10
41.5494550627716
 20
-0.7603288461503168
 30
0.0
 11
41.59850017522026
 21
-0.8113274625386129
 31
0.0
  0
LINE
  5
4BF
330
18
100
AcDbEntity
  8
1
 62
     1
100
AcDbLine
 10
41.59850017522026
 20
-0.8113274625386129
 30
0.0
 11
41.64699609488449
 21
-0.8669705150034444
 31
0.0
  0
LINE
  5
4C0
330
18
100
AcDbEntity
  8
1
 62
     1
100
AcDbLine
 10
41.64699609488449
 20
-0.8669705150034444
 30
0.0
 11
41.69486199877772
 21
-0.927012226080796
 31
0.0
  0
LINE
  5
4C1
330
18
100
AcDbEntity
  8
1
 62
     1
100
AcDbLine
 10
41.69486199877772
 20
-0.927012226080796
 30
0.0
 11
41.7420333240117
 21
-0.9912091813496701
 31
0.0
  0
LINE
  5
4C2
330
18
100
AcDbEntity
  8
1
 62
     1
100
AcDbLine
 10
41.7420333240117
 20
-0.9912091813496701
 30
0.0
 11
41.78845298923243
 21
-1.059314029250339
 31
0.0
  0
ARC
  5
4C3
330
18
100
AcDbEntity
  8
1
 62
     1
100
AcDbCircle
 10
44.10075079357733
 20
2.712547596084
 30
0.0
 40
2.642958259849042
100
AcDbArc
 50
273.9937009965378
 51
280.8884846796166
  0
ARC
  5
4C4
330
18
100
AcDbEntity
  8
1
 62
     1
100
AcDbCircle
 10
46.20547202747576
 20
-3.006317193394284
 30
0.0
 40
2.438360530037163
100
AcDbArc
 50
131.1858321940409
 51
141.9674679801918
  0
LINE
  5
4C5
330
18
100
AcDbEntity
  8
1
 62
     1
100
AcDbLine
 10
44.6
 20
-1.171486011357868
 30
0.0
 11
44.60000000000001
 21
0.1171741585588012
 31
0.0
  0
ARC
  5
4C6
330
18
100
AcDbEntity
  8
1
 62
     1
100
AcDbCircle
 10
42.32136165271484
 20
-3.182039708687415
 30
0.0
 40
3.756651480907829
100
AcDbArc
 50
61.30495977300115
 51
66.82092653844693
  0
LINE
  5
4C7
330
18
100
AcDbEntity
  8
1
 62
     1
100
AcDbLine
 10
43.8
 20
-1.048369104933495
 30
0.0
 11
43.8
 21
0.2713649462481678
 31
0.0
  0
LINE
  5
4C8
330
18
100
AcDbEntity
  8
1
 62
     1
100
AcDbLine
 10
43.8
 20
-1.048369104933495
 30
0.0
 11
43.84158759438483
 21
-1.093276474626886
 31
0.0
  0
LINE
  5
4C9
330
18
100
AcDbEntity
  8
1
 62
     1
100
AcDbLine
 10
43.84158759438483
 20
-1.093276474626886
 30
0.0
 11
43.92425849043542
 21
-1.192409078659886
 31
0.0
  0
LINE
  5
4CA
330
18
100
AcDbEntity
  8
1
 62
     1
100
AcDbLine
 10
43.92425849043542
 20
-1.192409078659886
 30
0.0
 11
44.00580591174893
 21
-1.302895382250837
 31
0.0
  0
LINE
  5
4CB
330
18
100
AcDbEntity
  8
1
 62
     1
100
AcDbLine
 10
44.00580591174893
 20
-1.302895382250837
 30
0.0
 11
44.12512787250503
 21
-1.48707901522781
 31
0.0
  0
ARC
  5
4CC
330
18
100
AcDbEntity
  8
1
 62
     1
100
AcDbCircle
 10
43.30051539440844
 20
3.220032570393811
 30
0.0
 40
2.81257856082286
100
AcDbArc
 50
255.8205941614395
 51
263.866311877357
  0
LINE
  5
4CD
330
18
100
AcDbEntity
  8
1
 62
     1
100
AcDbLine
 10
42.61154701076759
 20
0.49313489338727
 30
0.0
 11
42.61154701076759
 21
-1.2528159988052
 31
0.0
  0
ARC
  5
4CE
330
18
100
AcDbEntity
  8
1
 62
     1
100
AcDbCircle
 10
43.84947817927424
 20
-2.290605374289962
 30
0.0
 40
1.615234031299351
100
AcDbArc
 50
121.7469602851229
 51
140.0260352016106
  0
ARC
  5
4CF
330
18
100
AcDbEntity
  8
1
 62
     1
100
AcDbCircle
 10
42.17915670000918
 20
-2.583953201836521
 30
0.0
 40
3.117568708947052
100
AcDbArc
 50
67.5032170504818
 51
74.73422186847337
  0
LINE
  5
4D0
330
18
100
AcDbEntity
  8
1
 62
     1
100
AcDbLine
 10
43.00000000000001
 20
-0.9177011630426256
 30
0.0
 11
42.99999999999999
 21
0.4236012366921758
 31
0.0
  0
LINE
  5
4D1
330
18
100
AcDbEntity
  8
1
 62
     1
100
AcDbLine
 10
43.0
 20
-0.9177011630426242
 30
0.0
 11
43.04787285274907
 21
-0.9640029982198189
 31
0.0
  0
LINE
  5
4D2
330
18
100
AcDbEntity
  8
1
 62
     1
100
AcDbLine
 10
43.04787285274907
 20
-0.9640029982198189
 30
0.0
 11
43.09553776060663
 21
-1.014732340537554
 31
0.0
  0
LINE
  5
4D3
330
18
100
AcDbEntity
  8
1
 62
     1
100
AcDbLine
 10
43.09553776060663
 20
-1.014732340537554
 30
0.0
 11
43.14288814604406
 21
-1.069662952415513
 31
0.0
  0
LINE
  5
4D4
330
18
100
AcDbEntity
  8
1
 62
     1
100
AcDbLine
 10
43.14288814604406
 20
-1.069662952415513
 30
0.0
 11
43.18983289384988
 21
-1.128566289793731
 31
0.0
  0
LINE
  5
4D5
330
18
100
AcDbEntity
  8
1
 62
     1
100
AcDbLine
 10
43.18983289384988
 20
-1.128566289793731
 30
0.0
 11
43.28217952645191
 21
-1.257325925787265
 31
0.0
  0
LINE
  5
4D6
330
18
100
AcDbEntity
  8
1
 62
     1
100
AcDbLine
 10
43.28217952645191
 20
-1.257325925787265
 30
0.0
 11
43.37205913666126
 21
-1.399101142318494
 31
0.0
  0
LINE
  5
4D7
330
18
100
AcDbEntity
  8
1
 62
     1
100
AcDbLine
 10
43.37205913666127
 20
0.2964254641334896
 30
0.0
 11
43.37205913666128
 21
-1.399101142318488
 31
0.0
  0
ARC
  5
4D8
330
18
100
AcDbEntity
  8
1
 62
     1
100
AcDbCircle
 10
42.23736997898204
 20
-3.954707890047268
 30
0.0
 40
4.707683322258149
100
AcDbArc
 50
55.87790134892732
 51
59.87638699049221
  0
ARC
  5
4D9
330
18
100
AcDbEntity
  8
1
 62
     1
100
AcDbCircle
 10
42.47592779728057
 20
-2.977499123422278
 30
0.0
 40
2.788164212040608
100
AcDbArc
 50
30.5200573035905
 51
40.37317575730437
  0
LINE
  5
4DA
330
18
100
AcDbEntity
  8
1
 62
     1
100
AcDbLine
 10
44.87819660834877
 20
-0.0574619456800905
 30
0.0
 11
44.87819660834877
 21
-1.561321676027956
 31
0.0
  0
ARC
  5
4DB
330
18
100
AcDbEntity
  8
1
 62
     1
100
AcDbCircle
 10
42.83975004709095
 20
4.288618582344652
 30
0.0
 40
3.850161882864817
100
AcDbArc
 50
241.6512908573717
 51
248.0405060822335
  0
LINE
  5
4DC
330
18
100
AcDbEntity
  8
1
 62
     1
100
AcDbLine
 10
41.01154701076759
 20
0.9001812111571329
 30
0.0
 11
41.0115470107676
 21
-0.8692347031984317
 31
0.0
  0
LINE
  5
4DD
330
18
100
AcDbEntity
  8
1
 62
     1
100
AcDbLine
 10
41.0115470107676
 20
-0.8692347031984344
 30
0.0
 11
41.05979593276151
 21
-0.826983913492231
 31
0.0
  0
LINE
  5
4DE
330
18
100
AcDbEntity
  8
1
 62
     1
100
AcDbLine
 10
41.05979593276151
 20
-0.826983913492231
 30
0.0
 11
41.10829297963457
 21
-0.7885951986050874
 31
0.0
  0
LINE
  5
4DF
330
18
100
AcDbEntity
  8
1
 62
     1
100
AcDbLine
 10
41.10829297963457
 20
-0.7885951986050874
 30
0.0
 11
41.15695671546846
 21
-0.7540443369190304
 31
0.0
  0
LINE
  5
4E0
330
18
100
AcDbEntity
  8
1
 62
     1
100
AcDbLine
 10
41.15695671546846
 20
-0.7540443369190304
 30
0.0
 11
41.20571500156196
 21
-0.7232890370419691
 31
0.0
  0
LINE
  5
4E1
330
18
100
AcDbEntity
  8
1
 62
     1
100
AcDbLine
 10
41.20571500156196
 20
-0.7232890370419691
 30
0.0
 11
41.25448276273958
 21
-0.6962981946331674
 31
0.0
  0
LINE
  5
4E2
330
18
100
AcDbEntity
  8
1
 62
     1
100
AcDbLine
 10
41.25448276273958
 20
-0.6962981946331674
 30
0.0
 11
41.30318322942921
 21
-0.6730282975189164
 31
0.0
  0
LINE
  5
4E3
330
18
100
AcDbEntity
  8
1
 62
     1
100
AcDbLine
 10
41.30318322942921
 20
-0.6730282975189164
 30
0.0
 11
41.35171990869748
 21
-0.6534488730376476
 31
0.0
  0
LINE
  5
4E4
330
18
100
AcDbEntity
  8
1
 62
     1
100
AcDbLine
 10
41.35171990869748
 20
-0.6534488730376476
 30
0.0
 11
41.40000000000001
 21
-0.6375238984078604
 31
0.0
  0
ARC
  5
4E5
330
18
100
AcDbEntity
  8
1
 62
     1
100
AcDbCircle
 10
43.68812882579441
 20
2.895810114615708
 30
0.0
 40
2.626851657792169
100
AcDbArc
 50
264.3969817214722
 51
272.4408466246653
  0
LINE
  5
4E6
330
18
100
AcDbEntity
  8
1
 62
     1
100
AcDbLine
 10
43.4316548711366
 20
0.2815044544830868
 30
0.0
 11
43.4316548711366
 21
-1.406552624696796
 31
0.0
  0
ARC
  5
4E7
330
18
100
AcDbEntity
  8
1
 62
     1
100
AcDbCircle
 10
45.00629812793928
 20
-2.653553531554388
 30
0.0
 40
2.008497187042311
100
AcDbArc
 50
126.9249083405217
 51
141.6233823546208
  0
ARC
  5
4E8
330
18
100
AcDbEntity
  8
1
 62
     1
100
AcDbCircle
 10
43.25081122007448
 20
6.019630520392435
 30
0.0
 40
6.098463077251298
100
AcDbArc
 50
230.9834144847427
 51
235.5384372070065
  0
LINE
  5
4E9
330
18
100
AcDbEntity
  8
1
 62
     1
100
AcDbLine
 10
39.4115470107676
 20
1.281339211467434
 30
0.0
 11
39.41154701076758
 21
-0.4606543887857324
 31
0.0
  0
ARC
  5
4EA
330
18
100
AcDbEntity
  8
1
 62
     1
100
AcDbCircle
 10
39.81098176469204
 20
-1.051411683502275
 30
0.0
 40
0.7130011820481531
100
AcDbArc
 50
90.88315420451923
 51
124.0642063012573
  0
ARC
  5
4EB
330
18
100
AcDbEntity
  8
1
 62
     1
100
AcDbCircle
 10
40.75227980767929
 20
-1.660894675901645
 30
0.0
 40
2.818106370760941
100
AcDbArc
 50
101.5413253971475
 51
109.7498505759752
  0
LINE
  5
4EC
330
18
100
AcDbEntity
  8
1
 62
     1
100
AcDbLine
 10
39.8
 20
-0.3390118180512941
 30
0.0
 11
39.8
 21
0.9914460237941323
 31
0.0
  0
LINE
  5
4ED
330
18
100
AcDbEntity
  8
1
 62
     1
100
AcDbLine
 10
39.80000000000001
 20
-0.339011818051294
 30
0.0
 11
39.82506422356639
 21
-0.3491735846877323
 31
0.0
  0
LINE
  5
4EE
330
18
100
AcDbEntity
  8
1
 62
     1
100
AcDbLine
 10
39.82506422356639
 20
-0.3491735846877323
 30
0.0
 11
39.85009218413511
 21
-0.3607779490902726
 31
0.0
  0
LINE
  5
4EF
330
18
100
AcDbEntity
  8
1
 62
     1
100
AcDbLine
 10
39.85009218413511
 20
-0.3607779490902726
 30
0.0
 11
39.87505678805066
 21
-0.3737988642773626
 31
0.0
  0
LINE
  5
4F0
330
18
100
AcDbEntity
  8
1
 62
     1
100
AcDbLine
 10
39.87505678805066
 20
-0.3737988642773626
 30
0.0
 11
39.89995134987406
 21
-0.3882191444014885
 31
0.0
  0
LINE
  5
4F1
330
18
100
AcDbEntity
  8
1
 62
     1
100
AcDbLine
 10
39.89995134987406
 20
-0.3882191444014885
 30
0.0
 11
39.92475640486141
 21
-0.4040124064724196
 31
0.0
  0
LINE
  5
4F2
330
18
100
AcDbEntity
  8
1
 62
     1
100
AcDbLine
 10
39.92475640486141
 20
-0.4040124064724196
 30
0.0
 11
39.94945504223153
 21
-0.4211542797792018
 31
0.0
  0
LINE
  5
4F3
330
18
100
AcDbEntity
  8
1
 62
     1
100
AcDbLine
 10
39.94945504223153
 20
-0.4211542797792018
 30
0.0
 11
39.97404310410327
 21
-0.4396262342988731
 31
0.0
  0
LINE
  5
4F4
330
18
100
AcDbEntity
  8
1
 62
     1
100
AcDbLine
 10
39.97404310410327
 20
-0.4396262342988731
 30
0.0
 11
40.02282100621538
 21
-0.4804485667837011
 31
0.0
  0
LINE
  5
4F5
330
18
100
AcDbEntity
  8
1
 62
     1
100
AcDbLine
 10
40.02282100621538
 20
-0.4804485667837011
 30
0.0
 11
40.07100961201112
 21
-0.5262832436012335
 31
0.0
  0
LINE
  5
4F6
330
18
100
AcDbEntity
  8
1
 62
     1
100
AcDbLine
 10
40.07100961201112
 20
-0.5262832436012335
 30
0.0
 11
40.118539064964
 21
-0.5769282814938526
 31
0.0
  0
LINE
  5
4F7
330
18
100
AcDbEntity
  8
1
 62
     1
100
AcDbLine
 10
40.118539064964
 20
-0.5769282814938526
 30
0.0
 11
40.15371212759893
 21
-0.6179387544779033
 31
0.0
  0
LINE
  5
4F8
330
18
100
AcDbEntity
  8
1
 62
     1
100
AcDbLine
 10
40.15371212759893
 20
-0.6179387544779033
 30
0.0
 11
40.18845298923242
 21
-0.6614414713597349
 31
0.0
  0
LINE
  5
4F9
330
18
100
AcDbEntity
  8
1
 62
     1
100
AcDbLine
 10
40.18845298923242
 20
1.100207547447334
 30
0.0
 11
40.18845298923241
 21
-0.6614414707692792
 31
0.0
  0
ARC
  5
4FA
330
18
100
AcDbEntity
  8
1
 62
     1
100
AcDbCircle
 10
40.49618273628126
 20
-1.796832815981979
 30
0.0
 40
3.276409448247787
100
AcDbArc
 50
109.7609552103267
 51
117.17128859263
  0
LINE
  5
4FB
330
18
100
AcDbEntity
  8
1
 62
     1
100
AcDbLine
 10
39.0
 20
-0.1855492022658239
 30
0.0
 11
38.99999999999999
 21
1.118015807510077
 31
0.0
  0
LINE
  5
4FC
330
18
100
AcDbEntity
  8
1
 62
     1
100
AcDbLine
 10
39.0
 20
-0.185549202265824
 30
0.0
 11
39.02506422278886
 21
-0.1920910301332135
 31
0.0
  0
LINE
  5
4FD
330
18
100
AcDbEntity
  8
1
 62
     1
100
AcDbLine
 10
39.02506422278886
 20
-0.1920910301332135
 30
0.0
 11
39.05009218273949
 21
-0.2000993482527652
 31
0.0
  0
LINE
  5
4FE
330
18
100
AcDbEntity
  8
1
 62
     1
100
AcDbLine
 10
39.05009218273949
 20
-0.2000993482527652
 30
0.0
 11
39.07505678632631
 21
-0.2095524653020276
 31
0.0
  0
LINE
  5
4FF
330
18
100
AcDbEntity
  8
1
 62
     1
100
AcDbLine
 10
39.07505678632631
 20
-0.2095524653020276
 30
0.0
 11
39.09995134813735
 21
-0.2204348362078997
 31
0.0
  0
LINE
  5
500
330
18
100
AcDbEntity
  8
1
 62
     1
100
AcDbLine
 10
39.09995134813735
 20
-0.2204348362078997
 30
0.0
 11
39.12475640346949
 21
-0.2327237668478298
 31
0.0
  0
LINE
  5
501
330
18
100
AcDbEntity
  8
1
 62
     1
100
AcDbLine
 10
39.12475640346949
 20
-0.2327237668478298
 30
0.0
 11
39.14945504153967
 21
-0.2463982641839574
 31
0.0
  0
LINE
  5
502
330
18
100
AcDbEntity
  8
1
 62
     1
100
AcDbLine
 10
39.14945504153967
 20
-0.2463982641839574
 30
0.0
 11
39.17404310446329
 21
-0.2614415506261959
 31
0.0
  0
LINE
  5
503
330
18
100
AcDbEntity
  8
1
 62
     1
100
AcDbLine
 10
39.17404310446329
 20
-0.2614415506261959
 30
0.0
 11
39.19850015157822
 21
-0.2778268627127227
 31
0.0
  0
LINE
  5
504
330
18
100
AcDbEntity
  8
1
 62
     1
100
AcDbLine
 10
39.19850015157822
 20
-0.2778268627127227
 30
0.0
 11
39.22282100926251
 21
-0.2955370320650619
 31
0.0
  0
LINE
  5
505
330
18
100
AcDbEntity
  8
1
 62
     1
100
AcDbLine
 10
39.22282100926251
 20
-0.2955370320650619
 30
0.0
 11
39.24699607286968
 21
-0.3145491551203295
 31
0.0
  0
LINE
  5
506
330
18
100
AcDbEntity
  8
1
 62
     1
100
AcDbLine
 10
39.24699607286968
 20
-0.3145491551203295
 30
0.0
 11
39.29486198178534
 21
-0.3563822204794806
 31
0.0
  0
LINE
  5
507
330
18
100
AcDbEntity
  8
1
 62
     1
100
AcDbLine
 10
39.29486198178534
 20
-0.3563822204794806
 30
0.0
 11
39.34203331435462
 21
-0.4031402957685873
 31
0.0
  0
LINE
  5
508
330
18
100
AcDbEntity
  8
1
 62
     1
100
AcDbLine
 10
39.34203331435462
 20
-0.4031402957685873
 30
0.0
 11
39.38845298923242
 21
-0.4546311541369853
 31
0.0
  0
ARC
  5
509
330
18
100
AcDbEntity
  8
1
 62
     1
100
AcDbCircle
 10
43.98565000169773
 20
7.192913498816756
 30
0.0
 40
7.858852301720903
100
AcDbArc
 50
226.8565388959181
 51
230.6243783221853
  0
LINE
  5
50A
330
18
100
AcDbEntity
  8
1
 62
     1
100
AcDbLine
 10
38.61154701076758
 20
1.458746357211989
 30
0.0
 11
38.61154701076759
 21
-0.2506431502976535
 31
0.0
  0
ARC
  5
50B
330
18
100
AcDbEntity
  8
1
 62
     1
100
AcDbCircle
 10
38.9056375781842
 20
-0.8126248722271482
 30
0.0
 40
0.6342373935004582
100
AcDbArc
 50
81.44233278860114
 51
117.6235052324946
  0
ARC
  5
50C
330
18
100
AcDbEntity
  8
1
 62
     1
100
AcDbCircle
 10
40.39937355578896
 20
-2.077456603014219
 30
0.0
 40
3.977399444444752
100
AcDbArc
 50
117.084741678122
 51
123.5707746068431
  0
LINE
  5
50D
330
18
100
AcDbEntity
  8
1
 62
     1
100
AcDbLine
 10
38.2
 20
-0.0307501051508633
 30
0.0
 11
38.2
 21
1.236532825698934
 31
0.0
  0
LINE
  5
50E
330
18
100
AcDbEntity
  8
1
 62
     1
100
AcDbLine
 10
38.2
 20
-0.0307501051508633
 30
0.0
 11
38.24986356509225
 21
-0.0379329685324189
 31
0.0
  0
LINE
  5
50F
330
18
100
AcDbEntity
  8
1
 62
     1
100
AcDbLine
 10
38.58845298923242
 20
1.463717607266137
 30
0.0
 11
38.58845298923242
 21
-0.244546497295648
 31
0.0
  0
ARC
  5
510
330
18
100
AcDbEntity
  8
1
 62
     1
100
AcDbCircle
 10
42.89882064895083
 20
5.061716542327554
 30
0.0
 40
4.791507039157252
100
AcDbArc
 50
235.886104441815
 51
241.3292841051609
  0
LINE
  5
511
330
18
100
AcDbEntity
  8
1
 62
     1
100
AcDbLine
 10
40.21154701076758
 20
1.0947026968472
 30
0.0
 11
40.2115470107676
 21
-0.6673478852599914
 31
0.0
  0
ARC
  5
512
330
18
100
AcDbEntity
  8
1
 62
     1
100
AcDbCircle
 10
40.74525455286459
 20
-1.317977915959004
 30
0.0
 40
0.841359750509794
100
AcDbArc
 50
99.95069358623628
 51
129.3618041132082
  0
ARC
  5
513
330
18
100
AcDbEntity
  8
1
 62
     1
100
AcDbCircle
 10
41.1104954416681
 20
-1.669218213783179
 30
0.0
 40
2.578002988220011
100
AcDbArc
 50
92.71339180593412
 51
101.4211821706028
  0
LINE
  5
514
330
18
100
AcDbEntity
  8
1
 62
     1
100
AcDbLine
 10
40.6
 20
-0.4900326444480962
 30
0.0
 11
40.59999999999999
 21
0.8577351550869282
 31
0.0
  0
LINE
  5
515
330
18
100
AcDbEntity
  8
1
 62
     1
100
AcDbLine
 10
40.6
 20
-0.4900326444480961
 30
0.0
 11
40.62506422591771
 21
-0.5037411415088626
 31
0.0
  0
LINE
  5
516
330
18
100
AcDbEntity
  8
1
 62
     1
100
AcDbLine
 10
40.62506422591771
 20
-0.5037411415088626
 30
0.0
 11
40.65009218893672
 21
-0.518857952159697
 31
0.0
  0
LINE
  5
517
330
18
100
AcDbEntity
  8
1
 62
     1
100
AcDbLine
 10
40.65009218893672
 20
-0.518857952159697
 30
0.0
 11
40.6750567952651
 21
-0.535352862053755
 31
0.0
  0
LINE
  5
518
330
18
100
AcDbEntity
  8
1
 62
     1
100
AcDbLine
 10
40.6750567952651
 20
-0.535352862053755
 30
0.0
 11
40.6999513593908
 21
-0.5532071690501322
 31
0.0
  0
LINE
  5
519
330
18
100
AcDbEntity
  8
1
 62
     1
100
AcDbLine
 10
40.6999513593908
 20
-0.5532071690501322
 30
0.0
 11
40.72475641641765
 21
-0.5723909919925333
 31
0.0
  0
LINE
  5
51A
330
18
100
AcDbEntity
  8
1
 62
     1
100
AcDbLine
 10
40.72475641641765
 20
-0.5723909919925333
 30
0.0
 11
40.77404311859028
 21
-0.614644320960148
 31
0.0
  0
LINE
  5
51B
330
18
100
AcDbEntity
  8
1
 62
     1
100
AcDbLine
 10
40.77404311859028
 20
-0.614644320960148
 30
0.0
 11
40.82282102155968
 21
-0.6618994582092367
 31
0.0
  0
LINE
  5
51C
330
18
100
AcDbEntity
  8
1
 62
     1
100
AcDbLine
 10
40.82282102155968
 20
-0.6618994582092367
 30
0.0
 11
40.87100962567826
 21
-0.7139396312218301
 31
0.0
  0
LINE
  5
51D
330
18
100
AcDbEntity
  8
1
 62
     1
100
AcDbLine
 10
40.87100962567826
 20
-0.7139396312218301
 30
0.0
 11
40.91853907426786
 21
-0.770543018563308
 31
0.0
  0
LINE
  5
51E
330
18
100
AcDbEntity
  8
1
 62
     1
100
AcDbLine
 10
40.91853907426786
 20
-0.770543018563308
 30
0.0
 11
40.98845298923243
 21
-0.8634876121512246
 31
0.0
  0
LINE
  5
51F
330
18
100
AcDbEntity
  8
1
 62
     1
100
AcDbLine
 10
40.98845298923242
 20
0.905894297854513
 30
0.0
 11
40.98845298923241
 21
-0.8634876119442945
 31
0.0
  0
ARC
  5
520
330
18
100
AcDbEntity
  8
1
 62
     1
100
AcDbCircle
 10
44.18352942421317
 20
-5.872300931290432
 30
0.0
 40
12.51879718002765
100
AcDbArc
 50
140.036541511069
 51
142.8904176831931
  0
LINE
  5
521
330
18
100
AcDbEntity
  8
1
 62
     1
100
AcDbLine
 10
34.2
 20
0.7243807611961464
 30
0.0
 11
34.22462868248221
 21
0.7393692514776954
 31
0.0
  0
LINE
  5
522
330
18
100
AcDbEntity
  8
1
 62
     1
100
AcDbLine
 10
34.22462868248221
 20
0.7393692514776954
 30
0.0
 11
34.24922284123932
 21
0.7530183174370978
 31
0.0
  0
LINE
  5
523
330
18
100
AcDbEntity
  8
1
 62
     1
100
AcDbLine
 10
34.24922284123932
 20
0.7530183174370978
 30
0.0
 11
34.2737563475468
 21
0.7653215254819778
 31
0.0
  0
LINE
  5
524
330
18
100
AcDbEntity
  8
1
 62
     1
100
AcDbLine
 10
34.2737563475468
 20
0.7653215254819778
 30
0.0
 11
34.29822269535708
 21
0.7762823825341705
 31
0.0
  0
LINE
  5
525
330
18
100
AcDbEntity
  8
1
 62
     1
100
AcDbLine
 10
34.29822269535708
 20
0.7762823825341705
 30
0.0
 11
34.32260428350283
 21
0.7858995295929871
 31
0.0
  0
LINE
  5
526
330
18
100
AcDbEntity
  8
1
 62
     1
100
AcDbLine
 10
34.32260428350283
 20
0.7858995295929871
 30
0.0
 11
34.34688342639728
 21
0.7941708978828166
 31
0.0
  0
LINE
  5
527
330
18
100
AcDbEntity
  8
1
 62
     1
100
AcDbLine
 10
34.34688342639728
 20
0.7941708978828166
 30
0.0
 11
34.37105727764104
 21
0.801100745970079
 31
0.0
  0
LINE
  5
528
330
18
100
AcDbEntity
  8
1
 62
     1
100
AcDbLine
 10
34.37105727764104
 20
0.801100745970079
 30
0.0
 11
34.39510693427061
 21
0.8066885076331086
 31
0.0
  0
LINE
  5
529
330
18
100
AcDbEntity
  8
1
 62
     1
100
AcDbLine
 10
34.39510693427061
 20
0.8066885076331086
 30
0.0
 11
34.41902456767885
 21
0.8109361234028187
 31
0.0
  0
LINE
  5
52A
330
18
100
AcDbEntity
  8
1
 62
     1
100
AcDbLine
 10
34.41902456767885
 20
0.8109361234028187
 30
0.0
 11
34.44280429071341
 21
0.8138477062670071
 31
0.0
  0
LINE
  5
52B
330
18
100
AcDbEntity
  8
1
 62
     1
100
AcDbLine
 10
34.44280429071341
 20
0.8138477062670071
 30
0.0
 11
34.46642938595756
 21
0.8154254370830442
 31
0.0
  0
LINE
  5
52C
330
18
100
AcDbEntity
  8
1
 62
     1
100
AcDbLine
 10
34.46642938595756
 20
0.8154254370830442
 30
0.0
 11
34.48989950621479
 21
0.8156735462420781
 31
0.0
  0
LINE
  5
52D
330
18
100
AcDbEntity
  8
1
 62
     1
100
AcDbLine
 10
34.48989950621479
 20
0.8156735462420781
 30
0.0
 11
34.51320380756368
 21
0.8145973882204522
 31
0.0
  0
LINE
  5
52E
330
18
100
AcDbEntity
  8
1
 62
     1
100
AcDbLine
 10
34.51320380756368
 20
0.8145973882204522
 30
0.0
 11
34.53633112989134
 21
0.8122018572852743
 31
0.0
  0
LINE
  5
52F
330
18
100
AcDbEntity
  8
1
 62
     1
100
AcDbLine
 10
34.53633112989134
 20
0.8122018572852743
 30
0.0
 11
34.5592825980944
 21
0.8084925128704021
 31
0.0
  0
LINE
  5
530
330
18
100
AcDbEntity
  8
1
 62
     1
100
AcDbLine
 10
34.5592825980944
 20
0.8084925128704021
 30
0.0
 11
34.58204488808574
 21
0.8034774401314967
 31
0.0
  0
LINE
  5
531
330
18
100
AcDbEntity
  8
1
 62
     1
100
AcDbLine
 10
34.58845298923242
 20
2.168501661656318
 30
0.0
 11
34.58845298923242
 21
0.801821604201706
 31
0.0
  0
ARC
  5
532
330
18
100
AcDbEntity
  8
1
 62
     1
100
AcDbCircle
 10
59.24095047770732
 20
19.10351925474778
 30
0.0
 40
29.89157082636732
100
AcDbArc
 50
214.5169859582484
 51
215.8099489098076
  0
LINE
  5
533
330
18
100
AcDbEntity
  8
1
 62
     1
100
AcDbLine
 10
34.61154701076758
 20
2.165446409782584
 30
0.0
 11
34.61154701076759
 21
0.796016100482837
 31
0.0
  0
LINE
  5
534
330
18
100
AcDbEntity
  8
1
 62
     1
100
AcDbLine
 10
34.61154701076758
 20
0.7960161004828264
 30
0.0
 11
34.62138495566885
 21
0.7936493705828847
 31
0.0
  0
LINE
  5
535
330
18
100
AcDbEntity
  8
1
 62
     1
100
AcDbLine
 10
34.62138495566885
 20
0.7936493705828847
 30
0.0
 11
34.62139142642471
 21
0.7936477550252332
 31
0.0
  0
ARC
  5
536
330
18
100
AcDbEntity
  8
1
 62
     1
100
AcDbCircle
 10
42.67713593216092
 20
-4.752997040538864
 30
0.0
 40
9.973812884112652
100
AcDbArc
 50
136.9521136970087
 51
140.3295654028868
  0
LINE
  5
537
330
18
100
AcDbEntity
  8
1
 62
     1
100
AcDbLine
 10
35.0
 20
0.5795356856978952
 30
0.0
 11
35.0
 21
1.613994865544129
 31
0.0
  0
ARC
  5
538
330
18
100
AcDbEntity
  8
1
 62
     1
100
AcDbCircle
 10
35.21727106334639
 20
0.1691609471131087
 30
0.0
 40
0.4642217903364693
100
AcDbArc
 50
77.55330280976017
 51
117.898781265014
  0
LINE
  5
539
330
18
100
AcDbEntity
  8
1
 62
     1
100
AcDbLine
 10
35.38845298923242
 20
2.055207574069319
 30
0.0
 11
35.38845298923241
 21
0.5981507499835348
 31
0.0
  0
ARC
  5
53A
330
18
100
AcDbEntity
  8
1
 62
     1
100
AcDbCircle
 10
45.2140863178117
 20
8.626597201372924
 30
0.0
 40
10.18875953840878
100
AcDbArc
 50
223.4029307730642
 51
226.4951985755234
  0
LINE
  5
53B
330
18
100
AcDbEntity
  8
1
 62
     1
100
AcDbLine
 10
37.81154701076759
 20
1.625646464762795
 30
0.0
 11
37.8115470107676
 21
-0.0388265349406977
 31
0.0
  0
ARC
  5
53C
330
18
100
AcDbEntity
  8
1
 62
     1
100
AcDbCircle
 10
38.01580958639175
 20
-0.5966820711594654
 30
0.0
 40
0.5940965263818433
100
AcDbArc
 50
77.96036144817447
 51
110.1105460458518
  0
LINE
  5
53D
330
18
100
AcDbEntity
  8
1
 62
     1
100
AcDbLine
 10
38.13976901591337
 20
-0.0154762576749824
 30
0.0
 11
38.14000710261364
 21
-0.0155249995074761
 31
0.0
  0
ARC
  5
53E
330
18
100
AcDbEntity
  8
1
 62
     1
100
AcDbCircle
 10
40.51643281171766
 20
-2.505716892138077
 30
0.0
 40
4.954685201797678
100
AcDbArc
 50
123.4075467176916
 51
128.9753575722142
  0
ARC
  5
53F
330
18
100
AcDbEntity
  8
1
 62
     1
100
AcDbCircle
 10
37.42625789825585
 20
-0.3028673679480026
 30
0.0
 40
0.427947512884457
100
AcDbArc
 50
77.70606773805493
 51
93.51777696468902
  0
LINE
  5
540
330
18
100
AcDbEntity
  8
1
 62
     1
100
AcDbLine
 10
37.7884529892324
 20
1.630296157920402
 30
0.0
 11
37.78845298923242
 21
-0.0327004022515606
 31
0.0
  0
ARC
  5
541
330
18
100
AcDbEntity
  8
1
 62
     1
100
AcDbCircle
 10
47.08181567040607
 20
10.38870295003927
 30
0.0
 40
13.2478531352575
100
AcDbArc
 50
220.5231639445711
 51
223.0446637355502
  0
ARC
  5
542
330
18
100
AcDbEntity
  8
1
 62
     1
100
AcDbCircle
 10
37.13054356808376
 20
-0.3849507458563727
 30
0.0
 40
0.5707925777715104
100
AcDbArc
 50
77.01580734912588
 51
102.0336877941809
  0
LINE
  5
543
330
18
100
AcDbEntity
  8
1
 62
     1
100
AcDbLine
 10
37.4
 20
0.1242705357019876
 30
0.0
 11
37.4
 21
1.346143272294608
 31
0.0
  0
ARC
  5
544
330
18
100
AcDbEntity
  8
1
 62
     1
100
AcDbCircle
 10
40.90003967899938
 20
-3.087342107268015
 30
0.0
 40
6.248357863694792
100
AcDbArc
 50
128.7572421526467
 51
133.4867233932948
  0
LINE
  5
545
330
18
100
AcDbEntity
  8
1
 62
     1
100
AcDbLine
 10
36.60000000000001
 20
0.2783960888513454
 30
0.0
 11
36.6
 21
1.44605762845605
 31
0.0
  0
ARC
  5
546
330
18
100
AcDbEntity
  8
1
 62
     1
100
AcDbCircle
 10
36.68900135633466
 20
-0.1428394902468026
 30
0.0
 40
0.4305352814739905
100
AcDbArc
 50
77.1649574122794
 51
101.9303539484684
  0
LINE
  5
547
330
18
100
AcDbEntity
  8
1
 62
     1
100
AcDbLine
 10
36.98845298923241
 20
1.785132108986311
 30
0.0
 11
36.9884529892324
 21
0.1793814328345811
 31
0.0
  0
ARC
  5
548
330
18
100
AcDbEntity
  8
1
 62
     1
100
AcDbCircle
 10
49.79503336181809
 20
12.58523855301862
 30
0.0
 40
17.26818284865653
100
AcDbArc
 50
218.1293044443511
 51
220.1708893228182
  0
LINE
  5
549
330
18
100
AcDbEntity
  8
1
 62
     1
100
AcDbLine
 10
36.21154701076759
 20
1.923201508402249
 30
0.0
 11
36.21154701076759
 21
0.3841185270164777
 31
0.0
  0
ARC
  5
54A
330
18
100
AcDbEntity
  8
1
 62
     1
100
AcDbCircle
 10
36.24727943139779
 20
-0.1767839590258066
 30
0.0
 40
0.5620553216422174
100
AcDbArc
 50
76.52238451451876
 51
93.6451149512687
  0
ARC
  5
54B
330
18
100
AcDbEntity
  8
1
 62
     1
100
AcDbCircle
 10
41.60234572311616
 20
-3.831703694196427
 30
0.0
 40
7.904089005166652
100
AcDbArc
 50
133.2317399663158
 51
137.2306942838746
  0
LINE
  5
54C
330
18
100
AcDbEntity
  8
1
 62
     1
100
AcDbLine
 10
35.8
 20
0.4305163613341279
 30
0.0
 11
35.8
 21
1.53555636252323
 31
0.0
  0
ARC
  5
54D
330
18
100
AcDbEntity
  8
1
 62
     1
100
AcDbCircle
 10
35.95228613124084
 20
0.0150110821897147
 30
0.0
 40
0.442501925453219
100
AcDbArc
 50
77.06073699170706
 51
110.1283043431774
  0
LINE
  5
54E
330
18
100
AcDbEntity
  8
1
 62
     1
100
AcDbLine
 10
36.18845298923242
 20
1.927110174727633
 30
0.0
 11
36.18845298923242
 21
0.3901713577430417
 31
0.0
  0
ARC
  5
54F
330
18
100
AcDbEntity
  8
1
 62
     1
100
AcDbCircle
 10
53.67061448088892
 20
15.38960187433882
 30
0.0
 40
22.6117867493388
100
AcDbArc
 50
216.1473919144152
 51
217.7843350806713
  0
ARC
  5
550
330
18
100
AcDbEntity
  8
1
 62
     1
100
AcDbCircle
 10
35.3640638828853
 20
0.0265172744640093
 30
0.0
 40
0.5676754737912855
100
AcDbArc
 50
76.2509729146714
 51
85.2018696476781
  0
ARC
  5
551
330
18
100
AcDbEntity
  8
1
 62
     1
100
AcDbCircle
 10
46.1916178386732
 20
-7.220541589301013
 30
0.0
 40
15.6152629327671
100
AcDbArc
 50
142.5889743967251
 51
145.002196840884
  0
LINE
  5
552
330
18
100
AcDbEntity
  8
1
 62
     1
100
AcDbLine
 10
33.40000000000001
 20
0.8640083165610783
 30
0.0
 11
33.4
 21
1.73551474254722
 31
0.0
  0
LINE
  5
553
330
18
100
AcDbEntity
  8
1
 62
     1
100
AcDbLine
 10
33.39999999999999
 20
0.8640083165610781
 30
0.0
 11
33.45009219226034
 21
0.8999467331492603
 31
0.0
  0
LINE
  5
554
330
18
100
AcDbEntity
  8
1
 62
     1
100
AcDbLine
 10
33.45009219226034
 20
0.8999467331492603
 30
0.0
 11
33.47505680030902
 21
0.9158976416173114
 31
0.0
  0
LINE
  5
555
330
18
100
AcDbEntity
  8
1
 62
     1
100
AcDbLine
 10
33.47505680030902
 20
0.9158976416173114
 30
0.0
 11
33.49995136610546
 21
0.9305009273820818
 31
0.0
  0
LINE
  5
556
330
18
100
AcDbEntity
  8
1
 62
     1
100
AcDbLine
 10
33.49995136610546
 20
0.9305009273820818
 30
0.0
 11
33.52475642467595
 21
0.9437504998112485
 31
0.0
  0
LINE
  5
557
330
18
100
AcDbEntity
  8
1
 62
     1
100
AcDbLine
 10
33.52475642467595
 20
0.9437504998112485
 30
0.0
 11
33.54945506539287
 21
0.9556409545151273
 31
0.0
  0
LINE
  5
558
330
18
100
AcDbEntity
  8
1
 62
     1
100
AcDbLine
 10
33.54945506539287
 20
0.9556409545151273
 30
0.0
 11
33.57404312963682
 21
0.9661742275284932
 31
0.0
  0
LINE
  5
559
330
18
100
AcDbEntity
  8
1
 62
     1
100
AcDbLine
 10
33.57404312963682
 20
0.9661742275284932
 30
0.0
 11
33.59850017680014
 21
0.9753447485032616
 31
0.0
  0
LINE
  5
55A
330
18
100
AcDbEntity
  8
1
 62
     1
100
AcDbLine
 10
33.59850017680014
 20
0.9753447485032616
 30
0.0
 11
33.62282103478856
 21
0.983152855434513
 31
0.0
  0
LINE
  5
55B
330
18
100
AcDbEntity
  8
1
 62
     1
100
AcDbLine
 10
33.62282103478856
 20
0.983152855434513
 30
0.0
 11
33.64699609564576
 21
0.9895989404738854
 31
0.0
  0
LINE
  5
55C
330
18
100
AcDbEntity
  8
1
 62
     1
100
AcDbLine
 10
33.64699609564576
 20
0.9895989404738854
 30
0.0
 11
33.6710096389457
 21
0.994681109613328
 31
0.0
  0
LINE
  5
55D
330
18
100
AcDbEntity
  8
1
 62
     1
100
AcDbLine
 10
33.6710096389457
 20
0.994681109613328
 30
0.0
 11
33.69486200066913
 21
0.9984023178039512
 31
0.0
  0
LINE
  5
55E
330
18
100
AcDbEntity
  8
1
 62
     1
100
AcDbLine
 10
33.69486200066913
 20
0.9984023178039512
 30
0.0
 11
33.71853908292836
 21
1.000763840659164
 31
0.0
  0
LINE
  5
55F
330
18
100
AcDbEntity
  8
1
 62
     1
100
AcDbLine
 10
33.71853908292836
 20
1.000763840659164
 30
0.0
 11
33.74203332783011
 21
1.001767398382023
 31
0.0
  0
LINE
  5
560
330
18
100
AcDbEntity
  8
1
 62
     1
100
AcDbLine
 10
33.74203332783011
 20
1.001767398382023
 30
0.0
 11
33.76534290019453
 21
1.001417177457527
 31
0.0
  0
LINE
  5
561
330
18
100
AcDbEntity
  8
1
 62
     1
100
AcDbLine
 10
33.76534290019453
 20
1.001417177457527
 30
0.0
 11
33.78845298923241
 21
0.9997172173859817
 31
0.0
  0
LINE
  5
562
330
18
100
AcDbEntity
  8
1
 62
     1
100
AcDbLine
 10
33.78845298923243
 20
2.266176508645259
 30
0.0
 11
33.78845298923243
 21
0.9997172173412039
 31
0.0
  0
ARC
  5
563
330
18
100
AcDbEntity
  8
1
 62
     1
100
AcDbCircle
 10
56.34678304344938
 20
-13.23330618223285
 30
0.0
 40
29.4816426301207
100
AcDbArc
 50
147.8407033595883
 51
149.2883103536728
  0
LINE
  5
564
330
18
100
AcDbEntity
  8
1
 62
     1
100
AcDbLine
 10
31.00000000000001
 20
1.241759372119504
 30
0.0
 11
31.05009218859216
 21
1.296484654866791
 31
0.0
  0
LINE
  5
565
330
18
100
AcDbEntity
  8
1
 62
     1
100
AcDbLine
 10
31.05009218859216
 20
1.296484654866791
 30
0.0
 11
31.09995136036297
 21
1.346595278277888
 31
0.0
  0
LINE
  5
566
330
18
100
AcDbEntity
  8
1
 62
     1
100
AcDbLine
 10
31.09995136036297
 20
1.346595278277888
 30
0.0
 11
31.14945505990205
 21
1.391980268778651
 31
0.0
  0
LINE
  5
567
330
18
100
AcDbEntity
  8
1
 62
     1
100
AcDbLine
 10
31.14945505990205
 20
1.391980268778651
 30
0.0
 11
31.19850017380806
 21
1.432536792589609
 31
0.0
  0
LINE
  5
568
330
18
100
AcDbEntity
  8
1
 62
     1
100
AcDbLine
 10
31.19850017380806
 20
1.432536792589609
 30
0.0
 11
31.24699609591736
 21
1.468169753075573
 31
0.0
  0
LINE
  5
569
330
18
100
AcDbEntity
  8
1
 62
     1
100
AcDbLine
 10
31.24699609591736
 20
1.468169753075573
 30
0.0
 11
31.29486200291677
 21
1.498795201326514
 31
0.0
  0
LINE
  5
56A
330
18
100
AcDbEntity
  8
1
 62
     1
100
AcDbLine
 10
31.29486200291677
 20
1.498795201326514
 30
0.0
 11
31.31853908668054
 21
1.512209541641405
 31
0.0
  0
LINE
  5
56B
330
18
100
AcDbEntity
  8
1
 62
     1
100
AcDbLine
 10
31.31853908668054
 20
1.512209541641405
 30
0.0
 11
31.34203332966573
 21
1.524346316490102
 31
0.0
  0
LINE
  5
56C
330
18
100
AcDbEntity
  8
1
 62
     1
100
AcDbLine
 10
31.34203332966573
 20
1.524346316490102
 30
0.0
 11
31.3653429010929
 21
1.535202192468323
 31
0.0
  0
LINE
  5
56D
330
18
100
AcDbEntity
  8
1
 62
     1
100
AcDbLine
 10
31.3653429010929
 20
1.535202192468323
 30
0.0
 11
31.38845298923242
 21
1.544767466443104
 31
0.0
  0
ARC
  5
56E
330
18
100
AcDbEntity
  8
1
 62
     1
100
AcDbCircle
 10
156.0939589129133
 20
76.446149984633
 30
0.0
 40
144.9826274397561
100
AcDbArc
 50
210.6854634363534
 51
210.9849877072174
  0
LINE
  5
56F
330
18
100
AcDbEntity
  8
1
 62
     1
100
AcDbLine
 10
31.4115470107676
 20
2.457930361794435
 30
0.0
 11
31.41154701076759
 21
1.539945646006838
 31
0.0
  0
LINE
  5
570
330
18
100
AcDbEntity
  8
1
 62
     1
100
AcDbLine
 10
31.41154701076759
 20
1.539945645605243
 30
0.0
 11
31.45979925108923
 21
1.499514732838918
 31
0.0
  0
LINE
  5
571
330
18
100
AcDbEntity
  8
1
 62
     1
100
AcDbLine
 10
31.45979925108923
 20
1.499514732838918
 30
0.0
 11
31.50829964045468
 21
1.455410683250862
 31
0.0
  0
LINE
  5
572
330
18
100
AcDbEntity
  8
1
 62
     1
100
AcDbLine
 10
31.50829964045468
 20
1.455410683250862
 30
0.0
 11
31.60572836466555
 21
1.35694885983679
 31
0.0
  0
LINE
  5
573
330
18
100
AcDbEntity
  8
1
 62
     1
100
AcDbLine
 10
31.60572836466555
 20
1.35694885983679
 30
0.0
 11
31.70318741873249
 21
1.245971190213657
 31
0.0
  0
LINE
  5
574
330
18
100
AcDbEntity
  8
1
 62
     1
100
AcDbLine
 10
31.70318741873249
 20
1.245971190213657
 30
0.0
 11
31.8
 21
1.123632622135574
 31
0.0
  0
ARC
  5
575
330
18
100
AcDbEntity
  8
1
 62
     1
100
AcDbCircle
 10
52.11242536542786
 20
-10.8114162043102
 30
0.0
 40
23.91280534259174
100
AcDbArc
 50
146.4280745157054
 51
148.1505137250707
  0
LINE
  5
576
330
18
100
AcDbEntity
  8
1
 62
     1
100
AcDbLine
 10
31.8
 20
1.123632622135574
 30
0.0
 11
31.8
 21
1.807122351380338
 31
0.0
  0
LINE
  5
577
330
18
100
AcDbEntity
  8
1
 62
     1
100
AcDbLine
 10
31.8
 20
1.123632622135574
 30
0.0
 11
31.85009218478955
 21
1.172432008112173
 31
0.0
  0
LINE
  5
578
330
18
100
AcDbEntity
  8
1
 62
     1
100
AcDbLine
 10
31.85009218478955
 20
1.172432008112173
 30
0.0
 11
31.89995135183648
 21
1.216324257307393
 31
0.0
  0
LINE
  5
579
330
18
100
AcDbEntity
  8
1
 62
     1
100
AcDbLine
 10
31.89995135183648
 20
1.216324257307393
 30
0.0
 11
31.94945504643739
 21
1.255224867646005
 31
0.0
  0
LINE
  5
57A
330
18
100
AcDbEntity
  8
1
 62
     1
100
AcDbLine
 10
31.94945504643739
 20
1.255224867646005
 30
0.0
 11
31.99850015646882
 21
1.289057448121962
 31
0.0
  0
LINE
  5
57B
330
18
100
AcDbEntity
  8
1
 62
     1
100
AcDbLine
 10
31.99850015646882
 20
1.289057448121962
 30
0.0
 11
32.02282101493024
 21
1.304050629950787
 31
0.0
  0
LINE
  5
57C
330
18
100
AcDbEntity
  8
1
 62
     1
100
AcDbLine
 10
32.02282101493024
 20
1.304050629950787
 30
0.0
 11
32.04699607748051
 21
1.317753722084039
 31
0.0
  0
LINE
  5
57D
330
18
100
AcDbEntity
  8
1
 62
     1
100
AcDbLine
 10
32.04699607748051
 20
1.317753722084039
 30
0.0
 11
32.07100962292874
 21
1.330156189402146
 31
0.0
  0
LINE
  5
57E
330
18
100
AcDbEntity
  8
1
 62
     1
100
AcDbLine
 10
32.07100962292874
 20
1.330156189402146
 30
0.0
 11
32.09486198743591
 21
1.341256976114656
 31
0.0
  0
LINE
  5
57F
330
18
100
AcDbEntity
  8
1
 62
     1
100
AcDbLine
 10
32.09486198743591
 20
1.341256976114656
 30
0.0
 11
32.11853907374009
 21
1.351048733863193
 31
0.0
  0
LINE
  5
580
330
18
100
AcDbEntity
  8
1
 62
     1
100
AcDbLine
 10
32.11853907374009
 20
1.351048733863193
 30
0.0
 11
32.14203332102954
 21
1.359526600693783
 31
0.0
  0
LINE
  5
581
330
18
100
AcDbEntity
  8
1
 62
     1
100
AcDbLine
 10
32.14203332102954
 20
1.359526600693783
 30
0.0
 11
32.16534289678413
 21
1.366689747867891
 31
0.0
  0
LINE
  5
582
330
18
100
AcDbEntity
  8
1
 62
     1
100
AcDbLine
 10
32.16534289678413
 20
1.366689747867891
 30
0.0
 11
32.18845298923242
 21
1.372533025437087
 31
0.0
  0
ARC
  5
583
330
18
100
AcDbEntity
  8
1
 62
     1
100
AcDbCircle
 10
103.7017827549548
 20
45.87680025135051
 30
0.0
 40
83.66711881041553
100
AcDbArc
 50
211.2998258791574
 51
211.8082100650642
  0
LINE
  5
584
330
18
100
AcDbEntity
  8
1
 62
     1
100
AcDbLine
 10
32.21154701076759
 20
2.410353174838502
 30
0.0
 11
32.21154701076759
 21
1.367408083429617
 31
0.0
  0
LINE
  5
585
330
18
100
AcDbEntity
  8
1
 62
     1
100
AcDbLine
 10
32.2115470107676
 20
1.367408083429615
 30
0.0
 11
32.25979925063191
 21
1.333442272331933
 31
0.0
  0
LINE
  5
586
330
18
100
AcDbEntity
  8
1
 62
     1
100
AcDbLine
 10
32.25979925063191
 20
1.333442272331933
 30
0.0
 11
32.30829964093019
 21
1.295623712368472
 31
0.0
  0
LINE
  5
587
330
18
100
AcDbEntity
  8
1
 62
     1
100
AcDbLine
 10
32.30829964093019
 20
1.295623712368472
 30
0.0
 11
32.35696673345559
 21
1.254140665126887
 31
0.0
  0
LINE
  5
588
330
18
100
AcDbEntity
  8
1
 62
     1
100
AcDbLine
 10
32.35696673345559
 20
1.254140665126887
 30
0.0
 11
32.40572836591553
 21
1.209162771631382
 31
0.0
  0
LINE
  5
589
330
18
100
AcDbEntity
  8
1
 62
     1
100
AcDbLine
 10
32.40572836591553
 20
1.209162771631382
 30
0.0
 11
32.50318741906374
 21
1.109385522977731
 31
0.0
  0
LINE
  5
58A
330
18
100
AcDbEntity
  8
1
 62
     1
100
AcDbLine
 10
32.50318741906374
 20
1.109385522977731
 30
0.0
 11
32.6
 21
0.9974125703927661
 31
0.0
  0
ARC
  5
58B
330
18
100
AcDbEntity
  8
1
 62
     1
100
AcDbCircle
 10
48.79202743911792
 20
-8.843643779033794
 30
0.0
 40
19.36479262328878
100
AcDbArc
 50
144.6960930577659
 51
146.7366230075625
  0
LINE
  5
58C
330
18
100
AcDbEntity
  8
1
 62
     1
100
AcDbLine
 10
32.6
 20
0.9974125703927665
 30
0.0
 11
32.6
 21
1.77772081289773
 31
0.0
  0
LINE
  5
58D
330
18
100
AcDbEntity
  8
1
 62
     1
100
AcDbLine
 10
32.6
 20
0.9974125703927661
 30
0.0
 11
32.65009218780114
 21
1.039934596846575
 31
0.0
  0
LINE
  5
58E
330
18
100
AcDbEntity
  8
1
 62
     1
100
AcDbLine
 10
32.65009218780114
 20
1.039934596846575
 30
0.0
 11
32.69995135695851
 21
1.077292342731182
 31
0.0
  0
LINE
  5
58F
330
18
100
AcDbEntity
  8
1
 62
     1
100
AcDbLine
 10
32.69995135695851
 20
1.077292342731182
 30
0.0
 11
32.724756413379
 21
1.094017824451392
 31
0.0
  0
LINE
  5
590
330
18
100
AcDbEntity
  8
1
 62
     1
100
AcDbLine
 10
32.724756413379
 20
1.094017824451392
 30
0.0
 11
32.7494550522101
 21
1.109428380277564
 31
0.0
  0
LINE
  5
591
330
18
100
AcDbEntity
  8
1
 62
     1
100
AcDbLine
 10
32.7494550522101
 20
1.109428380277564
 30
0.0
 11
32.77404311497139
 21
1.123523641451695
 31
0.0
  0
LINE
  5
592
330
18
100
AcDbEntity
  8
1
 62
     1
100
AcDbLine
 10
32.77404311497139
 20
1.123523641451695
 30
0.0
 11
32.79850016119088
 21
1.136293305669974
 31
0.0
  0
LINE
  5
593
330
18
100
AcDbEntity
  8
1
 62
     1
100
AcDbLine
 10
32.79850016119088
 20
1.136293305669974
 30
0.0
 11
32.82282101868394
 21
1.147735152027411
 31
0.0
  0
LINE
  5
594
330
18
100
AcDbEntity
  8
1
 62
     1
100
AcDbLine
 10
32.82282101868394
 20
1.147735152027411
 30
0.0
 11
32.84699607986443
 21
1.157846151382235
 31
0.0
  0
LINE
  5
595
330
18
100
AcDbEntity
  8
1
 62
     1
100
AcDbLine
 10
32.84699607986443
 20
1.157846151382235
 30
0.0
 11
32.87100962402004
 21
1.166620067122138
 31
0.0
  0
LINE
  5
596
330
18
100
AcDbEntity
  8
1
 62
     1
100
AcDbLine
 10
32.87100962402004
 20
1.166620067122138
 30
0.0
 11
32.89486198729053
 21
1.174057852570167
 31
0.0
  0
LINE
  5
597
330
18
100
AcDbEntity
  8
1
 62
     1
100
AcDbLine
 10
32.89486198729053
 20
1.174057852570167
 30
0.0
 11
32.91853907224239
 21
1.180156460674503
 31
0.0
  0
LINE
  5
598
330
18
100
AcDbEntity
  8
1
 62
     1
100
AcDbLine
 10
32.91853907224239
 20
1.180156460674503
 30
0.0
 11
32.94203331960509
 21
1.184914315432721
 31
0.0
  0
LINE
  5
599
330
18
100
AcDbEntity
  8
1
 62
     1
100
AcDbLine
 10
32.94203331960509
 20
1.184914315432721
 30
0.0
 11
32.96534289564242
 21
1.188333101871778
 31
0.0
  0
LINE
  5
59A
330
18
100
AcDbEntity
  8
1
 62
     1
100
AcDbLine
 10
32.96534289564242
 20
1.188333101871778
 30
0.0
 11
32.98845298923241
 21
1.190412263142074
 31
0.0
  0
LINE
  5
59B
330
18
100
AcDbEntity
  8
1
 62
     1
100
AcDbLine
 10
32.98845298923241
 20
2.347528598405938
 30
0.0
 11
32.98845298923241
 21
1.190412263200547
 31
0.0
  0
ARC
  5
59C
330
18
100
AcDbEntity
  8
1
 62
     1
100
AcDbCircle
 10
80.52817928184896
 20
32.18387538561063
 30
0.0
 40
56.10850770786875
100
AcDbArc
 50
212.1271049635201
 51
212.8655109196521
  0
LINE
  5
59D
330
18
100
AcDbEntity
  8
1
 62
     1
100
AcDbLine
 10
33.01154701076759
 20
2.345414650712579
 30
0.0
 11
33.01154701076759
 21
1.185021113365814
 31
0.0
  0
LINE
  5
59E
330
18
100
AcDbEntity
  8
1
 62
     1
100
AcDbLine
 10
33.01154701076757
 20
1.185021113365802
 30
0.0
 11
33.05979924740446
 21
1.157765114244286
 31
0.0
  0
LINE
  5
59F
330
18
100
AcDbEntity
  8
1
 62
     1
100
AcDbLine
 10
33.05979924740446
 20
1.157765114244286
 30
0.0
 11
33.1082996363938
 21
1.126504508338325
 31
0.0
  0
LINE
  5
5A0
330
18
100
AcDbEntity
  8
1
 62
     1
100
AcDbLine
 10
33.1082996363938
 20
1.126504508338325
 30
0.0
 11
33.15696672896568
 21
1.091417619341647
 31
0.0
  0
LINE
  5
5A1
330
18
100
AcDbEntity
  8
1
 62
     1
100
AcDbLine
 10
33.15696672896568
 20
1.091417619341647
 30
0.0
 11
33.20572836282576
 21
1.052667296529786
 31
0.0
  0
LINE
  5
5A2
330
18
100
AcDbEntity
  8
1
 62
     1
100
AcDbLine
 10
33.20572836282576
 20
1.052667296529786
 30
0.0
 11
33.25449356899455
 21
1.010418762974486
 31
0.0
  0
LINE
  5
5A3
330
18
100
AcDbEntity
  8
1
 62
     1
100
AcDbLine
 10
33.25449356899455
 20
1.010418762974486
 30
0.0
 11
33.3031874181753
 21
0.9648091578625805
 31
0.0
  0
LINE
  5
5A4
330
18
100
AcDbEntity
  8
1
 62
     1
100
AcDbLine
 10
33.3031874181753
 20
0.9648091578625805
 30
0.0
 11
33.39999999999999
 21
0.8640083165610781
 31
0.0
  0
ARC
  5
5A5
330
18
100
AcDbEntity
  8
1
 62
     1
100
AcDbCircle
 10
67.49525544391147
 20
24.29687542268568
 30
0.0
 40
40.2499507675807
100
AcDbArc
 50
213.1896272439057
 51
214.1866195454439
  0
LINE
  5
5A6
330
18
100
AcDbEntity
  8
1
 62
     1
100
AcDbLine
 10
33.8115470107676
 20
0.9940986577729003
 30
0.0
 11
33.83563428703614
 21
0.9844516342042401
 31
0.0
  0
LINE
  5
5A7
330
18
100
AcDbEntity
  8
1
 62
     1
100
AcDbLine
 10
33.83563428703614
 20
0.9844516342042401
 30
0.0
 11
33.85979924770993
 21
0.9737487347028011
 31
0.0
  0
LINE
  5
5A8
330
18
100
AcDbEntity
  8
1
 62
     1
100
AcDbLine
 10
33.85979924770993
 20
0.9737487347028011
 30
0.0
 11
33.90829963642428
 21
0.9492712155936802
 31
0.0
  0
LINE
  5
5A9
330
18
100
AcDbEntity
  8
1
 62
     1
100
AcDbLine
 10
33.90829963642428
 20
0.9492712155936802
 30
0.0
 11
33.95696672834039
 21
0.9208332041438044
 31
0.0
  0
LINE
  5
5AA
330
18
100
AcDbEntity
  8
1
 62
     1
100
AcDbLine
 10
33.95696672834039
 20
0.9208332041438044
 30
0.0
 11
34.00572836222133
 21
0.8885895795074121
 31
0.0
  0
LINE
  5
5AB
330
18
100
AcDbEntity
  8
1
 62
     1
100
AcDbLine
 10
34.00572836222133
 20
0.8885895795074121
 30
0.0
 11
34.05449356879511
 21
0.8526958585530371
 31
0.0
  0
LINE
  5
5AC
330
18
100
AcDbEntity
  8
1
 62
     1
100
AcDbLine
 10
34.05449356879511
 20
0.8526958585530371
 30
0.0
 11
34.10318741862298
 21
0.8132834285272041
 31
0.0
  0
LINE
  5
5AD
330
18
100
AcDbEntity
  8
1
 62
     1
100
AcDbLine
 10
34.10318741862298
 20
0.8132834285272041
 30
0.0
 11
34.1517223668197
 21
0.7704748219010601
 31
0.0
  0
LINE
  5
5AE
330
18
100
AcDbEntity
  8
1
 62
     1
100
AcDbLine
 10
34.1517223668197
 20
0.7704748219010601
 30
0.0
 11
34.2
 21
0.7243807611961464
 31
0.0
  0
LINE
  5
5AF
330
18
100
AcDbEntity
  8
1
 62
     1
100
AcDbLine
 10
34.2
 20
0.7243807611961902
 30
0.0
 11
34.2
 21
1.680808099609274
 31
0.0
  0
ARC
  5
5B0
330
18
100
AcDbEntity
  8
1
 62
     1
100
AcDbCircle
 10
52.51062169943027
 20
-2.182318843518545
 30
0.0
 40
7.42035484875241
100
AcDbArc
 50
145.6505249704967
 51
148.2602546094205
  0
LINE
  5
5B1
330
18
100
AcDbEntity
  8
1
 62
     1
100
AcDbLine
 10
45.99116351993528
 20
2.188895225296115
 30
0.0
 11
45.99116351993528
 21
2.188869719775525
 31
0.0
  0
LINE
  5
5B2
330
18
100
AcDbEntity
  8
1
 62
     1
100
AcDbLine
 10
45.99116351993528
 20
2.188869719775525
 30
0.0
 11
45.99116351993528
 21
2.181295689745264
 31
0.0
  0
LINE
  5
5B3
330
18
100
AcDbEntity
  8
1
 62
     1
100
AcDbLine
 10
45.99116351993528
 20
2.181295689745264
 30
0.0
 11
45.99116351993528
 21
2.073054975125883
 31
0.0
  0
ARC
  5
5B4
330
18
100
AcDbEntity
  8
1
 62
     1
100
AcDbCircle
 10
34.20193528939301
 20
-5.163125350593489
 30
0.0
 40
13.83286750591661
100
AcDbArc
 50
29.84679571652735
 51
31.54143309415317
  0
LINE
  5
5B5
330
18
100
AcDbEntity
  8
1
 62
     1
100
AcDbLine
 10
46.2
 20
1.721250566129989
 30
0.0
 11
46.2
 21
1.82718
 31
0.0
  0
LINE
  5
5B6
330
18
100
AcDbEntity
  8
1
 62
     1
100
AcDbLine
 10
46.84433306953483
 20
2.096802906912201
 30
0.0
 11
46.84433306953482
 21
2.096764970656475
 31
0.0
  0
LINE
  5
5B7
330
18
100
AcDbEntity
  8
1
 62
     1
100
AcDbLine
 10
46.84433306953482
 20
2.096764970656475
 30
0.0
 11
46.84433306953483
 21
2.085419702655045
 31
0.0
  0
LINE
  5
5B8
330
18
100
AcDbEntity
  8
1
 62
     1
100
AcDbLine
 10
46.84433306953483
 20
2.085419702655045
 30
0.0
 11
46.84433306953483
 21
1.921468363943134
 31
0.0
  0
ARC
  5
5B9
330
18
100
AcDbEntity
  8
1
 62
     1
100
AcDbCircle
 10
37.74164906901483
 20
-3.738216267180349
 30
0.0
 40
10.71871703117068
100
AcDbArc
 50
30.25910199446587
 51
31.87169526375144
  0
LINE
  5
5BA
330
18
100
AcDbEntity
  8
1
 62
     1
100
AcDbLine
 10
45.13799397033571
 20
2.280987543680031
 30
0.0
 11
45.13799397033571
 21
2.280972376662047
 31
0.0
  0
LINE
  5
5BB
330
18
100
AcDbEntity
  8
1
 62
     1
100
AcDbLine
 10
45.13799397033571
 20
2.280972376662047
 30
0.0
 11
45.13799397033571
 21
2.276500789245949
 31
0.0
  0
LINE
  5
5BC
330
18
100
AcDbEntity
  8
1
 62
     1
100
AcDbLine
 10
45.13799397033571
 20
2.276500789245949
 30
0.0
 11
45.13799397033571
 21
2.213513821918064
 31
0.0
  0
ARC
  5
5BD
330
18
100
AcDbEntity
  8
1
 62
     1
100
AcDbCircle
 10
28.94212337980114
 20
-7.591078631799363
 30
0.0
 40
18.93241324854835
100
AcDbArc
 50
29.62300085546761
 51
31.18970914982873
  0
LINE
  5
5BE
330
18
100
AcDbEntity
  8
1
 62
     1
100
AcDbLine
 10
45.40000000000001
 20
1.767037510657967
 30
0.0
 11
45.40000000000001
 21
1.82718
 31
0.0
  0
ARC
  5
5BF
330
18
100
AcDbEntity
  8
1
 62
     1
100
AcDbCircle
 10
53.92835477053612
 20
-3.352485454361369
 30
0.0
 40
9.946961259560444
100
AcDbArc
 50
146.5264500492782
 51
149.0238454128752
  0
LINE
  5
5C0
330
18
100
AcDbEntity
  8
1
 62
     1
100
AcDbLine
 10
45.99116351993529
 20
-1.736864954529544
 30
0.0
 11
45.63126534419253
 21
-1.812832872168225
 31
0.0
  0
LINE
  5
5C1
330
18
100
AcDbEntity
  8
1
 62
     1
100
AcDbLine
 10
45.13799397033573
 20
-1.916293238713097
 30
0.0
 11
44.87819660806534
 21
-1.97032874518559
 31
0.0
  0
LINE
  5
5C2
330
18
100
AcDbEntity
  8
1
 62
     1
100
AcDbLine
 10
44.28482442073617
 20
-2.092096401915615
 30
0.0
 11
44.12512787250501
 21
-2.12439173185462
 31
0.0
  0
LINE
  5
5C3
330
18
100
AcDbEntity
  8
1
 62
     1
100
AcDbLine
 10
47.0
 20
1.663065590657531
 30
0.0
 11
47.0
 21
1.82718
 31
0.0
  0
LINE
  5
5C4
330
18
100
AcDbEntity
  8
1
 62
     1
100
AcDbLine
 10
46.99999999999999
 20
-1.486971347123048
 30
0.0
 11
47.00000000000001
 21
-0.345995436316759
 31
0.0
  0
LINE
  5
5C5
330
18
100
AcDbEntity
  8
1
 62
     1
100
AcDbLine
 10
38.61154701076758
 20
-2.487651967362363
 30
0.0
 11
38.61154701076759
 21
-2.5
 31
0.0
  0
LINE
  5
5C6
330
18
100
AcDbEntity
  8
1
 62
     1
100
AcDbLine
 10
37.81154701076758
 20
-2.457650025341573
 30
0.0
 11
37.81154701076759
 21
-2.5
 31
0.0
  0
LINE
  5
5C7
330
18
100
AcDbEntity
  8
1
 62
     1
100
AcDbLine
 10
35.38845298923241
 20
-2.2603208553461
 30
0.0
 11
35.38845298923242
 21
-2.5
 31
0.0
  0
LINE
  5
5C8
330
18
100
AcDbEntity
  8
1
 62
     1
100
AcDbLine
 10
32.18845298923241
 20
-1.775453798387511
 30
0.0
 11
32.18845298923242
 21
-2.495856195632643
 31
0.0
  0
LINE
  5
5C9
330
18
100
AcDbEntity
  8
1
 62
     1
100
AcDbLine
 10
31.41154701076759
 20
-1.624482250877489
 30
0.0
 11
31.41154701076759
 21
-2.475530079634779
 31
0.0
  0
LINE
  5
5CA
330
18
100
AcDbEntity
  8
1
 62
     1
100
AcDbLine
 10
31.38845298923241
 20
-1.619820350758609
 30
0.0
 11
31.38845298923242
 21
-2.474667524475
 31
0.0
  0
LINE
  5
5CB
330
18
100
AcDbEntity
  8
1
 62
     1
100
AcDbLine
 10
43.8
 20
1.820190620803507
 30
0.0
 11
43.80000000000001
 21
1.827179998183849
 31
0.0
  0
ARC
  5
5CC
330
18
100
AcDbEntity
  8
1
 62
     1
100
AcDbCircle
 10
63.70248861814213
 20
-9.694389136706366
 30
0.0
 40
22.9933242378229
100
AcDbArc
 50
148.3691114003077
 51
149.9484830030716
  0
ARC
  5
5CD
330
18
100
AcDbEntity
  8
1
 62
     1
100
AcDbCircle
 10
19.31767130907582
 20
-12.55087214432165
 30
0.0
 40
29.07141672285425
100
AcDbArc
 50
29.58047705515192
 51
30.815500564181
  0
ARC
  5
5CE
330
18
100
AcDbEntity
  8
1
 62
     1
100
AcDbCircle
 10
12.15641451181633
 20
18.72498074245817
 30
0.0
 40
33.78739697412184
100
AcDbArc
 50
329.9420109268852
 51
331.2833967819872
  0
ARC
  5
5CF
330
18
100
AcDbEntity
  8
1
 62
     1
100
AcDbCircle
 10
86.08267213991395
 20
27.70397996492052
 30
0.0
 40
50.94716525902179
100
AcDbArc
 50
209.6618099077758
 51
210.5330567339363
  0
ARC
  5
5D0
330
18
100
AcDbEntity
  8
1
 62
     1
100
AcDbCircle
 10
-118.4140902369139
 20
94.06036984734
 30
0.0
 40
185.2161114126011
100
AcDbArc
 50
330.1315971025159
 51
330.3735874896132
  0
LINE
  5
5D1
330
18
100
AcDbEntity
  8
1
 62
     1
100
AcDbLine
 10
42.61154701076759
 20
2.499999999991927
 30
0.0
 11
42.61154701076758
 21
2.499999997676691
 31
0.0
  0
LINE
  5
5D2
330
18
100
AcDbEntity
  8
1
 62
     1
100
AcDbLine
 10
42.61154701076758
 20
2.499999997676691
 30
0.0
 11
42.61154701076759
 21
2.499999830993556
 31
0.0
  0
LINE
  5
5D3
330
18
100
AcDbEntity
  8
1
 62
     1
100
AcDbLine
 10
42.61154701076759
 20
2.499999830993556
 30
0.0
 11
42.61154701076759
 21
2.499997883783196
 31
0.0
  0
LINE
  5
5D4
330
18
100
AcDbEntity
  8
1
 62
     1
100
AcDbLine
 10
42.61154701076759
 20
2.499997883783194
 30
0.0
 11
42.62139500329276
 21
2.482942880468018
 31
0.0
  0
LINE
  5
5D5
330
18
100
AcDbEntity
  8
1
 62
     1
100
AcDbLine
 10
43.0
 20
1.827173823965385
 30
0.0
 11
43.0
 21
1.82718
 31
0.0
  0
ARC
  5
5D6
330
18
100
AcDbEntity
  8
1
 62
     1
100
AcDbCircle
 10
88.13490625967611
 20
-24.08483393721799
 30
0.0
 40
52.04408366812456
100
AcDbArc
 50
149.3277691158247
 51
150.1398111522767
  0
LINE
  5
5D7
330
18
100
AcDbEntity
  8
1
 62
     1
100
AcDbLine
 10
44.59999999999999
 20
1.800096931927219
 30
0.0
 11
44.6
 21
1.827179998292831
 31
0.0
  0
ARC
  5
5D8
330
18
100
AcDbEntity
  8
1
 62
     1
100
AcDbCircle
 10
56.85407595403337
 20
-5.39482120391662
 30
0.0
 40
14.21015592264807
100
AcDbArc
 50
147.4345697249732
 51
149.5808919982479
  0
LINE
  5
5D9
330
18
100
AcDbEntity
  8
1
 62
     1
100
AcDbLine
 10
44.87819660834877
 20
2.309030435490495
 30
0.0
 11
44.87819660834877
 21
2.309017956080455
 31
0.0
  0
LINE
  5
5DA
330
18
100
AcDbEntity
  8
1
 62
     1
100
AcDbLine
 10
44.87819660834877
 20
2.309017956080455
 30
0.0
 11
44.87819660834877
 21
2.305346929350803
 31
0.0
  0
LINE
  5
5DB
330
18
100
AcDbEntity
  8
1
 62
     1
100
AcDbLine
 10
44.87819660834877
 20
2.305346929350803
 30
0.0
 11
44.87819660834877
 21
2.253896098259964
 31
0.0
  0
ARC
  5
5DC
330
18
100
AcDbEntity
  8
1
 62
     1
100
AcDbCircle
 10
63.5941937886596
 20
15.25403156413353
 30
0.0
 40
25.9527588455537
100
AcDbArc
 50
209.5245686325108
 51
211.2208620482673
  0
LINE
  5
5DD
330
18
100
AcDbEntity
  8
1
 62
     1
100
AcDbLine
 10
43.4316548711366
 20
2.465172180447861
 30
0.0
 11
43.4316548711366
 21
2.465170144836895
 31
0.0
  0
LINE
  5
5DE
330
18
100
AcDbEntity
  8
1
 62
     1
100
AcDbLine
 10
43.4316548711366
 20
2.465170144836895
 30
0.0
 11
43.4316548711366
 21
2.464578917401965
 31
0.0
  0
LINE
  5
5DF
330
18
100
AcDbEntity
  8
1
 62
     1
100
AcDbLine
 10
43.4316548711366
 20
2.464578917401965
 30
0.0
 11
43.43165487113661
 21
2.456562568186121
 31
0.0
  0
ARC
  5
5E0
330
18
100
AcDbEntity
  8
1
 62
     1
100
AcDbCircle
 10
-8.51914539471538
 20
-28.04072713939405
 30
0.0
 40
60.24093518585637
100
AcDbArc
 50
29.71537005084009
 51
30.41471390506666
  0
ARC
  5
5E1
330
18
100
AcDbEntity
  8
1
 62
     1
100
AcDbCircle
 10
24.35828977351741
 20
11.30472244593537
 30
0.0
 40
18.83393290940173
100
AcDbArc
 50
329.5833740191738
 51
332.0033731894659
  0
ARC
  5
5E2
330
18
100
AcDbEntity
  8
1
 62
     1
100
AcDbCircle
 10
54.97752559499328
 20
10.79356971661856
 30
0.0
 40
16.97491864920583
100
AcDbArc
 50
209.5564231002045
 51
212.1146785239228
  0
ARC
  5
5E3
330
18
100
AcDbEntity
  8
1
 62
     1
100
AcDbCircle
 10
31.70391124413239
 20
5.756009105402323
 30
0.0
 40
7.713201475985565
100
AcDbArc
 50
327.3746438071437
 51
333.1905645504543
  0
ARC
  5
5E4
330
18
100
AcDbEntity
  8
1
 62
     1
100
AcDbCircle
 10
46.62135068746832
 20
6.92878577945463
 30
0.0
 40
9.261359136682964
100
AcDbArc
 50
210.1331224934797
 51
214.6213339268741
  0
ARC
  5
5E5
330
18
100
AcDbEntity
  8
1
 62
     1
100
AcDbCircle
 10
30.6630245894034
 20
6.812739295734893
 30
0.0
 40
9.79721785672119
100
AcDbArc
 50
328.3162228869891
 51
332.9445961027525
  0
ARC
  5
5E6
330
18
100
AcDbEntity
  8
1
 62
     1
100
AcDbCircle
 10
28.6503423811639
 20
8.411600103387885
 30
0.0
 40
13.00134409752818
100
AcDbArc
 50
329.0461056671812
 51
332.5523461784783
  0
ARC
  5
5E7
330
18
100
AcDbEntity
  8
1
 62
     1
100
AcDbCircle
 10
50.03885626040452
 20
8.434240553317341
 30
0.0
 40
12.24158428332105
100
AcDbArc
 50
209.7577781504424
 51
213.2380105078396
  0
ARC
  5
5E8
330
18
100
AcDbEntity
  8
1
 62
     1
100
AcDbCircle
 10
43.99127724869493
 20
5.852201862663142
 30
0.0
 40
7.186294693971105
100
AcDbArc
 50
210.6912997016908
 51
216.3035376627816
  0
ARC
  5
5E9
330
18
100
AcDbEntity
  8
1
 62
     1
100
AcDbCircle
 10
32.23555581021769
 20
4.974369074737351
 30
0.0
 40
6.215234712125344
100
AcDbArc
 50
326.1962460856953
 51
333.2973297968847
  0
ARC
  5
5EA
330
18
100
AcDbEntity
  8
1
 62
     1
100
AcDbCircle
 10
41.83171391637741
 20
5.020778004685549
 30
0.0
 40
5.649925421277021
100
AcDbArc
 50
211.4459910508172
 51
218.3337149139328
  0
ARC
  5
5EB
330
18
100
AcDbEntity
  8
1
 62
     1
100
AcDbCircle
 10
32.21053648321723
 20
4.495808010595405
 30
0.0
 40
5.358073281743877
100
AcDbArc
 50
325.8473092206446
 51
333.0805442301876
  0
ARC
  5
5EC
330
18
100
AcDbEntity
  8
1
 62
     1
100
AcDbCircle
 10
40.53129582283741
 20
4.713421403092404
 30
0.0
 40
5.129490331526444
100
AcDbArc
 50
212.6332276902945
 51
214.6501433520488
  0
LINE
  5
5ED
330
18
100
AcDbEntity
  8
1
 62
     1
100
AcDbLine
 10
36.17104155316788
 20
1.910715664090733
 30
0.0
 11
36.18845298923242
 21
1.943447635197124
 31
0.0
  0
LINE
  5
5EE
330
18
100
AcDbEntity
  8
1
 62
     1
100
AcDbLine
 10
32.2115470107676
 20
-2.496201310686132
 30
0.0
 11
32.18845298923242
 21
-2.495856193444225
 31
0.0
  0
LINE
  5
5EF
330
18
100
AcDbEntity
  8
1
 62
     1
100
AcDbLine
 10
31.41154701076759
 20
-2.475530078812428
 30
0.0
 11
31.38845298923242
 21
-2.474667524475
 31
0.0
  0
LINE
  5
5F0
330
18
100
AcDbEntity
  8
1
 62
     1
100
AcDbLine
 10
47.0
 20
-0.1911331881494183
 30
0.0
 11
47.00000000000001
 21
1.663065590657531
 31
0.0
  0
LINE
  5
5F1
330
18
100
AcDbEntity
  8
1
 62
     1
100
AcDbLine
 10
43.4316548711366
 20
2.456562568186122
 30
0.0
 11
43.37205913666126
 21
2.464064825767647
 31
0.0
  0
LINE
  5
5F2
330
18
100
AcDbEntity
  8
1
 62
     1
100
AcDbLine
 10
42.61154701076759
 20
2.499997883783196
 30
0.0
 11
42.59928582294718
 21
2.5
 31
0.0
  0
LINE
  5
5F3
330
18
100
AcDbEntity
  8
1
 62
     1
100
AcDbLine
 10
42.59928582294718
 20
2.5
 30
0.0
 11
42.58845298923245
 21
2.499998346943496
 31
0.0
  0
LINE
  5
5F4
330
18
100
AcDbEntity
  8
1
 62
     1
100
AcDbLine
 10
41.81154701076758
 20
2.49127022168517
 30
0.0
 11
41.78845298923243
 21
2.490751183851891
 31
0.0
  0
LINE
  5
5F5
330
18
100
AcDbEntity
  8
1
 62
     1
100
AcDbLine
 10
41.0115470107676
 20
2.464598449815415
 30
0.0
 11
40.98845298923243
 21
2.463563644975221
 31
0.0
  0
LINE
  5
5F6
330
18
100
AcDbEntity
  8
1
 62
     1
100
AcDbLine
 10
40.21154701076758
 20
2.420174623758798
 30
0.0
 11
40.18845298923242
 21
2.418631506037189
 31
0.0
  0
LINE
  5
5F7
330
18
100
AcDbEntity
  8
1
 62
     1
100
AcDbLine
 10
39.41154701076761
 20
2.358318769929455
 30
0.0
 11
39.38845298923242
 21
2.356278443176319
 31
0.0
  0
LINE
  5
5F8
330
18
100
AcDbEntity
  8
1
 62
     1
100
AcDbLine
 10
38.61154701076759
 20
2.279476515455302
 30
0.0
 11
38.58845298923242
 21
2.276953678398626
 31
0.0
  0
LINE
  5
5F9
330
18
100
AcDbEntity
  8
1
 62
     1
100
AcDbLine
 10
37.8115470107676
 20
2.184215654572007
 30
0.0
 11
37.7884529892324
 21
2.181228490220772
 31
0.0
  0
LINE
  5
5FA
330
18
100
AcDbEntity
  8
1
 62
     1
100
AcDbLine
 10
37.01154701076757
 20
2.073222224049371
 30
0.0
 11
36.98845298923241
 21
2.069792260291941
 31
0.0
  0
LINE
  5
5FB
330
18
100
AcDbEntity
  8
1
 62
     1
100
AcDbLine
 10
36.21154701076759
 20
1.947295711444615
 30
0.0
 11
36.18845298923242
 21
1.943447635197118
 31
0.0
  0
LINE
  5
5FC
330
18
100
AcDbEntity
  8
1
 62
     1
100
AcDbLine
 10
31.4115470107676
 20
2.457930359028017
 30
0.0
 11
31.38845298923241
 21
2.459042226929814
 31
0.0
  0
LINE
  5
5FD
330
18
100
AcDbEntity
  8
1
 62
     1
100
AcDbLine
 10
32.2115470107676
 20
2.410353174838504
 30
0.0
 11
32.18845298923242
 21
2.411971910790986
 31
0.0
  0
LINE
  5
5FE
330
18
100
AcDbEntity
  8
1
 62
     1
100
AcDbLine
 10
33.01154701076759
 20
2.34541465071258
 30
0.0
 11
32.98845298923241
 21
2.347528594421213
 31
0.0
  0
LINE
  5
5FF
330
18
100
AcDbEntity
  8
1
 62
     1
100
AcDbLine
 10
33.81154701076758
 20
2.263582567765682
 30
0.0
 11
33.78845298923243
 21
2.266176503511322
 31
0.0
  0
LINE
  5
600
330
18
100
AcDbEntity
  8
1
 62
     1
100
AcDbLine
 10
34.61154701076759
 20
2.165446409782584
 30
0.0
 11
34.58845298923242
 21
2.168501658249859
 31
0.0
  0
LINE
  5
601
330
18
100
AcDbEntity
  8
1
 62
     1
100
AcDbLine
 10
35.41154701076759
 20
2.051713023969571
 30
0.0
 11
35.38845298923243
 21
2.055207572030215
 31
0.0
  0
LINE
  5
602
330
18
100
AcDbEntity
  8
1
 62
     1
100
AcDbLine
 10
36.21154701076758
 20
1.92320150840225
 30
0.0
 11
36.18845298923242
 21
1.927110173677866
 31
0.0
  0
LINE
  5
603
330
18
100
AcDbEntity
  8
1
 62
     1
100
AcDbLine
 10
37.01154701076759
 20
1.78083746769625
 30
0.0
 11
36.98845298923241
 21
1.785132108613362
 31
0.0
  0
LINE
  5
604
330
18
100
AcDbEntity
  8
1
 62
     1
100
AcDbLine
 10
37.8115470107676
 20
1.625646461440516
 30
0.0
 11
37.78845298923241
 21
1.630296157918548
 31
0.0
  0
LINE
  5
605
330
18
100
AcDbEntity
  8
1
 62
     1
100
AcDbLine
 10
38.61154701076758
 20
1.45874635721199
 30
0.0
 11
38.58845298923242
 21
1.463717604134474
 31
0.0
  0
LINE
  5
606
330
18
100
AcDbEntity
  8
1
 62
     1
100
AcDbLine
 10
39.41154701076759
 20
1.281339211467433
 30
0.0
 11
39.38845298923243
 21
1.286596196207149
 31
0.0
  0
LINE
  5
607
330
18
100
AcDbEntity
  8
1
 62
     1
100
AcDbLine
 10
40.21154701076759
 20
1.0947026968472
 30
0.0
 11
40.18845298923242
 21
1.100207546415362
 31
0.0
  0
LINE
  5
608
330
18
100
AcDbEntity
  8
1
 62
     1
100
AcDbLine
 10
41.01154701076759
 20
0.9001812111571365
 30
0.0
 11
40.98845298923241
 21
0.9058942973996743
 31
0.0
  0
LINE
  5
609
330
18
100
AcDbEntity
  8
1
 62
     1
100
AcDbLine
 10
41.8115470107676
 20
0.6991760220459832
 30
0.0
 11
41.78845298923245
 21
0.7050562002080276
 31
0.0
  0
LINE
  5
60A
330
18
100
AcDbEntity
  8
1
 62
     1
100
AcDbLine
 10
42.61154701076759
 20
0.49313489338727
 30
0.0
 11
42.58845298923244
 21
0.4991397974678403
 31
0.0
  0
LINE
  5
60B
330
18
100
AcDbEntity
  8
1
 62
     1
100
AcDbLine
 10
46.99999999999999
 20
-0.191133188149416
 30
0.0
 11
46.99999999999999
 21
-0.3459954363167592
 31
0.0
  0
LINE
  5
60C
330
18
100
AcDbEntity
  8
1
 62
     1
100
AcDbLine
 10
31.0
 20
-0.751596952227944
 30
0.0
 11
31.00000000000001
 21
1.241759372119504
 31
0.0
  0
LINE
  5
60D
330
18
100
AcDbEntity
  8
1
 62
     1
100
AcDbLine
 10
43.4316548711366
 20
-1.406552624696797
 30
0.0
 11
43.37205913666126
 21
-1.399101142318489
 31
0.0
  0
LINE
  5
60E
330
18
100
AcDbEntity
  8
1
 62
     1
100
AcDbLine
 10
42.61154701076759
 20
-1.252815998805199
 30
0.0
 11
42.58845298923246
 21
-1.247510286208317
 31
0.0
  0
LINE
  5
60F
330
18
100
AcDbEntity
  8
1
 62
     1
100
AcDbLine
 10
41.8115470107676
 20
-1.064860412910924
 30
0.0
 11
41.78845298923244
 21
-1.059314029032674
 31
0.0
  0
LINE
  5
610
330
18
100
AcDbEntity
  8
1
 62
     1
100
AcDbLine
 10
41.01154701076761
 20
-0.8692347031984338
 30
0.0
 11
40.98845298923242
 21
-0.8634876115135719
 31
0.0
  0
LINE
  5
611
330
18
100
AcDbEntity
  8
1
 62
     1
100
AcDbLine
 10
40.21154701076759
 20
-0.6673478852599812
 30
0.0
 11
40.18845298923242
 21
-0.6614414701560873
 31
0.0
  0
LINE
  5
612
330
18
100
AcDbEntity
  8
1
 62
     1
100
AcDbLine
 10
39.4115470107676
 20
-0.460654388785737
 30
0.0
 11
39.38845298923243
 21
-0.4546311538682448
 31
0.0
  0
LINE
  5
613
330
18
100
AcDbEntity
  8
1
 62
     1
100
AcDbLine
 10
38.6115470107676
 20
-0.2506431502975877
 30
0.0
 11
38.58845298923242
 21
-0.244546496778509
 31
0.0
  0
LINE
  5
614
330
18
100
AcDbEntity
  8
1
 62
     1
100
AcDbLine
 10
37.81154701076759
 20
-0.0388265348840823
 30
0.0
 11
37.78845298923242
 21
-0.0327004022515115
 31
0.0
  0
LINE
  5
615
330
18
100
AcDbEntity
  8
1
 62
     1
100
AcDbLine
 10
37.01154701076759
 20
0.1732699537478566
 30
0.0
 11
36.9884529892324
 21
0.179381432752561
 31
0.0
  0
LINE
  5
616
330
18
100
AcDbEntity
  8
1
 62
     1
100
AcDbLine
 10
36.21154701076759
 20
0.3841185270164747
 30
0.0
 11
36.18845298923244
 21
0.3901713574029998
 31
0.0
  0
LINE
  5
617
330
18
100
AcDbEntity
  8
1
 62
     1
100
AcDbLine
 10
35.41154701076758
 20
0.5922001360787258
 30
0.0
 11
35.38845298923242
 21
0.598150749147766
 31
0.0
  0
LINE
  5
618
330
18
100
AcDbEntity
  8
1
 62
     1
100
AcDbLine
 10
34.61154701076759
 20
0.7960161004828369
 30
0.0
 11
34.58845298923242
 21
0.801821602541165
 31
0.0
  0
LINE
  5
619
330
18
100
AcDbEntity
  8
1
 62
     1
100
AcDbLine
 10
33.81154701076759
 20
0.9940986576364006
 30
0.0
 11
33.78845298923243
 21
0.9997172160486131
 31
0.0
  0
LINE
  5
61A
330
18
100
AcDbEntity
  8
1
 62
     1
100
AcDbLine
 10
33.01154701076757
 20
1.185021113365817
 30
0.0
 11
32.98845298923241
 21
1.190412262988407
 31
0.0
  0
LINE
  5
61B
330
18
100
AcDbEntity
  8
1
 62
     1
100
AcDbLine
 10
32.21154701076758
 20
1.367408083429619
 30
0.0
 11
32.18845298923242
 21
1.37253302470491
 31
0.0
  0
LINE
  5
61C
330
18
100
AcDbEntity
  8
1
 62
     1
100
AcDbLine
 10
31.41154701076759
 20
1.539945644928716
 30
0.0
 11
31.38845298923241
 21
1.544767466443106
 31
0.0
  0
LINE
  5
61D
330
18
100
AcDbEntity
  8
1
 62
     1
100
AcDbLine
 10
31.41154701076759
 20
-1.624482250117829
 30
0.0
 11
31.38845298923241
 21
-1.61982035075861
 31
0.0
  0
LINE
  5
61E
330
18
100
AcDbEntity
  8
1
 62
     1
100
AcDbLine
 10
32.21154701076759
 20
-1.779761811219399
 30
0.0
 11
32.18845298923242
 21
-1.775453797118921
 31
0.0
  0
LINE
  5
61F
330
18
100
AcDbEntity
  8
1
 62
     1
100
AcDbLine
 10
33.01154701076759
 20
-1.922222226587141
 30
0.0
 11
32.98845298923242
 21
-1.918299125721519
 31
0.0
  0
LINE
  5
620
330
18
100
AcDbEntity
  8
1
 62
     1
100
AcDbLine
 10
33.8115470107676
 20
-2.050837239850494
 30
0.0
 11
33.78845298923243
 21
-2.047327294910568
 31
0.0
  0
LINE
  5
621
330
18
100
AcDbEntity
  8
1
 62
     1
100
AcDbLine
 10
34.61154701076759
 20
-2.164680405720853
 30
0.0
 11
34.58845298923241
 21
-2.161608898757846
 31
0.0
  0
LINE
  5
622
330
18
100
AcDbEntity
  8
1
 62
     1
100
AcDbLine
 10
35.41154701076758
 20
-2.262931792820686
 30
0.0
 11
35.38845298923243
 21
-2.260320851429014
 31
0.0
  0
LINE
  5
623
330
18
100
AcDbEntity
  8
1
 62
     1
100
AcDbLine
 10
36.21154701076759
 20
-2.344883794131667
 30
0.0
 11
36.1884529892324
 21
-2.342752235389621
 31
0.0
  0
LINE
  5
624
330
18
100
AcDbEntity
  8
1
 62
     1
100
AcDbLine
 10
37.01154701076759
 20
-2.409946106170489
 30
0.0
 11
36.98845298923239
 21
-2.408309274856414
 31
0.0
  0
LINE
  5
625
330
18
100
AcDbEntity
  8
1
 62
     1
100
AcDbLine
 10
37.81154701076759
 20
-2.457650025341573
 30
0.0
 11
37.7884529892324
 21
-2.456519708328179
 31
0.0
  0
LINE
  5
626
330
18
100
AcDbEntity
  8
1
 62
     1
100
AcDbLine
 10
38.61154701076759
 20
-2.487651967362363
 30
0.0
 11
38.58845298923242
 21
-2.487036308668027
 31
0.0
  0
LINE
  5
627
330
18
100
AcDbEntity
  8
1
 62
     1
100
AcDbLine
 10
39.4115470107676
 20
-2.499735868368541
 30
0.0
 11
39.38845298923243
 21
-2.499639297615913
 31
0.0
  0
LINE
  5
628
330
18
100
AcDbEntity
  8
1
 62
     1
100
AcDbLine
 10
40.21154701076758
 20
-2.493814680761663
 30
0.0
 11
40.1884529892324
 21
-2.494237901140694
 31
0.0
  0
LINE
  5
629
330
18
100
AcDbEntity
  8
1
 62
     1
100
AcDbLine
 10
41.01154701076759
 20
-2.469931030045252
 30
0.0
 11
40.98845298923242
 21
-2.470870991858845
 31
0.0
  0
LINE
  5
62A
330
18
100
AcDbEntity
  8
1
 62
     1
100
AcDbLine
 10
41.81154701076759
 20
-2.42825697640612
 30
0.0
 11
41.78845298923242
 21
-2.429706911449792
 31
0.0
  0
LINE
  5
62B
330
18
100
AcDbEntity
  8
1
 62
     1
100
AcDbLine
 10
42.61154701076759
 20
-2.36909270748394
 30
0.0
 11
42.58845298923244
 21
-2.371042165306769
 31
0.0
  0
LINE
  5
62C
330
18
100
AcDbEntity
  8
1
 62
     1
100
AcDbLine
 10
43.43165487113662
 20
-2.26168877533066
 30
0.0
 11
43.37205913666126
 21
-2.27323567728495
 31
0.0
  0
LINE
  5
62D
330
18
100
AcDbEntity
  8
1
 62
     1
100
AcDbLine
 10
31.00000000000001
 20
-1.781683420812063
 30
0.0
 11
31.0
 21
-1.012029354243062
 31
0.0
  0
LINE
  5
62E
330
18
100
AcDbEntity
  8
1
 62
     1
100
AcDbLine
 10
31.0
 20
-1.012029354243061
 30
0.0
 11
31.0
 21
-0.7515969522279438
 31
0.0
  0
LINE
  5
62F
330
18
100
AcDbEntity
  8
1
 62
     1
100
AcDbLine
 10
31.0
 20
1.241759372119504
 30
0.0
 11
31.0
 21
1.823507562837722
 31
0.0
  0
LINE
  5
630
330
18
100
AcDbEntity
  8
1
 62
     1
100
AcDbLine
 10
46.38433408003628
 20
2.146455843326845
 30
0.0
 11
46.2
 21
1.82718
 31
0.0
  0
LINE
  5
631
330
18
100
AcDbEntity
  8
1
 62
     1
100
AcDbLine
 10
46.2
 20
1.82718
 30
0.0
 11
45.99116351993527
 21
2.188895225296114
 31
0.0
  0
LINE
  5
632
330
18
100
AcDbEntity
  8
1
 62
     1
100
AcDbLine
 10
47.0
 20
1.82718
 30
0.0
 11
46.84433306953483
 21
2.096802906912204
 31
0.0
  0
LINE
  5
633
330
18
100
AcDbEntity
  8
1
 62
     1
100
AcDbLine
 10
45.40000000000001
 20
1.82718
 30
0.0
 11
45.13799397033571
 21
2.28098754368003
 31
0.0
  0
LINE
  5
634
330
18
100
AcDbEntity
  8
1
 62
     1
100
AcDbLine
 10
45.63126534419253
 20
2.227743139408668
 30
0.0
 11
45.40000000000001
 21
1.82718
 31
0.0
  0
LINE
  5
635
330
18
100
AcDbEntity
  8
1
 62
     1
100
AcDbLine
 10
39.38845298923242
 20
-2.5
 30
0.0
 11
39.4115470107676
 21
-2.5
 31
0.0
  0
LINE
  5
636
330
18
100
AcDbEntity
  8
1
 62
     1
100
AcDbLine
 10
38.58845298923242
 20
-2.5
 30
0.0
 11
38.61154701076759
 21
-2.5
 31
0.0
  0
LINE
  5
637
330
18
100
AcDbEntity
  8
1
 62
     1
100
AcDbLine
 10
37.78845298923241
 20
-2.5
 30
0.0
 11
37.81154701076759
 21
-2.5
 31
0.0
  0
LINE
  5
638
330
18
100
AcDbEntity
  8
1
 62
     1
100
AcDbLine
 10
36.98845298923241
 20
-2.5
 30
0.0
 11
37.01154701076759
 21
-2.5
 31
0.0
  0
LINE
  5
639
330
18
100
AcDbEntity
  8
1
 62
     1
100
AcDbLine
 10
36.18845298923242
 20
-2.5
 30
0.0
 11
36.21154701076759
 21
-2.5
 31
0.0
  0
LINE
  5
63A
330
18
100
AcDbEntity
  8
1
 62
     1
100
AcDbLine
 10
35.38845298923242
 20
-2.5
 30
0.0
 11
35.41154701076759
 21
-2.5
 31
0.0
  0
LINE
  5
63B
330
18
100
AcDbEntity
  8
1
 62
     1
100
AcDbLine
 10
34.58845298923242
 20
-2.5
 30
0.0
 11
34.61154701076759
 21
-2.5
 31
0.0
  0
LINE
  5
63C
330
18
100
AcDbEntity
  8
1
 62
     1
100
AcDbLine
 10
33.78845298923243
 20
-2.5
 30
0.0
 11
33.81154701076759
 21
-2.5
 31
0.0
  0
LINE
  5
63D
330
18
100
AcDbEntity
  8
1
 62
     1
100
AcDbLine
 10
32.98845298923241
 20
-2.5
 30
0.0
 11
33.01154701076759
 21
-2.5
 31
0.0
  0
LINE
  5
63E
330
18
100
AcDbEntity
  8
1
 62
     1
100
AcDbLine
 10
44.12512787250502
 20
2.390317731572317
 30
0.0
 11
43.8
 21
1.82718
 31
0.0
  0
LINE
  5
63F
330
18
100
AcDbEntity
  8
1
 62
     1
100
AcDbLine
 10
44.59999999999999
 20
1.82718
 30
0.0
 11
44.28482442073616
 21
2.373079862063945
 31
0.0
  0
LINE
  5
640
330
18
100
AcDbEntity
  8
1
 62
     1
100
AcDbLine
 10
42.98492511115582
 20
1.853290586796369
 30
0.0
 11
42.99999732635984
 21
1.827178457136032
 31
0.0
  0
LINE
  5
641
330
18
100
AcDbEntity
  8
1
 62
     1
100
AcDbLine
 10
42.99999732635984
 20
1.827178457136031
 30
0.0
 11
43.0
 21
1.827173823965385
 31
0.0
  0
LINE
  5
642
330
18
100
AcDbEntity
  8
1
 62
     1
100
AcDbLine
 10
43.0
 20
1.82718
 30
0.0
 11
42.98492505678076
 21
1.853290555402893
 31
0.0
  0
LINE
  5
643
330
18
100
AcDbEntity
  8
1
 62
     1
100
AcDbLine
 10
42.62139500329276
 20
2.482942880468018
 30
0.0
 11
42.98492511115582
 21
1.853290586796369
 31
0.0
  0
LINE
  5
644
330
18
100
AcDbEntity
  8
1
 62
     1
100
AcDbLine
 10
42.62139496175763
 20
2.482942856487703
 30
0.0
 11
42.6115470107676
 21
2.499999999999997
 31
0.0
  0
LINE
  5
645
330
18
100
AcDbEntity
  8
1
 62
     1
100
AcDbLine
 10
43.37205913666126
 20
2.471605027654145
 30
0.0
 11
43.0
 21
1.82718
 31
0.0
  0
LINE
  5
646
330
18
100
AcDbEntity
  8
1
 62
     1
100
AcDbLine
 10
44.87819660834877
 20
2.309030435490494
 30
0.0
 11
44.60000000000001
 21
1.82718
 31
0.0
  0
LINE
  5
647
330
18
100
AcDbEntity
  8
1
 62
     1
100
AcDbLine
 10
43.8
 20
1.82718
 30
0.0
 11
43.4316548711366
 21
2.465172180447861
 31
0.0
  0
LINE
  5
648
330
18
100
AcDbEntity
  8
1
 62
     1
100
AcDbLine
 10
42.56590456172424
 20
0.5049999452224597
 30
0.0
 11
42.58845298923244
 21
0.4991397994862346
 31
0.0
  0
LINE
  5
649
330
18
100
AcDbEntity
  8
1
 62
     1
100
AcDbLine
 10
38.24986356509225
 20
-0.0379329685324189
 30
0.0
 11
38.249871442691
 21
-0.0379345677889167
 31
0.0
  0
LINE
  5
64A
330
18
100
AcDbEntity
  8
1
 62
     1
100
AcDbLine
 10
38.249871442691
 20
-0.0379345677889167
 30
0.0
 11
38.27173347057179
 21
-0.0429373416959855
 31
0.0
  0
LINE
  5
64B
330
18
100
AcDbEntity
  8
1
 62
     1
100
AcDbLine
 10
38.27173347057179
 20
-0.0429373416959855
 30
0.0
 11
38.29354295179542
 21
-0.0490524930093844
 31
0.0
  0
LINE
  5
64C
330
18
100
AcDbEntity
  8
1
 62
     1
100
AcDbLine
 10
38.29354295179542
 20
-0.0490524930093844
 30
0.0
 11
38.31528870823398
 21
-0.056267878564309
 31
0.0
  0
LINE
  5
64D
330
18
100
AcDbEntity
  8
1
 62
     1
100
AcDbLine
 10
38.31528870823398
 20
-0.056267878564309
 30
0.0
 11
38.33695495377116
 21
-0.0645702238628649
 31
0.0
  0
LINE
  5
64E
330
18
100
AcDbEntity
  8
1
 62
     1
100
AcDbLine
 10
38.33695495377116
 20
-0.0645702238628649
 30
0.0
 11
38.35854024024661
 21
-0.073950962889371
 31
0.0
  0
LINE
  5
64F
330
18
100
AcDbEntity
  8
1
 62
     1
100
AcDbLine
 10
38.35854024024661
 20
-0.073950962889371
 30
0.0
 11
38.38003530408598
 21
-0.0843968925103017
 31
0.0
  0
LINE
  5
650
330
18
100
AcDbEntity
  8
1
 62
     1
100
AcDbLine
 10
38.38003530408598
 20
-0.0843968925103017
 30
0.0
 11
38.40142655487085
 21
-0.0958930713339175
 31
0.0
  0
LINE
  5
651
330
18
100
AcDbEntity
  8
1
 62
     1
100
AcDbLine
 10
38.40142655487085
 20
-0.0958930713339175
 30
0.0
 11
38.4227139606183
 21
-0.1084310244940026
 31
0.0
  0
LINE
  5
652
330
18
100
AcDbEntity
  8
1
 62
     1
100
AcDbLine
 10
38.4227139606183
 20
-0.1084310244940026
 30
0.0
 11
38.44388966554351
 21
-0.1219964261533375
 31
0.0
  0
LINE
  5
653
330
18
100
AcDbEntity
  8
1
 62
     1
100
AcDbLine
 10
38.44388966554351
 20
-0.1219964261533375
 30
0.0
 11
38.46494176557002
 21
-0.136572701217886
 31
0.0
  0
LINE
  5
654
330
18
100
AcDbEntity
  8
1
 62
     1
100
AcDbLine
 10
38.46494176557002
 20
-0.136572701217886
 30
0.0
 11
38.5066712412746
 21
-0.1687169720901815
 31
0.0
  0
LINE
  5
655
330
18
100
AcDbEntity
  8
1
 62
     1
100
AcDbLine
 10
38.5066712412746
 20
-0.1687169720901815
 30
0.0
 11
38.54785283484973
 21
-0.2047460481999149
 31
0.0
  0
LINE
  5
656
330
18
100
AcDbEntity
  8
1
 62
     1
100
AcDbLine
 10
38.54785283484973
 20
-0.2047460481999149
 30
0.0
 11
38.58845298923244
 21
-0.2445464952573525
 31
0.0
  0
LINE
  5
657
330
18
100
AcDbEntity
  8
1
 62
     1
100
AcDbLine
 10
38.24987148915819
 20
-0.03793435523241
 30
0.0
 11
38.24986360839125
 21
-0.0379327552589091
 31
0.0
  0
LINE
  5
658
330
18
100
AcDbEntity
  8
1
 62
     1
100
AcDbLine
 10
38.14000710261364
 20
-0.0155249995074761
 30
0.0
 11
38.2
 21
-0.0307501051508633
 31
0.0
  0
LINE
  5
659
330
18
100
AcDbEntity
  8
1
 62
     1
100
AcDbLine
 10
37.51738386315743
 20
0.1152867976644156
 30
0.0
 11
37.51739161305689
 21
0.1152851305364513
 31
0.0
  0
LINE
  5
65A
330
18
100
AcDbEntity
  8
1
 62
     1
100
AcDbLine
 10
37.51739161305689
 20
0.1152851305364514
 30
0.0
 11
37.53486481930548
 21
0.1111639886607424
 31
0.0
  0
LINE
  5
65B
330
18
100
AcDbEntity
  8
1
 62
     1
100
AcDbLine
 10
37.53486481930548
 20
0.1111639886607424
 30
0.0
 11
37.55228575826661
 21
0.106332167123907
 31
0.0
  0
LINE
  5
65C
330
18
100
AcDbEntity
  8
1
 62
     1
100
AcDbLine
 10
37.55228575826661
 20
0.106332167123907
 30
0.0
 11
37.56965073425638
 21
0.1007950675483719
 31
0.0
  0
LINE
  5
65D
330
18
100
AcDbEntity
  8
1
 62
     1
100
AcDbLine
 10
37.56965073425638
 20
0.1007950675483719
 30
0.0
 11
37.58695218990809
 21
0.0945591319041585
 31
0.0
  0
LINE
  5
65E
330
18
100
AcDbEntity
  8
1
 62
     1
100
AcDbLine
 10
37.58695218990809
 20
0.0945591319041585
 30
0.0
 11
37.60418429203081
 21
0.0876301471345737
 31
0.0
  0
LINE
  5
65F
330
18
100
AcDbEntity
  8
1
 62
     1
100
AcDbLine
 10
37.60418429203081
 20
0.0876301471345737
 30
0.0
 11
37.62134947802408
 21
0.0800112657325167
 31
0.0
  0
LINE
  5
660
330
18
100
AcDbEntity
  8
1
 62
     1
100
AcDbLine
 10
37.62134947802408
 20
0.0800112657325167
 30
0.0
 11
37.65545681650565
 21
0.0627316992843853
 31
0.0
  0
LINE
  5
661
330
18
100
AcDbEntity
  8
1
 62
     1
100
AcDbLine
 10
37.65545681650565
 20
0.0627316992843853
 30
0.0
 11
37.68924279751332
 21
0.0427692249513477
 31
0.0
  0
LINE
  5
662
330
18
100
AcDbEntity
  8
1
 62
     1
100
AcDbLine
 10
37.68924279751332
 20
0.0427692249513477
 30
0.0
 11
37.72268700575044
 21
0.0201733747309245
 31
0.0
  0
LINE
  5
663
330
18
100
AcDbEntity
  8
1
 62
     1
100
AcDbLine
 10
37.72268700575044
 20
0.0201733747309245
 30
0.0
 11
37.75576174932964
 21
-0.0050001654069244
 31
0.0
  0
LINE
  5
664
330
18
100
AcDbEntity
  8
1
 62
     1
100
AcDbLine
 10
37.75576174932964
 20
-0.0050001654069244
 30
0.0
 11
37.78845298923243
 21
-0.0327004022525836
 31
0.0
  0
LINE
  5
665
330
18
100
AcDbEntity
  8
1
 62
     1
100
AcDbLine
 10
38.140007093398
 20
-0.0155250444798586
 30
0.0
 11
38.1397690159057
 21
-0.0154762576733983
 31
0.0
  0
LINE
  5
666
330
18
100
AcDbEntity
  8
1
 62
     1
100
AcDbLine
 10
37.51739164657434
 20
0.1152852975855366
 30
0.0
 11
37.51738389900142
 21
0.1152869642846156
 31
0.0
  0
ARC
  5
667
330
18
100
AcDbEntity
  8
1
 62
     1
100
AcDbCircle
 10
37.10372301938882
 20
-0.5269397315077378
 30
0.0
 40
0.7153909235529722
100
AcDbArc
 50
65.53619181606989
 51
77.47774622711472
  0
LINE
  5
668
330
18
100
AcDbEntity
  8
1
 62
     1
100
AcDbLine
 10
36.78464704523902
 20
0.2769579870014686
 30
0.0
 11
36.78465428507548
 21
0.2769563513505202
 31
0.0
  0
ARC
  5
669
330
18
100
AcDbEntity
  8
1
 62
     1
100
AcDbCircle
 10
36.66120577926213
 20
-0.2399888168838046
 30
0.0
 40
0.531549804762466
100
AcDbArc
 50
52.03401349986031
 51
76.56908506553044
  0
LINE
  5
66A
330
18
100
AcDbEntity
  8
1
 62
     1
100
AcDbLine
 10
36.78465432409995
 20
0.2769565194430993
 30
0.0
 11
36.78464708328087
 21
0.2769581553793508
 31
0.0
  0
LINE
  5
66B
330
18
100
AcDbEntity
  8
1
 62
     1
100
AcDbLine
 10
36.37829580342495
 20
0.3698792838809019
 30
0.0
 11
36.37829820646627
 21
0.3698787279725965
 31
0.0
  0
ARC
  5
66C
330
18
100
AcDbEntity
  8
1
 62
     1
100
AcDbCircle
 10
36.19811068079469
 20
-0.3787781007541863
 30
0.0
 40
0.7700802199641593
100
AcDbArc
 50
58.55248164087612
 51
76.46737533313039
  0
LINE
  5
66D
330
18
100
AcDbEntity
  8
1
 62
     1
100
AcDbLine
 10
36.05134887264283
 20
0.4461837537161005
 30
0.0
 11
36.05135506899694
 21
0.4461822952600718
 31
0.0
  0
ARC
  5
66E
330
18
100
AcDbEntity
  8
1
 62
     1
100
AcDbCircle
 10
35.93738288081897
 20
-0.0275187630528051
 30
0.0
 40
0.4872372746842293
100
AcDbArc
 50
58.99026868283177
 51
76.47179872943475
  0
LINE
  5
66F
330
18
100
AcDbEntity
  8
1
 62
     1
100
AcDbLine
 10
36.05135509449981
 20
0.4461824000786464
 30
0.0
 11
36.05134889736919
 21
0.4461838587648087
 31
0.0
  0
ARC
  5
670
330
18
100
AcDbEntity
  8
1
 62
     1
100
AcDbCircle
 10
35.28737792779248
 20
-0.2304593462988246
 30
0.0
 40
0.8357692840480324
100
AcDbArc
 50
52.20450534593802
 51
75.33126028908202
  0
LINE
  5
671
330
18
100
AcDbEntity
  8
1
 62
     1
100
AcDbLine
 10
35.3172255732796
 20
0.6220199514544045
 30
0.0
 11
35.31722939213764
 21
0.622019021911257
 31
0.0
  0
ARC
  5
672
330
18
100
AcDbEntity
  8
1
 62
     1
100
AcDbCircle
 10
35.21038578452266
 20
0.185242914575682
 30
0.0
 40
0.4496562669344558
100
AcDbArc
 50
66.67179702289835
 51
76.25431040790423
  0
LINE
  5
673
330
18
100
AcDbEntity
  8
1
 62
     1
100
AcDbLine
 10
35.31722939576928
 20
0.6220190413521556
 30
0.0
 11
35.31722557795448
 21
0.6220199706598982
 31
0.0
  0
LINE
  5
674
330
18
100
AcDbEntity
  8
1
 62
     1
100
AcDbLine
 10
34.62139142642474
 20
0.7936477550252333
 30
0.0
 11
34.64489463673611
 21
0.7872753079767355
 31
0.0
  0
LINE
  5
675
330
18
100
AcDbEntity
  8
1
 62
     1
100
AcDbLine
 10
34.64489463673611
 20
0.7872753079767355
 30
0.0
 11
34.66846591065233
 21
0.7798882842617625
 31
0.0
  0
LINE
  5
676
330
18
100
AcDbEntity
  8
1
 62
     1
100
AcDbLine
 10
34.66846591065233
 20
0.7798882842617625
 30
0.0
 11
34.69209077163819
 21
0.7715066616859225
 31
0.0
  0
LINE
  5
677
330
18
100
AcDbEntity
  8
1
 62
     1
100
AcDbLine
 10
34.69209077163819
 20
0.7715066616859225
 30
0.0
 11
34.73946045065728
 21
0.7518326415615757
 31
0.0
  0
LINE
  5
678
330
18
100
AcDbEntity
  8
1
 62
     1
100
AcDbLine
 10
34.73946045065728
 20
0.7518326415615757
 30
0.0
 11
34.78695495008212
 21
0.7283828447717415
 31
0.0
  0
LINE
  5
679
330
18
100
AcDbEntity
  8
1
 62
     1
100
AcDbLine
 10
34.78695495008212
 20
0.7283828447717415
 30
0.0
 11
34.83447798476516
 21
0.7013003669952635
 31
0.0
  0
LINE
  5
67A
330
18
100
AcDbEntity
  8
1
 62
     1
100
AcDbLine
 10
34.83447798476516
 20
0.7013003669952635
 30
0.0
 11
34.88196676162961
 21
0.670701992679782
 31
0.0
  0
LINE
  5
67B
330
18
100
AcDbEntity
  8
1
 62
     1
100
AcDbLine
 10
34.88196676162961
 20
0.670701992679782
 30
0.0
 11
34.92934351611324
 21
0.6366991411248689
 31
0.0
  0
LINE
  5
67C
330
18
100
AcDbEntity
  8
1
 62
     1
100
AcDbLine
 10
34.92934351611324
 20
0.6366991411248689
 30
0.0
 11
35.0
 21
0.5795356856978661
 31
0.0
  0
LINE
  5
67D
330
18
100
AcDbEntity
  8
1
 62
     1
100
AcDbLine
 10
34.58204488808575
 20
0.8034774401314967
 30
0.0
 11
34.58223008372939
 21
0.8034311003745025
 31
0.0
  0
LINE
  5
67E
330
18
100
AcDbEntity
  8
1
 62
     1
100
AcDbLine
 10
34.58223008372939
 20
0.8034311003745025
 30
0.0
 11
34.58845298923241
 21
0.8018216059692826
 31
0.0
  0
LINE
  5
67F
330
18
100
AcDbEntity
  8
1
 62
     1
100
AcDbLine
 10
34.62139146053663
 20
0.7936478916564305
 30
0.0
 11
34.62138499526577
 21
0.7936495058057771
 31
0.0
  0
LINE
  5
680
330
18
100
AcDbEntity
  8
1
 62
     1
100
AcDbLine
 10
34.58223011119366
 20
0.8034312102419924
 30
0.0
 11
34.5820449049367
 21
0.8034775075412662
 31
0.0
  0
LINE
  5
681
330
18
100
AcDbEntity
  8
SK1
100
AcDbLine
 10
-24.8
 20
-2.45
 30
0.0
 11
-17.09999999999999
 21
-2.45
 31
0.0
  0
LINE
  5
682
330
18
100
AcDbEntity
  8
SK1
100
AcDbLine
 10
-17.09999999999999
 20
-2.45
 30
0.0
 11
-17.09999999999999
 21
-3.0
 31
0.0
  0
LINE
  5
683
330
18
100
AcDbEntity
  8
SK1
100
AcDbLine
 10
-24.8
 20
1.73132896931808
 30
0.0
 11
-17.09999999999999
 21
1.73132896931808
 31
0.0
  0
LINE
  5
684
330
18
100
AcDbEntity
  8
SK1
100
AcDbLine
 10
-24.8
 20
2.45
 30
0.0
 11
-17.09999999999999
 21
2.45
 31
0.0
  0
ARC
  5
685
330
18
100
AcDbEntity
  8
SK1
100
AcDbCircle
 10
-20.29671877166226
 20
-0.9099443639504765
 30
0.0
 40
5.220406378882671
100
AcDbArc
 50
149.6074408112779
 51
156.9418773502745
  0
LINE
  5
686
330
18
100
AcDbEntity
  8
SK1
100
AcDbLine
 10
-24.8
 20
2.450000000000001
 30
0.0
 11
-24.8
 21
1.73132896931808
 31
0.0
  0
LINE
  5
687
330
18
100
AcDbEntity
  8
SK1
100
AcDbLine
 10
-25.09999999999999
 20
2.45
 30
0.0
 11
-24.8
 21
2.450000000000001
 31
0.0
  0
LINE
  5
688
330
18
100
AcDbEntity
  8
SK1
100
AcDbLine
 10
-17.09999999999999
 20
3.0
 30
0.0
 11
-17.1
 21
2.999884134508326
 31
0.0
  0
LINE
  5
689
330
18
100
AcDbEntity
  8
SK1
100
AcDbLine
 10
-17.1
 20
2.999884134508326
 30
0.0
 11
-17.09999999999999
 21
2.96468420831774
 31
0.0
  0
LINE
  5
68A
330
18
100
AcDbEntity
  8
SK1
100
AcDbLine
 10
-17.09999999999999
 20
2.96468420831774
 30
0.0
 11
-17.09999999999999
 21
2.450000000000001
 31
0.0
  0
LINE
  5
68B
330
18
100
AcDbEntity
  8
SK1
100
AcDbLine
 10
-24.8
 20
-1.731328969318078
 30
0.0
 11
-17.09999999999999
 21
-1.731328969318078
 31
0.0
  0
LINE
  5
68C
330
18
100
AcDbEntity
  8
SK1
100
AcDbLine
 10
-24.8
 20
-1.731328969318078
 30
0.0
 11
-24.8
 21
-2.45
 31
0.0
  0
LINE
  5
68D
330
18
100
AcDbEntity
  8
SK1
100
AcDbLine
 10
-25.09999999999999
 20
2.449999999999999
 30
0.0
 11
-25.09999999999999
 21
1.134680571791021
 31
0.0
  0
LINE
  5
68E
330
18
100
AcDbEntity
  8
SK1
100
AcDbLine
 10
-25.09999999999999
 20
-1.13468057179102
 30
0.0
 11
-25.1
 21
-2.45
 31
0.0
  0
ARC
  5
68F
330
18
100
AcDbEntity
  8
SK1
100
AcDbCircle
 10
-20.29671877166886
 20
0.9099443639472662
 30
0.0
 40
5.220406378875337
100
AcDbArc
 50
203.0581226497214
 51
210.3925591887283
  0
LINE
  5
690
330
18
100
AcDbEntity
  8
SK1
100
AcDbLine
 10
-25.09999999999999
 20
-2.450000000000001
 30
0.0
 11
-24.8
 21
-2.45
 31
0.0
  0
LINE
  5
691
330
18
100
AcDbEntity
  8
SK1
100
AcDbLine
 10
-17.1
 20
1.731328969318079
 30
0.0
 11
-17.09999999999999
 21
-1.731328969318082
 31
0.0
  0
LINE
  5
692
330
18
100
AcDbEntity
  8
SK1
100
AcDbLine
 10
-25.09999999999999
 20
1.134680571791021
 30
0.0
 11
-25.1
 21
-1.134680571791021
 31
0.0
  0
LINE
  5
693
330
18
100
AcDbEntity
  8
SK1
100
AcDbLine
 10
0.0000000000000107
 20
3.0
 30
0.0
 11
-17.09999999999999
 21
3.0
 31
0.0
  0
LINE
  5
694
330
18
100
AcDbEntity
  8
SK1
100
AcDbLine
 10
-17.09999999999999
 20
-3.0
 30
0.0
 11
0.0000000000000022
 21
-3.0
 31
0.0
  0
DIMENSION
  5
695
330
18
100
AcDbEntity
  8
2
100
AcDbDimension
  2
*D0
 10
62.00000000000002
 20
-2.499999999999948
 30
0.0
 11
59.60925000000005
 21
-11.20149999999995
 31
0.0
 70
    32
  1
M5
 71
     5
 42
5.000000000000001
  3
STANDARD
100
AcDbAlignedDimension
 13
47.0
 23
2.5
 33
0.0
 14
47.0
 24
-2.5
 34
0.0
 50
90.0000000000002
100
AcDbRotatedDimension
  0
DIMENSION
  5
6A3
330
18
100
AcDbEntity
  8
2
100
AcDbDimension
  2
*D1
 10
47.0
 20
75.0
 30
0.0
 11
23.5
 21
77.4205
 31
0.0
 70
    32
  1
<>
 71
     5
 42
47.0
  3
STANDARD
100
AcDbAlignedDimension
 13
0.0
 23
0.0
 33
0.0
 14
47.0
 24
0.0
 34
0.0
100
AcDbRotatedDimension
  0
DIMENSION
  5
6B0
330
18
100
AcDbEntity
  8
SK2
100
AcDbDimension
  2
*D2
 10
-40.09999999998468
 20
-3.000000000117379
 30
0.0
 11
-42.4907499999407
 21
-11.61925000012958
 31
0.0
 70
    32
  1
%%c<>
 71
     5
 42
6.000000000000001
  3
STANDARD
100
AcDbAlignedDimension
 13
-17.09999999999999
 23
3.0
 33
0.0
 14
-17.09999999999999
 24
-3.0
 34
0.0
 50
90.0000000002924
100
AcDbRotatedDimension
  0
DIMENSION
  5
6BE
330
18
100
AcDbEntity
  8
2
100
AcDbDimension
  2
*D3
 10
47.0
 20
60.0
 30
0.0
 11
39.0
 21
62.39075
 31
0.0
 70
    32
  1
<>
 71
     5
 42
16.0
  3
STANDARD
100
AcDbAlignedDimension
 13
31.0
 23
3.0
 33
0.0
 14
47.0
 24
2.5
 34
0.0
100
AcDbRotatedDimension
  0
DIMENSION
  5
6CB
330
18
100
AcDbEntity
  8
SK2
100
AcDbDimension
  2
*D4
 10
47.0
 20
90.0
 30
0.0
 11
10.95
 21
92.39775
 31
0.0
 70
    32
  1
<>
 71
     5
 42
72.1
  3
STANDARD
100
AcDbAlignedDimension
 13
-25.09999999999999
 23
2.5
 33
0.0
 14
47.0
 24
2.5
 34
0.0
100
AcDbRotatedDimension
  0
ENDSEC
  0
SECTION
  2
OBJECTS
  0
DICTIONARY
  5
C
330
0
100
AcDbDictionary
281
     1
  3
ACAD_COLOR
350
387
  3
ACAD_GROUP
350
D
  3
ACAD_LAYOUT
350
301
  3
ACAD_MATERIAL
350
386
  3
ACAD_MLEADERSTYLE
350
6D8
  3
ACAD_MLINESTYLE
350
E
  3
ACAD_PLOTSETTINGS
350
302
  3
ACAD_PLOTSTYLENAME
350
2FF
  3
ACAD_SCALELIST
350
3A0
  3
ACAD_TABLESTYLE
350
388
  3
ACAD_VISUALSTYLE
350
3C5
  3
ACDBHEADERROUNDTRIPXREC
350
6D9
  3
AcDbVariableDictionary
350
357
  0
DICTIONARY
  5
387
102
{ACAD_REACTORS
330
C
102
}
330
C
100
AcDbDictionary
281
     1
  0
DICTIONARY
  5
D
102
{ACAD_REACTORS
330
C
102
}
330
C
100
AcDbDictionary
281
     1
  0
DICTIONARY
  5
301
102
{ACAD_REACTORS
330
C
102
}
330
C
100
AcDbDictionary
281
     1
  3
Layout1
350
33B
  3
Model
350
303
  0
DICTIONARY
  5
386
102
{ACAD_REACTORS
330
C
102
}
330
C
100
AcDbDictionary
281
     1
  3
ByBlock
350
3C3
  3
ByLayer
350
3C2
  3
Global
350
3C4
  0
DICTIONARY
  5
6D8
102
{ACAD_REACTORS
330
C
102
}
330
C
100
AcDbDictionary
281
     1
  0
DICTIONARY
  5
E
102
{ACAD_REACTORS
330
C
102
}
330
C
100
AcDbDictionary
281
     1
  3
STANDARD
350
1B
  0
DICTIONARY
  5
302
102
{ACAD_REACTORS
330
C
102
}
330
C
100
AcDbDictionary
281
     1
  0
ACDBDICTIONARYWDFLT
  5
2FF
102
{ACAD_REACTORS
330
C
102
}
330
C
100
AcDbDictionary
281
     1
  3
Normal
350
300
100
AcDbDictionaryWithDefault
340
300
  0
DICTIONARY
  5
3A0
102
{ACAD_REACTORS
330
C
102
}
330
C
100
AcDbDictionary
281
     1
  3
A0
350
3A1
  3
A1
350
3A2
  3
A2
350
3A3
  3
A3
350
3A4
  3
A4
350
3A5
  3
A5
350
3A6
  3
A6
350
3A7
  3
A7
350
3A8
  3
A8
350
3A9
  3
A9
350
3AA
  3
B0
350
3AB
  3
B1
350
3AC
  3
B2
350
3AD
  3
B3
350
3AE
  3
B4
350
3AF
  3
B5
350
3B0
  3
B6
350
3B1
  3
B7
350
3B2
  3
B8
350
3B3
  3
B9
350
3B4
  3
C0
350
3B5
  3
C1
350
3B6
  3
C2
350
3B7
  3
C3
350
3B8
  3
C4
350
3B9
  3
C5
350
3BA
  3
C6
350
3BB
  3
C7
350
3BC
  3
C8
350
3BD
  3
C9
350
3BE
  3
D0
350
3BF
  3
D1
350
3C0
  3
D2
350
3C1
  0
DICTIONARY
  5
388
102
{ACAD_REACTORS
330
C
102
}
330
C
100
AcDbDictionary
281
     1
  3
Standard
350
389
  0
DICTIONARY
  5
3C5
102
{ACAD_REACTORS
330
C
102
}
330
C
100
AcDbDictionary
281
     1
  3
2dWireframe
350
3CA
  3
3D Hidden
350
3CC
  3
3dWireframe
350
3CB
  3
Basic
350
3CD
  3
Brighten
350
3D1
  3
ColorChange
350
3D5
  3
Conceptual
350
3CF
  3
Dim
350
3D0
  3
Facepattern
350
3D4
  3
Flat
350
3C6
  3
FlatWithEdges
350
3C7
  3
Gouraud
350
3C8
  3
GouraudWithEdges
350
3C9
  3
Linepattern
350
3D3
  3
Realistic
350
3CE
  3
Thicken
350
3D2
  0
DICTIONARY
  5
6D9
102
{ACAD_REACTORS
330
C
102
}
330
C
100
AcDbDictionary
281
     1
  3
COLORDICT
350
6DA
  3
MATERIALDICT
350
6DB
  0
DICTIONARY
  5
357
102
{ACAD_REACTORS
330
C
102
}
330
C
100
AcDbDictionary
281
     1
  3
CANNOSCALE
350
6DC
  3
CTABLESTYLE
350
38D
  3
DIMASSOC
350
359
  3
HIDETEXT
350
358
  3
PROJECTNAME
350
38E
  0
LAYOUT
  5
33B
102
{ACAD_REACTORS
330
301
102
}
330
301
100
AcDbPlotSettings
  1

  2
Lexmark Optra PS2
  4

  6

 40
0.0
 41
0.0
 42
0.0
 43
0.0
 44
0.0
 45
0.0
 46
0.0
 47
0.0
 48
0.0
 49
0.0
140
0.0
141
0.0
142
1.0
143
1.0
 70
   688
 72
     0
 73
     0
 74
     5
  7
monochrome.ctb
 75
    16
147
1.0
148
0.0
149
0.0
100
AcDbLayout
  1
Layout1
 70
     1
 71
     1
 10
0.0
 20
0.0
 11
12.0
 21
9.0
 12
0.0
 22
0.0
 32
0.0
 14
0.0
 24
0.0
 34
0.0
 15
0.0
 25
0.0
 35
0.0
146
0.0
 13
0.0
 23
0.0
 33
0.0
 16
1.0
 26
0.0
 36
0.0
 17
0.0
 27
1.0
 37
0.0
 76
     0
330
338
  0
LAYOUT
  5
303
102
{ACAD_REACTORS
330
301
102
}
330
301
100
AcDbPlotSettings
  1

  2
Lexmark Optra Rx
  4
A4
  6

 40
6.805083274841307
 41
5.535083293914794
 42
6.974411010742187
 43
7.14373779296875
 44
209.9733276367186
 45
296.9259948730469
 46
0.0
 47
0.0
 48
0.0
 49
0.0
140
0.0
141
0.0
142
1.0
143
2.976565420630886
 70
 11952
 72
     1
 73
     1
 74
     0
  7
monochrome.ctb
 75
     0
147
0.335957675604539
148
204.1199660668592
149
172.3933209647495
100
AcDbLayout
  1
Model
 70
     1
 71
     0
 10
0.0
 20
0.0
 11
12.0
 21
9.0
 12
0.0
 22
0.0
 32
0.0
 14
0.0
 24
0.0
 34
0.0
 15
0.0
 25
0.0
 35
0.0
146
0.0
 13
0.0
 23
0.0
 33
0.0
 16
1.0
 26
0.0
 36
0.0
 17
0.0
 27
1.0
 37
0.0
 76
     0
330
18
331
39A
  0
MATERIAL
  5
3C3
102
{ACAD_REACTORS
330
386
102
}
102
{ACAD_XDICTIONARY
360
6DF
102
}
330
386
100
AcDbMaterial
  1
ByBlock
  0
MATERIAL
  5
3C2
102
{ACAD_REACTORS
330
386
102
}
102
{ACAD_XDICTIONARY
360
6DD
102
}
330
386
100
AcDbMaterial
  1
ByLayer
  0
MATERIAL
  5
3C4
102
{ACAD_REACTORS
330
386
102
}
102
{ACAD_XDICTIONARY
360
6E1
102
}
330
386
100
AcDbMaterial
  1
Global
  0
MLINESTYLE
  5
1B
102
{ACAD_REACTORS
330
E
102
}
330
E
100
AcDbMlineStyle
  2
STANDARD
 70
     0
  3

 62
     0
 51
90.0
 52
90.0
 71
     2
 49
0.5
 62
   256
  6
BYLAYER
 49
-0.5
 62
   256
  6
BYLAYER
  0
ACDBPLACEHOLDER
  5
300
102
{ACAD_REACTORS
330
2FF
102
}
330
2FF
  0
SCALE
  5
3A1
102
{ACAD_REACTORS
330
3A0
102
}
330
3A0
100
AcDbScale
 70
     0
300
1:1
140
1.0
141
1.0
290
     1
  0
SCALE
  5
3A2
102
{ACAD_REACTORS
330
3A0
102
}
330
3A0
100
AcDbScale
 70
     0
300
1:2
140
1.0
141
2.0
290
     0
  0
SCALE
  5
3A3
102
{ACAD_REACTORS
330
3A0
102
}
330
3A0
100
AcDbScale
 70
     0
300
1:4
140
1.0
141
4.0
290
     0
  0
SCALE
  5
3A4
102
{ACAD_REACTORS
330
3A0
102
}
330
3A0
100
AcDbScale
 70
     0
300
1:5
140
1.0
141
5.0
290
     0
  0
SCALE
  5
3A5
102
{ACAD_REACTORS
330
3A0
102
}
330
3A0
100
AcDbScale
 70
     0
300
1:8
140
1.0
141
8.0
290
     0
  0
SCALE
  5
3A6
102
{ACAD_REACTORS
330
3A0
102
}
330
3A0
100
AcDbScale
 70
     0
300
1:10
140
1.0
141
10.0
290
     0
  0
SCALE
  5
3A7
102
{ACAD_REACTORS
330
3A0
102
}
330
3A0
100
AcDbScale
 70
     0
300
1:16
140
1.0
141
16.0
290
     0
  0
SCALE
  5
3A8
102
{ACAD_REACTORS
330
3A0
102
}
330
3A0
100
AcDbScale
 70
     0
300
1:20
140
1.0
141
20.0
290
     0
  0
SCALE
  5
3A9
102
{ACAD_REACTORS
330
3A0
102
}
330
3A0
100
AcDbScale
 70
     0
300
1:30
140
1.0
141
30.0
290
     0
  0
SCALE
  5
3AA
102
{ACAD_REACTORS
330
3A0
102
}
330
3A0
100
AcDbScale
 70
     0
300
1:40
140
1.0
141
40.0
290
     0
  0
SCALE
  5
3AB
102
{ACAD_REACTORS
330
3A0
102
}
330
3A0
100
AcDbScale
 70
     0
300
1:50
140
1.0
141
50.0
290
     0
  0
SCALE
  5
3AC
102
{ACAD_REACTORS
330
3A0
102
}
330
3A0
100
AcDbScale
 70
     0
300
1:100
140
1.0
141
100.0
290
     0
  0
SCALE
  5
3AD
102
{ACAD_REACTORS
330
3A0
102
}
330
3A0
100
AcDbScale
 70
     0
300
2:1
140
2.0
141
1.0
290
     0
  0
SCALE
  5
3AE
102
{ACAD_REACTORS
330
3A0
102
}
330
3A0
100
AcDbScale
 70
     0
300
4:1
140
4.0
141
1.0
290
     0
  0
SCALE
  5
3AF
102
{ACAD_REACTORS
330
3A0
102
}
330
3A0
100
AcDbScale
 70
     0
300
8:1
140
8.0
141
1.0
290
     0
  0
SCALE
  5
3B0
102
{ACAD_REACTORS
330
3A0
102
}
330
3A0
100
AcDbScale
 70
     0
300
10:1
140
10.0
141
1.0
290
     0
  0
SCALE
  5
3B1
102
{ACAD_REACTORS
330
3A0
102
}
330
3A0
100
AcDbScale
 70
     0
300
100:1
140
100.0
141
1.0
290
     0
  0
SCALE
  5
3B2
102
{ACAD_REACTORS
330
3A0
102
}
330
3A0
100
AcDbScale
 70
     0
300
1/128" = 1'-0"
140
0.0078125
141
12.0
290
     0
  0
SCALE
  5
3B3
102
{ACAD_REACTORS
330
3A0
102
}
330
3A0
100
AcDbScale
 70
     0
300
1/64" = 1'-0"
140
0.015625
141
12.0
290
     0
  0
SCALE
  5
3B4
102
{ACAD_REACTORS
330
3A0
102
}
330
3A0
100
AcDbScale
 70
     0
300
1/32" = 1'-0"
140
0.03125
141
12.0
290
     0
  0
SCALE
  5
3B5
102
{ACAD_REACTORS
330
3A0
102
}
330
3A0
100
AcDbScale
 70
     0
300
1/16" = 1'-0"
140
0.0625
141
12.0
290
     0
  0
SCALE
  5
3B6
102
{ACAD_REACTORS
330
3A0
102
}
330
3A0
100
AcDbScale
 70
     0
300
3/32" = 1'-0"
140
0.09375
141
12.0
290
     0
  0
SCALE
  5
3B7
102
{ACAD_REACTORS
330
3A0
102
}
330
3A0
100
AcDbScale
 70
     0
300
1/8" = 1'-0"
140
0.125
141
12.0
290
     0
  0
SCALE
  5
3B8
102
{ACAD_REACTORS
330
3A0
102
}
330
3A0
100
AcDbScale
 70
     0
300
3/16" = 1'-0"
140
0.1875
141
12.0
290
     0
  0
SCALE
  5
3B9
102
{ACAD_REACTORS
330
3A0
102
}
330
3A0
100
AcDbScale
 70
     0
300
1/4" = 1'-0"
140
0.25
141
12.0
290
     0
  0
SCALE
  5
3BA
102
{ACAD_REACTORS
330
3A0
102
}
330
3A0
100
AcDbScale
 70
     0
300
3/8" = 1'-0"
140
0.375
141
12.0
290
     0
  0
SCALE
  5
3BB
102
{ACAD_REACTORS
330
3A0
102
}
330
3A0
100
AcDbScale
 70
     0
300
1/2" = 1'-0"
140
0.5
141
12.0
290
     0
  0
SCALE
  5
3BC
102
{ACAD_REACTORS
330
3A0
102
}
330
3A0
100
AcDbScale
 70
     0
300
3/4" = 1'-0"
140
0.75
141
12.0
290
     0
  0
SCALE
  5
3BD
102
{ACAD_REACTORS
330
3A0
102
}
330
3A0
100
AcDbScale
 70
     0
300
1" = 1'-0"
140
1.0
141
12.0
290
     0
  0
SCALE
  5
3BE
102
{ACAD_REACTORS
330
3A0
102
}
330
3A0
100
AcDbScale
 70
     0
300
1-1/2" = 1'-0"
140
1.5
141
12.0
290
     0
  0
SCALE
  5
3BF
102
{ACAD_REACTORS
330
3A0
102
}
330
3A0
100
AcDbScale
 70
     0
300
3" = 1'-0"
140
3.0
141
12.0
290
     0
  0
SCALE
  5
3C0
102
{ACAD_REACTORS
330
3A0
102
}
330
3A0
100
AcDbScale
 70
     0
300
6" = 1'-0"
140
6.0
141
12.0
290
     0
  0
SCALE
  5
3C1
102
{ACAD_REACTORS
330
3A0
102
}
330
3A0
100
AcDbScale
 70
     0
300
1'-0" = 1'-0"
140
12.0
141
12.0
290
     0
  0
TABLESTYLE
  5
389
102
{ACAD_REACTORS
330
388
102
}
330
388
100
AcDbTableStyle
  3
Standard
 70
     0
 71
     0
 40
1.5
 41
1.5
280
     0
281
     0
  7
STANDARD
140
4.5
170
     2
 62
     0
 63
   257
283
     0
274
    -2
284
     1
 64
     0
275
    -2
285
     1
 65
     0
276
    -2
286
     1
 66
     0
277
    -2
287
     1
 67
     0
278
    -2
288
     1
 68
     0
279
    -2
289
     1
 69
     0
  7
STANDARD
140
6.0
170
     5
 62
     0
 63
   257
283
     0
274
    -2
284
     1
 64
     0
275
    -2
285
     1
 65
     0
276
    -2
286
     1
 66
     0
277
    -2
287
     1
 67
     0
278
    -2
288
     1
 68
     0
279
    -2
289
     1
 69
     0
  7
STANDARD
140
4.5
170
     5
 62
     0
 63
   257
283
     0
274
    -2
284
     1
 64
     0
275
    -2
285
     1
 65
     0
276
    -2
286
     1
 66
     0
277
    -2
287
     1
 67
     0
278
    -2
288
     1
 68
     0
279
    -2
289
     1
 69
     0
  0
VISUALSTYLE
  5
3CA
102
{ACAD_REACTORS
330
3C5
102
}
102
{ACAD_XDICTIONARY
360
6EB
102
}
330
3C5
100
AcDbVisualStyle
  2
2dWireframe
 70
     4
 71
     0
 72
     2
 73
     0
 90
        0
 40
-0.6
 41
-30.0
 62
     5
 63
     7
 74
     1
 91
        4
 64
     7
 65
   257
 75
     1
175
     1
 42
1.0
 92
        0
 66
   257
 43
1.0
 76
     1
 77
     6
 78
     2
 67
     7
 79
     5
170
     0
171
     0
290
     0
174
     0
 93
        1
 44
0.0
173
     0
291
     0
 45
0.0
1001
ACAD
1000
AcDbSavedByObjectVersion
1070
     0
  0
VISUALSTYLE
  5
3CC
102
{ACAD_REACTORS
330
3C5
102
}
102
{ACAD_XDICTIONARY
360
6EF
102
}
330
3C5
100
AcDbVisualStyle
  2
3D Hidden
 70
     6
 71
     1
 72
     2
 73
     2
 90
        0
 40
-0.6
 41
-30.0
 62
     5
 63
     7
 74
     2
 91
        2
 64
     7
 65
   257
 75
     2
175
     1
 42
40.0
 92
        0
 66
   257
 43
1.0
 76
     1
 77
     6
 78
     2
 67
     7
 79
     3
170
     0
171
     0
290
     0
174
     0
 93
        1
 44
0.0
173
     0
291
     0
 45
0.0
1001
ACAD
1000
AcDbSavedByObjectVersion
1070
     0
  0
VISUALSTYLE
  5
3CB
102
{ACAD_REACTORS
330
3C5
102
}
102
{ACAD_XDICTIONARY
360
6ED
102
}
330
3C5
100
AcDbVisualStyle
  2
3dWireframe
 70
     5
 71
     0
 72
     2
 73
     0
 90
        0
 40
-0.6
 41
-30.0
 62
     5
 63
     7
 74
     1
 91
        4
 64
     7
 65
   257
 75
     1
175
     1
 42
1.0
 92
        0
 66
   257
 43
1.0
 76
     1
 77
     6
 78
     2
 67
     7
 79
     5
170
     0
171
     0
290
     0
174
     0
 93
        1
 44
0.0
173
     0
291
     0
 45
0.0
1001
ACAD
1000
AcDbSavedByObjectVersion
1070
     0
  0
VISUALSTYLE
  5
3CD
102
{ACAD_REACTORS
330
3C5
102
}
102
{ACAD_XDICTIONARY
360
6F1
102
}
330
3C5
100
AcDbVisualStyle
  2
Basic
 70
     7
 71
     1
 72
     0
 73
     1
 90
        0
 40
-0.6
 41
-30.0
 62
     5
 63
     7
 74
     0
 91
        4
 64
     7
 65
   257
 75
     1
175
     1
 42
1.0
 92
        8
 66
     7
 43
1.0
 76
     1
 77
     6
 78
     2
 67
     7
 79
     5
170
     0
171
     0
290
     0
174
     0
 93
        1
 44
0.0
173
     0
291
     1
 45
0.0
1001
ACAD
1000
AcDbSavedByObjectVersion
1070
     0
  0
VISUALSTYLE
  5
3D1
102
{ACAD_REACTORS
330
3C5
102
}
102
{ACAD_XDICTIONARY
360
6F9
102
}
330
3C5
100
AcDbVisualStyle
  2
Brighten
 70
    12
 71
     2
 72
     2
 73
     0
 90
        0
 40
-0.6
 41
-30.0
 62
     5
 63
     7
 74
     1
 91
        4
 64
     7
 65
   257
 75
     1
175
     1
 42
1.0
 92
        8
 66
     7
 43
1.0
 76
     1
 77
     6
 78
     2
 67
     7
 79
     5
170
     0
171
     0
290
     0
174
     0
 93
        1
 44
50.0
173
     0
291
     1
 45
0.0
1001
ACAD
1000
AcDbSavedByObjectVersion
1070
     0
  0
VISUALSTYLE
  5
3D5
102
{ACAD_REACTORS
330
3C5
102
}
102
{ACAD_XDICTIONARY
360
701
102
}
330
3C5
100
AcDbVisualStyle
  2
ColorChange
 70
    16
 71
     2
 72
     2
 73
     3
 90
        0
 40
-0.6
 41
-30.0
 62
     5
 63
     8
 74
     1
 91
        4
 64
     7
 65
   257
 75
     1
175
     1
 42
1.0
 92
        8
 66
     8
 43
1.0
 76
     1
 77
     6
 78
     2
 67
     7
 79
     5
170
     0
171
     0
290
     0
174
     0
 93
        1
 44
0.0
173
     0
291
     1
 45
0.0
1001
ACAD
1000
AcDbSavedByObjectVersion
1070
     0
  0
VISUALSTYLE
  5
3CF
102
{ACAD_REACTORS
330
3C5
102
}
102
{ACAD_XDICTIONARY
360
6F5
102
}
330
3C5
100
AcDbVisualStyle
  2
Conceptual
 70
     9
 71
     3
 72
     2
 73
     0
 90
        0
 40
-0.6
 41
-30.0
 62
     5
 63
     7
 74
     2
 91
        2
 64
     7
 65
   257
 75
     1
175
     1
 42
40.0
 92
        8
 66
     7
 43
1.0
 76
     1
 77
     6
 78
     2
 67
     7
 79
     3
170
     0
171
     0
290
     0
174
     0
 93
        1
 44
0.0
173
     0
291
     0
 45
0.0
1001
ACAD
1000
AcDbSavedByObjectVersion
1070
     0
  0
VISUALSTYLE
  5
3D0
102
{ACAD_REACTORS
330
3C5
102
}
102
{ACAD_XDICTIONARY
360
6F7
102
}
330
3C5
100
AcDbVisualStyle
  2
Dim
 70
    11
 71
     2
 72
     2
 73
     0
 90
        0
 40
-0.6
 41
-30.0
 62
     5
 63
     7
 74
     1
 91
        4
 64
     7
 65
   257
 75
     1
175
     1
 42
1.0
 92
        8
 66
     7
 43
1.0
 76
     1
 77
     6
 78
     2
 67
     7
 79
     5
170
     0
171
     0
290
     0
174
     0
 93
        1
 44
-50.0
173
     0
291
     1
 45
0.0
1001
ACAD
1000
AcDbSavedByObjectVersion
1070
     0
  0
VISUALSTYLE
  5
3D4
102
{ACAD_REACTORS
330
3C5
102
}
102
{ACAD_XDICTIONARY
360
6FF
102
}
330
3C5
100
AcDbVisualStyle
  2
Facepattern
 70
    15
 71
     2
 72
     2
 73
     0
 90
        0
 40
-0.6
 41
-30.0
 62
     5
 63
     7
 74
     1
 91
        4
 64
     7
 65
   257
 75
     1
175
     1
 42
1.0
 92
        8
 66
     7
 43
1.0
 76
     1
 77
     6
 78
     2
 67
     7
 79
     5
170
     0
171
     0
290
     0
174
     0
 93
        1
 44
0.0
173
     0
291
     1
 45
0.0
1001
ACAD
1000
AcDbSavedByObjectVersion
1070
     0
  0
VISUALSTYLE
  5
3C6
102
{ACAD_REACTORS
330
3C5
102
}
102
{ACAD_XDICTIONARY
360
6E3
102
}
330
3C5
100
AcDbVisualStyle
  2
Flat
 70
     0
 71
     2
 72
     1
 73
     1
 90
        2
 40
-0.6
 41
30.0
 62
     5
 63
     7
 74
     0
 91
        4
 64
     7
 65
   257
 75
     1
175
     1
 42
1.0
 92
        8
 66
     7
 43
1.0
 76
     1
 77
     6
 78
     2
 67
     7
 79
     5
170
     0
171
     0
290
     0
174
     0
 93
       13
 44
0.0
173
     0
291
     1
 45
0.0
1001
ACAD
1000
AcDbSavedByObjectVersion
1070
     0
  0
VISUALSTYLE
  5
3C7
102
{ACAD_REACTORS
330
3C5
102
}
102
{ACAD_XDICTIONARY
360
6E5
102
}
330
3C5
100
AcDbVisualStyle
  2
FlatWithEdges
 70
     1
 71
     2
 72
     1
 73
     1
 90
        2
 40
-0.6
 41
30.0
 62
     5
 63
     7
 74
     1
 91
        4
 64
     7
 65
   257
 75
     1
175
     1
 42
1.0
 92
        0
 66
   257
 43
1.0
 76
     1
 77
     6
 78
     2
 67
     7
 79
     5
170
     0
171
     0
290
     0
174
     0
 93
       13
 44
0.0
173
     0
291
     1
 45
0.0
1001
ACAD
1000
AcDbSavedByObjectVersion
1070
     0
  0
VISUALSTYLE
  5
3C8
102
{ACAD_REACTORS
330
3C5
102
}
102
{ACAD_XDICTIONARY
360
6E7
102
}
330
3C5
100
AcDbVisualStyle
  2
Gouraud
 70
     2
 71
     2
 72
     2
 73
     1
 90
        2
 40
-0.6
 41
30.0
 62
     5
 63
     7
 74
     0
 91
        4
 64
     7
 65
   257
 75
     1
175
     1
 42
1.0
 92
        0
 66
     7
 43
1.0
 76
     1
 77
     6
 78
     2
 67
     7
 79
     5
170
     0
171
     0
290
     0
174
     0
 93
       13
 44
0.0
173
     0
291
     1
 45
0.0
1001
ACAD
1000
AcDbSavedByObjectVersion
1070
     0
  0
VISUALSTYLE
  5
3C9
102
{ACAD_REACTORS
330
3C5
102
}
102
{ACAD_XDICTIONARY
360
6E9
102
}
330
3C5
100
AcDbVisualStyle
  2
GouraudWithEdges
 70
     3
 71
     2
 72
     2
 73
     1
 90
        2
 40
-0.6
 41
30.0
 62
     5
 63
     7
 74
     1
 91
        4
 64
     7
 65
   257
 75
     1
175
     1
 42
1.0
 92
        0
 66
   257
 43
1.0
 76
     1
 77
     6
 78
     2
 67
     7
 79
     5
170
     0
171
     0
290
     0
174
     0
 93
       13
 44
0.0
173
     0
291
     1
 45
0.0
1001
ACAD
1000
AcDbSavedByObjectVersion
1070
     0
  0
VISUALSTYLE
  5
3D3
102
{ACAD_REACTORS
330
3C5
102
}
102
{ACAD_XDICTIONARY
360
6FD
102
}
330
3C5
100
AcDbVisualStyle
  2
Linepattern
 70
    14
 71
     2
 72
     2
 73
     0
 90
        0
 40
-0.6
 41
-30.0
 62
     5
 63
     7
 74
     1
 91
        4
 64
     7
 65
   257
 75
     7
175
     7
 42
1.0
 92
        8
 66
     7
 43
1.0
 76
     1
 77
     6
 78
     2
 67
     7
 79
     5
170
     0
171
     0
290
     0
174
     0
 93
        1
 44
0.0
173
     0
291
     1
 45
0.0
1001
ACAD
1000
AcDbSavedByObjectVersion
1070
     0
  0
VISUALSTYLE
  5
3CE
102
{ACAD_REACTORS
330
3C5
102
}
102
{ACAD_XDICTIONARY
360
6F3
102
}
330
3C5
100
AcDbVisualStyle
  2
Realistic
 70
     8
 71
     2
 72
     2
 73
     0
 90
        0
 40
-0.6
 41
-30.0
 62
     5
 63
     7
 74
     1
 91
        0
 64
     7
 65
   257
 75
     1
175
     1
 42
1.0
 92
        8
 66
     8
 43
1.0
 76
     1
 77
     6
 78
     2
 67
     7
 79
     5
170
     0
171
     0
290
     0
174
     0
 93
       13
 44
0.0
173
     0
291
     0
 45
0.0
1001
ACAD
1000
AcDbSavedByObjectVersion
1070
     0
  0
VISUALSTYLE
  5
3D2
102
{ACAD_REACTORS
330
3C5
102
}
102
{ACAD_XDICTIONARY
360
6FB
102
}
330
3C5
100
AcDbVisualStyle
  2
Thicken
 70
    13
 71
     2
 72
     2
 73
     0
 90
        0
 40
-0.6
 41
-30.0
 62
     5
 63
     7
 74
     1
 91
        4
 64
     7
 65
   257
 75
     1
175
     1
 42
1.0
 92
       12
 66
     7
 43
1.0
 76
     1
 77
     6
 78
     2
 67
     7
 79
     5
170
     0
171
     0
290
     0
174
     0
 93
        1
 44
0.0
173
     0
291
     1
 45
0.0
1001
ACAD
1000
AcDbSavedByObjectVersion
1070
     0
  0
XRECORD
  5
6DA
102
{ACAD_REACTORS
330
6D9
102
}
330
6D9
100
AcDbXrecord
280
     1
340
387
  0
XRECORD
  5
6DB
102
{ACAD_REACTORS
330
6D9
102
}
330
6D9
100
AcDbXrecord
280
     1
340
386
  0
DICTIONARYVAR
  5
6DC
102
{ACAD_REACTORS
330
357
102
}
330
357
100
DictionaryVariables
280
     0
  1
1:1
  0
DICTIONARYVAR
  5
38D
102
{ACAD_REACTORS
330
357
102
}
330
357
100
DictionaryVariables
280
     0
  1
Standard
  0
DICTIONARYVAR
  5
359
102
{ACAD_REACTORS
330
357
102
}
330
357
100
DictionaryVariables
280
     0
  1
2
  0
DICTIONARYVAR
  5
358
102
{ACAD_REACTORS
330
357
102
}
330
357
100
DictionaryVariables
280
     0
  1
1
  0
DICTIONARYVAR
  5
38E
102
{ACAD_REACTORS
330
357
102
}
330
357
100
DictionaryVariables
280
     0
  1

  0
DICTIONARY
  5
6DF
330
3C3
100
AcDbDictionary
280
     1
281
     1
  3
ACAD_XREC_ROUNDTRIP
360
6E0
  0
DICTIONARY
  5
6DD
330
3C2
100
AcDbDictionary
280
     1
281
     1
  3
ACAD_XREC_ROUNDTRIP
360
6DE
  0
DICTIONARY
  5
6E1
330
3C4
100
AcDbDictionary
280
     1
281
     1
  3
ACAD_XREC_ROUNDTRIP
360
6E2
  0
DICTIONARY
  5
6EB
330
3CA
100
AcDbDictionary
280
     1
281
     1
  3
ACAD_XREC_ROUNDTRIP
360
6EC
  0
DICTIONARY
  5
6EF
330
3CC
100
AcDbDictionary
280
     1
281
     1
  3
ACAD_XREC_ROUNDTRIP
360
6F0
  0
DICTIONARY
  5
6ED
330
3CB
100
AcDbDictionary
280
     1
281
     1
  3
ACAD_XREC_ROUNDTRIP
360
6EE
  0
DICTIONARY
  5
6F1
330
3CD
100
AcDbDictionary
280
     1
281
     1
  3
ACAD_XREC_ROUNDTRIP
360
6F2
  0
DICTIONARY
  5
6F9
330
3D1
100
AcDbDictionary
280
     1
281
     1
  3
ACAD_XREC_ROUNDTRIP
360
6FA
  0
DICTIONARY
  5
701
330
3D5
100
AcDbDictionary
280
     1
281
     1
  3
ACAD_XREC_ROUNDTRIP
360
702
  0
DICTIONARY
  5
6F5
330
3CF
100
AcDbDictionary
280
     1
281
     1
  3
ACAD_XREC_ROUNDTRIP
360
6F6
  0
DICTIONARY
  5
6F7
330
3D0
100
AcDbDictionary
280
     1
281
     1
  3
ACAD_XREC_ROUNDTRIP
360
6F8
  0
DICTIONARY
  5
6FF
330
3D4
100
AcDbDictionary
280
     1
281
     1
  3
ACAD_XREC_ROUNDTRIP
360
700
  0
DICTIONARY
  5
6E3
330
3C6
100
AcDbDictionary
280
     1
281
     1
  3
ACAD_XREC_ROUNDTRIP
360
6E4
  0
DICTIONARY
  5
6E5
330
3C7
100
AcDbDictionary
280
     1
281
     1
  3
ACAD_XREC_ROUNDTRIP
360
6E6
  0
DICTIONARY
  5
6E7
330
3C8
100
AcDbDictionary
280
     1
281
     1
  3
ACAD_XREC_ROUNDTRIP
360
6E8
  0
DICTIONARY
  5
6E9
330
3C9
100
AcDbDictionary
280
     1
281
     1
  3
ACAD_XREC_ROUNDTRIP
360
6EA
  0
DICTIONARY
  5
6FD
330
3D3
100
AcDbDictionary
280
     1
281
     1
  3
ACAD_XREC_ROUNDTRIP
360
6FE
  0
DICTIONARY
  5
6F3
330
3CE
100
AcDbDictionary
280
     1
281
     1
  3
ACAD_XREC_ROUNDTRIP
360
6F4
  0
DICTIONARY
  5
6FB
330
3D2
100
AcDbDictionary
280
     1
281
     1
  3
ACAD_XREC_ROUNDTRIP
360
6FC
  0
XRECORD
  5
6E0
102
{ACAD_REACTORS
330
6DF
102
}
330
6DF
100
AcDbXrecord
280
     1
102
MATERIAL
148
0.0
149
0.0
149
0.0
 93
        0
 94
      127
282
     0
 72
     1
 77
     1
171
     1
175
     1
179
     1
273
     0
  0
XRECORD
  5
6DE
102
{ACAD_REACTORS
330
6DD
102
}
330
6DD
100
AcDbXrecord
280
     1
102
MATERIAL
148
0.0
149
0.0
149
0.0
 93
        0
 94
      127
282
     0
 72
     1
 77
     1
171
     1
175
     1
179
     1
273
     0
  0
XRECORD
  5
6E2
102
{ACAD_REACTORS
330
6E1
102
}
330
6E1
100
AcDbXrecord
280
     1
102
MATERIAL
148
0.0
149
0.0
149
0.0
 93
        0
 94
      127
282
     0
 72
     1
 77
     1
171
     1
175
     1
179
     1
273
     0
  0
XRECORD
  5
6EC
102
{ACAD_REACTORS
330
6EB
102
}
330
6EB
100
AcDbXrecord
280
     1
102
RTVSPropertyOp0
 70
     1
102
RTVSPropertyOp1
 70
     1
102
RTVSPropertyOp2
 70
     1
102
RTVSPropertyOp3
 70
     1
102
RTVSPropertyOp4
 70
     1
102
RTVSPropertyOp5
 70
     1
102
RTVSPropertyOp6
 70
     1
102
RTVSPropertyOp7
 70
     1
102
RTVSPropertyOp8
 70
     1
102
RTVSPropertyOp9
 70
     1
102
RTVSPropertyOp10
 70
     1
102
RTVSPropertyOp11
 70
     1
102
RTVSPropertyOp12
 70
     1
102
RTVSPropertyOp13
 70
     1
102
RTVSPropertyOp14
 70
     1
102
RTVSPropertyOp15
 70
     1
102
RTVSPropertyOp16
 70
     1
102
RTVSPropertyOp17
 70
     1
102
RTVSPropertyOp18
 70
     1
102
RTVSPropertyOp19
 70
     1
102
RTVSPropertyOp20
 70
     1
102
RTVSPropertyOp21
 70
     1
102
RTVSPropertyOp22
 70
     1
102
RTVSPropertyOp23
 70
     1
102
RTVSPropertyOp24
 70
     1
102
RTVSPropertyOp25
 70
     1
102
RTVSPropertyOp26
 70
     1
102
RTVSPropertyOp27
 70
     1
102
RTVSPropertyOp28
 70
     1
102
RTVSPropertyOp29
 70
     1
102
RTVSPropertyOp30
 70
     1
102
RTVSPropertyOp31
 70
     1
102
RTVSPropertyOp32
 70
     1
  0
XRECORD
  5
6F0
102
{ACAD_REACTORS
330
6EF
102
}
330
6EF
100
AcDbXrecord
280
     1
102
RTVSPropertyOp0
 70
     1
102
RTVSPropertyOp1
 70
     1
102
RTVSPropertyOp2
 70
     1
102
RTVSPropertyOp3
 70
     1
102
RTVSPropertyOp4
 70
     1
102
RTVSPropertyOp5
 70
     1
102
RTVSPropertyOp6
 70
     1
102
RTVSPropertyOp7
 70
     1
102
RTVSPropertyOp8
 70
     1
102
RTVSPropertyOp9
 70
     1
102
RTVSPropertyOp10
 70
     1
102
RTVSPropertyOp11
 70
     1
102
RTVSPropertyOp12
 70
     1
102
RTVSPropertyOp13
 70
     1
102
RTVSPropertyOp14
 70
     1
102
RTVSPropertyOp15
 70
     1
102
RTVSPropertyOp16
 70
     1
102
RTVSPropertyOp17
 70
     1
102
RTVSPropertyOp18
 70
     1
102
RTVSPropertyOp19
 70
     1
102
RTVSPropertyOp20
 70
     1
102
RTVSPropertyOp21
 70
     1
102
RTVSPropertyOp22
 70
     1
102
RTVSPropertyOp23
 70
     1
102
RTVSPropertyOp24
 70
     1
102
RTVSPropertyOp25
 70
     1
102
RTVSPropertyOp26
 70
     1
102
RTVSPropertyOp27
 70
     1
102
RTVSPropertyOp28
 70
     1
102
RTVSPropertyOp29
 70
     1
102
RTVSPropertyOp30
 70
     1
102
RTVSPropertyOp31
 70
     1
102
RTVSPropertyOp32
 70
     1
  0
XRECORD
  5
6EE
102
{ACAD_REACTORS
330
6ED
102
}
330
6ED
100
AcDbXrecord
280
     1
102
RTVSPropertyOp0
 70
     1
102
RTVSPropertyOp1
 70
     1
102
RTVSPropertyOp2
 70
     1
102
RTVSPropertyOp3
 70
     1
102
RTVSPropertyOp4
 70
     1
102
RTVSPropertyOp5
 70
     1
102
RTVSPropertyOp6
 70
     1
102
RTVSPropertyOp7
 70
     1
102
RTVSPropertyOp8
 70
     1
102
RTVSPropertyOp9
 70
     1
102
RTVSPropertyOp10
 70
     1
102
RTVSPropertyOp11
 70
     1
102
RTVSPropertyOp12
 70
     1
102
RTVSPropertyOp13
 70
     1
102
RTVSPropertyOp14
 70
     1
102
RTVSPropertyOp15
 70
     1
102
RTVSPropertyOp16
 70
     1
102
RTVSPropertyOp17
 70
     1
102
RTVSPropertyOp18
 70
     1
102
RTVSPropertyOp19
 70
     1
102
RTVSPropertyOp20
 70
     1
102
RTVSPropertyOp21
 70
     1
102
RTVSPropertyOp22
 70
     1
102
RTVSPropertyOp23
 70
     1
102
RTVSPropertyOp24
 70
     1
102
RTVSPropertyOp25
 70
     1
102
RTVSPropertyOp26
 70
     1
102
RTVSPropertyOp27
 70
     1
102
RTVSPropertyOp28
 70
     1
102
RTVSPropertyOp29
 70
     1
102
RTVSPropertyOp30
 70
     1
102
RTVSPropertyOp31
 70
     1
102
RTVSPropertyOp32
 70
     1
  0
XRECORD
  5
6F2
102
{ACAD_REACTORS
330
6F1
102
}
330
6F1
100
AcDbXrecord
280
     1
102
RTVSPropertyOp0
 70
     1
102
RTVSPropertyOp1
 70
     1
102
RTVSPropertyOp2
 70
     1
102
RTVSPropertyOp3
 70
     1
102
RTVSPropertyOp4
 70
     1
102
RTVSPropertyOp5
 70
     1
102
RTVSPropertyOp6
 70
     1
102
RTVSPropertyOp7
 70
     1
102
RTVSPropertyOp8
 70
     1
102
RTVSPropertyOp9
 70
     1
102
RTVSPropertyOp10
 70
     1
102
RTVSPropertyOp11
 70
     1
102
RTVSPropertyOp12
 70
     1
102
RTVSPropertyOp13
 70
     1
102
RTVSPropertyOp14
 70
     1
102
RTVSPropertyOp15
 70
     1
102
RTVSPropertyOp16
 70
     1
102
RTVSPropertyOp17
 70
     1
102
RTVSPropertyOp18
 70
     1
102
RTVSPropertyOp19
 70
     1
102
RTVSPropertyOp20
 70
     1
102
RTVSPropertyOp21
 70
     1
102
RTVSPropertyOp22
 70
     1
102
RTVSPropertyOp23
 70
     1
102
RTVSPropertyOp24
 70
     1
102
RTVSPropertyOp25
 70
     1
102
RTVSPropertyOp26
 70
     1
102
RTVSPropertyOp27
 70
     1
102
RTVSPropertyOp28
 70
     1
102
RTVSPropertyOp29
 70
     1
102
RTVSPropertyOp30
 70
     1
102
RTVSPropertyOp31
 70
     1
102
RTVSPropertyOp32
 70
     1
  0
XRECORD
  5
6FA
102
{ACAD_REACTORS
330
6F9
102
}
330
6F9
100
AcDbXrecord
280
     1
102
RTVSPropertyOp0
 70
     1
102
RTVSPropertyOp1
 70
     1
102
RTVSPropertyOp2
 70
     1
102
RTVSPropertyOp3
 70
     1
102
RTVSPropertyOp4
 70
     1
102
RTVSPropertyOp5
 70
     1
102
RTVSPropertyOp6
 70
     1
102
RTVSPropertyOp7
 70
     1
102
RTVSPropertyOp8
 70
     1
102
RTVSPropertyOp9
 70
     1
102
RTVSPropertyOp10
 70
     1
102
RTVSPropertyOp11
 70
     1
102
RTVSPropertyOp12
 70
     1
102
RTVSPropertyOp13
 70
     1
102
RTVSPropertyOp14
 70
     1
102
RTVSPropertyOp15
 70
     1
102
RTVSPropertyOp16
 70
     1
102
RTVSPropertyOp17
 70
     1
102
RTVSPropertyOp18
 70
     1
102
RTVSPropertyOp19
 70
     1
102
RTVSPropertyOp20
 70
     1
102
RTVSPropertyOp21
 70
     1
102
RTVSPropertyOp22
 70
     1
102
RTVSPropertyOp23
 70
     1
102
RTVSPropertyOp24
 70
     1
102
RTVSPropertyOp25
 70
     1
102
RTVSPropertyOp26
 70
     1
102
RTVSPropertyOp27
 70
     1
102
RTVSPropertyOp28
 70
     1
102
RTVSPropertyOp29
 70
     1
102
RTVSPropertyOp30
 70
     1
102
RTVSPropertyOp31
 70
     1
102
RTVSPropertyOp32
 70
     1
  0
XRECORD
  5
702
102
{ACAD_REACTORS
330
701
102
}
330
701
100
AcDbXrecord
280
     1
102
RTVSPropertyOp0
 70
     1
102
RTVSPropertyOp1
 70
     1
102
RTVSPropertyOp2
 70
     1
102
RTVSPropertyOp3
 70
     1
102
RTVSPropertyOp4
 70
     1
102
RTVSPropertyOp5
 70
     1
102
RTVSPropertyOp6
 70
     1
102
RTVSPropertyOp7
 70
     1
102
RTVSPropertyOp8
 70
     1
102
RTVSPropertyOp9
 70
     1
102
RTVSPropertyOp10
 70
     1
102
RTVSPropertyOp11
 70
     1
102
RTVSPropertyOp12
 70
     1
102
RTVSPropertyOp13
 70
     1
102
RTVSPropertyOp14
 70
     1
102
RTVSPropertyOp15
 70
     1
102
RTVSPropertyOp16
 70
     1
102
RTVSPropertyOp17
 70
     1
102
RTVSPropertyOp18
 70
     1
102
RTVSPropertyOp19
 70
     1
102
RTVSPropertyOp20
 70
     1
102
RTVSPropertyOp21
 70
     1
102
RTVSPropertyOp22
 70
     1
102
RTVSPropertyOp23
 70
     1
102
RTVSPropertyOp24
 70
     1
102
RTVSPropertyOp25
 70
     1
102
RTVSPropertyOp26
 70
     1
102
RTVSPropertyOp27
 70
     1
102
RTVSPropertyOp28
 70
     1
102
RTVSPropertyOp29
 70
     1
102
RTVSPropertyOp30
 70
     1
102
RTVSPropertyOp31
 70
     1
102
RTVSPropertyOp32
 70
     1
  0
XRECORD
  5
6F6
102
{ACAD_REACTORS
330
6F5
102
}
330
6F5
100
AcDbXrecord
280
     1
102
RTVSPropertyOp0
 70
     1
102
RTVSPropertyOp1
 70
     1
102
RTVSPropertyOp2
 70
     1
102
RTVSPropertyOp3
 70
     1
102
RTVSPropertyOp4
 70
     1
102
RTVSPropertyOp5
 70
     1
102
RTVSPropertyOp6
 70
     1
102
RTVSPropertyOp7
 70
     1
102
RTVSPropertyOp8
 70
     1
102
RTVSPropertyOp9
 70
     1
102
RTVSPropertyOp10
 70
     1
102
RTVSPropertyOp11
 70
     1
102
RTVSPropertyOp12
 70
     1
102
RTVSPropertyOp13
 70
     1
102
RTVSPropertyOp14
 70
     1
102
RTVSPropertyOp15
 70
     1
102
RTVSPropertyOp16
 70
     1
102
RTVSPropertyOp17
 70
     1
102
RTVSPropertyOp18
 70
     1
102
RTVSPropertyOp19
 70
     1
102
RTVSPropertyOp20
 70
     1
102
RTVSPropertyOp21
 70
     1
102
RTVSPropertyOp22
 70
     1
102
RTVSPropertyOp23
 70
     1
102
RTVSPropertyOp24
 70
     1
102
RTVSPropertyOp25
 70
     1
102
RTVSPropertyOp26
 70
     1
102
RTVSPropertyOp27
 70
     1
102
RTVSPropertyOp28
 70
     1
102
RTVSPropertyOp29
 70
     1
102
RTVSPropertyOp30
 70
     1
102
RTVSPropertyOp31
 70
     1
102
RTVSPropertyOp32
 70
     1
  0
XRECORD
  5
6F8
102
{ACAD_REACTORS
330
6F7
102
}
330
6F7
100
AcDbXrecord
280
     1
102
RTVSPropertyOp0
 70
     1
102
RTVSPropertyOp1
 70
     1
102
RTVSPropertyOp2
 70
     1
102
RTVSPropertyOp3
 70
     1
102
RTVSPropertyOp4
 70
     1
102
RTVSPropertyOp5
 70
     1
102
RTVSPropertyOp6
 70
     1
102
RTVSPropertyOp7
 70
     1
102
RTVSPropertyOp8
 70
     1
102
RTVSPropertyOp9
 70
     1
102
RTVSPropertyOp10
 70
     1
102
RTVSPropertyOp11
 70
     1
102
RTVSPropertyOp12
 70
     1
102
RTVSPropertyOp13
 70
     1
102
RTVSPropertyOp14
 70
     1
102
RTVSPropertyOp15
 70
     1
102
RTVSPropertyOp16
 70
     1
102
RTVSPropertyOp17
 70
     1
102
RTVSPropertyOp18
 70
     1
102
RTVSPropertyOp19
 70
     1
102
RTVSPropertyOp20
 70
     1
102
RTVSPropertyOp21
 70
     1
102
RTVSPropertyOp22
 70
     1
102
RTVSPropertyOp23
 70
     1
102
RTVSPropertyOp24
 70
     1
102
RTVSPropertyOp25
 70
     1
102
RTVSPropertyOp26
 70
     1
102
RTVSPropertyOp27
 70
     1
102
RTVSPropertyOp28
 70
     1
102
RTVSPropertyOp29
 70
     1
102
RTVSPropertyOp30
 70
     1
102
RTVSPropertyOp31
 70
     1
102
RTVSPropertyOp32
 70
     1
  0
XRECORD
  5
700
102
{ACAD_REACTORS
330
6FF
102
}
330
6FF
100
AcDbXrecord
280
     1
102
RTVSPropertyOp0
 70
     1
102
RTVSPropertyOp1
 70
     1
102
RTVSPropertyOp2
 70
     1
102
RTVSPropertyOp3
 70
     1
102
RTVSPropertyOp4
 70
     1
102
RTVSPropertyOp5
 70
     1
102
RTVSPropertyOp6
 70
     1
102
RTVSPropertyOp7
 70
     1
102
RTVSPropertyOp8
 70
     1
102
RTVSPropertyOp9
 70
     1
102
RTVSPropertyOp10
 70
     1
102
RTVSPropertyOp11
 70
     1
102
RTVSPropertyOp12
 70
     1
102
RTVSPropertyOp13
 70
     1
102
RTVSPropertyOp14
 70
     1
102
RTVSPropertyOp15
 70
     1
102
RTVSPropertyOp16
 70
     1
102
RTVSPropertyOp17
 70
     1
102
RTVSPropertyOp18
 70
     1
102
RTVSPropertyOp19
 70
     1
102
RTVSPropertyOp20
 70
     1
102
RTVSPropertyOp21
 70
     1
102
RTVSPropertyOp22
 70
     1
102
RTVSPropertyOp23
 70
     1
102
RTVSPropertyOp24
 70
     1
102
RTVSPropertyOp25
 70
     1
102
RTVSPropertyOp26
 70
     1
102
RTVSPropertyOp27
 70
     1
102
RTVSPropertyOp28
 70
     1
102
RTVSPropertyOp29
 70
     1
102
RTVSPropertyOp30
 70
     1
102
RTVSPropertyOp31
 70
     1
102
RTVSPropertyOp32
 70
     1
  0
XRECORD
  5
6E4
102
{ACAD_REACTORS
330
6E3
102
}
330
6E3
100
AcDbXrecord
280
     1
102
RTVSPropertyOp0
 70
     1
102
RTVSPropertyOp1
 70
     1
102
RTVSPropertyOp2
 70
     1
102
RTVSPropertyOp3
 70
     1
102
RTVSPropertyOp4
 70
     1
102
RTVSPropertyOp5
 70
     1
102
RTVSPropertyOp6
 70
     1
102
RTVSPropertyOp7
 70
     1
102
RTVSPropertyOp8
 70
     1
102
RTVSPropertyOp9
 70
     1
102
RTVSPropertyOp10
 70
     1
102
RTVSPropertyOp11
 70
     1
102
RTVSPropertyOp12
 70
     1
102
RTVSPropertyOp13
 70
     1
102
RTVSPropertyOp14
 70
     1
102
RTVSPropertyOp15
 70
     1
102
RTVSPropertyOp16
 70
     1
102
RTVSPropertyOp17
 70
     1
102
RTVSPropertyOp18
 70
     1
102
RTVSPropertyOp19
 70
     1
102
RTVSPropertyOp20
 70
     1
102
RTVSPropertyOp21
 70
     1
102
RTVSPropertyOp22
 70
     1
102
RTVSPropertyOp23
 70
     1
102
RTVSPropertyOp24
 70
     1
102
RTVSPropertyOp25
 70
     1
102
RTVSPropertyOp26
 70
     1
102
RTVSPropertyOp27
 70
     1
102
RTVSPropertyOp28
 70
     1
102
RTVSPropertyOp29
 70
     1
102
RTVSPropertyOp30
 70
     1
102
RTVSPropertyOp31
 70
     1
102
RTVSPropertyOp32
 70
     1
  0
XRECORD
  5
6E6
102
{ACAD_REACTORS
330
6E5
102
}
330
6E5
100
AcDbXrecord
280
     1
102
RTVSPropertyOp0
 70
     1
102
RTVSPropertyOp1
 70
     1
102
RTVSPropertyOp2
 70
     1
102
RTVSPropertyOp3
 70
     1
102
RTVSPropertyOp4
 70
     1
102
RTVSPropertyOp5
 70
     1
102
RTVSPropertyOp6
 70
     1
102
RTVSPropertyOp7
 70
     1
102
RTVSPropertyOp8
 70
     1
102
RTVSPropertyOp9
 70
     1
102
RTVSPropertyOp10
 70
     1
102
RTVSPropertyOp11
 70
     1
102
RTVSPropertyOp12
 70
     1
102
RTVSPropertyOp13
 70
     1
102
RTVSPropertyOp14
 70
     1
102
RTVSPropertyOp15
 70
     1
102
RTVSPropertyOp16
 70
     1
102
RTVSPropertyOp17
 70
     1
102
RTVSPropertyOp18
 70
     1
102
RTVSPropertyOp19
 70
     1
102
RTVSPropertyOp20
 70
     1
102
RTVSPropertyOp21
 70
     1
102
RTVSPropertyOp22
 70
     1
102
RTVSPropertyOp23
 70
     1
102
RTVSPropertyOp24
 70
     1
102
RTVSPropertyOp25
 70
     1
102
RTVSPropertyOp26
 70
     1
102
RTVSPropertyOp27
 70
     1
102
RTVSPropertyOp28
 70
     1
102
RTVSPropertyOp29
 70
     1
102
RTVSPropertyOp30
 70
     1
102
RTVSPropertyOp31
 70
     1
102
RTVSPropertyOp32
 70
     1
  0
XRECORD
  5
6E8
102
{ACAD_REACTORS
330
6E7
102
}
330
6E7
100
AcDbXrecord
280
     1
102
RTVSPropertyOp0
 70
     1
102
RTVSPropertyOp1
 70
     1
102
RTVSPropertyOp2
 70
     1
102
RTVSPropertyOp3
 70
     1
102
RTVSPropertyOp4
 70
     1
102
RTVSPropertyOp5
 70
     1
102
RTVSPropertyOp6
 70
     1
102
RTVSPropertyOp7
 70
     1
102
RTVSPropertyOp8
 70
     1
102
RTVSPropertyOp9
 70
     1
102
RTVSPropertyOp10
 70
     1
102
RTVSPropertyOp11
 70
     1
102
RTVSPropertyOp12
 70
     1
102
RTVSPropertyOp13
 70
     1
102
RTVSPropertyOp14
 70
     1
102
RTVSPropertyOp15
 70
     1
102
RTVSPropertyOp16
 70
     1
102
RTVSPropertyOp17
 70
     1
102
RTVSPropertyOp18
 70
     1
102
RTVSPropertyOp19
 70
     1
102
RTVSPropertyOp20
 70
     1
102
RTVSPropertyOp21
 70
     1
102
RTVSPropertyOp22
 70
     1
102
RTVSPropertyOp23
 70
     1
102
RTVSPropertyOp24
 70
     1
102
RTVSPropertyOp25
 70
     1
102
RTVSPropertyOp26
 70
     1
102
RTVSPropertyOp27
 70
     1
102
RTVSPropertyOp28
 70
     1
102
RTVSPropertyOp29
 70
     1
102
RTVSPropertyOp30
 70
     1
102
RTVSPropertyOp31
 70
     1
102
RTVSPropertyOp32
 70
     1
  0
XRECORD
  5
6EA
102
{ACAD_REACTORS
330
6E9
102
}
330
6E9
100
AcDbXrecord
280
     1
102
RTVSPropertyOp0
 70
     1
102
RTVSPropertyOp1
 70
     1
102
RTVSPropertyOp2
 70
     1
102
RTVSPropertyOp3
 70
     1
102
RTVSPropertyOp4
 70
     1
102
RTVSPropertyOp5
 70
     1
102
RTVSPropertyOp6
 70
     1
102
RTVSPropertyOp7
 70
     1
102
RTVSPropertyOp8
 70
     1
102
RTVSPropertyOp9
 70
     1
102
RTVSPropertyOp10
 70
     1
102
RTVSPropertyOp11
 70
     1
102
RTVSPropertyOp12
 70
     1
102
RTVSPropertyOp13
 70
     1
102
RTVSPropertyOp14
 70
     1
102
RTVSPropertyOp15
 70
     1
102
RTVSPropertyOp16
 70
     1
102
RTVSPropertyOp17
 70
     1
102
RTVSPropertyOp18
 70
     1
102
RTVSPropertyOp19
 70
     1
102
RTVSPropertyOp20
 70
     1
102
RTVSPropertyOp21
 70
     1
102
RTVSPropertyOp22
 70
     1
102
RTVSPropertyOp23
 70
     1
102
RTVSPropertyOp24
 70
     1
102
RTVSPropertyOp25
 70
     1
102
RTVSPropertyOp26
 70
     1
102
RTVSPropertyOp27
 70
     1
102
RTVSPropertyOp28
 70
     1
102
RTVSPropertyOp29
 70
     1
102
RTVSPropertyOp30
 70
     1
102
RTVSPropertyOp31
 70
     1
102
RTVSPropertyOp32
 70
     1
  0
XRECORD
  5
6FE
102
{ACAD_REACTORS
330
6FD
102
}
330
6FD
100
AcDbXrecord
280
     1
102
RTVSPropertyOp0
 70
     1
102
RTVSPropertyOp1
 70
     1
102
RTVSPropertyOp2
 70
     1
102
RTVSPropertyOp3
 70
     1
102
RTVSPropertyOp4
 70
     1
102
RTVSPropertyOp5
 70
     1
102
RTVSPropertyOp6
 70
     1
102
RTVSPropertyOp7
 70
     1
102
RTVSPropertyOp8
 70
     1
102
RTVSPropertyOp9
 70
     1
102
RTVSPropertyOp10
 70
     1
102
RTVSPropertyOp11
 70
     1
102
RTVSPropertyOp12
 70
     1
102
RTVSPropertyOp13
 70
     1
102
RTVSPropertyOp14
 70
     1
102
RTVSPropertyOp15
 70
     1
102
RTVSPropertyOp16
 70
     1
102
RTVSPropertyOp17
 70
     1
102
RTVSPropertyOp18
 70
     1
102
RTVSPropertyOp19
 70
     1
102
RTVSPropertyOp20
 70
     1
102
RTVSPropertyOp21
 70
     1
102
RTVSPropertyOp22
 70
     1
102
RTVSPropertyOp23
 70
     1
102
RTVSPropertyOp24
 70
     1
102
RTVSPropertyOp25
 70
     1
102
RTVSPropertyOp26
 70
     1
102
RTVSPropertyOp27
 70
     1
102
RTVSPropertyOp28
 70
     1
102
RTVSPropertyOp29
 70
     1
102
RTVSPropertyOp30
 70
     1
102
RTVSPropertyOp31
 70
     1
102
RTVSPropertyOp32
 70
     1
  0
XRECORD
  5
6F4
102
{ACAD_REACTORS
330
6F3
102
}
330
6F3
100
AcDbXrecord
280
     1
102
RTVSPropertyOp0
 70
     1
102
RTVSPropertyOp1
 70
     1
102
RTVSPropertyOp2
 70
     1
102
RTVSPropertyOp3
 70
     1
102
RTVSPropertyOp4
 70
     1
102
RTVSPropertyOp5
 70
     1
102
RTVSPropertyOp6
 70
     1
102
RTVSPropertyOp7
 70
     1
102
RTVSPropertyOp8
 70
     1
102
RTVSPropertyOp9
 70
     1
102
RTVSPropertyOp10
 70
     1
102
RTVSPropertyOp11
 70
     1
102
RTVSPropertyOp12
 70
     1
102
RTVSPropertyOp13
 70
     1
102
RTVSPropertyOp14
 70
     1
102
RTVSPropertyOp15
 70
     1
102
RTVSPropertyOp16
 70
     1
102
RTVSPropertyOp17
 70
     1
102
RTVSPropertyOp18
 70
     1
102
RTVSPropertyOp19
 70
     1
102
RTVSPropertyOp20
 70
     1
102
RTVSPropertyOp21
 70
     1
102
RTVSPropertyOp22
 70
     1
102
RTVSPropertyOp23
 70
     1
102
RTVSPropertyOp24
 70
     1
102
RTVSPropertyOp25
 70
     1
102
RTVSPropertyOp26
 70
     1
102
RTVSPropertyOp27
 70
     1
102
RTVSPropertyOp28
 70
     1
102
RTVSPropertyOp29
 70
     1
102
RTVSPropertyOp30
 70
     1
102
RTVSPropertyOp31
 70
     1
102
RTVSPropertyOp32
 70
     1
  0
XRECORD
  5
6FC
102
{ACAD_REACTORS
330
6FB
102
}
330
6FB
100
AcDbXrecord
280
     1
102
RTVSPropertyOp0
 70
     1
102
RTVSPropertyOp1
 70
     1
102
RTVSPropertyOp2
 70
     1
102
RTVSPropertyOp3
 70
     1
102
RTVSPropertyOp4
 70
     1
102
RTVSPropertyOp5
 70
     1
102
RTVSPropertyOp6
 70
     1
102
RTVSPropertyOp7
 70
     1
102
RTVSPropertyOp8
 70
     1
102
RTVSPropertyOp9
 70
     1
102
RTVSPropertyOp10
 70
     1
102
RTVSPropertyOp11
 70
     1
102
RTVSPropertyOp12
 70
     1
102
RTVSPropertyOp13
 70
     1
102
RTVSPropertyOp14
 70
     1
102
RTVSPropertyOp15
 70
     1
102
RTVSPropertyOp16
 70
     1
102
RTVSPropertyOp17
 70
     1
102
RTVSPropertyOp18
 70
     1
102
RTVSPropertyOp19
 70
     1
102
RTVSPropertyOp20
 70
     1
102
RTVSPropertyOp21
 70
     1
102
RTVSPropertyOp22
 70
     1
102
RTVSPropertyOp23
 70
     1
102
RTVSPropertyOp24
 70
     1
102
RTVSPropertyOp25
 70
     1
102
RTVSPropertyOp26
 70
     1
102
RTVSPropertyOp27
 70
     1
102
RTVSPropertyOp28
 70
     1
102
RTVSPropertyOp29
 70
     1
102
RTVSPropertyOp30
 70
     1
102
RTVSPropertyOp31
 70
     1
102
RTVSPropertyOp32
 70
     1
  0
ENDSEC
  0
EOF
