  0
SECTION
  2
HEADER
  9
$ACADVER
  1
AC1015
  9
$ACADMAINTVER
 70
     6
  9
$DWGCODEPAGE
  3
ANSI_1252
  9
$INSBASE
 10
0.0
 20
0.0
 30
0.0
  9
$EXTMIN
 10
1.000000000000000E+20
 20
1.000000000000000E+20
 30
1.000000000000000E+20
  9
$EXTMAX
 10
-1.000000000000000E+20
 20
-1.000000000000000E+20
 30
-1.000000000000000E+20
  9
$LIMMIN
 10
-170.0
 20
-170.0
  9
$LIMMAX
 10
519.0
 20
260.0
  9
$ORTHOMODE
 70
     0
  9
$REGENMODE
 70
     1
  9
$FILLMODE
 70
     1
  9
$QTEXTMODE
 70
     0
  9
$MIRRTEXT
 70
     0
  9
$LTSCALE
 40
1.0
  9
$ATTMODE
 70
     1
  9
$TEXTSIZE
 40
3.5
  9
$TRACEWID
 40
1.0
  9
$TEXTSTYLE
  7
SIMPLEX
  9
$CLAYER
  8
1
  9
$CELTYPE
  6
BYLAYER
  9
$CECOLOR
 62
   256
  9
$CELTSCALE
 40
1.0
  9
$DISPSILH
 70
     0
  9
$DIMSCALE
 40
1.0
  9
$DIMASZ
 40
2.5
  9
$DIMEXO
 40
0.0
  9
$DIMDLI
 40
3.75
  9
$DIMRND
 40
0.0
  9
$DIMDLE
 40
0.0
  9
$DIMEXE
 40
1.25
  9
$DIMTP
 40
0.0
  9
$DIMTM
 40
0.0
  9
$DIMTXT
 40
3.5
  9
$DIMCEN
 40
0.0
  9
$DIMTSZ
 40
0.0
  9
$DIMTOL
 70
     0
  9
$DIMLIM
 70
     0
  9
$DIMTIH
 70
     0
  9
$DIMTOH
 70
     0
  9
$DIMSE1
 70
     0
  9
$DIMSE2
 70
     0
  9
$DIMTAD
 70
     1
  9
$DIMZIN
 70
     8
  9
$DIMBLK
  1

  9
$DIMASO
 70
     1
  9
$DIMSHO
 70
     1
  9
$DIMPOST
  1

  9
$DIMAPOST
  1

  9
$DIMALT
 70
     0
  9
$DIMALTD
 70
     3
  9
$DIMALTF
 40
0.039370078
  9
$DIMLFAC
 40
1.0
  9
$DIMTOFL
 70
     0
  9
$DIMTVP
 40
0.0
  9
$DIMTIX
 70
     0
  9
$DIMSOXD
 70
     0
  9
$DIMSAH
 70
     0
  9
$DIMBLK1
  1

  9
$DIMBLK2
  1

  9
$DIMSTYLE
  2
STANDARD
  9
$DIMCLRD
 70
     0
  9
$DIMCLRE
 70
     0
  9
$DIMCLRT
 70
     0
  9
$DIMTFAC
 40
1.0
  9
$DIMGAP
 40
0.625
  9
$DIMJUST
 70
     0
  9
$DIMSD1
 70
     0
  9
$DIMSD2
 70
     0
  9
$DIMTOLJ
 70
     0
  9
$DIMTZIN
 70
     8
  9
$DIMALTZ
 70
     0
  9
$DIMALTTZ
 70
     0
  9
$DIMUPT
 70
     0
  9
$DIMDEC
 70
     2
  9
$DIMTDEC
 70
     2
  9
$DIMALTU
 70
     2
  9
$DIMALTTD
 70
     3
  9
$DIMTXSTY
  7
SIMPLEX
  9
$DIMAUNIT
 70
     0
  9
$DIMADEC
 70
     2
  9
$DIMALTRND
 40
0.0
  9
$DIMAZIN
 70
     2
  9
$DIMDSEP
 70
    46
  9
$DIMATFIT
 70
     3
  9
$DIMFRAC
 70
     0
  9
$DIMLDRBLK
  1

  9
$DIMLUNIT
 70
     2
  9
$DIMLWD
 70
    -2
  9
$DIMLWE
 70
    -2
  9
$DIMTMOVE
 70
     0
  9
$LUNITS
 70
     2
  9
$LUPREC
 70
     4
  9
$SKETCHINC
 40
1.0
  9
$FILLETRAD
 40
0.0
  9
$AUNITS
 70
     0
  9
$AUPREC
 70
     0
  9
$MENU
  1
c:\tdm21\cad\caduti13\tdm13
  9
$ELEVATION
 40
0.0
  9
$PELEVATION
 40
0.0
  9
$THICKNESS
 40
0.0
  9
$LIMCHECK
 70
     0
  9
$CHAMFERA
 40
0.0
  9
$CHAMFERB
 40
0.0
  9
$CHAMFERC
 40
0.0
  9
$CHAMFERD
 40
0.0
  9
$SKPOLY
 70
     0
  9
$TDCREATE
 40
2454957.593642639
  9
$TDUCREATE
 40
2454957.510309306
  9
$TDUPDATE
 40
2456860.805585787
  9
$TDUUPDATE
 40
2456860.722252454
  9
$TDINDWG
 40
0.0009643519
  9
$TDUSRTIMER
 40
0.0009475231
  9
$USRTIMER
 70
     1
  9
$ANGBASE
 50
0.0
  9
$ANGDIR
 70
     0
  9
$PDMODE
 70
     1
  9
$PDSIZE
 40
0.0
  9
$PLINEWID
 40
0.0
  9
$SPLFRAME
 70
     0
  9
$SPLINETYPE
 70
     6
  9
$SPLINESEGS
 70
     8
  9
$HANDSEED
  5
6B7
  9
$SURFTAB1
 70
     6
  9
$SURFTAB2
 70
     6
  9
$SURFTYPE
 70
     6
  9
$SURFU
 70
     6
  9
$SURFV
 70
     6
  9
$UCSBASE
  2

  9
$UCSNAME
  2

  9
$UCSORG
 10
0.0
 20
0.0
 30
0.0
  9
$UCSXDIR
 10
1.0
 20
0.0
 30
0.0
  9
$UCSYDIR
 10
0.0
 20
1.0
 30
0.0
  9
$UCSORTHOREF
  2

  9
$UCSORTHOVIEW
 70
     0
  9
$UCSORGTOP
 10
0.0
 20
0.0
 30
0.0
  9
$UCSORGBOTTOM
 10
0.0
 20
0.0
 30
0.0
  9
$UCSORGLEFT
 10
0.0
 20
0.0
 30
0.0
  9
$UCSORGRIGHT
 10
0.0
 20
0.0
 30
0.0
  9
$UCSORGFRONT
 10
0.0
 20
0.0
 30
0.0
  9
$UCSORGBACK
 10
0.0
 20
0.0
 30
0.0
  9
$PUCSBASE
  2

  9
$PUCSNAME
  2

  9
$PUCSORG
 10
0.0
 20
0.0
 30
0.0
  9
$PUCSXDIR
 10
1.0
 20
0.0
 30
0.0
  9
$PUCSYDIR
 10
0.0
 20
1.0
 30
0.0
  9
$PUCSORTHOREF
  2

  9
$PUCSORTHOVIEW
 70
     0
  9
$PUCSORGTOP
 10
0.0
 20
0.0
 30
0.0
  9
$PUCSORGBOTTOM
 10
0.0
 20
0.0
 30
0.0
  9
$PUCSORGLEFT
 10
0.0
 20
0.0
 30
0.0
  9
$PUCSORGRIGHT
 10
0.0
 20
0.0
 30
0.0
  9
$PUCSORGFRONT
 10
0.0
 20
0.0
 30
0.0
  9
$PUCSORGBACK
 10
0.0
 20
0.0
 30
0.0
  9
$USERI1
 70
     0
  9
$USERI2
 70
     0
  9
$USERI3
 70
     0
  9
$USERI4
 70
     0
  9
$USERI5
 70
     0
  9
$USERR1
 40
0.0
  9
$USERR2
 40
0.0
  9
$USERR3
 40
0.0
  9
$USERR4
 40
0.0
  9
$USERR5
 40
0.0
  9
$WORLDVIEW
 70
     1
  9
$SHADEDGE
 70
     3
  9
$SHADEDIF
 70
    70
  9
$TILEMODE
 70
     1
  9
$MAXACTVP
 70
    64
  9
$PINSBASE
 10
0.0
 20
0.0
 30
0.0
  9
$PLIMCHECK
 70
     0
  9
$PEXTMIN
 10
0.0
 20
0.0
 30
0.0
  9
$PEXTMAX
 10
0.0
 20
0.0
 30
0.0
  9
$PLIMMIN
 10
0.0
 20
0.0
  9
$PLIMMAX
 10
12.0
 20
9.0
  9
$UNITMODE
 70
     0
  9
$VISRETAIN
 70
     0
  9
$PLINEGEN
 70
     0
  9
$PSLTSCALE
 70
     1
  9
$TREEDEPTH
 70
  3020
  9
$CMLSTYLE
  2
STANDARD
  9
$CMLJUST
 70
     0
  9
$CMLSCALE
 40
20.0
  9
$PROXYGRAPHICS
 70
     1
  9
$MEASUREMENT
 70
     1
  9
$CELWEIGHT
370
    -1
  9
$ENDCAPS
280
     0
  9
$JOINSTYLE
280
     0
  9
$LWDISPLAY
290
     0
  9
$INSUNITS
 70
     4
  9
$HYPERLINKBASE
  1

  9
$STYLESHEET
  1
MONOCHROME.CTB
  9
$XEDIT
290
     1
  9
$CEPSNTYPE
380
     0
  9
$PSTYLEMODE
290
     1
  9
$FINGERPRINTGUID
  2
{46B44192-1510-48B1-B61B-CBE2ADA013A7}
  9
$VERSIONGUID
  2
{6160D478-9A74-4C97-9D8A-D4A65CE74B12}
  9
$EXTNAMES
290
     1
  9
$PSVPSCALE
 40
0.0
  9
$OLESTARTUP
290
     0
  0
ENDSEC
  0
SECTION
  2
CLASSES
  0
CLASS
  1
ACDBDICTIONARYWDFLT
  2
AcDbDictionaryWithDefault
  3
ObjectDBX Classes
 90
        0
280
     0
281
     0
  0
CLASS
  1
ACDBPLACEHOLDER
  2
AcDbPlaceHolder
  3
ObjectDBX Classes
 90
        0
280
     0
281
     0
  0
CLASS
  1
LAYOUT
  2
AcDbLayout
  3
ObjectDBX Classes
 90
        0
280
     0
281
     0
  0
CLASS
  1
DICTIONARYVAR
  2
AcDbDictionaryVar
  3
ObjectDBX Classes
 90
        0
280
     0
281
     0
  0
CLASS
  1
TABLESTYLE
  2
AcDbTableStyle
  3
ObjectDBX Classes
 90
     4095
280
     0
281
     0
  0
CLASS
  1
SCALE
  2
AcDbScale
  3
ObjectDBX Classes
 90
     1153
280
     0
281
     0
  0
CLASS
  1
MATERIAL
  2
AcDbMaterial
  3
ObjectDBX Classes
 90
     1153
280
     0
281
     0
  0
CLASS
  1
VISUALSTYLE
  2
AcDbVisualStyle
  3
ObjectDBX Classes
 90
     4095
280
     0
281
     0
  0
ENDSEC
  0
SECTION
  2
TABLES
  0
TABLE
  2
VPORT
  5
8
330
0
100
AcDbSymbolTable
 70
     1
  0
VPORT
  5
39A
330
8
100
AcDbSymbolTableRecord
100
AcDbViewportTableRecord
  2
*Active
 70
     0
 10
0.0
 20
0.0
 11
1.0
 21
1.0
 12
218.9201881351169
 22
109.7549380673833
 13
0.0
 23
0.0
 14
5.0
 24
5.0
 15
5.0
 25
5.0
 16
0.0
 26
0.0
 36
1.0
 17
0.0
 27
0.0
 37
0.0
 40
564.6711112651689
 41
1.066073697585768
 42
50.0
 43
0.0
 44
0.0
 50
0.0
 51
0.0
 71
     0
 72
  2000
 73
     1
 74
     1
 75
     0
 76
     0
 77
     0
 78
     0
281
     0
 65
     1
110
0.0
120
0.0
130
0.0
111
1.0
121
0.0
131
0.0
112
0.0
122
1.0
132
0.0
 79
     0
146
0.0
  0
ENDTAB
  0
TABLE
  2
LTYPE
  5
5
330
0
100
AcDbSymbolTable
 70
     3
  0
LTYPE
  5
12
330
5
100
AcDbSymbolTableRecord
100
AcDbLinetypeTableRecord
  2
BYBLOCK
 70
     0
  3

 72
    65
 73
     0
 40
0.0
  0
LTYPE
  5
13
330
5
100
AcDbSymbolTableRecord
100
AcDbLinetypeTableRecord
  2
BYLAYER
 70
     0
  3

 72
    65
 73
     0
 40
0.0
  0
LTYPE
  5
14
330
5
100
AcDbSymbolTableRecord
100
AcDbLinetypeTableRecord
  2
CONTINUOUS
 70
     0
  3
Solid line
 72
    65
 73
     0
 40
0.0
  0
LTYPE
  5
20
330
5
100
AcDbSymbolTableRecord
100
AcDbLinetypeTableRecord
  2
HIDDEN
 70
     0
  3
Hidden __ __ __ __ __ __ __ __ __ __ __ __ __ _
 72
    65
 73
     2
 40
9.524999999999997
 49
6.349999999999998
 74
     0
 49
-3.174999999999998
 74
     0
  0
LTYPE
  5
351
330
5
100
AcDbSymbolTableRecord
100
AcDbLinetypeTableRecord
  2
CENTER
 70
     0
  3
Dash dot __ . __ . __ . __ . __ . __ . __ . __
 72
    65
 73
     4
 40
25.4
 49
12.7
 74
     0
 49
-6.349999999999998
 74
     0
 49
0.0
 74
     0
 49
-6.349999999999998
 74
     0
  0
ENDTAB
  0
TABLE
  2
LAYER
  5
2
330
0
100
AcDbSymbolTable
 70
    16
  0
LAYER
  5
F
330
2
100
AcDbSymbolTableRecord
100
AcDbLayerTableRecord
  2
0
 70
     0
 62
     7
  6
CONTINUOUS
370
    -3
390
300
  0
LAYER
  5
23
330
2
100
AcDbSymbolTableRecord
100
AcDbLayerTableRecord
  2
1
 70
     0
 62
     4
  6
CONTINUOUS
370
    -3
390
300
  0
LAYER
  5
24
330
2
100
AcDbSymbolTableRecord
100
AcDbLayerTableRecord
  2
SK1
 70
     0
 62
     4
  6
CONTINUOUS
370
    -3
390
300
  0
LAYER
  5
25
330
2
100
AcDbSymbolTableRecord
100
AcDbLayerTableRecord
  2
2
 70
     0
 62
     7
  6
CONTINUOUS
370
    -3
390
300
  0
LAYER
  5
26
330
2
100
AcDbSymbolTableRecord
100
AcDbLayerTableRecord
  2
2L
 70
     0
 62
     7
  6
CONTINUOUS
370
    -3
390
300
  0
LAYER
  5
27
330
2
100
AcDbSymbolTableRecord
100
AcDbLayerTableRecord
  2
SK2
 70
     0
 62
     7
  6
CONTINUOUS
370
    -3
390
300
  0
LAYER
  5
28
330
2
100
AcDbSymbolTableRecord
100
AcDbLayerTableRecord
  2
3
 70
     0
 62
     1
  6
HIDDEN
370
    -3
390
300
  0
LAYER
  5
29
330
2
100
AcDbSymbolTableRecord
100
AcDbLayerTableRecord
  2
SK3
 70
     0
 62
     1
  6
HIDDEN
370
    -3
390
300
  0
LAYER
  5
2A
330
2
100
AcDbSymbolTableRecord
100
AcDbLayerTableRecord
  2
4
 70
     0
 62
     2
  6
CENTER
370
    -3
390
300
  0
LAYER
  5
2B
330
2
100
AcDbSymbolTableRecord
100
AcDbLayerTableRecord
  2
SK4
 70
     0
 62
     2
  6
CENTER
370
    -3
390
300
  0
LAYER
  5
2C
330
2
100
AcDbSymbolTableRecord
100
AcDbLayerTableRecord
  2
5
 70
     0
 62
    -7
  6
CONTINUOUS
370
    -3
390
300
  0
LAYER
  5
2D
330
2
100
AcDbSymbolTableRecord
100
AcDbLayerTableRecord
  2
6
 70
     0
 62
     5
  6
CONTINUOUS
370
    -3
390
300
  0
LAYER
  5
2E
330
2
100
AcDbSymbolTableRecord
100
AcDbLayerTableRecord
  2
SK6
 70
     0
 62
     5
  6
CONTINUOUS
370
    -3
390
300
  0
LAYER
  5
2F
330
2
100
AcDbSymbolTableRecord
100
AcDbLayerTableRecord
  2
DEFPOINTS
 70
     0
 62
     7
  6
CONTINUOUS
290
     0
370
    -3
390
300
  0
LAYER
  5
375
330
2
100
AcDbSymbolTableRecord
100
AcDbLayerTableRecord
  2
CUT
 70
     0
 62
     1
  6
CONTINUOUS
370
    -3
390
300
  0
LAYER
  5
376
330
2
100
AcDbSymbolTableRecord
100
AcDbLayerTableRecord
  2
NOCUT
 70
     0
 62
     7
  6
CONTINUOUS
370
    -3
390
300
  0
ENDTAB
  0
TABLE
  2
STYLE
  5
3
330
0
100
AcDbSymbolTable
 70
     4
  0
STYLE
  5
10
330
3
100
AcDbSymbolTableRecord
100
AcDbTextStyleTableRecord
  2
STANDARD
 70
     0
 40
0.0
 41
1.0
 50
0.0
 71
     0
 42
5.0
  3
txt
  4

  0
STYLE
  5
1D
330
3
100
AcDbSymbolTableRecord
100
AcDbTextStyleTableRecord
  2
TXT
 70
     0
 40
8.0
 41
1.0
 50
0.0
 71
     0
 42
8.0
  3
txt
  4

  0
STYLE
  5
1E
330
3
100
AcDbSymbolTableRecord
100
AcDbTextStyleTableRecord
  2
SIMPLEX
 70
     0
 40
0.0
 41
1.0
 50
0.0
 71
     0
 42
3.5
  3
simplex
  4

  0
STYLE
  5
34C
330
3
100
AcDbSymbolTableRecord
100
AcDbTextStyleTableRecord
  2

 70
     1
 40
0.0
 41
1.0
 50
0.0
 71
     0
 42
2.5
  3
ltypeshp.shx
  4

  0
ENDTAB
  0
TABLE
  2
VIEW
  5
6
330
0
100
AcDbSymbolTable
 70
     0
  0
ENDTAB
  0
TABLE
  2
UCS
  5
7
330
0
100
AcDbSymbolTable
 70
     0
  0
ENDTAB
  0
TABLE
  2
APPID
  5
9
330
0
100
AcDbSymbolTable
 70
     1
  0
APPID
  5
11
330
9
100
AcDbSymbolTableRecord
100
AcDbRegAppTableRecord
  2
ACAD
 70
     0
  0
ENDTAB
  0
TABLE
  2
DIMSTYLE
  5
A
330
0
100
AcDbSymbolTable
 70
     1
100
AcDbDimStyleTable
  0
DIMSTYLE
105
3F
102
{ACAD_REACTORS
330
64A
330
658
330
665
330
672
330
67F
102
}
330
A
100
AcDbSymbolTableRecord
100
AcDbDimStyleTableRecord
  2
STANDARD
 70
     0
 41
2.5
 42
0.0
 43
3.75
 44
1.25
 73
     0
 74
     0
 77
     1
 78
     8
 79
     2
140
3.5
141
0.0
143
0.039370078
147
0.625
171
     3
178
     0
179
     2
271
     2
272
     2
274
     3
283
     0
284
     8
340
1E
  0
ENDTAB
  0
TABLE
  2
BLOCK_RECORD
  5
1
330
0
100
AcDbSymbolTable
 70
     5
  0
BLOCK_RECORD
  5
18
330
1
100
AcDbSymbolTableRecord
100
AcDbBlockTableRecord
  2
*MODEL_SPACE
340
303
  0
BLOCK_RECORD
  5
338
330
1
100
AcDbSymbolTableRecord
100
AcDbBlockTableRecord
  2
*Paper_Space
340
33B
  0
BLOCK_RECORD
  5
64B
330
1
100
AcDbSymbolTableRecord
100
AcDbBlockTableRecord
  2
*D0
340
0
  0
BLOCK_RECORD
  5
659
330
1
100
AcDbSymbolTableRecord
100
AcDbBlockTableRecord
  2
*D1
340
0
  0
BLOCK_RECORD
  5
666
330
1
100
AcDbSymbolTableRecord
100
AcDbBlockTableRecord
  2
*D2
340
0
  0
BLOCK_RECORD
  5
673
330
1
100
AcDbSymbolTableRecord
100
AcDbBlockTableRecord
  2
*D3
340
0
  0
BLOCK_RECORD
  5
680
330
1
100
AcDbSymbolTableRecord
100
AcDbBlockTableRecord
  2
*D4
340
0
  0
ENDTAB
  0
ENDSEC
  0
SECTION
  2
BLOCKS
  0
BLOCK
  5
32
330
18
100
AcDbEntity
  8
0
100
AcDbBlockBegin
  2
*MODEL_SPACE
 70
     0
 10
0.0
 20
0.0
 30
0.0
  3
*MODEL_SPACE
  1

  0
ENDBLK
  5
33
330
18
100
AcDbEntity
  8
0
100
AcDbBlockEnd
  0
BLOCK
  5
339
330
338
100
AcDbEntity
 67
     1
  8
0
100
AcDbBlockBegin
  2
*Paper_Space
 70
     0
 10
0.0
 20
0.0
 30
0.0
  3
*Paper_Space
  1

  0
ENDBLK
  5
33A
330
338
100
AcDbEntity
 67
     1
  8
0
100
AcDbBlockEnd
  0
BLOCK
  5
64C
330
64B
100
AcDbEntity
  8
0
100
AcDbBlockBegin
  2
*D0
 70
     1
 10
0.0
 20
0.0
 30
0.0
  3
*D0
  1

  0
LINE
  5
64E
330
64B
100
AcDbEntity
  8
2
 62
     0
370
    -2
100
AcDbLine
 10
72.0
 20
5.0
 30
0.0
 11
88.25000000000001
 21
5.000000000000058
 31
0.0
  0
LINE
  5
64F
330
64B
100
AcDbEntity
  8
2
 62
     0
370
    -2
100
AcDbLine
 10
72.0
 20
-5.0
 30
0.0
 11
88.25000000000004
 21
-4.999999999999943
 31
0.0
  0
LINE
  5
650
330
64B
100
AcDbEntity
  8
2
 62
     0
370
    -2
100
AcDbLine
 10
87.00000000000004
 20
-4.999999999999948
 30
0.0
 11
87.00000000000009
 21
-17.52449999999994
 31
0.0
  0
LINE
  5
651
330
64B
100
AcDbEntity
  8
2
 62
     0
370
    -2
100
AcDbLine
 10
87.00000000000003
 20
2.500000000000053
 30
0.0
 11
87.00000000000003
 21
-2.499999999999948
 31
0.0
  0
SOLID
  5
652
330
64B
100
AcDbEntity
  8
2
 62
     0
100
AcDbTrace
 10
87.4166666666667
 20
2.500000000000055
 30
0.0
 11
86.58333333333336
 21
2.500000000000052
 31
0.0
 12
87.00000000000001
 22
5.000000000000053
 32
0.0
 13
87.00000000000001
 23
5.000000000000053
 33
0.0
  0
SOLID
  5
653
330
64B
100
AcDbEntity
  8
2
 62
     0
100
AcDbTrace
 10
86.58333333333336
 20
-2.499999999999949
 30
0.0
 11
87.4166666666667
 21
-2.499999999999946
 31
0.0
 12
87.00000000000004
 22
-4.999999999999948
 32
0.0
 13
87.00000000000004
 23
-4.999999999999948
 33
0.0
  0
MTEXT
  5
654
330
64B
100
AcDbEntity
  8
2
 62
     0
100
AcDbMText
 10
84.60925000000007
 20
-12.51224999999995
 30
0.0
 40
3.5
 41
0.0
 71
     5
 72
     1
  1
M10
  7
SIMPLEX
 11
-2.842170943040401E-15
 21
1.0
 31
0.0
 73
     1
 44
1.0
  0
POINT
  5
655
330
64B
100
AcDbEntity
  8
DEFPOINTS
 62
     0
100
AcDbPoint
 10
72.0
 20
5.0
 30
0.0
  0
POINT
  5
656
330
64B
100
AcDbEntity
  8
DEFPOINTS
 62
     0
100
AcDbPoint
 10
72.0
 20
-5.0
 30
0.0
  0
POINT
  5
657
330
64B
100
AcDbEntity
  8
DEFPOINTS
 62
     0
100
AcDbPoint
 10
87.00000000000004
 20
-4.999999999999948
 30
0.0
  0
ENDBLK
  5
64D
330
64B
100
AcDbEntity
  8
0
100
AcDbBlockEnd
  0
BLOCK
  5
65A
330
659
100
AcDbEntity
  8
0
100
AcDbBlockBegin
  2
*D1
 70
     1
 10
0.0
 20
0.0
 30
0.0
  3
*D1
  1

  0
LINE
  5
65C
330
659
100
AcDbEntity
  8
2
 62
     0
370
    -2
100
AcDbLine
 10
0.0
 20
0.0
 30
0.0
 11
0.0
 21
76.25
 31
0.0
  0
LINE
  5
65D
330
659
100
AcDbEntity
  8
2
 62
     0
370
    -2
100
AcDbLine
 10
72.0
 20
0.0
 30
0.0
 11
72.0
 21
76.25
 31
0.0
  0
LINE
  5
65E
330
659
100
AcDbEntity
  8
2
 62
     0
370
    -2
100
AcDbLine
 10
2.5
 20
75.0
 30
0.0
 11
69.5
 21
75.0
 31
0.0
  0
SOLID
  5
65F
330
659
100
AcDbEntity
  8
2
 62
     0
100
AcDbTrace
 10
2.5
 20
75.41666666666667
 30
0.0
 11
2.5
 21
74.58333333333333
 31
0.0
 12
0.0
 22
75.0
 32
0.0
 13
0.0
 23
75.0
 33
0.0
  0
SOLID
  5
660
330
659
100
AcDbEntity
  8
2
 62
     0
100
AcDbTrace
 10
69.5
 20
74.58333333333333
 30
0.0
 11
69.5
 21
75.41666666666667
 31
0.0
 12
72.0
 22
75.0
 32
0.0
 13
72.0
 23
75.0
 33
0.0
  0
MTEXT
  5
661
330
659
100
AcDbEntity
  8
2
 62
     0
100
AcDbMText
 10
36.0
 20
77.39075
 30
0.0
 40
3.5
 41
0.0
 71
     5
 72
     1
  1
72
  7
SIMPLEX
 73
     1
 44
1.0
  0
POINT
  5
662
330
659
100
AcDbEntity
  8
DEFPOINTS
 62
     0
100
AcDbPoint
 10
0.0
 20
0.0
 30
0.0
  0
POINT
  5
663
330
659
100
AcDbEntity
  8
DEFPOINTS
 62
     0
100
AcDbPoint
 10
72.0
 20
0.0
 30
0.0
  0
POINT
  5
664
330
659
100
AcDbEntity
  8
DEFPOINTS
 62
     0
100
AcDbPoint
 10
72.0
 20
75.0
 30
0.0
  0
ENDBLK
  5
65B
330
659
100
AcDbEntity
  8
0
100
AcDbBlockEnd
  0
BLOCK
  5
667
330
666
100
AcDbEntity
  8
0
100
AcDbBlockBegin
  2
*D2
 70
     1
 10
0.0
 20
0.0
 30
0.0
  3
*D2
  1

  0
LINE
  5
669
330
666
100
AcDbEntity
  8
SK2
 62
     0
370
    -2
100
AcDbLine
 10
-16.99999999999999
 20
5.0
 30
0.0
 11
-44.25000000002551
 21
4.999999999860933
 31
0.0
  0
LINE
  5
66A
330
666
100
AcDbEntity
  8
SK2
 62
     0
370
    -2
100
AcDbLine
 10
-16.99999999999999
 20
-5.0
 30
0.0
 11
-44.24999999997448
 21
-5.000000000139067
 31
0.0
  0
LINE
  5
66B
330
666
100
AcDbEntity
  8
SK2
 62
     0
370
    -2
100
AcDbLine
 10
-43.00000000001275
 20
2.499999999867311
 30
0.0
 11
-42.99999999998724
 21
-2.500000000132689
 31
0.0
  0
SOLID
  5
66C
330
666
100
AcDbEntity
  8
SK2
 62
     0
100
AcDbTrace
 10
-42.58333333334608
 20
2.499999999869438
 30
0.0
 11
-43.41666666667941
 21
2.499999999865185
 31
0.0
 12
-43.00000000002551
 22
4.999999999867311
 32
0.0
 13
-43.00000000002551
 23
4.999999999867311
 33
0.0
  0
SOLID
  5
66D
330
666
100
AcDbEntity
  8
SK2
 62
     0
100
AcDbTrace
 10
-43.4166666666539
 20
-2.500000000134815
 30
0.0
 11
-42.58333333332057
 21
-2.500000000130562
 31
0.0
 12
-42.99999999997448
 22
-5.000000000132689
 32
0.0
 13
-42.99999999997448
 23
-5.000000000132689
 33
0.0
  0
MTEXT
  5
66E
330
666
100
AcDbEntity
  8
SK2
 62
     0
100
AcDbMText
 10
-45.39074999999999
 20
-0.0000000001448888
 30
0.0
 40
3.5
 41
0.0
 71
     5
 72
     1
  1
%%c10
  7
SIMPLEX
 11
-5.103117928229040E-12
 21
1.0
 31
0.0
 73
     1
 44
1.0
  0
POINT
  5
66F
330
666
100
AcDbEntity
  8
DEFPOINTS
 62
     0
100
AcDbPoint
 10
-16.99999999999999
 20
5.0
 30
0.0
  0
POINT
  5
670
330
666
100
AcDbEntity
  8
DEFPOINTS
 62
     0
100
AcDbPoint
 10
-16.99999999999999
 20
-5.0
 30
0.0
  0
POINT
  5
671
330
666
100
AcDbEntity
  8
DEFPOINTS
 62
     0
100
AcDbPoint
 10
-42.99999999997448
 20
-5.000000000132689
 30
0.0
  0
ENDBLK
  5
668
330
666
100
AcDbEntity
  8
0
100
AcDbBlockEnd
  0
BLOCK
  5
674
330
673
100
AcDbEntity
  8
0
100
AcDbBlockBegin
  2
*D3
 70
     1
 10
0.0
 20
0.0
 30
0.0
  3
*D3
  1

  0
LINE
  5
676
330
673
100
AcDbEntity
  8
2
 62
     0
370
    -2
100
AcDbLine
 10
46.35455173
 20
4.05
 30
0.0
 11
46.35455173
 21
61.25
 31
0.0
  0
LINE
  5
677
330
673
100
AcDbEntity
  8
2
 62
     0
370
    -2
100
AcDbLine
 10
72.0
 20
5.0
 30
0.0
 11
72.0
 21
61.25
 31
0.0
  0
LINE
  5
678
330
673
100
AcDbEntity
  8
2
 62
     0
370
    -2
100
AcDbLine
 10
48.85455173
 20
60.0
 30
0.0
 11
69.5
 21
60.0
 31
0.0
  0
SOLID
  5
679
330
673
100
AcDbEntity
  8
2
 62
     0
100
AcDbTrace
 10
48.85455173
 20
60.41666666666666
 30
0.0
 11
48.85455173
 21
59.58333333333334
 31
0.0
 12
46.35455173
 22
60.0
 32
0.0
 13
46.35455173
 23
60.0
 33
0.0
  0
SOLID
  5
67A
330
673
100
AcDbEntity
  8
2
 62
     0
100
AcDbTrace
 10
69.5
 20
59.58333333333334
 30
0.0
 11
69.5
 21
60.41666666666666
 31
0.0
 12
72.0
 22
60.0
 32
0.0
 13
72.0
 23
60.0
 33
0.0
  0
MTEXT
  5
67B
330
673
100
AcDbEntity
  8
2
 62
     0
100
AcDbMText
 10
59.177275865
 20
62.39775
 30
0.0
 40
3.5
 41
0.0
 71
     5
 72
     1
  1
25.65
  7
SIMPLEX
 73
     1
 44
1.0
  0
POINT
  5
67C
330
673
100
AcDbEntity
  8
DEFPOINTS
 62
     0
100
AcDbPoint
 10
46.35455173
 20
4.05
 30
0.0
  0
POINT
  5
67D
330
673
100
AcDbEntity
  8
DEFPOINTS
 62
     0
100
AcDbPoint
 10
72.0
 20
5.0
 30
0.0
  0
POINT
  5
67E
330
673
100
AcDbEntity
  8
DEFPOINTS
 62
     0
100
AcDbPoint
 10
72.0
 20
60.0
 30
0.0
  0
ENDBLK
  5
675
330
673
100
AcDbEntity
  8
0
100
AcDbBlockEnd
  0
BLOCK
  5
681
330
680
100
AcDbEntity
  8
0
100
AcDbBlockBegin
  2
*D4
 70
     1
 10
0.0
 20
0.0
 30
0.0
  3
*D4
  1

  0
LINE
  5
683
330
680
100
AcDbEntity
  8
SK2
 62
     0
370
    -2
100
AcDbLine
 10
-28.0
 20
5.0
 30
0.0
 11
-28.0
 21
91.25
 31
0.0
  0
LINE
  5
684
330
680
100
AcDbEntity
  8
SK2
 62
     0
370
    -2
100
AcDbLine
 10
74.02
 20
5.0
 30
0.0
 11
74.02
 21
91.25
 31
0.0
  0
LINE
  5
685
330
680
100
AcDbEntity
  8
SK2
 62
     0
370
    -2
100
AcDbLine
 10
-25.5
 20
90.0
 30
0.0
 11
71.52
 21
90.0
 31
0.0
  0
SOLID
  5
686
330
680
100
AcDbEntity
  8
SK2
 62
     0
100
AcDbTrace
 10
-25.5
 20
90.41666666666667
 30
0.0
 11
-25.5
 21
89.58333333333333
 31
0.0
 12
-28.0
 22
90.0
 32
0.0
 13
-28.0
 23
90.0
 33
0.0
  0
SOLID
  5
687
330
680
100
AcDbEntity
  8
SK2
 62
     0
100
AcDbTrace
 10
71.52
 20
89.58333333333333
 30
0.0
 11
71.52
 21
90.41666666666667
 31
0.0
 12
74.02
 22
90.0
 32
0.0
 13
74.02
 23
90.0
 33
0.0
  0
MTEXT
  5
688
330
680
100
AcDbEntity
  8
SK2
 62
     0
100
AcDbMText
 10
23.01
 20
92.39775
 30
0.0
 40
3.5
 41
0.0
 71
     5
 72
     1
  1
102.02
  7
SIMPLEX
 73
     1
 44
1.0
  0
POINT
  5
689
330
680
100
AcDbEntity
  8
DEFPOINTS
 62
     0
100
AcDbPoint
 10
-28.0
 20
5.0
 30
0.0
  0
POINT
  5
68A
330
680
100
AcDbEntity
  8
DEFPOINTS
 62
     0
100
AcDbPoint
 10
74.02
 20
5.0
 30
0.0
  0
POINT
  5
68B
330
680
100
AcDbEntity
  8
DEFPOINTS
 62
     0
100
AcDbPoint
 10
74.02
 20
90.0
 30
0.0
  0
ENDBLK
  5
682
330
680
100
AcDbEntity
  8
0
100
AcDbBlockEnd
  0
ENDSEC
  0
SECTION
  2
ENTITIES
  0
LINE
  5
3D6
330
18
100
AcDbEntity
  8
SK4
100
AcDbLine
 10
-29.99999999999999
 20
0.0
 30
0.0
 11
26.9
 21
0.0
 31
0.0
  0
LINE
  5
3D7
330
18
100
AcDbEntity
  8
4
100
AcDbLine
 10
24.9
 20
0.0
 30
0.0
 11
76.02000000000001
 21
0.0
 31
0.0
  0
LINE
  5
3D8
330
18
100
AcDbEntity
  8
SK4
100
AcDbLine
 10
24.9
 20
0.0
 30
0.0
 11
76.02000000000001
 21
0.0
 31
0.0
  0
LINE
  5
3D9
330
18
100
AcDbEntity
  8
1
100
AcDbLine
 10
26.9
 20
5.0
 30
0.0
 11
26.9
 21
4.995029033528349
 31
0.0
  0
LINE
  5
3DA
330
18
100
AcDbEntity
  8
1
100
AcDbLine
 10
26.9
 20
4.995029033528349
 30
0.0
 11
26.9
 21
4.551366938783767
 31
0.0
  0
LINE
  5
3DB
330
18
100
AcDbEntity
  8
1
100
AcDbLine
 10
26.9
 20
4.551366938783767
 30
0.0
 11
26.9
 21
-5.0
 31
0.0
  0
LINE
  5
3DC
330
18
100
AcDbEntity
  8
1
100
AcDbLine
 10
26.9
 20
5.0
 30
0.0
 11
-0.0000000000000036
 21
5.0
 31
0.0
  0
LINE
  5
3DD
330
18
100
AcDbEntity
  8
1
100
AcDbLine
 10
46.32735053837939
 20
-3.095715921242342
 30
0.0
 11
46.35455173
 21
-3.055598587819131
 31
0.0
  0
LINE
  5
3DE
330
18
100
AcDbEntity
  8
1
100
AcDbLine
 10
46.32735053837938
 20
-3.095715921155774
 30
0.0
 11
46.32735053837938
 21
-4.05
 31
0.0
  0
LINE
  5
3DF
330
18
100
AcDbEntity
  8
1
100
AcDbLine
 10
46.35455173
 20
-4.002886176053492
 30
0.0
 11
46.32735053837938
 21
-4.049999999999999
 31
0.0
  0
LINE
  5
3E0
330
18
100
AcDbEntity
  8
1
100
AcDbLine
 10
46.35455173
 20
-2.113802183926708
 30
0.0
 11
46.35455173
 21
1.893004883328061
 31
0.0
  0
LINE
  5
3E1
330
18
100
AcDbEntity
  8
1
100
AcDbLine
 10
46.32735053837938
 20
1.918523976820673
 30
0.0
 11
46.35455172999999
 21
1.893004883328061
 31
0.0
  0
LINE
  5
3E2
330
18
100
AcDbEntity
  8
1
100
AcDbLine
 10
41.00000000000001
 20
2.837214410500768
 30
0.0
 11
40.99999999999999
 21
-2.24452216607394
 31
0.0
  0
ARC
  5
3E3
330
18
100
AcDbEntity
  8
1
100
AcDbCircle
 10
45.77611509195491
 20
84.73314057429214
 30
0.0
 40
88.78319883213938
100
AcDbArc
 50
266.9162706592518
 51
269.9896328783024
  0
ARC
  5
3E4
330
18
100
AcDbEntity
  8
1
100
AcDbCircle
 10
65.65791624155791
 20
134.880219554614
 30
0.0
 40
139.3240060662522
100
AcDbArc
 50
259.8059574060181
 51
262.0247143922244
  0
ARC
  5
3E5
330
18
100
AcDbEntity
  8
1
100
AcDbCircle
 10
17.86347932742354
 20
-147.1168908696004
 30
0.0
 40
151.7285928046071
100
AcDbArc
 50
79.18744574771553
 51
81.22895889274018
  0
ARC
  5
3E6
330
18
100
AcDbEntity
  8
1
100
AcDbCircle
 10
39.75252193073069
 20
-85.63870993255746
 30
0.0
 40
89.68917550797842
100
AcDbArc
 50
85.79606602368037
 51
89.20305256931206
  0
LINE
  5
3E7
330
18
100
AcDbEntity
  8
1
100
AcDbLine
 10
26.9
 20
4.05
 30
0.0
 11
41.00000000000001
 21
4.05
 31
0.0
  0
LINE
  5
3E8
330
18
100
AcDbEntity
  8
1
100
AcDbLine
 10
46.32735053837938
 20
3.809335840509675
 30
0.0
 11
46.35455172999999
 21
3.767176719985512
 31
0.0
  0
LINE
  5
3E9
330
18
100
AcDbEntity
  8
1
100
AcDbLine
 10
46.32735053837938
 20
3.809335840555168
 30
0.0
 11
46.32735053837937
 21
1.918523976781598
 31
0.0
  0
LINE
  5
3EA
330
18
100
AcDbEntity
  8
1
100
AcDbLine
 10
41.00000000000001
 20
4.05
 30
0.0
 11
41.00000000000001
 21
4.049998037279731
 31
0.0
  0
LINE
  5
3EB
330
18
100
AcDbEntity
  8
1
100
AcDbLine
 10
41.00000000000001
 20
4.049998037279731
 30
0.0
 11
41.00000000000001
 21
4.049429094770722
 31
0.0
  0
LINE
  5
3EC
330
18
100
AcDbEntity
  8
1
100
AcDbLine
 10
41.00000000000001
 20
4.049429094770722
 30
0.0
 11
41.00000000000001
 21
4.041758502885472
 31
0.0
  0
LINE
  5
3ED
330
18
100
AcDbEntity
  8
1
100
AcDbLine
 10
41.00000000000001
 20
-3.921512675226244
 30
0.0
 11
41.00000000000001
 21
-4.05
 31
0.0
  0
LINE
  5
3EE
330
18
100
AcDbEntity
  8
1
100
AcDbLine
 10
46.35455173
 20
1.893004883328057
 30
0.0
 11
46.35455173000001
 21
3.767176719985494
 31
0.0
  0
LINE
  5
3EF
330
18
100
AcDbEntity
  8
1
100
AcDbLine
 10
46.35455172999998
 20
-3.05559858781913
 30
0.0
 11
46.35455172999999
 21
-2.113802183926707
 31
0.0
  0
LINE
  5
3F0
330
18
100
AcDbEntity
  8
1
100
AcDbLine
 10
46.35455173
 20
-4.002886176053492
 30
0.0
 11
46.35455173
 21
-4.00268762077878
 31
0.0
  0
LINE
  5
3F1
330
18
100
AcDbEntity
  8
1
100
AcDbLine
 10
46.35455173
 20
-4.00268762077878
 30
0.0
 11
46.35455173
 21
-3.941984979568421
 31
0.0
  0
LINE
  5
3F2
330
18
100
AcDbEntity
  8
1
100
AcDbLine
 10
46.35455173
 20
-3.941984979568421
 30
0.0
 11
46.35455173000001
 21
-3.055598587819115
 31
0.0
  0
LINE
  5
3F3
330
18
100
AcDbEntity
  8
1
100
AcDbLine
 10
-0.0000000000000018
 20
-5.0
 30
0.0
 11
26.9
 21
-5.0
 31
0.0
  0
LINE
  5
3F4
330
18
100
AcDbEntity
  8
1
100
AcDbLine
 10
26.9
 20
-4.05
 30
0.0
 11
41.00000000000002
 21
-4.05
 31
0.0
  0
LINE
  5
3F5
330
18
100
AcDbEntity
  8
1
100
AcDbLine
 10
45.76005063413812
 20
-4.05
 30
0.0
 11
46.32735053837938
 21
-4.05
 31
0.0
  0
LINE
  5
3F6
330
18
100
AcDbEntity
  8
1
 62
     1
100
AcDbLine
 10
65.22113247308104
 20
5.0
 30
0.0
 11
65.27886752691896
 21
5.0
 31
0.0
  0
LINE
  5
3F7
330
18
100
AcDbEntity
  8
1
 62
     1
100
AcDbLine
 10
66.72113247308103
 20
5.0
 30
0.0
 11
66.77886752691896
 21
5.0
 31
0.0
  0
LINE
  5
3F8
330
18
100
AcDbEntity
  8
1
 62
     1
100
AcDbLine
 10
68.22113247308103
 20
5.0
 30
0.0
 11
68.27886752691896
 21
5.0
 31
0.0
  0
LINE
  5
3F9
330
18
100
AcDbEntity
  8
1
 62
     1
100
AcDbLine
 10
54.72113247308102
 20
-4.999999999999993
 30
0.0
 11
54.0
 21
-3.7509625
 31
0.0
  0
LINE
  5
3FA
330
18
100
AcDbEntity
  8
1
 62
     1
100
AcDbLine
 10
46.83169843825848
 20
-4.325480779985597
 30
0.0
 11
46.5
 21
-3.7509625
 31
0.0
  0
LINE
  5
3FB
330
18
100
AcDbEntity
  8
1
 62
     1
100
AcDbLine
 10
60.72113247308104
 20
2.002022568991931
 30
0.0
 11
60.72113247308104
 21
-1.532423262521565
 31
0.0
  0
LINE
  5
3FC
330
18
100
AcDbEntity
  8
1
 62
     1
100
AcDbLine
 10
57.778867526919
 20
2.690042178290057
 30
0.0
 11
57.72113247308107
 21
2.702940734332464
 31
0.0
  0
LINE
  5
3FD
330
18
100
AcDbEntity
  8
1
 62
     1
100
AcDbLine
 10
56.27886752691897
 20
3.016615575268195
 30
0.0
 11
56.27886752691897
 21
-0.3786096551884132
 31
0.0
  0
LINE
  5
3FE
330
18
100
AcDbEntity
  8
1
 62
     1
100
AcDbLine
 10
53.22113247308104
 20
3.621100161007043
 30
0.0
 11
53.22113247308103
 21
0.4316951588377099
 31
0.0
  0
LINE
  5
3FF
330
18
100
AcDbEntity
  8
1
 62
     1
100
AcDbLine
 10
50.22113247308103
 20
4.121827431387699
 30
0.0
 11
50.22113247308103
 21
1.21580992405828
 31
0.0
  0
LINE
  5
400
330
18
100
AcDbEntity
  8
1
 62
     1
100
AcDbLine
 10
48.72113247308103
 20
4.333801379230356
 30
0.0
 11
48.72113247308103
 21
1.597553965417956
 31
0.0
  0
ARC
  5
401
330
18
100
AcDbEntity
  8
1
 62
     1
100
AcDbCircle
 10
77.4299195582789
 20
40.41456745120969
 30
0.0
 40
41.39345967254143
100
AcDbArc
 50
260.9386638037935
 51
262.0315519715633
  0
LINE
  5
402
330
18
100
AcDbEntity
  8
1
 62
     1
100
AcDbLine
 10
70.9107924288022
 20
-0.4623160061525908
 30
0.0
 11
70.91079242880222
 21
-3.269523389260563
 31
0.0
  0
LINE
  5
403
330
18
100
AcDbEntity
  8
1
 62
     1
100
AcDbLine
 10
71.6916372781157
 20
-3.240122790834141
 30
0.0
 11
70.91079242880222
 21
-3.269523389260562
 31
0.0
  0
LINE
  5
404
330
18
100
AcDbEntity
  8
1
 62
     1
100
AcDbLine
 10
71.6916372781157
 20
-0.5792198598906759
 30
0.0
 11
71.6916372781157
 21
-3.24012279083414
 31
0.0
  0
LINE
  5
405
330
18
100
AcDbEntity
  8
1
 62
     1
100
AcDbLine
 10
69.96516155436586
 20
-0.3004190130846416
 30
0.0
 11
69.58474124153878
 21
-0.2290442251989498
 31
0.0
  0
LINE
  5
406
330
18
100
AcDbEntity
  8
1
 62
     1
100
AcDbLine
 10
69.5847412415388
 20
-0.2290442251993901
 30
0.0
 11
69.5847412415388
 21
-3.305095482573421
 31
0.0
  0
LINE
  5
407
330
18
100
AcDbEntity
  8
1
 62
     1
100
AcDbLine
 10
69.96516155436589
 20
-3.296629847220669
 30
0.0
 11
69.58474124153878
 21
-3.305095482573421
 31
0.0
  0
ARC
  5
408
330
18
100
AcDbEntity
  8
1
 62
     1
100
AcDbCircle
 10
100.6002665517368
 20
-26.49414600978754
 30
0.0
 40
37.0085802698833
100
AcDbArc
 50
140.606079970685
 51
141.3644445005787
  0
ARC
  5
409
330
18
100
AcDbEntity
  8
1
 62
     1
100
AcDbCircle
 10
88.09434381178991
 20
12.07391028018352
 30
0.0
 40
25.7909786007834
100
AcDbArc
 50
217.011993342168
 51
219.596740316962
  0
ARC
  5
40A
330
18
100
AcDbEntity
  8
1
 62
     1
100
AcDbCircle
 10
135.0756647676192
 20
-49.08349289798577
 30
0.0
 40
81.53965918814454
100
AcDbArc
 50
145.9700976588256
 51
146.8864964250165
  0
ARC
  5
40B
330
18
100
AcDbEntity
  8
1
 62
     1
100
AcDbCircle
 10
91.99708405458644
 20
14.6745062743467
 30
0.0
 40
31.75306866757961
100
AcDbArc
 50
215.0424700266502
 51
217.2486544905483
  0
ARC
  5
40C
330
18
100
AcDbEntity
  8
1
 62
     1
100
AcDbCircle
 10
103.2525416237146
 20
21.50188130370628
 30
0.0
 40
47.49162958329329
100
AcDbArc
 50
212.0515099711288
 51
213.6553054742915
  0
ARC
  5
40D
330
18
100
AcDbEntity
  8
1
 62
     1
100
AcDbCircle
 10
285.2197815716321
 20
-137.5332733463922
 30
0.0
 40
259.4083074255017
100
AcDbArc
 50
148.9414775729624
 51
149.2516238835282
  0
ARC
  5
40E
330
18
100
AcDbEntity
  8
1
 62
     1
100
AcDbCircle
 10
111.1565489657134
 20
26.03458262804502
 30
0.0
 40
57.89792156702943
100
AcDbArc
 50
210.9454889898832
 51
212.3064852528672
  0
ARC
  5
40F
330
18
100
AcDbEntity
  8
1
 62
     1
100
AcDbCircle
 10
83.06110438738358
 20
8.215767567594778
 30
0.0
 40
16.95706420527764
100
AcDbArc
 50
222.203859415409
 51
224.2309309736513
  0
ARC
  5
410
330
18
100
AcDbEntity
  8
1
 62
     1
100
AcDbCircle
 10
108.4794204459811
 20
-32.07936718838614
 30
0.0
 40
47.72703225010023
100
AcDbArc
 50
142.7273940066935
 51
143.8008931023498
  0
ARC
  5
411
330
18
100
AcDbEntity
  8
1
 62
     1
100
AcDbCircle
 10
119.2523738594229
 20
-39.17262564585193
 30
0.0
 40
61.72851620914995
100
AcDbArc
 50
144.4971372071873
 51
145.6665579509174
  0
ARC
  5
412
330
18
100
AcDbEntity
  8
1
 62
     1
100
AcDbCircle
 10
85.17577846286989
 20
9.951061814501976
 30
0.0
 40
20.92576013597591
100
AcDbArc
 50
219.3752343678541
 51
221.8353374359671
  0
ARC
  5
413
330
18
100
AcDbEntity
  8
1
 62
     1
100
AcDbCircle
 10
96.97582501259438
 20
17.77683405292811
 30
0.0
 40
38.90239076989813
100
AcDbArc
 50
213.4046855826609
 51
215.2872869984161
  0
ARC
  5
414
330
18
100
AcDbEntity
  8
1
 62
     1
100
AcDbCircle
 10
200.4666649309714
 20
-88.05960936189074
 30
0.0
 40
160.0420185677515
100
AcDbArc
 50
148.1647454963059
 51
148.657637587037
  0
ARC
  5
415
330
18
100
AcDbEntity
  8
1
 62
     1
100
AcDbCircle
 10
159.3207271877271
 20
-63.73938347382398
 30
0.0
 40
111.0432262393857
100
AcDbArc
 50
147.182348823465
 51
147.8754566349396
  0
LINE
  5
416
330
18
100
AcDbEntity
  8
1
 62
     1
100
AcDbLine
 10
56.27886752691897
 20
-4.96157042654343
 30
0.0
 11
57.00000000000001
 21
-3.705977239896719
 31
0.0
  0
LINE
  5
417
330
18
100
AcDbEntity
  8
1
 62
     1
100
AcDbLine
 10
56.27886752691897
 20
-4.961570426543423
 30
0.0
 11
56.27886752691897
 21
-5.0
 31
0.0
  0
LINE
  5
418
330
18
100
AcDbEntity
  8
1
 62
     1
100
AcDbLine
 10
57.00000000000001
 20
-3.7509625
 30
0.0
 11
56.27886752691897
 21
-5.000000000000006
 31
0.0
  0
ARC
  5
419
330
18
100
AcDbEntity
  8
1
 62
     1
100
AcDbCircle
 10
151.9464080685402
 20
48.59508485689284
 30
0.0
 40
108.3984461336018
100
AcDbArc
 50
208.8480938237745
 51
209.6285080911624
  0
LINE
  5
41A
330
18
100
AcDbEntity
  8
1
 62
     1
100
AcDbLine
 10
57.00000000000001
 20
-3.7509625
 30
0.0
 11
57.00000000000001
 21
-3.750952118964368
 31
0.0
  0
LINE
  5
41B
330
18
100
AcDbEntity
  8
1
 62
     1
100
AcDbLine
 10
57.00000000000001
 20
-3.750952118964368
 30
0.0
 11
57.00000000000001
 21
-3.747916282562335
 31
0.0
  0
LINE
  5
41C
330
18
100
AcDbEntity
  8
1
 62
     1
100
AcDbLine
 10
57.00000000000001
 20
-3.747916282562335
 30
0.0
 11
57.0
 21
-3.70597723989672
 31
0.0
  0
LINE
  5
41D
330
18
100
AcDbEntity
  8
1
 62
     1
100
AcDbLine
 10
57.72113247308106
 20
-5.000000000000031
 30
0.0
 11
57.00000000000001
 21
-3.7509625
 31
0.0
  0
LINE
  5
41E
330
18
100
AcDbEntity
  8
1
 62
     1
100
AcDbLine
 10
57.72113247308106
 20
-4.994351581119585
 30
0.0
 11
57.72113247308106
 21
-5.0
 31
0.0
  0
LINE
  5
41F
330
18
100
AcDbEntity
  8
1
 62
     1
100
AcDbLine
 10
57.77886752691898
 20
-4.995055994356936
 30
0.0
 11
58.50000000000001
 21
-3.740293709157427
 31
0.0
  0
LINE
  5
420
330
18
100
AcDbEntity
  8
1
 62
     1
100
AcDbLine
 10
57.778867526919
 20
-4.995055994356945
 30
0.0
 11
57.778867526919
 21
-5.0
 31
0.0
  0
LINE
  5
421
330
18
100
AcDbEntity
  8
1
 62
     1
100
AcDbLine
 10
58.50000000000001
 20
-3.7509625
 30
0.0
 11
57.778867526919
 21
-4.999999999999957
 31
0.0
  0
ARC
  5
422
330
18
100
AcDbEntity
  8
1
 62
     1
100
AcDbCircle
 10
131.8057989026599
 20
37.4904854782527
 30
0.0
 40
84.10539676061526
100
AcDbArc
 50
209.3555372539542
 51
210.0116933475174
  0
LINE
  5
423
330
18
100
AcDbEntity
  8
1
 62
     1
100
AcDbLine
 10
58.50000000000001
 20
-3.7509625
 30
0.0
 11
58.50000000000001
 21
-3.750959970063409
 31
0.0
  0
LINE
  5
424
330
18
100
AcDbEntity
  8
1
 62
     1
100
AcDbLine
 10
58.50000000000001
 20
-3.750959970063409
 30
0.0
 11
58.5
 21
-3.750225759827718
 31
0.0
  0
LINE
  5
425
330
18
100
AcDbEntity
  8
1
 62
     1
100
AcDbLine
 10
58.5
 20
-3.750225759827718
 30
0.0
 11
58.50000000000001
 21
-3.740293709157427
 31
0.0
  0
LINE
  5
426
330
18
100
AcDbEntity
  8
1
 62
     1
100
AcDbLine
 10
58.97696150119286
 20
-4.577083668141068
 30
0.0
 11
58.50000000000001
 21
-3.7509625
 31
0.0
  0
LINE
  5
427
330
18
100
AcDbEntity
  8
1
 62
     1
100
AcDbLine
 10
58.97696150119286
 20
-4.577083668141061
 30
0.0
 11
59.22113247308103
 21
-4.997431948031316
 31
0.0
  0
ARC
  5
428
330
18
100
AcDbEntity
  8
1
 62
     1
100
AcDbCircle
 10
564.1551578379442
 20
-299.4564360236261
 30
0.0
 40
583.1909155211258
100
AcDbArc
 50
149.5311430393357
 51
149.6711648821419
  0
ARC
  5
429
330
18
100
AcDbEntity
  8
1
 62
     1
100
AcDbCircle
 10
-3229.817158891456
 20
1899.647447773297
 30
0.0
 40
3800.766074859332
100
AcDbArc
 50
329.9257959096566
 51
329.9474979475347
  0
ARC
  5
42A
330
18
100
AcDbEntity
  8
1
 62
     1
100
AcDbCircle
 10
121.2077428414215
 20
31.66887026001247
 30
0.0
 40
70.71740149560313
100
AcDbArc
 50
210.0571809022783
 51
211.2039850575935
  0
LINE
  5
42B
330
18
100
AcDbEntity
  8
1
 62
     1
100
AcDbLine
 10
46.5
 20
-2.839319992583259
 30
0.0
 11
46.83169843825847
 21
-3.423455055524975
 31
0.0
  0
LINE
  5
42C
330
18
100
AcDbEntity
  8
1
 62
     1
100
AcDbLine
 10
46.83169843825848
 20
-3.423455055524975
 30
0.0
 11
46.83169843825848
 21
-4.325480779985599
 31
0.0
  0
ARC
  5
42D
330
18
100
AcDbEntity
  8
1
 62
     1
100
AcDbCircle
 10
-53.73456949463794
 20
58.59813968116773
 30
0.0
 40
124.383663265703
100
AcDbArc
 50
329.355853292225
 51
330.0140106634734
  0
LINE
  5
42E
330
18
100
AcDbEntity
  8
1
 62
     1
100
AcDbLine
 10
53.278867526919
 20
-4.800774344432561
 30
0.0
 11
53.27886752691899
 21
-5.0
 31
0.0
  0
LINE
  5
42F
330
18
100
AcDbEntity
  8
1
 62
     1
100
AcDbLine
 10
54.0
 20
-3.7509625
 30
0.0
 11
53.27886752691899
 21
-4.999999999999969
 31
0.0
  0
ARC
  5
430
330
18
100
AcDbEntity
  8
1
 62
     1
100
AcDbCircle
 10
217.6875522673982
 20
84.58443878290551
 30
0.0
 40
185.9149020361633
100
AcDbArc
 50
208.304095884627
 51
208.7693326469659
  0
LINE
  5
431
330
18
100
AcDbEntity
  8
1
 62
     1
100
AcDbLine
 10
54.0
 20
-3.7509625
 30
0.0
 11
54.0
 21
-3.750921948660127
 31
0.0
  0
LINE
  5
432
330
18
100
AcDbEntity
  8
1
 62
     1
100
AcDbLine
 10
54.0
 20
-3.750921948660127
 30
0.0
 11
54.00000000000001
 21
-3.738892869070534
 31
0.0
  0
LINE
  5
433
330
18
100
AcDbEntity
  8
1
 62
     1
100
AcDbLine
 10
54.00000000000001
 20
-3.738892869070534
 30
0.0
 11
54.00000000000001
 21
-3.567321879109488
 31
0.0
  0
LINE
  5
434
330
18
100
AcDbEntity
  8
1
 62
     1
100
AcDbLine
 10
54.72113247308102
 20
-4.893552200042189
 30
0.0
 11
54.72113247308103
 21
-5.0
 31
0.0
  0
ARC
  5
435
330
18
100
AcDbEntity
  8
1
 62
     1
100
AcDbCircle
 10
177.3512026745973
 20
62.50507878043201
 30
0.0
 40
138.6505457811266
100
AcDbArc
 50
208.4976291947963
 51
209.1161034182252
  0
LINE
  5
436
330
18
100
AcDbEntity
  8
1
 62
     1
100
AcDbLine
 10
56.22113247308104
 20
-5.000000000000006
 30
0.0
 11
55.5
 21
-3.7509625
 31
0.0
  0
LINE
  5
437
330
18
100
AcDbEntity
  8
1
 62
     1
100
AcDbLine
 10
56.22113247308103
 20
-4.959651760119982
 30
0.0
 11
56.22113247308104
 21
-5.0
 31
0.0
  0
LINE
  5
438
330
18
100
AcDbEntity
  8
1
 62
     1
100
AcDbLine
 10
46.83169843825848
 20
4.001335484513532
 30
0.0
 11
46.83169843825848
 21
1.921822839419216
 31
0.0
  0
ARC
  5
439
330
18
100
AcDbEntity
  8
1
 62
     1
100
AcDbCircle
 10
-518.8459256837787
 20
-318.0387297983706
 30
0.0
 40
648.4965780157551
100
AcDbArc
 50
28.93081866949696
 51
29.06225934118335
  0
LINE
  5
43A
330
18
100
AcDbEntity
  8
1
 62
     1
100
AcDbLine
 10
48.72113247308103
 20
-5.000000000000006
 30
0.0
 11
48.0
 21
-3.7509625
 31
0.0
  0
LINE
  5
43B
330
18
100
AcDbEntity
  8
1
 62
     1
100
AcDbLine
 10
48.72113247308103
 20
-4.326443281007109
 30
0.0
 11
48.72113247308103
 21
-5.0
 31
0.0
  0
ARC
  5
43C
330
18
100
AcDbEntity
  8
1
 62
     1
100
AcDbCircle
 10
5.113471662351671
 20
24.3866151686326
 30
0.0
 40
50.89856912283499
100
AcDbArc
 50
326.3008154776467
 51
327.4144675700624
  0
LINE
  5
43D
330
18
100
AcDbEntity
  8
1
 62
     1
100
AcDbLine
 10
48.0
 20
-3.7509625
 30
0.0
 11
47.45915070800116
 21
-4.687740516206589
 31
0.0
  0
LINE
  5
43E
330
18
100
AcDbEntity
  8
1
 62
     1
100
AcDbLine
 10
48.0
 20
-3.7509625
 30
0.0
 11
48.00000000000001
 21
-3.750809809582973
 31
0.0
  0
LINE
  5
43F
330
18
100
AcDbEntity
  8
1
 62
     1
100
AcDbLine
 10
48.00000000000001
 20
-3.750809809582973
 30
0.0
 11
47.99999999999999
 21
-3.704363223097682
 31
0.0
  0
LINE
  5
440
330
18
100
AcDbEntity
  8
1
 62
     1
100
AcDbLine
 10
47.99999999999999
 20
-3.704363223097682
 30
0.0
 11
48.0
 21
-3.025208210793219
 31
0.0
  0
ARC
  5
441
330
18
100
AcDbEntity
  8
1
 62
     1
100
AcDbCircle
 10
-4.151235921927501
 20
29.88623884125516
 30
0.0
 40
63.02877610678388
100
AcDbArc
 50
327.1165471024225
 51
328.3444692866076
  0
LINE
  5
442
330
18
100
AcDbEntity
  8
1
 62
     1
100
AcDbLine
 10
48.77886752691899
 20
-4.334100908956693
 30
0.0
 11
48.77886752691899
 21
-5.0
 31
0.0
  0
LINE
  5
443
330
18
100
AcDbEntity
  8
1
 62
     1
100
AcDbLine
 10
49.5
 20
-3.7509625
 30
0.0
 11
48.77886752691899
 21
-4.999999999999969
 31
0.0
  0
ARC
  5
444
330
18
100
AcDbEntity
  8
1
 62
     1
100
AcDbCircle
 10
3458.187902786678
 20
1858.194126289668
 30
0.0
 40
3883.801151419768
100
AcDbArc
 50
208.6376798712716
 51
208.6598706205286
  0
LINE
  5
445
330
18
100
AcDbEntity
  8
1
 62
     1
100
AcDbLine
 10
49.5
 20
-3.7509625
 30
0.0
 11
49.5
 21
-3.75084403288171
 31
0.0
  0
LINE
  5
446
330
18
100
AcDbEntity
  8
1
 62
     1
100
AcDbLine
 10
49.5
 20
-3.75084403288171
 30
0.0
 11
49.5
 21
-3.715020754929683
 31
0.0
  0
LINE
  5
447
330
18
100
AcDbEntity
  8
1
 62
     1
100
AcDbLine
 10
49.5
 20
-3.715020754929683
 30
0.0
 11
49.50000000000001
 21
-3.191943119075392
 31
0.0
  0
LINE
  5
448
330
18
100
AcDbEntity
  8
1
 62
     1
100
AcDbLine
 10
50.22113247308103
 20
-5.000000000000006
 30
0.0
 11
49.5
 21
-3.7509625
 31
0.0
  0
LINE
  5
449
330
18
100
AcDbEntity
  8
1
 62
     1
100
AcDbLine
 10
50.22113247308103
 20
-4.512016318527344
 30
0.0
 11
50.22113247308103
 21
-5.0
 31
0.0
  0
ARC
  5
44A
330
18
100
AcDbEntity
  8
1
 62
     1
100
AcDbCircle
 10
-15.58596393832482
 20
36.5431244442536
 30
0.0
 40
77.61597511921534
100
AcDbArc
 50
328.0595945141823
 51
329.0805430929666
  0
LINE
  5
44B
330
18
100
AcDbEntity
  8
1
 62
     1
100
AcDbLine
 10
50.27886752691898
 20
-4.518595082042326
 30
0.0
 11
50.27886752691899
 21
-5.0
 31
0.0
  0
LINE
  5
44C
330
18
100
AcDbEntity
  8
1
 62
     1
100
AcDbLine
 10
51.0
 20
-3.7509625
 30
0.0
 11
50.27886752691899
 21
-4.999999999999969
 31
0.0
  0
LINE
  5
44D
330
18
100
AcDbEntity
  8
1
 62
     1
100
AcDbLine
 10
51.00000000000001
 20
-3.33847009307551
 30
0.0
 11
51.72113247308103
 21
-4.669023607806247
 31
0.0
  0
LINE
  5
44E
330
18
100
AcDbEntity
  8
1
 62
     1
100
AcDbLine
 10
51.0
 20
-3.7509625
 30
0.0
 11
50.99999999999999
 21
-3.750874165909427
 31
0.0
  0
LINE
  5
44F
330
18
100
AcDbEntity
  8
1
 62
     1
100
AcDbLine
 10
50.99999999999999
 20
-3.750874165909427
 30
0.0
 11
51.0
 21
-3.724326566756791
 31
0.0
  0
LINE
  5
450
330
18
100
AcDbEntity
  8
1
 62
     1
100
AcDbLine
 10
51.0
 20
-3.724326566756791
 30
0.0
 11
50.99999999999999
 21
-3.338470093075509
 31
0.0
  0
LINE
  5
451
330
18
100
AcDbEntity
  8
1
 62
     1
100
AcDbLine
 10
51.72113247308103
 20
-5.000000000000006
 30
0.0
 11
51.0
 21
-3.7509625
 31
0.0
  0
LINE
  5
452
330
18
100
AcDbEntity
  8
1
 62
     1
100
AcDbLine
 10
51.72113247308103
 20
-4.669023608147796
 30
0.0
 11
51.72113247308103
 21
-5.0
 31
0.0
  0
ARC
  5
453
330
18
100
AcDbEntity
  8
1
 62
     1
100
AcDbCircle
 10
-31.16812673024045
 20
45.5596266575602
 30
0.0
 40
96.97251061397
100
AcDbArc
 50
328.8001904497788
 51
329.6327735627434
  0
LINE
  5
454
330
18
100
AcDbEntity
  8
1
 62
     1
100
AcDbLine
 10
51.778867526919
 20
-4.674481825258204
 30
0.0
 11
51.77886752691899
 21
-5.0
 31
0.0
  0
LINE
  5
455
330
18
100
AcDbEntity
  8
1
 62
     1
100
AcDbLine
 10
52.5
 20
-3.7509625
 30
0.0
 11
51.77886752691899
 21
-4.999999999999957
 31
0.0
  0
LINE
  5
456
330
18
100
AcDbEntity
  8
1
 62
     1
100
AcDbLine
 10
52.5
 20
-3.463861009442964
 30
0.0
 11
53.22113247308104
 21
-4.796471248135182
 31
0.0
  0
LINE
  5
457
330
18
100
AcDbEntity
  8
1
 62
     1
100
AcDbLine
 10
52.5
 20
-3.7509625
 30
0.0
 11
52.5
 21
-3.750900170085899
 31
0.0
  0
LINE
  5
458
330
18
100
AcDbEntity
  8
1
 62
     1
100
AcDbLine
 10
52.5
 20
-3.750900170085899
 30
0.0
 11
52.49999999999999
 21
-3.732287142121964
 31
0.0
  0
LINE
  5
459
330
18
100
AcDbEntity
  8
1
 62
     1
100
AcDbLine
 10
52.49999999999999
 20
-3.732287142121964
 30
0.0
 11
52.5
 21
-3.463861009442799
 31
0.0
  0
LINE
  5
45A
330
18
100
AcDbEntity
  8
1
 62
     1
100
AcDbLine
 10
53.22113247308103
 20
-5.000000000000006
 30
0.0
 11
52.5
 21
-3.7509625
 31
0.0
  0
LINE
  5
45B
330
18
100
AcDbEntity
  8
1
 62
     1
100
AcDbLine
 10
53.22113247308103
 20
-4.796471248025277
 30
0.0
 11
53.22113247308103
 21
-5.0
 31
0.0
  0
ARC
  5
45C
330
18
100
AcDbEntity
  8
1
 62
     1
100
AcDbCircle
 10
-89.79111988523992
 20
79.44989399095397
 30
0.0
 40
167.3762867798271
100
AcDbArc
 50
329.7394012590631
 51
330.2329480082392
  0
LINE
  5
45D
330
18
100
AcDbEntity
  8
1
 62
     1
100
AcDbLine
 10
54.778867526919
 20
-4.896672962990032
 30
0.0
 11
54.77886752691899
 21
-5.0
 31
0.0
  0
LINE
  5
45E
330
18
100
AcDbEntity
  8
1
 62
     1
100
AcDbLine
 10
55.5
 20
-3.7509625
 30
0.0
 11
54.77886752691899
 21
-4.999999999999957
 31
0.0
  0
LINE
  5
45F
330
18
100
AcDbEntity
  8
1
 62
     1
100
AcDbLine
 10
55.5
 20
-3.7509625
 30
0.0
 11
55.50000000000001
 21
-3.750939341726257
 31
0.0
  0
LINE
  5
460
330
18
100
AcDbEntity
  8
1
 62
     1
100
AcDbLine
 10
55.50000000000001
 20
-3.750939341726257
 30
0.0
 11
55.49999999999999
 21
-3.744117360062081
 31
0.0
  0
LINE
  5
461
330
18
100
AcDbEntity
  8
1
 62
     1
100
AcDbLine
 10
55.49999999999999
 20
-3.744117360062081
 30
0.0
 11
55.5
 21
-3.648197976828099
 31
0.0
  0
LINE
  5
462
330
18
100
AcDbEntity
  8
1
 62
     1
100
AcDbLine
 10
71.6916372781157
 20
4.048542703342102
 30
0.0
 11
70.91079242880222
 21
4.264957214449003
 31
0.0
  0
LINE
  5
463
330
18
100
AcDbEntity
  8
1
 62
     1
100
AcDbLine
 10
70.91079242880221
 20
4.462475526306878
 30
0.0
 11
71.6916372781157
 21
4.285062152439702
 31
0.0
  0
LINE
  5
464
330
18
100
AcDbEntity
  8
1
 62
     1
100
AcDbLine
 10
69.96516155436589
 20
4.521854845673123
 30
0.0
 11
69.58474124153877
 21
4.623631782999783
 31
0.0
  0
LINE
  5
465
330
18
100
AcDbEntity
  8
1
 62
     1
100
AcDbLine
 10
69.58474124153878
 20
4.763763567407253
 30
0.0
 11
69.96516155436588
 21
4.677329429760575
 31
0.0
  0
LINE
  5
466
330
18
100
AcDbEntity
  8
1
 62
     1
100
AcDbLine
 10
71.99999999999999
 20
-0.1410016448660726
 30
0.0
 11
71.99999999999999
 21
-0.4388337327067646
 31
0.0
  0
LINE
  5
467
330
18
100
AcDbEntity
  8
1
 62
     1
100
AcDbLine
 10
72.0
 20
-2.863059496192975
 30
0.0
 11
72.0
 21
-0.4388337327067649
 31
0.0
  0
ARC
  5
468
330
18
100
AcDbEntity
  8
1
 62
     1
100
AcDbCircle
 10
69.06190170820574
 20
5.605781928232378
 30
0.0
 40
6.720845464271074
100
AcDbArc
 50
293.034199466561
 51
295.9229345421161
  0
ARC
  5
469
330
18
100
AcDbEntity
  8
1
 62
     1
100
AcDbCircle
 10
77.66493267268623
 20
-7.809508732318559
 30
0.0
 40
7.520600128438116
100
AcDbArc
 50
138.8735136592496
 51
142.5851310228355
  0
ARC
  5
46A
330
18
100
AcDbEntity
  8
1
 62
     1
100
AcDbCircle
 10
66.37069633393462
 20
6.212241675194985
 30
0.0
 40
5.475643115594774
100
AcDbArc
 50
258.4983058733706
 51
266.1181097898811
  0
LINE
  5
46B
330
18
100
AcDbEntity
  8
1
 62
     1
100
AcDbLine
 10
65.27886752691896
 20
0.8465437274638159
 30
0.0
 11
65.27886752691896
 21
-2.627606594707683
 31
0.0
  0
LINE
  5
46C
330
18
100
AcDbEntity
  8
1
 62
     1
100
AcDbLine
 10
65.27886752691896
 20
-2.627606594707701
 30
0.0
 11
65.458303215571
 21
-2.425589120549147
 31
0.0
  0
LINE
  5
46D
330
18
100
AcDbEntity
  8
1
 62
     1
100
AcDbLine
 10
65.458303215571
 20
-2.425589120549147
 30
0.0
 11
65.63898713096486
 21
-2.247091711005055
 31
0.0
  0
LINE
  5
46E
330
18
100
AcDbEntity
  8
1
 62
     1
100
AcDbLine
 10
65.63898713096486
 20
-2.247091711005055
 30
0.0
 11
65.72948407149086
 21
-2.166677106939343
 31
0.0
  0
LINE
  5
46F
330
18
100
AcDbEntity
  8
1
 62
     1
100
AcDbLine
 10
65.72948407149086
 20
-2.166677106939343
 30
0.0
 11
65.81991546039154
 21
-2.092141778808608
 31
0.0
  0
LINE
  5
470
330
18
100
AcDbEntity
  8
1
 62
     1
100
AcDbLine
 10
65.81991546039154
 20
-2.092141778808608
 30
0.0
 11
65.91013423282035
 21
-2.023480461665626
 31
0.0
  0
LINE
  5
471
330
18
100
AcDbEntity
  8
1
 62
     1
100
AcDbLine
 10
65.91013423282035
 20
-2.023480461665626
 30
0.0
 11
66.0
 21
-1.960675210771756
 31
0.0
  0
ARC
  5
472
330
18
100
AcDbEntity
  8
1
 62
     1
100
AcDbCircle
 10
65.73433489133421
 20
6.984728111461495
 30
0.0
 40
6.07252443011757
100
AcDbArc
 50
251.2149930387349
 51
258.2718465337007
  0
LINE
  5
473
330
18
100
AcDbEntity
  8
1
 62
     1
100
AcDbLine
 10
63.77886752691897
 20
1.235649599931766
 30
0.0
 11
63.77886752691897
 21
-2.281082453718919
 31
0.0
  0
LINE
  5
474
330
18
100
AcDbEntity
  8
1
 62
     1
100
AcDbLine
 10
63.77886752691897
 20
-2.281082453718916
 30
0.0
 11
63.86837075595346
 21
-2.186856419006856
 31
0.0
  0
LINE
  5
475
330
18
100
AcDbEntity
  8
1
 62
     1
100
AcDbLine
 10
63.86837075595346
 20
-2.186856419006856
 30
0.0
 11
63.95830321800752
 21
-2.098847286360813
 31
0.0
  0
LINE
  5
476
330
18
100
AcDbEntity
  8
1
 62
     1
100
AcDbLine
 10
63.95830321800752
 20
-2.098847286360813
 30
0.0
 11
64.04855547468766
 21
-2.017034294228968
 31
0.0
  0
LINE
  5
477
330
18
100
AcDbEntity
  8
1
 62
     1
100
AcDbLine
 10
64.04855547468766
 20
-2.017034294228968
 30
0.0
 11
64.13898713568344
 21
-1.941414566902455
 31
0.0
  0
LINE
  5
478
330
18
100
AcDbEntity
  8
1
 62
     1
100
AcDbLine
 10
64.13898713568344
 20
-1.941414566902455
 30
0.0
 11
64.22948407514464
 21
-1.871951680667951
 31
0.0
  0
LINE
  5
479
330
18
100
AcDbEntity
  8
1
 62
     1
100
AcDbLine
 10
64.22948407514464
 20
-1.871951680667951
 30
0.0
 11
64.31991546220812
 21
-1.808619065661135
 31
0.0
  0
LINE
  5
47A
330
18
100
AcDbEntity
  8
1
 62
     1
100
AcDbLine
 10
64.31991546220812
 20
-1.808619065661135
 30
0.0
 11
64.41013423304277
 21
-1.751391110633995
 31
0.0
  0
LINE
  5
47B
330
18
100
AcDbEntity
  8
1
 62
     1
100
AcDbLine
 10
64.41013423304277
 20
-1.751391110633995
 30
0.0
 11
64.5
 21
-1.700233510944322
 31
0.0
  0
LINE
  5
47C
330
18
100
AcDbEntity
  8
1
 62
     1
100
AcDbLine
 10
64.5
 20
-1.700233510944323
 30
0.0
 11
64.49999999999999
 21
1.039064396769914
 31
0.0
  0
ARC
  5
47D
330
18
100
AcDbEntity
  8
1
 62
     1
100
AcDbCircle
 10
63.83971458641598
 20
-8.289570861167963
 30
0.0
 40
9.898302627023458
100
AcDbArc
 50
54.52116411590813
 51
58.57843640917893
  0
LINE
  5
47E
330
18
100
AcDbEntity
  8
1
 62
     1
100
AcDbLine
 10
69.0
 20
-2.442748850832596
 30
0.0
 11
69.14923236097842
 21
-2.634534778056281
 31
0.0
  0
LINE
  5
47F
330
18
100
AcDbEntity
  8
1
 62
     1
100
AcDbLine
 10
69.14923236097842
 20
-2.634534778056281
 30
0.0
 11
69.29685867135427
 21
-2.843513984519197
 31
0.0
  0
LINE
  5
480
330
18
100
AcDbEntity
  8
1
 62
     1
100
AcDbLine
 10
69.29685867135427
 20
-2.843513984519197
 30
0.0
 11
69.44220691801037
 21
-3.067702196143082
 31
0.0
  0
LINE
  5
481
330
18
100
AcDbEntity
  8
1
 62
     1
100
AcDbLine
 10
69.44220691801037
 20
-3.067702196143082
 30
0.0
 11
69.58474124153878
 21
-3.305095482573417
 31
0.0
  0
ARC
  5
482
330
18
100
AcDbEntity
  8
1
 62
     1
100
AcDbCircle
 10
67.88980141825976
 20
5.383385714103563
 30
0.0
 40
5.342818936245004
100
AcDbArc
 50
274.175997033229
 51
281.9930248464186
  0
LINE
  5
483
330
18
100
AcDbEntity
  8
1
 62
     1
100
AcDbLine
 10
68.27886752691896
 20
0.0547518961358744
 30
0.0
 11
68.27886752691896
 21
-3.268658420016746
 31
0.0
  0
ARC
  5
484
330
18
100
AcDbEntity
  8
1
 62
     1
100
AcDbCircle
 10
72.79466138581898
 20
-6.477198834728142
 30
0.0
 40
5.539435106463037
100
AcDbArc
 50
133.2457037031222
 51
144.6056253755538
  0
LINE
  5
485
330
18
100
AcDbEntity
  8
1
 62
     1
100
AcDbLine
 10
69.0
 20
-2.442748850832591
 30
0.0
 11
68.99999999999999
 21
0.1571836351791605
 31
0.0
  0
ARC
  5
486
330
18
100
AcDbEntity
  8
1
 62
     1
100
AcDbCircle
 10
68.57474874144519
 20
5.350066493382672
 30
0.0
 40
5.819042853360321
100
AcDbArc
 50
283.8241006978474
 51
289.3205557359294
  0
LINE
  5
487
330
18
100
AcDbEntity
  8
1
 62
     1
100
AcDbLine
 10
69.96516155436588
 20
-0.3004190130846445
 30
0.0
 11
69.96516155436588
 21
-3.296629847220672
 31
0.0
  0
ARC
  5
488
330
18
100
AcDbEntity
  8
1
 62
     1
100
AcDbCircle
 10
75.15330989000516
 20
-7.118248477175008
 30
0.0
 40
6.443676344841518
100
AcDbArc
 50
136.2349388850362
 51
143.6244351129181
  0
ARC
  5
489
330
18
100
AcDbEntity
  8
1
 62
     1
100
AcDbCircle
 10
62.10047968624063
 20
-3.447179943257809
 30
0.0
 40
5.080011246049798
100
AcDbArc
 50
88.63907427271184
 51
96.78848993835383
  0
LINE
  5
48A
330
18
100
AcDbEntity
  8
1
 62
     1
100
AcDbLine
 10
61.50000000000001
 20
-1.148774611678715
 30
0.0
 11
61.50000000000001
 21
1.597212911295739
 31
0.0
  0
LINE
  5
48B
330
18
100
AcDbEntity
  8
1
 62
     1
100
AcDbLine
 10
61.5
 20
-1.148774611678718
 30
0.0
 11
61.54656246927681
 21
-1.179996794414674
 31
0.0
  0
LINE
  5
48C
330
18
100
AcDbEntity
  8
1
 62
     1
100
AcDbLine
 10
61.54656246927681
 20
-1.179996794414674
 30
0.0
 11
61.63935686963443
 21
-1.249462501543752
 31
0.0
  0
LINE
  5
48D
330
18
100
AcDbEntity
  8
1
 62
     1
100
AcDbLine
 10
61.63935686963443
 20
-1.249462501543752
 30
0.0
 11
61.73154519525502
 21
-1.328001819264373
 31
0.0
  0
LINE
  5
48E
330
18
100
AcDbEntity
  8
1
 62
     1
100
AcDbLine
 10
61.73154519525502
 20
-1.328001819264373
 30
0.0
 11
61.8229555352541
 21
-1.415261600832343
 31
0.0
  0
LINE
  5
48F
330
18
100
AcDbEntity
  8
1
 62
     1
100
AcDbLine
 10
61.8229555352541
 20
-1.415261600832343
 30
0.0
 11
61.91344027273593
 21
-1.510880574238436
 31
0.0
  0
LINE
  5
490
330
18
100
AcDbEntity
  8
1
 62
     1
100
AcDbLine
 10
61.91344027273593
 20
-1.510880574238436
 30
0.0
 11
62.00287141702573
 21
-1.614489286024375
 31
0.0
  0
LINE
  5
491
330
18
100
AcDbEntity
  8
1
 62
     1
100
AcDbLine
 10
62.00287141702573
 20
-1.614489286024375
 30
0.0
 11
62.09113692728174
 21
-1.725710308185137
 31
0.0
  0
LINE
  5
492
330
18
100
AcDbEntity
  8
1
 62
     1
100
AcDbLine
 10
62.09113692728174
 20
-1.725710308185137
 30
0.0
 11
62.22113247308104
 21
-1.905965583401086
 31
0.0
  0
LINE
  5
493
330
18
100
AcDbEntity
  8
1
 62
     1
100
AcDbLine
 10
62.22113247308104
 20
1.631418561137009
 30
0.0
 11
62.22113247308103
 21
-1.905965583373995
 31
0.0
  0
ARC
  5
494
330
18
100
AcDbEntity
  8
1
 62
     1
100
AcDbCircle
 10
65.31324075288313
 20
8.011760998172473
 30
0.0
 40
7.078205567156445
100
AcDbArc
 50
244.6154630734025
 51
250.9243579342881
  0
LINE
  5
495
330
18
100
AcDbEntity
  8
1
 62
     1
100
AcDbLine
 10
62.27886752691901
 20
1.616932281372758
 30
0.0
 11
62.27886752691899
 21
-1.920117057502109
 31
0.0
  0
LINE
  5
496
330
18
100
AcDbEntity
  8
1
 62
     1
100
AcDbLine
 10
62.27886752691899
 20
-1.920117057502114
 30
0.0
 11
62.36837076307832
 21
-1.836205642026226
 31
0.0
  0
LINE
  5
497
330
18
100
AcDbEntity
  8
1
 62
     1
100
AcDbLine
 10
62.36837076307832
 20
-1.836205642026226
 30
0.0
 11
62.45830322709529
 21
-1.75881804148959
 31
0.0
  0
LINE
  5
498
330
18
100
AcDbEntity
  8
1
 62
     1
100
AcDbLine
 10
62.45830322709529
 20
-1.75881804148959
 30
0.0
 11
62.5485554822254
 21
-1.68790829236434
 31
0.0
  0
LINE
  5
499
330
18
100
AcDbEntity
  8
1
 62
     1
100
AcDbLine
 10
62.5485554822254
 20
-1.68790829236434
 30
0.0
 11
62.63898714061397
 21
-1.623446588876991
 31
0.0
  0
LINE
  5
49A
330
18
100
AcDbEntity
  8
1
 62
     1
100
AcDbLine
 10
62.63898714061397
 20
-1.623446588876991
 30
0.0
 11
62.72948407747
 21
-1.565375089152423
 31
0.0
  0
LINE
  5
49B
330
18
100
AcDbEntity
  8
1
 62
     1
100
AcDbLine
 10
62.72948407747
 20
-1.565375089152423
 30
0.0
 11
62.8199154631707
 21
-1.513646058263002
 31
0.0
  0
LINE
  5
49C
330
18
100
AcDbEntity
  8
1
 62
     1
100
AcDbLine
 10
62.8199154631707
 20
-1.513646058263002
 30
0.0
 11
62.91013423333702
 21
-1.46821371688427
 31
0.0
  0
LINE
  5
49D
330
18
100
AcDbEntity
  8
1
 62
     1
100
AcDbLine
 10
62.91013423333702
 20
-1.46821371688427
 30
0.0
 11
63.00000000000001
 21
-1.429027625026321
 31
0.0
  0
LINE
  5
49E
330
18
100
AcDbEntity
  8
1
 62
     1
100
AcDbLine
 10
63.0
 20
-1.42902762502685
 30
0.0
 11
63.00000000000001
 21
1.322324296959938
 31
0.0
  0
ARC
  5
49F
330
18
100
AcDbEntity
  8
1
 62
     1
100
AcDbCircle
 10
62.84676219016725
 20
-3.865979574984572
 30
0.0
 40
5.190577846148773
100
AcDbArc
 50
80.30220999473067
 51
88.30824710124801
  0
LINE
  5
4A0
330
18
100
AcDbEntity
  8
1
 62
     1
100
AcDbLine
 10
63.00000000000001
 20
-1.429027625026321
 30
0.0
 11
63.09302469599131
 21
-1.505418636916533
 31
0.0
  0
LINE
  5
4A1
330
18
100
AcDbEntity
  8
1
 62
     1
100
AcDbLine
 10
63.09302469599131
 20
-1.505418636916533
 30
0.0
 11
63.18553989936817
 21
-1.590704471052971
 31
0.0
  0
LINE
  5
4A2
330
18
100
AcDbEntity
  8
1
 62
     1
100
AcDbLine
 10
63.18553989936817
 20
-1.590704471052971
 30
0.0
 11
63.27735943836264
 21
-1.684505063448817
 31
0.0
  0
LINE
  5
4A3
330
18
100
AcDbEntity
  8
1
 62
     1
100
AcDbLine
 10
63.27735943836264
 20
-1.684505063448817
 30
0.0
 11
63.36832423655778
 21
-1.786433501211089
 31
0.0
  0
LINE
  5
4A4
330
18
100
AcDbEntity
  8
1
 62
     1
100
AcDbLine
 10
63.36832423655778
 20
-1.786433501211089
 30
0.0
 11
63.45829703171366
 21
-1.896095911491924
 31
0.0
  0
LINE
  5
4A5
330
18
100
AcDbEntity
  8
1
 62
     1
100
AcDbLine
 10
63.45829703171366
 20
-1.896095911491924
 30
0.0
 11
63.5471582408979
 21
-2.013091645583335
 31
0.0
  0
LINE
  5
4A6
330
18
100
AcDbEntity
  8
1
 62
     1
100
AcDbLine
 10
63.5471582408979
 20
-2.013091645583335
 30
0.0
 11
63.72113247308103
 21
-2.267441800607997
 31
0.0
  0
LINE
  5
4A7
330
18
100
AcDbEntity
  8
1
 62
     1
100
AcDbLine
 10
63.72113247308104
 20
1.250485541907489
 30
0.0
 11
63.72113247308103
 21
-2.267441800607994
 31
0.0
  0
ARC
  5
4A8
330
18
100
AcDbEntity
  8
1
 62
     1
100
AcDbCircle
 10
63.96168471497251
 20
-5.525407381121989
 30
0.0
 40
6.597425270969163
100
AcDbArc
 50
65.27557219168726
 51
72.00360677956654
  0
LINE
  5
4A9
330
18
100
AcDbEntity
  8
1
 62
     1
100
AcDbLine
 10
65.99999999999997
 20
-1.960675210771816
 30
0.0
 11
66.0
 21
0.7492259795350621
 31
0.0
  0
LINE
  5
4AA
330
18
100
AcDbEntity
  8
1
 62
     1
100
AcDbLine
 10
66.0
 20
-1.960675210771756
 30
0.0
 11
66.09302470738348
 21
-2.058727539583519
 31
0.0
  0
LINE
  5
4AB
330
18
100
AcDbEntity
  8
1
 62
     1
100
AcDbLine
 10
66.09302470738348
 20
-2.058727539583519
 30
0.0
 11
66.18553992468618
 21
-2.164803492065871
 31
0.0
  0
LINE
  5
4AC
330
18
100
AcDbEntity
  8
1
 62
     1
100
AcDbLine
 10
66.18553992468618
 20
-2.164803492065871
 30
0.0
 11
66.27735947762453
 21
-2.278468905594855
 31
0.0
  0
LINE
  5
4AD
330
18
100
AcDbEntity
  8
1
 62
     1
100
AcDbLine
 10
66.27735947762453
 20
-2.278468905594855
 30
0.0
 11
66.45829708518266
 21
-2.526808953695147
 31
0.0
  0
LINE
  5
4AE
330
18
100
AcDbEntity
  8
1
 62
     1
100
AcDbLine
 10
66.45829708518266
 20
-2.526808953695147
 30
0.0
 11
66.5911369398818
 21
-2.729689742308283
 31
0.0
  0
LINE
  5
4AF
330
18
100
AcDbEntity
  8
1
 62
     1
100
AcDbLine
 10
66.5911369398818
 20
-2.729689742308283
 30
0.0
 11
66.72113247308103
 21
-2.94513058798894
 31
0.0
  0
LINE
  5
4B0
330
18
100
AcDbEntity
  8
1
 62
     1
100
AcDbLine
 10
66.721132473081
 20
0.4673309297383833
 30
0.0
 11
66.72113247308103
 21
-2.945130587881639
 31
0.0
  0
ARC
  5
4B1
330
18
100
AcDbEntity
  8
1
 62
     1
100
AcDbCircle
 10
67.12112674587763
 20
5.681264527946208
 30
0.0
 40
5.240368028874103
100
AcDbArc
 50
266.2552337529567
 51
274.1460699411992
  0
LINE
  5
4B2
330
18
100
AcDbEntity
  8
1
 62
     1
100
AcDbLine
 10
66.77886752691896
 20
0.4520788892292876
 30
0.0
 11
66.77886752691894
 21
-2.957494591443854
 31
0.0
  0
LINE
  5
4B3
330
18
100
AcDbEntity
  8
1
 62
     1
100
AcDbLine
 10
66.77886752691896
 20
-2.957494591443866
 30
0.0
 11
66.95830322258266
 21
-2.736974019192754
 31
0.0
  0
LINE
  5
4B4
330
18
100
AcDbEntity
  8
1
 62
     1
100
AcDbLine
 10
66.95830322258266
 20
-2.736974019192754
 30
0.0
 11
67.13898713489812
 21
-2.538542195002667
 31
0.0
  0
LINE
  5
4B5
330
18
100
AcDbEntity
  8
1
 62
     1
100
AcDbLine
 10
67.13898713489812
 20
-2.538542195002667
 30
0.0
 11
67.31991546027162
 21
-2.362418904387245
 31
0.0
  0
LINE
  5
4B6
330
18
100
AcDbEntity
  8
1
 62
     1
100
AcDbLine
 10
67.31991546027162
 20
-2.362418904387245
 30
0.0
 11
67.50000000000001
 21
-2.208703582137261
 31
0.0
  0
ARC
  5
4B7
330
18
100
AcDbEntity
  8
1
 62
     1
100
AcDbCircle
 10
64.09278043521387
 20
-6.800032701288938
 30
0.0
 40
8.01497353428684
100
AcDbArc
 50
58.99767567158893
 51
64.84250966748897
  0
LINE
  5
4B8
330
18
100
AcDbEntity
  8
1
 62
     1
100
AcDbLine
 10
67.5
 20
-2.208703582137261
 30
0.0
 11
67.49999999999999
 21
0.4546437476761698
 31
0.0
  0
LINE
  5
4B9
330
18
100
AcDbEntity
  8
1
 62
     1
100
AcDbLine
 10
67.50000000000001
 20
-2.208703582137261
 30
0.0
 11
67.59302469396724
 21
-2.316688939028267
 31
0.0
  0
LINE
  5
4BA
330
18
100
AcDbEntity
  8
1
 62
     1
100
AcDbLine
 10
67.59302469396724
 20
-2.316688939028267
 30
0.0
 11
67.77735943585976
 21
-2.554733497214388
 31
0.0
  0
LINE
  5
4BB
330
18
100
AcDbEntity
  8
1
 62
     1
100
AcDbLine
 10
67.77735943585976
 20
-2.554733497214388
 30
0.0
 11
67.95829703378654
 21
-2.819145575600312
 31
0.0
  0
LINE
  5
4BC
330
18
100
AcDbEntity
  8
1
 62
     1
100
AcDbLine
 10
67.95829703378654
 20
-2.819145575600312
 30
0.0
 11
68.22113247308104
 21
-3.257052417569272
 31
0.0
  0
LINE
  5
4BD
330
18
100
AcDbEntity
  8
1
 62
     1
100
AcDbLine
 10
68.22113247308103
 20
0.0700675799141152
 30
0.0
 11
68.22113247308103
 21
-3.257052417569255
 31
0.0
  0
ARC
  5
4BE
330
18
100
AcDbEntity
  8
1
 62
     1
100
AcDbCircle
 10
63.04614379100017
 20
-10.10156332719158
 30
0.0
 40
12.44055644726069
100
AcDbArc
 50
50.78904174053484
 51
53.19038935882471
  0
LINE
  5
4BF
330
18
100
AcDbEntity
  8
1
 62
     1
100
AcDbLine
 10
70.5
 20
-2.661328611037443
 30
0.0
 11
70.49999999999999
 21
-0.141271661624215
 31
0.0
  0
ARC
  5
4C0
330
18
100
AcDbEntity
  8
1
 62
     1
100
AcDbCircle
 10
64.99914224041582
 20
-6.815468861439491
 30
0.0
 40
6.893266316677388
100
AcDbArc
 50
30.95631134081561
 51
37.05938931034368
  0
LINE
  5
4C1
330
18
100
AcDbEntity
  8
1
 62
     1
100
AcDbLine
 10
64.5
 20
1.039064396769915
 30
0.0
 11
64.65180911521315
 21
1.00999973894219
 31
0.0
  0
LINE
  5
4C2
330
18
100
AcDbEntity
  8
1
 62
     1
100
AcDbLine
 10
64.5
 20
-1.700233510944322
 30
0.0
 11
64.59302470811912
 21
-1.787732164379771
 31
0.0
  0
LINE
  5
4C3
330
18
100
AcDbEntity
  8
1
 62
     1
100
AcDbLine
 10
64.59302470811912
 20
-1.787732164379771
 30
0.0
 11
64.68553992278856
 21
-1.883716929270411
 31
0.0
  0
LINE
  5
4C4
330
18
100
AcDbEntity
  8
1
 62
     1
100
AcDbLine
 10
64.68553992278856
 20
-1.883716929270411
 30
0.0
 11
64.77735947032325
 21
-1.987779392521551
 31
0.0
  0
LINE
  5
4C5
330
18
100
AcDbEntity
  8
1
 62
     1
100
AcDbLine
 10
64.77735947032325
 20
-1.987779392521551
 30
0.0
 11
64.86832427267147
 21
-2.099505432921948
 31
0.0
  0
LINE
  5
4C6
330
18
100
AcDbEntity
  8
1
 62
     1
100
AcDbLine
 10
64.86832427267147
 20
-2.099505432921948
 30
0.0
 11
65.04715826865153
 21
-2.344263572862383
 31
0.0
  0
LINE
  5
4C7
330
18
100
AcDbEntity
  8
1
 62
     1
100
AcDbLine
 10
65.04715826865153
 20
-2.344263572862383
 30
0.0
 11
65.22113247308101
 21
-2.614562984556834
 31
0.0
  0
LINE
  5
4C8
330
18
100
AcDbEntity
  8
1
 62
     1
100
AcDbLine
 10
65.22113247308104
 20
0.8616354925938144
 30
0.0
 11
65.22113247308106
 21
-2.614562983252418
 31
0.0
  0
ARC
  5
4C9
330
18
100
AcDbEntity
  8
1
 62
     1
100
AcDbCircle
 10
60.77170336079119
 20
-3.386862022996805
 30
0.0
 40
5.952374374265522
100
AcDbArc
 50
105.099641862268
 51
112.4356758892109
  0
LINE
  5
4CA
330
18
100
AcDbEntity
  8
1
 62
     1
100
AcDbLine
 10
58.50000000000001
 20
-0.5682697824880798
 30
0.0
 11
58.50000000000001
 21
2.114977376027153
 31
0.0
  0
LINE
  5
4CB
330
18
100
AcDbEntity
  8
1
 62
     1
100
AcDbLine
 10
58.50000000000001
 20
-0.56826978248808
 30
0.0
 11
58.5465624717293
 21
-0.5872618460180915
 31
0.0
  0
LINE
  5
4CC
330
18
100
AcDbEntity
  8
1
 62
     1
100
AcDbLine
 10
58.5465624717293
 20
-0.5872618460180915
 30
0.0
 11
58.5930247024118
 21
-0.6087320682420769
 31
0.0
  0
LINE
  5
4CD
330
18
100
AcDbEntity
  8
1
 62
     1
100
AcDbLine
 10
58.5930247024118
 20
-0.6087320682420769
 30
0.0
 11
58.63935687443286
 21
-0.6326454927668426
 31
0.0
  0
LINE
  5
4CE
330
18
100
AcDbEntity
  8
1
 62
     1
100
AcDbLine
 10
58.63935687443286
 20
-0.6326454927668426
 30
0.0
 11
58.68553991128809
 21
-0.6589689751402449
 31
0.0
  0
LINE
  5
4CF
330
18
100
AcDbEntity
  8
1
 62
     1
100
AcDbLine
 10
58.68553991128809
 20
-0.6589689751402449
 30
0.0
 11
58.73154519809378
 21
-0.6876642662576083
 31
0.0
  0
LINE
  5
4D0
330
18
100
AcDbEntity
  8
1
 62
     1
100
AcDbLine
 10
58.73154519809378
 20
-0.6876642662576083
 30
0.0
 11
58.77735945394545
 21
-0.7186991377946798
 31
0.0
  0
LINE
  5
4D1
330
18
100
AcDbEntity
  8
1
 62
     1
100
AcDbLine
 10
58.77735945394545
 20
-0.7186991377946798
 30
0.0
 11
58.82295553204467
 21
-0.7520319694035047
 31
0.0
  0
LINE
  5
4D2
330
18
100
AcDbEntity
  8
1
 62
     1
100
AcDbLine
 10
58.82295553204467
 20
-0.7520319694035047
 30
0.0
 11
58.91344026133977
 21
-0.8254521001292351
 31
0.0
  0
LINE
  5
4D3
330
18
100
AcDbEntity
  8
1
 62
     1
100
AcDbLine
 10
58.91344026133977
 20
-0.8254521001292351
 30
0.0
 11
59.00287139911953
 21
-0.907617583153799
 31
0.0
  0
LINE
  5
4D4
330
18
100
AcDbEntity
  8
1
 62
     1
100
AcDbLine
 10
59.00287139911953
 20
-0.907617583153799
 30
0.0
 11
59.09113690906987
 21
-0.9982108278647532
 31
0.0
  0
LINE
  5
4D5
330
18
100
AcDbEntity
  8
1
 62
     1
100
AcDbLine
 10
59.09113690906987
 20
-0.9982108278647532
 30
0.0
 11
59.22113247308104
 21
-1.149178546278157
 31
0.0
  0
LINE
  5
4D6
330
18
100
AcDbEntity
  8
1
 62
     1
100
AcDbLine
 10
59.22113247308106
 20
2.359951989622543
 30
0.0
 11
59.22113247308103
 21
-1.149178546278152
 31
0.0
  0
ARC
  5
4D7
330
18
100
AcDbEntity
  8
1
 62
     1
100
AcDbCircle
 10
66.48257548309395
 20
12.86306100010452
 30
0.0
 40
13.38822268039051
100
AcDbArc
 50
229.450766917418
 51
233.3988176360922
  0
LINE
  5
4D8
330
18
100
AcDbEntity
  8
1
 62
     1
100
AcDbLine
 10
57.778867526919
 20
2.690042178290058
 30
0.0
 11
57.778867526919
 21
-0.7737937998975081
 31
0.0
  0
ARC
  5
4D9
330
18
100
AcDbEntity
  8
1
 62
     1
100
AcDbCircle
 10
58.50263119130649
 20
-1.939621918219465
 30
0.0
 40
1.372052544148492
100
AcDbArc
 50
90.10993235656235
 51
121.8326335702261
  0
ARC
  5
4DA
330
18
100
AcDbEntity
  8
1
 62
     1
100
AcDbCircle
 10
60.38943400834179
 20
-3.739498661045902
 30
0.0
 40
6.973222102908818
100
AcDbArc
 50
112.4981459483146
 51
119.0821657787977
  0
LINE
  5
4DB
330
18
100
AcDbEntity
  8
1
 62
     1
100
AcDbLine
 10
57.00000000000001
 20
-0.2716934617884529
 30
0.0
 11
57.00000000000001
 21
2.354575382463552
 31
0.0
  0
LINE
  5
4DC
330
18
100
AcDbEntity
  8
1
 62
     1
100
AcDbLine
 10
57.00000000000001
 20
-0.2716934617884521
 30
0.0
 11
57.04656246659118
 21
-0.2843704906563532
 31
0.0
  0
LINE
  5
4DD
330
18
100
AcDbEntity
  8
1
 62
     1
100
AcDbLine
 10
57.04656246659118
 20
-0.2843704906563532
 30
0.0
 11
57.09302469255876
 21
-0.2995637426682995
 31
0.0
  0
LINE
  5
4DE
330
18
100
AcDbEntity
  8
1
 62
     1
100
AcDbLine
 10
57.09302469255876
 20
-0.2995637426682995
 30
0.0
 11
57.13935686052717
 21
-0.3172433695538432
 31
0.0
  0
LINE
  5
4DF
330
18
100
AcDbEntity
  8
1
 62
     1
100
AcDbLine
 10
57.13935686052717
 20
-0.3172433695538432
 30
0.0
 11
57.18553989416137
 21
-0.3373801989176133
 31
0.0
  0
LINE
  5
4E0
330
18
100
AcDbEntity
  8
1
 62
     1
100
AcDbLine
 10
57.18553989416137
 20
-0.3373801989176133
 30
0.0
 11
57.23154517872754
 21
-0.359941375704686
 31
0.0
  0
LINE
  5
4E1
330
18
100
AcDbEntity
  8
1
 62
     1
100
AcDbLine
 10
57.23154517872754
 20
-0.359941375704686
 30
0.0
 11
57.2773594334369
 21
-0.3848982223834849
 31
0.0
  0
LINE
  5
4E2
330
18
100
AcDbEntity
  8
1
 62
     1
100
AcDbLine
 10
57.2773594334369
 20
-0.3848982223834849
 30
0.0
 11
57.3229555114652
 21
-0.4122146271901342
 31
0.0
  0
LINE
  5
4E3
330
18
100
AcDbEntity
  8
1
 62
     1
100
AcDbLine
 10
57.3229555114652
 20
-0.4122146271901342
 30
0.0
 11
57.36832423382307
 21
-0.4418622826990871
 31
0.0
  0
LINE
  5
4E4
330
18
100
AcDbEntity
  8
1
 62
     1
100
AcDbLine
 10
57.36832423382307
 20
-0.4418622826990871
 30
0.0
 11
57.4134402438233
 21
-0.4738019471389283
 31
0.0
  0
LINE
  5
4E5
330
18
100
AcDbEntity
  8
1
 62
     1
100
AcDbLine
 10
57.4134402438233
 20
-0.4738019471389283
 30
0.0
 11
57.50287138788443
 21
-0.5444304903240055
 31
0.0
  0
LINE
  5
4E6
330
18
100
AcDbEntity
  8
1
 62
     1
100
AcDbLine
 10
57.50287138788443
 20
-0.5444304903240055
 30
0.0
 11
57.5911369050766
 21
-0.6238157214088506
 31
0.0
  0
LINE
  5
4E7
330
18
100
AcDbEntity
  8
1
 62
     1
100
AcDbLine
 10
57.5911369050766
 20
-0.6238157214088506
 30
0.0
 11
57.65651289599031
 21
-0.6889254424905413
 31
0.0
  0
LINE
  5
4E8
330
18
100
AcDbEntity
  8
1
 62
     1
100
AcDbLine
 10
57.65651289599031
 20
-0.6889254424905413
 30
0.0
 11
57.72113247308104
 21
-0.7586578499008528
 31
0.0
  0
LINE
  5
4E9
330
18
100
AcDbEntity
  8
1
 62
     1
100
AcDbLine
 10
57.72113247308106
 20
2.702940737360397
 30
0.0
 11
57.72113247308106
 21
-0.7586578497109439
 31
0.0
  0
ARC
  5
4EA
330
18
100
AcDbEntity
  8
1
 62
     1
100
AcDbCircle
 10
68.13698047077372
 20
15.20798802605499
 30
0.0
 40
17.0071776000285
100
AcDbArc
 50
225.7939105918862
 51
229.0923475790995
  0
ARC
  5
4EB
330
18
100
AcDbEntity
  8
1
 62
     1
100
AcDbCircle
 10
56.81358909457335
 20
-1.499067088542593
 30
0.0
 40
1.24146974343408
100
AcDbArc
 50
81.36403645058272
 51
115.5121125274957
  0
ARC
  5
4EC
330
18
100
AcDbEntity
  8
1
 62
     1
100
AcDbCircle
 10
61.3746007930088
 20
-3.289068685051176
 30
0.0
 40
5.33131210208216
100
AcDbArc
 50
97.04057718185788
 51
104.9416483126227
  0
LINE
  5
4ED
330
18
100
AcDbEntity
  8
1
 62
     1
100
AcDbLine
 10
60.00000000000001
 20
-0.8612485095556303
 30
0.0
 11
60.00000000000001
 21
1.861989546897501
 31
0.0
  0
LINE
  5
4EE
330
18
100
AcDbEntity
  8
1
 62
     1
100
AcDbLine
 10
60.00000000000001
 20
-0.8612485095555027
 30
0.0
 11
60.04656247526069
 21
-0.8864353322341165
 31
0.0
  0
LINE
  5
4EF
330
18
100
AcDbEntity
  8
1
 62
     1
100
AcDbLine
 10
60.04656247526069
 20
-0.8864353322341165
 30
0.0
 11
60.09302470998205
 21
-0.9140465503300628
 31
0.0
  0
LINE
  5
4F0
330
18
100
AcDbEntity
  8
1
 62
     1
100
AcDbLine
 10
60.09302470998205
 20
-0.9140465503300628
 30
0.0
 11
60.13935688644478
 21
-0.9440423226248567
 31
0.0
  0
LINE
  5
4F1
330
18
100
AcDbEntity
  8
1
 62
     1
100
AcDbLine
 10
60.13935688644478
 20
-0.9440423226248567
 30
0.0
 11
60.18553992790548
 21
-0.9763857444296451
 31
0.0
  0
LINE
  5
4F2
330
18
100
AcDbEntity
  8
1
 62
     1
100
AcDbLine
 10
60.18553992790548
 20
-0.9763857444296451
 30
0.0
 11
60.27735947939102
 21
-1.047949766608309
 31
0.0
  0
LINE
  5
4F3
330
18
100
AcDbEntity
  8
1
 62
     1
100
AcDbLine
 10
60.27735947939102
 20
-1.047949766608309
 30
0.0
 11
60.36832428530934
 21
-1.12841328567992
 31
0.0
  0
LINE
  5
4F4
330
18
100
AcDbEntity
  8
1
 62
     1
100
AcDbLine
 10
60.36832428530934
 20
-1.12841328567992
 30
0.0
 11
60.45829708111587
 21
-1.21744160410456
 31
0.0
  0
LINE
  5
4F5
330
18
100
AcDbEntity
  8
1
 62
     1
100
AcDbLine
 10
60.45829708111587
 20
-1.21744160410456
 30
0.0
 11
60.54715828239591
 21
-1.314690659049295
 31
0.0
  0
LINE
  5
4F6
330
18
100
AcDbEntity
  8
1
 62
     1
100
AcDbLine
 10
60.54715828239591
 20
-1.314690659049295
 30
0.0
 11
60.63480270566569
 21
-1.419807266585416
 31
0.0
  0
LINE
  5
4F7
330
18
100
AcDbEntity
  8
1
 62
     1
100
AcDbLine
 10
60.63480270566569
 20
-1.419807266585416
 30
0.0
 11
60.72113247308105
 21
-1.532423263350114
 31
0.0
  0
ARC
  5
4F8
330
18
100
AcDbEntity
  8
1
 62
     1
100
AcDbCircle
 10
65.56118579828856
 20
10.91703670070155
 30
0.0
 40
10.62649331484731
100
AcDbArc
 50
233.7582834322226
 51
238.4437026799171
  0
LINE
  5
4F9
330
18
100
AcDbEntity
  8
1
 62
     1
100
AcDbLine
 10
59.27886752691901
 20
2.346437532737949
 30
0.0
 11
59.27886752691899
 21
-1.164079933037976
 31
0.0
  0
LINE
  5
4FA
330
18
100
AcDbEntity
  8
1
 62
     1
100
AcDbLine
 10
59.27886752691897
 20
-1.164079933037947
 30
0.0
 11
59.36837075389297
 21
-1.102322437512037
 31
0.0
  0
LINE
  5
4FB
330
18
100
AcDbEntity
  8
1
 62
     1
100
AcDbLine
 10
59.36837075389297
 20
-1.102322437512037
 30
0.0
 11
59.45830321395801
 21
-1.047577118245884
 31
0.0
  0
LINE
  5
4FC
330
18
100
AcDbEntity
  8
1
 62
     1
100
AcDbLine
 10
59.45830321395801
 20
-1.047577118245884
 30
0.0
 11
59.54855546952493
 21
-0.9997486473941268
 31
0.0
  0
LINE
  5
4FD
330
18
100
AcDbEntity
  8
1
 62
     1
100
AcDbLine
 10
59.54855546952493
 20
-0.9997486473941268
 30
0.0
 11
59.63898713093163
 21
-0.9587540818784648
 31
0.0
  0
LINE
  5
4FE
330
18
100
AcDbEntity
  8
1
 62
     1
100
AcDbLine
 10
59.63898713093163
 20
-0.9587540818784648
 30
0.0
 11
59.72948407138193
 21
-0.9244939398170975
 31
0.0
  0
LINE
  5
4FF
330
18
100
AcDbEntity
  8
1
 62
     1
100
AcDbLine
 10
59.72948407138193
 20
-0.9244939398170975
 30
0.0
 11
59.81991546041704
 21
-0.8968791568212
 31
0.0
  0
LINE
  5
500
330
18
100
AcDbEntity
  8
1
 62
     1
100
AcDbLine
 10
59.81991546041704
 20
-0.8968791568212
 30
0.0
 11
59.910134232407
 21
-0.8758245752719068
 31
0.0
  0
LINE
  5
501
330
18
100
AcDbEntity
  8
1
 62
     1
100
AcDbLine
 10
59.910134232407
 20
-0.8758245752719068
 30
0.0
 11
60.00000000000001
 21
-0.8612485095555027
 31
0.0
  0
ARC
  5
502
330
18
100
AcDbEntity
  8
1
 62
     1
100
AcDbCircle
 10
65.21594134414376
 20
9.313139900785906
 30
0.0
 40
8.564188185739415
100
AcDbArc
 50
238.7954339482142
 51
244.2848297498261
  0
LINE
  5
503
330
18
100
AcDbEntity
  8
1
 62
     1
100
AcDbLine
 10
60.77886752691898
 20
1.987977717884342
 30
0.0
 11
60.77886752691898
 21
-1.546995856742873
 31
0.0
  0
LINE
  5
504
330
18
100
AcDbEntity
  8
1
 62
     1
100
AcDbLine
 10
60.77886752691899
 20
-1.546995856742863
 30
0.0
 11
60.86837075793878
 21
-1.473930091107937
 31
0.0
  0
LINE
  5
505
330
18
100
AcDbEntity
  8
1
 62
     1
100
AcDbLine
 10
60.86837075793878
 20
-1.473930091107937
 30
0.0
 11
60.95830321876949
 21
-1.407653797350344
 31
0.0
  0
LINE
  5
506
330
18
100
AcDbEntity
  8
1
 62
     1
100
AcDbLine
 10
60.95830321876949
 20
-1.407653797350344
 30
0.0
 11
61.04855547311709
 21
-1.348096112044163
 31
0.0
  0
LINE
  5
507
330
18
100
AcDbEntity
  8
1
 62
     1
100
AcDbLine
 10
61.04855547311709
 20
-1.348096112044163
 30
0.0
 11
61.13898713274659
 21
-1.295200488353395
 31
0.0
  0
LINE
  5
508
330
18
100
AcDbEntity
  8
1
 62
     1
100
AcDbLine
 10
61.13898713274659
 20
-1.295200488353395
 30
0.0
 11
61.22948407191919
 21
-1.248888021016533
 31
0.0
  0
LINE
  5
509
330
18
100
AcDbEntity
  8
1
 62
     1
100
AcDbLine
 10
61.22948407191919
 20
-1.248888021016533
 30
0.0
 11
61.31991546044242
 21
-1.209090099177816
 31
0.0
  0
LINE
  5
50A
330
18
100
AcDbEntity
  8
1
 62
     1
100
AcDbLine
 10
61.31991546044242
 20
-1.209090099177816
 30
0.0
 11
61.41013423262024
 21
-1.175741052165993
 31
0.0
  0
LINE
  5
50B
330
18
100
AcDbEntity
  8
1
 62
     1
100
AcDbLine
 10
61.41013423262024
 20
-1.175741052165993
 30
0.0
 11
61.5
 21
-1.148774611678718
 31
0.0
  0
ARC
  5
50C
330
18
100
AcDbEntity
  8
1
 62
     1
100
AcDbCircle
 10
70.71888907771066
 20
18.0346020831356
 30
0.0
 40
21.69062409154291
100
AcDbArc
 50
222.7028786477386
 51
225.4416444935398
  0
LINE
  5
50D
330
18
100
AcDbEntity
  8
1
 62
     1
100
AcDbLine
 10
54.77886752691899
 20
3.324090682251032
 30
0.0
 11
54.77886752691899
 21
0.0189716213085958
 31
0.0
  0
ARC
  5
50E
330
18
100
AcDbEntity
  8
1
 62
     1
100
AcDbCircle
 10
55.14800844328896
 20
-1.096443548973743
 30
0.0
 40
1.174964063031492
100
AcDbArc
 50
77.68051137093174
 51
108.3116961536781
  0
ARC
  5
50F
330
18
100
AcDbEntity
  8
1
 62
     1
100
AcDbCircle
 10
61.48533878726121
 20
-6.375303162762587
 30
0.0
 40
12.97022415036125
100
AcDbArc
 50
129.581151018025
 51
133.8494713377385
  0
LINE
  5
510
330
18
100
AcDbEntity
  8
1
 62
     1
100
AcDbLine
 10
52.5
 20
0.6208033498572035
 30
0.0
 11
52.50000000000001
 21
2.978341326942734
 31
0.0
  0
ARC
  5
511
330
18
100
AcDbEntity
  8
1
 62
     1
100
AcDbCircle
 10
52.64422748780889
 20
-0.226319513317421
 30
0.0
 40
0.8593150427242746
100
AcDbArc
 50
77.06368231394508
 51
99.6622831952418
  0
ARC
  5
512
330
18
100
AcDbEntity
  8
1
 62
     1
100
AcDbCircle
 10
79.78871292266021
 20
25.68559990400004
 30
0.0
 40
35.50060909002974
100
AcDbArc
 50
217.9081977961708
 51
219.7642396590208
  0
LINE
  5
513
330
18
100
AcDbEntity
  8
1
 62
     1
100
AcDbLine
 10
51.77886752691899
 20
3.874093133565793
 30
0.0
 11
51.77886752691899
 21
0.811258592459661
 31
0.0
  0
ARC
  5
514
330
18
100
AcDbEntity
  8
1
 62
     1
100
AcDbCircle
 10
51.83331546645709
 20
-0.3112923544793555
 30
0.0
 40
1.123898883518489
100
AcDbArc
 50
76.48802439728298
 51
92.77688434557516
  0
LINE
  5
515
330
18
100
AcDbEntity
  8
1
 62
     1
100
AcDbLine
 10
52.09594989897071
 20
0.7816523698592635
 30
0.0
 11
52.09595333601951
 21
0.7816515707894565
 31
0.0
  0
ARC
  5
516
330
18
100
AcDbEntity
  8
1
 62
     1
100
AcDbCircle
 10
62.89378594011109
 20
-7.819667840498706
 30
0.0
 40
16.18023061320099
100
AcDbArc
 50
133.6708577296593
 51
137.3140618524486
  0
LINE
  5
517
330
18
100
AcDbEntity
  8
1
 62
     1
100
AcDbLine
 10
50.99999999999999
 20
0.9129451422794856
 30
0.0
 11
50.99999999999999
 21
3.150198528712154
 31
0.0
  0
ARC
  5
518
330
18
100
AcDbEntity
  8
1
 62
     1
100
AcDbCircle
 10
51.2629340374107
 20
0.0777272157604539
 30
0.0
 40
0.8755867248974996
100
AcDbArc
 50
76.89149728533363
 51
107.4744659642926
  0
LINE
  5
519
330
18
100
AcDbEntity
  8
1
 62
     1
100
AcDbLine
 10
51.72113247308103
 20
3.883758042627551
 30
0.0
 11
51.72113247308104
 21
0.8263687415764907
 31
0.0
  0
ARC
  5
51A
330
18
100
AcDbEntity
  8
1
 62
     1
100
AcDbCircle
 10
64.97479720138628
 20
-9.583602522442584
 30
0.0
 40
20.13729800304272
100
AcDbArc
 50
137.1094237522041
 51
140.2161777747728
  0
LINE
  5
51B
330
18
100
AcDbEntity
  8
1
 62
     1
100
AcDbLine
 10
49.50000000000001
 20
1.199307134490487
 30
0.0
 11
49.5
 21
3.302111677096914
 31
0.0
  0
ARC
  5
51C
330
18
100
AcDbEntity
  8
1
 62
     1
100
AcDbCircle
 10
49.88387684280893
 20
0.3750093844189927
 30
0.0
 40
0.9091300772277883
100
AcDbArc
 50
77.21838299264859
 51
114.9714743551864
  0
ARC
  5
51D
330
18
100
AcDbEntity
  8
1
 62
     1
100
AcDbCircle
 10
71.46299588232557
 20
-14.15020196069397
 30
0.0
 40
30.59704279718117
100
AcDbArc
 50
143.6123913207889
 51
144.6727864533965
  0
LINE
  5
51E
330
18
100
AcDbEntity
  8
1
 62
     1
100
AcDbLine
 10
46.50000000000001
 20
1.747487656718359
 30
0.0
 11
46.5
 21
3.542390841710284
 31
0.0
  0
ARC
  5
51F
330
18
100
AcDbEntity
  8
1
 62
     1
100
AcDbCircle
 10
47.30840707885561
 20
0.615561883508613
 30
0.0
 40
1.39089175504554
100
AcDbArc
 50
110.0491169008002
 51
125.5339461177883
  0
ARC
  5
520
330
18
100
AcDbEntity
  8
1
 62
     1
100
AcDbCircle
 10
74.48368106190404
 20
21.46520150479238
 30
0.0
 40
27.72063424758731
100
AcDbArc
 50
220.0977380656586
 51
222.3594030515442
  0
LINE
  5
521
330
18
100
AcDbEntity
  8
1
 62
     1
100
AcDbLine
 10
53.27886752691899
 20
3.610521160821907
 30
0.0
 11
53.27886752691899
 21
0.4164335239253147
 31
0.0
  0
ARC
  5
522
330
18
100
AcDbEntity
  8
1
 62
     1
100
AcDbCircle
 10
53.48919125505138
 20
-0.700604205205186
 30
0.0
 40
1.136722066062983
100
AcDbArc
 50
76.91007444866935
 51
100.6632116601686
  0
LINE
  5
523
330
18
100
AcDbEntity
  8
1
 62
     1
100
AcDbLine
 10
53.74671228456739
 20
0.4069086004345184
 30
0.0
 11
53.74671380258263
 21
0.4069082645732193
 31
0.0
  0
LINE
  5
524
330
18
100
AcDbEntity
  8
1
 62
     1
100
AcDbLine
 10
54.0
 20
0.3247311810101856
 30
0.0
 11
54.00000000000001
 21
2.787628426789633
 31
0.0
  0
ARC
  5
525
330
18
100
AcDbEntity
  8
1
 62
     1
100
AcDbCircle
 10
60.65718715928878
 20
-5.224513542940006
 30
0.0
 40
10.41692400440219
100
AcDbArc
 50
124.7398329000637
 51
129.7227622378489
  0
ARC
  5
526
330
18
100
AcDbEntity
  8
1
 62
     1
100
AcDbCircle
 10
54.02585945805047
 20
-0.5345851735682919
 30
0.0
 40
0.859710228954037
100
AcDbArc
 50
77.58751752628798
 51
91.72368509982637
  0
LINE
  5
527
330
18
100
AcDbEntity
  8
1
 62
     1
100
AcDbLine
 10
54.72113247308103
 20
3.335516866150869
 30
0.0
 11
54.72113247308102
 21
0.0342882820769978
 31
0.0
  0
ARC
  5
528
330
18
100
AcDbEntity
  8
1
 62
     1
100
AcDbCircle
 10
60.32120114910815
 20
-4.349722481787587
 30
0.0
 40
8.441246913047442
100
AcDbArc
 50
119.0598273149079
 51
124.8302544894724
  0
LINE
  5
529
330
18
100
AcDbEntity
  8
1
 62
     1
100
AcDbLine
 10
55.5
 20
0.0266030012125555
 30
0.0
 11
55.50000000000001
 21
2.579266783480232
 31
0.0
  0
ARC
  5
52A
330
18
100
AcDbEntity
  8
1
 62
     1
100
AcDbCircle
 10
55.40614030187256
 20
-0.8449309739776334
 30
0.0
 40
0.8765741219776038
100
AcDbArc
 50
78.2850919233019
 51
83.8532318156315
  0
LINE
  5
52B
330
18
100
AcDbEntity
  8
1
 62
     1
100
AcDbLine
 10
56.22113247308104
 20
3.028816601836591
 30
0.0
 11
56.22113247308104
 21
-0.3633349303892803
 31
0.0
  0
ARC
  5
52C
330
18
100
AcDbEntity
  8
1
 62
     1
100
AcDbCircle
 10
67.82997428491592
 20
-11.70409171807476
 30
0.0
 40
24.9472018808542
100
AcDbArc
 50
139.9935414172598
 51
142.6436967354631
  0
LINE
  5
52D
330
18
100
AcDbEntity
  8
1
 62
     1
100
AcDbLine
 10
48.0
 20
1.478076222196103
 30
0.0
 11
48.04556157141975
 21
1.503031492571691
 31
0.0
  0
LINE
  5
52E
330
18
100
AcDbEntity
  8
1
 62
     1
100
AcDbLine
 10
48.04556157141975
 20
1.503031492571691
 30
0.0
 11
48.09102808680991
 21
1.525680723661322
 31
0.0
  0
LINE
  5
52F
330
18
100
AcDbEntity
  8
1
 62
     1
100
AcDbLine
 10
48.09102808680991
 20
1.525680723661322
 30
0.0
 11
48.13637043805726
 21
1.546020006831025
 31
0.0
  0
LINE
  5
530
330
18
100
AcDbEntity
  8
1
 62
     1
100
AcDbLine
 10
48.13637043805726
 20
1.546020006831025
 30
0.0
 11
48.18157223076373
 21
1.564052249853319
 31
0.0
  0
LINE
  5
531
330
18
100
AcDbEntity
  8
1
 62
     1
100
AcDbLine
 10
48.18157223076373
 20
1.564052249853319
 30
0.0
 11
48.2266047504055
 21
1.579774301328311
 31
0.0
  0
LINE
  5
532
330
18
100
AcDbEntity
  8
1
 62
     1
100
AcDbLine
 10
48.2266047504055
 20
1.579774301328311
 30
0.0
 11
48.27145719966278
 21
1.593190740898488
 31
0.0
  0
LINE
  5
533
330
18
100
AcDbEntity
  8
1
 62
     1
100
AcDbLine
 10
48.27145719966278
 20
1.593190740898488
 30
0.0
 11
48.31610242034726
 21
1.604300748562629
 31
0.0
  0
LINE
  5
534
330
18
100
AcDbEntity
  8
1
 62
     1
100
AcDbLine
 10
48.31610242034726
 20
1.604300748562629
 30
0.0
 11
48.36053281487757
 21
1.613109696252164
 31
0.0
  0
LINE
  5
535
330
18
100
AcDbEntity
  8
1
 62
     1
100
AcDbLine
 10
48.36053281487757
 20
1.613109696252164
 30
0.0
 11
48.40472388008038
 21
1.619619923101517
 31
0.0
  0
LINE
  5
536
330
18
100
AcDbEntity
  8
1
 62
     1
100
AcDbLine
 10
48.40472388008038
 20
1.619619923101517
 30
0.0
 11
48.44866915656995
 21
1.623837290247057
 31
0.0
  0
LINE
  5
537
330
18
100
AcDbEntity
  8
1
 62
     1
100
AcDbLine
 10
48.44866915656995
 20
1.623837290247057
 30
0.0
 11
48.49234783163459
 21
1.62576746614888
 31
0.0
  0
LINE
  5
538
330
18
100
AcDbEntity
  8
1
 62
     1
100
AcDbLine
 10
48.49234783163459
 20
1.62576746614888
 30
0.0
 11
48.53575279184637
 21
1.625417021991335
 31
0.0
  0
LINE
  5
539
330
18
100
AcDbEntity
  8
1
 62
     1
100
AcDbLine
 10
48.53575279184637
 20
1.625417021991335
 30
0.0
 11
48.5788678838929
 21
1.622794542716723
 31
0.0
  0
LINE
  5
53A
330
18
100
AcDbEntity
  8
1
 62
     1
100
AcDbLine
 10
48.5788678838929
 20
1.622794542716723
 30
0.0
 11
48.62168377096236
 21
1.617908009553728
 31
0.0
  0
LINE
  5
53B
330
18
100
AcDbEntity
  8
1
 62
     1
100
AcDbLine
 10
48.62168377096236
 20
1.617908009553728
 30
0.0
 11
48.66418968516564
 21
1.610768027107699
 31
0.0
  0
LINE
  5
53C
330
18
100
AcDbEntity
  8
1
 62
     1
100
AcDbLine
 10
48.66418968516564
 20
1.610768027107699
 30
0.0
 11
48.70637092938922
 21
1.601385779095035
 31
0.0
  0
ARC
  5
53D
330
18
100
AcDbEntity
  8
1
 62
     1
100
AcDbCircle
 10
113.6968949172499
 20
48.14200719643578
 30
0.0
 40
79.46674664716159
100
AcDbArc
 50
213.5371419699954
 51
214.2365696970759
  0
LINE
  5
53E
330
18
100
AcDbEntity
  8
1
 62
     1
100
AcDbLine
 10
47.45915070800116
 20
4.238424511204582
 30
0.0
 11
47.45915070800117
 21
1.874773530933574
 31
0.0
  0
LINE
  5
53F
330
18
100
AcDbEntity
  8
1
 62
     1
100
AcDbLine
 10
47.45915070800115
 20
1.874773530933503
 30
0.0
 11
47.52670942640226
 21
1.837627812958468
 31
0.0
  0
LINE
  5
540
330
18
100
AcDbEntity
  8
1
 62
     1
100
AcDbLine
 10
47.52670942640226
 20
1.837627812958468
 30
0.0
 11
47.59439334146847
 21
1.796733436731357
 31
0.0
  0
LINE
  5
541
330
18
100
AcDbEntity
  8
1
 62
     1
100
AcDbLine
 10
47.59439334146847
 20
1.796733436731357
 30
0.0
 11
47.66214150316009
 21
1.752197976631417
 31
0.0
  0
LINE
  5
542
330
18
100
AcDbEntity
  8
1
 62
     1
100
AcDbLine
 10
47.66214150316009
 20
1.752197976631417
 30
0.0
 11
47.79763852490616
 21
1.652574780792663
 31
0.0
  0
LINE
  5
543
330
18
100
AcDbEntity
  8
1
 62
     1
100
AcDbLine
 10
47.79763852490616
 20
1.652574780792663
 30
0.0
 11
47.89903708365101
 21
1.568975283114094
 31
0.0
  0
LINE
  5
544
330
18
100
AcDbEntity
  8
1
 62
     1
100
AcDbLine
 10
47.89903708365101
 20
1.568975283114094
 30
0.0
 11
48.0
 21
1.478076222196103
 31
0.0
  0
LINE
  5
545
330
18
100
AcDbEntity
  8
1
 62
     1
100
AcDbLine
 10
47.99999999999999
 20
1.478076222196224
 30
0.0
 11
47.99999999999999
 21
3.433118676629168
 31
0.0
  0
ARC
  5
546
330
18
100
AcDbEntity
  8
1
 62
     1
100
AcDbCircle
 10
97.52629947858941
 20
37.89034523685968
 30
0.0
 40
59.18503457112653
100
AcDbArc
 50
214.5486839830494
 51
215.7611919808875
  0
LINE
  5
547
330
18
100
AcDbEntity
  8
1
 62
     1
100
AcDbLine
 10
48.77886752691899
 20
4.326142158426478
 30
0.0
 11
48.77886752691899
 21
1.583032530237083
 31
0.0
  0
LINE
  5
548
330
18
100
AcDbEntity
  8
1
 62
     1
100
AcDbLine
 10
48.77886752691897
 20
1.583032530168079
 30
0.0
 11
48.80197552990502
 21
1.577513487880531
 31
0.0
  0
LINE
  5
549
330
18
100
AcDbEntity
  8
1
 62
     1
100
AcDbLine
 10
48.80197552990502
 20
1.577513487880531
 30
0.0
 11
48.80198266082996
 21
1.577511708651504
 31
0.0
  0
ARC
  5
54A
330
18
100
AcDbEntity
  8
1
 62
     1
100
AcDbCircle
 10
87.17543122610412
 20
30.99380435870034
 30
0.0
 40
45.65004740531936
100
AcDbArc
 50
216.0748798564098
 51
217.5848585196553
  0
LINE
  5
54B
330
18
100
AcDbEntity
  8
1
 62
     1
100
AcDbLine
 10
50.27886752691899
 20
4.113137842505401
 30
0.0
 11
50.27886752691899
 21
1.200947041639362
 31
0.0
  0
ARC
  5
54C
330
18
100
AcDbEntity
  8
1
 62
     1
100
AcDbCircle
 10
50.17720256703181
 20
0.0692979322861647
 30
0.0
 40
1.136212492850979
100
AcDbArc
 50
76.24118517345372
 51
84.86644958187767
  0
LINE
  5
54D
330
18
100
AcDbEntity
  8
1
 62
     1
100
AcDbLine
 10
50.44744154350172
 20
1.172938016246569
 30
0.0
 11
50.44744671627707
 21
1.172936764800369
 31
0.0
  0
LINE
  5
54E
330
18
100
AcDbEntity
  8
1
 62
     1
100
AcDbLine
 10
71.69163727811572
 20
-3.387304061860228
 30
0.0
 11
70.91079242880221
 21
-3.612663506828558
 31
0.0
  0
LINE
  5
54F
330
18
100
AcDbEntity
  8
1
 62
     1
100
AcDbLine
 10
69.96516155436592
 20
-3.892112754029092
 30
0.0
 11
69.58474124153878
 21
-4.006246814651218
 31
0.0
  0
LINE
  5
550
330
18
100
AcDbEntity
  8
1
 62
     1
100
AcDbLine
 10
72.0
 20
2.02
 30
0.0
 11
74.02000000000001
 21
0.0
 31
0.0
  0
LINE
  5
551
330
18
100
AcDbEntity
  8
1
 62
     1
100
AcDbLine
 10
72.0
 20
0.6085698338478037
 30
0.0
 11
72.02595654722349
 21
0.6543698259893221
 31
0.0
  0
LINE
  5
552
330
18
100
AcDbEntity
  8
1
 62
     1
100
AcDbLine
 10
72.02595654722349
 20
0.6543698259893221
 30
0.0
 11
72.04906878521132
 21
0.702138678129363
 31
0.0
  0
LINE
  5
553
330
18
100
AcDbEntity
  8
1
 62
     1
100
AcDbLine
 10
72.04906878521132
 20
0.702138678129363
 30
0.0
 11
72.06905617632587
 21
0.7518212497899177
 31
0.0
  0
LINE
  5
554
330
18
100
AcDbEntity
  8
1
 62
     1
100
AcDbLine
 10
72.06905617632587
 20
0.7518212497899177
 30
0.0
 11
72.0777950894399
 21
0.7773494604429115
 31
0.0
  0
LINE
  5
555
330
18
100
AcDbEntity
  8
1
 62
     1
100
AcDbLine
 10
72.0777950894399
 20
0.7773494604429115
 30
0.0
 11
72.08565900005053
 21
0.8033231593888055
 31
0.0
  0
LINE
  5
556
330
18
100
AcDbEntity
  8
1
 62
     1
100
AcDbLine
 10
72.08565900005053
 20
0.8033231593888055
 30
0.0
 11
72.09261840062821
 21
0.8297139611280505
 31
0.0
  0
LINE
  5
557
330
18
100
AcDbEntity
  8
1
 62
     1
100
AcDbLine
 10
72.09261840062821
 20
0.8297139611280505
 30
0.0
 11
72.09864761878248
 21
0.8565035315107244
 31
0.0
  0
LINE
  5
558
330
18
100
AcDbEntity
  8
1
 62
     1
100
AcDbLine
 10
72.09864761878248
 20
0.8565035315107244
 30
0.0
 11
72.10372863818992
 21
0.8836713916527699
 31
0.0
  0
LINE
  5
559
330
18
100
AcDbEntity
  8
1
 62
     1
100
AcDbLine
 10
72.10372863818992
 20
0.8836713916527699
 30
0.0
 11
72.10784198380205
 21
0.911180192528859
 31
0.0
  0
LINE
  5
55A
330
18
100
AcDbEntity
  8
1
 62
     1
100
AcDbLine
 10
72.10784198380205
 20
0.911180192528859
 30
0.0
 11
72.1109765114222
 21
0.9390134883503302
 31
0.0
  0
LINE
  5
55B
330
18
100
AcDbEntity
  8
1
 62
     1
100
AcDbLine
 10
72.1109765114222
 20
0.9390134883503302
 30
0.0
 11
72.11312615220322
 21
0.9671337618211441
 31
0.0
  0
LINE
  5
55C
330
18
100
AcDbEntity
  8
1
 62
     1
100
AcDbLine
 10
72.11312615220322
 20
0.9671337618211441
 30
0.0
 11
72.11428611208767
 21
0.9955065494754451
 31
0.0
  0
LINE
  5
55D
330
18
100
AcDbEntity
  8
1
 62
     1
100
AcDbLine
 10
72.11428611208767
 20
0.9955065494754451
 30
0.0
 11
72.11365905157062
 21
1.052899820376635
 31
0.0
  0
LINE
  5
55E
330
18
100
AcDbEntity
  8
1
 62
     1
100
AcDbLine
 10
72.11365905157062
 20
1.052899820376635
 30
0.0
 11
72.10917423073909
 21
1.110936375487078
 31
0.0
  0
LINE
  5
55F
330
18
100
AcDbEntity
  8
1
 62
     1
100
AcDbLine
 10
72.10917423073909
 20
1.110936375487078
 30
0.0
 11
72.1009820415086
 21
1.169367919359762
 31
0.0
  0
LINE
  5
560
330
18
100
AcDbEntity
  8
1
 62
     1
100
AcDbLine
 10
72.1009820415086
 20
1.169367919359762
 30
0.0
 11
72.08928613158892
 21
1.227980879030969
 31
0.0
  0
LINE
  5
561
330
18
100
AcDbEntity
  8
1
 62
     1
100
AcDbLine
 10
72.08928613158892
 20
1.227980879030969
 30
0.0
 11
72.07432524777927
 21
1.286593869351499
 31
0.0
  0
LINE
  5
562
330
18
100
AcDbEntity
  8
1
 62
     1
100
AcDbLine
 10
72.07432524777927
 20
1.286593869351499
 30
0.0
 11
72.0563578730523
 21
1.345059133324793
 31
0.0
  0
LINE
  5
563
330
18
100
AcDbEntity
  8
1
 62
     1
100
AcDbLine
 10
72.0563578730523
 20
1.345059133324793
 30
0.0
 11
72.03564720175129
 21
1.403265111714587
 31
0.0
  0
LINE
  5
564
330
18
100
AcDbEntity
  8
1
 62
     1
100
AcDbLine
 10
72.03564720175129
 20
1.403265111714587
 30
0.0
 11
72.0
 21
1.489912086387434
 31
0.0
  0
ARC
  5
565
330
18
100
AcDbEntity
  8
1
 62
     1
100
AcDbCircle
 10
71.45564811368469
 20
-0.8840166108638843
 30
0.0
 40
1.21678687199634
100
AcDbArc
 50
296.572276075363
 51
302.6745833166357
  0
LINE
  5
566
330
18
100
AcDbEntity
  8
1
 62
     1
100
AcDbLine
 10
72.0
 20
3.53020968992876
 30
0.0
 11
72.0
 21
3.7509625
 31
0.0
  0
LINE
  5
567
330
18
100
AcDbEntity
  8
1
 62
     1
100
AcDbLine
 10
71.6916372781157
 20
4.285062152439702
 30
0.0
 11
71.6916372781157
 21
4.285010158356095
 31
0.0
  0
LINE
  5
568
330
18
100
AcDbEntity
  8
1
 62
     1
100
AcDbLine
 10
71.6916372781157
 20
4.285010158356095
 30
0.0
 11
71.69163727811569
 21
4.269560996081669
 31
0.0
  0
LINE
  5
569
330
18
100
AcDbEntity
  8
1
 62
     1
100
AcDbLine
 10
71.69163727811569
 20
4.269560996081669
 30
0.0
 11
71.6916372781157
 21
4.048542703341965
 31
0.0
  0
ARC
  5
56A
330
18
100
AcDbEntity
  8
1
 62
     1
100
AcDbCircle
 10
48.5366181903652
 20
-10.07748780703859
 30
0.0
 40
27.12378448313311
100
AcDbArc
 50
30.11178901609748
 51
31.38583993405827
  0
ARC
  5
56B
330
18
100
AcDbEntity
  8
1
 62
     1
100
AcDbCircle
 10
-1382.93201560172
 20
835.0693635149914
 30
0.0
 40
1669.17903645579
100
AcDbArc
 50
330.129358846995
 51
330.1676593811384
  0
LINE
  5
56C
330
18
100
AcDbEntity
  8
1
 62
     1
100
AcDbLine
 10
65.22113247308104
 20
5.0
 30
0.0
 11
65.22113247308104
 21
4.998222469839416
 31
0.0
  0
LINE
  5
56D
330
18
100
AcDbEntity
  8
1
 62
     1
100
AcDbLine
 10
70.49999999999999
 20
3.619831681522456
 30
0.0
 11
70.5
 21
3.7509625
 31
0.0
  0
ARC
  5
56E
330
18
100
AcDbEntity
  8
1
 62
     1
100
AcDbCircle
 10
86.43545447018062
 20
-6.069320647942757
 30
0.0
 40
18.64986531320204
100
AcDbArc
 50
146.3495459194168
 51
148.699359110904
  0
LINE
  5
56F
330
18
100
AcDbEntity
  8
1
 62
     1
100
AcDbLine
 10
70.91079242880221
 20
4.462475526306878
 30
0.0
 11
70.91079242880222
 21
4.462431748361404
 31
0.0
  0
LINE
  5
570
330
18
100
AcDbEntity
  8
1
 62
     1
100
AcDbLine
 10
70.91079242880222
 20
4.462431748361404
 30
0.0
 11
70.91079242880221
 21
4.449462886160128
 31
0.0
  0
LINE
  5
571
330
18
100
AcDbEntity
  8
1
 62
     1
100
AcDbLine
 10
70.91079242880221
 20
4.449462886160128
 30
0.0
 11
70.91079242880221
 21
4.264957214449003
 31
0.0
  0
LINE
  5
572
330
18
100
AcDbEntity
  8
1
 62
     1
100
AcDbLine
 10
67.5
 20
3.729901471039515
 30
0.0
 11
67.5
 21
3.7509625
 31
0.0
  0
ARC
  5
573
330
18
100
AcDbEntity
  8
1
 62
     1
100
AcDbCircle
 10
96.7592700614833
 20
-13.25579339324658
 30
0.0
 40
33.8320906650702
100
AcDbArc
 50
147.5158565485613
 51
149.8638263486716
  0
LINE
  5
574
330
18
100
AcDbEntity
  8
1
 62
     1
100
AcDbLine
 10
68.22113247308103
 20
5.0
 30
0.0
 11
68.22113247308103
 21
4.999980321818094
 31
0.0
  0
LINE
  5
575
330
18
100
AcDbEntity
  8
1
 62
     1
100
AcDbLine
 10
68.22113247308103
 20
4.999980321818094
 30
0.0
 11
68.22113247308101
 21
4.994209113689864
 31
0.0
  0
LINE
  5
576
330
18
100
AcDbEntity
  8
1
 62
     1
100
AcDbLine
 10
68.22113247308101
 20
4.994209113689864
 30
0.0
 11
68.22113247308101
 21
4.913903989861548
 31
0.0
  0
ARC
  5
577
330
18
100
AcDbEntity
  8
1
 62
     1
100
AcDbCircle
 10
18.56099974357821
 20
28.50518004176437
 30
0.0
 40
49.6056002254559
100
AcDbArc
 50
329.9523707453592
 51
331.6588584542199
  0
LINE
  5
578
330
18
100
AcDbEntity
  8
1
 62
     1
100
AcDbLine
 10
69.96516155436588
 20
4.677329429760575
 30
0.0
 11
69.96516155436586
 21
4.677294619018308
 31
0.0
  0
LINE
  5
579
330
18
100
AcDbEntity
  8
1
 62
     1
100
AcDbLine
 10
69.96516155436586
 20
4.677294619018308
 30
0.0
 11
69.96516155436588
 21
4.667018212238045
 31
0.0
  0
LINE
  5
57A
330
18
100
AcDbEntity
  8
1
 62
     1
100
AcDbLine
 10
69.96516155436588
 20
4.667018212238045
 30
0.0
 11
69.96516155436589
 21
4.521854845673122
 31
0.0
  0
ARC
  5
57B
330
18
100
AcDbEntity
  8
1
 62
     1
100
AcDbCircle
 10
40.01080339007969
 20
-13.8475644710174
 30
0.0
 40
35.1382927825126
100
AcDbArc
 50
29.80858684470589
 51
31.51858136618565
  0
LINE
  5
57C
330
18
100
AcDbEntity
  8
1
 62
     1
100
AcDbLine
 10
68.27886752691896
 20
5.0
 30
0.0
 11
68.27886752691896
 21
4.999979688494204
 31
0.0
  0
LINE
  5
57D
330
18
100
AcDbEntity
  8
1
 62
     1
100
AcDbLine
 10
68.27886752691896
 20
4.999979688494204
 30
0.0
 11
68.27886752691896
 21
4.994021060193756
 31
0.0
  0
LINE
  5
57E
330
18
100
AcDbEntity
  8
1
 62
     1
100
AcDbLine
 10
68.27886752691896
 20
4.994021060193756
 30
0.0
 11
68.27886752691897
 21
4.911050757522015
 31
0.0
  0
ARC
  5
57F
330
18
100
AcDbEntity
  8
1
 62
     1
100
AcDbCircle
 10
26.44177794794248
 20
-20.54865045566476
 30
0.0
 40
48.97489614806712
100
AcDbArc
 50
29.65976362629747
 51
31.32234382309607
  0
LINE
  5
580
330
18
100
AcDbEntity
  8
1
 62
     1
100
AcDbLine
 10
69.0
 20
3.686536346289187
 30
0.0
 11
69.0
 21
3.7509625
 31
0.0
  0
ARC
  5
581
330
18
100
AcDbEntity
  8
1
 62
     1
100
AcDbCircle
 10
89.7195662170032
 20
-8.579574587997406
 30
0.0
 40
24.07809314947518
100
AcDbArc
 50
146.7455489468897
 51
149.3742057259051
  0
LINE
  5
582
330
18
100
AcDbEntity
  8
1
 62
     1
100
AcDbLine
 10
69.58474124153878
 20
4.763763567407253
 30
0.0
 11
69.58474124153878
 21
4.763732062162471
 31
0.0
  0
LINE
  5
583
330
18
100
AcDbEntity
  8
1
 62
     1
100
AcDbLine
 10
69.58474124153878
 20
4.763732062162471
 30
0.0
 11
69.58474124153878
 21
4.754444152727205
 31
0.0
  0
LINE
  5
584
330
18
100
AcDbEntity
  8
1
 62
     1
100
AcDbLine
 10
69.58474124153878
 20
4.754444152727205
 30
0.0
 11
69.58474124153878
 21
4.623631782999779
 31
0.0
  0
LINE
  5
585
330
18
100
AcDbEntity
  8
1
 62
     1
100
AcDbLine
 10
65.27886752691896
 20
5.0
 30
0.0
 11
65.27886752691896
 21
4.99779063278084
 31
0.0
  0
ARC
  5
586
330
18
100
AcDbEntity
  8
1
 62
     1
100
AcDbCircle
 10
-300.34958122173
 20
-207.0893393223406
 30
0.0
 40
422.6879645211528
100
AcDbArc
 50
29.92099166768381
 51
30.11638661345431
  0
LINE
  5
587
330
18
100
AcDbEntity
  8
1
 62
     1
100
AcDbLine
 10
65.99999999999999
 20
3.749652375451487
 30
0.0
 11
66.0
 21
3.750962499238781
 31
0.0
  0
ARC
  5
588
330
18
100
AcDbEntity
  8
1
 62
     1
100
AcDbCircle
 10
203.7618732408737
 20
85.0451132480438
 30
0.0
 40
161.2558751993325
100
AcDbArc
 50
209.7637112379422
 51
210.2758818269334
  0
ARC
  5
589
330
18
100
AcDbEntity
  8
1
 62
     1
100
AcDbCircle
 10
120.7026450067256
 20
38.10180604868947
 30
0.0
 40
67.17022347465371
100
AcDbArc
 50
209.5661167995204
 51
210.7898627339361
  0
ARC
  5
58A
330
18
100
AcDbEntity
  8
1
 62
     1
100
AcDbCircle
 10
-32.14002262681052
 20
58.31928812341869
 30
0.0
 40
109.6947944778657
100
AcDbArc
 50
330.1482741905548
 51
330.9133930155485
  0
ARC
  5
58B
330
18
100
AcDbEntity
  8
1
 62
     1
100
AcDbCircle
 10
123.0092399852002
 20
-29.02760755635745
 30
0.0
 40
65.76008261950237
100
AcDbArc
 50
148.8669855218913
 51
150.1034042025031
  0
LINE
  5
58C
330
18
100
AcDbEntity
  8
1
 62
     1
100
AcDbLine
 10
66.72113247308103
 20
5.0
 30
0.0
 11
66.72113247308103
 21
4.999993386072381
 31
0.0
  0
LINE
  5
58D
330
18
100
AcDbEntity
  8
1
 62
     1
100
AcDbLine
 10
66.72113247308103
 20
4.999993386072381
 30
0.0
 11
66.72113247308103
 21
4.998068174651122
 31
0.0
  0
LINE
  5
58E
330
18
100
AcDbEntity
  8
1
 62
     1
100
AcDbLine
 10
66.72113247308103
 20
4.998068174651122
 30
0.0
 11
66.72113247308103
 21
4.971801548073118
 31
0.0
  0
LINE
  5
58F
330
18
100
AcDbEntity
  8
1
 62
     1
100
AcDbLine
 10
66.77886752691896
 20
5.0
 30
0.0
 11
66.77886752691894
 21
4.99999300701197
 31
0.0
  0
LINE
  5
590
330
18
100
AcDbEntity
  8
1
 62
     1
100
AcDbLine
 10
66.77886752691894
 20
4.99999300701197
 30
0.0
 11
66.77886752691896
 21
4.997956854000035
 31
0.0
  0
LINE
  5
591
330
18
100
AcDbEntity
  8
1
 62
     1
100
AcDbLine
 10
66.77886752691896
 20
4.997956854000035
 30
0.0
 11
66.77886752691896
 21
4.970153789699
 31
0.0
  0
ARC
  5
592
330
18
100
AcDbEntity
  8
1
 62
     1
100
AcDbCircle
 10
-10.53700971663096
 20
-40.81270448771138
 30
0.0
 40
89.85441967537182
100
AcDbArc
 50
29.71721552773992
 51
30.632039825584
  0
ARC
  5
593
330
18
100
AcDbEntity
  8
1
 62
     1
100
AcDbCircle
 10
97.0143017690192
 20
25.40814698994473
 30
0.0
 40
41.64076829981688
100
AcDbArc
 50
209.5191243598454
 51
211.4744641809704
  0
ARC
  5
594
330
18
100
AcDbEntity
  8
1
 62
     1
100
AcDbCircle
 10
84.89694007829273
 20
19.35899281634489
 30
0.0
 40
29.46944509907991
100
AcDbArc
 50
209.6215092542816
 51
212.3452504658093
  0
ARC
  5
595
330
18
100
AcDbEntity
  8
1
 62
     1
100
AcDbCircle
 10
32.22423254151532
 20
19.88472825408837
 30
0.0
 40
32.20161082958962
100
AcDbArc
 50
329.6053462080611
 51
332.2439691698706
  0
ARC
  5
596
330
18
100
AcDbEntity
  8
1
 62
     1
100
AcDbCircle
 10
38.17385805985148
 20
15.66042165052276
 30
0.0
 40
23.68866847886354
100
AcDbArc
 50
329.0991520101664
 51
332.6821249467081
  0
ARC
  5
597
330
18
100
AcDbEntity
  8
1
 62
     1
100
AcDbCircle
 10
77.02881330488373
 20
15.72300045045753
 30
0.0
 40
22.20005094151954
100
AcDbArc
 50
209.8752433519395
 51
213.4224753528711
  0
ARC
  5
598
330
18
100
AcDbEntity
  8
1
 62
     1
100
AcDbCircle
 10
41.24034810400154
 20
13.06272907098157
 30
0.0
 40
18.49889307228615
100
AcDbArc
 50
328.422202472884
 51
332.9833613842709
  0
ARC
  5
599
330
18
100
AcDbEntity
  8
1
 62
     1
100
AcDbCircle
 10
71.21040299683798
 20
13.22723004105648
 30
0.0
 40
17.29138965146746
100
AcDbArc
 50
210.2855389310783
 51
214.7319761475635
  0
ARC
  5
59A
330
18
100
AcDbEntity
  8
1
 62
     1
100
AcDbCircle
 10
66.55526710173888
 20
11.35780049813113
 30
0.0
 40
13.71875982774243
100
AcDbArc
 50
210.861155700435
 51
216.3062400313048
  0
ARC
  5
59B
330
18
100
AcDbEntity
  8
1
 62
     1
100
AcDbCircle
 10
43.2437826534556
 20
9.21906798307305
 30
0.0
 40
11.21429356702401
100
AcDbArc
 50
327.1165307146765
 51
332.830459465556
  0
ARC
  5
59C
330
18
100
AcDbEntity
  8
1
 62
     1
100
AcDbCircle
 10
62.63901788192844
 20
9.86860777399804
 30
0.0
 40
10.99129696933142
100
AcDbArc
 50
211.6148251003442
 51
218.185677891867
  0
LINE
  5
59D
330
18
100
AcDbEntity
  8
1
 62
     1
100
AcDbLine
 10
54.0
 20
3.073867096179302
 30
0.0
 11
54.36832427743887
 21
3.666520333070932
 31
0.0
  0
LINE
  5
59E
330
18
100
AcDbEntity
  8
1
 62
     1
100
AcDbLine
 10
54.36832427743887
 20
3.666520333070932
 30
0.0
 11
54.72113247308104
 21
4.312881059282541
 31
0.0
  0
ARC
  5
59F
330
18
100
AcDbEntity
  8
1
 62
     1
100
AcDbCircle
 10
42.91082383812128
 20
11.2370556752298
 30
0.0
 40
14.91724077367363
100
AcDbArc
 50
327.5588916919323
 51
333.1547886341108
  0
LINE
  5
5A0
330
18
100
AcDbEntity
  8
1
 62
     1
100
AcDbLine
 10
47.45915070800117
 20
-3.853571390147106
 30
0.0
 11
47.45915070800116
 21
-4.687740516206628
 31
0.0
  0
LINE
  5
5A1
330
18
100
AcDbEntity
  8
1
 62
     1
100
AcDbLine
 10
72.0
 20
-0.1410016448660781
 30
0.0
 11
72.0
 21
0.6085698338478034
 31
0.0
  0
LINE
  5
5A2
330
18
100
AcDbEntity
  8
1
 62
     1
100
AcDbLine
 10
72.0
 20
1.489912086754852
 30
0.0
 11
71.99999999999999
 21
3.530209689928849
 31
0.0
  0
LINE
  5
5A3
330
18
100
AcDbEntity
  8
1
 62
     1
100
AcDbLine
 10
68.27886752691899
 20
4.911050757522013
 30
0.0
 11
68.22113247308103
 21
4.913903981768686
 31
0.0
  0
LINE
  5
5A4
330
18
100
AcDbEntity
  8
1
 62
     1
100
AcDbLine
 10
66.77886752691897
 20
4.970153789698999
 30
0.0
 11
66.72113247308101
 21
4.971801540304559
 31
0.0
  0
LINE
  5
5A5
330
18
100
AcDbEntity
  8
1
 62
     1
100
AcDbLine
 10
65.278867526919
 20
4.99779063278084
 30
0.0
 11
65.22113247308104
 21
4.998222469839416
 31
0.0
  0
LINE
  5
5A6
330
18
100
AcDbEntity
  8
1
 62
     1
100
AcDbLine
 10
63.77886752691898
 20
4.993786233567554
 30
0.0
 11
63.72113247308103
 21
4.992999428817024
 31
0.0
  0
LINE
  5
5A7
330
18
100
AcDbEntity
  8
1
 62
     1
100
AcDbLine
 10
62.278867526919
 20
4.958165931813301
 30
0.0
 11
62.22113247308104
 21
4.956165450057253
 31
0.0
  0
LINE
  5
5A8
330
18
100
AcDbEntity
  8
1
 62
     1
100
AcDbLine
 10
60.778867526919
 20
4.891155369229466
 30
0.0
 11
60.72113247308103
 21
4.887953885438327
 31
0.0
  0
LINE
  5
5A9
330
18
100
AcDbEntity
  8
1
 62
     1
100
AcDbLine
 10
59.278867526919
 20
4.793178574277259
 30
0.0
 11
59.22113247308103
 21
4.788796375498963
 31
0.0
  0
LINE
  5
5AA
330
18
100
AcDbEntity
  8
1
 62
     1
100
AcDbLine
 10
57.77886752691898
 20
4.664855793045409
 30
0.0
 11
57.72113247308104
 21
4.659320595513325
 31
0.0
  0
LINE
  5
5AB
330
18
100
AcDbEntity
  8
1
 62
     1
100
AcDbLine
 10
56.27886752691897
 20
4.506999926195897
 30
0.0
 11
56.22113247308103
 21
4.500346753160733
 31
0.0
  0
LINE
  5
5AC
330
18
100
AcDbEntity
  8
1
 62
     1
100
AcDbLine
 10
54.77886752691897
 20
4.320610037964448
 30
0.0
 11
54.72113247308102
 21
4.312881058960789
 31
0.0
  0
LINE
  5
5AD
330
18
100
AcDbEntity
  8
1
 62
     1
100
AcDbLine
 10
53.27886752691897
 20
4.106865779622103
 30
0.0
 11
53.22113247308101
 21
4.098109938612247
 31
0.0
  0
ARC
  5
5AE
330
18
100
AcDbEntity
  8
1
 62
     1
100
AcDbCircle
 10
55.352039410473
 20
-17.59780362454906
 30
0.0
 40
23.21892818608176
100
AcDbArc
 50
109.8728166166783
 51
111.5280420324268
  0
LINE
  5
5AF
330
18
100
AcDbEntity
  8
1
 62
     1
100
AcDbLine
 10
48.77886752691898
 20
4.326142154782519
 30
0.0
 11
48.72113247308104
 21
4.333801379230358
 31
0.0
  0
LINE
  5
5B0
330
18
100
AcDbEntity
  8
1
 62
     1
100
AcDbLine
 10
50.27886752691897
 20
4.113137842505405
 30
0.0
 11
50.22113247308105
 21
4.121827428668864
 31
0.0
  0
LINE
  5
5B1
330
18
100
AcDbEntity
  8
1
 62
     1
100
AcDbLine
 10
51.77886752691898
 20
3.874093133565796
 30
0.0
 11
51.72113247308105
 21
3.883758039787548
 31
0.0
  0
LINE
  5
5B2
330
18
100
AcDbEntity
  8
1
 62
     1
100
AcDbLine
 10
53.27886752691898
 20
3.610521160821909
 30
0.0
 11
53.22113247308105
 21
3.621100158013261
 31
0.0
  0
LINE
  5
5B3
330
18
100
AcDbEntity
  8
1
 62
     1
100
AcDbLine
 10
54.77886752691897
 20
3.324090682251033
 30
0.0
 11
54.72113247308103
 21
3.335516863009042
 31
0.0
  0
LINE
  5
5B4
330
18
100
AcDbEntity
  8
1
 62
     1
100
AcDbLine
 10
56.27886752691897
 20
3.016615575268196
 30
0.0
 11
56.22113247308105
 21
3.028816598682462
 31
0.0
  0
LINE
  5
5B5
330
18
100
AcDbEntity
  8
1
 62
     1
100
AcDbLine
 10
59.27886752691897
 20
2.346437532737958
 30
0.0
 11
59.22113247308104
 21
2.359951986647148
 31
0.0
  0
LINE
  5
5B6
330
18
100
AcDbEntity
  8
1
 62
     1
100
AcDbLine
 10
60.77886752691899
 20
1.987977717884346
 30
0.0
 11
60.72113247308106
 21
2.002022566203779
 31
0.0
  0
LINE
  5
5B7
330
18
100
AcDbEntity
  8
1
 62
     1
100
AcDbLine
 10
62.27886752691897
 20
1.616932281372764
 30
0.0
 11
62.22113247308103
 21
1.631418558746064
 31
0.0
  0
LINE
  5
5B8
330
18
100
AcDbEntity
  8
1
 62
     1
100
AcDbLine
 10
63.77886752691897
 20
1.235649599931746
 30
0.0
 11
63.72113247308105
 21
1.250485539891875
 31
0.0
  0
LINE
  5
5B9
330
18
100
AcDbEntity
  8
1
 62
     1
100
AcDbLine
 10
65.27886752691896
 20
0.846543727463816
 30
0.0
 11
65.22113247308107
 21
0.8616354910649981
 31
0.0
  0
LINE
  5
5BA
330
18
100
AcDbEntity
  8
1
 62
     1
100
AcDbLine
 10
66.77886752691896
 20
0.4520788892292877
 30
0.0
 11
66.72113247308101
 21
0.4673309288647499
 31
0.0
  0
LINE
  5
5BB
330
18
100
AcDbEntity
  8
1
 62
     1
100
AcDbLine
 10
68.27886752691894
 20
0.0547518961315992
 30
0.0
 11
68.22113247308106
 21
0.070067579914102
 31
0.0
  0
LINE
  5
5BC
330
18
100
AcDbEntity
  8
1
 62
     1
100
AcDbLine
 10
46.35455173
 20
-2.113802183926708
 30
0.0
 11
46.35455173
 21
1.893004883328061
 31
0.0
  0
LINE
  5
5BD
330
18
100
AcDbEntity
  8
1
 62
     1
100
AcDbLine
 10
68.27886752691899
 20
-3.26865842001675
 30
0.0
 11
68.22113247308101
 21
-3.257052417569253
 31
0.0
  0
LINE
  5
5BE
330
18
100
AcDbEntity
  8
1
 62
     1
100
AcDbLine
 10
66.77886752691897
 20
-2.957494591443859
 30
0.0
 11
66.72113247308103
 21
-2.945130586600915
 31
0.0
  0
LINE
  5
5BF
330
18
100
AcDbEntity
  8
1
 62
     1
100
AcDbLine
 10
65.27886752691896
 20
-2.627606594707683
 30
0.0
 11
65.22113247308106
 21
-2.61456297862319
 31
0.0
  0
LINE
  5
5C0
330
18
100
AcDbEntity
  8
1
 62
     1
100
AcDbLine
 10
63.77886752691897
 20
-2.281082453718918
 30
0.0
 11
63.72113247308103
 21
-2.267441800607995
 31
0.0
  0
LINE
  5
5C1
330
18
100
AcDbEntity
  8
1
 62
     1
100
AcDbLine
 10
62.27886752691898
 20
-1.920117057502107
 30
0.0
 11
62.22113247308103
 21
-1.905965582983295
 31
0.0
  0
LINE
  5
5C2
330
18
100
AcDbEntity
  8
1
 62
     1
100
AcDbLine
 10
60.77886752691897
 20
-1.546995856742861
 30
0.0
 11
60.72113247308104
 21
-1.532423260419638
 31
0.0
  0
LINE
  5
5C3
330
18
100
AcDbEntity
  8
1
 62
     1
100
AcDbLine
 10
59.27886752691898
 20
-1.164079933037954
 30
0.0
 11
59.22113247308104
 21
-1.149178546278154
 31
0.0
  0
LINE
  5
5C4
330
18
100
AcDbEntity
  8
1
 62
     1
100
AcDbLine
 10
57.77886752691897
 20
-0.7737937998975083
 30
0.0
 11
57.72113247308105
 21
-0.75865784938482
 31
0.0
  0
LINE
  5
5C5
330
18
100
AcDbEntity
  8
1
 62
     1
100
AcDbLine
 10
56.27886752691895
 20
-0.3786096550291955
 30
0.0
 11
56.22113247308106
 21
-0.3633349302526531
 31
0.0
  0
LINE
  5
5C6
330
18
100
AcDbEntity
  8
1
 62
     1
100
AcDbLine
 10
54.77886752691899
 20
0.0189716213085033
 30
0.0
 11
54.72113247308103
 21
0.0342882820712585
 31
0.0
  0
LINE
  5
5C7
330
18
100
AcDbEntity
  8
1
 62
     1
100
AcDbLine
 10
53.27886752691898
 20
0.4164335238943553
 30
0.0
 11
53.22113247308103
 21
0.4316951588377071
 31
0.0
  0
LINE
  5
5C8
330
18
100
AcDbEntity
  8
1
 62
     1
100
AcDbLine
 10
51.77886752691897
 20
0.8112585924596599
 30
0.0
 11
51.72113247308101
 21
0.8263687415764913
 31
0.0
  0
LINE
  5
5C9
330
18
100
AcDbEntity
  8
1
 62
     1
100
AcDbLine
 10
50.27886752691897
 20
1.200947041639368
 30
0.0
 11
50.22113247308104
 21
1.215809924058277
 31
0.0
  0
LINE
  5
5CA
330
18
100
AcDbEntity
  8
1
 62
     1
100
AcDbLine
 10
48.77886752691897
 20
1.583032530182514
 30
0.0
 11
48.72113247308104
 21
1.597553965417833
 31
0.0
  0
ARC
  5
5CB
330
18
100
AcDbEntity
  8
1
 62
     1
100
AcDbCircle
 10
46.71089855960023
 20
-3.900613753340339
 30
0.0
 40
5.823661903199964
100
AcDbArc
 50
82.6179490096944
 51
88.81143740035115
  0
LINE
  5
5CC
330
18
100
AcDbEntity
  8
1
 62
     1
100
AcDbLine
 10
47.45915070800116
 20
-3.853571390147106
 30
0.0
 11
46.83169843825847
 21
-3.423455055524977
 31
0.0
  0
LINE
  5
5CD
330
18
100
AcDbEntity
  8
1
 62
     1
100
AcDbLine
 10
48.77886752691898
 20
-4.334100902881038
 30
0.0
 11
48.72113247308104
 21
-4.326443281007111
 31
0.0
  0
LINE
  5
5CE
330
18
100
AcDbEntity
  8
1
 62
     1
100
AcDbLine
 10
50.27886752691895
 20
-4.518595082042322
 30
0.0
 11
50.22113247308103
 21
-4.51201631708475
 31
0.0
  0
LINE
  5
5CF
330
18
100
AcDbEntity
  8
1
 62
     1
100
AcDbLine
 10
51.77886752691898
 20
-4.674481825258202
 30
0.0
 11
51.72113247308103
 21
-4.669023606351645
 31
0.0
  0
LINE
  5
5D0
330
18
100
AcDbEntity
  8
1
 62
     1
100
AcDbLine
 10
53.27886752691896
 20
-4.800774344432565
 30
0.0
 11
53.22113247308106
 21
-4.796471245857833
 31
0.0
  0
LINE
  5
5D1
330
18
100
AcDbEntity
  8
1
 62
     1
100
AcDbLine
 10
54.77886752691898
 20
-4.896672962990033
 30
0.0
 11
54.72113247308103
 21
-4.893552197413539
 31
0.0
  0
LINE
  5
5D2
330
18
100
AcDbEntity
  8
1
 62
     1
100
AcDbLine
 10
56.27886752691899
 20
-4.961570426543424
 30
0.0
 11
56.22113247308103
 21
-4.959651757023839
 31
0.0
  0
LINE
  5
5D3
330
18
100
AcDbEntity
  8
1
 62
     1
100
AcDbLine
 10
57.77886752691898
 20
-4.995055994356944
 30
0.0
 11
57.72113247308105
 21
-4.99435157769578
 31
0.0
  0
LINE
  5
5D4
330
18
100
AcDbEntity
  8
1
 62
     1
100
AcDbLine
 10
59.27886752691895
 20
-4.996917653404798
 30
0.0
 11
59.22113247308104
 21
-4.99743194803131
 31
0.0
  0
LINE
  5
5D5
330
18
100
AcDbEntity
  8
1
 62
     1
100
AcDbLine
 10
60.77886752691898
 20
-4.967143580935328
 30
0.0
 11
60.72113247308104
 21
-4.9688733312659
 31
0.0
  0
LINE
  5
5D6
330
18
100
AcDbEntity
  8
1
 62
     1
100
AcDbLine
 10
62.27886752691899
 20
-4.905922363526475
 30
0.0
 11
62.22113247308101
 21
-4.908856615659912
 31
0.0
  0
LINE
  5
5D7
330
18
100
AcDbEntity
  8
1
 62
     1
100
AcDbLine
 10
63.77886752691897
 20
-4.813641472515017
 30
0.0
 11
63.72113247308105
 21
-4.817761635368061
 31
0.0
  0
LINE
  5
5D8
330
18
100
AcDbEntity
  8
1
 62
     1
100
AcDbLine
 10
65.27886752691897
 20
-4.69088510629721
 30
0.0
 11
65.22113247308107
 21
-4.69616511054144
 31
0.0
  0
LINE
  5
5D9
330
18
100
AcDbEntity
  8
1
 62
     1
100
AcDbLine
 10
66.778867526919
 20
-4.538430719584353
 30
0.0
 11
66.72113247308103
 21
-4.544837155753352
 31
0.0
  0
LINE
  5
5DA
330
18
100
AcDbEntity
  8
1
 62
     1
100
AcDbLine
 10
68.27886752691897
 20
-4.357243344717192
 30
0.0
 11
68.22113247308104
 21
-4.364735615797226
 31
0.0
  0
LINE
  5
5DB
330
18
100
AcDbEntity
  8
1
 62
     1
100
AcDbLine
 10
72.0
 20
-2.863059496192977
 30
0.0
 11
72.0
 21
-3.006704407496014
 31
0.0
  0
ARC
  5
5DC
330
18
100
AcDbEntity
  8
1
 62
     1
100
AcDbCircle
 10
43.67996393805191
 20
-0.9253875395638367
 30
0.0
 40
3.885456632339257
100
AcDbArc
 50
43.46535294827835
 51
46.49964436674914
  0
LINE
  5
5DD
330
18
100
AcDbEntity
  8
1
 62
     1
100
AcDbLine
 10
46.35455172999999
 20
3.767176719985512
 30
0.0
 11
46.5
 21
3.542390841710453
 31
0.0
  0
LINE
  5
5DE
330
18
100
AcDbEntity
  8
1
 62
     1
100
AcDbLine
 10
46.5
 20
-3.7509625
 30
0.0
 11
46.5
 21
-3.750771479269727
 31
0.0
  0
LINE
  5
5DF
330
18
100
AcDbEntity
  8
1
 62
     1
100
AcDbLine
 10
46.5
 20
-3.750771479269727
 30
0.0
 11
46.5
 21
-3.692331565525803
 31
0.0
  0
LINE
  5
5E0
330
18
100
AcDbEntity
  8
1
 62
     1
100
AcDbLine
 10
46.5
 20
-3.692331565525803
 30
0.0
 11
46.49999999999999
 21
-2.839319992583258
 31
0.0
  0
LINE
  5
5E1
330
18
100
AcDbEntity
  8
1
 62
     1
100
AcDbLine
 10
46.35455173
 20
-3.055598587819131
 30
0.0
 11
46.5
 21
-2.839319992583259
 31
0.0
  0
LINE
  5
5E2
330
18
100
AcDbEntity
  8
1
 62
     1
100
AcDbLine
 10
46.5
 20
-3.7509625
 30
0.0
 11
46.35455173
 21
-4.002886176053492
 31
0.0
  0
LINE
  5
5E3
330
18
100
AcDbEntity
  8
1
 62
     1
100
AcDbLine
 10
46.35455173
 20
-4.002886176053492
 30
0.0
 11
46.35455173
 21
-4.00268762077878
 31
0.0
  0
LINE
  5
5E4
330
18
100
AcDbEntity
  8
1
 62
     1
100
AcDbLine
 10
46.35455173
 20
-4.00268762077878
 30
0.0
 11
46.35455173
 21
-3.941984979568421
 31
0.0
  0
LINE
  5
5E5
330
18
100
AcDbEntity
  8
1
 62
     1
100
AcDbLine
 10
46.35455173
 20
-3.941984979568421
 30
0.0
 11
46.35455173000001
 21
-3.055598587819115
 31
0.0
  0
LINE
  5
5E6
330
18
100
AcDbEntity
  8
1
 62
     1
100
AcDbLine
 10
46.35455172999998
 20
-3.05559858781913
 30
0.0
 11
46.35455172999999
 21
-2.113802183926707
 31
0.0
  0
LINE
  5
5E7
330
18
100
AcDbEntity
  8
1
 62
     1
100
AcDbLine
 10
46.35455173
 20
1.893004883328057
 30
0.0
 11
46.35455173000001
 21
3.767176719985494
 31
0.0
  0
LINE
  5
5E8
330
18
100
AcDbEntity
  8
1
 62
     1
100
AcDbLine
 10
57.72113247308106
 20
-5.0
 30
0.0
 11
57.778867526919
 21
-5.0
 31
0.0
  0
LINE
  5
5E9
330
18
100
AcDbEntity
  8
1
 62
     1
100
AcDbLine
 10
56.22113247308103
 20
-5.0
 30
0.0
 11
56.27886752691898
 21
-5.000000000000001
 31
0.0
  0
LINE
  5
5EA
330
18
100
AcDbEntity
  8
1
 62
     1
100
AcDbLine
 10
54.72113247308103
 20
-4.999999999999999
 30
0.0
 11
54.77886752691899
 21
-4.999999999999999
 31
0.0
  0
LINE
  5
5EB
330
18
100
AcDbEntity
  8
1
 62
     1
100
AcDbLine
 10
53.22113247308103
 20
-4.999999999999999
 30
0.0
 11
53.27886752691899
 21
-5.0
 31
0.0
  0
LINE
  5
5EC
330
18
100
AcDbEntity
  8
1
 62
     1
100
AcDbLine
 10
51.72113247308103
 20
-4.999999999999999
 30
0.0
 11
51.77886752691899
 21
-5.0
 31
0.0
  0
LINE
  5
5ED
330
18
100
AcDbEntity
  8
1
 62
     1
100
AcDbLine
 10
50.22113247308103
 20
-4.999999999999999
 30
0.0
 11
50.27886752691899
 21
-5.0
 31
0.0
  0
LINE
  5
5EE
330
18
100
AcDbEntity
  8
1
 62
     1
100
AcDbLine
 10
48.72113247308103
 20
-4.999999999999999
 30
0.0
 11
48.77886752691898
 21
-4.999999999999999
 31
0.0
  0
ARC
  5
5EF
330
18
100
AcDbEntity
  8
1
 62
     1
100
AcDbCircle
 10
72.11160985172461
 20
-1.904777535045437
 30
0.0
 40
0.0030935239340391
100
AcDbArc
 50
281.9107178888466
 51
133.9767744741357
  0
LINE
  5
5F0
330
18
100
AcDbEntity
  8
1
 62
     1
100
AcDbLine
 10
72.1122391235689
 20
-1.907760876431096
 30
0.0
 11
74.02000000000001
 21
0.0
 31
0.0
  0
LINE
  5
5F1
330
18
100
AcDbEntity
  8
1
 62
     1
100
AcDbLine
 10
72.0
 20
3.7509625
 30
0.0
 11
71.6916372781157
 21
4.285062152439698
 31
0.0
  0
LINE
  5
5F2
330
18
100
AcDbEntity
  8
1
 62
     1
100
AcDbLine
 10
65.05560277754182
 20
4.713294290923256
 30
0.0
 11
65.05560943176852
 21
4.713305816374366
 31
0.0
  0
ARC
  5
5F3
330
18
100
AcDbEntity
  8
1
 62
     1
100
AcDbCircle
 10
114.2431914024864
 20
-23.66960966985196
 30
0.0
 40
56.78915313292183
100
AcDbArc
 50
149.6811373990874
 51
150.0135852655044
  0
LINE
  5
5F4
330
18
100
AcDbEntity
  8
1
 62
     1
100
AcDbLine
 10
65.22113247308104
 20
5.000000000000019
 30
0.0
 11
65.0556027775773
 21
4.713294290902774
 31
0.0
  0
LINE
  5
5F5
330
18
100
AcDbEntity
  8
1
 62
     1
100
AcDbLine
 10
70.91079242880221
 20
4.462475526306877
 30
0.0
 11
70.5
 21
3.7509625
 31
0.0
  0
LINE
  5
5F6
330
18
100
AcDbEntity
  8
1
 62
     1
100
AcDbLine
 10
68.22113247308101
 20
4.999999999999997
 30
0.0
 11
67.5
 21
3.7509625
 31
0.0
  0
LINE
  5
5F7
330
18
100
AcDbEntity
  8
1
 62
     1
100
AcDbLine
 10
70.5
 20
3.7509625
 30
0.0
 11
69.96516155436588
 21
4.677329429760581
 31
0.0
  0
LINE
  5
5F8
330
18
100
AcDbEntity
  8
1
 62
     1
100
AcDbLine
 10
69.0
 20
3.7509625
 30
0.0
 11
68.27886752691896
 21
5.000000000000018
 31
0.0
  0
LINE
  5
5F9
330
18
100
AcDbEntity
  8
1
 62
     1
100
AcDbLine
 10
69.58474124153878
 20
4.763763567407251
 30
0.0
 11
69.0
 21
3.7509625
 31
0.0
  0
LINE
  5
5FA
330
18
100
AcDbEntity
  8
1
 62
     1
100
AcDbLine
 10
66.0
 20
3.7509625
 30
0.0
 11
65.27886752691896
 21
5.000000000000019
 31
0.0
  0
LINE
  5
5FB
330
18
100
AcDbEntity
  8
1
 62
     1
100
AcDbLine
 10
66.72113247308103
 20
4.999999999999998
 30
0.0
 11
66.0
 21
3.7509625
 31
0.0
  0
LINE
  5
5FC
330
18
100
AcDbEntity
  8
1
 62
     1
100
AcDbLine
 10
67.5
 20
3.7509625
 30
0.0
 11
66.77886752691896
 21
5.000000000000019
 31
0.0
  0
LINE
  5
5FD
330
18
100
AcDbEntity
  8
1
 62
     1
100
AcDbLine
 10
46.83169843825848
 20
-4.3254807799856
 30
0.0
 11
47.45915070800116
 21
-4.687740516206629
 31
0.0
  0
ARC
  5
5FE
330
18
100
AcDbEntity
  8
1
 62
     1
100
AcDbCircle
 10
63.48510603405071
 20
-4.63142553953539
 30
0.0
 40
5.760813699599812
100
AcDbArc
 50
72.46138549504299
 51
78.31538717637464
  0
ARC
  5
5FF
330
18
100
AcDbEntity
  8
1
 62
     1
100
AcDbCircle
 10
72.17474960427514
 20
-2.43289261875216
 30
0.0
 40
0.535235182575325
100
AcDbArc
 50
97.07932844806668
 51
109.0296790480091
  0
LINE
  5
600
330
18
100
AcDbEntity
  8
1
 62
     1
100
AcDbLine
 10
55.58412240789495
 20
0.0133873773101822
 30
0.0
 11
55.5841304008793
 21
0.0133857247757226
 31
0.0
  0
LINE
  5
601
330
18
100
AcDbEntity
  8
1
 62
     1
100
AcDbLine
 10
55.5841304008793
 20
0.0133857247757226
 30
0.0
 11
55.62526665869497
 21
0.0038822971181236
 31
0.0
  0
LINE
  5
602
330
18
100
AcDbEntity
  8
1
 62
     1
100
AcDbLine
 10
55.62526665869497
 20
0.0038822971181236
 30
0.0
 11
55.66627750179051
 21
-0.0075830757524604
 31
0.0
  0
LINE
  5
603
330
18
100
AcDbEntity
  8
1
 62
     1
100
AcDbLine
 10
55.66627750179051
 20
-0.0075830757524604
 30
0.0
 11
55.70716157014331
 21
-0.0209955717660968
 31
0.0
  0
LINE
  5
604
330
18
100
AcDbEntity
  8
1
 62
     1
100
AcDbLine
 10
55.70716157014331
 20
-0.0209955717660968
 30
0.0
 11
55.74789791586036
 21
-0.0363340142046536
 31
0.0
  0
LINE
  5
605
330
18
100
AcDbEntity
  8
1
 62
     1
100
AcDbLine
 10
55.74789791586036
 20
-0.0363340142046536
 30
0.0
 11
55.78847637261259
 21
-0.0535815404098439
 31
0.0
  0
LINE
  5
606
330
18
100
AcDbEntity
  8
1
 62
     1
100
AcDbLine
 10
55.78847637261259
 20
-0.0535815404098439
 30
0.0
 11
55.82888439285809
 21
-0.0727181729428333
 31
0.0
  0
LINE
  5
607
330
18
100
AcDbEntity
  8
1
 62
     1
100
AcDbLine
 10
55.82888439285809
 20
-0.0727181729428333
 30
0.0
 11
55.86910485320579
 21
-0.0937222576567846
 31
0.0
  0
LINE
  5
608
330
18
100
AcDbEntity
  8
1
 62
     1
100
AcDbLine
 10
55.86910485320579
 20
-0.0937222576567846
 30
0.0
 11
55.90913396968573
 21
-0.1165769901494632
 31
0.0
  0
LINE
  5
609
330
18
100
AcDbEntity
  8
1
 62
     1
100
AcDbLine
 10
55.90913396968573
 20
-0.1165769901494632
 30
0.0
 11
55.94895269752853
 21
-0.1412567507642201
 31
0.0
  0
LINE
  5
60A
330
18
100
AcDbEntity
  8
1
 62
     1
100
AcDbLine
 10
55.94895269752853
 20
-0.1412567507642201
 30
0.0
 11
56.02793637717367
 21
-0.1960162945678276
 31
0.0
  0
LINE
  5
60B
330
18
100
AcDbEntity
  8
1
 62
     1
100
AcDbLine
 10
56.02793637717367
 20
-0.1960162945678276
 30
0.0
 11
56.10597928539497
 21
-0.2578225499206761
 31
0.0
  0
LINE
  5
60C
330
18
100
AcDbEntity
  8
1
 62
     1
100
AcDbLine
 10
56.10597928539497
 20
-0.2578225499206761
 30
0.0
 11
56.16385128630917
 21
-0.3086885973405116
 31
0.0
  0
LINE
  5
60D
330
18
100
AcDbEntity
  8
1
 62
     1
100
AcDbLine
 10
56.16385128630917
 20
-0.3086885973405116
 30
0.0
 11
56.22113247308103
 21
-0.3633349293393869
 31
0.0
  0
LINE
  5
60E
330
18
100
AcDbEntity
  8
1
 62
     1
100
AcDbLine
 10
55.58413064556753
 20
0.0133869082561885
 30
0.0
 11
55.58412265258958
 21
0.0133885608272702
 31
0.0
  0
ARC
  5
60F
330
18
100
AcDbEntity
  8
1
 62
     1
100
AcDbCircle
 10
55.12461293959951
 20
-1.262493974821076
 30
0.0
 40
1.342638169805406
100
AcDbArc
 50
73.7643573467013
 51
78.21702553021333
  0
LINE
  5
610
330
18
100
AcDbEntity
  8
1
 62
     1
100
AcDbLine
 10
54.21065910719636
 20
0.305059580700644
 30
0.0
 11
54.24354251220167
 21
0.2972552588560253
 31
0.0
  0
LINE
  5
611
330
18
100
AcDbEntity
  8
1
 62
     1
100
AcDbLine
 10
54.24354251220167
 20
0.2972552588560253
 30
0.0
 11
54.27632370017446
 21
0.2881925493125843
 31
0.0
  0
LINE
  5
612
330
18
100
AcDbEntity
  8
1
 62
     1
100
AcDbLine
 10
54.27632370017446
 20
0.2881925493125843
 30
0.0
 11
54.30899177174065
 21
0.2778806368609426
 31
0.0
  0
LINE
  5
613
330
18
100
AcDbEntity
  8
1
 62
     1
100
AcDbLine
 10
54.30899177174065
 20
0.2778806368609426
 30
0.0
 11
54.37398031015621
 21
0.2535387776476176
 31
0.0
  0
LINE
  5
614
330
18
100
AcDbEntity
  8
1
 62
     1
100
AcDbLine
 10
54.37398031015621
 20
0.2535387776476176
 30
0.0
 11
54.4384527794492
 21
0.2243038014334579
 31
0.0
  0
LINE
  5
615
330
18
100
AcDbEntity
  8
1
 62
     1
100
AcDbLine
 10
54.4384527794492
 20
0.2243038014334579
 30
0.0
 11
54.50236798855828
 21
0.1902505447592671
 31
0.0
  0
LINE
  5
616
330
18
100
AcDbEntity
  8
1
 62
     1
100
AcDbLine
 10
54.50236798855828
 20
0.1902505447592671
 30
0.0
 11
54.56568899494566
 21
0.151455396642341
 31
0.0
  0
LINE
  5
617
330
18
100
AcDbEntity
  8
1
 62
     1
100
AcDbLine
 10
54.56568899494566
 20
0.151455396642341
 30
0.0
 11
54.62837295588238
 21
0.1080043432964927
 31
0.0
  0
LINE
  5
618
330
18
100
AcDbEntity
  8
1
 62
     1
100
AcDbLine
 10
54.62837295588238
 20
0.1080043432964927
 30
0.0
 11
54.67494869203248
 21
0.0724121216858614
 31
0.0
  0
LINE
  5
619
330
18
100
AcDbEntity
  8
1
 62
     1
100
AcDbLine
 10
54.67494869203248
 20
0.0724121216858614
 30
0.0
 11
54.72113247308103
 21
0.0342882820470756
 31
0.0
  0
ARC
  5
61A
330
18
100
AcDbEntity
  8
1
 62
     1
100
AcDbCircle
 10
53.43662422663825
 20
-0.9787474057110402
 30
0.0
 40
1.419942537394425
100
AcDbArc
 50
66.62554268370354
 51
77.38586920208886
  0
ARC
  5
61B
330
18
100
AcDbEntity
  8
1
 62
     1
100
AcDbCircle
 10
52.59336333433269
 20
-0.4068969121719068
 30
0.0
 40
1.046889890279132
100
AcDbArc
 50
53.18151265783443
 51
76.56297201417593
  0
ARC
  5
61C
330
18
100
AcDbEntity
  8
1
 62
     1
100
AcDbCircle
 10
51.74153075408584
 20
-0.6923733519358753
 30
0.0
 40
1.5161055617191
100
AcDbArc
 50
59.98997700827532
 51
76.48013692404164
  0
LINE
  5
61D
330
18
100
AcDbEntity
  8
1
 62
     1
100
AcDbLine
 10
51.4614883663189
 20
0.9303903915232583
 30
0.0
 11
51.46149448784298
 21
0.9303889448242814
 31
0.0
  0
ARC
  5
61E
330
18
100
AcDbEntity
  8
1
 62
     1
100
AcDbCircle
 10
51.235347588036
 20
-0.0082408543448957
 30
0.0
 40
0.9655191677441014
100
AcDbArc
 50
59.79843597128372
 51
76.45373152310137
  0
LINE
  5
61F
330
18
100
AcDbEntity
  8
1
 62
     1
100
AcDbLine
 10
52.09595334486233
 20
0.7816516088254349
 30
0.0
 11
52.09594990793374
 21
0.781652407862305
 31
0.0
  0
LINE
  5
620
330
18
100
AcDbEntity
  8
1
 62
     1
100
AcDbLine
 10
51.46149449820521
 20
0.9303890607713915
 30
0.0
 11
51.46148839282485
 21
0.9303905036781946
 31
0.0
  0
LINE
  5
621
330
18
100
AcDbEntity
  8
1
 62
     1
100
AcDbLine
 10
50.44744671627706
 20
1.172936764800369
 30
0.0
 11
50.516448682808
 21
1.1541774131325
 31
0.0
  0
LINE
  5
622
330
18
100
AcDbEntity
  8
1
 62
     1
100
AcDbLine
 10
50.516448682808
 20
1.1541774131325
 30
0.0
 11
50.58558000313044
 21
1.131313218248658
 31
0.0
  0
LINE
  5
623
330
18
100
AcDbEntity
  8
1
 62
     1
100
AcDbLine
 10
50.58558000313044
 20
1.131313218248658
 30
0.0
 11
50.65479589096552
 21
1.104436137431938
 31
0.0
  0
LINE
  5
624
330
18
100
AcDbEntity
  8
1
 62
     1
100
AcDbLine
 10
50.65479589096552
 20
1.104436137431938
 30
0.0
 11
50.72403267878562
 21
1.073641148076556
 31
0.0
  0
LINE
  5
625
330
18
100
AcDbEntity
  8
1
 62
     1
100
AcDbLine
 10
50.72403267878562
 20
1.073641148076556
 30
0.0
 11
50.79323498962026
 21
1.039014412181127
 31
0.0
  0
LINE
  5
626
330
18
100
AcDbEntity
  8
1
 62
     1
100
AcDbLine
 10
50.79323498962026
 20
1.039014412181127
 30
0.0
 11
50.86234270191748
 21
1.000637786367673
 31
0.0
  0
LINE
  5
627
330
18
100
AcDbEntity
  8
1
 62
     1
100
AcDbLine
 10
50.86234270191748
 20
1.000637786367673
 30
0.0
 11
50.93128546920741
 21
0.9585922332277539
 31
0.0
  0
LINE
  5
628
330
18
100
AcDbEntity
  8
1
 62
     1
100
AcDbLine
 10
50.93128546920741
 20
0.9585922332277539
 30
0.0
 11
50.99999999999999
 21
0.9129451422794856
 31
0.0
  0
ARC
  5
629
330
18
100
AcDbEntity
  8
1
 62
     1
100
AcDbCircle
 10
49.87182353501186
 20
0.3908020369222407
 30
0.0
 40
0.8958904934380396
100
AcDbArc
 50
67.05216550199697
 51
76.24312769348191
  0
LINE
  5
62A
330
18
100
AcDbEntity
  8
1
 62
     1
100
AcDbLine
 10
50.44744673147314
 20
1.17293682761307
 30
0.0
 11
50.44744157770463
 21
1.172938074449293
 31
0.0
  0
LINE
  5
62B
330
18
100
AcDbEntity
  8
1
 62
     1
100
AcDbLine
 10
48.80198266082996
 20
1.577511708651505
 30
0.0
 11
48.84528964877632
 21
1.565850725883117
 31
0.0
  0
LINE
  5
62C
330
18
100
AcDbEntity
  8
1
 62
     1
100
AcDbLine
 10
48.84528964877632
 20
1.565850725883117
 30
0.0
 11
48.88870740694778
 21
1.552468440092271
 31
0.0
  0
LINE
  5
62D
330
18
100
AcDbEntity
  8
1
 62
     1
100
AcDbLine
 10
48.88870740694778
 20
1.552468440092271
 30
0.0
 11
48.975802776172
 21
1.520658366559963
 31
0.0
  0
LINE
  5
62E
330
18
100
AcDbEntity
  8
1
 62
     1
100
AcDbLine
 10
48.975802776172
 20
1.520658366559963
 30
0.0
 11
49.06317510471418
 21
1.482297518458485
 31
0.0
  0
LINE
  5
62F
330
18
100
AcDbEntity
  8
1
 62
     1
100
AcDbLine
 10
49.06317510471418
 20
1.482297518458485
 30
0.0
 11
49.15069927163823
 21
1.437603756778318
 31
0.0
  0
LINE
  5
630
330
18
100
AcDbEntity
  8
1
 62
     1
100
AcDbLine
 10
49.15069927163823
 20
1.437603756778318
 30
0.0
 11
49.23826577938117
 21
1.386776878213473
 31
0.0
  0
LINE
  5
631
330
18
100
AcDbEntity
  8
1
 62
     1
100
AcDbLine
 10
49.23826577938117
 20
1.386776878213473
 30
0.0
 11
49.32576175895612
 21
1.3300016142183
 31
0.0
  0
LINE
  5
632
330
18
100
AcDbEntity
  8
1
 62
     1
100
AcDbLine
 10
49.32576175895612
 20
1.3300016142183
 30
0.0
 11
49.41304827575863
 21
1.267461181821746
 31
0.0
  0
LINE
  5
633
330
18
100
AcDbEntity
  8
1
 62
     1
100
AcDbLine
 10
49.41304827575863
 20
1.267461181821746
 30
0.0
 11
49.5
 21
1.199307134490392
 31
0.0
  0
LINE
  5
634
330
18
100
AcDbEntity
  8
1
 62
     1
100
AcDbLine
 10
48.70637092938922
 20
1.601385779095035
 30
0.0
 11
48.72113247308103
 21
1.597553965417833
 31
0.0
  0
LINE
  5
635
330
18
100
AcDbEntity
  8
1
 62
     1
100
AcDbLine
 10
48.80198268368919
 20
1.577511800269657
 30
0.0
 11
48.80197544153166
 21
1.577513607227982
 31
0.0
  0
LINE
  5
636
330
18
100
AcDbEntity
  8
SK1
100
AcDbLine
 10
0.0000000000000018
 20
5.0
 30
0.0
 11
-16.99999999999999
 21
5.0
 31
0.0
  0
LINE
  5
637
330
18
100
AcDbEntity
  8
SK1
100
AcDbLine
 10
-27.49999999999999
 20
-4.0
 30
0.0
 11
-16.99999999999999
 21
-4.0
 31
0.0
  0
LINE
  5
638
330
18
100
AcDbEntity
  8
SK1
100
AcDbLine
 10
-17.0
 20
-4.000000000000001
 30
0.0
 11
-16.99999999999999
 21
-5.0
 31
0.0
  0
LINE
  5
639
330
18
100
AcDbEntity
  8
SK1
100
AcDbLine
 10
-27.49999999999999
 20
4.0
 30
0.0
 11
-16.99999999999999
 21
4.0
 31
0.0
  0
LINE
  5
63A
330
18
100
AcDbEntity
  8
SK1
100
AcDbLine
 10
-27.49999999999999
 20
4.0
 30
0.0
 11
-27.5
 21
3.000000000000012
 31
0.0
  0
ARC
  5
63B
330
18
100
AcDbEntity
  8
SK1
100
AcDbCircle
 10
-19.44878634607802
 20
-1.897156520697594
 30
0.0
 40
9.42317447350937
100
AcDbArc
 50
148.689911616713
 51
155.1586365107782
  0
LINE
  5
63C
330
18
100
AcDbEntity
  8
SK1
100
AcDbLine
 10
-27.99999999999999
 20
4.0
 30
0.0
 11
-27.49999999999999
 21
4.000000000000001
 31
0.0
  0
LINE
  5
63D
330
18
100
AcDbEntity
  8
SK1
100
AcDbLine
 10
-16.99999999999999
 20
5.0
 30
0.0
 11
-16.99999999999999
 21
4.999789768571378
 31
0.0
  0
LINE
  5
63E
330
18
100
AcDbEntity
  8
SK1
100
AcDbLine
 10
-16.99999999999999
 20
4.999789768571378
 30
0.0
 11
-16.99999999999999
 21
4.935788809053687
 31
0.0
  0
LINE
  5
63F
330
18
100
AcDbEntity
  8
SK1
100
AcDbLine
 10
-16.99999999999999
 20
4.935788809053687
 30
0.0
 11
-16.99999999999999
 21
4.0
 31
0.0
  0
LINE
  5
640
330
18
100
AcDbEntity
  8
SK1
100
AcDbLine
 10
-27.49999999999999
 20
-2.999999999999998
 30
0.0
 11
-16.99999999999999
 21
-2.999999999999998
 31
0.0
  0
LINE
  5
641
330
18
100
AcDbEntity
  8
SK1
100
AcDbLine
 10
-27.49999999999999
 20
-2.999999999999998
 30
0.0
 11
-27.49999999999999
 21
-4.0
 31
0.0
  0
LINE
  5
642
330
18
100
AcDbEntity
  8
SK1
100
AcDbLine
 10
-27.99999999999999
 20
3.999999999999921
 30
0.0
 11
-27.99999999999999
 21
2.061552812808831
 31
0.0
  0
LINE
  5
643
330
18
100
AcDbEntity
  8
SK1
100
AcDbLine
 10
-27.99999999999999
 20
-2.061552812808831
 30
0.0
 11
-28.0
 21
-3.999999999999999
 31
0.0
  0
ARC
  5
644
330
18
100
AcDbEntity
  8
SK1
100
AcDbCircle
 10
-19.44878634607776
 20
1.897156520697444
 30
0.0
 40
9.423174473509523
100
AcDbArc
 50
204.84136348922
 51
211.3100883832853
  0
LINE
  5
645
330
18
100
AcDbEntity
  8
SK1
100
AcDbLine
 10
-27.99999999999999
 20
-4.0
 30
0.0
 11
-27.49999999999999
 21
-4.0
 31
0.0
  0
LINE
  5
646
330
18
100
AcDbEntity
  8
SK1
100
AcDbLine
 10
-17.0
 20
3.000000000000001
 30
0.0
 11
-16.99999999999999
 21
-2.999999999999995
 31
0.0
  0
LINE
  5
647
330
18
100
AcDbEntity
  8
SK1
100
AcDbLine
 10
-27.99999999999999
 20
2.061552812808831
 30
0.0
 11
-28.0
 21
-2.061552812808829
 31
0.0
  0
LINE
  5
648
330
18
100
AcDbEntity
  8
SK1
100
AcDbLine
 10
-27.49999999999999
 20
3.000000000000002
 30
0.0
 11
-16.99999999999999
 21
3.000000000000002
 31
0.0
  0
LINE
  5
649
330
18
100
AcDbEntity
  8
SK1
100
AcDbLine
 10
-16.99999999999999
 20
-5.0
 30
0.0
 11
-0.0000000000000018
 21
-5.0
 31
0.0
  0
DIMENSION
  5
64A
330
18
100
AcDbEntity
  8
2
100
AcDbDimension
  2
*D0
 10
87.00000000000004
 20
-4.999999999999948
 30
0.0
 11
84.60925000000007
 21
-12.51224999999995
 31
0.0
 70
    32
  1
M10
 71
     5
 42
10.0
  3
STANDARD
100
AcDbAlignedDimension
 13
72.0
 23
5.0
 33
0.0
 14
72.0
 24
-5.0
 34
0.0
 50
90.0000000000002
100
AcDbRotatedDimension
  0
DIMENSION
  5
658
330
18
100
AcDbEntity
  8
2
100
AcDbDimension
  2
*D1
 10
72.0
 20
75.0
 30
0.0
 11
36.0
 21
77.39075
 31
0.0
 70
    32
  1
<>
 71
     5
 42
72.0
  3
STANDARD
100
AcDbAlignedDimension
 13
0.0
 23
0.0
 33
0.0
 14
72.0
 24
0.0
 34
0.0
100
AcDbRotatedDimension
  0
DIMENSION
  5
665
330
18
100
AcDbEntity
  8
SK2
100
AcDbDimension
  2
*D2
 10
-42.99999999997448
 20
-5.000000000132689
 30
0.0
 11
-45.39074999999999
 21
-0.0000000001448888
 31
0.0
 70
    32
  1
%%c<>
 71
     5
 42
10.0
  3
STANDARD
100
AcDbAlignedDimension
 13
-16.99999999999999
 23
5.0
 33
0.0
 14
-16.99999999999999
 24
-5.0
 34
0.0
 50
90.0000000002924
100
AcDbRotatedDimension
  0
DIMENSION
  5
672
330
18
100
AcDbEntity
  8
2
100
AcDbDimension
  2
*D3
 10
72.0
 20
60.0
 30
0.0
 11
59.177275865
 21
62.39775
 31
0.0
 70
    32
  1
<>
 71
     5
 42
25.64544827
  3
STANDARD
100
AcDbAlignedDimension
 13
46.35455173
 23
4.05
 33
0.0
 14
72.0
 24
5.0
 34
0.0
100
AcDbRotatedDimension
  0
DIMENSION
  5
67F
330
18
100
AcDbEntity
  8
SK2
100
AcDbDimension
  2
*D4
 10
74.02
 20
90.0
 30
0.0
 11
23.01
 21
92.39775
 31
0.0
 70
    32
  1
<>
 71
     5
 42
102.02
  3
STANDARD
100
AcDbAlignedDimension
 13
-28.0
 23
5.0
 33
0.0
 14
74.02
 24
5.0
 34
0.0
100
AcDbRotatedDimension
  0
ENDSEC
  0
SECTION
  2
OBJECTS
  0
DICTIONARY
  5
C
330
0
100
AcDbDictionary
281
     1
  3
ACAD_COLOR
350
387
  3
ACAD_GROUP
350
D
  3
ACAD_LAYOUT
350
301
  3
ACAD_MATERIAL
350
386
  3
ACAD_MLEADERSTYLE
350
68C
  3
ACAD_MLINESTYLE
350
E
  3
ACAD_PLOTSETTINGS
350
302
  3
ACAD_PLOTSTYLENAME
350
2FF
  3
ACAD_SCALELIST
350
3A0
  3
ACAD_TABLESTYLE
350
388
  3
ACAD_VISUALSTYLE
350
3C5
  3
ACDBHEADERROUNDTRIPXREC
350
68D
  3
AcDbVariableDictionary
350
357
  0
DICTIONARY
  5
387
102
{ACAD_REACTORS
330
C
102
}
330
C
100
AcDbDictionary
281
     1
  0
DICTIONARY
  5
D
102
{ACAD_REACTORS
330
C
102
}
330
C
100
AcDbDictionary
281
     1
  0
DICTIONARY
  5
301
102
{ACAD_REACTORS
330
C
102
}
330
C
100
AcDbDictionary
281
     1
  3
Layout1
350
33B
  3
Model
350
303
  0
DICTIONARY
  5
386
102
{ACAD_REACTORS
330
C
102
}
330
C
100
AcDbDictionary
281
     1
  3
ByBlock
350
3C3
  3
ByLayer
350
3C2
  3
Global
350
3C4
  0
DICTIONARY
  5
68C
102
{ACAD_REACTORS
330
C
102
}
330
C
100
AcDbDictionary
281
     1
  0
DICTIONARY
  5
E
102
{ACAD_REACTORS
330
C
102
}
330
C
100
AcDbDictionary
281
     1
  3
STANDARD
350
1B
  0
DICTIONARY
  5
302
102
{ACAD_REACTORS
330
C
102
}
330
C
100
AcDbDictionary
281
     1
  0
ACDBDICTIONARYWDFLT
  5
2FF
102
{ACAD_REACTORS
330
C
102
}
330
C
100
AcDbDictionary
281
     1
  3
Normal
350
300
100
AcDbDictionaryWithDefault
340
300
  0
DICTIONARY
  5
3A0
102
{ACAD_REACTORS
330
C
102
}
330
C
100
AcDbDictionary
281
     1
  3
A0
350
3A1
  3
A1
350
3A2
  3
A2
350
3A3
  3
A3
350
3A4
  3
A4
350
3A5
  3
A5
350
3A6
  3
A6
350
3A7
  3
A7
350
3A8
  3
A8
350
3A9
  3
A9
350
3AA
  3
B0
350
3AB
  3
B1
350
3AC
  3
B2
350
3AD
  3
B3
350
3AE
  3
B4
350
3AF
  3
B5
350
3B0
  3
B6
350
3B1
  3
B7
350
3B2
  3
B8
350
3B3
  3
B9
350
3B4
  3
C0
350
3B5
  3
C1
350
3B6
  3
C2
350
3B7
  3
C3
350
3B8
  3
C4
350
3B9
  3
C5
350
3BA
  3
C6
350
3BB
  3
C7
350
3BC
  3
C8
350
3BD
  3
C9
350
3BE
  3
D0
350
3BF
  3
D1
350
3C0
  3
D2
350
3C1
  0
DICTIONARY
  5
388
102
{ACAD_REACTORS
330
C
102
}
330
C
100
AcDbDictionary
281
     1
  3
Standard
350
389
  0
DICTIONARY
  5
3C5
102
{ACAD_REACTORS
330
C
102
}
330
C
100
AcDbDictionary
281
     1
  3
2dWireframe
350
3CA
  3
3D Hidden
350
3CC
  3
3dWireframe
350
3CB
  3
Basic
350
3CD
  3
Brighten
350
3D1
  3
ColorChange
350
3D5
  3
Conceptual
350
3CF
  3
Dim
350
3D0
  3
Facepattern
350
3D4
  3
Flat
350
3C6
  3
FlatWithEdges
350
3C7
  3
Gouraud
350
3C8
  3
GouraudWithEdges
350
3C9
  3
Linepattern
350
3D3
  3
Realistic
350
3CE
  3
Thicken
350
3D2
  0
DICTIONARY
  5
68D
102
{ACAD_REACTORS
330
C
102
}
330
C
100
AcDbDictionary
281
     1
  3
COLORDICT
350
68E
  3
MATERIALDICT
350
68F
  0
DICTIONARY
  5
357
102
{ACAD_REACTORS
330
C
102
}
330
C
100
AcDbDictionary
281
     1
  3
CANNOSCALE
350
690
  3
CTABLESTYLE
350
38D
  3
DIMASSOC
350
359
  3
HIDETEXT
350
358
  3
PROJECTNAME
350
38E
  0
LAYOUT
  5
33B
102
{ACAD_REACTORS
330
301
102
}
330
301
100
AcDbPlotSettings
  1

  2
Lexmark Optra PS2
  4

  6

 40
0.0
 41
0.0
 42
0.0
 43
0.0
 44
0.0
 45
0.0
 46
0.0
 47
0.0
 48
0.0
 49
0.0
140
0.0
141
0.0
142
1.0
143
1.0
 70
   688
 72
     0
 73
     0
 74
     5
  7
monochrome.ctb
 75
    16
147
1.0
148
0.0
149
0.0
100
AcDbLayout
  1
Layout1
 70
     1
 71
     1
 10
0.0
 20
0.0
 11
12.0
 21
9.0
 12
0.0
 22
0.0
 32
0.0
 14
0.0
 24
0.0
 34
0.0
 15
0.0
 25
0.0
 35
0.0
146
0.0
 13
0.0
 23
0.0
 33
0.0
 16
1.0
 26
0.0
 36
0.0
 17
0.0
 27
1.0
 37
0.0
 76
     0
330
338
  0
LAYOUT
  5
303
102
{ACAD_REACTORS
330
301
102
}
330
301
100
AcDbPlotSettings
  1

  2
Lexmark Optra Rx
  4
A4
  6

 40
6.805083274841307
 41
5.535083293914794
 42
6.974411010742187
 43
7.14373779296875
 44
209.9733276367186
 45
296.9259948730469
 46
0.0
 47
0.0
 48
0.0
 49
0.0
140
0.0
141
0.0
142
1.0
143
2.976565420630886
 70
 11952
 72
     1
 73
     1
 74
     0
  7
monochrome.ctb
 75
     0
147
0.335957675604539
148
204.1199660668592
149
172.3933209647495
100
AcDbLayout
  1
Model
 70
     1
 71
     0
 10
0.0
 20
0.0
 11
12.0
 21
9.0
 12
0.0
 22
0.0
 32
0.0
 14
0.0
 24
0.0
 34
0.0
 15
0.0
 25
0.0
 35
0.0
146
0.0
 13
0.0
 23
0.0
 33
0.0
 16
1.0
 26
0.0
 36
0.0
 17
0.0
 27
1.0
 37
0.0
 76
     0
330
18
331
39A
  0
MATERIAL
  5
3C3
102
{ACAD_REACTORS
330
386
102
}
102
{ACAD_XDICTIONARY
360
693
102
}
330
386
100
AcDbMaterial
  1
ByBlock
  0
MATERIAL
  5
3C2
102
{ACAD_REACTORS
330
386
102
}
102
{ACAD_XDICTIONARY
360
691
102
}
330
386
100
AcDbMaterial
  1
ByLayer
  0
MATERIAL
  5
3C4
102
{ACAD_REACTORS
330
386
102
}
102
{ACAD_XDICTIONARY
360
695
102
}
330
386
100
AcDbMaterial
  1
Global
  0
MLINESTYLE
  5
1B
102
{ACAD_REACTORS
330
E
102
}
330
E
100
AcDbMlineStyle
  2
STANDARD
 70
     0
  3

 62
     0
 51
90.0
 52
90.0
 71
     2
 49
0.5
 62
   256
  6
BYLAYER
 49
-0.5
 62
   256
  6
BYLAYER
  0
ACDBPLACEHOLDER
  5
300
102
{ACAD_REACTORS
330
2FF
102
}
330
2FF
  0
SCALE
  5
3A1
102
{ACAD_REACTORS
330
3A0
102
}
330
3A0
100
AcDbScale
 70
     0
300
1:1
140
1.0
141
1.0
290
     1
  0
SCALE
  5
3A2
102
{ACAD_REACTORS
330
3A0
102
}
330
3A0
100
AcDbScale
 70
     0
300
1:2
140
1.0
141
2.0
290
     0
  0
SCALE
  5
3A3
102
{ACAD_REACTORS
330
3A0
102
}
330
3A0
100
AcDbScale
 70
     0
300
1:4
140
1.0
141
4.0
290
     0
  0
SCALE
  5
3A4
102
{ACAD_REACTORS
330
3A0
102
}
330
3A0
100
AcDbScale
 70
     0
300
1:5
140
1.0
141
5.0
290
     0
  0
SCALE
  5
3A5
102
{ACAD_REACTORS
330
3A0
102
}
330
3A0
100
AcDbScale
 70
     0
300
1:8
140
1.0
141
8.0
290
     0
  0
SCALE
  5
3A6
102
{ACAD_REACTORS
330
3A0
102
}
330
3A0
100
AcDbScale
 70
     0
300
1:10
140
1.0
141
10.0
290
     0
  0
SCALE
  5
3A7
102
{ACAD_REACTORS
330
3A0
102
}
330
3A0
100
AcDbScale
 70
     0
300
1:16
140
1.0
141
16.0
290
     0
  0
SCALE
  5
3A8
102
{ACAD_REACTORS
330
3A0
102
}
330
3A0
100
AcDbScale
 70
     0
300
1:20
140
1.0
141
20.0
290
     0
  0
SCALE
  5
3A9
102
{ACAD_REACTORS
330
3A0
102
}
330
3A0
100
AcDbScale
 70
     0
300
1:30
140
1.0
141
30.0
290
     0
  0
SCALE
  5
3AA
102
{ACAD_REACTORS
330
3A0
102
}
330
3A0
100
AcDbScale
 70
     0
300
1:40
140
1.0
141
40.0
290
     0
  0
SCALE
  5
3AB
102
{ACAD_REACTORS
330
3A0
102
}
330
3A0
100
AcDbScale
 70
     0
300
1:50
140
1.0
141
50.0
290
     0
  0
SCALE
  5
3AC
102
{ACAD_REACTORS
330
3A0
102
}
330
3A0
100
AcDbScale
 70
     0
300
1:100
140
1.0
141
100.0
290
     0
  0
SCALE
  5
3AD
102
{ACAD_REACTORS
330
3A0
102
}
330
3A0
100
AcDbScale
 70
     0
300
2:1
140
2.0
141
1.0
290
     0
  0
SCALE
  5
3AE
102
{ACAD_REACTORS
330
3A0
102
}
330
3A0
100
AcDbScale
 70
     0
300
4:1
140
4.0
141
1.0
290
     0
  0
SCALE
  5
3AF
102
{ACAD_REACTORS
330
3A0
102
}
330
3A0
100
AcDbScale
 70
     0
300
8:1
140
8.0
141
1.0
290
     0
  0
SCALE
  5
3B0
102
{ACAD_REACTORS
330
3A0
102
}
330
3A0
100
AcDbScale
 70
     0
300
10:1
140
10.0
141
1.0
290
     0
  0
SCALE
  5
3B1
102
{ACAD_REACTORS
330
3A0
102
}
330
3A0
100
AcDbScale
 70
     0
300
100:1
140
100.0
141
1.0
290
     0
  0
SCALE
  5
3B2
102
{ACAD_REACTORS
330
3A0
102
}
330
3A0
100
AcDbScale
 70
     0
300
1/128" = 1'-0"
140
0.0078125
141
12.0
290
     0
  0
SCALE
  5
3B3
102
{ACAD_REACTORS
330
3A0
102
}
330
3A0
100
AcDbScale
 70
     0
300
1/64" = 1'-0"
140
0.015625
141
12.0
290
     0
  0
SCALE
  5
3B4
102
{ACAD_REACTORS
330
3A0
102
}
330
3A0
100
AcDbScale
 70
     0
300
1/32" = 1'-0"
140
0.03125
141
12.0
290
     0
  0
SCALE
  5
3B5
102
{ACAD_REACTORS
330
3A0
102
}
330
3A0
100
AcDbScale
 70
     0
300
1/16" = 1'-0"
140
0.0625
141
12.0
290
     0
  0
SCALE
  5
3B6
102
{ACAD_REACTORS
330
3A0
102
}
330
3A0
100
AcDbScale
 70
     0
300
3/32" = 1'-0"
140
0.09375
141
12.0
290
     0
  0
SCALE
  5
3B7
102
{ACAD_REACTORS
330
3A0
102
}
330
3A0
100
AcDbScale
 70
     0
300
1/8" = 1'-0"
140
0.125
141
12.0
290
     0
  0
SCALE
  5
3B8
102
{ACAD_REACTORS
330
3A0
102
}
330
3A0
100
AcDbScale
 70
     0
300
3/16" = 1'-0"
140
0.1875
141
12.0
290
     0
  0
SCALE
  5
3B9
102
{ACAD_REACTORS
330
3A0
102
}
330
3A0
100
AcDbScale
 70
     0
300
1/4" = 1'-0"
140
0.25
141
12.0
290
     0
  0
SCALE
  5
3BA
102
{ACAD_REACTORS
330
3A0
102
}
330
3A0
100
AcDbScale
 70
     0
300
3/8" = 1'-0"
140
0.375
141
12.0
290
     0
  0
SCALE
  5
3BB
102
{ACAD_REACTORS
330
3A0
102
}
330
3A0
100
AcDbScale
 70
     0
300
1/2" = 1'-0"
140
0.5
141
12.0
290
     0
  0
SCALE
  5
3BC
102
{ACAD_REACTORS
330
3A0
102
}
330
3A0
100
AcDbScale
 70
     0
300
3/4" = 1'-0"
140
0.75
141
12.0
290
     0
  0
SCALE
  5
3BD
102
{ACAD_REACTORS
330
3A0
102
}
330
3A0
100
AcDbScale
 70
     0
300
1" = 1'-0"
140
1.0
141
12.0
290
     0
  0
SCALE
  5
3BE
102
{ACAD_REACTORS
330
3A0
102
}
330
3A0
100
AcDbScale
 70
     0
300
1-1/2" = 1'-0"
140
1.5
141
12.0
290
     0
  0
SCALE
  5
3BF
102
{ACAD_REACTORS
330
3A0
102
}
330
3A0
100
AcDbScale
 70
     0
300
3" = 1'-0"
140
3.0
141
12.0
290
     0
  0
SCALE
  5
3C0
102
{ACAD_REACTORS
330
3A0
102
}
330
3A0
100
AcDbScale
 70
     0
300
6" = 1'-0"
140
6.0
141
12.0
290
     0
  0
SCALE
  5
3C1
102
{ACAD_REACTORS
330
3A0
102
}
330
3A0
100
AcDbScale
 70
     0
300
1'-0" = 1'-0"
140
12.0
141
12.0
290
     0
  0
TABLESTYLE
  5
389
102
{ACAD_REACTORS
330
388
102
}
330
388
100
AcDbTableStyle
  3
Standard
 70
     0
 71
     0
 40
1.5
 41
1.5
280
     0
281
     0
  7
STANDARD
140
4.5
170
     2
 62
     0
 63
   257
283
     0
274
    -2
284
     1
 64
     0
275
    -2
285
     1
 65
     0
276
    -2
286
     1
 66
     0
277
    -2
287
     1
 67
     0
278
    -2
288
     1
 68
     0
279
    -2
289
     1
 69
     0
  7
STANDARD
140
6.0
170
     5
 62
     0
 63
   257
283
     0
274
    -2
284
     1
 64
     0
275
    -2
285
     1
 65
     0
276
    -2
286
     1
 66
     0
277
    -2
287
     1
 67
     0
278
    -2
288
     1
 68
     0
279
    -2
289
     1
 69
     0
  7
STANDARD
140
4.5
170
     5
 62
     0
 63
   257
283
     0
274
    -2
284
     1
 64
     0
275
    -2
285
     1
 65
     0
276
    -2
286
     1
 66
     0
277
    -2
287
     1
 67
     0
278
    -2
288
     1
 68
     0
279
    -2
289
     1
 69
     0
  0
VISUALSTYLE
  5
3CA
102
{ACAD_REACTORS
330
3C5
102
}
102
{ACAD_XDICTIONARY
360
69F
102
}
330
3C5
100
AcDbVisualStyle
  2
2dWireframe
 70
     4
 71
     0
 72
     2
 73
     0
 90
        0
 40
-0.6
 41
-30.0
 62
     5
 63
     7
 74
     1
 91
        4
 64
     7
 65
   257
 75
     1
175
     1
 42
1.0
 92
        0
 66
   257
 43
1.0
 76
     1
 77
     6
 78
     2
 67
     7
 79
     5
170
     0
171
     0
290
     0
174
     0
 93
        1
 44
0.0
173
     0
291
     0
 45
0.0
1001
ACAD
1000
AcDbSavedByObjectVersion
1070
     0
  0
VISUALSTYLE
  5
3CC
102
{ACAD_REACTORS
330
3C5
102
}
102
{ACAD_XDICTIONARY
360
6A3
102
}
330
3C5
100
AcDbVisualStyle
  2
3D Hidden
 70
     6
 71
     1
 72
     2
 73
     2
 90
        0
 40
-0.6
 41
-30.0
 62
     5
 63
     7
 74
     2
 91
        2
 64
     7
 65
   257
 75
     2
175
     1
 42
40.0
 92
        0
 66
   257
 43
1.0
 76
     1
 77
     6
 78
     2
 67
     7
 79
     3
170
     0
171
     0
290
     0
174
     0
 93
        1
 44
0.0
173
     0
291
     0
 45
0.0
1001
ACAD
1000
AcDbSavedByObjectVersion
1070
     0
  0
VISUALSTYLE
  5
3CB
102
{ACAD_REACTORS
330
3C5
102
}
102
{ACAD_XDICTIONARY
360
6A1
102
}
330
3C5
100
AcDbVisualStyle
  2
3dWireframe
 70
     5
 71
     0
 72
     2
 73
     0
 90
        0
 40
-0.6
 41
-30.0
 62
     5
 63
     7
 74
     1
 91
        4
 64
     7
 65
   257
 75
     1
175
     1
 42
1.0
 92
        0
 66
   257
 43
1.0
 76
     1
 77
     6
 78
     2
 67
     7
 79
     5
170
     0
171
     0
290
     0
174
     0
 93
        1
 44
0.0
173
     0
291
     0
 45
0.0
1001
ACAD
1000
AcDbSavedByObjectVersion
1070
     0
  0
VISUALSTYLE
  5
3CD
102
{ACAD_REACTORS
330
3C5
102
}
102
{ACAD_XDICTIONARY
360
6A5
102
}
330
3C5
100
AcDbVisualStyle
  2
Basic
 70
     7
 71
     1
 72
     0
 73
     1
 90
        0
 40
-0.6
 41
-30.0
 62
     5
 63
     7
 74
     0
 91
        4
 64
     7
 65
   257
 75
     1
175
     1
 42
1.0
 92
        8
 66
     7
 43
1.0
 76
     1
 77
     6
 78
     2
 67
     7
 79
     5
170
     0
171
     0
290
     0
174
     0
 93
        1
 44
0.0
173
     0
291
     1
 45
0.0
1001
ACAD
1000
AcDbSavedByObjectVersion
1070
     0
  0
VISUALSTYLE
  5
3D1
102
{ACAD_REACTORS
330
3C5
102
}
102
{ACAD_XDICTIONARY
360
6AD
102
}
330
3C5
100
AcDbVisualStyle
  2
Brighten
 70
    12
 71
     2
 72
     2
 73
     0
 90
        0
 40
-0.6
 41
-30.0
 62
     5
 63
     7
 74
     1
 91
        4
 64
     7
 65
   257
 75
     1
175
     1
 42
1.0
 92
        8
 66
     7
 43
1.0
 76
     1
 77
     6
 78
     2
 67
     7
 79
     5
170
     0
171
     0
290
     0
174
     0
 93
        1
 44
50.0
173
     0
291
     1
 45
0.0
1001
ACAD
1000
AcDbSavedByObjectVersion
1070
     0
  0
VISUALSTYLE
  5
3D5
102
{ACAD_REACTORS
330
3C5
102
}
102
{ACAD_XDICTIONARY
360
6B5
102
}
330
3C5
100
AcDbVisualStyle
  2
ColorChange
 70
    16
 71
     2
 72
     2
 73
     3
 90
        0
 40
-0.6
 41
-30.0
 62
     5
 63
     8
 74
     1
 91
        4
 64
     7
 65
   257
 75
     1
175
     1
 42
1.0
 92
        8
 66
     8
 43
1.0
 76
     1
 77
     6
 78
     2
 67
     7
 79
     5
170
     0
171
     0
290
     0
174
     0
 93
        1
 44
0.0
173
     0
291
     1
 45
0.0
1001
ACAD
1000
AcDbSavedByObjectVersion
1070
     0
  0
VISUALSTYLE
  5
3CF
102
{ACAD_REACTORS
330
3C5
102
}
102
{ACAD_XDICTIONARY
360
6A9
102
}
330
3C5
100
AcDbVisualStyle
  2
Conceptual
 70
     9
 71
     3
 72
     2
 73
     0
 90
        0
 40
-0.6
 41
-30.0
 62
     5
 63
     7
 74
     2
 91
        2
 64
     7
 65
   257
 75
     1
175
     1
 42
40.0
 92
        8
 66
     7
 43
1.0
 76
     1
 77
     6
 78
     2
 67
     7
 79
     3
170
     0
171
     0
290
     0
174
     0
 93
        1
 44
0.0
173
     0
291
     0
 45
0.0
1001
ACAD
1000
AcDbSavedByObjectVersion
1070
     0
  0
VISUALSTYLE
  5
3D0
102
{ACAD_REACTORS
330
3C5
102
}
102
{ACAD_XDICTIONARY
360
6AB
102
}
330
3C5
100
AcDbVisualStyle
  2
Dim
 70
    11
 71
     2
 72
     2
 73
     0
 90
        0
 40
-0.6
 41
-30.0
 62
     5
 63
     7
 74
     1
 91
        4
 64
     7
 65
   257
 75
     1
175
     1
 42
1.0
 92
        8
 66
     7
 43
1.0
 76
     1
 77
     6
 78
     2
 67
     7
 79
     5
170
     0
171
     0
290
     0
174
     0
 93
        1
 44
-50.0
173
     0
291
     1
 45
0.0
1001
ACAD
1000
AcDbSavedByObjectVersion
1070
     0
  0
VISUALSTYLE
  5
3D4
102
{ACAD_REACTORS
330
3C5
102
}
102
{ACAD_XDICTIONARY
360
6B3
102
}
330
3C5
100
AcDbVisualStyle
  2
Facepattern
 70
    15
 71
     2
 72
     2
 73
     0
 90
        0
 40
-0.6
 41
-30.0
 62
     5
 63
     7
 74
     1
 91
        4
 64
     7
 65
   257
 75
     1
175
     1
 42
1.0
 92
        8
 66
     7
 43
1.0
 76
     1
 77
     6
 78
     2
 67
     7
 79
     5
170
     0
171
     0
290
     0
174
     0
 93
        1
 44
0.0
173
     0
291
     1
 45
0.0
1001
ACAD
1000
AcDbSavedByObjectVersion
1070
     0
  0
VISUALSTYLE
  5
3C6
102
{ACAD_REACTORS
330
3C5
102
}
102
{ACAD_XDICTIONARY
360
697
102
}
330
3C5
100
AcDbVisualStyle
  2
Flat
 70
     0
 71
     2
 72
     1
 73
     1
 90
        2
 40
-0.6
 41
30.0
 62
     5
 63
     7
 74
     0
 91
        4
 64
     7
 65
   257
 75
     1
175
     1
 42
1.0
 92
        8
 66
     7
 43
1.0
 76
     1
 77
     6
 78
     2
 67
     7
 79
     5
170
     0
171
     0
290
     0
174
     0
 93
       13
 44
0.0
173
     0
291
     1
 45
0.0
1001
ACAD
1000
AcDbSavedByObjectVersion
1070
     0
  0
VISUALSTYLE
  5
3C7
102
{ACAD_REACTORS
330
3C5
102
}
102
{ACAD_XDICTIONARY
360
699
102
}
330
3C5
100
AcDbVisualStyle
  2
FlatWithEdges
 70
     1
 71
     2
 72
     1
 73
     1
 90
        2
 40
-0.6
 41
30.0
 62
     5
 63
     7
 74
     1
 91
        4
 64
     7
 65
   257
 75
     1
175
     1
 42
1.0
 92
        0
 66
   257
 43
1.0
 76
     1
 77
     6
 78
     2
 67
     7
 79
     5
170
     0
171
     0
290
     0
174
     0
 93
       13
 44
0.0
173
     0
291
     1
 45
0.0
1001
ACAD
1000
AcDbSavedByObjectVersion
1070
     0
  0
VISUALSTYLE
  5
3C8
102
{ACAD_REACTORS
330
3C5
102
}
102
{ACAD_XDICTIONARY
360
69B
102
}
330
3C5
100
AcDbVisualStyle
  2
Gouraud
 70
     2
 71
     2
 72
     2
 73
     1
 90
        2
 40
-0.6
 41
30.0
 62
     5
 63
     7
 74
     0
 91
        4
 64
     7
 65
   257
 75
     1
175
     1
 42
1.0
 92
        0
 66
     7
 43
1.0
 76
     1
 77
     6
 78
     2
 67
     7
 79
     5
170
     0
171
     0
290
     0
174
     0
 93
       13
 44
0.0
173
     0
291
     1
 45
0.0
1001
ACAD
1000
AcDbSavedByObjectVersion
1070
     0
  0
VISUALSTYLE
  5
3C9
102
{ACAD_REACTORS
330
3C5
102
}
102
{ACAD_XDICTIONARY
360
69D
102
}
330
3C5
100
AcDbVisualStyle
  2
GouraudWithEdges
 70
     3
 71
     2
 72
     2
 73
     1
 90
        2
 40
-0.6
 41
30.0
 62
     5
 63
     7
 74
     1
 91
        4
 64
     7
 65
   257
 75
     1
175
     1
 42
1.0
 92
        0
 66
   257
 43
1.0
 76
     1
 77
     6
 78
     2
 67
     7
 79
     5
170
     0
171
     0
290
     0
174
     0
 93
       13
 44
0.0
173
     0
291
     1
 45
0.0
1001
ACAD
1000
AcDbSavedByObjectVersion
1070
     0
  0
VISUALSTYLE
  5
3D3
102
{ACAD_REACTORS
330
3C5
102
}
102
{ACAD_XDICTIONARY
360
6B1
102
}
330
3C5
100
AcDbVisualStyle
  2
Linepattern
 70
    14
 71
     2
 72
     2
 73
     0
 90
        0
 40
-0.6
 41
-30.0
 62
     5
 63
     7
 74
     1
 91
        4
 64
     7
 65
   257
 75
     7
175
     7
 42
1.0
 92
        8
 66
     7
 43
1.0
 76
     1
 77
     6
 78
     2
 67
     7
 79
     5
170
     0
171
     0
290
     0
174
     0
 93
        1
 44
0.0
173
     0
291
     1
 45
0.0
1001
ACAD
1000
AcDbSavedByObjectVersion
1070
     0
  0
VISUALSTYLE
  5
3CE
102
{ACAD_REACTORS
330
3C5
102
}
102
{ACAD_XDICTIONARY
360
6A7
102
}
330
3C5
100
AcDbVisualStyle
  2
Realistic
 70
     8
 71
     2
 72
     2
 73
     0
 90
        0
 40
-0.6
 41
-30.0
 62
     5
 63
     7
 74
     1
 91
        0
 64
     7
 65
   257
 75
     1
175
     1
 42
1.0
 92
        8
 66
     8
 43
1.0
 76
     1
 77
     6
 78
     2
 67
     7
 79
     5
170
     0
171
     0
290
     0
174
     0
 93
       13
 44
0.0
173
     0
291
     0
 45
0.0
1001
ACAD
1000
AcDbSavedByObjectVersion
1070
     0
  0
VISUALSTYLE
  5
3D2
102
{ACAD_REACTORS
330
3C5
102
}
102
{ACAD_XDICTIONARY
360
6AF
102
}
330
3C5
100
AcDbVisualStyle
  2
Thicken
 70
    13
 71
     2
 72
     2
 73
     0
 90
        0
 40
-0.6
 41
-30.0
 62
     5
 63
     7
 74
     1
 91
        4
 64
     7
 65
   257
 75
     1
175
     1
 42
1.0
 92
       12
 66
     7
 43
1.0
 76
     1
 77
     6
 78
     2
 67
     7
 79
     5
170
     0
171
     0
290
     0
174
     0
 93
        1
 44
0.0
173
     0
291
     1
 45
0.0
1001
ACAD
1000
AcDbSavedByObjectVersion
1070
     0
  0
XRECORD
  5
68E
102
{ACAD_REACTORS
330
68D
102
}
330
68D
100
AcDbXrecord
280
     1
340
387
  0
XRECORD
  5
68F
102
{ACAD_REACTORS
330
68D
102
}
330
68D
100
AcDbXrecord
280
     1
340
386
  0
DICTIONARYVAR
  5
690
102
{ACAD_REACTORS
330
357
102
}
330
357
100
DictionaryVariables
280
     0
  1
1:1
  0
DICTIONARYVAR
  5
38D
102
{ACAD_REACTORS
330
357
102
}
330
357
100
DictionaryVariables
280
     0
  1
Standard
  0
DICTIONARYVAR
  5
359
102
{ACAD_REACTORS
330
357
102
}
330
357
100
DictionaryVariables
280
     0
  1
2
  0
DICTIONARYVAR
  5
358
102
{ACAD_REACTORS
330
357
102
}
330
357
100
DictionaryVariables
280
     0
  1
1
  0
DICTIONARYVAR
  5
38E
102
{ACAD_REACTORS
330
357
102
}
330
357
100
DictionaryVariables
280
     0
  1

  0
DICTIONARY
  5
693
330
3C3
100
AcDbDictionary
280
     1
281
     1
  3
ACAD_XREC_ROUNDTRIP
360
694
  0
DICTIONARY
  5
691
330
3C2
100
AcDbDictionary
280
     1
281
     1
  3
ACAD_XREC_ROUNDTRIP
360
692
  0
DICTIONARY
  5
695
330
3C4
100
AcDbDictionary
280
     1
281
     1
  3
ACAD_XREC_ROUNDTRIP
360
696
  0
DICTIONARY
  5
69F
330
3CA
100
AcDbDictionary
280
     1
281
     1
  3
ACAD_XREC_ROUNDTRIP
360
6A0
  0
DICTIONARY
  5
6A3
330
3CC
100
AcDbDictionary
280
     1
281
     1
  3
ACAD_XREC_ROUNDTRIP
360
6A4
  0
DICTIONARY
  5
6A1
330
3CB
100
AcDbDictionary
280
     1
281
     1
  3
ACAD_XREC_ROUNDTRIP
360
6A2
  0
DICTIONARY
  5
6A5
330
3CD
100
AcDbDictionary
280
     1
281
     1
  3
ACAD_XREC_ROUNDTRIP
360
6A6
  0
DICTIONARY
  5
6AD
330
3D1
100
AcDbDictionary
280
     1
281
     1
  3
ACAD_XREC_ROUNDTRIP
360
6AE
  0
DICTIONARY
  5
6B5
330
3D5
100
AcDbDictionary
280
     1
281
     1
  3
ACAD_XREC_ROUNDTRIP
360
6B6
  0
DICTIONARY
  5
6A9
330
3CF
100
AcDbDictionary
280
     1
281
     1
  3
ACAD_XREC_ROUNDTRIP
360
6AA
  0
DICTIONARY
  5
6AB
330
3D0
100
AcDbDictionary
280
     1
281
     1
  3
ACAD_XREC_ROUNDTRIP
360
6AC
  0
DICTIONARY
  5
6B3
330
3D4
100
AcDbDictionary
280
     1
281
     1
  3
ACAD_XREC_ROUNDTRIP
360
6B4
  0
DICTIONARY
  5
697
330
3C6
100
AcDbDictionary
280
     1
281
     1
  3
ACAD_XREC_ROUNDTRIP
360
698
  0
DICTIONARY
  5
699
330
3C7
100
AcDbDictionary
280
     1
281
     1
  3
ACAD_XREC_ROUNDTRIP
360
69A
  0
DICTIONARY
  5
69B
330
3C8
100
AcDbDictionary
280
     1
281
     1
  3
ACAD_XREC_ROUNDTRIP
360
69C
  0
DICTIONARY
  5
69D
330
3C9
100
AcDbDictionary
280
     1
281
     1
  3
ACAD_XREC_ROUNDTRIP
360
69E
  0
DICTIONARY
  5
6B1
330
3D3
100
AcDbDictionary
280
     1
281
     1
  3
ACAD_XREC_ROUNDTRIP
360
6B2
  0
DICTIONARY
  5
6A7
330
3CE
100
AcDbDictionary
280
     1
281
     1
  3
ACAD_XREC_ROUNDTRIP
360
6A8
  0
DICTIONARY
  5
6AF
330
3D2
100
AcDbDictionary
280
     1
281
     1
  3
ACAD_XREC_ROUNDTRIP
360
6B0
  0
XRECORD
  5
694
102
{ACAD_REACTORS
330
693
102
}
330
693
100
AcDbXrecord
280
     1
102
MATERIAL
148
0.0
149
0.0
149
0.0
 93
        0
 94
      127
282
     0
 72
     1
 77
     1
171
     1
175
     1
179
     1
273
     0
  0
XRECORD
  5
692
102
{ACAD_REACTORS
330
691
102
}
330
691
100
AcDbXrecord
280
     1
102
MATERIAL
148
0.0
149
0.0
149
0.0
 93
        0
 94
      127
282
     0
 72
     1
 77
     1
171
     1
175
     1
179
     1
273
     0
  0
XRECORD
  5
696
102
{ACAD_REACTORS
330
695
102
}
330
695
100
AcDbXrecord
280
     1
102
MATERIAL
148
0.0
149
0.0
149
0.0
 93
        0
 94
      127
282
     0
 72
     1
 77
     1
171
     1
175
     1
179
     1
273
     0
  0
XRECORD
  5
6A0
102
{ACAD_REACTORS
330
69F
102
}
330
69F
100
AcDbXrecord
280
     1
102
RTVSPropertyOp0
 70
     1
102
RTVSPropertyOp1
 70
     1
102
RTVSPropertyOp2
 70
     1
102
RTVSPropertyOp3
 70
     1
102
RTVSPropertyOp4
 70
     1
102
RTVSPropertyOp5
 70
     1
102
RTVSPropertyOp6
 70
     1
102
RTVSPropertyOp7
 70
     1
102
RTVSPropertyOp8
 70
     1
102
RTVSPropertyOp9
 70
     1
102
RTVSPropertyOp10
 70
     1
102
RTVSPropertyOp11
 70
     1
102
RTVSPropertyOp12
 70
     1
102
RTVSPropertyOp13
 70
     1
102
RTVSPropertyOp14
 70
     1
102
RTVSPropertyOp15
 70
     1
102
RTVSPropertyOp16
 70
     1
102
RTVSPropertyOp17
 70
     1
102
RTVSPropertyOp18
 70
     1
102
RTVSPropertyOp19
 70
     1
102
RTVSPropertyOp20
 70
     1
102
RTVSPropertyOp21
 70
     1
102
RTVSPropertyOp22
 70
     1
102
RTVSPropertyOp23
 70
     1
102
RTVSPropertyOp24
 70
     1
102
RTVSPropertyOp25
 70
     1
102
RTVSPropertyOp26
 70
     1
102
RTVSPropertyOp27
 70
     1
102
RTVSPropertyOp28
 70
     1
102
RTVSPropertyOp29
 70
     1
102
RTVSPropertyOp30
 70
     1
102
RTVSPropertyOp31
 70
     1
102
RTVSPropertyOp32
 70
     1
  0
XRECORD
  5
6A4
102
{ACAD_REACTORS
330
6A3
102
}
330
6A3
100
AcDbXrecord
280
     1
102
RTVSPropertyOp0
 70
     1
102
RTVSPropertyOp1
 70
     1
102
RTVSPropertyOp2
 70
     1
102
RTVSPropertyOp3
 70
     1
102
RTVSPropertyOp4
 70
     1
102
RTVSPropertyOp5
 70
     1
102
RTVSPropertyOp6
 70
     1
102
RTVSPropertyOp7
 70
     1
102
RTVSPropertyOp8
 70
     1
102
RTVSPropertyOp9
 70
     1
102
RTVSPropertyOp10
 70
     1
102
RTVSPropertyOp11
 70
     1
102
RTVSPropertyOp12
 70
     1
102
RTVSPropertyOp13
 70
     1
102
RTVSPropertyOp14
 70
     1
102
RTVSPropertyOp15
 70
     1
102
RTVSPropertyOp16
 70
     1
102
RTVSPropertyOp17
 70
     1
102
RTVSPropertyOp18
 70
     1
102
RTVSPropertyOp19
 70
     1
102
RTVSPropertyOp20
 70
     1
102
RTVSPropertyOp21
 70
     1
102
RTVSPropertyOp22
 70
     1
102
RTVSPropertyOp23
 70
     1
102
RTVSPropertyOp24
 70
     1
102
RTVSPropertyOp25
 70
     1
102
RTVSPropertyOp26
 70
     1
102
RTVSPropertyOp27
 70
     1
102
RTVSPropertyOp28
 70
     1
102
RTVSPropertyOp29
 70
     1
102
RTVSPropertyOp30
 70
     1
102
RTVSPropertyOp31
 70
     1
102
RTVSPropertyOp32
 70
     1
  0
XRECORD
  5
6A2
102
{ACAD_REACTORS
330
6A1
102
}
330
6A1
100
AcDbXrecord
280
     1
102
RTVSPropertyOp0
 70
     1
102
RTVSPropertyOp1
 70
     1
102
RTVSPropertyOp2
 70
     1
102
RTVSPropertyOp3
 70
     1
102
RTVSPropertyOp4
 70
     1
102
RTVSPropertyOp5
 70
     1
102
RTVSPropertyOp6
 70
     1
102
RTVSPropertyOp7
 70
     1
102
RTVSPropertyOp8
 70
     1
102
RTVSPropertyOp9
 70
     1
102
RTVSPropertyOp10
 70
     1
102
RTVSPropertyOp11
 70
     1
102
RTVSPropertyOp12
 70
     1
102
RTVSPropertyOp13
 70
     1
102
RTVSPropertyOp14
 70
     1
102
RTVSPropertyOp15
 70
     1
102
RTVSPropertyOp16
 70
     1
102
RTVSPropertyOp17
 70
     1
102
RTVSPropertyOp18
 70
     1
102
RTVSPropertyOp19
 70
     1
102
RTVSPropertyOp20
 70
     1
102
RTVSPropertyOp21
 70
     1
102
RTVSPropertyOp22
 70
     1
102
RTVSPropertyOp23
 70
     1
102
RTVSPropertyOp24
 70
     1
102
RTVSPropertyOp25
 70
     1
102
RTVSPropertyOp26
 70
     1
102
RTVSPropertyOp27
 70
     1
102
RTVSPropertyOp28
 70
     1
102
RTVSPropertyOp29
 70
     1
102
RTVSPropertyOp30
 70
     1
102
RTVSPropertyOp31
 70
     1
102
RTVSPropertyOp32
 70
     1
  0
XRECORD
  5
6A6
102
{ACAD_REACTORS
330
6A5
102
}
330
6A5
100
AcDbXrecord
280
     1
102
RTVSPropertyOp0
 70
     1
102
RTVSPropertyOp1
 70
     1
102
RTVSPropertyOp2
 70
     1
102
RTVSPropertyOp3
 70
     1
102
RTVSPropertyOp4
 70
     1
102
RTVSPropertyOp5
 70
     1
102
RTVSPropertyOp6
 70
     1
102
RTVSPropertyOp7
 70
     1
102
RTVSPropertyOp8
 70
     1
102
RTVSPropertyOp9
 70
     1
102
RTVSPropertyOp10
 70
     1
102
RTVSPropertyOp11
 70
     1
102
RTVSPropertyOp12
 70
     1
102
RTVSPropertyOp13
 70
     1
102
RTVSPropertyOp14
 70
     1
102
RTVSPropertyOp15
 70
     1
102
RTVSPropertyOp16
 70
     1
102
RTVSPropertyOp17
 70
     1
102
RTVSPropertyOp18
 70
     1
102
RTVSPropertyOp19
 70
     1
102
RTVSPropertyOp20
 70
     1
102
RTVSPropertyOp21
 70
     1
102
RTVSPropertyOp22
 70
     1
102
RTVSPropertyOp23
 70
     1
102
RTVSPropertyOp24
 70
     1
102
RTVSPropertyOp25
 70
     1
102
RTVSPropertyOp26
 70
     1
102
RTVSPropertyOp27
 70
     1
102
RTVSPropertyOp28
 70
     1
102
RTVSPropertyOp29
 70
     1
102
RTVSPropertyOp30
 70
     1
102
RTVSPropertyOp31
 70
     1
102
RTVSPropertyOp32
 70
     1
  0
XRECORD
  5
6AE
102
{ACAD_REACTORS
330
6AD
102
}
330
6AD
100
AcDbXrecord
280
     1
102
RTVSPropertyOp0
 70
     1
102
RTVSPropertyOp1
 70
     1
102
RTVSPropertyOp2
 70
     1
102
RTVSPropertyOp3
 70
     1
102
RTVSPropertyOp4
 70
     1
102
RTVSPropertyOp5
 70
     1
102
RTVSPropertyOp6
 70
     1
102
RTVSPropertyOp7
 70
     1
102
RTVSPropertyOp8
 70
     1
102
RTVSPropertyOp9
 70
     1
102
RTVSPropertyOp10
 70
     1
102
RTVSPropertyOp11
 70
     1
102
RTVSPropertyOp12
 70
     1
102
RTVSPropertyOp13
 70
     1
102
RTVSPropertyOp14
 70
     1
102
RTVSPropertyOp15
 70
     1
102
RTVSPropertyOp16
 70
     1
102
RTVSPropertyOp17
 70
     1
102
RTVSPropertyOp18
 70
     1
102
RTVSPropertyOp19
 70
     1
102
RTVSPropertyOp20
 70
     1
102
RTVSPropertyOp21
 70
     1
102
RTVSPropertyOp22
 70
     1
102
RTVSPropertyOp23
 70
     1
102
RTVSPropertyOp24
 70
     1
102
RTVSPropertyOp25
 70
     1
102
RTVSPropertyOp26
 70
     1
102
RTVSPropertyOp27
 70
     1
102
RTVSPropertyOp28
 70
     1
102
RTVSPropertyOp29
 70
     1
102
RTVSPropertyOp30
 70
     1
102
RTVSPropertyOp31
 70
     1
102
RTVSPropertyOp32
 70
     1
  0
XRECORD
  5
6B6
102
{ACAD_REACTORS
330
6B5
102
}
330
6B5
100
AcDbXrecord
280
     1
102
RTVSPropertyOp0
 70
     1
102
RTVSPropertyOp1
 70
     1
102
RTVSPropertyOp2
 70
     1
102
RTVSPropertyOp3
 70
     1
102
RTVSPropertyOp4
 70
     1
102
RTVSPropertyOp5
 70
     1
102
RTVSPropertyOp6
 70
     1
102
RTVSPropertyOp7
 70
     1
102
RTVSPropertyOp8
 70
     1
102
RTVSPropertyOp9
 70
     1
102
RTVSPropertyOp10
 70
     1
102
RTVSPropertyOp11
 70
     1
102
RTVSPropertyOp12
 70
     1
102
RTVSPropertyOp13
 70
     1
102
RTVSPropertyOp14
 70
     1
102
RTVSPropertyOp15
 70
     1
102
RTVSPropertyOp16
 70
     1
102
RTVSPropertyOp17
 70
     1
102
RTVSPropertyOp18
 70
     1
102
RTVSPropertyOp19
 70
     1
102
RTVSPropertyOp20
 70
     1
102
RTVSPropertyOp21
 70
     1
102
RTVSPropertyOp22
 70
     1
102
RTVSPropertyOp23
 70
     1
102
RTVSPropertyOp24
 70
     1
102
RTVSPropertyOp25
 70
     1
102
RTVSPropertyOp26
 70
     1
102
RTVSPropertyOp27
 70
     1
102
RTVSPropertyOp28
 70
     1
102
RTVSPropertyOp29
 70
     1
102
RTVSPropertyOp30
 70
     1
102
RTVSPropertyOp31
 70
     1
102
RTVSPropertyOp32
 70
     1
  0
XRECORD
  5
6AA
102
{ACAD_REACTORS
330
6A9
102
}
330
6A9
100
AcDbXrecord
280
     1
102
RTVSPropertyOp0
 70
     1
102
RTVSPropertyOp1
 70
     1
102
RTVSPropertyOp2
 70
     1
102
RTVSPropertyOp3
 70
     1
102
RTVSPropertyOp4
 70
     1
102
RTVSPropertyOp5
 70
     1
102
RTVSPropertyOp6
 70
     1
102
RTVSPropertyOp7
 70
     1
102
RTVSPropertyOp8
 70
     1
102
RTVSPropertyOp9
 70
     1
102
RTVSPropertyOp10
 70
     1
102
RTVSPropertyOp11
 70
     1
102
RTVSPropertyOp12
 70
     1
102
RTVSPropertyOp13
 70
     1
102
RTVSPropertyOp14
 70
     1
102
RTVSPropertyOp15
 70
     1
102
RTVSPropertyOp16
 70
     1
102
RTVSPropertyOp17
 70
     1
102
RTVSPropertyOp18
 70
     1
102
RTVSPropertyOp19
 70
     1
102
RTVSPropertyOp20
 70
     1
102
RTVSPropertyOp21
 70
     1
102
RTVSPropertyOp22
 70
     1
102
RTVSPropertyOp23
 70
     1
102
RTVSPropertyOp24
 70
     1
102
RTVSPropertyOp25
 70
     1
102
RTVSPropertyOp26
 70
     1
102
RTVSPropertyOp27
 70
     1
102
RTVSPropertyOp28
 70
     1
102
RTVSPropertyOp29
 70
     1
102
RTVSPropertyOp30
 70
     1
102
RTVSPropertyOp31
 70
     1
102
RTVSPropertyOp32
 70
     1
  0
XRECORD
  5
6AC
102
{ACAD_REACTORS
330
6AB
102
}
330
6AB
100
AcDbXrecord
280
     1
102
RTVSPropertyOp0
 70
     1
102
RTVSPropertyOp1
 70
     1
102
RTVSPropertyOp2
 70
     1
102
RTVSPropertyOp3
 70
     1
102
RTVSPropertyOp4
 70
     1
102
RTVSPropertyOp5
 70
     1
102
RTVSPropertyOp6
 70
     1
102
RTVSPropertyOp7
 70
     1
102
RTVSPropertyOp8
 70
     1
102
RTVSPropertyOp9
 70
     1
102
RTVSPropertyOp10
 70
     1
102
RTVSPropertyOp11
 70
     1
102
RTVSPropertyOp12
 70
     1
102
RTVSPropertyOp13
 70
     1
102
RTVSPropertyOp14
 70
     1
102
RTVSPropertyOp15
 70
     1
102
RTVSPropertyOp16
 70
     1
102
RTVSPropertyOp17
 70
     1
102
RTVSPropertyOp18
 70
     1
102
RTVSPropertyOp19
 70
     1
102
RTVSPropertyOp20
 70
     1
102
RTVSPropertyOp21
 70
     1
102
RTVSPropertyOp22
 70
     1
102
RTVSPropertyOp23
 70
     1
102
RTVSPropertyOp24
 70
     1
102
RTVSPropertyOp25
 70
     1
102
RTVSPropertyOp26
 70
     1
102
RTVSPropertyOp27
 70
     1
102
RTVSPropertyOp28
 70
     1
102
RTVSPropertyOp29
 70
     1
102
RTVSPropertyOp30
 70
     1
102
RTVSPropertyOp31
 70
     1
102
RTVSPropertyOp32
 70
     1
  0
XRECORD
  5
6B4
102
{ACAD_REACTORS
330
6B3
102
}
330
6B3
100
AcDbXrecord
280
     1
102
RTVSPropertyOp0
 70
     1
102
RTVSPropertyOp1
 70
     1
102
RTVSPropertyOp2
 70
     1
102
RTVSPropertyOp3
 70
     1
102
RTVSPropertyOp4
 70
     1
102
RTVSPropertyOp5
 70
     1
102
RTVSPropertyOp6
 70
     1
102
RTVSPropertyOp7
 70
     1
102
RTVSPropertyOp8
 70
     1
102
RTVSPropertyOp9
 70
     1
102
RTVSPropertyOp10
 70
     1
102
RTVSPropertyOp11
 70
     1
102
RTVSPropertyOp12
 70
     1
102
RTVSPropertyOp13
 70
     1
102
RTVSPropertyOp14
 70
     1
102
RTVSPropertyOp15
 70
     1
102
RTVSPropertyOp16
 70
     1
102
RTVSPropertyOp17
 70
     1
102
RTVSPropertyOp18
 70
     1
102
RTVSPropertyOp19
 70
     1
102
RTVSPropertyOp20
 70
     1
102
RTVSPropertyOp21
 70
     1
102
RTVSPropertyOp22
 70
     1
102
RTVSPropertyOp23
 70
     1
102
RTVSPropertyOp24
 70
     1
102
RTVSPropertyOp25
 70
     1
102
RTVSPropertyOp26
 70
     1
102
RTVSPropertyOp27
 70
     1
102
RTVSPropertyOp28
 70
     1
102
RTVSPropertyOp29
 70
     1
102
RTVSPropertyOp30
 70
     1
102
RTVSPropertyOp31
 70
     1
102
RTVSPropertyOp32
 70
     1
  0
XRECORD
  5
698
102
{ACAD_REACTORS
330
697
102
}
330
697
100
AcDbXrecord
280
     1
102
RTVSPropertyOp0
 70
     1
102
RTVSPropertyOp1
 70
     1
102
RTVSPropertyOp2
 70
     1
102
RTVSPropertyOp3
 70
     1
102
RTVSPropertyOp4
 70
     1
102
RTVSPropertyOp5
 70
     1
102
RTVSPropertyOp6
 70
     1
102
RTVSPropertyOp7
 70
     1
102
RTVSPropertyOp8
 70
     1
102
RTVSPropertyOp9
 70
     1
102
RTVSPropertyOp10
 70
     1
102
RTVSPropertyOp11
 70
     1
102
RTVSPropertyOp12
 70
     1
102
RTVSPropertyOp13
 70
     1
102
RTVSPropertyOp14
 70
     1
102
RTVSPropertyOp15
 70
     1
102
RTVSPropertyOp16
 70
     1
102
RTVSPropertyOp17
 70
     1
102
RTVSPropertyOp18
 70
     1
102
RTVSPropertyOp19
 70
     1
102
RTVSPropertyOp20
 70
     1
102
RTVSPropertyOp21
 70
     1
102
RTVSPropertyOp22
 70
     1
102
RTVSPropertyOp23
 70
     1
102
RTVSPropertyOp24
 70
     1
102
RTVSPropertyOp25
 70
     1
102
RTVSPropertyOp26
 70
     1
102
RTVSPropertyOp27
 70
     1
102
RTVSPropertyOp28
 70
     1
102
RTVSPropertyOp29
 70
     1
102
RTVSPropertyOp30
 70
     1
102
RTVSPropertyOp31
 70
     1
102
RTVSPropertyOp32
 70
     1
  0
XRECORD
  5
69A
102
{ACAD_REACTORS
330
699
102
}
330
699
100
AcDbXrecord
280
     1
102
RTVSPropertyOp0
 70
     1
102
RTVSPropertyOp1
 70
     1
102
RTVSPropertyOp2
 70
     1
102
RTVSPropertyOp3
 70
     1
102
RTVSPropertyOp4
 70
     1
102
RTVSPropertyOp5
 70
     1
102
RTVSPropertyOp6
 70
     1
102
RTVSPropertyOp7
 70
     1
102
RTVSPropertyOp8
 70
     1
102
RTVSPropertyOp9
 70
     1
102
RTVSPropertyOp10
 70
     1
102
RTVSPropertyOp11
 70
     1
102
RTVSPropertyOp12
 70
     1
102
RTVSPropertyOp13
 70
     1
102
RTVSPropertyOp14
 70
     1
102
RTVSPropertyOp15
 70
     1
102
RTVSPropertyOp16
 70
     1
102
RTVSPropertyOp17
 70
     1
102
RTVSPropertyOp18
 70
     1
102
RTVSPropertyOp19
 70
     1
102
RTVSPropertyOp20
 70
     1
102
RTVSPropertyOp21
 70
     1
102
RTVSPropertyOp22
 70
     1
102
RTVSPropertyOp23
 70
     1
102
RTVSPropertyOp24
 70
     1
102
RTVSPropertyOp25
 70
     1
102
RTVSPropertyOp26
 70
     1
102
RTVSPropertyOp27
 70
     1
102
RTVSPropertyOp28
 70
     1
102
RTVSPropertyOp29
 70
     1
102
RTVSPropertyOp30
 70
     1
102
RTVSPropertyOp31
 70
     1
102
RTVSPropertyOp32
 70
     1
  0
XRECORD
  5
69C
102
{ACAD_REACTORS
330
69B
102
}
330
69B
100
AcDbXrecord
280
     1
102
RTVSPropertyOp0
 70
     1
102
RTVSPropertyOp1
 70
     1
102
RTVSPropertyOp2
 70
     1
102
RTVSPropertyOp3
 70
     1
102
RTVSPropertyOp4
 70
     1
102
RTVSPropertyOp5
 70
     1
102
RTVSPropertyOp6
 70
     1
102
RTVSPropertyOp7
 70
     1
102
RTVSPropertyOp8
 70
     1
102
RTVSPropertyOp9
 70
     1
102
RTVSPropertyOp10
 70
     1
102
RTVSPropertyOp11
 70
     1
102
RTVSPropertyOp12
 70
     1
102
RTVSPropertyOp13
 70
     1
102
RTVSPropertyOp14
 70
     1
102
RTVSPropertyOp15
 70
     1
102
RTVSPropertyOp16
 70
     1
102
RTVSPropertyOp17
 70
     1
102
RTVSPropertyOp18
 70
     1
102
RTVSPropertyOp19
 70
     1
102
RTVSPropertyOp20
 70
     1
102
RTVSPropertyOp21
 70
     1
102
RTVSPropertyOp22
 70
     1
102
RTVSPropertyOp23
 70
     1
102
RTVSPropertyOp24
 70
     1
102
RTVSPropertyOp25
 70
     1
102
RTVSPropertyOp26
 70
     1
102
RTVSPropertyOp27
 70
     1
102
RTVSPropertyOp28
 70
     1
102
RTVSPropertyOp29
 70
     1
102
RTVSPropertyOp30
 70
     1
102
RTVSPropertyOp31
 70
     1
102
RTVSPropertyOp32
 70
     1
  0
XRECORD
  5
69E
102
{ACAD_REACTORS
330
69D
102
}
330
69D
100
AcDbXrecord
280
     1
102
RTVSPropertyOp0
 70
     1
102
RTVSPropertyOp1
 70
     1
102
RTVSPropertyOp2
 70
     1
102
RTVSPropertyOp3
 70
     1
102
RTVSPropertyOp4
 70
     1
102
RTVSPropertyOp5
 70
     1
102
RTVSPropertyOp6
 70
     1
102
RTVSPropertyOp7
 70
     1
102
RTVSPropertyOp8
 70
     1
102
RTVSPropertyOp9
 70
     1
102
RTVSPropertyOp10
 70
     1
102
RTVSPropertyOp11
 70
     1
102
RTVSPropertyOp12
 70
     1
102
RTVSPropertyOp13
 70
     1
102
RTVSPropertyOp14
 70
     1
102
RTVSPropertyOp15
 70
     1
102
RTVSPropertyOp16
 70
     1
102
RTVSPropertyOp17
 70
     1
102
RTVSPropertyOp18
 70
     1
102
RTVSPropertyOp19
 70
     1
102
RTVSPropertyOp20
 70
     1
102
RTVSPropertyOp21
 70
     1
102
RTVSPropertyOp22
 70
     1
102
RTVSPropertyOp23
 70
     1
102
RTVSPropertyOp24
 70
     1
102
RTVSPropertyOp25
 70
     1
102
RTVSPropertyOp26
 70
     1
102
RTVSPropertyOp27
 70
     1
102
RTVSPropertyOp28
 70
     1
102
RTVSPropertyOp29
 70
     1
102
RTVSPropertyOp30
 70
     1
102
RTVSPropertyOp31
 70
     1
102
RTVSPropertyOp32
 70
     1
  0
XRECORD
  5
6B2
102
{ACAD_REACTORS
330
6B1
102
}
330
6B1
100
AcDbXrecord
280
     1
102
RTVSPropertyOp0
 70
     1
102
RTVSPropertyOp1
 70
     1
102
RTVSPropertyOp2
 70
     1
102
RTVSPropertyOp3
 70
     1
102
RTVSPropertyOp4
 70
     1
102
RTVSPropertyOp5
 70
     1
102
RTVSPropertyOp6
 70
     1
102
RTVSPropertyOp7
 70
     1
102
RTVSPropertyOp8
 70
     1
102
RTVSPropertyOp9
 70
     1
102
RTVSPropertyOp10
 70
     1
102
RTVSPropertyOp11
 70
     1
102
RTVSPropertyOp12
 70
     1
102
RTVSPropertyOp13
 70
     1
102
RTVSPropertyOp14
 70
     1
102
RTVSPropertyOp15
 70
     1
102
RTVSPropertyOp16
 70
     1
102
RTVSPropertyOp17
 70
     1
102
RTVSPropertyOp18
 70
     1
102
RTVSPropertyOp19
 70
     1
102
RTVSPropertyOp20
 70
     1
102
RTVSPropertyOp21
 70
     1
102
RTVSPropertyOp22
 70
     1
102
RTVSPropertyOp23
 70
     1
102
RTVSPropertyOp24
 70
     1
102
RTVSPropertyOp25
 70
     1
102
RTVSPropertyOp26
 70
     1
102
RTVSPropertyOp27
 70
     1
102
RTVSPropertyOp28
 70
     1
102
RTVSPropertyOp29
 70
     1
102
RTVSPropertyOp30
 70
     1
102
RTVSPropertyOp31
 70
     1
102
RTVSPropertyOp32
 70
     1
  0
XRECORD
  5
6A8
102
{ACAD_REACTORS
330
6A7
102
}
330
6A7
100
AcDbXrecord
280
     1
102
RTVSPropertyOp0
 70
     1
102
RTVSPropertyOp1
 70
     1
102
RTVSPropertyOp2
 70
     1
102
RTVSPropertyOp3
 70
     1
102
RTVSPropertyOp4
 70
     1
102
RTVSPropertyOp5
 70
     1
102
RTVSPropertyOp6
 70
     1
102
RTVSPropertyOp7
 70
     1
102
RTVSPropertyOp8
 70
     1
102
RTVSPropertyOp9
 70
     1
102
RTVSPropertyOp10
 70
     1
102
RTVSPropertyOp11
 70
     1
102
RTVSPropertyOp12
 70
     1
102
RTVSPropertyOp13
 70
     1
102
RTVSPropertyOp14
 70
     1
102
RTVSPropertyOp15
 70
     1
102
RTVSPropertyOp16
 70
     1
102
RTVSPropertyOp17
 70
     1
102
RTVSPropertyOp18
 70
     1
102
RTVSPropertyOp19
 70
     1
102
RTVSPropertyOp20
 70
     1
102
RTVSPropertyOp21
 70
     1
102
RTVSPropertyOp22
 70
     1
102
RTVSPropertyOp23
 70
     1
102
RTVSPropertyOp24
 70
     1
102
RTVSPropertyOp25
 70
     1
102
RTVSPropertyOp26
 70
     1
102
RTVSPropertyOp27
 70
     1
102
RTVSPropertyOp28
 70
     1
102
RTVSPropertyOp29
 70
     1
102
RTVSPropertyOp30
 70
     1
102
RTVSPropertyOp31
 70
     1
102
RTVSPropertyOp32
 70
     1
  0
XRECORD
  5
6B0
102
{ACAD_REACTORS
330
6AF
102
}
330
6AF
100
AcDbXrecord
280
     1
102
RTVSPropertyOp0
 70
     1
102
RTVSPropertyOp1
 70
     1
102
RTVSPropertyOp2
 70
     1
102
RTVSPropertyOp3
 70
     1
102
RTVSPropertyOp4
 70
     1
102
RTVSPropertyOp5
 70
     1
102
RTVSPropertyOp6
 70
     1
102
RTVSPropertyOp7
 70
     1
102
RTVSPropertyOp8
 70
     1
102
RTVSPropertyOp9
 70
     1
102
RTVSPropertyOp10
 70
     1
102
RTVSPropertyOp11
 70
     1
102
RTVSPropertyOp12
 70
     1
102
RTVSPropertyOp13
 70
     1
102
RTVSPropertyOp14
 70
     1
102
RTVSPropertyOp15
 70
     1
102
RTVSPropertyOp16
 70
     1
102
RTVSPropertyOp17
 70
     1
102
RTVSPropertyOp18
 70
     1
102
RTVSPropertyOp19
 70
     1
102
RTVSPropertyOp20
 70
     1
102
RTVSPropertyOp21
 70
     1
102
RTVSPropertyOp22
 70
     1
102
RTVSPropertyOp23
 70
     1
102
RTVSPropertyOp24
 70
     1
102
RTVSPropertyOp25
 70
     1
102
RTVSPropertyOp26
 70
     1
102
RTVSPropertyOp27
 70
     1
102
RTVSPropertyOp28
 70
     1
102
RTVSPropertyOp29
 70
     1
102
RTVSPropertyOp30
 70
     1
102
RTVSPropertyOp31
 70
     1
102
RTVSPropertyOp32
 70
     1
  0
ENDSEC
  0
EOF
