0
SECTION
2
HEADER
9
$ACADVER
1
AC1015
9
$DWGCODEPAGE
3
ANSI_1252
9
$HANDSEED
5
2eb
9
$ANGBASE
50
0
9
$ANGDIR
70
0
9
$ATTMODE
70
1
9
$AUNITS
70
0
9
$AUPREC
70
0
9
$CECOLOR
62
256
9
$CELTSCALE
40
1
9
$CELTYPE
6
ByLayer
9
$CELWEIGHT
370
18
9
$CLAYER
8
0
9
$CMLJUST
70
0
9
$CMLSCALE
40
1
9
$CMLSTYLE
2
Standard
9
$DIMSTYLE
2
Standard
9
$TEXTSIZE
40
0.2
9
$TEXTSTYLE
7
Standard
9
$LUNITS
70
2
9
$LUPREC
70
4
9
$EXTNAMES
290
1
9
$INSUNITS
70
4
9
$LTSCALE
40
1
9
$LWDISPLAY
290
1
9
$PDMODE
70
0
9
$PDSIZE
40
0
9
$PLINEGEN
70
0
0
ENDSEC
0
SECTION
2
CLASSES
0
CLASS
1
RASTERVARIABLES
2
AcDbRasterVariables
3
ISM
90
0
280
0
281
0
0
ENDSEC
0
SECTION
2
TABLES
0
TABLE
2
VPORT
5
2e1
100
AcDbSymbolTable
0
VPORT
5
1
100
AcDbSymbolTableRecord
100
AcDbViewportTableRecord
2
*Active
70
0
10
0
20
0
11
1
21
1
12
-1
22
1
13
0
23
0
14
0.5
24
0.5
15
10
25
10
16
0
26
0
36
1
17
0
27
0
37
0
0
ENDTAB
0
TABLE
2
LTYPE
5
2e2
100
AcDbSymbolTable
0
LTYPE
5
14
100
AcDbSymbolTableRecord
100
AcDbLinetypeTableRecord
70
0
2
ByBlock
3

72
65
73
0
40
0
0
LTYPE
5
15
100
AcDbSymbolTableRecord
100
AcDbLinetypeTableRecord
70
0
2
ByLayer
3

72
65
73
0
40
0
0
LTYPE
5
16
100
AcDbSymbolTableRecord
100
AcDbLinetypeTableRecord
70
0
2
Continuous
3
Solid line
72
65
73
0
40
0
0
LTYPE
5
6E
100
AcDbSymbolTableRecord
100
AcDbLinetypeTableRecord
70
0
2
CENTER
3
____ _ ____ _ ____ _ ____
72
65
73
4
40
47.5
49
22
74
0
49
-8.5
74
0
49
8.5
74
0
49
-8.5
74
0
0
LTYPE
5
6F
100
AcDbSymbolTableRecord
100
AcDbLinetypeTableRecord
70
0
2
DASHED
3
__ __ __ __ __ __ __ __ __
72
65
73
2
40
25.72
49
12.86
74
0
49
-12.86
74
0
0
ENDTAB
0
TABLE
2
LAYER
5
2e3
100
AcDbSymbolTable
0
LAYER
5
10
100
AcDbSymbolTableRecord
100
AcDbLayerTableRecord
2
0
70
0
62
7
6
Continuous
290
1
370
-3
390
0
0
LAYER
5
71
100
AcDbSymbolTableRecord
100
AcDbLayerTableRecord
2
80
70
0
62
-6
6
Continuous
290
1
370
-3
390
0
0
LAYER
5
73
100
AcDbSymbolTableRecord
100
AcDbLayerTableRecord
2
81
70
0
62
-3
6
Continuous
290
1
370
-3
390
0
0
LAYER
5
75
100
AcDbSymbolTableRecord
100
AcDbLayerTableRecord
2
1
70
0
62
4
6
Continuous
290
1
370
-3
390
0
0
LAYER
5
84
100
AcDbSymbolTableRecord
100
AcDbLayerTableRecord
2
4
70
0
62
-2
6
CENTER
290
1
370
-3
390
0
0
LAYER
5
1F1
100
AcDbSymbolTableRecord
100
AcDbLayerTableRecord
2
Defpoints
70
0
62
7
6
Continuous
290
0
370
-3
390
0
0
LAYER
5
216
100
AcDbSymbolTableRecord
100
AcDbLayerTableRecord
2
2
70
0
62
7
6
Continuous
290
1
370
-3
390
0
0
LAYER
5
2cd
100
AcDbSymbolTableRecord
100
AcDbLayerTableRecord
2
SK4
70
0
62
2
6
CENTER
290
1
370
-3
390
0
0
LAYER
5
2ce
100
AcDbSymbolTableRecord
100
AcDbLayerTableRecord
2
SK1
70
0
62
4
6
Continuous
290
1
370
-3
390
0
0
LAYER
5
2cf
100
AcDbSymbolTableRecord
100
AcDbLayerTableRecord
2
SK2
70
0
62
7
6
Continuous
290
1
370
-3
390
0
0
LAYER
5
2d0
100
AcDbSymbolTableRecord
100
AcDbLayerTableRecord
2
SK6
70
0
62
5
6
Continuous
290
1
370
-3
390
0
0
ENDTAB
0
TABLE
2
STYLE
5
2e4
100
AcDbSymbolTable
0
STYLE
5
11
100
AcDbSymbolTableRecord
100
AcDbTextStyleTableRecord
2
Standard
3
txt
70
0
71
0
40
0
41
1
42
0
50
0
0
STYLE
5
1DF
100
AcDbSymbolTableRecord
100
AcDbTextStyleTableRecord
2
iso_b_vert
3
simplex.shx
70
0
71
0
40
0
41
1
42
0
50
0
0
STYLE
5
1E0
100
AcDbSymbolTableRecord
100
AcDbTextStyleTableRecord
2
DWGDirectTextStyle
3
simplex
70
0
71
0
40
0
41
1
42
0
50
0
0
ENDTAB
0
TABLE
2
DIMSTYLE
5
2e5
100
AcDbSymbolTable
100
AcDbDimStyleTable
0
DIMSTYLE
105
27
100
AcDbSymbolTableRecord
100
AcDbDimStyleTableRecord
2
Standard
70
0
3
<>
41
0.18
42
0.0625
44
0.18
140
0.18
147
0.09
73
0
74
0
77
1
271
2
275
0
278
52
280
0
340
11
0
ENDTAB
0
TABLE
2
VIEW
5
2e6
100
AcDbSymbolTable
0
ENDTAB
0
TABLE
2
UCS
5
2e7
100
AcDbSymbolTable
0
ENDTAB
0
TABLE
2
APPID
5
2e8
100
AcDbSymbolTable
0
APPID
5
12
100
AcDbSymbolTableRecord
100
AcDbRegAppTableRecord
2
ACAD
70
0
0
APPID
5
1ED
100
AcDbSymbolTableRecord
100
AcDbRegAppTableRecord
2
ACAD_DSTYLE_DIMBREAK
70
0
0
APPID
5
28C
100
AcDbSymbolTableRecord
100
AcDbRegAppTableRecord
2
ACAD_DSTYLE_DIM_LINETYPE
70
0
0
APPID
5
28D
100
AcDbSymbolTableRecord
100
AcDbRegAppTableRecord
2
ACAD_DSTYLE_DIM_EXT1_LINETYPE
70
0
0
APPID
5
28E
100
AcDbSymbolTableRecord
100
AcDbRegAppTableRecord
2
ACAD_DSTYLE_DIM_EXT2_LINETYPE
70
0
0
APPID
5
2C9
100
AcDbSymbolTableRecord
100
AcDbRegAppTableRecord
2
ACAD_MLEADERVER
70
0
0
ENDTAB
0
TABLE
2
BLOCK_RECORD
5
2e9
100
AcDbSymbolTable
0
BLOCK_RECORD
5
1F
100
AcDbSymbolTableRecord
100
AcDbBlockTableRecord
2
*Model_Space
340
0
70
0
0
BLOCK_RECORD
5
1B
100
AcDbSymbolTableRecord
100
AcDbBlockTableRecord
2
*Paper_Space
340
0
70
0
0
BLOCK_RECORD
5
23
100
AcDbSymbolTableRecord
100
AcDbBlockTableRecord
2
*Paper_Space0
340
0
70
0
0
BLOCK_RECORD
5
1F2
100
AcDbSymbolTableRecord
100
AcDbBlockTableRecord
2
*D1
340
0
70
0
0
BLOCK_RECORD
5
1FE
100
AcDbSymbolTableRecord
100
AcDbBlockTableRecord
2
_U0
340
0
70
0
0
BLOCK_RECORD
5
20A
100
AcDbSymbolTableRecord
100
AcDbBlockTableRecord
2
*D3
340
0
70
0
0
BLOCK_RECORD
5
217
100
AcDbSymbolTableRecord
100
AcDbBlockTableRecord
2
_U1
340
0
70
0
0
BLOCK_RECORD
5
223
100
AcDbSymbolTableRecord
100
AcDbBlockTableRecord
2
*D5
340
0
70
0
0
BLOCK_RECORD
5
230
100
AcDbSymbolTableRecord
100
AcDbBlockTableRecord
2
_U2
340
0
70
0
0
BLOCK_RECORD
5
23C
100
AcDbSymbolTableRecord
100
AcDbBlockTableRecord
2
*D7
340
0
70
0
0
BLOCK_RECORD
5
249
100
AcDbSymbolTableRecord
100
AcDbBlockTableRecord
2
_U3
340
0
70
0
0
BLOCK_RECORD
5
256
100
AcDbSymbolTableRecord
100
AcDbBlockTableRecord
2
*D9
340
0
70
0
0
BLOCK_RECORD
5
264
100
AcDbSymbolTableRecord
100
AcDbBlockTableRecord
2
_U4
340
0
70
0
0
ENDTAB
0
ENDSEC
0
SECTION
2
BLOCKS
0
BLOCK
5
20
100
AcDbEntity
8
0
100
AcDbBlockBegin
2
*Model_Space
70
0
10
0
20
0
30
0
3
*Model_Space
0
ENDBLK
5
21
100
AcDbEntity
8
0
100
AcDbBlockEnd
0
BLOCK
5
1C
100
AcDbEntity
8
0
100
AcDbBlockBegin
2
*Paper_Space
70
0
10
0
20
0
30
0
3
*Paper_Space
0
ENDBLK
5
1D
100
AcDbEntity
8
0
100
AcDbBlockEnd
0
BLOCK
5
24
100
AcDbEntity
8
0
100
AcDbBlockBegin
2
*Paper_Space0
70
0
10
0
20
0
30
0
3
*Paper_Space0
0
ENDBLK
5
25
100
AcDbEntity
8
0
100
AcDbBlockEnd
0
BLOCK
5
1F3
100
AcDbEntity
8
0
100
AcDbBlockBegin
2
*D1
70
1
10
0
20
0
30
0
3
*D1
0
LINE
5
1F5
100
AcDbEntity
8
0
62
256
6
ByLayer
370
-2
48
1
60
0
100
AcDbLine
10
-23
20
-1.5875
30
0
11
-23
21
-55.103362
31
0
39
0
210
0
220
0
230
1
0
LINE
5
1F6
100
AcDbEntity
8
0
62
256
6
ByLayer
370
-2
48
1
60
0
100
AcDbLine
10
47
20
-1.5875
30
0
11
47
21
-55.103362
31
0
39
0
210
0
220
0
230
1
0
LINE
5
1F7
100
AcDbEntity
8
0
62
256
6
ByLayer
370
-2
48
1
60
0
100
AcDbLine
10
-19.5
20
-53.103362
30
0
11
43.5
21
-53.103362
31
0
39
0
210
0
220
0
230
1
0
SOLID
5
1F8
100
AcDbEntity
8
0
62
256
6
ByLayer
370
-1
48
1
60
0
100
AcDbTrace
10
-19.5
20
-52.520029
30
0
11
-19.5
21
-53.686695
31
0
12
-23
22
-53.103362
32
0
13
-23
23
-53.103362
33
0
39
0
210
0
220
0
230
1
0
SOLID
5
1F9
100
AcDbEntity
8
0
62
256
6
ByLayer
370
-1
48
1
60
0
100
AcDbTrace
10
43.5
20
-53.686695
30
0
11
43.5
21
-52.520029
31
0
12
47
22
-53.103362
32
0
13
47
23
-53.103362
33
0
39
0
210
0
220
0
230
1
0
MTEXT
5
1FA
100
AcDbEntity
8
0
62
256
6
ByLayer
370
18
48
1
60
0
100
AcDbMText
10
12
20
-47.103362
30
0
210
0
220
0
230
1
1
\A1;70
40
3
41
0
44
1
50
0
71
5
72
5
7
iso_b_vert
0
POINT
5
1FB
100
AcDbEntity
8
Defpoints
62
0
6
ByLayer
370
-1
48
1
60
0
100
AcDbPoint
10
-23
20
0
30
0
39
0
210
0
220
0
230
1
50
360
0
POINT
5
1FC
100
AcDbEntity
8
Defpoints
62
0
6
ByLayer
370
-1
48
1
60
0
100
AcDbPoint
10
47
20
0
30
0
39
0
210
0
220
0
230
1
50
360
0
POINT
5
1FD
100
AcDbEntity
8
Defpoints
62
0
6
ByLayer
370
-1
48
1
60
0
100
AcDbPoint
10
47
20
-53.103362
30
0
39
0
210
0
220
0
230
1
50
360
0
ENDBLK
5
1F4
100
AcDbEntity
8
0
100
AcDbBlockEnd
0
BLOCK
5
205
100
AcDbEntity
8
0
100
AcDbBlockBegin
2
_U0
70
0
10
0
20
0
30
0
3
_U0
0
MTEXT
5
1FF
100
AcDbEntity
8
SK2
62
256
6
ByLayer
370
18
48
1
60
0
100
AcDbMText
10
8.638544
20
-52.218248
30
0
210
0
220
0
230
1
1
\W0.7346;70.0
40
3
41
0
44
1.084337
50
0
71
7
72
5
7
iso_b_vert
0
LINE
5
200
100
AcDbEntity
8
SK2
62
256
6
ByLayer
370
13
48
1
60
0
100
AcDbLine
10
-23
20
-1.5875
30
0
11
-23
21
-55.103362
31
0
39
0
210
0
220
0
230
1
0
LINE
5
201
100
AcDbEntity
8
SK2
62
256
6
ByLayer
370
13
48
1
60
0
100
AcDbLine
10
47
20
-1.5875
30
0
11
47
21
-55.103362
31
0
39
0
210
0
220
0
230
1
0
LINE
5
202
100
AcDbEntity
8
SK2
62
256
6
ByLayer
370
13
48
1
60
0
100
AcDbLine
10
-23
20
-53.103362
30
0
11
47
21
-53.103362
31
0
39
0
210
0
220
0
230
1
0
SOLID
5
203
100
AcDbEntity
8
SK2
62
256
6
ByLayer
370
18
48
1
60
0
100
AcDbTrace
10
-23
20
-53.103362
30
0
11
-19.500002
21
-52.642578
31
0
12
-19.499998
22
-53.564146
32
0
13
-19.499998
23
-53.564146
33
0
39
0
210
0
220
0
230
1
0
SOLID
5
204
100
AcDbEntity
8
SK2
62
256
6
ByLayer
370
18
48
1
60
0
100
AcDbTrace
10
47
20
-53.103362
30
0
11
43.500002
21
-53.564146
31
0
12
43.499998
22
-52.642578
32
0
13
43.499998
23
-52.642578
33
0
39
0
210
0
220
0
230
1
0
ENDBLK
5
206
100
AcDbEntity
8
0
100
AcDbBlockEnd
0
BLOCK
5
20B
100
AcDbEntity
8
0
100
AcDbBlockBegin
2
*D3
70
1
10
0
20
0
30
0
3
*D3
0
LINE
5
20D
100
AcDbEntity
8
0
62
256
6
ByLayer
370
-2
48
1
60
0
100
AcDbLine
10
47
20
-1.5875
30
0
11
47
21
-39.103362
31
0
39
0
210
0
220
0
230
1
0
LINE
5
20E
100
AcDbEntity
8
0
62
256
6
ByLayer
370
-2
48
1
60
0
100
AcDbLine
10
17.25
20
-1.5875
30
0
11
17.25
21
-39.103362
31
0
39
0
210
0
220
0
230
1
0
LINE
5
20F
100
AcDbEntity
8
0
62
256
6
ByLayer
370
-2
48
1
60
0
100
AcDbLine
10
43.5
20
-37.103362
30
0
11
20.75
21
-37.103362
31
0
39
0
210
0
220
0
230
1
0
SOLID
5
210
100
AcDbEntity
8
0
62
256
6
ByLayer
370
-1
48
1
60
0
100
AcDbTrace
10
43.5
20
-37.686695
30
0
11
43.5
21
-36.520029
31
0
12
47
22
-37.103362
32
0
13
47
23
-37.103362
33
0
39
0
210
0
220
0
230
1
0
SOLID
5
211
100
AcDbEntity
8
0
62
256
6
ByLayer
370
-1
48
1
60
0
100
AcDbTrace
10
20.75
20
-36.520029
30
0
11
20.75
21
-37.686695
31
0
12
17.25
22
-37.103362
32
0
13
17.25
23
-37.103362
33
0
39
0
210
0
220
0
230
1
0
MTEXT
5
212
100
AcDbEntity
8
0
62
256
6
ByLayer
370
18
48
1
60
0
100
AcDbMText
10
32.125
20
-31.103362
30
0
210
0
220
0
230
1
1
\A1;29.75
40
3
41
0
44
1
50
0
71
5
72
5
7
iso_b_vert
0
POINT
5
213
100
AcDbEntity
8
Defpoints
62
0
6
ByLayer
370
-1
48
1
60
0
100
AcDbPoint
10
47
20
0
30
0
39
0
210
0
220
0
230
1
50
360
0
POINT
5
214
100
AcDbEntity
8
Defpoints
62
0
6
ByLayer
370
-1
48
1
60
0
100
AcDbPoint
10
17.25
20
0
30
0
39
0
210
0
220
0
230
1
50
360
0
POINT
5
215
100
AcDbEntity
8
Defpoints
62
0
6
ByLayer
370
-1
48
1
60
0
100
AcDbPoint
10
17.25
20
-37.103362
30
0
39
0
210
0
220
0
230
1
50
360
0
ENDBLK
5
20C
100
AcDbEntity
8
0
100
AcDbBlockEnd
0
BLOCK
5
21E
100
AcDbEntity
8
0
100
AcDbBlockBegin
2
_U1
70
0
10
0
20
0
30
0
3
_U1
0
MTEXT
5
218
100
AcDbEntity
8
2
62
256
6
ByLayer
370
18
48
1
60
0
100
AcDbMText
10
28.763544
20
-36.218248
30
0
210
0
220
0
230
1
1
\W0.7346;29.8
40
3
41
0
44
1.084337
50
0
71
7
72
5
7
iso_b_vert
0
LINE
5
219
100
AcDbEntity
8
2
62
256
6
ByLayer
370
13
48
1
60
0
100
AcDbLine
10
47
20
-1.5875
30
0
11
47
21
-39.103362
31
0
39
0
210
0
220
0
230
1
0
LINE
5
21A
100
AcDbEntity
8
2
62
256
6
ByLayer
370
13
48
1
60
0
100
AcDbLine
10
17.25
20
-1.5875
30
0
11
17.25
21
-39.103362
31
0
39
0
210
0
220
0
230
1
0
LINE
5
21B
100
AcDbEntity
8
2
62
256
6
ByLayer
370
13
48
1
60
0
100
AcDbLine
10
47
20
-37.103362
30
0
11
17.25
21
-37.103362
31
0
39
0
210
0
220
0
230
1
0
SOLID
5
21C
100
AcDbEntity
8
2
62
256
6
ByLayer
370
18
48
1
60
0
100
AcDbTrace
10
47
20
-37.103362
30
0
11
43.500002
21
-37.564146
31
0
12
43.499998
22
-36.642578
32
0
13
43.499998
23
-36.642578
33
0
39
0
210
0
220
0
230
1
0
SOLID
5
21D
100
AcDbEntity
8
2
62
256
6
ByLayer
370
18
48
1
60
0
100
AcDbTrace
10
17.25
20
-37.103362
30
0
11
20.749998
21
-36.642578
31
0
12
20.750002
22
-37.564146
32
0
13
20.750002
23
-37.564146
33
0
39
0
210
0
220
0
230
1
0
ENDBLK
5
21F
100
AcDbEntity
8
0
100
AcDbBlockEnd
0
BLOCK
5
224
100
AcDbEntity
8
0
100
AcDbBlockBegin
2
*D5
70
1
10
0
20
0
30
0
3
*D5
0
LINE
5
226
100
AcDbEntity
8
0
62
256
6
ByLayer
370
-2
48
1
60
0
100
AcDbLine
10
47
20
-1.5875
30
0
11
47
21
-31.103362
31
0
39
0
210
0
220
0
230
1
0
LINE
5
227
100
AcDbEntity
8
0
62
256
6
ByLayer
370
-2
48
1
60
0
100
AcDbLine
10
34
20
-4.5375
30
0
11
34
21
-31.103362
31
0
39
0
210
0
220
0
230
1
0
LINE
5
228
100
AcDbEntity
8
0
62
256
6
ByLayer
370
-2
48
1
60
0
100
AcDbLine
10
50.5
20
-29.103362
30
0
11
54
21
-29.103362
31
0
39
0
210
0
220
0
230
1
0
LINE
5
229
100
AcDbEntity
8
0
62
256
6
ByLayer
370
-2
48
1
60
0
100
AcDbLine
10
30.5
20
-29.103362
30
0
11
27
21
-29.103362
31
0
39
0
210
0
220
0
230
1
0
SOLID
5
22A
100
AcDbEntity
8
0
62
256
6
ByLayer
370
-1
48
1
60
0
100
AcDbTrace
10
50.5
20
-28.520029
30
0
11
50.5
21
-29.686695
31
0
12
47
22
-29.103362
32
0
13
47
23
-29.103362
33
0
39
0
210
0
220
0
230
1
0
SOLID
5
22B
100
AcDbEntity
8
0
62
256
6
ByLayer
370
-1
48
1
60
0
100
AcDbTrace
10
30.5
20
-29.686695
30
0
11
30.5
21
-28.520029
31
0
12
34
22
-29.103362
32
0
13
34
23
-29.103362
33
0
39
0
210
0
220
0
230
1
0
MTEXT
5
22C
100
AcDbEntity
8
0
62
256
6
ByLayer
370
18
48
1
60
0
100
AcDbMText
10
40.5
20
-23.103362
30
0
210
0
220
0
230
1
1
\A1;13
40
3
41
0
44
1
50
0
71
5
72
5
7
iso_b_vert
0
POINT
5
22D
100
AcDbEntity
8
Defpoints
62
0
6
ByLayer
370
-1
48
1
60
0
100
AcDbPoint
10
47
20
0
30
0
39
0
210
0
220
0
230
1
50
360
0
POINT
5
22E
100
AcDbEntity
8
Defpoints
62
0
6
ByLayer
370
-1
48
1
60
0
100
AcDbPoint
10
34
20
-2.95
30
0
39
0
210
0
220
0
230
1
50
360
0
POINT
5
22F
100
AcDbEntity
8
Defpoints
62
0
6
ByLayer
370
-1
48
1
60
0
100
AcDbPoint
10
34
20
-29.103362
30
0
39
0
210
0
220
0
230
1
50
360
0
ENDBLK
5
225
100
AcDbEntity
8
0
100
AcDbBlockEnd
0
BLOCK
5
237
100
AcDbEntity
8
0
100
AcDbBlockBegin
2
_U2
70
0
10
0
20
0
30
0
3
_U2
0
MTEXT
5
231
100
AcDbEntity
8
SK2
62
256
6
ByLayer
370
18
48
1
60
0
100
AcDbMText
10
37.513486
20
-28.218248
30
0
210
0
220
0
230
1
1
\W0.6563;13.0
40
3
41
0
44
1.084337
50
0
71
7
72
5
7
iso_b_vert
0
LINE
5
232
100
AcDbEntity
8
SK2
62
256
6
ByLayer
370
13
48
1
60
0
100
AcDbLine
10
47
20
-1.5875
30
0
11
47
21
-31.103362
31
0
39
0
210
0
220
0
230
1
0
LINE
5
233
100
AcDbEntity
8
SK2
62
256
6
ByLayer
370
13
48
1
60
0
100
AcDbLine
10
34
20
-4.5375
30
0
11
34
21
-31.103362
31
0
39
0
210
0
220
0
230
1
0
LINE
5
234
100
AcDbEntity
8
SK2
62
256
6
ByLayer
370
13
48
1
60
0
100
AcDbLine
10
47
20
-29.103362
30
0
11
34
21
-29.103362
31
0
39
0
210
0
220
0
230
1
0
SOLID
5
235
100
AcDbEntity
8
SK2
62
256
6
ByLayer
370
18
48
1
60
0
100
AcDbTrace
10
47
20
-29.103362
30
0
11
43.500002
21
-29.564146
31
0
12
43.499998
22
-28.642578
32
0
13
43.499998
23
-28.642578
33
0
39
0
210
0
220
0
230
1
0
SOLID
5
236
100
AcDbEntity
8
SK2
62
256
6
ByLayer
370
18
48
1
60
0
100
AcDbTrace
10
34
20
-29.103362
30
0
11
37.499998
21
-28.642578
31
0
12
37.500002
22
-29.564146
32
0
13
37.500002
23
-29.564146
33
0
39
0
210
0
220
0
230
1
0
ENDBLK
5
238
100
AcDbEntity
8
0
100
AcDbBlockEnd
0
BLOCK
5
23D
100
AcDbEntity
8
0
100
AcDbBlockBegin
2
*D7
70
1
10
0
20
0
30
0
3
*D7
0
LINE
5
23F
100
AcDbEntity
8
0
62
256
6
ByLayer
370
-2
48
1
60
0
100
AcDbLine
10
47
20
1.5875
30
0
11
47
21
10.641258
31
0
39
0
210
0
220
0
230
1
0
LINE
5
240
100
AcDbEntity
8
0
62
256
6
ByLayer
370
-2
48
1
60
0
100
AcDbLine
10
43.56
20
1.5875
30
0
11
43.56
21
10.641258
31
0
39
0
210
0
220
0
230
1
0
LINE
5
241
100
AcDbEntity
8
0
62
256
6
ByLayer
370
-2
48
1
60
0
100
AcDbLine
10
50.5
20
8.641258
30
0
11
54
21
8.641258
31
0
39
0
210
0
220
0
230
1
0
LINE
5
242
100
AcDbEntity
8
0
62
256
6
ByLayer
370
-2
48
1
60
0
100
AcDbLine
10
40.06
20
8.641258
30
0
11
36.56
21
8.641258
31
0
39
0
210
0
220
0
230
1
0
SOLID
5
243
100
AcDbEntity
8
0
62
256
6
ByLayer
370
-1
48
1
60
0
100
AcDbTrace
10
50.5
20
9.224592
30
0
11
50.5
21
8.057925
31
0
12
47
22
8.641258
32
0
13
47
23
8.641258
33
0
39
0
210
0
220
0
230
1
0
SOLID
5
244
100
AcDbEntity
8
0
62
256
6
ByLayer
370
-1
48
1
60
0
100
AcDbTrace
10
40.06
20
8.057925
30
0
11
40.06
21
9.224592
31
0
12
43.56
22
8.641258
32
0
13
43.56
23
8.641258
33
0
39
0
210
0
220
0
230
1
0
MTEXT
5
245
100
AcDbEntity
8
0
62
256
6
ByLayer
370
18
48
1
60
0
100
AcDbMText
10
45.28
20
14.641258
30
0
210
0
220
0
230
1
1
\A1;3.44
40
3
41
0
44
1
50
0
71
5
72
5
7
iso_b_vert
0
POINT
5
246
100
AcDbEntity
8
Defpoints
62
0
6
ByLayer
370
-1
48
1
60
0
100
AcDbPoint
10
47
20
0
30
0
39
0
210
0
220
0
230
1
50
360
0
POINT
5
247
100
AcDbEntity
8
Defpoints
62
0
6
ByLayer
370
-1
48
1
60
0
100
AcDbPoint
10
43.56
20
0
30
0
39
0
210
0
220
0
230
1
50
360
0
POINT
5
248
100
AcDbEntity
8
Defpoints
62
0
6
ByLayer
370
-1
48
1
60
0
100
AcDbPoint
10
43.56
20
8.641258
30
0
39
0
210
0
220
0
230
1
50
360
0
ENDBLK
5
23E
100
AcDbEntity
8
0
100
AcDbBlockEnd
0
BLOCK
5
251
100
AcDbEntity
8
0
100
AcDbBlockBegin
2
_U3
70
0
10
0
20
0
30
0
3
_U3
0
MTEXT
5
24A
100
AcDbEntity
8
SK2
62
256
6
ByLayer
370
18
48
1
60
0
100
AcDbMText
10
41.602658
20
16.526373
30
0
210
0
220
0
230
1
1
\W0.7865;3.44
40
3
41
0
44
1.084337
50
0
71
7
72
5
7
iso_b_vert
0
MTEXT
5
24B
100
AcDbEntity
8
SK2
62
256
6
ByLayer
370
18
48
1
60
0
100
AcDbMText
10
41.629158
20
9.423892
30
0
210
0
220
0
230
1
1
\W0.6474;'C'
40
3.5
41
0
44
1.084337
50
0
71
7
72
5
7
iso_b_vert
0
LINE
5
24C
100
AcDbEntity
8
SK2
62
256
6
ByLayer
370
13
48
1
60
0
100
AcDbLine
10
47
20
1.5875
30
0
11
47
21
10.641258
31
0
39
0
210
0
220
0
230
1
0
LINE
5
24D
100
AcDbEntity
8
SK2
62
256
6
ByLayer
370
13
48
1
60
0
100
AcDbLine
10
43.56
20
1.5875
30
0
11
43.56
21
10.641258
31
0
39
0
210
0
220
0
230
1
0
LINE
5
24E
100
AcDbEntity
8
SK2
62
256
6
ByLayer
370
13
48
1
60
0
100
AcDbLine
10
54.5
20
8.641258
30
0
11
36.06
21
8.641258
31
0
39
0
210
0
220
0
230
1
0
SOLID
5
24F
100
AcDbEntity
8
SK2
62
256
6
ByLayer
370
18
48
1
60
0
100
AcDbTrace
10
47
20
8.641258
30
0
11
50.499998
21
9.102042
31
0
12
50.500002
22
8.180475
32
0
13
50.500002
23
8.180475
33
0
39
0
210
0
220
0
230
1
0
SOLID
5
250
100
AcDbEntity
8
SK2
62
256
6
ByLayer
370
18
48
1
60
0
100
AcDbTrace
10
43.56
20
8.641258
30
0
11
40.060002
21
8.180475
31
0
12
40.059998
22
9.102042
32
0
13
40.059998
23
9.102042
33
0
39
0
210
0
220
0
230
1
0
ENDBLK
5
252
100
AcDbEntity
8
0
100
AcDbBlockEnd
0
BLOCK
5
257
100
AcDbEntity
8
0
100
AcDbBlockBegin
2
*D9
70
1
10
0
20
0
30
0
3
*D9
0
LINE
5
259
100
AcDbEntity
8
0
62
256
6
ByLayer
370
-2
48
1
60
0
100
AcDbLine
10
48.5875
20
-4.070629
30
0
11
65.5
21
-4.070629
31
0
39
0
210
0
220
0
230
1
0
LINE
5
25A
100
AcDbEntity
8
0
62
256
6
ByLayer
370
-2
48
1
60
0
100
AcDbLine
10
48.5875
20
4.070629
30
0
11
65.5
21
4.070629
31
0
39
0
210
0
220
0
230
1
0
LINE
5
25B
100
AcDbEntity
8
0
62
256
6
ByLayer
370
-2
48
1
60
0
100
AcDbLine
10
63.5
20
4.070629
30
0
11
63.5
21
34.307554
31
0
39
0
210
0
220
0
230
1
0
LINE
5
25C
100
AcDbEntity
8
0
62
256
6
ByLayer
370
-2
48
1
60
0
100
AcDbLine
10
63.5
20
-7.570629
30
0
11
63.5
21
-11.070629
31
0
39
0
210
0
220
0
230
1
0
LINE
5
25D
100
AcDbEntity
8
0
62
256
6
ByLayer
370
-2
48
1
60
0
100
AcDbLine
10
63.5
20
7.570629
30
0
11
63.5
21
11.070629
31
0
39
0
210
0
220
0
230
1
0
SOLID
5
25E
100
AcDbEntity
8
0
62
256
6
ByLayer
370
-1
48
1
60
0
100
AcDbTrace
10
64.083333
20
-7.570629
30
0
11
62.916667
21
-7.570629
31
0
12
63.5
22
-4.070629
32
0
13
63.5
23
-4.070629
33
0
39
0
210
0
220
0
230
1
0
SOLID
5
25F
100
AcDbEntity
8
0
62
256
6
ByLayer
370
-1
48
1
60
0
100
AcDbTrace
10
62.916667
20
7.570629
30
0
11
64.083333
21
7.570629
31
0
12
63.5
22
4.070629
32
0
13
63.5
23
4.070629
33
0
39
0
210
0
220
0
230
1
0
MTEXT
5
260
100
AcDbEntity
8
0
62
256
6
ByLayer
370
18
48
1
60
0
100
AcDbMText
10
57.5
20
25.164697
30
0
210
0
220
0
230
1
1
\A1;8.14
40
3
41
0
44
1
50
90
71
5
72
5
7
iso_b_vert
0
POINT
5
261
100
AcDbEntity
8
Defpoints
62
0
6
ByLayer
370
-1
48
1
60
0
100
AcDbPoint
10
47
20
-4.070629
30
0
39
0
210
0
220
0
230
1
50
360
0
POINT
5
262
100
AcDbEntity
8
Defpoints
62
0
6
ByLayer
370
-1
48
1
60
0
100
AcDbPoint
10
47
20
4.070629
30
0
39
0
210
0
220
0
230
1
50
360
0
POINT
5
263
100
AcDbEntity
8
Defpoints
62
0
6
ByLayer
370
-1
48
1
60
0
100
AcDbPoint
10
63.5
20
4.070629
30
0
39
0
210
0
220
0
230
1
50
360
0
ENDBLK
5
258
100
AcDbEntity
8
0
100
AcDbBlockEnd
0
BLOCK
5
26C
100
AcDbEntity
8
0
100
AcDbBlockBegin
2
_U4
70
0
10
0
20
0
30
0
3
_U4
0
MTEXT
5
265
100
AcDbEntity
8
2
62
256
6
ByLayer
370
18
48
1
60
0
100
AcDbMText
10
62.908886
20
16.393764
30
0
210
0
220
0
230
1
1
\W0.7203;M8
40
3
41
0
44
1.084337
50
90
71
7
72
5
7
iso_b_vert
0
MTEXT
5
266
100
AcDbEntity
8
2
62
256
6
ByLayer
370
18
48
1
60
0
100
AcDbMText
10
63.060366
20
24.171064
30
0
210
0
220
0
230
1
1
\W0.7506; 6HX
40
3.5
41
0
44
1.084337
50
90
71
7
72
5
7
iso_b_vert
0
LINE
5
267
100
AcDbEntity
8
2
62
256
6
ByLayer
370
13
48
1
60
0
100
AcDbLine
10
48.5875
20
-4.070629
30
0
11
65.5
21
-4.070629
31
0
39
0
210
0
220
0
230
1
0
LINE
5
268
100
AcDbEntity
8
2
62
256
6
ByLayer
370
13
48
1
60
0
100
AcDbLine
10
48.5875
20
4.070629
30
0
11
65.5
21
4.070629
31
0
39
0
210
0
220
0
230
1
0
LINE
5
269
100
AcDbEntity
8
2
62
256
6
ByLayer
370
13
48
1
60
0
100
AcDbLine
10
63.5
20
-4.070629
30
0
11
63.5
21
34.070629
31
0
39
0
210
0
220
0
230
1
0
SOLID
5
26A
100
AcDbEntity
8
2
62
256
6
ByLayer
370
18
48
1
60
0
100
AcDbTrace
10
63.5
20
-4.070629
30
0
11
63.039216
21
-0.570631
31
0
12
63.960784
22
-0.570627
32
0
13
63.960784
23
-0.570627
33
0
39
0
210
0
220
0
230
1
0
SOLID
5
26B
100
AcDbEntity
8
2
62
256
6
ByLayer
370
18
48
1
60
0
100
AcDbTrace
10
63.5
20
4.070629
30
0
11
63.960784
21
0.570631
31
0
12
63.039216
22
0.570627
32
0
13
63.039216
23
0.570627
33
0
39
0
210
0
220
0
230
1
0
ENDBLK
5
26D
100
AcDbEntity
8
0
100
AcDbBlockEnd
0
ENDSEC
0
SECTION
2
ENTITIES
0
ARC
5
B8
100
AcDbEntity
8
SK1
62
256
6
ByLayer
370
18
48
1
60
0
100
AcDbCircle
39
0
10
-17.5
20
0
30
0
40
2.97599999999983
210
0
220
0
230
1
100
AcDbArc
50
327.145797
51
32.854203
0
ARC
5
B9
100
AcDbEntity
8
1
62
256
6
ByLayer
370
18
48
1
60
0
100
AcDbCircle
39
0
10
32.101925
20
4.2
30
0
40
1.1
210
0
220
0
230
1
100
AcDbArc
50
270
51
300
0
POINT
5
70
100
AcDbEntity
8
80
62
256
6
ByLayer
370
18
48
1
60
0
100
AcDbPoint
10
0
20
0
30
0
39
0
210
0
220
0
230
1
50
360
0
POINT
5
72
100
AcDbEntity
8
81
62
256
6
ByLayer
370
18
48
1
60
0
100
AcDbPoint
10
47
20
0
30
0
39
0
210
0
220
0
230
1
50
360
0
POINT
5
74
100
AcDbEntity
8
1
62
256
6
ByLayer
370
18
48
1
60
1
100
AcDbPoint
10
-23
20
0
30
0
39
0
210
0
220
0
230
1
50
360
0
POINT
5
76
100
AcDbEntity
8
1
62
256
6
ByLayer
370
18
48
1
60
1
100
AcDbPoint
10
47
20
0
30
0
39
0
210
0
220
0
230
1
50
360
0
POINT
5
77
100
AcDbEntity
8
1
62
256
6
ByLayer
370
18
48
1
60
1
100
AcDbPoint
10
47
20
0
30
0
39
0
210
0
220
0
230
1
50
360
0
POINT
5
78
100
AcDbEntity
8
1
62
256
6
ByLayer
370
18
48
1
60
1
100
AcDbPoint
10
17.25
20
0
30
0
39
0
210
0
220
0
230
1
50
360
0
POINT
5
79
100
AcDbEntity
8
1
62
256
6
ByLayer
370
18
48
1
60
1
100
AcDbPoint
10
47
20
0
30
0
39
0
210
0
220
0
230
1
50
360
0
POINT
5
7A
100
AcDbEntity
8
1
62
256
6
ByLayer
370
18
48
1
60
1
100
AcDbPoint
10
34
20
-2.95
30
0
39
0
210
0
220
0
230
1
50
360
0
POINT
5
7B
100
AcDbEntity
8
1
62
256
6
ByLayer
370
18
48
1
60
1
100
AcDbPoint
10
47
20
0
30
0
39
0
210
0
220
0
230
1
50
360
0
POINT
5
7C
100
AcDbEntity
8
1
62
256
6
ByLayer
370
18
48
1
60
1
100
AcDbPoint
10
43.56
20
0
30
0
39
0
210
0
220
0
230
1
50
360
0
POINT
5
7D
100
AcDbEntity
8
1
62
256
6
ByLayer
370
18
48
1
60
1
100
AcDbPoint
10
47
20
-4.070629
30
0
39
0
210
0
220
0
230
1
50
360
0
POINT
5
7E
100
AcDbEntity
8
1
62
256
6
ByLayer
370
18
48
1
60
1
100
AcDbPoint
10
47
20
4.070629
30
0
39
0
210
0
220
0
230
1
50
360
0
SPLINE
5
BA
100
AcDbEntity
8
1
62
256
6
ByLayer
370
18
48
1
60
0
100
AcDbSpline
70
4
71
3
72
8
73
4
40
0
40
0
40
0
40
0
40
1
40
1
40
1
40
1
41
1
10
46.2765613915263
20
3.35352137803992
30
0
41
1
10
46.2806172703259
20
3.36050050014086
30
0
41
1
10
46.2846680596995
20
3.36557675268739
30
0
41
1
10
46.2887153911952
20
3.36874594520813
30
0
0
SPLINE
5
BB
100
AcDbEntity
8
1
62
256
6
ByLayer
370
13
48
1
60
0
100
AcDbSpline
70
4
71
3
72
8
73
4
40
0
40
0
40
0
40
0
40
1
40
1
40
1
40
1
41
1
10
46.2824145156401
20
3.35802221718336
30
0
41
1
10
46.2786414724538
20
3.35518104091159
30
0
41
1
10
46.2748635438033
20
3.35053766451432
30
0
41
1
10
46.2710796670855
20
3.34408389506828
30
0
0
SPLINE
5
BC
100
AcDbEntity
8
1
62
256
6
ByLayer
370
13
48
1
60
0
100
AcDbSpline
70
4
71
3
72
8
73
4
40
0
40
0
40
0
40
0
40
1
40
1
40
1
40
1
41
1.04
10
44.1298885012438
20
-3.33135309632569
30
0
41
1.04
10
44.12385133552
20
-3.34499881827744
30
0
41
1.04
10
44.1178397880882
20
-3.35398262523441
30
0
41
1.04
10
44.1118484653723
20
-3.35838832316814
30
0
0
SPLINE
5
BD
100
AcDbEntity
8
1
62
256
6
ByLayer
370
18
48
1
60
0
100
AcDbSpline
70
4
71
3
72
10
73
6
40
0
40
0
40
0
40
0
40
0.814829978022746
40
0.814829978022746
40
1
40
1
40
1
40
1
41
1
10
43.5324629863023
20
-4.0051263169907
30
0
41
1
10
43.5390505327881
20
-4.00960763647842
30
0
41
1
10
43.5455338711398
20
-4.00783778648659
30
0
41
1
10
43.5534423351596
20
-3.99821087777866
30
0
41
1
10
43.5549048097912
20
-3.99611463927189
30
0
41
1
10
43.5563665755158
20
-3.99370540671447
30
0
0
SPLINE
5
BE
100
AcDbEntity
8
1
62
256
6
ByLayer
370
18
48
1
60
0
100
AcDbSpline
70
4
71
3
72
8
73
4
40
0
40
0
40
0
40
0
40
1
40
1
40
1
40
1
41
1
10
43.7790046948559
20
-3.93712528949683
30
0
41
1
10
43.7731417936799
20
-3.94704909710814
30
0
41
1
10
43.7673134494321
20
-3.95148597670433
30
0
41
1
10
43.761533592119
20
-3.95036725359364
30
0
0
SPLINE
5
BF
100
AcDbEntity
8
1
62
256
6
ByLayer
370
18
48
1
60
0
100
AcDbSpline
70
4
71
3
72
8
73
4
40
0
40
0
40
0
40
0
40
1
40
1
40
1
40
1
41
1
10
43.1650996615286
20
-3.36209206323332
30
0
41
1
10
43.161436798028
20
-3.36170452465544
30
0
41
1
10
43.1577814640608
20
-3.35961529213247
30
0
41
1
10
43.1541333997326
20
-3.35584793604494
30
0
0
SPLINE
5
C0
100
AcDbEntity
8
1
62
256
6
ByLayer
370
13
48
1
60
0
100
AcDbSpline
70
4
71
3
72
8
73
4
40
0
40
0
40
0
40
0
40
1
40
1
40
1
40
1
41
1.04
10
42.8712132820502
20
-3.34836640559078
30
0
41
1.04
10
42.8587471109744
20
-3.36734772072616
30
0
41
1.04
10
42.846371849459
20
-3.36644801489813
30
0
41
1.04
10
42.8340774655882
20
-3.34656016142578
30
0
0
SPLINE
5
C1
100
AcDbEntity
8
1
62
256
6
ByLayer
370
18
48
1
60
0
100
AcDbSpline
70
4
71
3
72
12
73
8
40
0
40
0
40
0
40
0
40
0.380752193613332
40
0.380752193613332
40
0.690376096806666
40
0.690376096806666
40
1
40
1
40
1
40
1
41
1
10
42.4434619460406
20
-4.07063157396877
30
0
41
1
10
42.4395390475352
20
-4.07063284866231
30
0
41
1
10
42.4356111672718
20
-4.06828747878197
30
0
41
1
10
42.4284701561557
20
-4.05970753294613
30
0
41
1
10
42.4252531132269
20
-4.05425719769497
30
0
41
1
10
42.4188571925999
20
-4.04028247625362
30
0
41
1
10
42.4156721653343
20
-4.03175759345459
30
0
41
1
10
42.4124921974202
20
-4.0217219970998
30
0
0
SPLINE
5
C2
100
AcDbEntity
8
1
62
256
6
ByLayer
370
18
48
1
60
0
100
AcDbSpline
70
4
71
3
72
14
73
10
40
0
40
0
40
0
40
0
40
0.570895312046672
40
0.570895312046672
40
0.71361914005834
40
0.71361914005834
40
0.856342968070007
40
0.856342968070007
40
1
40
1
40
1
40
1
41
1
10
42.2921047727083
20
-4.01313951870122
30
0
41
1
10
42.2984451648243
20
-4.03481277594875
30
0
41
1
10
42.3047712092872
20
-4.05045634543148
30
0
41
1
10
42.3126928125317
20
-4.06228256511002
30
0
41
1
10
42.31427800411
20
-4.06426054130512
30
0
41
1
10
42.3174515570391
20
-4.06743364675918
30
0
41
1
10
42.3190408899935
20
-4.06862816768594
30
0
41
1
10
42.322217613364
20
-4.07022552550836
30
0
41
1
10
42.3238069810691
20
-4.07062595931839
30
0
41
1
10
42.3253931019628
20
-4.07062932629751
30
0
0
SPLINE
5
C3
100
AcDbEntity
8
1
62
256
6
ByLayer
370
13
48
1
60
0
100
AcDbSpline
70
4
71
3
72
9
73
5
40
0
40
0
40
0
40
0
40
0.965499386974681
40
1
40
1
40
1
40
1
41
1
10
41.8993971777391
20
-3.34983421248634
30
0
41
1
10
41.8919784338589
20
-3.33917061413663
30
0
41
1
10
41.8843729129939
20
-3.32102526982848
30
0
41
1
10
41.8768381089592
20
-3.29606028391305
30
0
41
1
10
41.8765782374602
20
-3.2951908800691
30
0
0
SPLINE
5
C4
100
AcDbEntity
8
1
62
256
6
ByLayer
370
13
48
1
60
0
100
AcDbSpline
70
4
71
3
72
9
73
5
40
0
40
0
40
0
40
0
40
0.864627990504442
40
1
40
1
40
1
40
1
41
1.04
10
41.6227058169731
20
-3.34588981798004
30
0
41
1.04
10
41.603011287481
20
-3.37837846947925
30
0
41
1.04
10
41.5809239355583
20
-3.35784460818167
30
0
41
1.04
10
41.5594165810367
20
-3.28126211360589
30
0
41
1.04
10
41.5565152699177
20
-3.26989732147766
30
0
0
SPLINE
5
C5
100
AcDbEntity
8
1
62
256
6
ByLayer
370
18
48
1
60
0
100
AcDbSpline
70
4
71
3
72
17
73
13
40
0
40
0
40
0
40
0
40
0.310557166145152
40
0.310557166145152
40
0.388196457681439
40
0.388196457681439
40
0.465835749217726
40
0.465835749217726
40
0.621114332290301
40
0.621114332290301
40
0.931671498435452
40
1
40
1
40
1
40
1
41
1
10
41.0138712580222
20
-3.87908353265149
30
0
41
1
10
41.0201434904297
20
-3.91824285829716
30
0
41
1
10
41.026451209652
20
-3.95161854433025
30
0
41
1
10
41.0344682235215
20
-3.9859373826875
30
0
41
1
10
41.0360784713477
20
-3.99243030261252
30
0
41
1
10
41.0393111940044
20
-4.00466686516657
30
0
41
1
10
41.0409358780117
20
-4.01041742115686
30
0
41
1
10
41.0458055461148
20
-4.02646565269512
30
0
41
1
10
41.0490469370669
20
-4.03556963515084
30
0
41
1
10
41.0587437257128
20
-4.05819068764322
30
0
41
1
10
41.0665836498739
20
-4.06897189360279
30
0
41
1
10
41.0743537871484
20
-4.07062892679392
30
0
41
1
10
41.0757530257516
20
-4.07063043391659
30
0
0
SPLINE
5
C6
100
AcDbEntity
8
1
62
256
6
ByLayer
370
18
48
1
60
0
100
AcDbSpline
70
4
71
3
72
16
73
12
40
0
40
0
40
0
40
0
40
0.0269537356423945
40
0.0269537356423945
40
0.351302490428262
40
0.675651245214129
40
0.675651245214129
40
0.756738433910597
40
0.756738433910597
40
0.837825622607065
40
1
40
1
40
1
40
1
41
1
10
41.1933492291632
20
-4.0706293999915
30
0
41
1
10
41.1928213268684
20
-4.07062823512911
30
0
41
1
10
41.1922936947338
20
-4.07058467260006
30
0
41
1
10
41.1854202571505
20
-4.06946549334995
30
0
41
1
10
41.1728068256959
20
-4.05514414025672
30
0
41
1
10
41.1602376133574
20
-4.01627377924831
30
0
41
1
10
41.1523100842684
20
-3.98408213817305
30
0
41
1
10
41.1507192598582
20
-3.97724005489397
30
0
41
1
10
41.1475372588285
20
-3.96279301374372
30
0
41
1
10
41.1427709553438
20
-3.94001327159086
30
0
41
1
10
41.1380189661788
20
-3.91394496025211
30
0
41
1
10
41.1348535072589
20
-3.8951289503365
30
0
0
SPLINE
5
C7
100
AcDbEntity
8
1
62
256
6
ByLayer
370
13
48
1
60
0
100
AcDbSpline
70
4
71
3
72
9
73
5
40
0
40
0
40
0
40
0
40
0.425027510844336
40
1
40
1
40
1
40
1
41
1
10
40.6446913896284
20
-3.34236196372436
30
0
41
1
10
40.6381689189243
20
-3.33060922608351
30
0
41
1
10
40.6228326692421
20
-3.29030910862059
30
0
41
1
10
40.6075140240548
20
-3.22024878306391
30
0
41
1
10
40.5987067446156
20
-3.17060679081237
30
0
0
SPLINE
5
C8
100
AcDbEntity
8
1
62
256
6
ByLayer
370
13
48
1
60
0
100
AcDbSpline
70
4
71
3
72
9
73
5
40
0
40
0
40
0
40
0
40
0.635958016768903
40
1
40
1
40
1
40
1
41
1.04
10
40.3732650449002
20
-3.34428561273982
30
0
41
1.04
10
40.3531370946631
20
-3.37850379212855
30
0
41
1.04
10
40.3215786365833
20
-3.35237797683491
30
0
41
1.04
10
40.290094607613
20
-3.20035506236245
30
0
41
1.04
10
40.2786312731881
20
-3.12937251807165
30
0
0
SPLINE
5
C9
100
AcDbEntity
8
1
62
256
6
ByLayer
370
18
48
1
60
0
100
AcDbSpline
70
4
71
3
72
23
73
19
40
0
40
0
40
0
40
0
40
0.0105314800682584
40
0.0105314800682584
40
0.0655019533977999
40
0.0655019533977999
40
0.120472426727341
40
0.120472426727341
40
0.340354320045506
40
0.340354320045506
40
0.560236213363672
40
0.560236213363672
40
0.780118106681837
40
0.780118106681837
40
0.835088580011378
40
0.835088580011378
40
0.890059053340918
40
1
40
1
40
1
40
1
41
1
10
39.9431264087934
20
-4.07062917265523
30
0
41
1
10
39.9428242918026
20
-4.07062864627972
30
0
41
1
10
39.9425221584627
20
-4.07061374091128
30
0
41
1
10
39.9406428668629
20
-4.07043143739423
30
0
41
1
10
39.9390640309506
20
-4.06988410023837
30
0
41
1
10
39.9359201005906
20
-4.06800850473789
30
0
41
1
10
39.9343530334862
20
-4.06668065600144
30
0
41
1
10
39.9265368436798
20
-4.05811123469945
30
0
41
1
10
39.920347014372
20
-4.04509254419642
30
0
41
1
10
39.907927180147
20
-4.0070211225005
30
0
41
1
10
39.9016806198293
20
-3.9819680077797
30
0
41
1
10
39.8890320216814
20
-3.91978921971571
30
0
41
1
10
39.8826464635078
20
-3.88266436536233
30
0
41
1
10
39.8745934086532
20
-3.82847882026269
30
0
41
1
10
39.872977053349
20
-3.81723639191506
30
0
41
1
10
39.8697518021652
20
-3.79407272894827
30
0
41
1
10
39.8649223125482
20
-3.75829322371021
30
0
41
1
10
39.8601162635059
20
-3.71944664724731
30
0
41
1
10
39.8569200162315
20
-3.69220747195334
30
0
0
SPLINE
5
CA
100
AcDbEntity
8
1
62
256
6
ByLayer
370
18
48
1
60
0
100
AcDbSpline
70
4
71
3
72
17
73
13
40
0
40
0
40
0
40
0
40
0.213184715042899
40
0.213184715042899
40
0.319777072564348
40
0.319777072564348
40
0.426369430085797
40
0.426369430085797
40
0.639554145128696
40
0.852738860171595
40
0.852738860171595
40
1
40
1
40
1
40
1
41
1
10
39.7363177228504
20
-3.66936573133645
30
0
41
1
10
39.7427208977742
20
-3.7252183998765
30
0
41
1
10
39.7491342090972
20
-3.77563083264224
30
0
41
1
10
39.7587732061978
20
-3.84290905820387
30
0
41
1
10
39.7619925369161
20
-3.86396075040699
30
0
41
1
10
39.7684287890491
20
-3.90314286034234
30
0
41
1
10
39.7716256181827
20
-3.92115369465503
30
0
41
1
10
39.7811615325823
20
-3.97054156642486
30
0
41
1
10
39.7937286879589
20
-4.02402764243209
30
0
41
1
10
39.8061453776051
20
-4.05327134166467
30
0
41
1
10
39.8166707583519
20
-4.06767214032953
30
0
41
1
10
39.8209788374225
20
-4.07064333177559
30
0
41
1
10
39.8253200700238
20
-4.07063122705867
30
0
0
SPLINE
5
CB
100
AcDbEntity
8
1
62
256
6
ByLayer
370
13
48
1
60
0
100
AcDbSpline
70
4
71
3
72
8
73
4
40
0
40
0
40
0
40
0
40
1
40
1
40
1
40
1
41
1
10
39.3972472609514
20
-3.34655113364468
30
0
41
1
10
39.3720464169932
20
-3.30539010309943
30
0
41
1
10
39.3467124096265
20
-3.18374939788885
30
0
41
1
10
39.3210397450862
20
-2.98474288059157
30
0
0
SPLINE
5
CC
100
AcDbEntity
8
1
62
256
6
ByLayer
370
13
48
1
60
0
100
AcDbSpline
70
4
71
3
72
9
73
5
40
0
40
0
40
0
40
0
40
0.56899361847004
40
1
40
1
40
1
40
1
41
1.04
10
33.6081073623443
20
2.66948470932088
30
0
41
1.04
10
33.5876116890044
20
2.88012475305789
30
0
41
1.04
10
33.5513183783734
20
3.17848662780829
30
0
41
1.04
10
33.5140146760814
20
3.31838052498538
30
0
41
1.04
10
33.4977737207147
20
3.34550621630914
30
0
0
SPLINE
5
CD
100
AcDbEntity
8
1
62
256
6
ByLayer
370
18
48
1
60
0
100
AcDbSpline
70
4
71
3
72
26
73
22
40
0
40
0
40
0
40
0
40
0.142984295898096
40
0.142984295898096
40
0.214476443847143
40
0.250222517821667
40
0.250222517821667
40
0.285968591796191
40
0.285968591796191
40
0.428952887694287
40
0.428952887694287
40
0.571937183592384
40
0.571937183592384
40
0.71492147949048
40
0.71492147949048
40
0.786413627439528
40
0.786413627439528
40
0.822159701414052
40
0.822159701414052
40
0.857905775388576
40
1
40
1
40
1
40
1
41
1
10
33.4164850634409
20
2.95673092458173
30
0
41
1
10
33.4120023143884
20
3.02121502461642
30
0
41
1
10
33.407524705811
20
3.08161157135135
30
0
41
1
10
33.4007751877795
20
3.16597304952754
30
0
41
1
10
33.3973920190759
20
3.20659301805316
30
0
41
1
10
33.3939874642032
20
3.24482953955513
30
0
41
1
10
33.3917119643295
20
3.26978448016402
30
0
41
1
10
33.3905714438285
20
3.28199156635589
30
0
41
1
10
33.3848818949352
20
3.34136578021372
30
0
41
1
10
33.3803476170073
20
3.38382673528918
30
0
41
1
10
33.3712552407348
20
3.45893739702618
30
0
41
1
10
33.3666922944182
20
3.49158375261359
30
0
41
1
10
33.3575506903313
20
3.54711495841838
30
0
41
1
10
33.3529742542262
20
3.57000136516015
30
0
41
1
10
33.3460869096117
20
3.59685278881437
30
0
41
1
10
33.3437869553214
20
3.60455472561927
30
0
41
1
10
33.3403255512211
20
3.61419413891588
30
0
41
1
10
33.3391715846197
20
3.61708251553441
30
0
41
1
10
33.3368702430525
20
3.62219373294357
30
0
41
1
10
33.3311567901453
20
3.63326739437889
30
0
41
1
10
33.3254746860418
20
3.63627214902615
30
0
41
1
10
33.3209417338333
20
3.6336288724136
30
0
0
SPLINE
5
CE
100
AcDbEntity
8
1
62
256
6
ByLayer
370
13
48
1
60
0
100
AcDbSpline
70
4
71
3
72
9
73
5
40
0
40
0
40
0
40
0
40
0.0211362849129092
40
1
40
1
40
1
40
1
41
1.04
10
39.11657983813
20
-3.35466685253602
30
0
41
1.04
10
39.1157727766758
20
-3.3555848912215
30
0
41
1.04
10
39.0775870267127
20
-3.39504231381984
30
0
41
1.04
10
39.0392760835308
20
-3.24593950945135
30
0
41
1.04
10
39.000978720383
20
-2.92908744815545
30
0
0
SPLINE
5
CF
100
AcDbEntity
8
1
62
256
6
ByLayer
370
13
48
1
60
0
100
AcDbSpline
70
4
71
3
72
9
73
5
40
0
40
0
40
0
40
0
40
0.512628099782108
40
1
40
1
40
1
40
1
41
1
10
38.1482252705586
20
-3.34769190074383
30
0
41
1
10
38.130109178364
20
-3.31991723878471
30
0
41
1
10
38.0949385622233
20
-3.18604421100341
30
0
41
1
10
38.0601803556411
20
-2.90590652327262
30
0
41
1
10
38.0433188373962
20
-2.74061400349757
30
0
0
SPLINE
5
D0
100
AcDbEntity
8
1
62
256
6
ByLayer
370
18
48
1
60
0
100
AcDbSpline
70
4
71
3
72
25
73
21
40
0
40
0
40
0
40
0
40
0.162482227336869
40
0.162482227336869
40
0.243723341005303
40
0.243723341005303
40
0.324964454673738
40
0.324964454673738
40
0.487446682010608
40
0.487446682010608
40
0.649928909347478
40
0.649928909347478
40
0.812411136684348
40
0.812411136684348
40
0.853031693518565
40
0.853031693518565
40
0.893652250352783
40
0.974893364021218
40
0.974893364021218
40
1
40
1
40
1
40
1
41
1
10
38.4585417466445
20
-3.38873351229341
30
0
41
1
10
38.4647720292836
20
-3.46010673634683
30
0
41
1
10
38.4710017318462
20
-3.52648048666987
30
0
41
1
10
38.4804220013066
20
-3.61838619788443
30
0
41
1
10
38.4835751725365
20
-3.6477434594452
30
0
41
1
10
38.4899260646548
20
-3.70384847075056
30
0
41
1
10
38.4931025738552
20
-3.73040592060397
30
0
41
1
10
38.5026447242473
20
-3.80550524182001
30
0
41
1
10
38.5090540784331
20
-3.84956395377958
30
0
41
1
10
38.5219045748828
20
-3.92592546005275
30
0
41
1
10
38.5283347327643
20
-3.95822797885336
30
0
41
1
10
38.5411480600044
20
-4.01101129285533
30
0
41
1
10
38.5475312455769
20
-4.0314930822494
30
0
41
1
10
38.5554954687979
20
-4.04945898990309
30
0
41
1
10
38.5570867150598
20
-4.05266588779256
30
0
41
1
10
38.5602522182588
20
-4.058281100415
30
0
41
1
10
38.5649812715401
20
-4.06552037945792
30
0
41
1
10
38.5696593886014
20
-4.06924678106552
30
0
41
1
10
38.5737222842807
20
-4.07048503346255
30
0
41
1
10
38.5746799733777
20
-4.07063068168748
30
0
41
1
10
38.5756364842126
20
-4.07062985690661
30
0
0
SPLINE
5
D1
100
AcDbEntity
8
1
62
256
6
ByLayer
370
18
48
1
60
0
100
AcDbSpline
70
4
71
3
72
25
73
21
40
0
40
0
40
0
40
0
40
0.0031573921047108
40
0.0031573921047108
40
0.169297826753926
40
0.169297826753926
40
0.252368044078534
40
0.252368044078534
40
0.293903152740837
40
0.293903152740837
40
0.335438261403141
40
0.501578696052356
40
0.667719130701571
40
0.667719130701571
40
0.833859565350785
40
0.833859565350785
40
0.875394674013089
40
0.875394674013089
40
0.916929782675393
40
1
40
1
40
1
40
1
41
1
10
38.693592848097
20
-4.07062915868676
30
0
41
1
10
38.6934718674637
20
-4.07062939229198
30
0
41
1
10
38.6933508752687
20
-4.07062742470961
30
0
41
1
10
38.6868627128524
20
-4.07040391444005
30
0
41
1
10
38.6804708692841
20
-4.06409112126704
30
0
41
1
10
38.670855056516
20
-4.0453011680948
30
0
41
1
10
38.6676447982269
20
-4.03748176865182
30
0
41
1
10
38.6628201090892
20
-4.0233708292495
30
0
41
1
10
38.6612123848218
20
-4.0182750649102
30
0
41
1
10
38.6580100508394
20
-4.00734459600943
30
0
41
1
10
38.6500274594368
20
-3.97814138812024
30
0
41
1
10
38.6358565536074
20
-3.90891294715834
30
0
41
1
10
38.6234085341227
20
-3.82420185123058
30
0
41
1
10
38.610943162554
20
-3.72784841324051
30
0
41
1
10
38.6047016481418
20
-3.67385149978267
30
0
41
1
10
38.5968185529838
20
-3.5988435811673
30
0
41
1
10
38.5952372901662
20
-3.58345916058849
30
0
41
1
10
38.5920818476451
20
-3.55210324519499
30
0
41
1
10
38.5873529809742
20
-3.50412928286369
30
0
41
1
10
38.582628838814
20
-3.4533659469185
30
0
41
1
10
38.5794747842548
20
-3.4183029996976
30
0
0
SPLINE
5
D2
100
AcDbEntity
8
1
62
256
6
ByLayer
370
18
48
1
60
0
100
AcDbSpline
70
4
71
3
72
8
73
4
40
0
40
0
40
0
40
0
40
1
40
1
40
1
40
1
41
1.04
10
37.8681211672558
20
-3.35252500292861
30
0
41
1.04
10
37.8638509388584
20
-3.35782527971333
30
0
41
1.04
10
37.8595847732596
20
-3.36080190005442
30
0
41
1.04
10
37.8553229505044
20
-3.36148524175791
30
0
0
SPLINE
5
D3
100
AcDbEntity
8
1
62
256
6
ByLayer
370
13
48
1
60
0
100
AcDbSpline
70
4
71
3
72
10
73
6
40
0
40
0
40
0
40
0
40
0.551372987259243
40
0.957713213854385
40
1
40
1
40
1
40
1
41
1.04
10
37.855322908488
20
-3.36148524849473
30
0
41
1.04
10
37.8307363856225
20
-3.36542737065976
30
0
41
1.04
10
37.7882816158216
20
-3.23970315295196
30
0
41
1.04
10
37.7445770135953
20
-2.88636289424028
30
0
41
1.04
10
37.7250741632383
20
-2.68952311652566
30
0
41
1.04
10
37.7232366548849
20
-2.67063603687446
30
0
0
SPLINE
5
D4
100
AcDbEntity
8
1
62
256
6
ByLayer
370
13
48
1
60
0
100
AcDbSpline
70
4
71
3
72
9
73
5
40
0
40
0
40
0
40
0
40
0.17338182753016
40
1
40
1
40
1
40
1
41
1
10
36.890976955702
20
-3.3346991558436
30
0
41
1
10
36.8834850140454
20
-3.31861316330205
30
0
41
1
10
36.840613962051
20
-3.18583739331555
30
0
41
1
10
36.799415730525
20
-2.83656650258729
30
0
41
1
10
36.7655510745686
20
-2.44324569632786
30
0
0
SPLINE
5
D5
100
AcDbEntity
8
1
62
256
6
ByLayer
370
18
48
1
60
0
100
AcDbSpline
70
4
71
3
72
26
73
22
40
0
40
0
40
0
40
0
40
0.130978099594983
40
0.130978099594983
40
0.196467149392474
40
0.196467149392474
40
0.229211674291219
40
0.229211674291219
40
0.261956199189965
40
0.392934298784946
40
0.523912398379927
40
0.523912398379927
40
0.654890497974907
40
0.654890497974907
40
0.687635022873653
40
0.687635022873653
40
0.720379547772398
40
0.785868597569888
40
0.785868597569888
40
0.916846697164868
40
1
40
1
40
1
40
1
41
1
10
37.1805708900567
20
-3.04070361011642
30
0
41
1
10
37.1868671773581
20
-3.12627130624441
30
0
41
1
10
37.1931730067065
20
-3.20736221234398
30
0
41
1
10
37.2026851867028
20
-3.32215565932333
30
0
41
1
10
37.2058649475026
20
-3.35927773882651
30
0
41
1
10
37.2106541616545
20
-3.41321291810095
30
0
41
1
10
37.2122538297656
20
-3.43089856358444
30
0
41
1
10
37.2154433441265
20
-3.46549507724456
30
0
41
1
10
37.2234033969251
20
-3.5501705294468
30
0
41
1
10
37.2376329392195
20
-3.68647051454721
30
0
41
1
10
37.2502686145165
20
-3.78522942170503
30
0
41
1
10
37.2629492752603
20
-3.87274516243772
30
0
41
1
10
37.2693124547719
20
-3.91088236525721
30
0
41
1
10
37.2773140517911
20
-3.95130472187628
30
0
41
1
10
37.2789184099989
20
-3.95903301394418
30
0
41
1
10
37.2821155500324
20
-3.9736827109954
30
0
41
1
10
37.2868986093775
20
-3.99447271629273
30
0
41
1
10
37.291644352245
20
-4.01174852954571
30
0
41
1
10
37.3010934122443
20
-4.04168747140582
30
0
41
1
10
37.3112975118975
20
-4.06428007106163
30
0
41
1
10
37.3214505296356
20
-4.07063675193879
30
0
41
1
10
37.3253998470233
20
-4.07063143356746
30
0
0
SPLINE
5
D6
100
AcDbEntity
8
1
62
256
6
ByLayer
370
18
48
1
60
0
100
AcDbSpline
70
4
71
3
72
26
73
22
40
0
40
0
40
0
40
0
40
0.0664628247211481
40
0.0664628247211481
40
0.199825278332412
40
0.333187731943677
40
0.333187731943677
40
0.399868958749309
40
0.399868958749309
40
0.466550185554941
40
0.466550185554941
40
0.599912639166206
40
0.599912639166206
40
0.733275092777471
40
0.733275092777471
40
0.866637546388736
40
0.866637546388736
40
0.899978159791552
40
0.899978159791552
40
0.933318773194368
40
1
40
1
40
1
40
1
41
1
10
37.4431760050691
20
-4.07063196952444
30
0
41
1
10
37.4399690998664
20
-4.07063776612694
30
0
41
1
10
37.4367805531593
20
-4.06910748906546
30
0
41
1
10
37.427251603589
20
-4.05996447569367
30
0
41
1
10
37.4146867082052
20
-4.03559240044967
30
0
41
1
10
37.4023189043563
20
-3.98702415271853
30
0
41
1
10
37.3930165929587
20
-3.94132958259959
30
0
41
1
10
37.3899096240893
20
-3.9245439538451
30
0
41
1
10
37.3836650518996
20
-3.88784004574362
30
0
41
1
10
37.3805505328152
20
-3.86805912146559
30
0
41
1
10
37.3711858065354
20
-3.80451839413087
30
0
41
1
10
37.3648945328501
20
-3.75657045407044
30
0
41
1
10
37.3522471769786
20
-3.64972887337453
30
0
41
1
10
37.3458963940455
20
-3.59083475649572
30
0
41
1
10
37.3331555764327
20
-3.46202930559196
30
0
41
1
10
37.3267659847792
20
-3.39211894046667
30
0
41
1
10
37.318726978464
20
-3.29761004074902
30
0
41
1
10
37.3171196985411
20
-3.27838967023922
30
0
41
1
10
37.3139151418083
20
-3.23942876524282
30
0
41
1
10
37.3091189616983
20
-3.18015610834001
30
0
41
1
10
37.3043525279907
20
-3.11841562630255
30
0
41
1
10
37.3011856936648
20
-3.07617425062696
30
0
0
SPLINE
5
D7
100
AcDbEntity
8
1
62
256
6
ByLayer
370
13
48
1
60
0
100
AcDbSpline
70
4
71
3
72
10
73
6
40
0
40
0
40
0
40
0
40
0.494912313769659
40
0.860879152457894
40
1
40
1
40
1
40
1
41
1
10
33.9282482207645
20
2.59575825282792
30
0
41
1
10
33.9051149205422
20
2.84430407651249
30
0
41
1
10
33.8645808498236
20
3.18835618741107
30
0
41
1
10
33.8160261762325
20
3.35685899483758
30
0
41
1
10
33.7911298828988
20
3.36403058247248
30
0
41
1
10
33.7842378251092
20
3.35994291603763
30
0
0
SPLINE
5
D8
100
AcDbEntity
8
1
62
256
6
ByLayer
370
13
48
1
60
0
100
AcDbSpline
70
4
71
3
72
10
73
6
40
0
40
0
40
0
40
0
40
0.0641152322533496
40
0.893502851689068
40
1
40
1
40
1
40
1
41
1.04
10
34.886088973121
20
2.35651941014155
30
0
41
1.04
10
34.8834225702647
20
2.38868773368186
30
0
41
1.04
10
34.8462026548307
20
2.82887246067963
30
0
41
1.04
10
34.8036713674712
20
3.18625063001194
30
0
41
1.04
10
34.7620543656541
20
3.31410568993465
30
0
41
1.04
10
34.7572937277399
20
3.3258659632897
30
0
0
SPLINE
5
D9
100
AcDbEntity
8
1
62
256
6
ByLayer
370
18
48
1
60
0
100
AcDbSpline
70
4
71
3
72
24
73
20
40
0
40
0
40
0
40
0
40
0.125000000000001
40
0.250000000000003
40
0.250000000000003
40
0.281250000000003
40
0.281250000000003
40
0.312500000000003
40
0.375000000000003
40
0.375000000000003
40
0.500000000000002
40
0.625000000000002
40
0.625000000000002
40
0.687500000000002
40
0.687500000000002
40
0.750000000000002
40
0.750000000000002
40
0.875000000000001
40
1
40
1
40
1
40
1
41
1
10
34.4710792135005
20
2.93101556819477
30
0
41
1
10
34.4648289088657
20
3.02012113383142
30
0
41
1
10
34.452259999804
20
3.18929495988888
30
0
41
1
10
34.4395966818375
20
3.34034270054485
30
0
41
1
10
34.4316376519419
20
3.42890847898411
30
0
41
1
10
34.4300413637312
20
3.44635175755988
30
0
41
1
10
34.426857052283
20
3.48050026753035
30
0
41
1
10
34.4220918848602
20
3.53063086005366
30
0
41
1
10
34.4173565506328
20
3.5775218612111
30
0
41
1
10
34.4079132529241
20
3.66705325186854
30
0
41
1
10
34.3953959204469
20
3.77511211238485
30
0
41
1
10
34.3828752713337
20
3.86079952412601
30
0
41
1
10
34.3734276374483
20
3.91654690638535
30
0
41
1
10
34.3702689401875
20
3.93370731767655
30
0
41
1
10
34.3639243662751
20
3.9651327152196
30
0
41
1
10
34.360733699898
20
3.97940660479429
30
0
41
1
10
34.3512179938755
20
4.01741700596179
30
0
41
1
10
34.3386255469994
20
4.05564134602184
30
0
41
1
10
34.3261471485406
20
4.06960816591405
30
0
41
1
10
34.3198949375641
20
4.07052541224908
30
0
0
SPLINE
5
DA
100
AcDbEntity
8
1
62
256
6
ByLayer
370
18
48
1
60
0
100
AcDbSpline
70
4
71
3
72
28
73
24
40
0
40
0
40
0
40
0
40
0.125
40
0.125
40
0.25
40
0.25
40
0.3125
40
0.34375
40
0.34375
40
0.375
40
0.375
40
0.5
40
0.5
40
0.624999999999999
40
0.749999999999999
40
0.749999999999999
40
0.781249999999999
40
0.781249999999999
40
0.812499999999999
40
0.812499999999999
40
0.875
40
0.875
40
1
40
1
40
1
40
1
41
1
10
34.1992956399589
20
4.07055396002946
30
0
41
1
10
34.2056051189063
20
4.07133819269083
30
0
41
1
10
34.2118760522398
20
4.06599894244664
30
0
41
1
10
34.2244181714313
20
4.04327881160162
30
0
41
1
10
34.230678798219
20
4.02589773769904
30
0
41
1
10
34.2400735216063
20
3.99070382379182
30
0
41
1
10
34.244772654354
20
3.97082251920571
30
0
41
1
10
34.2494867175422
20
3.94746215259866
30
0
41
1
10
34.2526348108306
20
3.93110700086004
30
0
41
1
10
34.2542136300636
20
3.92252635220143
30
0
41
1
10
34.2620921595483
20
3.87784767170243
30
0
41
1
10
34.2683615857004
20
3.83641239334898
30
0
41
1
10
34.2809505484304
20
3.74251989018759
30
0
41
1
10
34.2935658832573
20
3.63760287963186
30
0
41
1
10
34.3062487796535
20
3.51074870560953
30
0
41
1
10
34.3142070432748
20
3.42445725079688
30
0
41
1
10
34.315800308975
20
3.40684782347009
30
0
41
1
10
34.3189905201928
20
3.37091977118391
30
0
41
1
10
34.3205890009336
20
3.35258314716933
30
0
41
1
10
34.3253802134651
20
3.29662110411152
30
0
41
1
10
34.3285567421803
20
3.25818630318975
30
0
41
1
10
34.3380423495605
20
3.13956979098384
30
0
41
1
10
34.34430664462
20
3.05608330488431
30
0
41
1
10
34.3505435166288
20
2.96827576617272
30
0
0
SPLINE
5
DB
100
AcDbEntity
8
1
62
256
6
ByLayer
370
13
48
1
60
0
100
AcDbSpline
70
4
71
3
72
9
73
5
40
0
40
0
40
0
40
0
40
0.225587994300272
40
1
40
1
40
1
40
1
41
1.04
10
36.5900930067672
20
-3.35457018326145
30
0
41
1.04
10
36.5787837598549
20
-3.34194471779297
30
0
41
1.04
10
36.5292791629296
20
-3.21487024183163
30
0
41
1.04
10
36.4819901496783
20
-2.80047702416981
30
0
41
1.04
10
36.4455039664963
20
-2.36126562920089
30
0
0
SPLINE
5
DC
100
AcDbEntity
8
1
62
256
6
ByLayer
370
18
48
1
60
0
100
AcDbSpline
70
4
71
3
72
38
73
34
40
0
40
0
40
0
40
0
40
0.143890061923885
40
0.143890061923885
40
0.215835092885826
40
0.215835092885826
40
0.287780123847767
40
0.287780123847767
40
0.431670185771649
40
0.431670185771649
40
0.503615216733589
40
0.503615216733589
40
0.57556024769553
40
0.57556024769553
40
0.647505278657471
40
0.647505278657471
40
0.719450309619412
40
0.719450309619412
40
0.755422825100383
40
0.755422825100383
40
0.791395340581353
40
0.791395340581353
40
0.863340371543294
40
0.863340371543294
40
0.899312887024264
40
0.899312887024264
40
0.935285402505233
40
0.935285402505233
40
0.971257917986202
40
0.971257917986202
40
0.989244175726687
40
0.989244175726687
40
1
40
1
40
1
40
1
41
1
10
24.2239112056612
20
1.62150614662008
30
0
41
1
10
23.8730234619585
20
1.72604516801039
30
0
41
1
10
23.5238397258698
20
1.82976515457821
30
0
41
1
10
23.0016250546685
20
1.98080044793446
30
0
41
1
10
22.8278266432255
20
2.03042091634904
30
0
41
1
10
22.480577823528
20
2.12765285996033
30
0
41
1
10
22.3070937907939
20
2.17519957524402
30
0
41
1
10
21.7870261631302
20
2.31437649264743
30
0
41
1
10
21.4408215850992
20
2.40255648813965
30
0
41
1
10
20.9222120391588
20
2.52674016533834
30
0
41
1
10
20.7493808460735
20
2.56680026322741
30
0
41
1
10
20.4048976830732
20
2.64376423458685
30
0
41
1
10
20.2331468172419
20
2.68069369879623
30
0
41
1
10
19.8907084006025
20
2.75115970133984
30
0
41
1
10
19.7200202191548
20
2.7846975133304
30
0
41
1
10
19.3798338347035
20
2.84800482915892
30
0
41
1
10
19.2103346048441
20
2.87777668408444
30
0
41
1
10
18.9571257211874
20
2.91922127886832
30
0
41
1
10
18.8729316843307
20
2.93248395805426
30
0
41
1
10
18.7053909593744
20
2.95783011703082
30
0
41
1
10
18.6220120451591
20
2.96992542392533
30
0
41
1
10
18.3732427771984
20
3.00434898144255
30
0
41
1
10
18.2091794217112
20
3.02483945694962
30
0
41
1
10
17.9670522288457
20
3.05105398740938
30
0
41
1
10
17.887012094169
20
3.05903395837149
30
0
41
1
10
17.728657101679
20
3.07323522271895
30
0
41
1
10
17.6503368873548
20
3.07945959757586
30
0
41
1
10
17.4960407764947
20
3.08977043713074
30
0
41
1
10
17.4200508111578
20
3.09386485607058
30
0
41
1
10
17.3086610104604
20
3.09790251088123
30
0
41
1
10
17.2719683421418
20
3.09889498843862
30
0
41
1
10
17.2142290832304
20
3.09980088612525
30
0
41
1
10
17.1929107519269
20
3.09998583316317
30
0
41
1
10
17.1719605453437
20
3.0999994102344
30
0
0
SPLINE
5
DD
100
AcDbEntity
8
1
62
256
6
ByLayer
370
18
48
1
60
0
100
AcDbSpline
70
4
71
3
72
20
73
16
40
0
40
0
40
0
40
0
40
0.0913679724088992
40
0.0913679724088992
40
0.141847529497293
40
0.141847529497293
40
0.192327086585687
40
0.192327086585687
40
0.394245314939265
40
0.394245314939265
40
0.596163543292843
40
0.596163543292843
40
0.798081771646422
40
0.798081771646422
40
1
40
1
40
1
40
1
41
1
10
20.2645188137828
20
2.65896646549066
30
0
41
1
10
20.4330708015411
20
2.66064669662956
30
0
41
1
10
20.6017490304798
20
2.66395902698085
30
0
41
1
10
20.8638001354367
20
2.67136204035552
30
0
41
1
10
20.9570924210159
20
2.67444220163074
30
0
41
1
10
21.1437465346484
20
2.68144411110529
30
0
41
1
10
21.2371774220947
20
2.68536946138588
30
0
41
1
10
21.7032228764851
20
2.70692114966533
30
0
41
1
10
22.0731448414292
20
2.73018764744512
30
0
41
1
10
22.807869701543
20
2.78406357537111
30
0
41
1
10
23.1726916201315
20
2.8146071207199
30
0
41
1
10
23.8980288432988
20
2.87751025915608
30
0
41
1
10
24.2585215646425
20
2.90988963750379
30
0
41
1
10
24.9760384531312
20
2.97096616135909
30
0
41
1
10
25.333075102258
20
2.99962313788862
30
0
41
1
10
25.6889351127332
20
3.02383250317647
30
0
0
SPLINE
5
DE
100
AcDbEntity
8
1
62
256
6
ByLayer
370
18
48
1
60
0
100
AcDbSpline
70
4
71
3
72
27
73
23
40
0
40
0
40
0
40
0
40
0.125
40
0.125
40
0.25
40
0.25
40
0.375
40
0.375
40
0.40625
40
0.40625
40
0.4375
40
0.4375
40
0.5
40
0.5
40
0.625
40
0.75
40
0.75
40
0.8125
40
0.8125
40
0.875
40
0.875
40
1
40
1
40
1
40
1
41
1
10
36.1747686263919
20
-4.05317042187758
30
0
41
1
10
36.1683975332162
20
-4.041142712934
30
0
41
1
10
36.1621095476416
20
-4.02301918943704
30
0
41
1
10
36.1496084199177
20
-3.97495645827172
30
0
41
1
10
36.1433888758863
20
-3.94501634620909
30
0
41
1
10
36.1309085404312
20
-3.87336806671891
30
0
41
1
10
36.1246511631346
20
-3.83166038607635
30
0
41
1
10
36.1167704079963
20
-3.77200157900856
30
0
41
1
10
36.1151913340504
20
-3.75969279137922
30
0
41
1
10
36.1120264836771
20
-3.73431355434053
30
0
41
1
10
36.1104385907069
20
-3.7212249509455
30
0
41
1
10
36.1056810458944
20
-3.68095233518471
30
0
41
1
10
36.1025201513913
20
-3.65278919808677
30
0
41
1
10
36.0930604758154
20
-3.56443346598584
30
0
41
1
10
36.0805091868226
20
-3.43633284072152
30
0
41
1
10
36.0679845408487
20
-3.28803610348061
30
0
41
1
10
36.0585591472864
20
-3.16918031793043
30
0
41
1
10
36.0554118851476
20
-3.12828744808547
30
0
41
1
10
36.0490977167896
20
-3.04391709465219
30
0
41
1
10
36.0459289387256
20
-3.00041313612093
30
0
41
1
10
36.0363895143677
20
-2.86610607471633
30
0
41
1
10
36.0300741887895
20
-2.77276319942203
30
0
41
1
10
36.0237580494779
20
-2.67574529628385
30
0
0
SPLINE
5
DF
100
AcDbEntity
8
1
62
256
6
ByLayer
370
18
48
1
60
0
100
AcDbSpline
70
4
71
3
72
26
73
22
40
0
40
0
40
0
40
0
40
0.125
40
0.125
40
0.187499999999999
40
0.187499999999999
40
0.218749999999999
40
0.218749999999999
40
0.249999999999999
40
0.374999999999999
40
0.499999999999998
40
0.624999999999998
40
0.624999999999998
40
0.656249999999998
40
0.656249999999998
40
0.687499999999998
40
0.749999999999998
40
0.749999999999998
40
0.874999999999999
40
0.874999999999999
40
1
40
1
40
1
40
1
41
1
10
35.9029913783151
20
-2.63516155610031
30
0
41
1
10
35.9091634028495
20
-2.73308545700988
30
0
41
1
10
35.9153450757497
20
-2.82714058914368
30
0
41
1
10
35.9247735854512
20
-2.96231490021103
30
0
41
1
10
35.9279391217197
20
-3.00638676255781
30
0
41
1
10
35.9327204050243
20
-3.07098703457277
30
0
41
1
10
35.9343215913553
20
-3.09229375700025
30
0
41
1
10
35.9375192812713
20
-3.13419612271835
30
0
41
1
10
35.9455081903012
20
-3.23725919036195
30
0
41
1
10
35.9598335198381
20
-3.40775539842866
30
0
41
1
10
35.9788236418445
20
-3.60382841649971
30
0
41
1
10
35.991461306673
20
-3.71365811643599
30
0
41
1
10
35.9993871927902
20
-3.77557851188021
30
0
41
1
10
36.0009758274734
20
-3.78764032798691
30
0
41
1
10
36.0041467860863
20
-3.81100623681633
30
0
41
1
10
36.0088899414889
20
-3.84489312350351
30
0
41
1
10
36.0135991642503
20
-3.87533412164868
30
0
41
1
10
36.0229894296924
20
-3.93169673542246
30
0
41
1
10
36.0292139338362
20
-3.96325591286089
30
0
41
1
10
36.0416729842231
20
-4.0144909046665
30
0
41
1
10
36.0479056778305
20
-4.03416678529604
30
0
41
1
10
36.0541847028071
20
-4.04781438791395
30
0
0
SPLINE
5
E0
100
AcDbEntity
8
1
62
256
6
ByLayer
370
13
48
1
60
0
100
AcDbSpline
70
4
71
3
72
10
73
6
40
0
40
0
40
0
40
0
40
0.109291907069678
40
0.849012351074615
40
1
40
1
40
1
40
1
41
1
10
35.6322428060279
20
-3.31323953671713
30
0
41
1
10
35.6269752333383
20
-3.29804657565384
30
0
41
1
10
35.586125286669
20
-3.15311491527638
30
0
41
1
10
35.5384446365658
20
-2.74227816279091
30
0
41
1
10
35.4952663673812
20
-2.19665194513496
30
0
41
1
10
35.4879250835999
20
-2.09958893298341
30
0
0
SPLINE
5
E1
100
AcDbEntity
8
1
62
256
6
ByLayer
370
18
48
1
60
0
100
AcDbSpline
70
4
71
3
72
27
73
23
40
0
40
0
40
0
40
0
40
0.125
40
0.250000000000001
40
0.250000000000001
40
0.375000000000001
40
0.375000000000001
40
0.437500000000001
40
0.437500000000001
40
0.468750000000001
40
0.468750000000001
40
0.500000000000001
40
0.500000000000001
40
0.750000000000001
40
0.750000000000001
40
0.875000000000001
40
0.875000000000001
40
0.906250000000001
40
0.906250000000001
40
0.9375
40
0.9375
40
1
40
1
40
1
40
1
41
1
10
32.7853880751129
20
-2.9404443051381
30
0
41
1
10
32.7817238405337
20
-2.8926364992457
30
0
41
1
10
32.7746013134966
20
-2.79007539020083
30
0
41
1
10
32.7677408123797
20
-2.67392292334284
30
0
41
1
10
32.7609069107869
20
-2.55095226490982
30
0
41
1
10
32.7574948634945
20
-2.4860544729917
30
0
41
1
10
32.7524695945327
20
-2.3835237017457
30
0
41
1
10
32.7508097640331
20
-2.34848140398216
30
0
41
1
10
32.7483492680221
20
-2.2945977784274
30
0
41
1
10
32.7475337563084
20
-2.27641127566298
30
0
41
1
10
32.7459210129106
20
-2.23978056157588
30
0
41
1
10
32.7451227476515
20
-2.22131403219473
30
0
41
1
10
32.7380105247889
20
-2.05376755364989
30
0
41
1
10
32.7321601567975
20
-1.89531521266281
30
0
41
1
10
32.7238986366709
20
-1.64362995411759
30
0
41
1
10
32.7212547305349
20
-1.55739379698028
30
0
41
1
10
32.7181231850584
20
-1.44661303283283
30
0
41
1
10
32.7175054834752
20
-1.42430730143016
30
0
41
1
10
32.7162879112121
20
-1.37939395461649
30
0
41
1
10
32.7156873260231
20
-1.35675847644836
30
0
41
1
10
32.713918865495
20
-1.28862189953662
30
0
41
1
10
32.7127852911938
20
-1.24293146059711
30
0
41
1
10
32.7116959328812
20
-1.1969798024173
30
0
0
SPLINE
5
E2
100
AcDbEntity
8
1
62
256
6
ByLayer
370
13
48
1
60
0
100
AcDbSpline
70
4
71
3
72
10
73
6
40
0
40
0
40
0
40
0
40
0.304886207695168
40
0.674488265090506
40
1
40
1
40
1
40
1
41
1
10
33.0761973123305
20
-3.02342914293135
30
0
41
1
10
33.0615155849018
20
-2.91515472522343
30
0
41
1
10
33.0291005148879
20
-2.62171502595967
30
0
41
1
10
32.9809389931023
20
-2.02648720324748
30
0
41
1
10
32.9478809294765
20
-1.53623388763336
30
0
41
1
10
32.9324919829949
20
-1.29643055454378
30
0
0
SPLINE
5
E3
100
AcDbEntity
8
1
62
256
6
ByLayer
370
13
48
1
60
0
100
AcDbSpline
70
4
71
3
72
10
73
6
40
0
40
0
40
0
40
0
40
0.11482454314529
40
0.855686844088903
40
1
40
1
40
1
40
1
41
1
10
35.2062216979757
20
2.27053174365582
30
0
41
1
10
35.200894270232
20
2.33698515711544
30
0
41
1
10
35.1610509803414
20
2.81587706823819
30
0
41
1
10
35.1134375604294
20
3.21221714097706
30
0
41
1
10
35.0692592010656
20
3.33096112527693
30
0
41
1
10
35.0619976033049
20
3.34375923579904
30
0
0
SPLINE
5
E4
100
AcDbEntity
8
1
62
256
6
ByLayer
370
18
48
1
60
0
100
AcDbSpline
70
4
71
3
72
27
73
23
40
0
40
0
40
0
40
0
40
0.125000000000001
40
0.125000000000001
40
0.250000000000002
40
0.250000000000002
40
0.312500000000003
40
0.343750000000003
40
0.343750000000003
40
0.375000000000003
40
0.375000000000003
40
0.500000000000002
40
0.625000000000001
40
0.75
40
0.75
40
0.78125
40
0.78125
40
0.8125
40
0.8125
40
0.875
40
0.875
40
1
40
1
40
1
40
1
41
1
10
35.4771091076488
20
4.03410188954294
30
0
41
1
10
35.4834054978568
20
4.01685266434586
30
0
41
1
10
35.489661851743
20
3.99361836739141
30
0
41
1
10
35.5022147743734
20
3.93536240673618
30
0
41
1
10
35.5085066700597
20
3.90034066107506
30
0
41
1
10
35.517990449799
20
3.838864450464
30
0
41
1
10
35.5227436909365
20
3.80588673560598
30
0
41
1
10
35.5275180565902
20
3.76949513925737
30
0
41
1
10
35.5307061888132
20
3.74446677989087
30
0
41
1
10
35.5323033753725
20
3.73156365864119
30
0
41
1
10
35.5402605878242
20
3.66547699394101
30
0
41
1
10
35.5528758644815
20
3.54918404382505
30
0
41
1
10
35.5715906823536
20
3.3440266820032
30
0
41
1
10
35.584080594464
20
3.18684556092038
30
0
41
1
10
35.5919668086323
20
3.08207891906892
30
0
41
1
10
35.5935482138257
20
3.06079845272859
30
0
41
1
10
35.5967218840368
20
3.0175765691906
30
0
41
1
10
35.5983163457944
20
2.99560623544238
30
0
41
1
10
35.6030968732962
20
2.92900489163017
30
0
41
1
10
35.6062821581344
20
2.8836374260602
30
0
41
1
10
35.6158167359967
20
2.74469062978457
30
0
41
1
10
35.6221414975305
20
2.64827311499818
30
0
41
1
10
35.6284290801077
20
2.54813703099964
30
0
0
SPLINE
5
E5
100
AcDbEntity
8
1
62
256
6
ByLayer
370
18
48
1
60
0
100
AcDbSpline
70
4
71
3
72
25
73
21
40
0
40
0
40
0
40
0
40
0.125
40
0.125
40
0.25
40
0.25
40
0.3125
40
0.3125
40
0.375
40
0.375
40
0.5
40
0.625
40
0.625
40
0.6875
40
0.6875
40
0.75
40
0.75
40
0.875
40
0.875
40
1
40
1
40
1
40
1
41
1
10
35.74890436507
20
2.50581560661021
30
0
41
1
10
35.7425598676695
20
2.60711728046368
30
0
41
1
10
35.7362759334022
20
2.70447842674361
30
0
41
1
10
35.7237459994208
20
2.89130471392261
30
0
41
1
10
35.7174815921536
20
2.98076971329121
30
0
41
1
10
35.7079932405003
20
3.10887021745594
30
0
41
1
10
35.7048129150209
20
3.15060895295858
30
0
41
1
10
35.6984884833513
20
3.23116744848539
30
0
41
1
10
35.6953367498888
20
3.27009421585348
30
0
41
1
10
35.6859044446649
20
3.382885217633
30
0
41
1
10
35.6733896461147
20
3.52265274805012
30
0
41
1
10
35.6608950609131
20
3.6414601716406
30
0
41
1
10
35.6514800727042
20
3.72259778025367
30
0
41
1
10
35.6483342441267
20
3.74831344981081
30
0
41
1
10
35.6420167291062
20
3.79703854276681
30
0
41
1
10
35.6388374255681
20
3.82009474063281
30
0
41
1
10
35.6293347070499
20
3.88450436855192
30
0
41
1
10
35.6230268086982
20
3.92129199582143
30
0
41
1
10
35.6103608209453
20
3.98290838689476
30
0
41
1
10
35.6039987952408
20
4.00773640745635
30
0
41
1
10
35.5976335318359
20
4.02659293399353
30
0
0
SPLINE
5
E6
100
AcDbEntity
8
1
62
256
6
ByLayer
370
13
48
1
60
0
100
AcDbSpline
70
4
71
3
72
10
73
6
40
0
40
0
40
0
40
0
40
0.231062035576526
40
0.9718271507715
40
1
40
1
40
1
40
1
41
1.04
10
36.1640949634555
20
1.99663588192495
30
0
41
1.04
10
36.1527878377281
20
2.1503065254976
30
0
41
1.04
10
36.1052666036053
20
2.75609138511937
30
0
41
1.04
10
36.0577127171883
20
3.15017698215566
30
0
41
1.04
10
36.0209865810427
20
3.28445134790802
30
0
41
1.04
10
36.0196407529863
20
3.28914408978787
30
0
0
SPLINE
5
E7
100
AcDbEntity
8
1
62
256
6
ByLayer
370
18
48
1
60
0
100
AcDbSpline
70
4
71
3
72
10
73
6
40
0
40
0
40
0
40
0
40
0.231528980814137
40
0.588617038808567
40
1
40
1
40
1
40
1
41
1
10
47
20
0.494202367967631
30
0
41
1
10
46.9999999999999
20
0.331528877383675
30
0
41
1
10
46.9999999999999
20
-0.0895124120100945
30
0
41
1
10
47.0000000000002
20
-0.812028641878982
30
0
41
1
10
47
20
-1.32936718695461
30
0
41
1
10
46.9999999999999
20
-1.58272228981022
30
0
0
SPLINE
5
E8
100
AcDbEntity
8
1
62
256
6
ByLayer
370
13
48
1
60
0
100
AcDbSpline
70
4
71
3
72
10
73
6
40
0
40
0
40
0
40
0
40
0.0537596000957505
40
0.794310485420026
40
1
40
1
40
1
40
1
41
1.04
10
35.3121032113796
20
-3.29084368678464
30
0
41
1.04
10
35.3095191856821
20
-3.28187633835873
30
0
41
1.04
10
35.2713665225261
20
-3.13716555143543
30
0
41
1.04
10
35.2237394702189
20
-2.73048671533829
30
0
41
1.04
10
35.17787465775
20
-2.14242987172382
30
0
41
1.04
10
35.1678630516527
20
-2.00648120515843
30
0
0
SPLINE
5
E9
100
AcDbEntity
8
1
62
256
6
ByLayer
370
13
48
1
60
0
100
AcDbSpline
70
4
71
3
72
10
73
6
40
0
40
0
40
0
40
0
40
0.422129353966523
40
0.795224494586249
40
1
40
1
40
1
40
1
41
1.04
10
34.0340781855577
20
-3.16117834513102
30
0
41
1.04
10
34.01321591079
20
-3.04093377371615
30
0
41
1.04
10
33.9743786781753
20
-2.72002358047323
30
0
41
1.04
10
33.9268614329186
20
-2.14136190956215
30
0
41
1.04
10
33.8996733203826
20
-1.75379080341243
30
0
41
1.04
10
33.8900613775246
20
-1.61118234427365
30
0
0
SPLINE
5
EA
100
AcDbEntity
8
1
62
256
6
ByLayer
370
18
48
1
60
0
100
AcDbSpline
70
4
71
3
72
25
73
21
40
0
40
0
40
0
40
0
40
0.125
40
0.249999999999999
40
0.249999999999999
40
0.312499999999999
40
0.343749999999999
40
0.343749999999999
40
0.374999999999999
40
0.374999999999999
40
0.499999999999999
40
0.499999999999999
40
0.624999999999999
40
0.749999999999999
40
0.749999999999999
40
0.812499999999999
40
0.812499999999999
40
0.874999999999999
40
0.874999999999999
40
1
40
1
40
1
40
1
41
1
10
33.7346174667382
20
-3.61545434752651
30
0
41
1
10
33.7299928353821
20
-3.57035966990944
30
0
41
1
10
33.7208560028019
20
-3.47045962565912
30
0
41
1
10
33.7118728659844
20
-3.35133443438355
30
0
41
1
10
33.7051245965025
20
-3.25465022573354
30
0
41
1
10
33.7017470370525
20
-3.20446983803751
30
0
41
1
10
33.6983442380258
20
-3.1514764658869
30
0
41
1
10
33.696067278111
20
-3.11551392207991
30
0
41
1
10
33.6949255344991
20
-3.09722987798278
30
0
41
1
10
33.6892186607131
20
-3.0047064176749
30
0
41
1
10
33.6846278316384
20
-2.92680563300112
30
0
41
1
10
33.6753941471062
20
-2.76346894637928
30
0
41
1
10
33.6661107530681
20
-2.59259658107354
30
0
41
1
10
33.656732264768
20
-2.40671276743046
30
0
41
1
10
33.6496538891598
20
-2.26154090221513
30
0
41
1
10
33.6472851811799
20
-2.21215263350658
30
0
41
1
10
33.6425391279551
20
-2.11156224821127
30
0
41
1
10
33.6401774197299
20
-2.06069266151721
30
0
41
1
10
33.6331232818626
20
-1.90639490462439
30
0
41
1
10
33.6284625164657
20
-1.80128153117056
30
0
41
1
10
33.6238284807081
20
-1.69396273082276
30
0
0
SPLINE
5
EB
100
AcDbEntity
8
1
62
256
6
ByLayer
370
18
48
1
60
0
100
AcDbSpline
70
4
71
3
72
24
73
20
40
0
40
0
40
0
40
0
40
0.125000000000003
40
0.250000000000005
40
0.250000000000005
40
0.281250000000005
40
0.281250000000005
40
0.312500000000006
40
0.375000000000005
40
0.375000000000005
40
0.500000000000004
40
0.625000000000004
40
0.625000000000004
40
0.687500000000003
40
0.687500000000003
40
0.750000000000002
40
0.750000000000002
40
0.875000000000001
40
1
40
1
40
1
40
1
41
1
10
32.9744783190129
20
-1.33360606524207
30
0
41
1
10
32.9838406900611
20
-1.43440572899777
30
0
41
1
10
33.0024423531917
20
-1.63221579047538
30
0
41
1
10
33.0209499438206
20
-1.82244853404643
30
0
41
1
10
33.0325707783983
20
-1.93891862825546
30
0
41
1
10
33.0349007093264
20
-1.96212023837441
30
0
41
1
10
33.0395528221086
20
-2.00812054165158
30
0
41
1
10
33.0465168414528
20
-2.07648432382743
30
0
41
1
10
33.0534441771793
20
-2.1429608131802
30
0
41
1
10
33.0672396838401
20
-2.27343344349478
30
0
41
1
10
33.0854665771578
20
-2.44079038362688
30
0
41
1
10
33.1034939234553
20
-2.59512997967528
30
0
41
1
10
33.1170977901805
20
-2.70598897201765
30
0
41
1
10
33.1216487630738
20
-2.74212558106223
30
0
41
1
10
33.1308141223737
20
-2.81274990299067
30
0
41
1
10
33.1354357469233
20
-2.84730973345276
30
0
41
1
10
33.1492534883226
20
-2.94755851207836
30
0
41
1
10
33.1676009698997
20
-3.07252751350768
30
0
41
1
10
33.185767914397
20
-3.18055938775956
30
0
41
1
10
33.1948175735826
20
-3.23035644606321
30
0
0
SPLINE
5
EC
100
AcDbEntity
8
1
62
256
6
ByLayer
370
18
48
1
60
0
100
AcDbSpline
70
4
71
3
72
10
73
6
40
0
40
0
40
0
40
0
40
0.365392284442155
40
0.727909289178491
40
1
40
1
40
1
40
1
41
1
10
46.7000000470531
20
-1.63671664915969
30
0
41
1
10
46.7000000560992
20
-1.38740799937389
30
0
41
1
10
46.7000000153663
20
-0.853516673194463
30
0
41
1
10
46.6999999317003
20
-0.0696570439708921
30
0
41
1
10
46.6999999179132
20
0.423105996206175
30
0
41
1
10
46.6999999156457
20
0.629591504557737
30
0
0
SPLINE
5
ED
100
AcDbEntity
8
1
62
256
6
ByLayer
370
18
48
1
60
0
100
AcDbSpline
70
4
71
3
72
26
73
22
40
0
40
0
40
0
40
0
40
0.0625000000000003
40
0.0625000000000003
40
0.125000000000001
40
0.125000000000001
40
0.250000000000001
40
0.250000000000001
40
0.375000000000002
40
0.375000000000002
40
0.500000000000002
40
0.500000000000002
40
0.562500000000002
40
0.562500000000002
40
0.625000000000002
40
0.625000000000002
40
0.750000000000001
40
0.750000000000001
40
0.875
40
0.875
40
1
40
1
40
1
40
1
41
1
10
46.4612059406462
20
0.725372613281763
30
0
41
1
10
46.464620625066
20
0.67570353949472
30
0
41
1
10
46.4680590638132
20
0.625796748900996
30
0
41
1
10
46.4749953765459
20
0.525506988874128
30
0
41
1
10
46.4784993981428
20
0.475036160421468
30
0
41
1
10
46.4890497827839
20
0.323719700614163
30
0
41
1
10
46.4961401082656
20
0.222937293902504
30
0
41
1
10
46.5103651498738
20
0.0215549961476427
30
0
41
1
10
46.517458927685
20
-0.0790473732533314
30
0
41
1
10
46.5314420459955
20
-0.280088911184833
30
0
41
1
10
46.5383649535703
20
-0.380525980578341
30
0
41
1
10
46.5486962327898
20
-0.531051051650394
30
0
41
1
10
46.5521351131278
20
-0.581264317537091
30
0
41
1
10
46.5589829551066
20
-0.681387599995276
30
0
41
1
10
46.5623739196604
20
-0.731033747501357
30
0
41
1
10
46.572454534612
20
-0.878747716343753
30
0
41
1
10
46.57903218246
20
-0.975592365895636
30
0
41
1
10
46.5921585825619
20
-1.16607412355933
30
0
41
1
10
46.5987147833089
20
-1.25971163651474
30
0
41
1
10
46.6120390078378
20
-1.44373812955092
30
0
41
1
10
46.6188313240567
20
-1.53412397465189
30
0
41
1
10
46.6257096938691
20
-1.62282602864442
30
0
0
SPLINE
5
EE
100
AcDbEntity
8
1
62
256
6
ByLayer
370
18
48
1
60
0
100
AcDbSpline
70
4
71
3
72
28
73
24
40
0
40
0
40
0
40
0
40
0.125
40
0.125
40
0.25
40
0.375
40
0.375
40
0.40625
40
0.40625
40
0.4375
40
0.4375
40
0.5
40
0.5
40
0.625000000000001
40
0.625000000000001
40
0.750000000000001
40
0.750000000000001
40
0.812500000000001
40
0.843750000000001
40
0.843750000000001
40
0.875000000000001
40
0.875000000000001
40
1
40
1
40
1
40
1
41
1
10
34.8969879737829
20
-3.96031898918423
30
0
41
1
10
34.8905959823249
20
-3.93032053921132
30
0
41
1
10
34.8842508870194
20
-3.89451890958168
30
0
41
1
10
34.8716323001935
20
-3.81164692161278
30
0
41
1
10
34.8590856212501
20
-3.7175039864097
30
0
41
1
10
34.8465913501723
20
-3.60087644034579
30
0
41
1
10
34.8387519284007
20
-3.52078376494867
30
0
41
1
10
34.8371824415005
20
-3.504404426473
30
0
41
1
10
34.8340387689088
20
-3.47091656526774
30
0
41
1
10
34.8324631861352
20
-3.45379180197682
30
0
41
1
10
34.8277515347708
20
-3.40158733262859
30
0
41
1
10
34.8246234570573
20
-3.36560454745907
30
0
41
1
10
34.8152577756597
20
-3.2541839593913
30
0
41
1
10
34.8090389517801
20
-3.17528157993684
30
0
41
1
10
34.7965354251138
20
-3.00839597740889
30
0
41
1
10
34.7902435892957
20
-2.92041284434799
30
0
41
1
10
34.780690633378
20
-2.78156517068945
30
0
41
1
10
34.7758916953417
20
-2.71042003675782
30
0
41
1
10
34.7710693429767
20
-2.63665363195349
30
0
41
1
10
34.7678498400088
20
-2.58688718899913
30
0
41
1
10
34.7662356370616
20
-2.5616751076526
30
0
41
1
10
34.7581852381697
20
-2.43461571416398
30
0
41
1
10
34.7518195023758
20
-2.32988862965615
30
0
41
1
10
34.745518769869
20
-2.22218091098421
30
0
0
SPLINE
5
EF
100
AcDbEntity
8
1
62
256
6
ByLayer
370
18
48
1
60
0
100
AcDbSpline
70
4
71
3
72
26
73
22
40
0
40
0
40
0
40
0
40
0.125
40
0.125
40
0.187499999999999
40
0.187499999999999
40
0.218749999999999
40
0.218749999999999
40
0.249999999999999
40
0.375
40
0.375
40
0.5
40
0.5
40
0.625
40
0.625
40
0.6875
40
0.6875
40
0.75
40
0.75
40
0.875
40
1
40
1
40
1
40
1
41
1
10
34.6253858716776
20
-2.17697893597713
30
0
41
1
10
34.6315841140145
20
-2.28541259892575
30
0
41
1
10
34.6377613531432
20
-2.39064833875528
30
0
41
1
10
34.6470759862228
20
-2.5436261271071
30
0
41
1
10
34.6501888724698
20
-2.59380474523201
30
0
41
1
10
34.6548806738061
20
-2.6678290109248
30
0
41
1
10
34.6564502323796
20
-2.69232507931355
30
0
41
1
10
34.6595895297822
20
-2.74075545391764
30
0
41
1
10
34.6674291805938
20
-2.86028971539216
30
0
41
1
10
34.6752499740342
20
-2.97222781969455
30
0
41
1
10
34.6878533520961
20
-3.14185636044519
30
0
41
1
10
34.6942136010844
20
-3.22193349086069
30
0
41
1
10
34.7070522853327
20
-3.37260800861543
30
0
41
1
10
34.7135095864084
20
-3.44320667378452
30
0
41
1
10
34.7231934691091
20
-3.54179791382441
30
0
41
1
10
34.7264284185258
20
-3.57349850369022
30
0
41
1
10
34.7328330915269
20
-3.6338046468594
30
0
41
1
10
34.7360094568297
20
-3.66248257211839
30
0
41
1
10
34.7454691608209
20
-3.74416666948241
30
0
41
1
10
34.7578928031548
20
-3.84149896938732
30
0
41
1
10
34.7701358744637
20
-3.91599163998359
30
0
41
1
10
34.7762915281853
20
-3.94745383040933
30
0
0
SPLINE
5
F0
100
AcDbEntity
8
1
62
256
6
ByLayer
370
13
48
1
60
0
100
AcDbSpline
70
4
71
3
72
10
73
6
40
0
40
0
40
0
40
0
40
0.477340644828615
40
0.851302268585004
40
1
40
1
40
1
40
1
41
1
10
34.3542200830028
20
-3.19979637193532
30
0
41
1
10
34.3306135715849
20
-3.07689045148644
30
0
41
1
10
34.2890576677319
20
-2.74103731656925
30
0
41
1
10
34.2416503543125
20
-2.16086519941189
30
0
41
1
10
34.2170929612864
20
-1.81464625593338
30
0
41
1
10
34.2101198024819
20
-1.71320415444347
30
0
0
SPLINE
5
F1
100
AcDbEntity
8
1
62
256
6
ByLayer
370
13
48
1
60
0
100
AcDbSpline
70
4
71
3
72
9
73
5
40
0
40
0
40
0
40
0
40
0.285939809441165
40
1
40
1
40
1
40
1
41
1
10
36.4842327001199
20
1.90012792856902
30
0
41
1
10
36.4702487641131
20
2.0949414079227
30
0
41
1
10
36.4213059630582
20
2.72805129324519
30
0
41
1
10
36.373745258832
20
3.12458687774546
30
0
41
1
10
36.3396770433517
20
3.26312131225197
30
0
0
SPLINE
5
F2
100
AcDbEntity
8
1
62
256
6
ByLayer
370
18
48
1
60
0
100
AcDbSpline
70
4
71
3
72
27
73
23
40
0
40
0
40
0
40
0
40
0.125
40
0.250000000000001
40
0.250000000000001
40
0.312500000000001
40
0.343750000000001
40
0.343750000000001
40
0.375000000000001
40
0.375000000000001
40
0.500000000000001
40
0.625000000000001
40
0.625000000000001
40
0.75
40
0.75
40
0.78125
40
0.78125
40
0.8125
40
0.8125
40
0.875
40
0.875
40
1
40
1
40
1
40
1
41
1
10
36.7546194611979
20
3.91950032924953
30
0
41
1
10
36.7609210521458
20
3.88461463173425
30
0
41
1
10
36.7735256902996
20
3.80334006020172
30
0
41
1
10
36.7861636292531
20
3.69937850601829
30
0
41
1
10
36.7956808968039
20
3.61278815892746
30
0
41
1
10
36.8004494767991
20
3.56733460306097
30
0
41
1
10
36.8052401971827
20
3.5185884651932
30
0
41
1
10
36.8084398969646
20
3.48535071003178
30
0
41
1
10
36.8100396926048
20
3.46839213537245
30
0
41
1
10
36.8180154231603
20
3.38218226279744
30
0
41
1
10
36.8306769215252
20
3.23468769609892
30
0
41
1
10
36.8432730656533
20
3.06862060747267
30
0
41
1
10
36.8559024930221
20
2.89328443610881
30
0
41
1
10
36.8622315722328
20
2.80098230778881
30
0
41
1
10
36.8701279142575
20
2.67966093674122
30
0
41
1
10
36.8717068867792
20
2.65509883798399
30
0
41
1
10
36.8748653099251
20
2.60537257790989
30
0
41
1
10
36.876444814617
20
2.58020651668835
30
0
41
1
10
36.8811611004775
20
2.50421485571764
30
0
41
1
10
36.8842839593121
20
2.45276132864953
30
0
41
1
10
36.8936244098616
20
2.29606854487244
30
0
41
1
10
36.8998123406741
20
2.18850212972913
30
0
41
1
10
36.9061077788377
20
2.077888118695
30
0
0
SPLINE
5
F3
100
AcDbEntity
8
1
62
256
6
ByLayer
370
18
48
1
60
0
100
AcDbSpline
70
4
71
3
72
27
73
23
40
0
40
0
40
0
40
0
40
0.125
40
0.25
40
0.25
40
0.3125
40
0.3125
40
0.375
40
0.375
40
0.500000000000001
40
0.500000000000001
40
0.625000000000002
40
0.625000000000002
40
0.687500000000002
40
0.687500000000002
40
0.718750000000003
40
0.718750000000003
40
0.750000000000003
40
0.750000000000003
40
0.875000000000001
40
0.875000000000001
40
1
40
1
40
1
40
1
41
1
10
37.0271280521542
20
2.03104793011261
30
0
41
1
10
37.0208277390618
20
2.14269272919432
30
0
41
1
10
37.0082208006706
20
2.35937775672502
30
0
41
1
10
36.995479256468
20
2.56285573770344
30
0
41
1
10
36.9858575780642
20
2.71037644858126
30
0
41
1
10
36.9826317678218
20
2.75881564965528
30
0
41
1
10
36.9762230548953
20
2.85306517854247
30
0
41
1
10
36.9730361614653
20
2.89894786618666
30
0
41
1
10
36.9635336669647
20
3.03293582537179
30
0
41
1
10
36.9572791984557
20
3.11738919777633
30
0
41
1
10
36.9448467241031
20
3.27669438167834
30
0
41
1
10
36.9386675080823
20
3.35154603067917
30
0
41
1
10
36.9293175098152
20
3.45653151882962
30
0
41
1
10
36.926186665386
20
3.49030932347313
30
0
41
1
10
36.9214469474457
20
3.53911960287695
30
0
41
1
10
36.9198593336921
20
3.55508014415423
30
0
41
1
10
36.9166682626755
20
3.58637543133238
30
0
41
1
10
36.9150653425315
20
3.60170730490981
30
0
41
1
10
36.907061968515
20
3.67638726310699
30
0
41
1
10
36.9006648965827
20
3.73015665262687
30
0
41
1
10
36.88794482893
20
3.82610186294443
30
0
41
1
10
36.8816207363459
20
3.8682767211279
30
0
41
1
10
36.8753173971338
20
3.90466928169261
30
0
0
SPLINE
5
F4
100
AcDbEntity
8
1
62
256
6
ByLayer
370
13
48
1
60
0
100
AcDbSpline
70
4
71
3
72
10
73
6
40
0
40
0
40
0
40
0
40
0.430280936965515
40
0.79197038629304
40
1
40
1
40
1
40
1
41
1.04
10
37.4421796345148
20
1.59739091110929
30
0
41
1.04
10
37.4227824278946
20
1.88550544055351
30
0
41
1.04
10
37.3861868688294
20
2.38577435537922
30
0
41
1.04
10
37.3371477784709
20
2.89416627125022
30
0
41
1.04
10
37.3080920942758
20
3.09881040717689
30
0
41
1.04
10
37.297352419494
20
3.16053252323679
30
0
0
SPLINE
5
F5
100
AcDbEntity
8
1
62
256
6
ByLayer
370
18
48
1
60
0
100
AcDbSpline
70
4
71
3
72
28
73
24
40
0
40
0
40
0
40
0
40
0.0624999999999997
40
0.0624999999999997
40
0.124999999999999
40
0.124999999999999
40
0.25
40
0.25
40
0.375
40
0.375
40
0.5
40
0.5
40
0.53125
40
0.53125
40
0.5625
40
0.5625
40
0.625
40
0.625
40
0.75
40
0.75
40
0.875
40
0.875
40
1
40
1
40
1
40
1
41
1
10
46.4001186213463
20
-1.5791161855544
30
0
41
1
10
46.3972802097629
20
-1.53349095365974
30
0
41
1
10
46.394430501284
20
-1.48732142105419
30
0
41
1
10
46.3886884333481
20
-1.39389978810738
30
0
41
1
10
46.385796962843
20
-1.34662384417336
30
0
41
1
10
46.3771322734471
20
-1.20413925237244
30
0
41
1
10
46.3713481903245
20
-1.10796467311482
30
0
41
1
10
46.3598513636209
20
-0.913285214525018
30
0
41
1
10
46.3541524090401
20
-0.81477525500523
30
0
41
1
10
46.342870197225
20
-0.615407265546139
30
0
41
1
10
46.3372742667551
20
-0.514554321893343
30
0
41
1
10
46.3302988225238
20
-0.386989823949648
30
0
41
1
10
46.3289047539193
20
-0.361401777779435
30
0
41
1
10
46.3261178799097
20
-0.310073513187717
30
0
41
1
10
46.324723566963
20
-0.284305185716761
30
0
41
1
10
46.3205617257857
20
-0.207146384552374
30
0
41
1
10
46.3178102750608
20
-0.155810635447636
30
0
41
1
10
46.3096157470503
20
-0.0021110623332277
30
0
41
1
10
46.3042533629153
20
0.0999438689566148
30
0
41
1
10
46.2934334199665
20
0.30324213472116
30
0
41
1
10
46.2879823965627
20
0.404487044415077
30
0
41
1
10
46.2768928067827
20
0.606169157485823
30
0
41
1
10
46.271254152342
20
0.706606443227741
30
0
41
1
10
46.2655084558838
20
0.806628020490933
30
0
0
SPLINE
5
F6
100
AcDbEntity
8
1
62
256
6
ByLayer
370
18
48
1
60
0
100
AcDbSpline
70
4
71
3
72
27
73
23
40
0
40
0
40
0
40
0
40
0.125
40
0.125
40
0.25
40
0.25
40
0.374999999999999
40
0.374999999999999
40
0.437499999999999
40
0.437499999999999
40
0.499999999999999
40
0.499999999999999
40
0.624999999999999
40
0.624999999999999
40
0.749999999999999
40
0.749999999999999
40
0.874999999999999
40
0.874999999999999
40
0.906249999999999
40
0.906249999999999
40
0.937499999999999
40
1
40
1
40
1
40
1
41
1
10
45.3919076000366
20
1.19312478751664
30
0
41
1
10
45.39836624174
20
1.08868576193945
30
0
41
1
10
45.4048002537131
20
0.983250890045696
30
0
41
1
10
45.4175850590605
20
0.770459645234723
30
0
41
1
10
45.4239359431991
20
0.663103006660521
30
0
41
1
10
45.4367333373317
20
0.446471136904989
30
0
41
1
10
45.4432196880531
20
0.337196445279773
30
0
41
1
10
45.4530482004507
20
0.171797032729131
30
0
41
1
10
45.4563383028297
20
0.116410158040594
30
0
41
1
10
45.4629274008602
20
0.0051453857363697
30
0
41
1
10
45.4661978396454
20
-0.0502883401377119
30
0
41
1
10
45.4759420312966
20
-0.216008416850514
30
0
41
1
10
45.4823546618148
20
-0.325716487437717
30
0
41
1
10
45.4950893210807
20
-0.543637208733173
30
0
41
1
10
45.5014104838234
20
-0.651849817622633
30
0
41
1
10
45.5140239841601
20
-0.866771354355734
30
0
41
1
10
45.5203073517546
20
-0.973478888535851
30
0
41
1
10
45.5282207792417
20
-1.10588730477534
30
0
41
1
10
45.5298083071482
20
-1.13234136431714
30
0
41
1
10
45.5329843237901
20
-1.18498740967007
30
0
41
1
10
45.5377515542083
20
-1.26359900319989
30
0
41
1
10
45.5425478328612
20
-1.34114062671006
30
0
41
1
10
45.545762204728
20
-1.39235954248031
30
0
0
SPLINE
5
F7
100
AcDbEntity
8
1
62
256
6
ByLayer
370
13
48
1
60
0
100
AcDbSpline
70
4
71
3
72
10
73
6
40
0
40
0
40
0
40
0
40
0.0379483677471944
40
0.712106290205832
40
1
40
1
40
1
40
1
41
1
10
45.4302629264266
20
-1.2629005414114
30
0
41
1
10
45.4285117779519
20
-1.23550739874307
30
0
41
1
10
45.3955785776122
20
-0.717348354984296
30
0
41
1
10
45.34737694502
20
0.117356246198369
30
0
41
1
10
45.2982859727286
20
0.928350863109387
30
0
41
1
10
45.2837502057922
20
1.15885690062453
30
0
0
SPLINE
5
F8
100
AcDbEntity
8
1
62
256
6
ByLayer
370
13
48
1
60
0
100
AcDbSpline
70
4
71
3
72
10
73
6
40
0
40
0
40
0
40
0
40
0.486004374444303
40
0.844844897418883
40
1
40
1
40
1
40
1
41
1
10
37.7623180203029
20
1.49218014778003
30
0
41
1
10
37.7403840072799
20
1.82424106514515
30
0
41
1
10
37.7012166311823
20
2.36809568701798
30
0
41
1
10
37.6517882546273
20
2.87711684992044
30
0
41
1
10
37.625458462725
20
3.06817126382441
30
0
41
1
10
37.6174343350911
20
3.11870736795856
30
0
0
SPLINE
5
F9
100
AcDbEntity
8
1
62
256
6
ByLayer
370
18
48
1
60
0
100
AcDbSpline
70
4
71
3
72
25
73
21
40
0
40
0
40
0
40
0
40
0.125
40
0.125
40
0.250000000000001
40
0.250000000000001
40
0.312500000000001
40
0.312500000000001
40
0.375000000000001
40
0.375000000000001
40
0.500000000000001
40
0.500000000000001
40
0.625000000000001
40
0.750000000000001
40
0.750000000000001
40
0.812500000000001
40
0.812500000000001
40
0.875
40
0.875
40
1
40
1
40
1
40
1
41
1
10
38.0326211002097
20
3.72789412683164
30
0
41
1
10
38.0388699573258
20
3.6759593574082
30
0
41
1
10
38.0450909789319
20
3.61861897643254
30
0
41
1
10
38.0577002272153
20
3.49326567895261
30
0
41
1
10
38.0640728347728
20
3.4252526617276
30
0
41
1
10
38.0736603929132
20
3.3151084902872
30
0
41
1
10
38.0768615612158
20
3.27703738898637
30
0
41
1
10
38.0832707047035
20
3.19813378942604
30
0
41
1
10
38.0864838173951
20
3.15722648444512
30
0
41
1
10
38.0960379922884
20
3.03162571201005
30
0
41
1
10
38.1023212495892
20
2.94370294606358
30
0
41
1
10
38.1148480056688
20
2.75970850916875
30
0
41
1
10
38.1273418850218
20
2.56756390996162
30
0
41
1
10
38.139956721223
20
2.3591282504751
30
0
41
1
10
38.1495048474697
20
2.19652534527668
30
0
41
1
10
38.1527093146167
20
2.14114250741244
30
0
41
1
10
38.1590886718
20
2.02934899878582
30
0
41
1
10
38.1622688983034
20
1.97285079658516
30
0
41
1
10
38.1717870976827
20
1.80158370165762
30
0
41
1
10
38.178102204318
20
1.68504624869473
30
0
41
1
10
38.1844030154288
20
1.56618439998914
30
0
0
SPLINE
5
FA
100
AcDbEntity
8
1
62
256
6
ByLayer
370
18
48
1
60
0
100
AcDbSpline
70
4
71
3
72
28
73
24
40
0
40
0
40
0
40
0
40
0.124999999999999
40
0.124999999999999
40
0.249999999999998
40
0.249999999999998
40
0.281249999999998
40
0.281249999999998
40
0.312499999999998
40
0.312499999999998
40
0.374999999999998
40
0.374999999999998
40
0.499999999999998
40
0.624999999999998
40
0.624999999999998
40
0.687499999999998
40
0.718749999999998
40
0.718749999999998
40
0.749999999999998
40
0.749999999999998
40
0.874999999999999
40
0.874999999999999
40
1
40
1
40
1
40
1
41
1
10
38.3050646923348
20
1.51614182437479
30
0
41
1
10
38.2988212104994
20
1.63585210939914
30
0
41
1
10
38.2925969340936
20
1.75297288001227
30
0
41
1
10
38.2800475745983
20
1.98204028285733
30
0
41
1
10
38.2737057550479
20
2.09398649736426
30
0
41
1
10
38.2656860157676
20
2.23060270029407
30
0
41
1
10
38.2640779307839
20
2.25775976843733
30
0
41
1
10
38.2608539012946
20
2.31173802234531
30
0
41
1
10
38.2592372199136
20
2.33857064179566
30
0
41
1
10
38.2544019944964
20
2.41813061167881
30
0
41
1
10
38.251189833748
20
2.47006433787067
30
0
41
1
10
38.2415875573254
20
2.62260854792007
30
0
41
1
10
38.2288781300239
20
2.81733036374232
30
0
41
1
10
38.216299729961
20
2.99499658179792
30
0
41
1
10
38.206867884356
20
3.12178210891284
30
0
41
1
10
38.2021520563898
20
3.18355613364656
30
0
41
1
10
38.197424091909
20
3.24286372750282
30
0
41
1
10
38.1942678255264
20
3.28184788718261
30
0
41
1
10
38.192685617206
20
3.30108564043755
30
0
41
1
10
38.184797848568
20
3.39542136746815
30
0
41
1
10
38.1785435977673
20
3.46521372626915
30
0
41
1
10
38.1660376870286
20
3.59379829665144
30
0
41
1
10
38.1597857294058
20
3.6525895909578
30
0
41
1
10
38.1534829908021
20
3.70590300492574
30
0
0
SPLINE
5
FB
100
AcDbEntity
8
1
62
256
6
ByLayer
370
13
48
1
60
0
100
AcDbSpline
70
4
71
3
72
9
73
5
40
0
40
0
40
0
40
0
40
0.224292095780066
40
1
40
1
40
1
40
1
41
1.04
10
38.7201022880921
20
1.1668428733618
30
0
41
1.04
10
38.7093565465664
20
1.33714306047623
30
0
41
1.04
10
38.6614471169825
20
2.07380702271806
30
0
41
1.04
10
38.6133557941438
20
2.66763787655974
30
0
41
1.04
10
38.5750971700222
20
2.97052312414715
30
0
0
SPLINE
5
FC
100
AcDbEntity
8
1
62
256
6
ByLayer
370
13
48
1
60
0
100
AcDbSpline
70
4
71
3
72
10
73
6
40
0
40
0
40
0
40
0
40
0.657737881888834
40
0.981614360273586
40
1
40
1
40
1
40
1
41
1.04
10
45.1101123932202
20
-1.15203165615495
30
0
41
1.04
10
45.0797166542871
20
-0.669291748114276
30
0
41
1.04
10
45.0325973017725
20
0.14528546926158
30
0
41
1.04
10
44.981743166625
20
0.985159312044185
30
0
41
1.04
10
44.9646202339595
20
1.25359909728428
30
0
41
1.04
10
44.9637012460837
20
1.2679634631207
30
0
0
SPLINE
5
FD
100
AcDbEntity
8
1
62
256
6
ByLayer
370
13
48
1
60
0
100
AcDbSpline
70
4
71
3
72
9
73
5
40
0
40
0
40
0
40
0
40
0.279584923579794
40
1
40
1
40
1
40
1
41
1
10
39.0402318313507
20
1.0550576006674
30
0
41
1
10
39.0268114985842
20
1.27036864500948
30
0
41
1
10
38.9788235508715
20
2.01472902860459
30
0
41
1
10
38.9306531751851
20
2.61442713009862
30
0
41
1
10
38.8951755554023
20
2.91371806935388
30
0
0
SPLINE
5
FE
100
AcDbEntity
8
1
62
256
6
ByLayer
370
18
48
1
60
0
100
AcDbSpline
70
4
71
3
72
26
73
22
40
0
40
0
40
0
40
0
40
0.125000000000001
40
0.250000000000001
40
0.250000000000001
40
0.312500000000001
40
0.312500000000001
40
0.343750000000001
40
0.343750000000001
40
0.375000000000001
40
0.500000000000001
40
0.625000000000001
40
0.625000000000001
40
0.750000000000001
40
0.750000000000001
40
0.781250000000001
40
0.781250000000001
40
0.812500000000001
40
0.875000000000001
40
0.875000000000001
40
1
40
1
40
1
40
1
41
1
10
39.310450942124
20
3.46379677554313
30
0
41
1
10
39.3168549248134
20
3.39583141618513
30
0
41
1
10
39.3296121152452
20
3.24997993452269
30
0
41
1
10
39.3422843231003
20
3.08450173400721
30
0
41
1
10
39.3517838428402
20
2.95291267206866
30
0
41
1
10
39.3549498279281
20
2.90780082964153
30
0
41
1
10
39.3597041682236
20
2.83822491697555
30
0
41
1
10
39.3612920248399
20
2.81468207420286
30
0
41
1
10
39.3644582114693
20
2.76714351598318
30
0
41
1
10
39.3723494079703
20
2.64718016695102
30
0
41
1
10
39.3863632671715
20
2.42134081840166
30
0
41
1
10
39.3987837440554
20
2.20687147580409
30
0
41
1
10
39.4113401775944
20
1.98553562224262
30
0
41
1
10
39.4177000507946
20
1.87143557518866
30
0
41
1
10
39.425733157645
20
1.72439349880261
30
0
41
1
10
39.4273455339709
20
1.69473303897399
30
0
41
1
10
39.4305704093366
20
1.63510754450118
30
0
41
1
10
39.4353997236097
20
1.54536541732381
30
0
41
1
10
39.440203919489
20
1.45472224298018
30
0
41
1
10
39.4497796467091
20
1.27225459075109
30
0
41
1
10
39.456118567145
20
1.14903698166566
30
0
41
1
10
39.4624310346893
20
1.02426785906764
30
0
0
SPLINE
5
FF
100
AcDbEntity
8
1
62
256
6
ByLayer
370
18
48
1
60
0
100
AcDbSpline
70
4
71
3
72
27
73
23
40
0
40
0
40
0
40
0
40
0.125
40
0.25
40
0.25
40
0.28125
40
0.28125
40
0.3125
40
0.3125
40
0.374999999999999
40
0.374999999999999
40
0.499999999999998
40
0.624999999999997
40
0.624999999999997
40
0.687499999999996
40
0.718749999999996
40
0.718749999999996
40
0.749999999999996
40
0.749999999999996
40
0.874999999999998
40
0.874999999999998
40
1
40
1
40
1
40
1
41
1
10
39.5829813403705
20
0.971972027208608
30
0
41
1
10
39.5766542678101
20
1.09741925503062
30
0
41
1
10
39.5640005718878
20
1.34465642991469
30
0
41
1
10
39.5512935541572
20
1.58460531926499
30
0
41
1
10
39.5433167132025
20
1.7322409974889
30
0
41
1
10
39.5417195728385
20
1.76165125772607
30
0
41
1
10
39.5385211568825
20
1.82023559648456
30
0
41
1
10
39.5369177108119
20
1.84944883429321
30
0
41
1
10
39.5321209331067
20
1.9363546909367
30
0
41
1
10
39.5289397245807
20
1.99334278179754
30
0
41
1
10
39.5194365323367
20
2.16151466531386
30
0
41
1
10
39.506874439184
20
2.37831020387696
30
0
41
1
10
39.4944056309398
20
2.58050384934955
30
0
41
1
10
39.4850244554887
20
2.72662271622886
30
0
41
1
10
39.4803261654435
20
2.79829824434785
30
0
41
1
10
39.4756010172341
20
2.86786665003771
30
0
41
1
10
39.4724429979119
20
2.91377226306378
30
0
41
1
10
39.4708581594272
20
2.93651496901276
30
0
41
1
10
39.4629322619187
20
3.04870463703182
30
0
41
1
10
39.4566156908919
20
3.13318053900213
30
0
41
1
10
39.4439013376649
20
3.29192398241491
30
0
41
1
10
39.4375123179561
20
3.36619097607957
30
0
41
1
10
39.4311135857804
20
3.43538394600213
30
0
0
SPLINE
5
100
100
AcDbEntity
8
1
62
256
6
ByLayer
370
13
48
1
60
0
100
AcDbSpline
70
4
71
3
72
10
73
6
40
0
40
0
40
0
40
0
40
0.0320250445626219
40
0.949014187634932
40
1
40
1
40
1
40
1
41
1.04
10
39.9981057057944
20
0.713419657184335
30
0
41
1.04
10
39.996518325501
20
0.739647302882319
30
0
41
1.04
10
39.9495267241345
20
1.51392858130189
30
0
41
1.04
10
39.9016838184963
20
2.22740253719529
30
0
41
1.04
10
39.8552105946964
20
2.69943581944956
30
0
41
1.04
10
39.8527620657248
20
2.72368013353423
30
0
0
SPLINE
5
101
100
AcDbEntity
8
1
62
256
6
ByLayer
370
13
48
1
60
0
100
AcDbSpline
70
4
71
3
72
10
73
6
40
0
40
0
40
0
40
0
40
0.321414226745337
40
0.982529533870798
40
1
40
1
40
1
40
1
41
1
10
44.1523618747891
20
-0.812932237549262
30
0
41
1
10
44.1371314310164
20
-0.56319777097923
30
0
41
1
10
44.0903218111107
20
0.2255689673338
30
0
41
1
10
44.0410617028778
20
1.06003380616298
30
0
41
1
10
44.006825467609
20
1.57281146544702
30
0
41
1
10
44.0059434870593
20
1.58597636092367
30
0
0
SPLINE
5
102
100
AcDbEntity
8
1
62
256
6
ByLayer
370
18
48
1
60
0
100
AcDbSpline
70
4
71
3
72
25
73
21
40
0
40
0
40
0
40
0
40
0.125
40
0.125
40
0.25
40
0.375
40
0.375
40
0.4375
40
0.4375
40
0.499999999999999
40
0.499999999999999
40
0.749999999999998
40
0.749999999999998
40
0.812499999999998
40
0.812499999999998
40
0.843749999999998
40
0.843749999999998
40
0.874999999999998
40
0.874999999999998
40
1
40
1
40
1
40
1
41
1
10
44.276422111059
20
1.73088030196379
30
0
41
1
10
44.2829222827419
20
1.62289861418688
30
0
41
1
10
44.2893891690518
20
1.51299591681368
30
0
41
1
10
44.3023326759129
20
1.28950795970437
30
0
41
1
10
44.3152890643671
20
1.06233938417074
30
0
41
1
10
44.328368679161
20
0.827872581012798
30
0
41
1
10
44.3382456084705
20
0.649210318459524
30
0
41
1
10
44.3415566962884
20
0.589047059815499
30
0
41
1
10
44.3481403824493
20
0.468929407302454
30
0
41
1
10
44.351418431578
20
0.408877295472877
30
0
41
1
10
44.3677473819658
20
0.108650300245813
30
0
41
1
10
44.3805508941799
20
-0.131427343743752
30
0
41
1
10
44.3967268115551
20
-0.431367875932437
30
0
41
1
10
44.3999721719814
20
-0.491348063508411
30
0
41
1
10
44.4048625428851
20
-0.581305949258365
30
0
41
1
10
44.406496356409
20
-0.611289845859318
30
0
41
1
10
44.409772168272
20
-0.671253428606548
30
0
41
1
10
44.4114149440753
20
-0.701247122705553
30
0
41
1
10
44.4196200360703
20
-0.85064813930012
30
0
41
1
10
44.4261773791882
20
-0.968774313751709
30
0
41
1
10
44.432735258406
20
-1.08550505266601
30
0
0
SPLINE
5
103
100
AcDbEntity
8
1
62
256
6
ByLayer
370
18
48
1
60
0
100
AcDbSpline
70
4
71
3
72
26
73
22
40
0
40
0
40
0
40
0
40
0.125000000000001
40
0.125000000000001
40
0.250000000000002
40
0.250000000000002
40
0.375000000000003
40
0.375000000000003
40
0.406250000000003
40
0.406250000000003
40
0.437500000000003
40
0.437500000000003
40
0.500000000000003
40
0.500000000000003
40
0.625000000000002
40
0.625000000000002
40
0.750000000000001
40
0.750000000000001
40
0.875000000000001
40
0.875000000000001
40
1
40
1
40
1
40
1
41
1
10
44.9026265154752
20
-1.22448115213913
30
0
41
1
10
44.8965525811661
20
-1.11424345621765
30
0
41
1
10
44.8905048356731
20
-1.00299664695982
30
0
41
1
10
44.8785691835282
20
-0.778510790062029
30
0
41
1
10
44.8726672617792
20
-0.665276390277654
30
0
41
1
10
44.8609267261307
20
-0.436835734239594
30
0
41
1
10
44.8550873810518
20
-0.321629734174366
30
0
41
1
10
44.8477962699229
20
-0.176347611791613
30
0
41
1
10
44.8463385295071
20
-0.147227248789989
30
0
41
1
10
44.8434236097394
20
-0.088856714212568
30
0
41
1
10
44.8419648329015
20
-0.0595742865309603
30
0
41
1
10
44.8376110920545
20
0.0280263986082616
30
0
41
1
10
44.8347355903767
20
0.0862081465767801
30
0
41
1
10
44.8261311323473
20
0.260114347560716
30
0
41
1
10
44.8204172375994
20
0.375201968732881
30
0
41
1
10
44.8087658207035
20
0.603728492531701
30
0
41
1
10
44.8028676490711
20
0.717167791594221
30
0
41
1
10
44.7910848691615
20
0.942396117062856
30
0
41
1
10
44.7851976242632
20
1.05423211476574
30
0
41
1
10
44.7732858593295
20
1.27599852931524
30
0
41
1
10
44.7672747453118
20
1.38480875387697
30
0
41
1
10
44.7611472443174
20
1.49153118718516
30
0
0
SPLINE
5
104
100
AcDbEntity
8
1
62
256
6
ByLayer
370
18
48
1
60
0
100
AcDbSpline
70
4
71
3
72
14
73
10
40
0
40
0
40
0
40
0
40
0.499999999999994
40
0.499999999999994
40
0.74999999999999
40
0.74999999999999
40
0.874999999999995
40
0.874999999999995
40
1
40
1
40
1
40
1
41
1
10
37.4529149202767
20
-4.06591962892733
30
0
41
1
10
37.5219677576242
20
-3.94729325221422
30
0
41
1
10
37.5910958915573
20
-3.82848452928567
30
0
41
1
10
37.6949156106089
20
-3.65006248447446
30
0
41
1
10
37.7295388491257
20
-3.59055930451561
30
0
41
1
10
37.7814979004484
20
-3.5012804913284
30
0
41
1
10
37.7988213790706
20
-3.47151776669784
30
0
41
1
10
37.8334715135393
20
-3.41200368541973
30
0
41
1
10
37.8507978753196
20
-3.38225350561581
30
0
41
1
10
37.8681211672558
20
-3.35252500292862
30
0
0
SPLINE
5
105
100
AcDbEntity
8
1
62
256
6
ByLayer
370
18
48
1
60
0
100
AcDbSpline
70
4
71
3
72
25
73
21
40
0
40
0
40
0
40
0
40
0.170386656871674
40
0.170386656871674
40
0.255579985307511
40
0.255579985307511
40
0.340773313743348
40
0.340773313743348
40
0.425966642179185
40
0.425966642179185
40
0.511159970615022
40
0.596353299050859
40
0.596353299050859
40
0.681546627486696
40
0.681546627486696
40
0.85193328435837
40
0.85193328435837
40
0.937126612794175
40
0.937126612794175
40
1
40
1
40
1
40
1
41
1
10
36.5900930067672
20
-3.35457018326144
30
0
41
1
10
36.5986062186657
20
-3.34025411266092
30
0
41
1
10
36.6088481654668
20
-3.32764928882489
30
0
41
1
10
36.6265636480522
20
-3.31104194558944
30
0
41
1
10
36.6328986698692
20
-3.30588246811155
30
0
41
1
10
36.645992389471
20
-3.2966125455994
30
0
41
1
10
36.6527890224194
20
-3.29246055975489
30
0
41
1
10
36.666862738891
20
-3.28507896202751
30
0
41
1
10
36.6741693828833
20
-3.28183900454846
30
0
41
1
10
36.6891379257178
20
-3.27633625933572
30
0
41
1
10
36.7042995938605
20
-3.27186044213477
30
0
41
1
10
36.7198285713138
20
-3.26933160564147
30
0
41
1
10
36.7355400168278
20
-3.26777383009153
30
0
41
1
10
36.7435247828383
20
-3.26748611169282
30
0
41
1
10
36.7671918636975
20
-3.26810636182754
30
0
41
1
10
36.7827433411215
20
-3.27044183753921
30
0
41
1
10
36.8057053841436
20
-3.27686651110005
30
0
41
1
10
36.8132921424156
20
-3.2795081986047
30
0
41
1
10
36.8260153337407
20
-3.28484669835745
30
0
41
1
10
36.8313015287378
20
-3.28735462992617
30
0
41
1
10
36.8364698453426
20
-3.29010448228348
30
0
0
SPLINE
5
106
100
AcDbEntity
8
1
62
256
6
ByLayer
370
18
48
1
60
0
100
AcDbSpline
70
4
71
3
72
14
73
10
40
0
40
0
40
0
40
0
40
0.500000000000007
40
0.500000000000007
40
0.75000000000001
40
0.75000000000001
40
0.875000000000005
40
0.875000000000005
40
1
40
1
40
1
40
1
41
1
10
36.1747686264016
20
-4.05317042186141
30
0
41
1
10
36.2438381108077
20
-3.937561087738
30
0
41
1
10
36.3129843706429
20
-3.82145341354431
30
0
41
1
10
36.4168331229
20
-3.6466568430732
30
0
41
1
10
36.4514662708877
20
-3.5882828886954
30
0
41
1
10
36.5034411372742
20
-3.50061199567196
30
0
41
1
10
36.5207700264838
20
-3.47137320512832
30
0
41
1
10
36.5554314221247
20
-3.41292152718543
30
0
41
1
10
36.5727637053217
20
-3.38371165253415
30
0
41
1
10
36.5900930067672
20
-3.35457018326144
30
0
0
SPLINE
5
107
100
AcDbEntity
8
1
62
256
6
ByLayer
370
18
48
1
60
0
100
AcDbSpline
70
4
71
3
72
8
73
4
40
0
40
0
40
0
40
0
40
1
40
1
40
1
40
1
41
1
10
36.1747686264008
20
-4.05317042187789
30
0
41
1
10
36.1345728068184
20
-4.05150395981278
30
0
41
1
10
36.0943783353674
20
-4.04971856486966
30
0
41
1
10
36.0541847028071
20
-4.04781438791395
30
0
0
SPLINE
5
108
100
AcDbEntity
8
1
62
256
6
ByLayer
370
18
48
1
60
0
100
AcDbSpline
70
4
71
3
72
14
73
10
40
0
40
0
40
0
40
0
40
0.125000000000001
40
0.125000000000001
40
0.250000000000002
40
0.250000000000002
40
0.500000000000005
40
0.500000000000005
40
1
40
1
40
1
40
1
41
1
10
35.6322428060279
20
-3.31323953671713
30
0
41
1
10
35.6500091441984
20
-3.34414528808702
30
0
41
1
10
35.6677170368158
20
-3.37498805453348
30
0
41
1
10
35.7030730669152
20
-3.43659444778209
30
0
41
1
10
35.7207219070318
20
-3.46735894049112
30
0
41
1
10
35.7736217981186
20
-3.55956984836288
30
0
41
1
10
35.8088229091764
20
-3.62092466568771
30
0
41
1
10
35.9142705466829
20
-3.80461602038037
30
0
41
1
10
35.984322051373
20
-3.92652059963299
30
0
41
1
10
36.0541847028071
20
-4.04781438791412
30
0
0
SPLINE
5
109
100
AcDbEntity
8
1
62
256
6
ByLayer
370
18
48
1
60
0
100
AcDbSpline
70
4
71
3
72
30
73
26
40
0
40
0
40
0
40
0
40
0.124999999999983
40
0.124999999999983
40
0.187499999999958
40
0.187499999999958
40
0.249999999999932
40
0.249999999999932
40
0.312499999999907
40
0.312499999999907
40
0.374999999999881
40
0.437499999999856
40
0.437499999999856
40
0.49999999999983
40
0.49999999999983
40
0.624999999999828
40
0.624999999999828
40
0.687499999999851
40
0.687499999999851
40
0.749999999999873
40
0.812499999999896
40
0.812499999999896
40
0.874999999999919
40
0.874999999999919
40
1
40
1
40
1
40
1
41
1
10
35.3121032113792
20
-3.29084368678323
30
0
41
1
10
35.3206177685837
20
-3.27709292017451
30
0
41
1
10
35.3308637507799
20
-3.26513756203593
30
0
41
1
10
35.3485898899487
20
-3.24960981814962
30
0
41
1
10
35.3549286544605
20
-3.24483033480792
30
0
41
1
10
35.3680295091511
20
-3.23633291257815
30
0
41
1
10
35.374830000403
20
-3.23257549247199
30
0
41
1
10
35.388912010272
20
-3.22599759896707
30
0
41
1
10
35.3962244521512
20
-3.22316803568396
30
0
41
1
10
35.4111981239873
20
-3.21849481497068
30
0
41
1
10
35.4263649691518
20
-3.21484587233442
30
0
41
1
10
35.4418992412165
20
-3.21313843707432
30
0
41
1
10
35.4576160557659
20
-3.21239964085041
30
0
41
1
10
35.4656016422049
20
-3.21252213341654
30
0
41
1
10
35.489266609899
20
-3.2143402103072
30
0
41
1
10
35.5048172695869
20
-3.21743948680063
30
0
41
1
10
35.5277788632128
20
-3.22496610601189
30
0
41
1
10
35.5353609841593
20
-3.2279656824316
30
0
41
1
10
35.5499948394365
20
-3.2347919177351
30
0
41
1
10
35.5642021602788
20
-3.24247588305357
30
0
41
1
10
35.5775422238381
20
-3.25188736010426
30
0
41
1
10
35.5904195183129
20
-3.26221167773022
30
0
41
1
10
35.5965778005477
20
-3.26780038390118
30
0
41
1
10
35.6138154592612
20
-3.28549133111531
30
0
41
1
10
35.6238420129711
20
-3.29862578688116
30
0
41
1
10
35.632242806028
20
-3.31323953671713
30
0
0
SPLINE
5
10A
100
AcDbEntity
8
1
62
256
6
ByLayer
370
18
48
1
60
0
100
AcDbSpline
70
4
71
3
72
14
73
10
40
0
40
0
40
0
40
0
40
0.5
40
0.5
40
0.749999999999994
40
0.749999999999994
40
0.874999999999997
40
0.874999999999997
40
1
40
1
40
1
40
1
41
1
10
34.8969879737932
20
-3.96031898916766
30
0
41
1
10
34.9660232768263
20
-3.85012423247343
30
0
41
1
10
35.0351350348701
20
-3.73911112897531
30
0
41
1
10
35.1389311723337
20
-3.57153375966507
30
0
41
1
10
35.1735462839464
20
-3.51549014918879
30
0
41
1
10
35.2254941670302
20
-3.43122152006143
30
0
41
1
10
35.2428140779213
20
-3.40310355102548
30
0
41
1
10
35.2774579928185
20
-3.34689975244922
30
0
41
1
10
35.2947818703125
20
-3.31881715770373
30
0
41
1
10
35.3121032113792
20
-3.29084368678323
30
0
0
SPLINE
5
10B
100
AcDbEntity
8
1
62
256
6
ByLayer
370
18
48
1
60
0
100
AcDbSpline
70
4
71
3
72
8
73
4
40
0
40
0
40
0
40
0
40
1
40
1
40
1
40
1
41
1
10
34.8969879737923
20
-3.96031898918503
30
0
41
1
10
34.8567540498294
20
-3.9561472451208
30
0
41
1
10
34.8165221259998
20
-3.9518587433557
30
0
41
1
10
34.7762915281853
20
-3.94745383040933
30
0
0
SPLINE
5
10C
100
AcDbEntity
8
1
62
256
6
ByLayer
370
18
48
1
60
0
100
AcDbSpline
70
4
71
3
72
14
73
10
40
0
40
0
40
0
40
0
40
0.125
40
0.125
40
0.250000000000001
40
0.250000000000001
40
0.5
40
0.5
40
1
40
1
40
1
40
1
41
1
10
34.3542200830028
20
-3.19979637193532
30
0
41
1
10
34.3719909934715
20
-3.23090198943982
30
0
41
1
10
34.3897044271255
20
-3.26203713898076
30
0
41
1
10
34.4250735668509
20
-3.32433662713228
30
0
41
1
10
34.4427295317525
20
-3.35550083745483
30
0
41
1
10
34.4956505673718
20
-3.44901651473125
30
0
41
1
10
34.5308657134743
20
-3.51137358429293
30
0
41
1
10
34.6363487316176
20
-3.69840899380858
30
0
41
1
10
34.7064166638917
20
-3.82301875440336
30
0
41
1
10
34.7762915281853
20
-3.9474538304095
30
0
0
SPLINE
5
10D
100
AcDbEntity
8
1
62
256
6
ByLayer
370
18
48
1
60
0
100
AcDbSpline
70
4
71
3
72
30
73
26
40
0
40
0
40
0
40
0
40
0.125000000000001
40
0.125000000000001
40
0.187500000000001
40
0.187500000000001
40
0.25
40
0.25
40
0.3125
40
0.3125
40
0.375
40
0.437499999999999
40
0.437499999999999
40
0.499999999999999
40
0.499999999999999
40
0.624999999999999
40
0.624999999999999
40
0.687499999999999
40
0.687499999999999
40
0.749999999999998
40
0.812499999999998
40
0.812499999999998
40
0.874999999999998
40
0.874999999999998
40
1
40
1
40
1
40
1
41
1
10
34.0340781855578
20
-3.16117834513102
30
0
41
1
10
34.0425951059232
20
-3.14826563433212
30
0
41
1
10
34.0528456080869
20
-3.13719765205113
30
0
41
1
10
34.0705820828208
20
-3.1230601905109
30
0
41
1
10
34.0769244007217
20
-3.11875650104051
30
0
41
1
10
34.0900320099105
20
-3.11120226209818
30
0
41
1
10
34.0968360667381
20
-3.10791522581479
30
0
41
1
10
34.1109255870171
20
-3.1022745061978
30
0
41
1
10
34.1182430719018
20
-3.09991338694624
30
0
41
1
10
34.1332214753491
20
-3.09616547062521
30
0
41
1
10
34.1483930297926
20
-3.09341951153832
30
0
41
1
10
34.1639318350858
20
-3.09257130322581
30
0
41
1
10
34.1796531936459
20
-3.0926707481234
30
0
41
1
10
34.1876393681095
20
-3.09320333199608
30
0
41
1
10
34.2113023489909
20
-3.09619045316606
30
0
41
1
10
34.2268518725986
20
-3.0999978938741
30
0
41
1
10
34.2498117992199
20
-3.10848718295625
30
0
41
1
10
34.2573893305316
20
-3.11178853066355
30
0
41
1
10
34.2720158296659
20
-3.11916974560728
30
0
41
1
10
34.2862167038322
20
-3.12736428776418
30
0
41
1
10
34.2995513873712
20
-3.13720214674211
30
0
41
1
10
34.3124239963788
20
-3.14791029150183
30
0
41
1
10
34.3185758240223
20
-3.15366399863234
30
0
41
1
10
34.3358008611906
20
-3.1717766171989
30
0
41
1
10
34.3458219890217
20
-3.18509662429975
30
0
41
1
10
34.3542200830028
20
-3.19979637193532
30
0
0
SPLINE
5
10E
100
AcDbEntity
8
1
62
256
6
ByLayer
370
18
48
1
60
0
100
AcDbSpline
70
4
71
3
72
12
73
8
40
0
40
0
40
0
40
0
40
0.5
40
0.5
40
0.75
40
0.75
40
1
40
1
40
1
40
1
41
1
10
33.7346174667382
20
-3.61545434752651
30
0
41
1
10
33.7844509210121
20
-3.54062182855904
30
0
41
1
10
33.8343320243083
20
-3.4652579863519
30
0
41
1
10
33.9092038154305
20
-3.35148009002131
30
0
41
1
10
33.9341707805198
20
-3.31341221040543
30
0
41
1
10
33.9841187976805
20
-3.23720305671361
30
0
41
1
10
34.009100432295
20
-3.19904772636807
30
0
41
1
10
34.0340781855578
20
-3.16117834513102
30
0
0
SPLINE
5
10F
100
AcDbEntity
8
1
62
256
6
ByLayer
370
18
48
1
60
0
100
AcDbSpline
70
4
71
3
72
8
73
4
40
0
40
0
40
0
40
0
40
1
40
1
40
1
40
1
41
1
10
33.1948175735826
20
-3.23035644606321
30
0
41
1
10
33.3756256241315
20
-3.35928293826154
30
0
41
1
10
33.5554477626881
20
-3.48779544243504
30
0
41
1
10
33.7346174667382
20
-3.61545434752651
30
0
0
SPLINE
5
110
100
AcDbEntity
8
1
62
256
6
ByLayer
370
18
48
1
60
0
100
AcDbSpline
70
4
71
3
72
10
73
6
40
0
40
0
40
0
40
0
40
0.5
40
0.5
40
1
40
1
40
1
40
1
41
1
10
33.0761973123305
20
-3.02342914293135
30
0
41
1
10
33.0960573406287
20
-3.05771786092473
30
0
41
1
10
33.1158492591235
20
-3.0921490056723
30
0
41
1
10
33.1553726913295
20
-3.16115562324097
30
0
41
1
10
33.175103243469
20
-3.19573279250722
30
0
41
1
10
33.1948175735826
20
-3.23035644606321
30
0
0
SPLINE
5
111
100
AcDbEntity
8
1
62
256
6
ByLayer
370
18
48
1
60
0
100
AcDbSpline
70
4
71
3
72
30
73
26
40
0
40
0
40
0
40
0
40
0.062499999999993
40
0.062499999999993
40
0.124999999999986
40
0.187499999999979
40
0.187499999999979
40
0.249999999999972
40
0.249999999999972
40
0.375000000000012
40
0.375000000000012
40
0.437500000000031
40
0.437500000000031
40
0.500000000000051
40
0.562500000000071
40
0.562500000000071
40
0.62500000000009
40
0.62500000000009
40
0.750000000000078
40
0.750000000000078
40
0.812500000000049
40
0.812500000000049
40
0.875000000000021
40
0.875000000000021
40
1
40
1
40
1
40
1
41
1
10
32.7853880751128
20
-2.94044430513796
30
0
41
1
10
32.7905376399662
20
-2.9367262169055
30
0
41
1
10
32.7960335080147
20
-2.93331639220722
30
0
41
1
10
32.8073913728322
20
-2.92728428478813
30
0
41
1
10
32.8191422366
20
-2.9220062385705
30
0
41
1
10
32.8316438512074
20
-2.91815387037434
30
0
41
1
10
32.8445188015016
20
-2.9150050047808
30
0
41
1
10
32.8511448826577
20
-2.91378778757164
30
0
41
1
10
32.8711305466284
20
-2.91124834347937
30
0
41
1
10
32.884742681802
20
-2.91098281496579
30
0
41
1
10
32.9055829061265
20
-2.91268485753861
30
0
41
1
10
32.9125934751891
20
-2.91361011120782
30
0
41
1
10
32.9264489111371
20
-2.91612475471933
30
0
41
1
10
32.9402159675685
20
-2.91930799425083
30
0
41
1
10
32.9538046757474
20
-2.9238146908734
30
0
41
1
10
32.967299537703
20
-2.92900139618399
30
0
41
1
10
32.9740293964128
20
-2.93195239693387
30
0
41
1
10
32.9936332033025
20
-2.94166070125615
30
0
41
1
10
33.0060482559056
20
-2.94929600001765
30
0
41
1
10
33.0236497484726
20
-2.96255015592027
30
0
41
1
10
33.0293750708275
20
-2.96729897214999
30
0
41
1
10
33.0403104136662
20
-2.97731164446895
30
0
41
1
10
33.0454890156335
20
-2.98254088017472
30
0
41
1
10
33.0601631218275
20
-2.99889428054792
30
0
41
1
10
33.06880974882
20
-3.01067437349872
30
0
41
1
10
33.0761973123305
20
-3.02342914293138
30
0
0
SPLINE
5
112
100
AcDbEntity
8
1
62
256
6
ByLayer
370
18
48
1
60
0
100
AcDbSpline
70
4
71
3
72
8
73
4
40
0
40
0
40
0
40
0
40
1
40
1
40
1
40
1
41
1
10
32.6519253247133
20
-2.84801132665325
30
0
41
1
10
32.6966200686674
20
-2.87871606646579
30
0
41
1
10
32.7411042696015
20
-2.90953240913248
30
0
41
1
10
32.7853880751129
20
-2.94044430513807
30
0
0
SPLINE
5
113
100
AcDbEntity
8
1
62
256
6
ByLayer
370
18
48
1
60
0
100
AcDbSpline
70
4
71
3
72
16
73
12
40
0
40
0
40
0
40
0
40
0.25
40
0.25
40
0.5
40
0.5
40
0.625
40
0.625
40
0.75
40
0.75
40
1
40
1
40
1
40
1
41
1
10
32.1019253247133
20
-2.62325846170904
30
0
41
1
10
32.1501314137093
20
-2.63202963032211
30
0
41
1
10
32.1978751304596
20
-2.64323839142261
30
0
41
1
10
32.2923618245114
20
-2.67052898723546
30
0
41
1
10
32.3391047683559
20
-2.68661168715309
30
0
41
1
10
32.4083600283838
20
-2.71456883677607
30
0
41
1
10
32.4313013953926
20
-2.72452849768081
30
0
41
1
10
32.4768717087961
20
-2.74578058665355
30
0
41
1
10
32.4995548440839
20
-2.75710314705537
30
0
41
1
10
32.5666016378419
20
-2.79290310423485
30
0
41
1
10
32.6099719353914
20
-2.81918986378267
30
0
41
1
10
32.6519253247133
20
-2.84801132665325
30
0
0
SPLINE
5
114
100
AcDbEntity
8
1
62
256
6
ByLayer
370
18
48
1
60
0
100
AcDbSpline
70
4
71
3
72
20
73
16
40
0
40
0
40
0
40
0
40
0.250000000000006
40
0.250000000000006
40
0.37500000000001
40
0.37500000000001
40
0.43750000000001
40
0.43750000000001
40
0.50000000000001
40
0.50000000000001
40
0.750000000000005
40
0.750000000000005
40
0.875000000000003
40
0.875000000000003
40
1
40
1
40
1
40
1
41
1
10
25.6889273636214
20
-0.920472665117472
30
0
41
1
10
26.2223702864638
20
-1.09437242006931
30
0
41
1
10
26.7555895717406
20
-1.26353473469595
30
0
41
1
10
27.5564730832693
20
-1.50633057932691
30
0
41
1
10
27.8236189528206
20
-1.58541714386814
30
0
41
1
10
28.2247535703336
20
-1.70091038135615
30
0
41
1
10
28.3585312076311
20
-1.73889372844977
30
0
41
1
10
28.6262273789193
20
-1.81380524977664
30
0
41
1
10
28.7601248438701
20
-1.85072792628654
30
0
41
1
10
29.4290306232155
20
-2.03236022576073
30
0
41
1
10
29.9630651392443
20
-2.16818935630832
30
0
41
1
10
30.7645239661465
20
-2.35326893857331
30
0
41
1
10
31.0317600903538
20
-2.41184120462046
30
0
41
1
10
31.5665734295246
20
-2.52246398261042
30
0
41
1
10
31.8341404807812
20
-2.57453461650468
30
0
41
1
10
32.1019253247133
20
-2.62325846170904
30
0
0
SPLINE
5
115
100
AcDbEntity
8
1
62
256
6
ByLayer
370
18
48
1
60
0
100
AcDbSpline
70
4
71
3
72
25
73
21
40
0
40
0
40
0
40
0
40
0.109197549356809
40
0.109197549356809
40
0.257664624464008
40
0.257664624464008
40
0.406131699571206
40
0.406131699571206
40
0.480365237124805
40
0.480365237124805
40
0.554598774678404
40
0.554598774678404
40
0.703065849785603
40
0.703065849785603
40
0.777299387339202
40
0.777299387339202
40
0.851532924892802
40
0.925766462446401
40
0.925766462446401
40
1
40
1
40
1
40
1
41
1
10
30.8562709197171
20
-2.38042791266292
30
0
41
1
10
30.6149143742172
20
-2.4325569414352
30
0
41
1
10
30.3735904897251
20
-2.48206933424649
30
0
41
1
10
29.804210054001
20
-2.59275827141386
30
0
41
1
10
29.4761952069697
20
-2.65176309564831
30
0
41
1
10
28.8201781249782
20
-2.75990196788411
30
0
41
1
10
28.492229656665
20
-2.80907507355639
30
0
41
1
10
27.9996448832722
20
-2.8743992686077
30
0
41
1
10
27.8353309484223
20
-2.89476470306573
30
0
41
1
10
27.5063932926817
20
-2.93262244824356
30
0
41
1
10
27.341973016817
20
-2.95010572825564
30
0
41
1
10
26.8489422227361
20
-2.99827878794383
30
0
41
1
10
26.5205415772053
20
-3.02471001311108
30
0
41
1
10
26.0283323683184
20
-3.0557459229708
30
0
41
1
10
25.86433037144
20
-3.06465337072768
30
0
41
1
10
25.5364006420338
20
-3.07953130258608
30
0
41
1
10
25.2085264225816
20
-3.09146133142212
30
0
41
1
10
24.8805108983159
20
-3.09740799117989
30
0
41
1
10
24.5523251010425
20
-3.10037352427247
30
0
41
1
10
24.3881425518126
20
-3.10036795691684
30
0
41
1
10
24.2238758114007
20
-3.09888677256899
30
0
0
SPLINE
5
116
100
AcDbEntity
8
1
62
256
6
ByLayer
370
18
48
1
60
0
100
AcDbSpline
70
4
71
3
72
12
73
8
40
0
40
0
40
0
40
0
40
0.24999999999999
40
0.24999999999999
40
0.49999999999998
40
0.49999999999998
40
1
40
1
40
1
40
1
41
1
10
46.265508455883
20
0.8066280204892
30
0
41
1
10
46.1923037881222
20
0.83747331608609
30
0
41
1
10
46.1192551753743
20
0.868787814856432
30
0
41
1
10
45.9733366639301
20
0.932038613939341
30
0
41
1
10
45.9004677983458
20
0.963977128892623
30
0
41
1
10
45.6821088649563
20
1.06068635784862
30
0
41
1
10
45.5368628606201
20
1.12634152794794
30
0
41
1
10
45.3919076000367
20
1.19312478751661
30
0
0
SPLINE
5
117
100
AcDbEntity
8
1
62
256
6
ByLayer
370
18
48
1
60
0
100
AcDbSpline
70
4
71
3
72
17
73
13
40
0
40
0
40
0
40
0
40
0.25
40
0.25
40
0.5
40
0.5
40
0.625
40
0.625
40
0.75
40
0.875
40
0.875
40
1
40
1
40
1
40
1
41
1
10
46.4612059406462
20
0.725372613281763
30
0
41
1
10
46.4443265445743
20
0.729900312968113
30
0
41
1
10
46.4269546819656
20
0.735173406154217
30
0
41
1
10
46.3914289031961
20
0.747163428324285
30
0
41
1
10
46.3739604738757
20
0.753648040237351
30
0
41
1
10
46.3482186488636
20
0.764168883398497
30
0
41
1
10
46.3396709966727
20
0.767832846046701
30
0
41
1
10
46.3232267509715
20
0.775247359838744
30
0
41
1
10
46.3073278769954
20
0.782788079553683
30
0
41
1
10
46.2925370585364
20
0.790616925067923
30
0
41
1
10
46.2783446380627
20
0.798617590057233
30
0
41
1
10
46.2716785886035
20
0.802632014159627
30
0
41
1
10
46.2655084558815
20
0.80662802049028
30
0
0
SPLINE
5
118
100
AcDbEntity
8
1
62
256
6
ByLayer
370
18
48
1
60
0
100
AcDbSpline
70
4
71
3
72
8
73
4
40
0
40
0
40
0
40
0
40
1
40
1
40
1
40
1
41
1
10
46.6999999156457
20
0.629591504557766
30
0
41
1
10
46.620209496768
20
0.660958333241979
30
0
41
1
10
46.540617068218
20
0.692896154275104
30
0
41
1
10
46.4612059406462
20
0.725372613281763
30
0
0
SPLINE
5
119
100
AcDbEntity
8
1
62
256
6
ByLayer
370
18
48
1
60
0
100
AcDbSpline
70
4
71
3
72
10
73
6
40
0
40
0
40
0
40
0
40
0.5
40
0.5
40
1
40
1
40
1
40
1
41
1
10
47
20
0.494202367967631
30
0
41
1
10
46.949551193397
20
0.512543212774261
30
0
41
1
10
46.899296445551
20
0.53307783044437
30
0
41
1
10
46.7992413933621
20
0.57828866158178
30
0
41
1
10
46.7495002269484
20
0.602947291172683
30
0
41
1
10
46.6999999156462
20
0.629591504557823
30
0
0
SPLINE
5
11A
100
AcDbEntity
8
1
62
256
6
ByLayer
370
18
48
1
60
0
100
AcDbSpline
70
4
71
3
72
50
73
46
40
0
40
0
40
0
40
0
40
0.0312912797541916
40
0.0312912797541916
40
0.0469369196312874
40
0.0469369196312874
40
0.0625825595083832
40
0.0625825595083832
40
0.125165119016766
40
0.125165119016766
40
0.250330238033531
40
0.250330238033531
40
0.281621517787722
40
0.281621517787722
40
0.297267157664818
40
0.297267157664818
40
0.312912797541913
40
0.375495357050296
40
0.375495357050296
40
0.438077916558679
40
0.438077916558679
40
0.500660476067062
40
0.500660476067062
40
0.516306115944157
40
0.516306115944157
40
0.531951755821253
40
0.563243035575444
40
0.563243035575444
40
0.625825595083827
40
0.625825595083827
40
0.688408154592209
40
0.688408154592209
40
0.7196994343464
40
0.7196994343464
40
0.735345074223496
40
0.735345074223496
40
0.750990714100592
40
0.750990714100592
40
0.876155833117359
40
0.876155833117359
40
0.938738392625742
40
0.938738392625742
40
0.970029672379933
40
0.970029672379933
40
1
40
1
40
1
40
1
41
1
10
47
20
2.97048529728102
30
0
41
1
10
47
20
2.92761599388186
30
0
41
1
10
47
20
2.88469507344132
30
0
41
1
10
47
20
2.82023448827968
30
0
41
1
10
47
20
2.79871932928501
30
0
41
1
10
47
20
2.75591804570271
30
0
41
1
10
46.9999999999999
20
2.73460138400719
30
0
41
1
10
47
20
2.62843071599778
30
0
41
1
10
47
20
2.54480906711137
30
0
41
1
10
47
20
2.29775650031343
30
0
41
1
10
47
20
2.13815029808427
30
0
41
1
10
47
20
1.94513571272395
30
0
41
1
10
47
20
1.90685791189443
30
0
41
1
10
47
20
1.84994074538415
30
0
41
1
10
47
20
1.83103375549558
30
0
41
1
10
47
20
1.79360286588712
30
0
41
1
10
47
20
1.70086203446905
30
0
41
1
10
47.0000000000001
20
1.61230087182292
30
0
41
1
10
47.0000000000001
20
1.47584281153513
30
0
41
1
10
47
20
1.4102083421117
30
0
41
1
10
47
20
1.2841035568139
30
0
41
1
10
47.0000000000001
20
1.2236324614907
30
0
41
1
10
47
20
1.15144379180319
30
0
41
1
10
47
20
1.13717054590646
30
0
41
1
10
47
20
1.10912734829415
30
0
41
1
10
47
20
1.06775629774319
30
0
41
1
10
47
20
1.02842647914252
30
0
41
1
10
47
20
0.952419702744891
30
0
41
1
10
47
20
0.905273442031472
30
0
41
1
10
47
20
0.817968290222467
30
0
41
1
10
47
20
0.777820672773231
30
0
41
1
10
47
20
0.723056739671989
30
0
41
1
10
47.0000000000001
20
0.705706498685345
30
0
41
1
10
47.0000000000001
20
0.68105247906567
30
0
41
1
10
47
20
0.673067943155871
30
0
41
1
10
47
20
0.657642265603101
30
0
41
1
10
47.0000000000001
20
0.650189786765878
30
0
41
1
10
47.0000000000001
20
0.585433831986791
30
0
41
1
10
47
20
0.544212510406936
30
0
41
1
10
47
20
0.506801771809876
30
0
41
1
10
47
20
0.498388877870667
30
0
41
1
10
47
20
0.492054185357631
30
0
41
1
10
47
20
0.4910095210885
30
0
41
1
10
47
20
0.491032151462036
30
0
41
1
10
47
20
0.492011947011008
30
0
41
1
10
47
20
0.493941673468385
30
0
0
SPLINE
5
11B
100
AcDbEntity
8
1
62
256
6
ByLayer
370
18
48
1
60
0
100
AcDbSpline
70
4
71
3
72
8
73
4
40
0
40
0
40
0
40
0
40
1
40
1
40
1
40
1
41
1
10
46.7000000470531
20
3.2701168927658
30
0
41
1
10
46.8006533847943
20
3.17016596162949
30
0
41
1
10
46.9007345915569
20
3.0703434059931
30
0
41
1
10
47
20
2.97048529728104
30
0
0
SPLINE
5
11C
100
AcDbEntity
8
1
62
256
6
ByLayer
370
18
48
1
60
0
100
AcDbSpline
70
4
71
3
72
8
73
4
40
0
40
0
40
0
40
0
40
1
40
1
40
1
40
1
41
1
10
46.2887153911953
20
3.36874594520802
30
0
41
1
10
46.4257482698857
20
3.33697818336233
30
0
41
1
10
46.5628298300433
20
3.3041059179327
30
0
41
1
10
46.7000000470531
20
3.2701168927658
30
0
0
SPLINE
5
11D
100
AcDbEntity
8
1
62
256
6
ByLayer
370
18
48
1
60
0
100
AcDbSpline
70
4
71
3
72
8
73
4
40
0
40
0
40
0
40
0
40
1
40
1
40
1
40
1
41
1
10
46.2824145156401
20
3.35802221718336
30
0
41
1
10
46.2845156744973
20
3.36159891927517
30
0
41
1
10
46.2866159625652
20
3.36517349287095
30
0
41
1
10
46.2887153911952
20
3.36874594520813
30
0
0
SPLINE
5
11E
100
AcDbEntity
8
1
62
256
6
ByLayer
370
18
48
1
60
0
100
AcDbSpline
70
4
71
3
72
30
73
26
40
0
40
0
40
0
40
0
40
0.12500000000009
40
0.12500000000009
40
0.187500000000098
40
0.187500000000098
40
0.250000000000107
40
0.250000000000107
40
0.312500000000116
40
0.312500000000116
40
0.375000000000125
40
0.437500000000133
40
0.437500000000133
40
0.500000000000142
40
0.500000000000142
40
0.625000000000159
40
0.625000000000159
40
0.687500000000121
40
0.687500000000121
40
0.750000000000082
40
0.812500000000044
40
0.812500000000044
40
0.875000000000005
40
0.875000000000005
40
1
40
1
40
1
40
1
41
1
10
45.9622884493704
20
3.3506710854964
30
0
41
1
10
45.9707918736212
20
3.33646213284663
30
0
41
1
10
45.9810062836079
20
3.32397095789062
30
0
41
1
10
45.9986503366152
20
3.30752702665581
30
0
41
1
10
46.0049605059806
20
3.30241722542453
30
0
41
1
10
46.0180076904193
20
3.29323489832055
30
0
41
1
10
46.0247788921106
20
3.28912381377973
30
0
41
1
10
46.0387972254188
20
3.28181795061468
30
0
41
1
10
46.0460621800362
20
3.2786169605512
30
0
41
1
10
46.0609985659847
20
3.27316520747965
30
0
41
1
10
46.0761271373577
20
3.26873592706832
30
0
41
1
10
46.0916209278792
20
3.26624422116947
30
0
41
1
10
46.1072960004776
20
3.26471828066462
30
0
41
1
10
46.1152720889554
20
3.26444265471102
30
0
41
1
10
46.1389590392774
20
3.26509929717255
30
0
41
1
10
46.1545191080582
20
3.26745851587921
30
0
41
1
10
46.1774884339746
20
3.27391097004184
30
0
41
1
10
46.1851058463001
20
3.27657003949727
30
0
41
1
10
46.199805664177
20
3.28275465153863
30
0
41
1
10
46.2140694988891
20
3.28982626845999
30
0
41
1
10
46.2274500130726
20
3.29867585489919
30
0
41
1
10
46.240360801145
20
3.30846067503973
30
0
41
1
10
46.2465713665856
20
3.3138258407119
30
0
41
1
10
46.2639190391694
20
3.33089270374353
30
0
41
1
10
46.2739918019467
20
3.34368463505177
30
0
41
1
10
46.2824145156401
20
3.35802221718336
30
0
0
SPLINE
5
11F
100
AcDbEntity
8
1
62
256
6
ByLayer
370
18
48
1
60
0
100
AcDbSpline
70
4
71
3
72
8
73
4
40
0
40
0
40
0
40
0
40
1
40
1
40
1
40
1
41
1
10
45.8994064113446
20
3.45603736989548
30
0
41
1
10
45.9203705797223
20
3.42083227007032
30
0
41
1
10
45.9413336721783
20
3.38568585462085
30
0
41
1
10
45.9622884493704
20
3.3506710854964
30
0
0
SPLINE
5
120
100
AcDbEntity
8
1
62
256
6
ByLayer
370
18
48
1
60
0
100
AcDbSpline
70
4
71
3
72
10
73
6
40
0
40
0
40
0
40
0
40
0.5
40
0.5
40
1
40
1
40
1
40
1
41
1
10
45.174966015568
20
3.60177565066056
30
0
41
1
10
45.2954273354819
20
3.57948080992335
30
0
41
1
10
45.4160310115574
20
3.55614629680176
30
0
41
1
10
45.6575207399164
20
3.50752415306098
30
0
41
1
10
45.7784111743981
20
3.48223495885597
30
0
41
1
10
45.8994064113446
20
3.4560373698954
30
0
0
SPLINE
5
121
100
AcDbEntity
8
1
62
256
6
ByLayer
370
18
48
1
60
0
100
AcDbSpline
70
4
71
3
72
10
73
6
40
0
40
0
40
0
40
0
40
0.5
40
0.5
40
1
40
1
40
1
40
1
41
1
10
45.0042735798354
20
3.3039030260978
30
0
41
1
10
45.032937781843
20
3.35376131610442
30
0
41
1
10
45.0614308394192
20
3.40347467269146
30
0
41
1
10
45.1182802386553
20
3.50273892420469
30
0
41
1
10
45.1466421507649
20
3.55229585111093
30
0
41
1
10
45.174966015568
20
3.60177565066056
30
0
0
SPLINE
5
122
100
AcDbEntity
8
1
62
256
6
ByLayer
370
18
48
1
60
0
100
AcDbSpline
70
4
71
3
72
30
73
26
40
0
40
0
40
0
40
0
40
0.124999999999973
40
0.124999999999973
40
0.18749999999996
40
0.18749999999996
40
0.249999999999946
40
0.249999999999946
40
0.312499999999933
40
0.312499999999933
40
0.37499999999992
40
0.437499999999906
40
0.437499999999906
40
0.499999999999893
40
0.499999999999893
40
0.624999999999866
40
0.624999999999866
40
0.6874999999999
40
0.6874999999999
40
0.749999999999935
40
0.812499999999969
40
0.812499999999969
40
0.875000000000003
40
0.875000000000003
40
1
40
1
40
1
40
1
41
1
10
44.6841431614774
20
3.27984779799496
30
0
41
1
10
44.692649630589
20
3.26626522188786
30
0
41
1
10
44.7028708125397
20
3.2544804993297
30
0
41
1
10
44.7205314555194
20
3.23919166058454
30
0
41
1
10
44.7268473961183
20
3.23448602557281
30
0
41
1
10
44.7399052827294
20
3.22612126722902
30
0
41
1
10
44.7466822956023
20
3.22242535866357
30
0
41
1
10
44.7607131854107
20
3.21596095143914
30
0
41
1
10
44.7679877440527
20
3.2131864350097
30
0
41
1
10
44.7829312951615
20
3.20859777748751
30
0
41
1
10
44.7980671837759
20
3.20502478539649
30
0
41
1
10
44.8135686097439
20
3.20337626154003
30
0
41
1
10
44.8292514963954
20
3.20268737673592
30
0
41
1
10
44.8372299219416
20
3.20282979759145
30
0
41
1
10
44.860911828079
20
3.20470298121953
30
0
41
1
10
44.8764695359383
20
3.20782946703423
30
0
41
1
10
44.899436603172
20
3.2153761782007
30
0
41
1
10
44.9070479101419
20
3.21838945890596
30
0
41
1
10
44.9217343821151
20
3.22524326257903
30
0
41
1
10
44.9359868029224
20
3.23295150710578
30
0
41
1
10
44.9493592235833
20
3.24237727190399
30
0
41
1
10
44.9622633749184
20
3.2527090434815
30
0
41
1
10
44.9684647589331
20
3.25832678781123
30
0
41
1
10
44.9857913274302
20
3.27608577835298
30
0
41
1
10
44.9958553181627
20
3.28926036722609
30
0
41
1
10
45.0042735798354
20
3.3039030260978
30
0
0
SPLINE
5
123
100
AcDbEntity
8
1
62
256
6
ByLayer
370
18
48
1
60
0
100
AcDbSpline
70
4
71
3
72
12
73
8
40
0
40
0
40
0
40
0
40
0.49999999999998
40
0.49999999999998
40
0.74999999999999
40
0.74999999999999
40
1
40
1
40
1
40
1
41
1
10
44.4039323531598
20
3.73006070592237
30
0
41
1
10
44.4505731522044
20
3.65547535086725
30
0
41
1
10
44.4972549478099
20
3.5805302410246
30
0
41
1
10
44.5673221571141
20
3.46767247067794
30
0
41
1
10
44.5906858469708
20
3.42998450225068
30
0
41
1
10
44.6374181624813
20
3.35470591816929
30
0
41
1
10
44.6607854151362
20
3.31714392676528
30
0
41
1
10
44.6841431614774
20
3.27984779799496
30
0
0
SPLINE
5
124
100
AcDbEntity
8
1
62
256
6
ByLayer
370
18
48
1
60
0
100
AcDbSpline
70
4
71
3
72
8
73
4
40
0
40
0
40
0
40
0
40
1
40
1
40
1
40
1
41
1
10
44.0617577744426
20
3.77720147897284
30
0
41
1
10
44.1756425818591
20
3.76257139523418
30
0
41
1
10
44.2896944249814
20
3.7468441362316
30
0
41
1
10
44.4039323531598
20
3.73006070592237
30
0
0
SPLINE
5
125
100
AcDbEntity
8
1
62
256
6
ByLayer
370
18
48
1
60
0
100
AcDbSpline
70
4
71
3
72
12
73
8
40
0
40
0
40
0
40
0
40
0.249999999999993
40
0.249999999999993
40
0.499999999999985
40
0.499999999999985
40
1
40
1
40
1
40
1
41
1
10
43.726325325963
20
3.18431277542444
30
0
41
1
10
43.7545807493917
20
3.2335308034624
30
0
41
1
10
43.7826720232494
20
3.28287510140285
30
0
41
1
10
43.8387261854249
20
3.3816686144817
30
0
41
1
10
43.866693282281
20
3.43111711419664
30
0
41
1
10
43.9504816898011
20
3.57944673695562
30
0
41
1
10
44.0061982222313
20
3.67836390231932
30
0
41
1
10
44.0617577744426
20
3.77720147897284
30
0
0
SPLINE
5
126
100
AcDbEntity
8
1
62
256
6
ByLayer
370
18
48
1
60
0
100
AcDbSpline
70
4
71
3
72
30
73
26
40
0
40
0
40
0
40
0
40
0.125000000000098
40
0.125000000000098
40
0.187500000000111
40
0.187500000000111
40
0.250000000000125
40
0.250000000000125
40
0.312500000000138
40
0.312500000000138
40
0.375000000000151
40
0.437500000000164
40
0.437500000000164
40
0.500000000000177
40
0.500000000000177
40
0.625000000000204
40
0.625000000000204
40
0.68750000000017
40
0.68750000000017
40
0.750000000000136
40
0.812500000000102
40
0.812500000000102
40
0.875000000000068
40
0.875000000000068
40
1
40
1
40
1
40
1
41
1
10
43.4061876975432
20
3.14441200608411
30
0
41
1
10
43.4146927267144
20
3.13171996435076
30
0
41
1
10
43.424912950046
20
3.12086724227993
30
0
41
1
10
43.4425731626195
20
3.10701979136715
30
0
41
1
10
43.448889054684
20
3.10280434350665
30
0
41
1
10
43.4619469929318
20
3.09540576060664
30
0
41
1
10
43.4687241857188
20
3.09218887892234
30
0
41
1
10
43.4827557984948
20
3.08667362358025
30
0
41
1
10
43.4900311722978
20
3.08437044710871
30
0
41
1
10
43.5049755279339
20
3.08070970372791
30
0
41
1
10
43.5201124897326
20
3.07803720253347
30
0
41
1
10
43.5356155440084
20
3.07723693342683
30
0
41
1
10
43.5513003478413
20
3.0773706220823
30
0
41
1
10
43.5592797107744
20
3.07791359863762
30
0
41
1
10
43.5829633387864
20
3.08092401303898
30
0
41
1
10
43.5985224942393
20
3.08472996539845
30
0
41
1
10
43.6214919948698
20
3.09318458598176
30
0
41
1
10
43.6291033964099
20
3.09648186445938
30
0
41
1
10
43.6437898080361
20
3.10385160071721
30
0
41
1
10
43.6580422931488
20
3.11202818873775
30
0
41
1
10
43.6714149452292
20
3.12183060603118
30
0
41
1
10
43.6843193806375
20
3.13249278716046
30
0
41
1
10
43.6905197201092
20
3.1382507891424
30
0
41
1
10
43.7078441123058
20
3.15634959660864
30
0
41
1
10
43.7179071696469
20
3.16964921695256
30
0
41
1
10
43.726325325963
20
3.18431277542444
30
0
0
SPLINE
5
127
100
AcDbEntity
8
1
62
256
6
ByLayer
370
18
48
1
60
0
100
AcDbSpline
70
4
71
3
72
12
73
8
40
0
40
0
40
0
40
0
40
0.5
40
0.5
40
0.75
40
0.75
40
1
40
1
40
1
40
1
41
1
10
42.9908832603662
20
3.76619211043973
30
0
41
1
10
43.0599506211396
20
3.66438832629751
30
0
41
1
10
43.1290948070653
20
3.56146850299322
30
0
41
1
10
43.2329433274246
20
3.40558383829429
30
0
41
1
10
43.2675784037819
20
3.35332977850643
30
0
41
1
10
43.336878129581
20
3.24859141440135
30
0
41
1
10
43.371543135847
20
3.19611203133147
30
0
41
1
10
43.4061876975432
20
3.14441200608411
30
0
0
SPLINE
5
128
100
AcDbEntity
8
1
62
256
6
ByLayer
370
18
48
1
60
0
100
AcDbSpline
70
4
71
3
72
8
73
4
40
0
40
0
40
0
40
0
40
1
40
1
40
1
40
1
41
1
10
42.9908832603646
20
3.76619211046187
30
0
41
1
10
42.9506177374969
20
3.75933459999558
30
0
41
1
10
42.9103567651397
20
3.75236582852949
30
0
41
1
10
42.8700998132682
20
3.7452862629182
30
0
0
SPLINE
5
129
100
AcDbEntity
8
1
62
256
6
ByLayer
370
18
48
1
60
0
100
AcDbSpline
70
4
71
3
72
12
73
8
40
0
40
0
40
0
40
0
40
0.25
40
0.25
40
0.499999999999999
40
0.499999999999999
40
1
40
1
40
1
40
1
41
1
10
42.4482610303003
20
3.0020393798776
30
0
41
1
10
42.4838295415744
20
3.06299092823625
30
0
41
1
10
42.5191466736257
20
3.12453493428893
30
0
41
1
10
42.5896608635983
20
3.24801267369148
30
0
41
1
10
42.6248416501356
20
3.30993543031647
30
0
41
1
10
42.7302419612338
20
3.49600547129174
30
0
41
1
10
42.8002666338342
20
3.62048973217935
30
0
41
1
10
42.8700998132681
20
3.74528626291843
30
0
0
SPLINE
5
12A
100
AcDbEntity
8
1
62
256
6
ByLayer
370
18
48
1
60
0
100
AcDbSpline
70
4
71
3
72
30
73
26
40
0
40
0
40
0
40
0
40
0.124999999999979
40
0.124999999999979
40
0.187500000000006
40
0.187500000000006
40
0.250000000000033
40
0.250000000000033
40
0.31250000000006
40
0.31250000000006
40
0.375000000000086
40
0.437500000000113
40
0.437500000000113
40
0.50000000000014
40
0.50000000000014
40
0.625000000000194
40
0.625000000000194
40
0.687500000000173
40
0.687500000000173
40
0.750000000000152
40
0.812500000000132
40
0.812500000000132
40
0.875000000000111
40
0.875000000000111
40
1
40
1
40
1
40
1
41
1
10
42.1280815026312
20
2.94632658686504
30
0
41
1
10
42.1365947359215
20
2.93476233859801
30
0
41
1
10
42.1468284313212
20
2.92505384600551
30
0
41
1
10
42.1645159127368
20
2.91293477476697
30
0
41
1
10
42.1708408419773
20
2.90930093343602
30
0
41
1
10
42.1839151015325
20
2.90303652134528
30
0
41
1
10
42.1907007435494
20
2.90037543656049
30
0
41
1
10
42.2047497643104
20
2.89594885521404
30
0
41
1
10
42.2120377851358
20
2.89417941878082
30
0
41
1
10
42.2269904664038
20
2.89155886577635
30
0
41
1
10
42.2421356269576
20
2.889881599212
30
0
41
1
10
42.2576467319515
20
2.88999092751286
30
0
41
1
10
42.2733395660334
20
2.89099181134066
30
0
41
1
10
42.2813201751207
20
2.89194912046872
30
0
41
1
10
42.3049942988889
20
2.89610762233934
30
0
41
1
10
42.3205489591036
20
2.90056390910203
30
0
41
1
10
42.3435142462328
20
2.90982934970572
30
0
41
1
10
42.3511176154488
20
2.91336616568472
30
0
41
1
10
42.365788682497
20
2.92114493801859
30
0
41
1
10
42.3800285390311
20
2.92966609898664
30
0
41
1
10
42.3933931706786
20
2.93968870291326
30
0
41
1
10
42.4062915641136
20
2.95050823520276
30
0
41
1
10
42.4124828464185
20
2.95630632579724
30
0
41
1
10
42.4297885169794
20
2.97442886639271
30
0
41
1
10
42.43984507257
20
2.98761747588978
30
0
41
1
10
42.4482610303003
20
3.00203937987757
30
0
0
SPLINE
5
12B
100
AcDbEntity
8
1
62
256
6
ByLayer
370
18
48
1
60
0
100
AcDbSpline
70
4
71
3
72
12
73
8
40
0
40
0
40
0
40
0
40
0.499999999999988
40
0.499999999999988
40
0.749999999999994
40
0.749999999999994
40
1
40
1
40
1
40
1
41
1
10
41.7130373323977
20
3.51172142240964
30
0
41
1
10
41.7820686347404
20
3.41974856031837
30
0
41
1
10
41.8511728983433
20
3.32640592604193
30
0
41
1
10
41.9549539791107
20
3.1845610347039
30
0
41
1
10
41.9895651244805
20
3.13692462801743
30
0
41
1
10
42.0588166326409
20
3.04132894957706
30
0
41
1
10
42.0934578682152
20
2.9933588119481
30
0
41
1
10
42.1280815026312
20
2.94632658686504
30
0
0
SPLINE
5
12C
100
AcDbEntity
8
1
62
256
6
ByLayer
370
18
48
1
60
0
100
AcDbSpline
70
4
71
3
72
8
73
4
40
0
40
0
40
0
40
0
40
1
40
1
40
1
40
1
41
1
10
41.7130373323972
20
3.51172142243314
30
0
41
1
10
41.6726926320145
20
3.50255711628753
30
0
41
1
10
41.6323446134408
20
3.49328897878175
30
0
41
1
10
41.5919925972792
20
3.48391783867527
30
0
0
SPLINE
5
12D
100
AcDbEntity
8
1
62
256
6
ByLayer
370
18
48
1
60
0
100
AcDbSpline
70
4
71
3
72
12
73
8
40
0
40
0
40
0
40
0
40
0.249999999999994
40
0.249999999999994
40
0.499999999999989
40
0.499999999999989
40
1
40
1
40
1
40
1
41
1
10
41.1701756063533
20
2.75885522452691
30
0
41
1
10
41.2057390688195
20
2.81756723948911
30
0
41
1
10
41.2410532698261
20
2.87724728809363
30
0
41
1
10
41.3115662645188
20
2.99725393609722
30
0
41
1
10
41.3467474036685
20
3.05758171092063
30
0
41
1
10
41.4521438707227
20
3.23919450515851
30
0
41
1
10
41.5221613005156
20
3.36118273352903
30
0
41
1
10
41.5919925972791
20
3.48391783867558
30
0
0
SPLINE
5
12E
100
AcDbEntity
8
1
62
256
6
ByLayer
370
18
48
1
60
0
100
AcDbSpline
70
4
71
3
72
21
73
17
40
0
40
0
40
0
40
0
40
0.0029347746916097
40
0.0029347746916097
40
0.113719799725744
40
0.113719799725744
40
0.335289849794183
40
0.335289849794183
40
0.446074874828486
40
0.446074874828486
40
0.556859899862789
40
0.667644924897091
40
0.667644924897091
40
0.778429949931394
40
0.778429949931394
40
1
40
1
40
1
40
1
41
1
10
40.9868813833084
20
2.64532306486961
30
0
41
1
10
40.9870892176562
20
2.64534629444233
30
0
41
1
10
40.9872971159241
20
2.64536981608427
30
0
41
1
10
40.9953554575423
20
2.64629257493817
30
0
41
1
10
41.0033387492443
20
2.64762020896316
30
0
41
1
10
41.0270137036066
20
2.65277377646609
30
0
41
1
10
41.0425687250873
20
2.65775018392364
30
0
41
1
10
41.0655339467842
20
2.66758607044818
30
0
41
1
10
41.0731316808725
20
2.6712747516749
30
0
41
1
10
41.0877914774637
20
2.67927697113262
30
0
41
1
10
41.1020209641297
20
2.68794492021257
30
0
41
1
10
41.1153763657404
20
2.69796485646231
30
0
41
1
10
41.1282662779009
20
2.70870462499605
30
0
41
1
10
41.1344458976704
20
2.71441681305183
30
0
41
1
10
41.1517250534193
20
2.73217483793863
30
0
41
1
10
41.1617681719032
20
2.74497532130621
30
0
41
1
10
41.1701756063533
20
2.75885522452691
30
0
0
SPLINE
5
12F
100
AcDbEntity
8
1
62
256
6
ByLayer
370
18
48
1
60
0
100
AcDbSpline
70
4
71
3
72
8
73
4
40
0
40
0
40
0
40
0
40
1
40
1
40
1
40
1
41
1
10
40.4350401418019
20
3.18807859914574
30
0
41
1
10
40.467826885091
20
3.14988745027597
30
0
41
1
10
40.5006306805019
20
3.11132868601962
30
0
41
1
10
40.5334525882584
20
3.07241999210612
30
0
0
SPLINE
5
130
100
AcDbEntity
8
1
62
256
6
ByLayer
370
18
48
1
60
0
100
AcDbSpline
70
4
71
3
72
8
73
4
40
0
40
0
40
0
40
0
40
1
40
1
40
1
40
1
41
1
10
40.4350401418029
20
3.18807859916842
30
0
41
1
10
40.3947808630206
20
3.17686811291355
30
0
41
1
10
40.3545123499238
20
3.16556247071688
30
0
41
1
10
40.3142340810563
20
3.15416234481131
30
0
0
SPLINE
5
131
100
AcDbEntity
8
1
62
256
6
ByLayer
370
18
48
1
60
0
100
AcDbSpline
70
4
71
3
72
12
73
8
40
0
40
0
40
0
40
0
40
0.0181036265435647
40
0.0181036265435647
40
0.345402417695709
40
0.345402417695709
40
1
40
1
40
1
40
1
41
1
10
39.9925223158262
20
2.62174010855213
30
0
41
1
10
39.9944737873022
20
2.6248917564993
30
0
41
1
10
39.9964250621404
20
2.62804487448938
30
0
41
1
10
40.0336506436192
20
2.68822903820905
30
0
41
1
10
40.0688530041061
20
2.7457070382907
30
0
41
1
10
40.1743110663004
20
2.91908448912298
30
0
41
1
10
40.2443695468447
20
3.03603315685837
30
0
41
1
10
40.3142340810559
20
3.15416234481171
30
0
0
SPLINE
5
132
100
AcDbEntity
8
1
62
256
6
ByLayer
370
18
48
1
60
0
100
AcDbSpline
70
4
71
3
72
14
73
10
40
0
40
0
40
0
40
0
40
0.425939093504228
40
0.425939093504228
40
0.63890864025628
40
0.63890864025628
40
0.851878187008332
40
0.851878187008332
40
1
40
1
40
1
40
1
41
1
10
33.7842378251092
20
3.35994291603763
30
0
41
1
10
33.7757444645177
20
3.34539338768943
30
0
41
1
10
33.7655152916622
20
3.33245470982399
30
0
41
1
10
33.7478053969124
20
3.31524493780685
30
0
41
1
10
33.7414695407486
20
3.30986535196504
30
0
41
1
10
33.7283710873068
20
3.30013707654933
30
0
41
1
10
33.7215703992867
20
3.29574534714689
30
0
41
1
10
33.709629973452
20
3.28906553585708
30
0
41
1
10
33.7046006291608
20
3.28653854081597
30
0
41
1
10
33.6994711976523
20
3.28423871542489
30
0
0
SPLINE
5
133
100
AcDbEntity
8
1
62
256
6
ByLayer
370
18
48
1
60
0
100
AcDbSpline
70
4
71
3
72
12
73
8
40
0
40
0
40
0
40
0
40
0.249999999999999
40
0.249999999999999
40
0.499999999999999
40
0.499999999999999
40
1
40
1
40
1
40
1
41
1
10
34.1992956399589
20
4.07055396002946
30
0
41
1
10
34.164769698524
20
4.01151421824437
30
0
41
1
10
34.1302262964343
20
3.95241244742678
30
0
41
1
10
34.0611091852738
20
3.8341250833235
30
0
41
1
10
34.0265358809436
20
3.77493782461434
30
0
41
1
10
33.9227707195374
20
3.59726019535995
30
0
41
1
10
33.8535358845794
20
3.4786537690469
30
0
41
1
10
33.7842378251092
20
3.35994291603763
30
0
0
SPLINE
5
134
100
AcDbEntity
8
1
62
256
6
ByLayer
370
18
48
1
60
0
100
AcDbSpline
70
4
71
3
72
8
73
4
40
0
40
0
40
0
40
0
40
1
40
1
40
1
40
1
41
1
10
34.1992956399589
20
4.07055396002946
30
0
41
1
10
34.2395083258585
20
4.07066295590428
30
0
41
1
10
34.2797076423577
20
4.07065349749178
30
0
41
1
10
34.3198949375641
20
4.07052541224908
30
0
0
SPLINE
5
135
100
AcDbEntity
8
1
62
256
6
ByLayer
370
18
48
1
60
0
100
AcDbSpline
70
4
71
3
72
28
73
24
40
0
40
0
40
0
40
0
40
0.146105236327168
40
0.146105236327168
40
0.219157854490729
40
0.219157854490729
40
0.292210472654291
40
0.292210472654291
40
0.365263090817852
40
0.365263090817852
40
0.438315708981414
40
0.511368327144975
40
0.511368327144975
40
0.584420945308537
40
0.584420945308537
40
0.730526181635603
40
0.730526181635603
40
0.803578799799135
40
0.803578799799135
40
0.876631417962668
40
0.9496840361262
40
0.9496840361262
40
1
40
1
40
1
40
1
41
1
10
35.0619976098602
20
3.34375922424587
30
0
41
1
10
35.0534982869673
20
3.3295712146134
30
0
41
1
10
35.0432633759567
20
3.31709503792186
30
0
41
1
10
35.0255488994499
20
3.30071891788833
30
0
41
1
10
35.0192118710565
20
3.29564139737411
30
0
41
1
10
35.0061118441118
20
3.28654250046259
30
0
41
1
10
34.9993109738777
20
3.28248002343338
30
0
41
1
10
34.9852272336115
20
3.2752855324095
30
0
41
1
10
34.9779153874159
20
3.27214375844201
30
0
41
1
10
34.9629321555411
20
3.26684277808809
30
0
41
1
10
34.9477567718913
20
3.26257391474485
30
0
41
1
10
34.9322168174897
20
3.260260423386
30
0
41
1
10
34.9164960847351
20
3.25892147896812
30
0
41
1
10
34.9085082478917
20
3.25874551567046
30
0
41
1
10
34.8848373526991
20
3.25969685072695
30
0
41
1
10
34.8692874659025
20
3.26224969942911
30
0
41
1
10
34.8463330184545
20
3.2689923220579
30
0
41
1
10
34.8387543117626
20
3.27173692441016
30
0
41
1
10
34.8241276367637
20
3.27807710478479
30
0
41
1
10
34.8099281229193
20
3.28529528380076
30
0
41
1
10
34.796595819845
20
3.29427810190336
30
0
41
1
10
34.7857283125301
20
3.30264903888934
30
0
41
1
10
34.7814291978805
20
3.30627012766919
30
0
41
1
10
34.7773057969367
20
3.31006115560748
30
0
0
SPLINE
5
136
100
AcDbEntity
8
1
62
256
6
ByLayer
370
18
48
1
60
0
100
AcDbSpline
70
4
71
3
72
12
73
8
40
0
40
0
40
0
40
0
40
0.25
40
0.25
40
0.5
40
0.5
40
1
40
1
40
1
40
1
41
1
10
35.4771091076488
20
4.03410188954297
30
0
41
1
10
35.442577686515
20
3.97694749591574
30
0
41
1
10
35.4080290832174
20
3.9196686735587
30
0
41
1
10
35.3389024637771
20
3.80494236129903
30
0
41
1
10
35.3043247229456
20
3.74748893742932
30
0
41
1
10
35.2005468515682
20
3.57487489752683
30
0
41
1
10
35.1313041703416
20
3.45945339895769
30
0
41
1
10
35.0619976098602
20
3.34375922424582
30
0
0
SPLINE
5
137
100
AcDbEntity
8
1
62
256
6
ByLayer
370
18
48
1
60
0
100
AcDbSpline
70
4
71
3
72
8
73
4
40
0
40
0
40
0
40
0
40
1
40
1
40
1
40
1
41
1
10
35.4771091076488
20
4.03410188954294
30
0
41
1
10
35.5172835560379
20
4.03171404944112
30
0
41
1
10
35.5574583577497
20
4.02921094861603
30
0
41
1
10
35.5976335318359
20
4.02659293399356
30
0
0
SPLINE
5
138
100
AcDbEntity
8
1
62
256
6
ByLayer
370
18
48
1
60
0
100
AcDbSpline
70
4
71
3
72
12
73
8
40
0
40
0
40
0
40
0
40
0.499999999999999
40
0.499999999999999
40
0.75
40
0.75
40
1
40
1
40
1
40
1
41
1
10
36.0196407529863
20
3.28914408978795
30
0
41
1
10
35.9487197511042
20
3.41266111767698
30
0
41
1
10
35.8780955509071
20
3.53602080308755
30
0
41
1
10
35.7725813215886
20
3.7205113317753
30
0
41
1
10
35.7374825640547
20
3.78191427635858
30
0
41
1
10
35.6674512279419
20
3.90444375423186
30
0
41
1
10
35.6325149875402
20
3.96557826469709
30
0
41
1
10
35.5976335318359
20
4.02659293399367
30
0
0
SPLINE
5
139
100
AcDbEntity
8
1
62
256
6
ByLayer
370
18
48
1
60
0
100
AcDbSpline
70
4
71
3
72
30
73
26
40
0
40
0
40
0
40
0
40
0.12500000000005
40
0.12500000000005
40
0.187500000000056
40
0.187500000000056
40
0.250000000000062
40
0.250000000000062
40
0.312500000000069
40
0.312500000000069
40
0.375000000000075
40
0.437500000000082
40
0.437500000000082
40
0.500000000000088
40
0.500000000000088
40
0.625000000000101
40
0.625000000000101
40
0.687500000000084
40
0.687500000000084
40
0.750000000000067
40
0.812500000000049
40
0.812500000000049
40
0.875000000000032
40
0.875000000000032
40
1
40
1
40
1
40
1
41
1
10
36.3396770433517
20
3.26312131225197
30
0
41
1
10
36.331186248543
20
3.24958881903376
30
0
41
1
10
36.3209644636063
20
3.23783133144951
30
0
41
1
10
36.3032736797331
20
3.22261070182225
30
0
41
1
10
36.2969445163844
20
3.21793242334039
30
0
41
1
10
36.2838588469954
20
3.20963267178306
30
0
41
1
10
36.2770651447856
20
3.20597307461742
30
0
41
1
10
36.2629955559122
20
3.199589935353
30
0
41
1
10
36.2556926333476
20
3.19685873186941
30
0
41
1
10
36.2407171686708
20
3.19237449042066
30
0
41
1
10
36.2255488843651
20
3.18891250542205
30
0
41
1
10
36.2100146860954
20
3.18738728505886
30
0
41
1
10
36.194299010121
20
3.18682782399037
30
0
41
1
10
36.1863110148325
20
3.187038829659
30
0
41
1
10
36.1626334468936
20
3.1891139944546
30
0
41
1
10
36.1470793770491
20
3.19237410226373
30
0
41
1
10
36.124118978066
20
3.20012112468234
30
0
41
1
10
36.1165335474228
20
3.2031923651511
30
0
41
1
10
36.1018961252148
20
3.21015148328033
30
0
41
1
10
36.0876874646536
20
3.21795879499683
30
0
41
1
10
36.074348821334
20
3.22747360979577
30
0
41
1
10
36.0614733814046
20
3.23789059765684
30
0
41
1
10
36.0553134541917
20
3.24352238665702
30
0
41
1
10
36.0380734217447
20
3.26132196315413
30
0
41
1
10
36.0280467061987
20
3.27450416184251
30
0
41
1
10
36.0196407529863
20
3.28914408978787
30
0
0
SPLINE
5
13A
100
AcDbEntity
8
1
62
256
6
ByLayer
370
18
48
1
60
0
100
AcDbSpline
70
4
71
3
72
12
73
8
40
0
40
0
40
0
40
0
40
0.249999999999997
40
0.249999999999997
40
0.499999999999994
40
0.499999999999994
40
1
40
1
40
1
40
1
41
1
10
36.7546194611979
20
3.91950032924953
30
0
41
1
10
36.7201029458874
20
3.86538816374298
30
0
41
1
10
36.6855690438969
20
3.81108644102764
30
0
41
1
10
36.6164711823355
20
3.70221859133943
30
0
41
1
10
36.5819075806833
20
3.64764286168184
30
0
41
1
10
36.4781715641671
20
3.48351188488604
30
0
41
1
10
36.4089560875466
20
3.37353714691238
30
0
41
1
10
36.3396770433517
20
3.26312131225197
30
0
0
SPLINE
5
13B
100
AcDbEntity
8
1
62
256
6
ByLayer
370
18
48
1
60
0
100
AcDbSpline
70
4
71
3
72
8
73
4
40
0
40
0
40
0
40
0
40
1
40
1
40
1
40
1
41
1
10
36.7546194611979
20
3.91950032924953
30
0
41
1
10
36.7948512976569
20
3.9146718123495
30
0
41
1
10
36.8350837128741
20
3.90972806747308
30
0
41
1
10
36.8753173971338
20
3.90466928169252
30
0
0
SPLINE
5
13C
100
AcDbEntity
8
1
62
256
6
ByLayer
370
18
48
1
60
0
100
AcDbSpline
70
4
71
3
72
12
73
8
40
0
40
0
40
0
40
0
40
0.500000000000006
40
0.500000000000006
40
0.750000000000003
40
0.750000000000003
40
1
40
1
40
1
40
1
41
1
10
37.2973524194941
20
3.16053252323678
30
0
41
1
10
37.2264210060453
20
3.28400976741941
30
0
41
1
10
37.1557905571839
20
3.40793007637845
30
0
41
1
10
37.050270544242
20
3.59410269910663
30
0
41
1
10
37.0151704436847
20
3.65620845445258
30
0
41
1
10
36.9451367101949
20
3.78042334580545
30
0
41
1
10
36.9101994443635
20
3.84254428939158
30
0
41
1
10
36.8753173971338
20
3.90466928169269
30
0
0
SPLINE
5
13D
100
AcDbEntity
8
1
62
256
6
ByLayer
370
18
48
1
60
0
100
AcDbSpline
70
4
71
3
72
30
73
26
40
0
40
0
40
0
40
0
40
0.124999999999953
40
0.124999999999953
40
0.187499999999929
40
0.187499999999929
40
0.249999999999905
40
0.249999999999905
40
0.312499999999882
40
0.312499999999882
40
0.374999999999858
40
0.437499999999835
40
0.437499999999835
40
0.499999999999811
40
0.499999999999811
40
0.624999999999813
40
0.624999999999813
40
0.687499999999838
40
0.687499999999838
40
0.749999999999863
40
0.812499999999889
40
0.812499999999889
40
0.874999999999914
40
0.874999999999914
40
1
40
1
40
1
40
1
41
1
10
37.6174343350911
20
3.11870736795851
30
0
41
1
10
37.6089396560204
20
3.1060979428733
30
0
41
1
10
37.5987156302686
20
3.09529841394596
30
0
41
1
10
37.5810262718959
20
3.08155550329465
30
0
41
1
10
37.5746980220846
20
3.07737823060415
30
0
41
1
10
37.5616145901707
20
3.07006287921766
30
0
41
1
10
37.5548225553384
20
3.06689021634907
30
0
41
1
10
37.5407574829711
20
3.06146961859574
30
0
41
1
10
37.5334584883322
20
3.05921592933066
30
0
41
1
10
37.5184869204817
20
3.05566589329868
30
0
41
1
10
37.5033228967301
20
3.05310824374087
30
0
41
1
10
37.4877938321251
20
3.05242932108865
30
0
41
1
10
37.4720836354942
20
3.05268793973147
30
0
41
1
10
37.4640972317278
20
3.05329545049344
30
0
41
1
10
37.4404195769825
20
3.05649221818771
30
0
41
1
10
37.424865597835
20
3.06041788050391
30
0
41
1
10
37.4019054556982
20
3.06904564344975
30
0
41
1
10
37.394315466924
20
3.0723921246736
30
0
41
1
10
37.3796700116113
20
3.07984967992326
30
0
41
1
10
37.365454033698
20
3.08810726340531
30
0
41
1
10
37.3521093402539
20
3.09797869515586
30
0
41
1
10
37.3392284323923
20
3.10870450565406
30
0
41
1
10
37.3330595735441
20
3.11447140817927
30
0
41
1
10
37.3158006771804
20
3.13259213680993
30
0
41
1
10
37.305764113736
20
3.14588946491622
30
0
41
1
10
37.2973524194941
20
3.16053252323678
30
0
0
SPLINE
5
13E
100
AcDbEntity
8
1
62
256
6
ByLayer
370
18
48
1
60
0
100
AcDbSpline
70
4
71
3
72
12
73
8
40
0
40
0
40
0
40
0
40
0.250000000000003
40
0.250000000000003
40
0.500000000000006
40
0.500000000000006
40
1
40
1
40
1
40
1
41
1
10
38.0326211002097
20
3.72789412683164
30
0
41
1
10
37.9980865558545
20
3.67790590354571
30
0
41
1
10
37.9635340085515
20
3.62766896204334
30
0
41
1
10
37.8943979061394
20
3.52684682126787
30
0
41
1
10
37.8598146551508
20
3.47624820932279
30
0
41
1
10
37.7560178484189
20
3.32391253389252
30
0
41
1
10
37.68675935633
20
3.22161280494626
30
0
41
1
10
37.6174343350911
20
3.11870736795851
30
0
0
SPLINE
5
13F
100
AcDbEntity
8
1
62
256
6
ByLayer
370
18
48
1
60
0
100
AcDbSpline
70
4
71
3
72
8
73
4
40
0
40
0
40
0
40
0
40
1
40
1
40
1
40
1
41
1
10
38.0326211002097
20
3.72789412683164
30
0
41
1
10
38.0728988660854
20
3.72067393357273
30
0
41
1
10
38.1131858470354
20
3.71334330238148
30
0
41
1
10
38.1534829908021
20
3.7059030049258
30
0
0
SPLINE
5
140
100
AcDbEntity
8
1
62
256
6
ByLayer
370
18
48
1
60
0
100
AcDbSpline
70
4
71
3
72
12
73
8
40
0
40
0
40
0
40
0
40
0.500000000000006
40
0.500000000000006
40
0.750000000000003
40
0.750000000000003
40
1
40
1
40
1
40
1
41
1
10
38.5750971700222
20
2.97052312414715
30
0
41
1
10
38.5042410607113
20
3.09139013399519
30
0
41
1
10
38.4336840393492
20
3.21329858828588
30
0
41
1
10
38.3282697714403
20
3.39729253632638
30
0
41
1
10
38.2932040850396
20
3.45881394594136
30
0
41
1
10
38.2232377258825
20
3.58213835304946
30
0
41
1
10
38.1883333083046
20
3.6439569943573
30
0
41
1
10
38.1534829908021
20
3.7059030049258
30
0
0
SPLINE
5
141
100
AcDbEntity
8
1
62
256
6
ByLayer
370
18
48
1
60
0
100
AcDbSpline
70
4
71
3
72
30
73
26
40
0
40
0
40
0
40
0
40
0.125
40
0.125
40
0.1875
40
0.1875
40
0.250000000000001
40
0.250000000000001
40
0.312500000000001
40
0.312500000000001
40
0.375000000000001
40
0.437500000000001
40
0.437500000000001
40
0.500000000000001
40
0.500000000000001
40
0.625000000000002
40
0.625000000000002
40
0.687500000000002
40
0.687500000000002
40
0.750000000000002
40
0.812500000000002
40
0.812500000000002
40
0.875000000000002
40
0.875000000000002
40
1
40
1
40
1
40
1
41
1
10
38.8951755554023
20
2.91371806935544
30
0
41
1
10
38.8866807712672
20
2.90228252828706
30
0
41
1
10
38.8764570955777
20
2.89265204173381
30
0
41
1
10
38.8587680670393
20
2.88065245064331
30
0
41
1
10
38.8524398339199
20
2.87705663938235
30
0
41
1
10
38.8393562105235
20
2.87086663881419
30
0
41
1
10
38.8325640264313
20
2.86824186789815
30
0
41
1
10
38.8184985547619
20
2.86388803064995
30
0
41
1
10
38.8111994928754
20
2.86215495621636
30
0
41
1
10
38.7962267980345
20
2.85960878249057
30
0
41
1
10
38.7810617279789
20
2.8580059324382
30
0
41
1
10
38.7655316567772
20
2.85818974259772
30
0
41
1
10
38.7498205970562
20
2.85926504907945
30
0
41
1
10
38.7418336645022
20
2.86025961940021
30
0
41
1
10
38.7181543909206
20
2.86452301020904
30
0
41
1
10
38.7025998434332
20
2.86904319575822
30
0
41
1
10
38.6796395641174
20
2.87839316828158
30
0
41
1
10
38.6720495762923
20
2.88195135824458
30
0
41
1
10
38.6574044116674
20
2.88976459968441
30
0
41
1
10
38.6431888746923
20
2.898313472951
30
0
41
1
10
38.6298452868494
20
2.90835088269114
30
0
41
1
10
38.6169655514174
20
2.91917790537517
30
0
41
1
10
38.6107975768413
20
2.92496215589623
30
0
41
1
10
38.5935413767356
20
2.94303658901541
30
0
41
1
10
38.5835069540904
20
2.95617763631736
30
0
41
1
10
38.5750971700222
20
2.97052312414715
30
0
0
SPLINE
5
142
100
AcDbEntity
8
1
62
256
6
ByLayer
370
18
48
1
60
0
100
AcDbSpline
70
4
71
3
72
12
73
8
40
0
40
0
40
0
40
0
40
0.250000000000003
40
0.250000000000003
40
0.500000000000006
40
0.500000000000006
40
1
40
1
40
1
40
1
41
1
10
39.310450942124
20
3.46379677554313
30
0
41
1
10
39.2759067321593
20
3.41889057939542
30
0
41
1
10
39.241345177953
20
3.37368706945748
30
0
41
1
10
39.1721921391131
20
3.2828624740639
30
0
41
1
10
39.1376009461073
20
3.23722474426921
30
0
41
1
10
39.0337820107162
20
3.0996615231355
30
0
41
1
10
38.9645108940817
20
3.00705618134651
30
0
41
1
10
38.8951755554023
20
2.91371806935374
30
0
0
SPLINE
5
143
100
AcDbEntity
8
1
62
256
6
ByLayer
370
18
48
1
60
0
100
AcDbSpline
70
4
71
3
72
8
73
4
40
0
40
0
40
0
40
0
40
1
40
1
40
1
40
1
41
1
10
39.310450942124
20
3.4637967755431
30
0
41
1
10
39.3506815865691
20
3.45442135763346
30
0
41
1
10
39.3909024595232
20
3.44495033537177
30
0
41
1
10
39.4311135857803
20
3.43538394600213
30
0
0
SPLINE
5
144
100
AcDbEntity
8
1
62
256
6
ByLayer
370
18
48
1
60
0
100
AcDbSpline
70
4
71
3
72
12
73
8
40
0
40
0
40
0
40
0
40
0.499999999999988
40
0.499999999999988
40
0.749999999999994
40
0.749999999999994
40
1
40
1
40
1
40
1
41
1
10
39.8527620657248
20
2.72368013353437
30
0
41
1
10
39.7819135923357
20
2.83950108750068
30
0
41
1
10
39.7113554854869
20
2.95692709816893
30
0
41
1
10
39.6059309482957
20
3.13500355518488
30
0
41
1
10
39.5708603426886
20
3.19468907932796
30
0
41
1
10
39.5008820897496
20
3.31461512870683
30
0
41
1
10
39.465970701084
20
3.37487449996519
30
0
41
1
10
39.4311135857803
20
3.43538394600239
30
0
0
SPLINE
5
145
100
AcDbEntity
8
1
62
256
6
ByLayer
370
18
48
1
60
0
100
AcDbSpline
70
4
71
3
72
30
73
26
40
0
40
0
40
0
40
0
40
0.124999999999966
40
0.124999999999966
40
0.187499999999948
40
0.187499999999948
40
0.249999999999931
40
0.249999999999931
40
0.312499999999913
40
0.312499999999913
40
0.374999999999895
40
0.437499999999878
40
0.437499999999878
40
0.49999999999986
40
0.49999999999986
40
0.624999999999825
40
0.624999999999825
40
0.687499999999854
40
0.687499999999854
40
0.749999999999883
40
0.812499999999913
40
0.812499999999913
40
0.874999999999942
40
0.874999999999942
40
1
40
1
40
1
40
1
41
1
10
40.1728052634942
20
2.65356028481793
30
0
41
1
10
40.1643164382495
20
2.64352493446918
30
0
41
1
10
40.1541041445529
20
2.63526212048262
30
0
41
1
10
40.1364385663265
20
2.62523843559776
30
0
41
1
10
40.1301185082537
20
2.6222916236043
30
0
41
1
10
40.1170502843501
20
2.61733849492143
30
0
41
1
10
40.110266147366
20
2.61530648448848
30
0
41
1
10
40.0962173546361
20
2.6120881422242
30
0
41
1
10
40.0889293767093
20
2.61089975283212
30
0
41
1
10
40.0739675877875
20
2.6093831883428
30
0
41
1
10
40.0588130056066
20
2.60874007007828
30
0
41
1
10
40.0432925042705
20
2.60975102470655
30
0
41
1
10
40.0275905110231
20
2.61158771317119
30
0
41
1
10
40.0196054000911
20
2.61293164612678
30
0
41
1
10
39.9959216771589
20
2.61812442512257
30
0
41
1
10
39.980364137423
20
2.62311300419276
30
0
41
1
10
39.9573992621476
20
2.63294265653562
30
0
41
1
10
39.949801091587
20
2.63662562764117
30
0
41
1
10
39.9351414071502
20
2.64460813786258
30
0
41
1
10
39.9209131353886
20
2.65324794897225
30
0
41
1
10
39.9075599814721
20
2.66322150710494
30
0
41
1
10
39.8946721476027
20
2.67390445883808
30
0
41
1
10
39.888493961072
20
2.67958260752192
30
0
41
1
10
39.871217263793
20
2.69722380873344
30
0
41
1
10
39.8611741920352
20
2.70992824238513
30
0
41
1
10
39.8527620657247
20
2.72368013353474
30
0
0
SPLINE
5
146
100
AcDbEntity
8
1
62
256
6
ByLayer
370
18
48
1
60
0
100
AcDbSpline
70
4
71
3
72
30
73
26
40
0
40
0
40
0
40
0
40
0.124999999999986
40
0.124999999999986
40
0.18749999999998
40
0.18749999999998
40
0.249999999999974
40
0.249999999999974
40
0.312499999999968
40
0.312499999999968
40
0.374999999999962
40
0.437499999999956
40
0.437499999999956
40
0.49999999999995
40
0.49999999999995
40
0.625000000000034
40
0.625000000000034
40
0.687500000000028
40
0.687500000000028
40
0.750000000000023
40
0.812500000000017
40
0.812500000000017
40
0.875000000000011
40
0.875000000000011
40
1
40
1
40
1
40
1
41
1
10
41.4505989306999
20
2.33972017810737
30
0
41
1
10
41.44210409372
20
2.33129644973957
30
0
41
1
10
41.431885345651
20
2.32457200481446
30
0
41
1
10
41.4142119928061
20
2.31675753721251
30
0
41
1
10
41.407889582221
20
2.31453279633573
30
0
41
1
10
41.39481732397
20
2.31094891432997
30
0
41
1
10
41.3880315398386
20
2.30956917011392
30
0
41
1
10
41.3739803349818
20
2.30759264694888
30
0
41
1
10
41.3666917687286
20
2.30699551655636
30
0
41
1
10
41.3517290382695
20
2.30659020902871
30
0
41
1
10
41.3365740988813
20
2.30697370424201
30
0
41
1
10
41.3210546367568
20
2.30884976932245
30
0
41
1
10
41.3053543270124
20
2.31147163048746
30
0
41
1
10
41.2973702080681
20
2.31316942102612
30
0
41
1
10
41.2736883538485
20
2.31928001259706
30
0
41
1
10
41.2581325093902
20
2.32469865174551
30
0
41
1
10
41.2351706865266
20
2.33490330036634
30
0
41
1
10
41.2275720830625
20
2.33866573818562
30
0
41
1
10
41.2129112474932
20
2.34671218135298
30
0
41
1
10
41.1986819781143
20
2.35532297995317
30
0
41
1
10
41.1853276162371
20
2.36508296411728
30
0
41
1
10
41.1724386627827
20
2.37545684397827
30
0
41
1
10
41.1662568194484
20
2.38093520083359
30
0
41
1
10
41.1489715764679
20
2.39784919076485
30
0
41
1
10
41.1389233961543
20
2.40989998392101
30
0
41
1
10
41.1305073364849
20
2.42281285714134
30
0
0
SPLINE
5
147
100
AcDbEntity
8
1
62
256
6
ByLayer
370
18
48
1
60
0
100
AcDbSpline
70
4
71
3
72
30
73
26
40
0
40
0
40
0
40
0
40
0.124999999999954
40
0.124999999999954
40
0.187499999999931
40
0.187499999999931
40
0.249999999999909
40
0.249999999999909
40
0.312499999999886
40
0.312499999999886
40
0.374999999999864
40
0.437499999999841
40
0.437499999999841
40
0.499999999999819
40
0.499999999999819
40
0.624999999999775
40
0.624999999999775
40
0.687499999999801
40
0.687499999999801
40
0.749999999999827
40
0.812499999999853
40
0.812499999999853
40
0.874999999999878
40
0.874999999999878
40
1
40
1
40
1
40
1
41
1
10
42.7282394726199
20
1.98328483620591
30
0
41
1
10
42.7197552838071
20
1.97661710597652
30
0
41
1
10
42.7095531995678
20
1.97154682276732
30
0
41
1
10
42.6919100732087
20
1.96603742932137
30
0
41
1
10
42.6855978379814
20
1.96455547685599
30
0
41
1
10
42.6725441776292
20
1.96236002485605
30
0
41
1
10
42.6657677734831
20
1.9616314457358
30
0
41
1
10
42.651735301789
20
1.96087431000205
30
0
41
1
10
42.6444590139658
20
1.96084683307453
30
0
41
1
10
42.6295070032013
20
1.96149060329523
30
0
41
1
10
42.6143620147649
20
1.96282018763605
30
0
41
1
10
42.5988509319636
20
1.96544722796662
30
0
41
1
10
42.5831581789743
20
1.96872310224342
30
0
41
1
10
42.5751751542519
20
1.97070071162932
30
0
41
1
10
42.5514852736763
20
1.97749039180019
30
0
41
1
10
42.535924363014
20
1.98315343046849
30
0
41
1
10
42.5129553408006
20
1.99341433095324
30
0
41
1
10
42.5053486552441
20
1.99714499157153
30
0
41
1
10
42.4906729137897
20
2.00502527385302
30
0
41
1
10
42.476430885651
20
2.01336722017825
30
0
41
1
10
42.4630675542785
20
2.02265450911557
30
0
41
1
10
42.4501713607352
20
2.0324494634838
30
0
41
1
10
42.4439817562076
20
2.03758962818242
30
0
41
1
10
42.4266813487435
20
2.05335459944584
30
0
41
1
10
42.4166282155408
20
2.06445482842875
30
0
41
1
10
42.4082125922483
20
2.07622802237645
30
0
0
SPLINE
5
148
100
AcDbEntity
8
1
62
256
6
ByLayer
370
18
48
1
60
0
100
AcDbSpline
70
4
71
3
72
30
73
26
40
0
40
0
40
0
40
0
40
0.125000000000029
40
0.125000000000029
40
0.187500000000042
40
0.187500000000042
40
0.250000000000056
40
0.250000000000056
40
0.312500000000069
40
0.312500000000069
40
0.375000000000083
40
0.437500000000096
40
0.437500000000096
40
0.500000000000109
40
0.500000000000109
40
0.625000000000136
40
0.625000000000136
40
0.687500000000101
40
0.687500000000101
40
0.750000000000067
40
0.812500000000032
40
0.812500000000032
40
0.874999999999998
40
0.874999999999998
40
1
40
1
40
1
40
1
41
1
10
44.0059434870594
20
1.58597636092364
30
0
41
1
10
43.9974523941777
20
1.58123216493178
30
0
41
1
10
43.9872437002299
20
1.5779524772388
30
0
41
1
10
43.9695939081107
20
1.57494271626982
30
0
41
1
10
43.9632799223546
20
1.57426552554702
30
0
41
1
10
43.9502236774899
20
1.57357257185171
30
0
41
1
10
43.9434465308622
20
1.57354747161645
30
0
41
1
10
43.9294138255824
20
1.5741052614228
30
0
41
1
10
43.9221383688668
20
1.57469067986136
30
0
41
1
10
43.907188006324
20
1.57646063783969
30
0
41
1
10
43.8920454110117
20
1.57880182566328
30
0
41
1
10
43.8765379961101
20
1.58222372705401
30
0
41
1
10
43.8608496624651
20
1.58618613167269
30
0
41
1
10
43.8528688975217
20
1.58845390491058
30
0
41
1
10
43.8291830723862
20
1.59593282187004
30
0
41
1
10
43.8136249897122
20
1.60182275896469
30
0
41
1
10
43.7906602587407
20
1.61207553405032
30
0
41
1
10
43.7830526648111
20
1.61574468847348
30
0
41
1
10
43.7683742801521
20
1.6233872306631
30
0
41
1
10
43.7541297205182
20
1.63137676879686
30
0
41
1
10
43.7407640546362
20
1.64008367161074
30
0
41
1
10
43.7278656208699
20
1.64917926734205
30
0
41
1
10
43.7216705612589
20
1.65391362001321
30
0
41
1
10
43.7043571494582
20
1.66831490049754
30
0
41
1
10
43.6942967583318
20
1.67830599986684
30
0
41
1
10
43.6858762097612
20
1.68875416536622
30
0
0
SPLINE
5
149
100
AcDbEntity
8
1
62
256
6
ByLayer
370
18
48
1
60
0
100
AcDbSpline
70
4
71
3
72
10
73
6
40
0
40
0
40
0
40
0
40
0.5
40
0.5
40
1
40
1
40
1
40
1
41
1
10
44.276422111059
20
1.73088030196379
30
0
41
1
10
44.2313952024945
20
1.70785662249267
30
0
41
1
10
44.1863416787028
20
1.68425949973488
30
0
41
1
10
44.096183207816
20
1.63593925022295
30
0
41
1
10
44.0510776242056
20
1.6111939855015
30
0
41
1
10
44.0059434870593
20
1.58597636092364
30
0
0
SPLINE
5
14A
100
AcDbEntity
8
1
62
256
6
ByLayer
370
18
48
1
60
0
100
AcDbSpline
70
4
71
3
72
8
73
4
40
0
40
0
40
0
40
0
40
1
40
1
40
1
40
1
41
1
10
44.7611472443174
20
1.49153118718513
30
0
41
1
10
44.5992209314068
20
1.57008747706948
30
0
41
1
10
44.4374760014999
20
1.65003169539759
30
0
41
1
10
44.276422111059
20
1.73088030196379
30
0
0
SPLINE
5
14B
100
AcDbEntity
8
1
62
256
6
ByLayer
370
18
48
1
60
0
100
AcDbSpline
70
4
71
3
72
10
73
6
40
0
40
0
40
0
40
0
40
0.5
40
0.5
40
1
40
1
40
1
40
1
41
1
10
44.9637012460837
20
1.26796346312071
30
0
41
1
10
44.9298133814877
20
1.30367113372927
30
0
41
1
10
44.8959986969069
20
1.34021064857129
30
0
41
1
10
44.8284784836417
20
1.41476370300057
30
0
41
1
10
44.7947803071036
20
1.45278623602277
30
0
41
1
10
44.7611472443174
20
1.49153118718513
30
0
0
SPLINE
5
14C
100
AcDbEntity
8
1
62
256
6
ByLayer
370
18
48
1
60
0
100
AcDbSpline
70
4
71
3
72
30
73
26
40
0
40
0
40
0
40
0
40
0.125000000000054
40
0.125000000000054
40
0.187500000000045
40
0.187500000000045
40
0.250000000000036
40
0.250000000000036
40
0.312500000000026
40
0.312500000000026
40
0.375000000000017
40
0.437500000000008
40
0.437500000000008
40
0.499999999999998
40
0.499999999999998
40
0.62499999999998
40
0.62499999999998
40
0.687499999999971
40
0.687499999999971
40
0.749999999999962
40
0.812499999999953
40
0.812499999999953
40
0.874999999999944
40
0.874999999999944
40
1
40
1
40
1
40
1
41
1
10
45.2837502057922
20
1.15885690062453
30
0
41
1
10
45.2752629626674
20
1.15609931731291
30
0
41
1
10
45.2650595577767
20
1.15463167962935
30
0
41
1
10
45.247418243866
20
1.15410152114444
30
0
41
1
10
45.2411068533772
20
1.15421335004905
30
0
41
1
10
45.2280548964341
20
1.15497569179314
30
0
41
1
10
45.2212797500578
20
1.15562259211464
30
0
41
1
10
45.2072506806824
20
1.15741775800115
30
0
41
1
10
45.1999778742629
20
1.15856967643143
30
0
41
1
10
45.1850277325279
20
1.16136020950267
30
0
41
1
10
45.1698851355352
20
1.16459546305631
30
0
41
1
10
45.1543773448545
20
1.16867181861522
30
0
41
1
10
45.1386884735886
20
1.17316953419393
30
0
41
1
10
45.130706798137
20
1.17564594572824
30
0
41
1
10
45.1070156159435
20
1.18355827330649
30
0
41
1
10
45.091454734687
20
1.18948852674774
30
0
41
1
10
45.068486897251
20
1.19942895493099
30
0
41
1
10
45.0608775576643
20
1.20293008420208
30
0
41
1
10
45.0461962376971
20
1.2101180371744
30
0
41
1
10
45.0319495310415
20
1.21753364971312
30
0
41
1
10
45.0185830666792
20
1.22542898197989
30
0
41
1
10
45.0056844217888
20
1.23358874029736
30
0
41
1
10
44.9994894514022
20
1.23779315891835
30
0
41
1
10
44.9821774285301
20
1.25046039756958
30
0
41
1
10
44.9721192093218
20
1.25909344837987
30
0
41
1
10
44.9637012460837
20
1.26796346312071
30
0
0
SPLINE
5
14D
100
AcDbEntity
8
1
62
256
6
ByLayer
370
18
48
1
60
0
100
AcDbSpline
70
4
71
3
72
8
73
4
40
0
40
0
40
0
40
0
40
1
40
1
40
1
40
1
41
1
10
45.3919076000366
20
1.19312478751664
30
0
41
1
10
45.3558728810944
20
1.18205615743665
30
0
41
1
10
45.3198196028405
20
1.17057617929942
30
0
41
1
10
45.2837502057922
20
1.15885690062453
30
0
0
SPLINE
5
14E
100
AcDbEntity
8
1
62
256
6
ByLayer
370
13
48
1
60
0
100
AcDbSpline
70
4
71
3
72
10
73
6
40
0
40
0
40
0
40
0
40
0.26609529829746
40
0.929810651565986
40
1
40
1
40
1
40
1
41
1.04
10
43.8322324608172
20
-0.697493490423868
30
0
41
1.04
10
43.8196466856945
20
-0.489510355111022
30
0
41
1.04
10
43.7754362525919
20
0.255232563264776
30
0
41
1.04
10
43.7263693153439
20
1.08737538029208
30
0
41
1.04
10
43.6894197754946
20
1.63684878220663
30
0
41
1.04
10
43.6858762097612
20
1.68875416536621
30
0
0
SPLINE
5
14F
100
AcDbEntity
8
1
62
256
6
ByLayer
370
18
48
1
60
0
100
AcDbSpline
70
4
71
3
72
12
73
8
40
0
40
0
40
0
40
0
40
0.500000000000001
40
0.500000000000001
40
0.75
40
0.75
40
1
40
1
40
1
40
1
41
1
10
43.6858762097612
20
1.68875416536622
30
0
41
1
10
43.6150163894614
20
1.77667659981836
30
0
41
1
10
43.5444511350838
20
1.86772231920742
30
0
41
1
10
43.4390152288572
20
2.00834424227776
30
0
41
1
10
43.4039410362935
20
2.0559064157724
30
0
41
1
10
43.3339557635641
20
2.152313086964
30
0
41
1
10
43.2990408472241
20
2.20118345876884
30
0
41
1
10
43.2641807968425
20
2.25062998722817
30
0
0
SPLINE
5
150
100
AcDbEntity
8
1
62
256
6
ByLayer
370
13
48
1
60
0
100
AcDbSpline
70
4
71
3
72
10
73
6
40
0
40
0
40
0
40
0
40
0.579226713778626
40
0.937088865164282
40
1
40
1
40
1
40
1
41
1.04
10
42.5541730229493
20
-0.228637299514061
30
0
41
1.04
10
42.5268713750002
20
0.231933824819481
30
0
41
1.04
10
42.4822849215834
20
0.993851313756101
30
0
41
1.04
10
42.4325882304603
20
1.74712578215149
30
0
41
1.04
10
42.4113883959876
20
2.03405238108923
30
0
41
1.04
10
42.4082125922483
20
2.07622802237645
30
0
0
SPLINE
5
151
100
AcDbEntity
8
1
62
256
6
ByLayer
370
18
48
1
60
0
100
AcDbSpline
70
4
71
3
72
12
73
8
40
0
40
0
40
0
40
0
40
0.5
40
0.5
40
0.75
40
0.75
40
1
40
1
40
1
40
1
41
1
10
42.4082125922483
20
2.07622802237663
30
0
41
1
10
42.3373845100502
20
2.17531429557147
30
0
41
1
10
42.2668410247661
20
2.27704189777214
30
0
41
1
10
42.1614336719197
20
2.43306129496381
30
0
41
1
10
42.1263679094087
20
2.4856469362646
30
0
41
1
10
42.0563985657577
20
2.59188152230402
30
0
41
1
10
42.0214911349218
20
2.64555466328088
30
0
41
1
10
41.9866382929812
20
2.69970646883331
30
0
0
SPLINE
5
152
100
AcDbEntity
8
1
62
256
6
ByLayer
370
13
48
1
60
0
100
AcDbSpline
70
4
71
3
72
9
73
5
40
0
40
0
40
0
40
0
40
0.0858946241359198
40
1
40
1
40
1
40
1
41
1
10
40.3182196826554
20
0.597386812815188
30
0
41
1
10
40.3139546949352
20
0.668379707603663
30
0
41
1
10
40.2644100954118
20
1.48811294157372
30
0
41
1
10
40.2166240862489
20
2.19873982743405
30
0
41
1
10
40.1728052634942
20
2.65356028481793
30
0
0
SPLINE
5
153
100
AcDbEntity
8
1
62
256
6
ByLayer
370
18
48
1
60
0
100
AcDbSpline
70
4
71
3
72
12
73
8
40
0
40
0
40
0
40
0
40
0.25
40
0.25
40
0.5
40
0.5
40
1
40
1
40
1
40
1
41
1
10
40.5878873229636
20
3.1330520390581
30
0
41
1
10
40.5533612600801
20
3.09421982394991
30
0
41
1
10
40.5188172907728
20
3.05503540983352
30
0
41
1
10
40.4496982864891
20
2.97616060251977
30
0
41
1
10
40.4151236129602
20
2.93645076385113
30
0
41
1
10
40.3113527038751
20
2.81653124215643
30
0
41
1
10
40.2421117094619
20
2.73549323156459
30
0
41
1
10
40.1728052634942
20
2.65356028481793
30
0
0
SPLINE
5
154
100
AcDbEntity
8
1
62
256
6
ByLayer
370
18
48
1
60
0
100
AcDbSpline
70
4
71
3
72
8
73
4
40
0
40
0
40
0
40
0
40
1
40
1
40
1
40
1
41
1
10
40.5878873229636
20
3.1330520390581
30
0
41
1
10
40.6282248908216
20
3.12156143425753
30
0
41
1
10
40.6685545368358
20
3.10997657824407
30
0
41
1
10
40.7088774875149
20
3.09829921309438
30
0
0
SPLINE
5
155
100
AcDbEntity
8
1
62
256
6
ByLayer
370
18
48
1
60
0
100
AcDbSpline
70
4
71
3
72
26
73
22
40
0
40
0
40
0
40
0
40
0.125
40
0.25
40
0.25
40
0.312499999999999
40
0.312499999999999
40
0.343749999999999
40
0.343749999999999
40
0.374999999999999
40
0.499999999999999
40
0.624999999999999
40
0.624999999999999
40
0.749999999999998
40
0.749999999999998
40
0.781249999999999
40
0.781249999999999
40
0.812499999999999
40
0.875
40
0.875
40
1
40
1
40
1
40
1
41
1
10
40.5878873229636
20
3.13305203905813
30
0
41
1
10
40.5942251154142
20
3.05035619670093
30
0
41
1
10
40.606938567855
20
2.87610783279439
30
0
41
1
10
40.6197068167921
20
2.68431396306099
30
0
41
1
10
40.6293164354043
20
2.53377147860252
30
0
41
1
10
40.6325254367983
20
2.48247259164441
30
0
41
1
10
40.6373513523313
20
2.40381451847386
30
0
41
1
10
40.6389634075127
20
2.37728734549799
30
0
41
1
10
40.6421754917257
20
2.32394047338133
30
0
41
1
10
40.6501852709962
20
2.18968762526183
30
0
41
1
10
40.6644369670345
20
1.94017512927525
30
0
41
1
10
40.6770042374818
20
1.70748221620389
30
0
41
1
10
40.6895983258797
20
1.46932278663996
30
0
41
1
10
40.6959090136753
20
1.34751025138675
30
0
41
1
10
40.7038651472115
20
1.19172424058379
30
0
41
1
10
40.7054618304377
20
1.16034971217164
30
0
41
1
10
40.708648329983
20
1.09753760095884
30
0
41
1
10
40.7134198433612
20
1.00317340442595
30
0
41
1
10
40.7181759506007
20
0.908376496050693
30
0
41
1
10
40.7276519664576
20
0.718214136240448
30
0
41
1
10
40.7339131811492
20
0.590682056274318
30
0
41
1
10
40.7401419480437
20
0.462402337921219
30
0
0
SPLINE
5
156
100
AcDbEntity
8
1
62
256
6
ByLayer
370
18
48
1
60
0
100
AcDbSpline
70
4
71
3
72
28
73
24
40
0
40
0
40
0
40
0
40
0.124999999999998
40
0.124999999999998
40
0.249999999999997
40
0.249999999999997
40
0.312499999999996
40
0.312499999999996
40
0.343749999999995
40
0.343749999999995
40
0.374999999999995
40
0.374999999999995
40
0.499999999999996
40
0.624999999999996
40
0.624999999999996
40
0.749999999999997
40
0.749999999999997
40
0.781249999999997
40
0.781249999999997
40
0.812499999999997
40
0.874999999999998
40
0.874999999999998
40
1
40
1
40
1
40
1
41
1
10
43.417035312065
20
-0.734235687896529
30
0
41
1
10
43.410710255282
20
-0.606383724157041
30
0
41
1
10
43.4043907515323
20
-0.477900723816447
30
0
41
1
10
43.3916738591158
20
-0.219688647810273
30
0
41
1
10
43.3852700751407
20
-0.0899599162049753
30
0
41
1
10
43.375571519437
20
0.105583152817559
30
0
41
1
10
43.3723261527992
20
0.170922921655063
30
0
41
1
10
43.3674432606147
20
0.2691756326968
30
0
41
1
10
43.365812452265
20
0.301980428475929
30
0
41
1
10
43.3625637739763
20
0.367315055122049
30
0
41
1
10
43.3609437230359
20
0.39988876699698
30
0
41
1
10
43.3528646379816
20
0.562294114947605
30
0
41
1
10
43.3400783243745
20
0.819185045446829
30
0
41
1
10
43.3274828873058
20
1.0702935414553
30
0
41
1
10
43.3148934260053
20
1.31849496616397
30
0
41
1
10
43.3086013094992
20
1.44114235966046
30
0
41
1
10
43.3006629945897
20
1.59257297774982
30
0
41
1
10
43.2990701795394
20
1.62279145390687
30
0
41
1
10
43.2958917298372
20
1.68272302322558
30
0
41
1
10
43.2911300500646
20
1.77196705080402
30
0
41
1
10
43.2863724060516
20
1.85927227046065
30
0
41
1
10
43.276854413139
20
2.03133745437984
30
0
41
1
10
43.27051367193
20
2.142659993232
30
0
41
1
10
43.2641807968425
20
2.25062998722785
30
0
0
SPLINE
5
157
100
AcDbEntity
8
1
62
256
6
ByLayer
370
18
48
1
60
0
100
AcDbSpline
70
4
71
3
72
8
73
4
40
0
40
0
40
0
40
0
40
1
40
1
40
1
40
1
41
1
10
43.1432998810388
20
2.29530789576961
30
0
41
1
10
43.1835893919238
20
2.28048984358026
30
0
41
1
10
43.2238827151088
20
2.26559668648702
30
0
41
1
10
43.2641807968425
20
2.25062998722785
30
0
0
SPLINE
5
158
100
AcDbEntity
8
1
62
256
6
ByLayer
370
13
48
1
60
0
100
AcDbSpline
70
4
71
3
72
10
73
6
40
0
40
0
40
0
40
0
40
0.633281141798978
40
0.989513281991094
40
1
40
1
40
1
40
1
41
1
10
42.8743271665813
20
-0.347172571099605
30
0
41
1
10
42.8443914611838
20
0.156381154262448
30
0
41
1
10
42.7972231272538
20
0.967750306032968
30
0
41
1
10
42.7472989831792
20
1.72249030064987
30
0
41
1
10
42.7287695219432
20
1.97605316302685
30
0
41
1
10
42.7282394726199
20
1.98328483620583
30
0
0
SPLINE
5
159
100
AcDbEntity
8
1
62
256
6
ByLayer
370
18
48
1
60
0
100
AcDbSpline
70
4
71
3
72
25
73
21
40
0
40
0
40
0
40
0
40
0.125
40
0.125
40
0.249999999999999
40
0.249999999999999
40
0.312499999999999
40
0.312499999999999
40
0.374999999999999
40
0.374999999999999
40
0.499999999999999
40
0.624999999999999
40
0.624999999999999
40
0.749999999999999
40
0.749999999999999
40
0.812499999999999
40
0.812499999999999
40
0.874999999999999
40
0.874999999999999
40
1
40
1
40
1
40
1
41
1
10
43.1432998810389
20
2.29530789576967
30
0
41
1
10
43.1496576237577
20
2.1880472089544
30
0
41
1
10
43.1560776480956
20
2.07765363234114
30
0
41
1
10
43.1689344353082
20
1.85063733769022
30
0
41
1
10
43.1753703538609
20
1.73401474872935
30
0
41
1
10
43.1850343985327
20
1.55430997785683
30
0
41
1
10
43.1882585932546
20
1.49360708624354
30
0
41
1
10
43.1947235763887
20
1.37059433140752
30
0
41
1
10
43.197938769493
20
1.3087811998854
30
0
41
1
10
43.2075472777594
20
1.12244131376895
30
0
41
1
10
43.2202611917984
20
0.871591046856679
30
0
41
1
10
43.2329004930476
20
0.616050504643397
30
0
41
1
10
43.2455568893863
20
0.358151787990721
30
0
41
1
10
43.2518931124722
20
0.228023542018036
30
0
41
1
10
43.2614576140514
20
0.0310031541695253
30
0
41
1
10
43.2646334682537
20
-0.0345121079452895
30
0
41
1
10
43.2709592192339
20
-0.165005837418903
30
0
41
1
10
43.2741109301675
20
-0.230021877221617
30
0
41
1
10
43.2835482738974
20
-0.424386521248607
30
0
41
1
10
43.2898155018316
20
-0.55305321057017
30
0
41
1
10
43.296106291732
20
-0.680814772928358
30
0
0
SPLINE
5
15A
100
AcDbEntity
8
1
62
256
6
ByLayer
370
18
48
1
60
0
100
AcDbSpline
70
4
71
3
72
12
73
8
40
0
40
0
40
0
40
0
40
0.25
40
0.25
40
0.5
40
0.5
40
1
40
1
40
1
40
1
41
1
10
43.1432998810389
20
2.29530789576961
30
0
41
1
10
43.108775286411
20
2.27067545310282
30
0
41
1
10
43.0742328534705
20
2.24561872454029
30
0
41
1
10
43.005117100928
20
2.1948892564937
30
0
41
1
10
42.9705441359241
20
2.16919254793558
30
0
41
1
10
42.8667786036081
20
2.09113652282866
30
0
41
1
10
42.7975411720586
20
2.03774909277718
30
0
41
1
10
42.7282394726198
20
1.9832848362058
30
0
0
SPLINE
5
15B
100
AcDbEntity
8
1
62
256
6
ByLayer
370
13
48
1
60
0
100
AcDbSpline
70
4
71
3
72
11
73
7
40
0
40
0
40
0
40
0
40
0.0836727995770687
40
0.452466120871494
40
0.997164473955125
40
1
40
1
40
1
40
1
41
1
10
41.596159818796
20
0.127568764633196
30
0
41
1
10
41.5921835798974
20
0.194678085707153
30
0
41
1
10
41.5706379387078
20
0.557985365468085
30
0
41
1
10
41.5225507515493
20
1.35773764790511
30
0
41
1
10
41.4779536933223
20
2.00749208099717
30
0
41
1
10
41.4507398786513
20
2.33801007079521
30
0
41
1
10
41.4505989306999
20
2.33972017810734
30
0
0
SPLINE
5
15C
100
AcDbEntity
8
1
62
256
6
ByLayer
370
18
48
1
60
0
100
AcDbSpline
70
4
71
3
72
12
73
8
40
0
40
0
40
0
40
0
40
0.249999999999994
40
0.249999999999994
40
0.499999999999988
40
0.499999999999988
40
1
40
1
40
1
40
1
41
1
10
41.8661461365808
20
2.73948300484847
30
0
41
1
10
41.8315808654103
20
2.70737390840108
30
0
41
1
10
41.7969978525435
20
2.67488613715153
30
0
41
1
10
41.7278013485703
20
2.60937469378641
30
0
41
1
10
41.6931880782962
20
2.57632902558257
30
0
41
1
10
41.5893016304401
20
2.47634811311937
30
0
41
1
10
41.5199835611617
20
2.40852400345375
30
0
41
1
10
41.4505989306999
20
2.33972017810737
30
0
0
SPLINE
5
15D
100
AcDbEntity
8
1
62
256
6
ByLayer
370
18
48
1
60
0
100
AcDbSpline
70
4
71
3
72
22
73
18
40
0
40
0
40
0
40
0
40
0.125
40
0.25
40
0.25
40
0.3125
40
0.3125
40
0.375
40
0.375
40
0.5
40
0.625
40
0.625
40
0.75
40
0.75
40
0.875
40
0.875
40
1
40
1
40
1
40
1
41
1
10
40.8610622759684
20
0.408521057429226
30
0
41
1
10
40.8546805492709
20
0.537276066565425
30
0
41
1
10
40.8419183866453
20
0.792727737558806
30
0
41
1
10
40.8292672846277
20
1.04409096635831
30
0
41
1
10
40.8197599746627
20
1.2310434745844
30
0
41
1
10
40.8165838492107
20
1.29315373928077
30
0
41
1
10
40.8102124264967
20
1.4166071605043
30
0
41
1
10
40.8070352070059
20
1.47755973530295
30
0
41
1
10
40.7975151436731
20
1.65814176065084
30
0
41
1
10
40.7848604847954
20
1.89286008122531
30
0
41
1
10
40.7722154219423
20
2.11570058359334
30
0
41
1
10
40.7595316407359
20
2.33255758481772
30
0
41
1
10
40.7531702238073
20
2.43799490911434
30
0
41
1
10
40.7403590515746
20
2.64267320914584
30
0
41
1
10
40.7340122475973
20
2.74025707056654
30
0
41
1
10
40.7213977831043
20
2.92618101819255
30
0
41
1
10
40.7151343493926
20
3.0145303307323
30
0
41
1
10
40.708877487515
20
3.09829921309438
30
0
0
SPLINE
5
15E
100
AcDbEntity
8
1
62
256
6
ByLayer
370
13
48
1
60
0
100
AcDbSpline
70
4
71
3
72
11
73
7
40
0
40
0
40
0
40
0
40
0.027430107833984
40
0.397293142264273
40
0.943571434435011
40
1
40
1
40
1
40
1
41
1.04
10
41.2760110841957
20
0.246126853470093
30
0
41
1.04
10
41.2747075823107
20
0.268090885946393
30
0
41
1.04
10
41.2558140077972
20
0.586253328740773
30
0
41
1.04
10
41.2104427631452
20
1.3416685997243
30
0
41
1.04
10
41.1632454170127
20
2.0315152776781
30
0
41
1.04
10
41.1333153945495
20
2.38990625933814
30
0
41
1.04
10
41.1305073364849
20
2.42281285714143
30
0
0
SPLINE
5
15F
100
AcDbEntity
8
1
62
256
6
ByLayer
370
18
48
1
60
0
100
AcDbSpline
70
4
71
3
72
12
73
8
40
0
40
0
40
0
40
0
40
0.500000000000011
40
0.500000000000011
40
0.750000000000006
40
0.750000000000006
40
1
40
1
40
1
40
1
41
1
10
41.1305073364849
20
2.42281285714134
30
0
41
1
10
41.0596473425385
20
2.53153429617004
30
0
41
1
10
40.9890862332465
20
2.6424113299766
30
0
41
1
10
40.8836675042443
20
2.81144010461739
30
0
41
1
10
40.8486005614003
20
2.86824080861558
30
0
41
1
10
40.7786323072023
20
2.9826576215261
30
0
41
1
10
40.7437272264881
20
3.04029537668222
30
0
41
1
10
40.708877487515
20
3.09829921309438
30
0
0
SPLINE
5
160
100
AcDbEntity
8
1
62
256
6
ByLayer
370
18
48
1
60
0
100
AcDbSpline
70
4
71
3
72
27
73
23
40
0
40
0
40
0
40
0
40
0.125000000000001
40
0.250000000000003
40
0.250000000000003
40
0.312500000000003
40
0.312500000000003
40
0.343750000000004
40
0.343750000000004
40
0.375000000000004
40
0.500000000000003
40
0.500000000000003
40
0.625000000000003
40
0.625000000000003
40
0.750000000000002
40
0.750000000000002
40
0.781250000000002
40
0.781250000000002
40
0.812500000000002
40
0.875000000000002
40
0.875000000000002
40
1
40
1
40
1
40
1
41
1
10
42.13902301263
20
-0.164411669552379
30
0
41
1
10
42.1326349767376
20
-0.0348870357402973
30
0
41
1
10
42.1199131701572
20
0.223755122485329
30
0
41
1
10
42.1072012399853
20
0.481584250311727
30
0
41
1
10
42.0976284227099
20
0.674642959494804
30
0
41
1
10
42.0944309602907
20
0.738943582891693
30
0
41
1
10
42.0896194995485
20
0.835314212548695
30
0
41
1
10
42.08801645846
20
0.867357636652685
30
0
41
1
10
42.0848204596431
20
0.931098555550676
30
0
41
1
10
42.0768487047105
20
1.08972967378259
30
0
41
1
10
42.068954949857
20
1.24480331512945
30
0
41
1
10
42.056388039467
20
1.48846472196556
30
0
41
1
10
42.0501423716404
20
1.60806732669448
30
0
41
1
10
42.0376604511901
20
1.84278857073713
30
0
41
1
10
42.031423740472
20
1.95790755950355
30
0
41
1
10
42.0235207090978
20
2.0989049577681
30
0
41
1
10
42.0219356574544
20
2.12693718141279
30
0
41
1
10
42.0187676946827
20
2.18241020099768
30
0
41
1
10
42.0140141422196
20
2.26484182071758
30
0
41
1
10
42.0092293381912
20
2.3449636312103
30
0
41
1
10
41.9995966755162
20
2.50217233365558
30
0
41
1
10
41.9931127068704
20
2.60293933769336
30
0
41
1
10
41.9866382929813
20
2.69970646883303
30
0
0
SPLINE
5
161
100
AcDbEntity
8
1
62
256
6
ByLayer
370
18
48
1
60
0
100
AcDbSpline
70
4
71
3
72
8
73
4
40
0
40
0
40
0
40
0
40
1
40
1
40
1
40
1
41
1
10
41.8661461365808
20
2.73948300484844
30
0
41
1
10
41.9063053172918
20
2.72629618971891
30
0
41
1
10
41.9464695004272
20
2.71303749495334
30
0
41
1
10
41.9866382929812
20
2.69970646883303
30
0
0
SPLINE
5
162
100
AcDbEntity
8
1
62
256
6
ByLayer
370
18
48
1
60
0
100
AcDbSpline
70
4
71
3
72
27
73
23
40
0
40
0
40
0
40
0
40
0.124999999999998
40
0.249999999999995
40
0.249999999999995
40
0.312499999999994
40
0.312499999999994
40
0.343749999999994
40
0.343749999999994
40
0.374999999999994
40
0.499999999999995
40
0.499999999999995
40
0.624999999999996
40
0.624999999999996
40
0.749999999999996
40
0.749999999999996
40
0.781249999999997
40
0.781249999999997
40
0.812499999999997
40
0.874999999999998
40
0.874999999999998
40
1
40
1
40
1
40
1
41
1
10
41.8661461365808
20
2.73948300484847
30
0
41
1
10
41.8724926948087
20
2.64361565717644
30
0
41
1
10
41.8851191931186
20
2.44425316129175
30
0
41
1
10
41.8977420305859
20
2.22975992775156
30
0
41
1
10
41.907258893399
20
2.06310657371483
30
0
41
1
10
41.9104395332271
20
2.00658992072573
30
0
41
1
10
41.9152304298032
20
1.92033731881003
30
0
41
1
10
41.9168288358654
20
1.89137365343421
30
0
41
1
10
41.9200167210158
20
1.83325990634972
30
0
41
1
10
41.9279731971269
20
1.68733803662462
30
0
41
1
10
41.9358846463846
20
1.53827328177252
30
0
41
1
10
41.9485635059955
20
1.29583978671448
30
0
41
1
10
41.9548977572695
20
1.17265725436036
30
0
41
1
10
41.9675289442408
20
0.922339626644714
30
0
41
1
10
41.9738251831922
20
0.795204808899769
30
0
41
1
10
41.9817398019668
20
0.633737619247142
30
0
41
1
10
41.9833252519982
20
0.601317517808354
30
0
41
1
10
41.986487205392
20
0.536575473057809
30
0
41
1
10
41.9912220699516
20
0.439476900334967
30
0
41
1
10
41.9959577251466
20
0.342422559728021
30
0
41
1
10
42.0054441535998
20
0.148372661712244
30
0
41
1
10
42.0117849307775
20
0.0190841298943667
30
0
41
1
10
42.0181491548746
20
-0.110126723878949
30
0
0
SPLINE
5
163
100
AcDbEntity
8
1
62
256
6
ByLayer
370
18
48
1
60
0
100
AcDbSpline
70
4
71
3
72
8
73
4
40
0
40
0
40
0
40
0
40
1
40
1
40
1
40
1
41
1
10
44.432735258406
20
-1.08550505266601
30
0
41
1
10
44.5889985820383
20
-1.13400931017375
30
0
41
1
10
44.7456109965459
20
-1.18034380866556
30
0
41
1
10
44.9026265154759
20
-1.22448115213905
30
0
0
SPLINE
5
164
100
AcDbEntity
8
1
62
256
6
ByLayer
370
18
48
1
60
0
100
AcDbSpline
70
4
71
3
72
12
73
8
40
0
40
0
40
0
40
0
40
0.25
40
0.25
40
0.5
40
0.5
40
1
40
1
40
1
40
1
41
1
10
44.1523618747891
20
-0.812932237549262
30
0
41
1
10
44.1759550313362
20
-0.833083381088358
30
0
41
1
10
44.1994336601746
20
-0.854395677801961
30
0
41
1
10
44.2462763181615
20
-0.898373908126075
30
0
41
1
10
44.2696488644363
20
-0.920985417080658
30
0
41
1
10
44.3396764822945
20
-0.98984821602113
30
0
41
1
10
44.3862577498249
20
-1.03708263070712
30
0
41
1
10
44.432735258406
20
-1.08550505266601
30
0
0
SPLINE
5
165
100
AcDbEntity
8
1
62
256
6
ByLayer
370
18
48
1
60
0
100
AcDbSpline
70
4
71
3
72
30
73
26
40
0
40
0
40
0
40
0
40
0.125000000000054
40
0.125000000000054
40
0.187500000000045
40
0.187500000000045
40
0.250000000000036
40
0.250000000000036
40
0.312500000000027
40
0.312500000000027
40
0.375000000000018
40
0.437500000000009
40
0.437500000000009
40
0.5
40
0.5
40
0.624999999999982
40
0.624999999999982
40
0.687499999999973
40
0.687499999999973
40
0.749999999999964
40
0.812499999999955
40
0.812499999999955
40
0.874999999999946
40
0.874999999999946
40
1
40
1
40
1
40
1
41
1
10
43.8322324608171
20
-0.697493490423284
30
0
41
1
10
43.8407371742453
20
-0.696805078026159
30
0
41
1
10
43.8509570821535
20
-0.697254624202714
30
0
41
1
10
43.8686171855837
20
-0.699359451984549
30
0
41
1
10
43.8749330963348
20
-0.700312125542723
30
0
41
1
10
43.8879911456131
20
-0.702626669713766
30
0
41
1
10
43.8947684379258
20
-0.703991118211036
30
0
41
1
10
43.908800330845
20
-0.707107273265677
30
0
41
1
10
43.9160759052974
20
-0.708864537288093
30
0
41
1
10
43.9310206476509
20
-0.712741108878703
30
0
41
1
10
43.9461579900763
20
-0.716925910549179
30
0
41
1
10
43.961661384403
20
-0.721692263006958
30
0
41
1
10
43.9773464978396
20
-0.726750540601614
30
0
41
1
10
43.9853259660452
20
-0.729442705180901
30
0
41
1
10
44.0090095365616
20
-0.737791377831627
30
0
41
1
10
44.0245685190746
20
-0.743742897049515
30
0
41
1
10
44.0475375824906
20
-0.753310353984375
30
0
41
1
10
44.0551485906456
20
-0.756617529690857
30
0
41
1
10
44.0698341185176
20
-0.76328956705018
30
0
41
1
10
44.0840857174418
20
-0.770060329714227
30
0
41
1
10
44.0974574917248
20
-0.777055203575401
30
0
41
1
10
44.1103610601147
20
-0.784182175841721
30
0
41
1
10
44.1165606223246
20
-0.78780546490114
30
0
41
1
10
44.1338829435434
20
-0.798580727506902
30
0
41
1
10
44.1439447782967
20
-0.80574311390393
30
0
41
1
10
44.1523618747891
20
-0.812932237549262
30
0
0
SPLINE
5
166
100
AcDbEntity
8
1
62
256
6
ByLayer
370
18
48
1
60
0
100
AcDbSpline
70
4
71
3
72
12
73
8
40
0
40
0
40
0
40
0
40
0.499999999999999
40
0.499999999999999
40
0.75
40
0.75
40
1
40
1
40
1
40
1
41
1
10
43.4170353120744
20
-0.734235687894483
30
0
41
1
10
43.4860872291227
20
-0.731862908466212
30
0
41
1
10
43.555214685375
20
-0.727225984515144
30
0
41
1
10
43.6590365673121
20
-0.71715835180737
30
0
41
1
10
43.6936624838605
20
-0.713179117016693
30
0
41
1
10
43.7629430661535
20
-0.704739365251214
30
0
41
1
10
43.7975979591987
20
-0.700296973515151
30
0
41
1
10
43.8322324608172
20
-0.697493490424904
30
0
0
SPLINE
5
167
100
AcDbEntity
8
1
62
256
6
ByLayer
370
18
48
1
60
0
100
AcDbSpline
70
4
71
3
72
8
73
4
40
0
40
0
40
0
40
0
40
1
40
1
40
1
40
1
41
1
10
43.4170353120737
20
-0.734235687898632
30
0
41
1
10
43.3767248005378
20
-0.716450880835907
30
0
41
1
10
43.3364153100196
20
-0.698643509927223
30
0
41
1
10
43.296106291732
20
-0.680814772928329
30
0
0
SPLINE
5
168
100
AcDbEntity
8
1
62
256
6
ByLayer
370
18
48
1
60
0
100
AcDbSpline
70
4
71
3
72
12
73
8
40
0
40
0
40
0
40
0
40
0.25
40
0.25
40
0.500000000000001
40
0.500000000000001
40
1
40
1
40
1
40
1
41
1
10
42.8743271665813
20
-0.347172571099634
30
0
41
1
10
42.9098997637274
20
-0.369820015764134
30
0
41
1
10
42.9452179038012
20
-0.395214033054799
30
0
41
1
10
43.0157279984731
20
-0.447977330578169
30
0
41
1
10
43.0509041476274
20
-0.475362987555258
30
0
41
1
10
43.156286982868
20
-0.559570797147785
30
0
41
1
10
43.2262942349702
20
-0.618776590696854
30
0
41
1
10
43.2961062917319
20
-0.680814772928557
30
0
0
SPLINE
5
169
100
AcDbEntity
8
1
62
256
6
ByLayer
370
18
48
1
60
0
100
AcDbSpline
70
4
71
3
72
30
73
26
40
0
40
0
40
0
40
0
40
0.125000000000028
40
0.125000000000028
40
0.187500000000006
40
0.187500000000006
40
0.249999999999983
40
0.249999999999983
40
0.312499999999961
40
0.312499999999961
40
0.374999999999939
40
0.437499999999916
40
0.437499999999916
40
0.499999999999894
40
0.499999999999894
40
0.62499999999985
40
0.62499999999985
40
0.687499999999875
40
0.687499999999875
40
0.7499999999999
40
0.812499999999925
40
0.812499999999925
40
0.87499999999995
40
0.87499999999995
40
1
40
1
40
1
40
1
41
1
10
42.5541730229493
20
-0.228637299514361
30
0
41
1
10
42.5626836655736
20
-0.229992172391746
30
0
41
1
10
42.5729128179003
20
-0.232278451006039
30
0
41
1
10
42.5905909248053
20
-0.236861169255746
30
0
41
1
10
42.5969127139556
20
-0.23859512310699
30
0
41
1
10
42.6099812340559
20
-0.242335890166828
30
0
41
1
10
42.6167638975747
20
-0.244351314314201
30
0
41
1
10
42.630806805425
20
-0.248650274892526
30
0
41
1
10
42.6380905087187
20
-0.250941444061937
30
0
41
1
10
42.6530401280255
20
-0.255756055288913
30
0
41
1
10
42.6681823097049
20
-0.260741051457387
30
0
41
1
10
42.6836906032154
20
-0.266045991205829
30
0
41
1
10
42.6993807024821
20
-0.271512408679001
30
0
41
1
10
42.7073609648477
20
-0.27434274208386
30
0
41
1
10
42.7310381785175
20
-0.28289595472225
30
0
41
1
10
42.7465942769766
20
-0.288717612238798
30
0
41
1
10
42.769560752056
20
-0.29768809127151
30
0
41
1
10
42.7771666765913
20
-0.300724868050111
30
0
41
1
10
42.7918423225237
20
-0.306731867905171
30
0
41
1
10
42.8060857598088
20
-0.312712188393817
30
0
41
1
10
42.8194522299289
20
-0.318666049023847
30
0
41
1
10
42.8323516909197
20
-0.324620711802169
30
0
41
1
10
42.8385452216792
20
-0.327590043350455
30
0
41
1
10
42.8558548190882
20
-0.336260549609051
30
0
41
1
10
42.8659119526504
20
-0.341814989502296
30
0
41
1
10
42.8743271665813
20
-0.347172571099634
30
0
0
SPLINE
5
16A
100
AcDbEntity
8
1
62
256
6
ByLayer
370
18
48
1
60
0
100
AcDbSpline
70
4
71
3
72
12
73
8
40
0
40
0
40
0
40
0
40
0.499999999999988
40
0.499999999999988
40
0.749999999999994
40
0.749999999999994
40
1
40
1
40
1
40
1
41
1
10
42.1390230126401
20
-0.164411669552521
30
0
41
1
10
42.2080688808579
20
-0.178838438750802
30
0
41
1
10
42.2771890243394
20
-0.191041594475081
30
0
41
1
10
42.3809972844747
20
-0.206297888214266
30
0
41
1
10
42.4156181044551
20
-0.210777062755653
30
0
41
1
10
42.4848893187204
20
-0.219194923014754
30
0
41
1
10
42.5195404256273
20
-0.223123877219791
30
0
41
1
10
42.5541730229493
20
-0.228637299514361
30
0
0
SPLINE
5
16B
100
AcDbEntity
8
1
62
256
6
ByLayer
370
18
48
1
60
0
100
AcDbSpline
70
4
71
3
72
8
73
4
40
0
40
0
40
0
40
0
40
1
40
1
40
1
40
1
41
1
10
42.1390230126393
20
-0.164411669554568
30
0
41
1
10
42.0987314614206
20
-0.14632073065431
30
0
41
1
10
42.0584404583956
20
-0.128225119368665
30
0
41
1
10
42.0181491548746
20
-0.110126723878921
30
0
0
SPLINE
5
16C
100
AcDbEntity
8
1
62
256
6
ByLayer
370
18
48
1
60
0
100
AcDbSpline
70
4
71
3
72
12
73
8
40
0
40
0
40
0
40
0
40
0.25
40
0.25
40
0.5
40
0.5
40
1
40
1
40
1
40
1
41
1
10
41.596159818796
20
0.127568764633168
30
0
41
1
10
41.6317386860733
20
0.113047872943554
30
0
41
1
10
41.667067641933
20
0.0957210783340372
30
0
41
1
10
41.7376089571082
20
0.0591009532065243
30
0
41
1
10
41.772804032873
20
0.0397663895774656
30
0
41
1
10
41.8782436963567
20
-0.0204246088169953
30
0
41
1
10
41.9482915646172
20
-0.0637892756759015
30
0
41
1
10
42.0181491548746
20
-0.110126723879176
30
0
0
SPLINE
5
16D
100
AcDbEntity
8
1
62
256
6
ByLayer
370
18
48
1
60
0
100
AcDbSpline
70
4
71
3
72
30
73
26
40
0
40
0
40
0
40
0
40
0.125000000000076
40
0.125000000000076
40
0.187500000000078
40
0.187500000000078
40
0.25000000000008
40
0.25000000000008
40
0.312500000000082
40
0.312500000000082
40
0.375000000000083
40
0.437500000000085
40
0.437500000000085
40
0.500000000000087
40
0.500000000000087
40
0.624999999999994
40
0.624999999999994
40
0.687499999999994
40
0.687499999999994
40
0.749999999999995
40
0.812499999999996
40
0.812499999999996
40
0.874999999999997
40
0.874999999999997
40
1
40
1
40
1
40
1
41
1
10
41.2760110841957
20
0.246126853470088
30
0
41
1
10
41.2845217324749
20
0.242796176647744
30
0
41
1
10
41.2947544813485
20
0.238765125498475
30
0
41
1
10
41.3124446911647
20
0.231869975631497
30
0
41
1
10
41.3187709165366
20
0.229415110004339
30
0
41
1
10
41.3318480996234
20
0.224374312905638
30
0
41
1
10
41.3386356725892
20
0.221773943881942
30
0
41
1
10
41.3526895483391
20
0.216429261839721
30
0
41
1
10
41.3599814462559
20
0.213675331073546
30
0
41
1
10
41.3749383631779
20
0.208069300541439
30
0
41
1
10
41.3900880578695
20
0.202432405306894
30
0
41
1
10
41.4056041920679
20
0.196739772868796
30
0
41
1
10
41.421302267817
20
0.191017252209178
30
0
41
1
10
41.4292846108177
20
0.188125936821137
30
0
41
1
10
41.4529590406128
20
0.17959597259707
30
0
41
1
10
41.4685137603036
20
0.174052195120169
30
0
41
1
10
41.4914787419443
20
0.165896277653786
30
0
41
1
10
41.4990783341213
20
0.163201986341392
30
0
41
1
10
41.5137418736405
20
0.157998569643922
30
0
41
1
10
41.527974804654
20
0.152942992277985
30
0
41
1
10
41.5413336045349
20
0.148157033353868
30
0
41
1
10
41.5542266915571
20
0.143498304256752
30
0
41
1
10
41.5604106619297
20
0.141242822883442
30
0
41
1
10
41.5776999097644
20
0.134846501001732
30
0
41
1
10
41.587748507585
20
0.131001694021052
30
0
41
1
10
41.596159818796
20
0.127568764633168
30
0
0
SPLINE
5
16E
100
AcDbEntity
8
1
62
256
6
ByLayer
370
18
48
1
60
0
100
AcDbSpline
70
4
71
3
72
12
73
8
40
0
40
0
40
0
40
0
40
0.500000000000001
40
0.500000000000001
40
0.75
40
0.75
40
1
40
1
40
1
40
1
41
1
10
40.8610622759793
20
0.408521057426554
30
0
41
1
10
40.9300753098815
20
0.377702015948216
30
0
41
1
10
40.9991622880208
20
0.349101973100659
30
0
41
1
10
41.1029193856377
20
0.309226927622888
30
0
41
1
10
41.1375223754386
20
0.296528635987784
30
0
41
1
10
41.2067584188142
20
0.271736814250943
30
0
41
1
10
41.2413925164252
20
0.259674970783067
30
0
41
1
10
41.2760110841957
20
0.246126853470088
30
0
0
SPLINE
5
16F
100
AcDbEntity
8
1
62
256
6
ByLayer
370
18
48
1
60
0
100
AcDbSpline
70
4
71
3
72
8
73
4
40
0
40
0
40
0
40
0
40
1
40
1
40
1
40
1
41
1
10
40.8610622759785
20
0.408521057426981
30
0
41
1
10
40.820756070935
20
0.426496233840794
30
0
41
1
10
40.780449480197
20
0.444457068559984
30
0
41
1
10
40.7401419480438
20
0.462402337921162
30
0
0
SPLINE
5
170
100
AcDbEntity
8
1
62
256
6
ByLayer
370
18
48
1
60
0
100
AcDbSpline
70
4
71
3
72
12
73
8
40
0
40
0
40
0
40
0
40
0.249999999999994
40
0.249999999999994
40
0.499999999999988
40
0.499999999999988
40
1
40
1
40
1
40
1
41
1
10
40.3182196826554
20
0.597386812815188
30
0
41
1
10
40.3537912277456
20
0.59147436567892
30
0
41
1
10
40.3891177071414
20
0.582756008629644
30
0
41
1
10
40.4596565642061
20
0.563378201831313
30
0
41
1
10
40.4948509568037
20
0.552660088738236
30
0
41
1
10
40.600279984838
20
0.518207995928321
30
0
41
1
10
40.670310955592
20
0.49186755578981
30
0
41
1
10
40.7401419480437
20
0.462402337920935
30
0
0
SPLINE
5
171
100
AcDbEntity
8
1
62
256
6
ByLayer
370
18
48
1
60
0
100
AcDbSpline
70
4
71
3
72
30
73
26
40
0
40
0
40
0
40
0
40
0.124999999999952
40
0.124999999999952
40
0.187499999999928
40
0.187499999999928
40
0.249999999999904
40
0.249999999999904
40
0.312499999999879
40
0.312499999999879
40
0.374999999999855
40
0.437499999999831
40
0.437499999999831
40
0.499999999999807
40
0.499999999999807
40
0.624999999999856
40
0.624999999999856
40
0.68749999999988
40
0.68749999999988
40
0.749999999999904
40
0.812499999999928
40
0.812499999999928
40
0.874999999999952
40
0.874999999999952
40
1
40
1
40
1
40
1
41
1
10
39.9981057057944
20
0.713419657184346
30
0
41
1
10
40.006614119645
20
0.708146404800601
30
0
41
1
10
40.0168451610525
20
0.702420896314891
30
0
41
1
10
40.0345345295535
20
0.693312476322092
30
0
41
1
10
40.0408606052901
20
0.690173807246566
30
0
41
1
10
40.0539376233698
20
0.68391250008878
30
0
41
1
10
40.0607253306707
20
0.680769904719284
30
0
41
1
10
40.0747800266505
20
0.674470781143242
30
0
41
1
10
40.0820730826313
20
0.671303316326316
30
0
41
1
10
40.097030723331
20
0.665007379898555
30
0
41
1
10
40.112181478464
20
0.658824071958804
30
0
41
1
10
40.1276992705887
20
0.65285721265596
30
0
41
1
10
40.1433994519999
20
0.646996330615508
30
0
41
1
10
40.1513825436134
20
0.644104884153478
30
0
41
1
10
40.1750570278856
20
0.635780847225504
30
0
41
1
10
40.1906120798145
20
0.630641144412209
30
0
41
1
10
40.2135778823453
20
0.623496867252527
30
0
41
1
10
40.2211757727196
20
0.621210421998029
30
0
41
1
10
40.2358358740966
20
0.616940242145319
30
0
41
1
10
40.2500657120011
20
0.612939311690013
30
0
41
1
10
40.263421503754
20
0.609451700698656
30
0
41
1
10
40.276311795296
20
0.606219570638729
30
0
41
1
10
40.282491197171
20
0.604740560348233
30
0
41
1
10
40.2997698460693
20
0.600802085163821
30
0
41
1
10
40.3098125138067
20
0.598784192132229
30
0
41
1
10
40.3182196826554
20
0.597386812815188
30
0
0
SPLINE
5
172
100
AcDbEntity
8
1
62
256
6
ByLayer
370
18
48
1
60
0
100
AcDbSpline
70
4
71
3
72
12
73
8
40
0
40
0
40
0
40
0
40
0.500000000000013
40
0.500000000000013
40
0.750000000000007
40
0.750000000000007
40
1
40
1
40
1
40
1
41
1
10
39.582981340384
20
0.971972027202213
30
0
41
1
10
39.6520214921586
20
0.925266508507661
30
0
41
1
10
39.7211364552479
20
0.880673957537482
30
0
41
1
10
39.824936524763
20
0.816670590314942
30
0
41
1
10
39.8595539023391
20
0.795897575890734
30
0
41
1
10
39.9288199917123
20
0.754982867798105
30
0
41
1
10
39.9634699622376
20
0.734885822380704
30
0
41
1
10
39.9981057057945
20
0.713419657184318
30
0
0
SPLINE
5
173
100
AcDbEntity
8
1
62
256
6
ByLayer
370
18
48
1
60
0
100
AcDbSpline
70
4
71
3
72
8
73
4
40
0
40
0
40
0
40
0
40
1
40
1
40
1
40
1
41
1
10
39.5829813403831
20
0.971972027206021
30
0
41
1
10
39.5427975354562
20
0.98943297375871
30
0
41
1
10
39.5026142613355
20
1.00686526690927
30
0
41
1
10
39.4624310346893
20
1.02426785906769
30
0
0
SPLINE
5
174
100
AcDbEntity
8
1
62
256
6
ByLayer
370
18
48
1
60
0
100
AcDbSpline
70
4
71
3
72
14
73
10
40
0
40
0
40
0
40
0
40
0.125000000000004
40
0.125000000000004
40
0.250000000000008
40
0.250000000000008
40
0.500000000000006
40
0.500000000000006
40
1
40
1
40
1
40
1
41
1
10
39.0402318313507
20
1.05505760066743
30
0
41
1
10
39.0580217995116
20
1.0563892054173
30
0
41
1
10
39.0757500393817
20
1.05701663372898
30
0
41
1
10
39.1111376629682
20
1.05738522537749
30
0
41
1
10
39.1287989602294
20
1.05714831264464
30
0
41
1
10
39.1817331714011
20
1.0556445330478
30
0
41
1
10
39.2169512168031
20
1.0536380045528
30
0
41
1
10
39.3224533930675
20
1.04529490155605
30
0
41
1
10
39.3925391922667
20
1.03634960744844
30
0
41
1
10
39.4624310346892
20
1.02426785906755
30
0
0
SPLINE
5
175
100
AcDbEntity
8
1
62
256
6
ByLayer
370
18
48
1
60
0
100
AcDbSpline
70
4
71
3
72
30
73
26
40
0
40
0
40
0
40
0
40
0.125000000000037
40
0.125000000000037
40
0.187500000000037
40
0.187500000000037
40
0.250000000000037
40
0.250000000000037
40
0.312500000000037
40
0.312500000000037
40
0.375000000000037
40
0.437500000000037
40
0.437500000000037
40
0.500000000000037
40
0.500000000000037
40
0.625000000000037
40
0.625000000000037
40
0.687500000000037
40
0.687500000000037
40
0.750000000000037
40
0.812500000000036
40
0.812500000000036
40
0.875000000000036
40
0.875000000000036
40
1
40
1
40
1
40
1
41
1
10
38.7201022880921
20
1.16684287336179
30
0
41
1
10
38.7286116470096
20
1.15973585333757
30
0
41
1
10
38.7388456176598
20
1.15242939654493
30
0
41
1
10
38.7565422884479
20
1.14128208546791
30
0
41
1
10
38.7628708742113
20
1.13751881527216
30
0
41
1
10
38.7759525586557
20
1.13015331031204
30
0
41
1
10
38.7827427756336
20
1.12652585653271
30
0
41
1
10
38.7968028353808
20
1.11938522587187
30
0
41
1
10
38.8040998187789
20
1.11585967622733
30
0
41
1
10
38.8190603659088
20
1.10898342135593
30
0
41
1
10
38.834214035129
20
1.10235896846359
30
0
41
1
10
38.849734953899
20
1.09621484411286
30
0
41
1
10
38.8654382923109
20
1.09030835323469
30
0
41
1
10
38.8734218762907
20
1.08746149930855
30
0
41
1
10
38.8970941359436
20
1.07946838793185
30
0
41
1
10
38.9126483359476
20
1.0748041336075
30
0
41
1
10
38.935613775167
20
1.06876227702313
30
0
41
1
10
38.943208903064
20
1.06691115531845
30
0
41
1
10
38.9578643996575
20
1.06362214752733
30
0
41
1
10
38.9720905875778
20
1.06071737057496
30
0
41
1
10
38.9854443952322
20
1.05855792065464
30
0
41
1
10
38.9983334418832
20
1.05677662479198
30
0
41
1
10
39.0045096876057
20
1.05608249235189
30
0
41
1
10
39.0217828354485
20
1.05461876936349
30
0
41
1
10
39.0318241394511
20
1.05442827281433
30
0
41
1
10
39.0402318313507
20
1.0550576006674
30
0
0
SPLINE
5
176
100
AcDbEntity
8
1
62
256
6
ByLayer
370
18
48
1
60
0
100
AcDbSpline
70
4
71
3
72
12
73
8
40
0
40
0
40
0
40
0
40
0.5
40
0.5
40
0.75
40
0.75
40
1
40
1
40
1
40
1
41
1
10
38.3050646923445
20
1.51614182436813
30
0
41
1
10
38.3740867174965
20
1.45447381456313
30
0
41
1
10
38.443185554798
20
1.39480809626139
30
0
41
1
10
38.5469639148455
20
1.30803043096722
30
0
41
1
10
38.5815740894632
20
1.2796279820144
30
0
41
1
10
38.650826906348
20
1.22346928182049
30
0
41
1
10
38.6854710050279
20
1.19576693504345
30
0
41
1
10
38.7201022880921
20
1.16684287336179
30
0
0
SPLINE
5
177
100
AcDbEntity
8
1
62
256
6
ByLayer
370
18
48
1
60
0
100
AcDbSpline
70
4
71
3
72
8
73
4
40
0
40
0
40
0
40
0
40
1
40
1
40
1
40
1
41
1
10
38.3050646923438
20
1.51614182437311
30
0
41
1
10
38.2648433478145
20
1.53286694107126
30
0
41
1
10
38.224623001852
20
1.54954824420028
30
0
41
1
10
38.1844030154287
20
1.56618439998923
30
0
0
SPLINE
5
178
100
AcDbEntity
8
1
62
256
6
ByLayer
370
18
48
1
60
0
100
AcDbSpline
70
4
71
3
72
14
73
10
40
0
40
0
40
0
40
0
40
0.125
40
0.125
40
0.25
40
0.25
40
0.5
40
0.5
40
1
40
1
40
1
40
1
41
1
10
37.7623180203033
20
1.49218014777409
30
0
41
1
10
37.7800988571924
20
1.49779310922821
30
0
41
1
10
37.7978190629567
20
1.50272774372192
30
0
41
1
10
37.8331941259741
20
1.51176542562746
30
0
41
1
10
37.8508504713063
20
1.51588545374949
30
0
41
1
10
37.9037707959922
20
1.52747701296497
30
0
41
1
10
37.938981664186
20
1.53423440189206
30
0
41
1
10
38.0444595823144
20
1.55216499748894
30
0
41
1
10
38.1145280676452
20
1.56074152427405
30
0
41
1
10
38.1844030154288
20
1.56618439998906
30
0
0
SPLINE
5
179
100
AcDbEntity
8
1
62
256
6
ByLayer
370
18
48
1
60
0
100
AcDbSpline
70
4
71
3
72
30
73
26
40
0
40
0
40
0
40
0
40
0.125000000000001
40
0.125000000000001
40
0.187500000000001
40
0.187500000000001
40
0.250000000000002
40
0.250000000000002
40
0.312500000000002
40
0.312500000000002
40
0.375000000000003
40
0.437500000000003
40
0.437500000000003
40
0.500000000000004
40
0.500000000000004
40
0.625000000000004
40
0.625000000000004
40
0.687500000000004
40
0.687500000000004
40
0.750000000000004
40
0.812500000000004
40
0.812500000000004
40
0.875000000000003
40
0.875000000000003
40
1
40
1
40
1
40
1
41
1
10
37.4421796345148
20
1.5973909111093
30
0
41
1
10
37.4506908569156
20
1.58857714837927
30
0
41
1
10
37.4609290035757
20
1.57982314349803
30
0
41
1
10
37.4786357547612
20
1.56684527881509
30
0
41
1
10
37.4849678253745
20
1.56252863777917
30
0
41
1
10
37.4980560921718
20
1.5541999263248
30
0
41
1
10
37.5048498385818
20
1.55015775840434
30
0
41
1
10
37.5189174451588
20
1.54231509103849
30
0
41
1
10
37.5262197306664
20
1.538500866226
30
0
41
1
10
37.5411849677359
20
1.53118198475792
30
0
41
1
10
37.5563433735358
20
1.52425046679707
30
0
41
1
10
37.571869136327
20
1.51805616491384
30
0
41
1
10
37.5875773749243
20
1.51222770233335
30
0
41
1
10
37.5955619616216
20
1.50948592938576
30
0
41
1
10
37.619232525466
20
1.50199569826512
30
0
41
1
10
37.6347860002025
20
1.49791002956917
30
0
41
1
10
37.6577506848291
20
1.49310852459138
30
0
41
1
10
37.6653418178418
20
1.49173571117643
30
0
41
1
10
37.6799904023785
20
1.48950556746294
30
0
41
1
10
37.6942104499004
20
1.48776723836627
30
0
41
1
10
37.7075598203724
20
1.48699151088366
30
0
41
1
10
37.7204449346136
20
1.48670921208884
30
0
41
1
10
37.7266153138244
20
1.48681935894581
30
0
41
1
10
37.7438765189959
20
1.48787581229666
30
0
41
1
10
37.753912740964
20
1.48952681321867
30
0
41
1
10
37.7623180203033
20
1.49218014777409
30
0
0
SPLINE
5
17A
100
AcDbEntity
8
1
62
256
6
ByLayer
370
18
48
1
60
0
100
AcDbSpline
70
4
71
3
72
14
73
10
40
0
40
0
40
0
40
0
40
0.499999999999993
40
0.499999999999993
40
0.74999999999999
40
0.74999999999999
40
0.874999999999995
40
0.874999999999995
40
1
40
1
40
1
40
1
41
1
10
37.0271280521647
20
2.03104793010323
30
0
41
1
10
37.0961528233722
20
1.95557939950322
30
0
41
1
10
37.1652539527145
20
1.88193978824174
30
0
41
1
10
37.2690350528665
20
1.77397375965631
30
0
41
1
10
37.3036457280267
20
1.73845960909537
30
0
41
1
10
37.355586501943
20
1.68566887186663
30
0
41
1
10
37.3729039658375
20
1.66813929212634
30
0
41
1
10
37.4075421115148
20
1.63297417629923
30
0
41
1
10
37.4248625119844
20
1.61532358892748
30
0
41
1
10
37.4421796345148
20
1.5973909111093
30
0
0
SPLINE
5
17B
100
AcDbEntity
8
1
62
256
6
ByLayer
370
18
48
1
60
0
100
AcDbSpline
70
4
71
3
72
8
73
4
40
0
40
0
40
0
40
0
40
1
40
1
40
1
40
1
41
1
10
37.0271280521639
20
2.03104793011101
30
0
41
1
10
36.9867877426348
20
2.04672227519379
30
0
41
1
10
36.9464478700806
20
2.06233608973042
30
0
41
1
10
36.9061077788377
20
2.07788811869509
30
0
0
SPLINE
5
17C
100
AcDbEntity
8
1
62
256
6
ByLayer
370
18
48
1
60
0
100
AcDbSpline
70
4
71
3
72
14
73
10
40
0
40
0
40
0
40
0
40
0.124999999999999
40
0.124999999999999
40
0.249999999999997
40
0.249999999999997
40
0.499999999999994
40
0.499999999999994
40
1
40
1
40
1
40
1
41
1
10
36.4842327001199
20
1.90012792856902
30
0
41
1
10
36.5019979917901
20
1.90992142915167
30
0
41
1
10
36.5197039044313
20
1.91907825343591
30
0
41
1
10
36.5550540182944
20
1.93663035106755
30
0
41
1
10
36.5726992301515
20
1.9450370095224
30
0
41
1
10
36.6255879172119
20
1.96953209662374
30
0
41
1
10
36.6607807775854
20
1.98494832985455
30
0
41
1
10
36.7662075427245
20
2.02890379472402
30
0
41
1
10
36.8362490067713
20
2.0549268947197
30
0
41
1
10
36.9061077788376
20
2.07788811869497
30
0
0
SPLINE
5
17D
100
AcDbEntity
8
1
62
256
6
ByLayer
370
18
48
1
60
0
100
AcDbSpline
70
4
71
3
72
30
73
26
40
0
40
0
40
0
40
0
40
0.125000000000015
40
0.125000000000015
40
0.187500000000004
40
0.187500000000004
40
0.249999999999993
40
0.249999999999993
40
0.312499999999983
40
0.312499999999983
40
0.374999999999972
40
0.437499999999961
40
0.437499999999961
40
0.49999999999995
40
0.49999999999995
40
0.624999999999929
40
0.624999999999929
40
0.68749999999994
40
0.68749999999994
40
0.749999999999952
40
0.812499999999964
40
0.812499999999964
40
0.874999999999976
40
0.874999999999976
40
1
40
1
40
1
40
1
41
1
10
36.1640949634555
20
1.99663588192496
30
0
41
1
10
36.1726095242555
20
1.98628405699813
30
0
41
1
10
36.182854158693
20
1.9762502457327
30
0
41
1
10
36.2005758880073
20
1.96169175940179
30
0
41
1
10
36.2069130488345
20
1.95690551088219
30
0
41
1
10
36.2200108019995
20
1.94777600174896
30
0
41
1
10
36.2268095814009
20
1.94339818169067
30
0
41
1
10
36.2408878477693
20
1.93500734802689
30
0
41
1
10
36.2481976330304
20
1.93097918874264
30
0
41
1
10
36.2631689146843
20
1.92336344992799
30
0
41
1
10
36.2783333319515
20
1.91626333764489
30
0
41
1
10
36.2938651002286
20
1.91014353732129
30
0
41
1
10
36.3095793697114
20
1.90451102021416
30
0
41
1
10
36.3175645843907
20
1.90193042067176
30
0
41
1
10
36.3412306076134
20
1.89509722148787
30
0
41
1
10
36.3567817231459
20
1.89167514177029
30
0
41
1
10
36.3797436805205
20
1.88821652533946
30
0
41
1
10
36.3873281605027
20
1.88735169408162
30
0
41
1
10
36.4019657145692
20
1.88622937562022
30
0
41
1
10
36.4161761852177
20
1.88569677469087
30
0
41
1
10
36.4295184434262
20
1.88632572263074
30
0
41
1
10
36.4423975074327
20
1.88755411882042
30
0
41
1
10
36.4485590011281
20
1.88846825504891
30
0
41
1
10
36.4658025479378
20
1.89203116478126
30
0
41
1
10
36.4758312819919
20
1.89549646544089
30
0
41
1
10
36.4842327001199
20
1.90012792856902
30
0
0
SPLINE
5
17E
100
AcDbEntity
8
1
62
256
6
ByLayer
370
18
48
1
60
0
100
AcDbSpline
70
4
71
3
72
14
73
10
40
0
40
0
40
0
40
0
40
0.499999999999994
40
0.499999999999994
40
0.749999999999997
40
0.749999999999997
40
0.874999999999999
40
0.874999999999999
40
1
40
1
40
1
40
1
41
1
10
35.7489043650792
20
2.50581560660015
30
0
41
1
10
35.8179524587578
20
2.41812272109377
30
0
41
1
10
35.8870769100407
20
2.33204072843893
30
0
41
1
10
35.9908919466192
20
2.20510528348558
30
0
41
1
10
36.0255135956808
20
2.16320664957405
30
0
41
1
10
36.0774711235292
20
2.1008061008784
30
0
41
1
10
36.0947942227864
20
2.08006878583683
30
0
41
1
10
36.1294442411223
20
2.03851952056209
30
0
41
1
10
36.1467709754301
20
2.01769802421111
30
0
41
1
10
36.1640949634555
20
1.99663588192496
30
0
0
SPLINE
5
17F
100
AcDbEntity
8
1
62
256
6
ByLayer
370
18
48
1
60
0
100
AcDbSpline
70
4
71
3
72
8
73
4
40
0
40
0
40
0
40
0
40
1
40
1
40
1
40
1
41
1
10
35.7489043650785
20
2.50581560660899
30
0
41
1
10
35.7087455006285
20
2.51999653383379
30
0
41
1
10
35.6685872391786
20
2.53410396875799
30
0
41
1
10
35.6284290801077
20
2.5481370309995
30
0
0
SPLINE
5
180
100
AcDbEntity
8
1
62
256
6
ByLayer
370
18
48
1
60
0
100
AcDbSpline
70
4
71
3
72
14
73
10
40
0
40
0
40
0
40
0
40
0.125000000000001
40
0.125000000000001
40
0.250000000000003
40
0.250000000000003
40
0.500000000000006
40
0.500000000000006
40
1
40
1
40
1
40
1
41
1
10
35.2062216969803
20
2.27053175607188
30
0
41
1
10
35.2239983159347
20
2.28431105447029
30
0
41
1
10
35.2417170733464
20
2.29750391137148
30
0
41
1
10
35.2770957806632
20
2.32320167235073
30
0
41
1
10
35.2947562861857
20
2.33571297301196
30
0
41
1
10
35.3476912645176
20
2.37257466621961
30
0
41
1
10
35.382915925084
20
2.39630144326645
30
0
41
1
10
35.4884318406629
20
2.46528805674106
30
0
41
1
10
35.5585263995039
20
2.50816365760909
30
0
41
1
10
35.6284290801077
20
2.54813703099944
30
0
0
SPLINE
5
181
100
AcDbEntity
8
1
62
256
6
ByLayer
370
18
48
1
60
0
100
AcDbSpline
70
4
71
3
72
30
73
26
40
0
40
0
40
0
40
0
40
0.125000000000036
40
0.125000000000036
40
0.187500000000035
40
0.187500000000035
40
0.250000000000035
40
0.250000000000035
40
0.312500000000034
40
0.312500000000034
40
0.375000000000034
40
0.437500000000033
40
0.437500000000033
40
0.500000000000032
40
0.500000000000032
40
0.625000000000032
40
0.625000000000032
40
0.687500000000032
40
0.687500000000032
40
0.750000000000033
40
0.812500000000033
40
0.812500000000033
40
0.875000000000034
40
0.875000000000034
40
1
40
1
40
1
40
1
41
1
10
34.886088972317
20
2.35651941984045
30
0
41
1
10
34.8946015926075
20
2.34483735897533
30
0
41
1
10
34.9048452494091
20
2.33372476434914
30
0
41
1
10
34.9225674098327
20
2.31787765817586
30
0
41
1
10
34.9289049197043
20
2.31271736510036
30
0
41
1
10
34.942003479304
20
2.30296861438984
30
0
41
1
10
34.9488028137936
20
2.29834207600675
30
0
41
1
10
34.9628824998357
20
2.2895694052192
30
0
41
1
10
34.9701934364994
20
2.28540774623022
30
0
41
1
10
34.9851658677374
20
2.27764310617999
30
0
41
1
10
35.0003315297309
20
2.27051194301208
30
0
41
1
10
35.0158647226932
20
2.26458425320413
30
0
41
1
10
35.0315805034389
20
2.25925530458991
30
0
41
1
10
35.0395660165022
20
2.25688412337257
30
0
41
1
10
35.0632317371645
20
2.25083306113015
30
0
41
1
10
35.078782825235
20
2.24813573670517
30
0
41
1
10
35.1017449465784
20
2.24607808914766
30
0
41
1
10
35.1093281110654
20
2.24573378663968
30
0
41
1
10
35.1239636474062
20
2.24573309057416
30
0
41
1
10
35.1381725570587
20
2.24640861931817
30
0
41
1
10
35.1515136178844
20
2.24842229535292
30
0
41
1
10
35.1643918819773
20
2.25112949384362
30
0
41
1
10
35.1705514457263
20
2.25282547575048
30
0
41
1
10
35.1877918028938
20
2.25881384248061
30
0
41
1
10
35.1978197421266
20
2.26401909787987
30
0
41
1
10
35.2062216969803
20
2.27053175607188
30
0
0
SPLINE
5
182
100
AcDbEntity
8
1
62
256
6
ByLayer
370
18
48
1
60
0
100
AcDbSpline
70
4
71
3
72
14
73
10
40
0
40
0
40
0
40
0
40
0.5
40
0.5
40
0.749999999999994
40
0.749999999999994
40
0.874999999999997
40
0.874999999999997
40
1
40
1
40
1
40
1
41
1
10
34.4710792135116
20
2.93101556818084
30
0
41
1
10
34.5400956828976
20
2.83280332918696
30
0
41
1
10
34.6091889723303
20
2.73597696504427
30
0
41
1
10
34.7129586743936
20
2.59262562359504
30
0
41
1
10
34.7475650880173
20
2.54519543097112
30
0
41
1
10
34.7995003503037
20
2.47446001643706
30
0
41
1
10
34.8168161170399
20
2.45093973565344
30
0
41
1
10
34.851451845269
20
2.40385428865994
30
0
41
1
10
34.8687717059353
20
2.38028429516518
30
0
41
1
10
34.886088972317
20
2.35651941984045
30
0
0
SPLINE
5
183
100
AcDbEntity
8
1
62
256
6
ByLayer
370
18
48
1
60
0
100
AcDbSpline
70
4
71
3
72
8
73
4
40
0
40
0
40
0
40
0
40
1
40
1
40
1
40
1
41
1
10
34.4710792135108
20
2.9310155681936
30
0
41
1
10
34.4309002309759
20
2.94352214710389
30
0
41
1
10
34.3907218951946
20
2.95594256685689
30
0
41
1
10
34.3505435166288
20
2.96827576617272
30
0
0
SPLINE
5
184
100
AcDbEntity
8
1
62
256
6
ByLayer
370
18
48
1
60
0
100
AcDbSpline
70
4
71
3
72
14
73
10
40
0
40
0
40
0
40
0
40
0.124999999999999
40
0.124999999999999
40
0.249999999999999
40
0.249999999999999
40
0.499999999999999
40
0.499999999999999
40
1
40
1
40
1
40
1
41
1
10
33.9282482207765
20
2.59575825269937
30
0
41
1
10
33.9460248823147
20
2.61327880945154
30
0
41
1
10
33.9637452515255
20
2.63027691277657
30
0
41
1
10
33.9991300575481
20
2.66367023071223
30
0
41
1
10
34.0167945839835
20
2.68006719281053
30
0
41
1
10
34.0697423646169
20
2.7286511457701
30
0
41
1
10
34.1049768340286
20
2.7602734715465
30
0
41
1
10
34.2105186190271
20
2.85307839035747
30
0
41
1
10
34.2806278605115
20
2.91204099756067
30
0
41
1
10
34.3505435166288
20
2.96827576617267
30
0
0
SPLINE
5
185
100
AcDbEntity
8
1
62
256
6
ByLayer
370
18
48
1
60
0
100
AcDbSpline
70
4
71
3
72
30
73
26
40
0
40
0
40
0
40
0
40
0.125000000000009
40
0.125000000000009
40
0.187499999999994
40
0.187499999999994
40
0.24999999999998
40
0.24999999999998
40
0.312499999999966
40
0.312499999999966
40
0.374999999999952
40
0.437499999999937
40
0.437499999999937
40
0.499999999999923
40
0.499999999999923
40
0.624999999999942
40
0.624999999999942
40
0.687499999999952
40
0.687499999999952
40
0.749999999999962
40
0.812499999999972
40
0.812499999999972
40
0.874999999999982
40
0.874999999999982
40
1
40
1
40
1
40
1
41
1
10
33.6081073628585
20
2.66948470403628
30
0
41
1
10
33.6166227309237
20
2.65668604836884
30
0
41
1
10
33.6268714162524
20
2.64469864584299
30
0
41
1
10
33.6446045142749
20
2.62785581699939
30
0
41
1
10
33.6509457113048
20
2.62241762438612
30
0
41
1
10
33.6640511214892
20
2.61223266953479
30
0
41
1
10
33.6708540138889
20
2.60744477373058
30
0
41
1
10
33.6849410301515
20
2.59845678174992
30
0
41
1
10
33.6922569155821
20
2.59424066165428
30
0
41
1
10
33.7072333314949
20
2.58647788025897
30
0
41
1
10
33.7224028925494
20
2.57945519454398
30
0
41
1
10
33.7379397271804
20
2.57383722075571
30
0
41
1
10
33.7536591441097
20
2.56891898183187
30
0
41
1
10
33.7616447302643
20
2.56680594553026
30
0
41
1
10
33.7853070314416
20
2.56166374007941
30
0
41
1
10
33.8008563582257
20
2.55975069806635
30
0
41
1
10
33.8238164900443
20
2.55914716791602
30
0
41
1
10
33.8313952326994
20
2.55933466777822
30
0
41
1
10
33.84602387213
20
2.56046493693663
30
0
41
1
10
33.8602267672976
20
2.56234542786922
30
0
41
1
10
33.873563690954
20
2.56571519065315
30
0
41
1
10
33.8864384462332
20
2.56986015167118
30
0
41
1
10
33.8925927207195
20
2.57230992283706
30
0
41
1
10
33.9098232814917
20
2.58062331483811
30
0
41
1
10
33.9198475772825
20
2.58747863558554
30
0
41
1
10
33.9282482207765
20
2.59575825269903
30
0
0
SPLINE
5
186
100
AcDbEntity
8
1
62
256
6
ByLayer
370
18
48
1
60
0
100
AcDbSpline
70
4
71
3
72
12
73
8
40
0
40
0
40
0
40
0
40
0.499999999999999
40
0.499999999999999
40
0.75
40
0.75
40
1
40
1
40
1
40
1
41
1
10
33.4164850634492
20
2.95673092457017
30
0
41
1
10
33.4483959272923
20
2.90854541269366
30
0
41
1
10
33.4803225618723
20
2.86060474505317
30
0
41
1
10
33.5282322993678
20
2.7889541835639
30
0
41
1
10
33.5442054866747
20
2.76510697764553
30
0
41
1
10
33.5761554910728
20
2.71737891582035
30
0
41
1
10
33.5921322455463
20
2.69349541316353
30
0
41
1
10
33.6081073628585
20
2.66948470403628
30
0
0
SPLINE
5
187
100
AcDbEntity
8
1
62
256
6
ByLayer
370
18
48
1
60
0
100
AcDbSpline
70
4
71
3
72
14
73
10
40
0
40
0
40
0
40
0
40
0.25
40
0.25
40
0.5
40
0.5
40
0.75
40
0.75
40
1
40
1
40
1
40
1
41
1
10
32.6519253247133
20
2.77518757713943
30
0
41
1
10
32.7167990398875
20
2.79453013430623
30
0
41
1
10
32.7812397116114
20
2.81264747604209
30
0
41
1
10
32.9093886076129
20
2.84648702222225
30
0
41
1
10
32.9731208698198
20
2.86225324012605
30
0
41
1
10
33.1002510421492
20
2.89205107846601
30
0
41
1
10
33.1636425618082
20
2.90607251872922
30
0
41
1
10
33.2902160073937
20
2.93256737249166
30
0
41
1
10
33.3533967216764
20
2.94504007008408
30
0
41
1
10
33.4164850634413
20
2.95673092458299
30
0
0
SPLINE
5
188
100
AcDbEntity
8
1
62
256
6
ByLayer
370
18
48
1
60
0
100
AcDbSpline
70
4
71
3
72
16
73
12
40
0
40
0
40
0
40
0
40
0.25
40
0.25
40
0.5
40
0.5
40
0.625
40
0.625
40
0.75
40
0.75
40
1
40
1
40
1
40
1
41
1
10
32.1019253247133
20
2.74214881558726
30
0
41
1
10
32.1501314137094
20
2.73447110352467
30
0
41
1
10
32.1978751304596
20
2.72957881534356
30
0
41
1
10
32.2923618245114
20
2.72502985334844
30
0
41
1
10
32.3391047683559
20
2.72537473742034
30
0
41
1
10
32.4083600283838
20
2.72969672086546
30
0
41
1
10
32.4313013953925
20
2.73177266313741
30
0
41
1
10
32.4768717087961
20
2.73718777322682
30
0
41
1
10
32.4995548440839
20
2.74053758862186
30
0
41
1
10
32.5666016378419
20
2.75239096091781
30
0
41
1
10
32.6099719353914
20
2.76267887728898
30
0
41
1
10
32.6519253247133
20
2.77518757713943
30
0
0
SPLINE
5
189
100
AcDbEntity
8
1
62
256
6
ByLayer
370
18
48
1
60
0
100
AcDbSpline
70
4
71
3
72
20
73
16
40
0
40
0
40
0
40
0
40
0.250000000000009
40
0.250000000000009
40
0.375000000000013
40
0.375000000000013
40
0.437500000000013
40
0.437500000000013
40
0.500000000000013
40
0.500000000000013
40
0.750000000000008
40
0.750000000000008
40
0.875000000000004
40
0.875000000000004
40
1
40
1
40
1
40
1
41
1
10
25.6889273636214
20
3.02383683860074
30
0
41
1
10
26.2223702864638
20
3.0639570802208
30
0
41
1
10
26.7555895717406
20
3.08839679858417
30
0
41
1
10
27.5564730832693
20
3.10092074642995
30
0
41
1
10
27.8236189528206
20
3.10108036975382
30
0
41
1
10
28.2247535703337
20
3.09527994000752
30
0
41
1
10
28.3585312076311
20
3.09233980700324
30
0
41
1
10
28.6262273789193
20
3.08443551122949
30
0
41
1
10
28.7601248438702
20
3.07947095751416
30
0
41
1
10
29.4290306232155
20
3.0495987395683
30
0
41
1
10
29.9630651392443
20
3.00942344878911
30
0
41
1
10
30.7645239661465
20
2.92603083638585
30
0
41
1
10
31.0317600903538
20
2.89441850487634
30
0
41
1
10
31.5665734295246
20
2.82380687159861
30
0
41
1
10
31.8341404807812
20
2.78479850921011
30
0
41
1
10
32.1019253247134
20
2.74214881558723
30
0
0
SPLINE
5
18A
100
AcDbEntity
8
1
62
256
6
ByLayer
370
18
48
1
60
0
100
AcDbSpline
70
4
71
3
72
24
73
20
40
0
40
0
40
0
40
0
40
0.0716563640168035
40
0.120750245790784
40
0.22016902975824
40
0.309276372765562
40
0.388090057962119
40
0.526865702127779
40
0.655167312876494
40
0.723658667766328
40
0.79096255980478
40
0.856988271495396
40
0.921814751227859
40
0.935399465777899
40
0.948771026757349
40
0.961928199552222
40
0.974859887329811
40
0.987554138465049
40
1
40
1
40
1
40
1
41
1
10
24.9646913968054
20
1.37940463562785
30
0
41
1
10
24.9845673052465
20
1.40082569425786
30
0
41
1
10
25.0180918553652
20
1.4397470624269
30
0
41
1
10
25.0791904377178
20
1.51895817275002
30
0
41
1
10
25.1445053927377
20
1.61523252782303
30
0
41
1
10
25.2168678069103
20
1.73791436348688
30
0
41
1
10
25.2981174227299
20
1.89199826810301
30
0
41
1
10
25.3861122365347
20
2.08387708337338
30
0
41
1
10
25.4663877460317
20
2.28803766163051
30
0
41
1
10
25.5256777164191
20
2.45705680373112
30
0
41
1
10
25.568913404667
20
2.59013062198264
30
0
41
1
10
25.6093363085296
20
2.72403234683423
30
0
41
1
10
25.6372054081453
20
2.82363728398232
30
0
41
1
10
25.6542532514566
20
2.88754709492682
30
0
41
1
10
25.6616120483731
20
2.91556841402235
30
0
41
1
10
25.6687538450437
20
2.94321668991773
30
0
41
1
10
25.6756804924022
20
2.97046757258542
30
0
41
1
10
25.68239947043
20
2.99728357342025
30
0
41
1
10
25.6867658511609
20
3.01504453660897
30
0
41
1
10
25.6889274711465
20
3.02383727717754
30
0
0
SPLINE
5
18B
100
AcDbEntity
8
1
62
256
6
ByLayer
370
18
48
1
60
0
100
AcDbSpline
70
4
71
3
72
27
73
23
40
0
40
0
40
0
40
0
40
0.125000000000002
40
0.125000000000002
40
0.250000000000004
40
0.250000000000004
40
0.375000000000005
40
0.375000000000005
40
0.500000000000007
40
0.500000000000007
40
0.562500000000007
40
0.562500000000007
40
0.625000000000006
40
0.625000000000006
40
0.750000000000006
40
0.750000000000006
40
0.812500000000004
40
0.812500000000004
40
0.875000000000003
40
0.937500000000002
40
0.937500000000002
40
1
40
1
40
1
40
1
41
1
10
32.1019253247133
20
-0.938827372847783
30
0
41
1
10
31.7731531167901
20
-0.832649864214687
30
0
41
1
10
31.4448601429775
20
-0.724657711944872
30
0
41
1
10
30.7884865871883
20
-0.507252507950284
30
0
41
1
10
30.4603672435342
20
-0.397956533425372
30
0
41
1
10
29.804210054001
20
-0.178349592501803
30
0
41
1
10
29.4761952069697
20
-0.0679699117815744
30
0
41
1
10
28.8201781249782
20
0.15360952505759
30
0
41
1
10
28.4922296566649
20
0.264973648674783
30
0
41
1
10
27.9996448832722
20
0.430625063592856
30
0
41
1
10
27.8353309484223
20
0.485583020043237
30
0
41
1
10
27.5063932926817
20
0.594761368586319
30
0
41
1
10
27.341973016817
20
0.648949827169758
30
0
41
1
10
26.8489422227361
20
0.810372694231688
30
0
41
1
10
26.5205415772052
20
0.916500259102975
30
0
41
1
10
26.0283323683184
20
1.07332746311258
30
0
41
1
10
25.86433037144
20
1.1252144937462
30
0
41
1
10
25.5364006420338
20
1.22802735417102
30
0
41
1
10
25.20852652177
20
1.32982577865619
30
0
41
1
10
24.8805108983159
20
1.42890261140747
30
0
41
1
10
24.5523251010425
20
1.52636288727047
30
0
41
1
10
24.3881425518127
20
1.57427384844871
30
0
41
1
10
24.2238758114007
20
1.62138487707813
30
0
0
SPLINE
5
18C
100
AcDbEntity
8
1
62
256
6
ByLayer
370
18
48
1
60
0
100
AcDbSpline
70
4
71
3
72
16
73
12
40
0
40
0
40
0
40
0
40
0.25
40
0.25
40
0.5
40
0.5
40
0.625
40
0.625
40
0.75
40
0.75
40
1
40
1
40
1
40
1
41
1
10
32.6519253247133
20
-1.16605502385417
30
0
41
1
10
32.6095891431099
20
-1.14413785203797
30
0
41
1
10
32.5662882172415
20
-1.12291087500071
30
0
41
1
10
32.4778382371811
20
-1.08190410508274
30
0
41
1
10
32.432688180177
20
-1.06212528082182
30
0
41
1
10
32.3635795127242
20
-1.03357725846465
30
0
41
1
10
32.3403121971757
20
-1.02424769005785
30
0
41
1
10
32.2933105526345
20
-1.00596310991787
30
0
41
1
10
32.2695199799055
20
-0.996988134812881
30
0
41
1
10
32.1980069519531
20
-0.970828242317936
30
0
41
1
10
32.1500770239048
20
-0.954378040858614
30
0
41
1
10
32.1019253247133
20
-0.938827372847783
30
0
0
SPLINE
5
18D
100
AcDbEntity
8
1
62
256
6
ByLayer
370
18
48
1
60
0
100
AcDbSpline
70
4
71
3
72
8
73
4
40
0
40
0
40
0
40
0
40
1
40
1
40
1
40
1
41
1
10
32.7116959328812
20
-1.1969798024173
30
0
41
1
10
32.6917652334366
20
-1.18667312965096
30
0
41
1
10
32.671841442224
20
-1.17636547115626
30
0
41
1
10
32.6519253247133
20
-1.16605502385417
30
0
0
SPLINE
5
18E
100
AcDbEntity
8
1
62
256
6
ByLayer
370
18
48
1
60
0
100
AcDbSpline
70
4
71
3
72
26
73
22
40
0
40
0
40
0
40
0
40
0.125000000000045
40
0.125000000000045
40
0.187500000000067
40
0.187500000000067
40
0.250000000000089
40
0.250000000000089
40
0.375000000000074
40
0.375000000000074
40
0.500000000000059
40
0.500000000000059
40
0.625000000000044
40
0.625000000000044
40
0.750000000000029
40
0.750000000000029
40
0.875000000000014
40
0.875000000000014
40
0.937500000000007
40
0.937500000000007
40
1
40
1
40
1
40
1
41
1
10
32.9324919829949
20
-1.29643055454378
30
0
41
1
10
32.9268854115558
20
-1.29148371631899
30
0
41
1
10
32.92051312411
20
-1.28651504613506
30
0
41
1
10
32.9099051166935
20
-1.27899781611765
30
0
41
1
10
32.9061927847884
20
-1.27648361465501
30
0
41
1
10
32.8984176942162
20
-1.27144154651003
30
0
41
1
10
32.8943337377805
20
-1.26890128161452
30
0
41
1
10
32.8817256250754
20
-1.26136909842325
30
0
41
1
10
32.872871223295
20
-1.25647412451519
30
0
41
1
10
32.8543226445153
20
-1.24693505620152
30
0
41
1
10
32.8445406443912
20
-1.24225359650285
30
0
41
1
10
32.8246153498474
20
-1.23337089397933
30
0
41
1
10
32.8144886842583
20
-1.22917012106947
30
0
41
1
10
32.7939214568206
20
-1.22122821377172
30
0
41
1
10
32.7833925378393
20
-1.21745953879005
30
0
41
1
10
32.7625429899292
20
-1.2105618632626
30
0
41
1
10
32.7522198574464
20
-1.20742571230224
30
0
41
1
10
32.7368899576464
20
-1.20316804181891
30
0
41
1
10
32.7318059392347
20
-1.2018235909091
30
0
41
1
10
32.7216920323233
20
-1.1992845849486
30
0
41
1
10
32.7166418546953
20
-1.19808580727786
30
0
41
1
10
32.7116959328812
20
-1.1969798024173
30
0
0
SPLINE
5
18F
100
AcDbEntity
8
1
62
256
6
ByLayer
370
18
48
1
60
0
100
AcDbSpline
70
4
71
3
72
8
73
4
40
0
40
0
40
0
40
0
40
1
40
1
40
1
40
1
41
1
10
32.9744783190129
20
-1.33360606524204
30
0
41
1
10
32.9604853263079
20
-1.32117141011469
30
0
41
1
10
32.946489891809
20
-1.3087813095714
30
0
41
1
10
32.9324919829948
20
-1.29643055454378
30
0
0
SPLINE
5
190
100
AcDbEntity
8
1
62
256
6
ByLayer
370
18
48
1
60
0
100
AcDbSpline
70
4
71
3
72
8
73
4
40
0
40
0
40
0
40
0
40
1
40
1
40
1
40
1
41
1
10
33.6238284807081
20
-1.69396273082276
30
0
41
1
10
33.4081388125607
20
-1.56849874681876
30
0
41
1
10
33.1917568319626
20
-1.44838465186686
30
0
41
1
10
32.9744783190129
20
-1.33360606524201
30
0
0
SPLINE
5
191
100
AcDbEntity
8
1
62
256
6
ByLayer
370
18
48
1
60
0
100
AcDbSpline
70
4
71
3
72
10
73
6
40
0
40
0
40
0
40
0
40
0.5
40
0.5
40
1
40
1
40
1
40
1
41
1
10
33.8900613769401
20
-1.6111823356008
30
0
41
1
10
33.8454510178616
20
-1.62816352463224
30
0
41
1
10
33.8009642830805
20
-1.64349672157431
30
0
41
1
10
33.7122108476548
20
-1.67107469388458
30
0
41
1
10
33.6679657797334
20
-1.68329410692229
30
0
41
1
10
33.6238284807081
20
-1.69396273082276
30
0
0
SPLINE
5
192
100
AcDbEntity
8
1
62
256
6
ByLayer
370
18
48
1
60
0
100
AcDbSpline
70
4
71
3
72
30
73
26
40
0
40
0
40
0
40
0
40
0.124999999999976
40
0.124999999999976
40
0.187499999999964
40
0.187499999999964
40
0.249999999999952
40
0.249999999999952
40
0.31249999999994
40
0.31249999999994
40
0.374999999999928
40
0.437499999999915
40
0.437499999999915
40
0.499999999999903
40
0.499999999999903
40
0.624999999999927
40
0.624999999999927
40
0.68749999999994
40
0.68749999999994
40
0.749999999999952
40
0.812499999999965
40
0.812499999999965
40
0.874999999999977
40
0.874999999999977
40
1
40
1
40
1
40
1
41
1
10
34.2101198035137
20
-1.71320416945295
30
0
41
1
10
34.2016240273925
20
-1.70400038106138
30
0
41
1
10
34.1913936057987
20
-1.69497344391203
30
0
41
1
10
34.1736856433373
20
-1.68166743140142
30
0
41
1
10
34.1673507950295
20
-1.67725867122706
30
0
41
1
10
34.1542547624488
20
-1.66878353562677
30
0
41
1
10
34.1474557273995
20
-1.66468593762014
30
0
41
1
10
34.1333752000709
20
-1.65676470895931
30
0
41
1
10
34.1260646996658
20
-1.65292709040028
30
0
41
1
10
34.1110837029978
20
-1.64559432619762
30
0
41
1
10
34.095910006668
20
-1.63868155398635
30
0
41
1
10
34.08037073378
20
-1.63256575192398
30
0
41
1
10
34.0646500203987
20
-1.62684523153766
30
0
41
1
10
34.0566618697257
20
-1.62417342069887
30
0
41
1
10
34.0329897951674
20
-1.61693336399028
30
0
41
1
10
34.0174385254064
20
-1.61306523038183
30
0
41
1
10
33.9944812274177
20
-1.60866668085961
30
0
41
1
10
33.9869019602206
20
-1.60744282492348
30
0
41
1
10
33.972274249534
20
-1.60552774788664
30
0
41
1
10
33.9580737629814
20
-1.60412399200476
30
0
41
1
10
33.9447406739065
20
-1.60372462881403
30
0
41
1
10
33.9318696458081
20
-1.60384308836348
30
0
41
1
10
33.9257165574499
20
-1.60416436200302
30
0
41
1
10
33.9084888038312
20
-1.60587657849632
30
0
41
1
10
33.8984663445437
20
-1.60798293647821
30
0
41
1
10
33.89006137694
20
-1.61118233560049
30
0
0
SPLINE
5
193
100
AcDbEntity
8
1
62
256
6
ByLayer
370
18
48
1
60
0
100
AcDbSpline
70
4
71
3
72
12
73
8
40
0
40
0
40
0
40
0
40
0.25
40
0.25
40
0.5
40
0.5
40
1
40
1
40
1
40
1
41
1
10
34.6253858716776
20
-2.1769789359771
30
0
41
1
10
34.5908440234909
20
-2.13714827711234
30
0
41
1
10
34.5562843238657
20
-2.09768599754602
30
0
41
1
10
34.4871341175096
20
-2.01927969560688
30
0
41
1
10
34.4525439133584
20
-1.98035946573552
30
0
41
1
10
34.348726986076
20
-1.86443707363753
30
0
41
1
10
34.2794560393117
20
-1.78831867730366
30
0
41
1
10
34.2101198035137
20
-1.71320416945295
30
0
0
SPLINE
5
194
100
AcDbEntity
8
1
62
256
6
ByLayer
370
18
48
1
60
0
100
AcDbSpline
70
4
71
3
72
8
73
4
40
0
40
0
40
0
40
0
40
1
40
1
40
1
40
1
41
1
10
34.6253858716776
20
-2.1769789359771
30
0
41
1
10
34.6654301652655
20
-2.19210861892691
30
0
41
1
10
34.7054739119974
20
-2.20717699300099
30
0
41
1
10
34.745518769869
20
-2.22218091098424
30
0
0
SPLINE
5
195
100
AcDbEntity
8
1
62
256
6
ByLayer
370
18
48
1
60
0
100
AcDbSpline
70
4
71
3
72
12
73
8
40
0
40
0
40
0
40
0
40
0.5
40
0.5
40
0.75
40
0.75
40
1
40
1
40
1
40
1
41
1
10
35.1678630516527
20
-2.00648120515848
30
0
41
1
10
35.0968670137969
20
-2.0502048090614
30
0
41
1
10
35.0261783147235
20
-2.08993310729477
30
0
41
1
10
34.9205809513795
20
-2.14382310670942
30
0
41
1
10
34.8854568476528
20
-2.16082346857087
30
0
41
1
10
34.8153785431568
20
-2.19290637916106
30
0
41
1
10
34.7804206850023
20
-2.20796617624745
30
0
41
1
10
34.745518769869
20
-2.22218091098415
30
0
0
SPLINE
5
196
100
AcDbEntity
8
1
62
256
6
ByLayer
370
18
48
1
60
0
100
AcDbSpline
70
4
71
3
72
30
73
26
40
0
40
0
40
0
40
0
40
0.124999999999987
40
0.124999999999987
40
0.187499999999998
40
0.187499999999998
40
0.25000000000001
40
0.25000000000001
40
0.312500000000021
40
0.312500000000021
40
0.375000000000033
40
0.437500000000044
40
0.437500000000044
40
0.500000000000056
40
0.500000000000056
40
0.625000000000079
40
0.625000000000079
40
0.687500000000066
40
0.687500000000066
40
0.750000000000054
40
0.812500000000041
40
0.812500000000041
40
0.875000000000028
40
0.875000000000028
40
1
40
1
40
1
40
1
41
1
10
35.4879250835999
20
-2.09958893298344
30
0
41
1
10
35.4794305011569
20
-2.08887259630382
30
0
41
1
10
35.4692023841063
20
-2.07858811635936
30
0
41
1
10
35.4515002492831
20
-2.06373790850483
30
0
41
1
10
35.4451672318492
20
-2.05887084765482
30
0
41
1
10
35.4320744598887
20
-2.04961595857259
30
0
41
1
10
35.4252772227858
20
-2.04519312235661
30
0
41
1
10
35.4112007146359
20
-2.03674423008985
30
0
41
1
10
35.4038936266428
20
-2.03270428706159
30
0
41
1
10
35.3889139855369
20
-2.02508951777119
30
0
41
1
10
35.3737419272692
20
-2.01802257637243
30
0
41
1
10
35.3582050181248
20
-2.01199412234766
30
0
41
1
10
35.3424871146147
20
-2.00648136217706
30
0
41
1
10
35.3344992479563
20
-2.003974761895
30
0
41
1
10
35.3108249944907
20
-1.99739971939951
30
0
41
1
10
35.2952733694598
20
-1.99419935200356
30
0
41
1
10
35.2723169439591
20
-1.99114637325599
30
0
41
1
10
35.2647348951176
20
-1.99042915263146
30
0
41
1
10
35.2501030235442
20
-1.98961968043037
30
0
41
1
10
35.2358991756941
20
-1.98941929718771
30
0
41
1
10
35.2225639628642
20
-1.99042154789134
30
0
41
1
10
35.2096912725765
20
-1.99204718410439
30
0
41
1
10
35.2035336548983
20
-1.99317063849631
30
0
41
1
10
35.1862973162404
20
-1.99738530181645
30
0
41
1
10
35.176270952091
20
-2.00130311748595
30
0
41
1
10
35.1678630516527
20
-2.00648120515845
30
0
0
SPLINE
5
197
100
AcDbEntity
8
1
62
256
6
ByLayer
370
18
48
1
60
0
100
AcDbSpline
70
4
71
3
72
12
73
8
40
0
40
0
40
0
40
0
40
0.25
40
0.25
40
0.500000000000001
40
0.500000000000001
40
1
40
1
40
1
40
1
41
1
10
35.9029913783152
20
-2.63516155610034
30
0
41
1
10
35.8684644341535
20
-2.58953155402563
30
0
41
1
10
35.8339201372216
20
-2.54421441348734
30
0
41
1
10
35.7648017694596
20
-2.45401658820162
30
0
41
1
10
35.7302279234484
20
-2.40915665357653
30
0
41
1
10
35.6264613180348
20
-2.27528287350552
30
0
41
1
10
35.5572252834716
20
-2.18701456912032
30
0
41
1
10
35.4879250835999
20
-2.09958893298355
30
0
0
SPLINE
5
198
100
AcDbEntity
8
1
62
256
6
ByLayer
370
18
48
1
60
0
100
AcDbSpline
70
4
71
3
72
8
73
4
40
0
40
0
40
0
40
0
40
1
40
1
40
1
40
1
41
1
10
35.9029913783152
20
-2.63516155610031
30
0
41
1
10
35.9432452789166
20
-2.64876755943698
30
0
41
1
10
35.983500903562
20
-2.66229534135138
30
0
41
1
10
36.0237580494779
20
-2.67574529628385
30
0
0
SPLINE
5
199
100
AcDbEntity
8
1
62
256
6
ByLayer
370
18
48
1
60
0
100
AcDbSpline
70
4
71
3
72
12
73
8
40
0
40
0
40
0
40
0
40
0.500000000000001
40
0.500000000000001
40
0.75
40
0.75
40
1
40
1
40
1
40
1
41
1
10
36.4455039664963
20
-2.36126562920089
30
0
41
1
10
36.3746283587462
20
-2.42086504592785
30
0
41
1
10
36.3040505235144
20
-2.47680085560111
30
0
41
1
10
36.1986032339479
20
-2.55541736588242
30
0
41
1
10
36.163526295181
20
-2.58072921774962
30
0
41
1
10
36.0935366851633
20
-2.62955446464957
30
0
41
1
10
36.0586204190362
20
-2.65304799643928
30
0
41
1
10
36.0237580494779
20
-2.67574529628374
30
0
0
SPLINE
5
19A
100
AcDbEntity
8
1
62
256
6
ByLayer
370
18
48
1
60
0
100
AcDbSpline
70
4
71
3
72
30
73
26
40
0
40
0
40
0
40
0
40
0.125000000000075
40
0.125000000000075
40
0.187500000000093
40
0.187500000000093
40
0.250000000000112
40
0.250000000000112
40
0.312500000000131
40
0.312500000000131
40
0.375000000000149
40
0.437500000000168
40
0.437500000000168
40
0.500000000000187
40
0.500000000000187
40
0.625000000000174
40
0.625000000000174
40
0.687500000000145
40
0.687500000000145
40
0.750000000000116
40
0.812500000000087
40
0.812500000000087
40
0.875000000000058
40
0.875000000000058
40
1
40
1
40
1
40
1
41
1
10
36.7655510745686
20
-2.44324569632786
30
0
41
1
10
36.7570582685447
20
-2.4312369973774
30
0
41
1
10
36.7468347891406
20
-2.4198943486162
30
0
41
1
10
36.7291423007692
20
-2.40379348241558
30
0
41
1
10
36.7228127409574
20
-2.39856449169227
30
0
41
1
10
36.7097265347822
20
-2.38871351185517
30
0
41
1
10
36.7029326935276
20
-2.38405340094161
30
0
41
1
10
36.6888630858673
20
-2.37524570163632
30
0
41
1
10
36.6815602707123
20
-2.37108442059079
30
0
41
1
10
36.6665853615578
20
-2.36334257700631
30
0
41
1
10
36.6514176682091
20
-2.35626664177102
30
0
41
1
10
36.6358842668031
20
-2.35045307845181
30
0
41
1
10
36.620169374705
20
-2.34526724717009
30
0
41
1
10
36.6121817111323
20
-2.34298160615697
30
0
41
1
10
36.5885047047127
20
-2.33722352351131
30
0
41
1
10
36.5729508708031
20
-2.33477281413104
30
0
41
1
10
36.5499906346787
20
-2.33316040861294
30
0
41
1
10
36.5424047029696
20
-2.33297715652353
30
0
41
1
10
36.5277663805824
20
-2.3333170219999
30
0
41
1
10
36.5135568601776
20
-2.33435331909123
30
0
41
1
10
36.5002174756625
20
-2.33676931928909
30
0
41
1
10
36.4873413783701
20
-2.33990284663116
30
0
41
1
10
36.4811803137864
20
-2.34182351752759
30
0
41
1
10
36.4639379976283
20
-2.34850709629623
30
0
41
1
10
36.4539100709689
20
-2.35419692193446
30
0
41
1
10
36.4455039664963
20
-2.36126562920089
30
0
0
SPLINE
5
19B
100
AcDbEntity
8
1
62
256
6
ByLayer
370
18
48
1
60
0
100
AcDbSpline
70
4
71
3
72
12
73
8
40
0
40
0
40
0
40
0
40
0.249999999999997
40
0.249999999999997
40
0.499999999999994
40
0.499999999999994
40
1
40
1
40
1
40
1
41
1
10
37.1805708900567
20
-3.04070361011642
30
0
41
1
10
37.1460487687299
20
-2.99005611275845
30
0
41
1
10
37.111509050184
20
-2.93967330143246
30
0
41
1
10
37.0423991858478
20
-2.83928426743441
30
0
41
1
10
37.0078293396374
20
-2.78929576451748
30
0
41
1
10
36.9040740374396
20
-2.63994249351145
30
0
41
1
10
36.8348447907517
20
-2.54122596038471
30
0
41
1
10
36.7655510745686
20
-2.44324569632786
30
0
0
SPLINE
5
19C
100
AcDbEntity
8
1
62
256
6
ByLayer
370
18
48
1
60
0
100
AcDbSpline
70
4
71
3
72
8
73
4
40
0
40
0
40
0
40
0
40
1
40
1
40
1
40
1
41
1
10
37.1805708900566
20
-3.04070361011642
30
0
41
1
10
37.2207769319319
20
-3.05261321189914
30
0
41
1
10
37.2609816031987
20
-3.06443718777632
30
0
41
1
10
37.3011856936648
20
-3.07617425062696
30
0
0
SPLINE
5
19D
100
AcDbEntity
8
1
62
256
6
ByLayer
370
18
48
1
60
0
100
AcDbSpline
70
4
71
3
72
12
73
8
40
0
40
0
40
0
40
0
40
0.499999999999994
40
0.499999999999994
40
0.749999999999997
40
0.749999999999997
40
1
40
1
40
1
40
1
41
1
10
37.7232366548849
20
-2.67063603687436
30
0
41
1
10
37.652303939191
20
-2.74483177602969
30
0
41
1
10
37.5816714917249
20
-2.8156780375046
30
0
41
1
10
37.4761474974463
20
-2.91707496290727
30
0
41
1
10
37.4410458937655
20
-2.95005026482806
30
0
41
1
10
37.3710088473298
20
-3.01433222761418
30
0
41
1
10
37.336069746707
20
-3.04562257222156
30
0
41
1
10
37.3011856936648
20
-3.07617425062691
30
0
0
SPLINE
5
19E
100
AcDbEntity
8
1
62
256
6
ByLayer
370
18
48
1
60
0
100
AcDbSpline
70
4
71
3
72
30
73
26
40
0
40
0
40
0
40
0
40
0.125000000000002
40
0.125000000000002
40
0.187500000000004
40
0.187500000000004
40
0.250000000000006
40
0.250000000000006
40
0.312500000000008
40
0.312500000000008
40
0.37500000000001
40
0.437500000000011
40
0.437500000000011
40
0.500000000000014
40
0.500000000000014
40
0.625000000000018
40
0.625000000000018
40
0.687500000000021
40
0.687500000000021
40
0.750000000000024
40
0.812500000000026
40
0.812500000000026
40
0.875000000000029
40
0.875000000000029
40
1
40
1
40
1
40
1
41
1
10
38.0433188373961
20
-2.74061400349652
30
0
41
1
10
38.0348239026274
20
-2.72753218896037
30
0
41
1
10
38.0245999763822
20
-2.71534688927912
30
0
41
1
10
38.0069118104427
20
-2.69829177359426
30
0
41
1
10
38.0005840045615
20
-2.69279603060886
30
0
41
1
10
37.9875014742812
20
-2.68252585306973
30
0
41
1
10
37.9807100003505
20
-2.67771104978914
30
0
41
1
10
37.9666463010045
20
-2.66869795630998
30
0
41
1
10
37.9593484584139
20
-2.66448673165607
30
0
41
1
10
37.944377836165
20
-2.65674561153264
30
0
41
1
10
37.9292148811866
20
-2.649773740753
30
0
41
1
10
37.9136871534955
20
-2.64425950437268
30
0
41
1
10
37.8979784435176
20
-2.63947048112234
30
0
41
1
10
37.8899925131117
20
-2.63743334436563
30
0
41
1
10
37.8663150698798
20
-2.63255065869663
30
0
41
1
10
37.8507614269924
20
-2.63085815031954
30
0
41
1
10
37.8278020410916
20
-2.63065303098992
30
0
41
1
10
37.8202112519783
20
-2.6309851589433
30
0
41
1
10
37.8055644350164
20
-2.63242336156549
30
0
41
1
10
37.7913471990816
20
-2.63463107963244
30
0
41
1
10
37.7780018412591
20
-2.63836809686575
30
0
41
1
10
37.7651203105801
20
-2.64290228418693
30
0
41
1
10
37.7589497406883
20
-2.64556222397474
30
0
41
1
10
37.7416874317013
20
-2.65452498030419
30
0
41
1
10
37.731649330917
20
-2.66183636368589
30
0
41
1
10
37.7232366548849
20
-2.67063603687438
30
0
0
SPLINE
5
19F
100
AcDbEntity
8
1
62
256
6
ByLayer
370
18
48
1
60
0
100
AcDbSpline
70
4
71
3
72
12
73
8
40
0
40
0
40
0
40
0
40
0.25
40
0.25
40
0.499999999999999
40
0.499999999999999
40
1
40
1
40
1
40
1
41
1
10
38.4585417466445
20
-3.38873351229341
30
0
41
1
10
38.4240037684087
20
-3.33405643508252
30
0
41
1
10
38.3894478914556
20
-3.27958318294526
30
0
41
1
10
38.3203053958715
20
-3.17092704564234
30
0
41
1
10
38.2857190083969
20
-3.11675840944128
30
0
41
1
10
38.1819132024133
20
-2.95473066639323
30
0
41
1
10
38.1126490027718
20
-2.84737931599182
30
0
41
1
10
38.0433188373961
20
-2.74061400349652
30
0
0
SPLINE
5
1A0
100
AcDbEntity
8
1
62
256
6
ByLayer
370
18
48
1
60
0
100
AcDbSpline
70
4
71
3
72
8
73
4
40
0
40
0
40
0
40
0
40
1
40
1
40
1
40
1
41
1
10
38.4585417466445
20
-3.38873351229341
30
0
41
1
10
38.4988503659837
20
-3.39869147800135
30
0
41
1
10
38.5391610355042
20
-3.40854835243019
30
0
41
1
10
38.5794747842548
20
-3.4183029996976
30
0
0
SPLINE
5
1A1
100
AcDbEntity
8
1
62
256
6
ByLayer
370
18
48
1
60
0
100
AcDbSpline
70
4
71
3
72
12
73
8
40
0
40
0
40
0
40
0
40
0.500000000000001
40
0.500000000000001
40
0.75
40
0.75
40
1
40
1
40
1
40
1
41
1
10
39.0009787203831
20
-2.92908744815557
30
0
41
1
10
38.9301419497487
20
-3.01648578438474
30
0
41
1
10
38.8596031828244
20
-3.10094617384772
30
0
41
1
10
38.7542163020145
20
-3.22328805900054
30
0
41
1
10
38.7191596688501
20
-3.26333370801368
30
0
41
1
10
38.6492114038255
20
-3.34191812252013
30
0
41
1
10
38.6143160102151
20
-3.38044428580201
30
0
41
1
10
38.5794747842547
20
-3.41830299969752
30
0
0
SPLINE
5
1A2
100
AcDbEntity
8
1
62
256
6
ByLayer
370
18
48
1
60
0
100
AcDbSpline
70
4
71
3
72
30
73
26
40
0
40
0
40
0
40
0
40
0.125000000000011
40
0.125000000000011
40
0.187500000000017
40
0.187500000000017
40
0.250000000000023
40
0.250000000000023
40
0.312500000000029
40
0.312500000000029
40
0.375000000000035
40
0.437500000000041
40
0.437500000000041
40
0.500000000000047
40
0.500000000000047
40
0.625000000000009
40
0.625000000000009
40
0.687500000000014
40
0.687500000000014
40
0.750000000000018
40
0.812500000000023
40
0.812500000000023
40
0.875000000000028
40
0.875000000000028
40
1
40
1
40
1
40
1
41
1
10
39.3210397450862
20
-2.98474288059163
30
0
41
1
10
39.3125472107867
20
-2.9708765842912
30
0
41
1
10
39.3023271929209
20
-2.95811623782683
30
0
41
1
10
39.2846443400469
20
-2.94048924960987
30
0
41
1
10
39.2783181579218
20
-2.9348513939691
30
0
41
1
10
39.2652382072426
20
-2.92439827531038
30
0
41
1
10
39.2584478091225
20
-2.91954103804761
30
0
41
1
10
39.2443857415614
20
-2.91053615896632
30
0
41
1
10
39.2370887547756
20
-2.90637609222617
30
0
41
1
10
39.2221177474161
20
-2.89882861473151
30
0
41
1
10
39.2069541207323
20
-2.89213945340163
30
0
41
1
10
39.1914250012246
20
-2.88707738742153
30
0
41
1
10
39.1757146374072
20
-2.88282493757478
30
0
41
1
10
39.1677274447339
20
-2.88110047514948
30
0
41
1
10
39.1440458986651
20
-2.87726307043823
30
0
41
1
10
39.128489937294
20
-2.87641182791725
30
0
41
1
10
39.1055277084281
20
-2.8776938448454
30
0
41
1
10
39.0979362526178
20
-2.87856048768029
30
0
41
1
10
39.0832887215113
20
-2.88111782291443
30
0
41
1
10
39.0690713775868
20
-2.88450140231487
30
0
41
1
10
39.055726542848
20
-2.88953026555137
30
0
41
1
10
39.042846034482
20
-2.8954192093843
30
0
41
1
10
39.0366775413773
20
-2.89878407315172
30
0
41
1
10
39.0194209221197
20
-2.90989877107779
30
0
41
1
10
39.0093870592817
20
-2.91871324809509
30
0
41
1
10
39.0009787203831
20
-2.92908744815549
30
0
0
SPLINE
5
1A3
100
AcDbEntity
8
1
62
256
6
ByLayer
370
18
48
1
60
0
100
AcDbSpline
70
4
71
3
72
12
73
8
40
0
40
0
40
0
40
0
40
0.25
40
0.25
40
0.5
40
0.5
40
1
40
1
40
1
40
1
41
1
10
39.7363177228504
20
-3.66936573133645
30
0
41
1
10
39.7017736450963
20
-3.61184301680655
30
0
41
1
10
39.6672121553257
20
-3.55446211644033
30
0
41
1
10
39.5980589911816
20
-3.43990497396604
30
0
41
1
10
39.5634675847741
20
-3.38273914209978
30
0
41
1
10
39.4596478812608
20
-3.21158145681912
30
0
41
1
10
39.3903758962911
20
-3.09795238708554
30
0
41
1
10
39.3210397450862
20
-2.98474288059165
30
0
0
SPLINE
5
1A4
100
AcDbEntity
8
1
62
256
6
ByLayer
370
18
48
1
60
0
100
AcDbSpline
70
4
71
3
72
8
73
4
40
0
40
0
40
0
40
0
40
1
40
1
40
1
40
1
41
1
10
39.7363177228504
20
-3.66936573133645
30
0
41
1
10
39.7765189847459
20
-3.67708434852932
30
0
41
1
10
39.816719801193
20
-3.68469824653045
30
0
41
1
10
39.8569200162314
20
-3.69220747195334
30
0
0
SPLINE
5
1A5
100
AcDbEntity
8
1
62
256
6
ByLayer
370
18
48
1
60
0
100
AcDbSpline
70
4
71
3
72
12
73
8
40
0
40
0
40
0
40
0
40
0.5
40
0.5
40
0.75
40
0.75
40
1
40
1
40
1
40
1
41
1
10
40.2786312731882
20
-3.12937251807182
30
0
41
1
10
40.2077706845913
20
-3.22811655438716
30
0
41
1
10
40.1372020261193
20
-3.3244113217869
30
0
41
1
10
40.031762420614
20
-3.46517830042546
30
0
41
1
10
39.9966869299155
20
-3.51147862051607
30
0
41
1
10
39.9266986583597
20
-3.60278596682207
30
0
41
1
10
39.8917821757327
20
-3.64778434746918
30
0
41
1
10
39.8569200162314
20
-3.69220747195325
30
0
0
SPLINE
5
1A6
100
AcDbEntity
8
1
62
256
6
ByLayer
370
18
48
1
60
0
100
AcDbSpline
70
4
71
3
72
30
73
26
40
0
40
0
40
0
40
0
40
0.125000000000083
40
0.125000000000083
40
0.187500000000125
40
0.187500000000125
40
0.250000000000167
40
0.250000000000167
40
0.312500000000208
40
0.312500000000208
40
0.37500000000025
40
0.437500000000291
40
0.437500000000291
40
0.500000000000333
40
0.500000000000333
40
0.62500000000032
40
0.62500000000032
40
0.687500000000266
40
0.687500000000266
40
0.750000000000213
40
0.812500000000159
40
0.812500000000159
40
0.875000000000106
40
0.875000000000106
40
1
40
1
40
1
40
1
41
1
10
40.598706744616
20
-3.1706067908143
30
0
41
1
10
40.5902154620599
20
-3.15620908422724
30
0
41
1
10
40.580001171563
20
-3.14310497524232
30
0
41
1
10
40.5623348521315
20
-3.1252141725972
30
0
41
1
10
40.5560147785655
20
-3.11953015665497
30
0
41
1
10
40.5429468254564
20
-3.10906625283369
30
0
41
1
10
40.5361631141402
20
-3.10424408899553
30
0
41
1
10
40.5221158081339
20
-3.09538565209633
30
0
41
1
10
40.5148293512847
20
-3.09133861881992
30
0
41
1
10
40.4998691531221
20
-3.08408575684817
30
0
41
1
10
40.4847164145429
20
-3.0777614363997
30
0
41
1
10
40.4691982216397
20
-3.07319710928044
30
0
41
1
10
40.453498762811
20
-3.06950893331299
30
0
41
1
10
40.4455145758265
20
-3.06810132151702
30
0
41
1
10
40.421831121483
20
-3.06529464640678
30
0
41
1
10
40.4062737181769
20
-3.06524157680653
30
0
41
1
10
40.383308897521
20
-3.06789558018531
30
0
41
1
10
40.3757087446197
20
-3.06925089951216
30
0
41
1
10
40.36104504553
20
-3.0728232380967
30
0
41
1
10
40.3468131048703
20
-3.0772646808887
30
0
41
1
10
40.3334564776111
20
-3.08343956213309
30
0
41
1
10
40.3205654848163
20
-3.09052201868934
30
0
41
1
10
40.3143828091602
20
-3.09451049040561
30
0
41
1
10
40.2970957945467
20
-3.10751663599515
30
0
41
1
10
40.2870470457332
20
-3.11764516205813
30
0
41
1
10
40.2786312731882
20
-3.12937251807165
30
0
0
SPLINE
5
1A7
100
AcDbEntity
8
1
62
256
6
ByLayer
370
18
48
1
60
0
100
AcDbSpline
70
4
71
3
72
12
73
8
40
0
40
0
40
0
40
0
40
0.250000000000006
40
0.250000000000006
40
0.500000000000013
40
0.500000000000013
40
1
40
1
40
1
40
1
41
1
10
41.0138712580222
20
-3.87908353265149
30
0
41
1
10
40.9793392816926
20
-3.8197750436988
30
0
41
1
10
40.9447891913603
20
-3.76054391655066
30
0
41
1
10
40.8756576552126
20
-3.64219598747718
30
0
41
1
10
40.8410764952368
20
-3.58308591688254
30
0
41
1
10
40.7372853274611
20
-3.40595491863391
30
0
41
1
10
40.6680296198944
20
-3.28814974282898
30
0
41
1
10
40.598706744616
20
-3.17060679081436
30
0
0
SPLINE
5
1A8
100
AcDbEntity
8
1
62
256
6
ByLayer
370
18
48
1
60
0
100
AcDbSpline
70
4
71
3
72
8
73
4
40
0
40
0
40
0
40
0
40
1
40
1
40
1
40
1
41
1
10
41.0138712580222
20
-3.87908353265149
30
0
41
1
10
41.0541978649584
20
-3.88454627415251
30
0
41
1
10
41.0945247900923
20
-3.88989506618927
30
0
41
1
10
41.1348535072589
20
-3.8951289503365
30
0
0
SPLINE
5
1A9
100
AcDbEntity
8
1
62
256
6
ByLayer
370
18
48
1
60
0
100
AcDbSpline
70
4
71
3
72
12
73
8
40
0
40
0
40
0
40
0
40
0.499999999999989
40
0.499999999999989
40
0.749999999999994
40
0.749999999999994
40
1
40
1
40
1
40
1
41
1
10
41.5565152699177
20
-3.26989732147766
30
0
41
1
10
41.4856543591727
20
-3.37812826632035
30
0
41
1
10
41.4150899528425
20
-3.48439827146547
30
0
41
1
10
41.3096630365948
20
-3.6407823970865
30
0
41
1
10
41.2745928102586
20
-3.69239919120861
30
0
41
1
10
41.2046171623039
20
-3.7945500802457
30
0
41
1
10
41.1697079116462
20
-3.84507974006775
30
0
41
1
10
41.1348535072589
20
-3.89512895033653
30
0
0
SPLINE
5
1AA
100
AcDbEntity
8
1
62
256
6
ByLayer
370
18
48
1
60
0
100
AcDbSpline
70
4
71
3
72
30
73
26
40
0
40
0
40
0
40
0
40
0.124999999999986
40
0.124999999999986
40
0.18749999999998
40
0.18749999999998
40
0.249999999999973
40
0.249999999999973
40
0.312499999999966
40
0.312499999999966
40
0.374999999999959
40
0.437499999999952
40
0.437499999999952
40
0.499999999999946
40
0.499999999999946
40
0.625000000000029
40
0.625000000000029
40
0.687500000000025
40
0.687500000000025
40
0.75000000000002
40
0.812500000000015
40
0.812500000000015
40
0.87500000000001
40
0.87500000000001
40
1
40
1
40
1
40
1
41
1
10
41.8765782374602
20
-3.29519088006941
30
0
41
1
10
41.8680867868475
20
-3.28056392180281
30
0
41
1
10
41.8578725069581
20
-3.26739691745459
30
0
41
1
10
41.8402054279113
20
-3.24963134685191
30
0
41
1
10
41.8338849366083
20
-3.24402696089314
30
0
41
1
10
41.8208158770612
20
-3.23378888357149
30
0
41
1
10
41.8140315080209
20
-3.2291129064109
30
0
41
1
10
41.7999827094178
20
-3.22060955552155
30
0
41
1
10
41.7926955265266
20
-3.2167722189557
30
0
41
1
10
41.7777332153397
20
-3.20999805852404
30
0
41
1
10
41.7625784892771
20
-3.20420556450267
30
0
41
1
10
41.7470587198532
20
-3.20027334315088
30
0
41
1
10
41.7313579650582
20
-3.19726746611707
30
0
41
1
10
41.7233732603571
20
-3.19622840950817
30
0
41
1
10
41.6996890108284
20
-3.19457927125146
30
0
41
1
10
41.6841319951704
20
-3.19537043827779
30
0
41
1
10
41.6611689871413
20
-3.19940760182243
30
0
41
1
10
41.6535700363225
20
-3.20124455460984
30
0
41
1
10
41.6389088993501
20
-3.2057962053548
30
0
41
1
10
41.6246796535499
20
-3.21123913051912
30
0
41
1
10
41.6113258099234
20
-3.21846346661047
30
0
41
1
10
41.5984375606458
20
-3.22662250604247
30
0
41
1
10
41.5922569025071
20
-3.2311604293219
30
0
41
1
10
41.5749749624782
20
-3.2458114480871
30
0
41
1
10
41.5649291891344
20
-3.25704613995765
30
0
41
1
10
41.5565152699177
20
-3.26989732147766
30
0
0
SPLINE
5
1AB
100
AcDbEntity
8
1
62
256
6
ByLayer
370
18
48
1
60
0
100
AcDbSpline
70
4
71
3
72
12
73
8
40
0
40
0
40
0
40
0
40
0.250000000000006
40
0.250000000000006
40
0.500000000000013
40
0.500000000000013
40
1
40
1
40
1
40
1
41
1
10
42.2921047727083
20
-4.01313951870122
30
0
41
1
10
42.2575416012044
20
-3.9532539993281
30
0
41
1
10
42.2229605647463
20
-3.89338045223613
30
0
41
1
10
42.1537676373628
20
-3.7736535420544
30
0
41
1
10
42.1191559899487
20
-3.71380287292811
30
0
41
1
10
42.0152742664625
20
-3.53429934243908
30
0
41
1
10
41.9459591607458
20
-3.41470307129259
30
0
41
1
10
41.8765782374602
20
-3.2951908800691
30
0
0
SPLINE
5
1AC
100
AcDbEntity
8
1
62
256
6
ByLayer
370
18
48
1
60
0
100
AcDbSpline
70
4
71
3
72
8
73
4
40
0
40
0
40
0
40
0
40
1
40
1
40
1
40
1
41
1
10
42.2921047727083
20
-4.01313951870122
30
0
41
1
10
42.332233326455
20
-4.01611509130345
30
0
41
1
10
42.372362707666
20
-4.01897583905318
30
0
41
1
10
42.4124921974202
20
-4.0217219970998
30
0
0
SPLINE
5
1AD
100
AcDbEntity
8
1
62
256
6
ByLayer
370
18
48
1
60
0
100
AcDbSpline
70
4
71
3
72
13
73
9
40
0
40
0
40
0
40
0
40
0.25
40
0.25
40
0.5
40
0.75
40
0.75
40
1
40
1
40
1
40
1
41
1
10
42.8340774655881
20
-3.34656016142569
30
0
41
1
10
42.7986575107633
20
-3.40429430659785
30
0
41
1
10
42.7633197902679
20
-3.46165615281029
30
0
41
1
10
42.692765198705
20
-3.57571117001811
30
0
41
1
10
42.6223525291862
20
-3.68905425874655
30
0
41
1
10
42.5522217190408
20
-3.80089101935781
30
0
41
1
10
42.4822526754782
20
-3.91190298555881
30
0
41
1
10
42.4473452940436
20
-3.9669960958679
30
0
41
1
10
42.4124921974202
20
-4.02172199709983
30
0
0
SPLINE
5
1AE
100
AcDbEntity
8
1
62
256
6
ByLayer
370
18
48
1
60
0
100
AcDbSpline
70
4
71
3
72
30
73
26
40
0
40
0
40
0
40
0
40
0.124999999999993
40
0.124999999999993
40
0.187499999999988
40
0.187499999999988
40
0.249999999999984
40
0.249999999999984
40
0.312499999999979
40
0.312499999999979
40
0.374999999999974
40
0.43749999999997
40
0.43749999999997
40
0.499999999999965
40
0.499999999999965
40
0.624999999999956
40
0.624999999999956
40
0.687499999999951
40
0.687499999999951
40
0.749999999999947
40
0.812499999999942
40
0.812499999999942
40
0.874999999999937
40
0.874999999999937
40
1
40
1
40
1
40
1
41
1
10
43.1541333997326
20
-3.35584793604491
30
0
41
1
10
43.1456448610707
20
-3.34127893002207
30
0
41
1
10
43.1354382747069
20
-3.32830666402774
30
0
41
1
10
43.1177895106079
20
-3.31100564786618
30
0
41
1
10
43.1114756291843
20
-3.30558588417895
30
0
41
1
10
43.098419238092
20
-3.29576083003468
30
0
41
1
10
43.0916417065885
20
-3.29131462533007
30
0
41
1
10
43.0776074961227
20
-3.28331422339076
30
0
41
1
10
43.0703304688761
20
-3.27975191454982
30
0
41
1
10
43.0553781408445
20
-3.27356262763681
30
0
41
1
10
43.0402331479032
20
-3.26838728636429
30
0
41
1
10
43.0247226193396
20
-3.26513231986706
30
0
41
1
10
43.0090306828305
20
-3.26283459351532
30
0
41
1
10
43.0010482258083
20
-3.2621667799412
30
0
41
1
10
42.977359847456
20
-3.26165537563901
30
0
41
1
10
42.9617998859957
20
-3.26324203495079
30
0
41
1
10
42.9388321636738
20
-3.26853575736041
30
0
41
1
10
42.9312253945108
20
-3.27080466276223
30
0
41
1
10
42.9165491904695
20
-3.27622277662172
30
0
41
1
10
42.9023066183561
20
-3.28253929398008
30
0
41
1
10
42.8889426344902
20
-3.29065390865799
30
0
41
1
10
42.8760457630936
20
-3.2997131925635
30
0
41
1
10
42.8698545707949
20
-3.30470996542868
30
0
41
1
10
42.8525502387081
20
-3.32071431549414
30
0
41
1
10
42.8424947224813
20
-3.33284012327695
30
0
41
1
10
42.8340774655881
20
-3.34656016142566
30
0
0
SPLINE
5
1AF
100
AcDbEntity
8
1
62
256
6
ByLayer
370
18
48
1
60
0
100
AcDbSpline
70
4
71
3
72
10
73
6
40
0
40
0
40
0
40
0
40
0.5
40
0.5
40
1
40
1
40
1
40
1
41
1
10
43.5324629863023
20
-4.00512631699067
30
0
41
1
10
43.4695167571826
20
-3.89716030256503
30
0
41
1
10
43.4065153847506
20
-3.78904542727639
30
0
41
1
10
43.2804046771466
20
-3.57259433840173
30
0
41
1
10
43.2172969083403
20
-3.46425641175333
30
0
41
1
10
43.1541333997326
20
-3.35584793604491
30
0
0
SPLINE
5
1B0
100
AcDbEntity
8
1
62
256
6
ByLayer
370
18
48
1
60
0
100
AcDbSpline
70
4
71
3
72
8
73
4
40
0
40
0
40
0
40
0
40
1
40
1
40
1
40
1
41
1
10
43.761533592119
20
-3.95036725359367
30
0
41
1
10
43.685075366627
20
-3.96911553517822
30
0
41
1
10
43.6087233547433
20
-3.98737268568638
30
0
41
1
10
43.5324629863023
20
-4.0051263169907
30
0
0
SPLINE
5
1B1
100
AcDbEntity
8
1
62
256
6
ByLayer
370
18
48
1
60
0
100
AcDbSpline
70
4
71
3
72
10
73
6
40
0
40
0
40
0
40
0
40
0.5
40
0.5
40
1
40
1
40
1
40
1
41
1
10
44.1118484653723
20
-3.35838832316813
30
0
41
1
10
44.0530644976802
20
-3.4583027184228
30
0
41
1
10
43.9944829089883
20
-3.55765285983057
30
0
41
1
10
43.8777047041775
20
-3.75506048518122
30
0
41
1
10
43.8195110975491
20
-3.85310948964116
30
0
41
1
10
43.761533592119
20
-3.95036725359367
30
0
0
SPLINE
5
1B2
100
AcDbEntity
8
1
62
256
6
ByLayer
370
18
48
1
60
0
100
AcDbSpline
70
4
71
3
72
30
73
26
40
0
40
0
40
0
40
0
40
0.124999999999979
40
0.124999999999979
40
0.187499999999967
40
0.187499999999967
40
0.249999999999956
40
0.249999999999956
40
0.312499999999944
40
0.312499999999944
40
0.374999999999933
40
0.437499999999921
40
0.437499999999921
40
0.499999999999909
40
0.499999999999909
40
0.624999999999984
40
0.624999999999984
40
0.687499999999974
40
0.687499999999974
40
0.749999999999965
40
0.812499999999955
40
0.812499999999955
40
0.874999999999945
40
0.874999999999945
40
1
40
1
40
1
40
1
41
1
10
44.4319327977535
20
-3.35132394274316
30
0
41
1
10
44.4234417828469
20
-3.33710068103744
30
0
41
1
10
44.4132335329618
20
-3.32458192362989
30
0
41
1
10
44.3955850117861
20
-3.30809499183925
30
0
41
1
10
44.3892714106724
20
-3.30297073836977
30
0
41
1
10
44.3762157230993
20
-3.2937626720024
30
0
41
1
10
44.3694388820023
20
-3.28963972801867
30
0
41
1
10
44.3554068585428
20
-3.28231288215648
30
0
41
1
10
44.3481322233275
20
-3.27910217338172
30
0
41
1
10
44.3331815599699
20
-3.27363687994091
30
0
41
1
10
44.3180387155131
20
-3.26919767392897
30
0
41
1
10
44.3025311989006
20
-3.26670231588847
30
0
41
1
10
44.2868428578966
20
-3.26517552057825
30
0
41
1
10
44.2788618697541
20
-3.26490114342377
30
0
41
1
10
44.2551738975026
20
-3.26556307452174
30
0
41
1
10
44.2396147362852
20
-3.26792783557101
30
0
41
1
10
44.2166488118191
20
-3.27438956128216
30
0
41
1
10
44.2090401177645
20
-3.27704958663
30
0
41
1
10
44.1943595177625
20
-3.28323246975668
30
0
41
1
10
44.1801130207688
20
-3.29030088768465
30
0
41
1
10
44.1667458475191
20
-3.2991449437659
30
0
41
1
10
44.1538460694134
20
-3.30892359787626
30
0
41
1
10
44.1476495162671
20
-3.31427724799204
30
0
41
1
10
44.130332523887
20
-3.33130872736763
30
0
41
1
10
44.1202703195401
20
-3.3440738000229
30
0
41
1
10
44.1118484653723
20
-3.35838832316813
30
0
0
SPLINE
5
1B3
100
AcDbEntity
8
1
62
256
6
ByLayer
370
18
48
1
60
0
100
AcDbSpline
70
4
71
3
72
8
73
4
40
0
40
0
40
0
40
0
40
1
40
1
40
1
40
1
41
1
10
44.6484002848018
20
-3.71335882065102
30
0
41
1
10
44.5763135871775
20
-3.59301856726336
30
0
41
1
10
44.5041593520155
20
-3.47231032595818
30
0
41
1
10
44.4319327977535
20
-3.35132394274316
30
0
0
SPLINE
5
1B4
100
AcDbEntity
8
1
62
256
6
ByLayer
370
18
48
1
60
0
100
AcDbSpline
70
4
71
3
72
8
73
4
40
0
40
0
40
0
40
0
40
1
40
1
40
1
40
1
41
1
10
45.2605134266195
20
-3.52979935945504
30
0
41
1
10
45.0559526575839
20
-3.59348267309539
30
0
41
1
10
44.8519558264683
20
-3.65479843495993
30
0
41
1
10
44.648400284798
20
-3.71335882064491
30
0
0
SPLINE
5
1B5
100
AcDbEntity
8
1
62
256
6
ByLayer
370
18
48
1
60
0
100
AcDbSpline
70
4
71
3
72
8
73
4
40
0
40
0
40
0
40
0
40
1
40
1
40
1
40
1
41
1
10
45.3895980623686
20
-3.30535752653876
30
0
41
1
10
45.3464589025076
20
-3.38026714619812
30
0
41
1
10
45.3034411048282
20
-3.45508586000665
30
0
41
1
10
45.2605134266195
20
-3.52979935945495
30
0
0
SPLINE
5
1B6
100
AcDbEntity
8
1
62
256
6
ByLayer
370
18
48
1
60
0
100
AcDbSpline
70
4
71
3
72
30
73
26
40
0
40
0
40
0
40
0
40
0.125000000000038
40
0.125000000000038
40
0.187500000000055
40
0.187500000000055
40
0.250000000000073
40
0.250000000000073
40
0.312500000000091
40
0.312500000000091
40
0.375000000000109
40
0.437500000000127
40
0.437500000000127
40
0.500000000000144
40
0.500000000000144
40
0.62500000000018
40
0.62500000000018
40
0.68750000000015
40
0.68750000000015
40
0.75000000000012
40
0.81250000000009
40
0.81250000000009
40
0.87500000000006
40
0.87500000000006
40
1
40
1
40
1
40
1
41
1
10
45.7096344017748
20
-3.2820532435
30
0
41
1
10
45.7011483523159
20
-3.26847069429931
30
0
41
1
10
45.6909476744165
20
-3.25666124887641
30
0
41
1
10
45.673313060788
20
-3.24132111585917
30
0
41
1
10
45.6670040389798
20
-3.23659476891149
30
0
41
1
10
45.6539565150782
20
-3.22818625544133
30
0
41
1
10
45.6471837596728
20
-3.22446762956699
30
0
41
1
10
45.6331597703664
20
-3.21795729257457
30
0
41
1
10
45.6258907142019
20
-3.21516033123635
30
0
41
1
10
45.6109435351131
20
-3.21052330525723
30
0
41
1
10
45.595803886097
20
-3.20690447122934
30
0
41
1
10
45.5802989544736
20
-3.20521448203539
30
0
41
1
10
45.5646128744676
20
-3.2044860214275
30
0
41
1
10
45.5566319121407
20
-3.20460943581171
30
0
41
1
10
45.5329385580914
20
-3.20643044326556
30
0
41
1
10
45.5173765891499
20
-3.20952763087107
30
0
41
1
10
45.4944076360807
20
-3.21703414021977
30
0
41
1
10
45.4867960074288
20
-3.22003479935071
30
0
41
1
10
45.472110138403
20
-3.22686475685899
30
0
41
1
10
45.4578597020168
20
-3.23455025372491
30
0
41
1
10
45.4444909397654
20
-3.24395417600175
30
0
41
1
10
45.4315906405305
20
-3.25426408618782
30
0
41
1
10
45.4253931219004
20
-3.25986928619076
30
0
41
1
10
45.4080759540898
20
-3.2775908332404
30
0
41
1
10
45.3980162215173
20
-3.29073969202139
30
0
41
1
10
45.3895980623686
20
-3.30535752653856
30
0
0
SPLINE
5
1B7
100
AcDbEntity
8
1
62
256
6
ByLayer
370
18
48
1
60
0
100
AcDbSpline
70
4
71
3
72
8
73
4
40
0
40
0
40
0
40
0
40
1
40
1
40
1
40
1
41
1
10
45.7639028828312
20
-3.36887699285185
30
0
41
1
10
45.7458180417936
20
-3.3399659861704
30
0
41
1
10
45.727727688624
20
-3.31101288603099
30
0
41
1
10
45.7096344017748
20
-3.2820532435
30
0
0
SPLINE
5
1B8
100
AcDbEntity
8
1
62
256
6
ByLayer
370
18
48
1
60
0
100
AcDbSpline
70
4
71
3
72
12
73
8
40
0
40
0
40
0
40
0
40
0.500000000000019
40
0.500000000000019
40
0.750000000000009
40
0.750000000000009
40
1
40
1
40
1
40
1
41
1
10
46.6999999156457
20
-3.05154771848768
30
0
41
1
10
46.5426673714849
20
-3.10618508819562
30
0
41
1
10
46.3861053090878
20
-3.16012000509508
30
0
41
1
10
46.1522221665961
20
-3.23959464956249
30
0
41
1
10
46.0744301451989
20
-3.26585103650538
30
0
41
1
10
45.9190203015668
20
-3.31779251342425
30
0
41
1
10
45.8414159585846
20
-3.34348376112288
30
0
41
1
10
45.7639028828312
20
-3.3688769928518
30
0
0
SPLINE
5
1B9
100
AcDbEntity
8
1
62
256
6
ByLayer
370
18
48
1
60
0
100
AcDbSpline
70
4
71
3
72
10
73
6
40
0
40
0
40
0
40
0
40
0.5
40
0.5
40
1
40
1
40
1
40
1
41
1
10
47
20
-2.74303724766693
30
0
41
1
10
46.949551193397
20
-2.7935979113656
30
0
41
1
10
46.8992964455509
20
-2.84467874859931
30
0
41
1
10
46.799241393362
20
-2.94763084353426
30
0
41
1
10
46.7495002269484
20
-2.99944399741503
30
0
41
1
10
46.6999999156462
20
-3.05154771848879
30
0
0
SPLINE
5
1BA
100
AcDbEntity
8
1
62
256
6
ByLayer
370
18
48
1
60
0
100
AcDbSpline
70
4
71
3
72
46
73
42
40
0
40
0
40
0
40
0
40
0.0113267386553921
40
0.0113267386553921
40
0.0270199650259415
40
0.0584064177670401
40
0.0584064177670401
40
0.121179323249237
40
0.121179323249237
40
0.183952228731435
40
0.183952228731435
40
0.215338681472534
40
0.215338681472534
40
0.231031907843083
40
0.231031907843083
40
0.246725134213632
40
0.246725134213632
40
0.372270945178027
40
0.372270945178027
40
0.435043850660224
40
0.435043850660224
40
0.450737077030773
40
0.450737077030773
40
0.466430303401322
40
0.497816756142421
40
0.497816756142421
40
0.560589661624618
40
0.560589661624618
40
0.623362567106816
40
0.623362567106816
40
0.654749019847914
40
0.654749019847914
40
0.686135472589013
40
0.686135472589013
40
0.74890837807121
40
0.74890837807121
40
0.874454189035605
40
0.874454189035605
40
0.937227094517803
40
0.937227094517803
40
1
40
1
40
1
40
1
41
1
10
47
20
-1.57477366169297
30
0
41
1
10
47
20
-1.56794533936107
30
0
41
1
10
47
20
-1.5612357214751
30
0
41
1
10
47
20
-1.54556736316951
30
0
41
1
10
47
20
-1.5190420702456
30
0
41
1
10
47
20
-1.49481922086036
30
0
41
1
10
47
20
-1.44936709177387
30
0
41
1
10
47
20
-1.42304195213174
30
0
41
1
10
47
20
-1.37824322806668
30
0
41
1
10
47.0000000000001
20
-1.35977167163284
30
0
41
1
10
47
20
-1.33816044377795
30
0
41
1
10
47
20
-1.33197740410367
30
0
41
1
10
47.0000000000001
20
-1.3242442022794
30
0
41
1
10
47
20
-1.32192429258256
30
0
41
1
10
47
20
-1.31782215669344
30
0
41
1
10
46.9999999999999
20
-1.31603609903018
30
0
41
1
10
47
20
-1.30231734117206
30
0
41
1
10
47
20
-1.30667962000689
30
0
41
1
10
47
20
-1.33817252842746
30
0
41
1
10
47
20
-1.35280344749145
30
0
41
1
10
46.9999999999999
20
-1.37638746603113
30
0
41
1
10
47
20
-1.38136746220923
30
0
41
1
10
47
20
-1.39180561145329
30
0
41
1
10
47
20
-1.40819852191052
30
0
41
1
10
47
20
-1.42678239040026
30
0
41
1
10
47
20
-1.46686658848998
30
0
41
1
10
47
20
-1.49749440881203
30
0
41
1
10
46.9999999999999
20
-1.56632387812638
30
0
41
1
10
47
20
-1.60452002801057
30
0
41
1
10
47.0000000000001
20
-1.66760239853332
30
0
41
1
10
47
20
-1.68959784526103
30
0
41
1
10
47
20
-1.73558836430834
30
0
41
1
10
47
20
-1.75945996383842
30
0
41
1
10
47
20
-1.83336620436066
30
0
41
1
10
47
20
-1.88579037265652
30
0
41
1
10
47
20
-2.05219096720728
30
0
41
1
10
47
20
-2.17524287306833
30
0
41
1
10
47
20
-2.37901978040344
30
0
41
1
10
47
20
-2.44906335771765
30
0
41
1
10
47
20
-2.59306232447011
30
0
41
1
10
47
20
-2.66705390869208
30
0
41
1
10
47
20
-2.74303724766662
30
0
0
SPLINE
5
1BB
100
AcDbEntity
8
1
62
256
6
ByLayer
370
18
48
1
60
0
100
AcDbSpline
70
4
71
3
72
8
73
4
40
0
40
0
40
0
40
0
40
1
40
1
40
1
40
1
41
1
10
46.7000000470531
20
-1.63671664915972
30
0
41
1
10
46.8006533847943
20
-1.61694539416214
30
0
41
1
10
46.9007345915572
20
-1.59897161220098
30
0
41
1
10
47.0000000000002
20
-1.58272228981019
30
0
0
SPLINE
5
1BC
100
AcDbEntity
8
1
62
256
6
ByLayer
370
18
48
1
60
0
100
AcDbSpline
70
4
71
3
72
8
73
4
40
0
40
0
40
0
40
0
40
1
40
1
40
1
40
1
41
1
10
46.6257096938704
20
-1.62282602864101
30
0
41
1
10
46.6504704366753
20
-1.62749786198378
30
0
41
1
10
46.6752338247406
20
-1.63212822353753
30
0
41
1
10
46.7000000470532
20
-1.63671664915972
30
0
0
SPLINE
5
1BD
100
AcDbEntity
8
1
62
256
6
ByLayer
370
18
48
1
60
0
100
AcDbSpline
70
4
71
3
72
25
73
21
40
0
40
0
40
0
40
0
40
0.125000000000177
40
0.125000000000177
40
0.187500000000209
40
0.187500000000209
40
0.250000000000241
40
0.375000000000177
40
0.375000000000177
40
0.500000000000113
40
0.500000000000113
40
0.625000000000049
40
0.625000000000049
40
0.749999999999984
40
0.749999999999984
40
0.87499999999992
40
0.87499999999992
40
0.93749999999996
40
0.93749999999996
40
1
40
1
40
1
40
1
41
1
10
46.4001186213463
20
-1.57911618555434
30
0
41
1
10
46.4066291686645
20
-1.57687835629289
30
0
41
1
10
46.4138311644974
20
-1.57522752849241
30
0
41
1
10
46.4256442048509
20
-1.57357900355041
30
0
41
1
10
46.4297652843533
20
-1.57316871336747
30
0
41
1
10
46.4381919229017
20
-1.57263323759733
30
0
41
1
10
46.4511563745873
20
-1.57224983436143
30
0
41
1
10
46.4650503907887
20
-1.57305123848621
30
0
41
1
10
46.4843937584316
20
-1.57514315458596
30
0
41
1
10
46.4943323004101
20
-1.5766898731477
30
0
41
1
10
46.5144301183006
20
-1.58068051223842
30
0
41
1
10
46.5246348395158
20
-1.58312954530476
30
0
41
1
10
46.5453572636691
20
-1.58895163582076
30
0
41
1
10
46.555744137705
20
-1.59229293115777
30
0
41
1
10
46.5762041649001
20
-1.59970714789196
30
0
41
1
10
46.5863340831335
20
-1.60379571666965
30
0
41
1
10
46.6013679970179
20
-1.61053304542196
30
0
41
1
10
46.6063737374868
20
-1.61289118383991
30
0
41
1
10
46.6161826958157
20
-1.61774908333632
30
0
41
1
10
46.6209929836694
20
-1.62025085303711
30
0
41
1
10
46.6257096938703
20
-1.62282602864119
30
0
0
SPLINE
5
1BE
100
AcDbEntity
8
1
62
256
6
ByLayer
370
18
48
1
60
0
100
AcDbSpline
70
4
71
3
72
10
73
6
40
0
40
0
40
0
40
0
40
0.5
40
0.5
40
1
40
1
40
1
40
1
41
1
10
45.545762204728
20
-1.39235954248034
30
0
41
1
10
45.6878617478184
20
-1.42664615348841
30
0
41
1
10
45.8301656859294
20
-1.45915068940783
30
0
41
1
10
46.1150219474761
20
-1.52118191217855
30
0
41
1
10
46.2575482386416
20
-1.55077911605449
30
0
41
1
10
46.4001186213463
20
-1.57911618555443
30
0
0
SPLINE
5
1BF
100
AcDbEntity
8
1
62
256
6
ByLayer
370
18
48
1
60
0
100
AcDbSpline
70
4
71
3
72
8
73
4
40
0
40
0
40
0
40
0
40
1
40
1
40
1
40
1
41
1
10
45.4302629264266
20
-1.2629005414114
30
0
41
1
10
45.4689910880537
20
-1.30381037393806
30
0
41
1
10
45.5074113742573
20
-1.34759326974898
30
0
41
1
10
45.545762204728
20
-1.39235954248031
30
0
0
SPLINE
5
1C0
100
AcDbEntity
8
1
62
256
6
ByLayer
370
18
48
1
60
0
100
AcDbSpline
70
4
71
3
72
30
73
26
40
0
40
0
40
0
40
0
40
0.125000000000072
40
0.125000000000072
40
0.187500000000072
40
0.187500000000072
40
0.250000000000072
40
0.250000000000072
40
0.312500000000072
40
0.312500000000072
40
0.375000000000072
40
0.437500000000072
40
0.437500000000072
40
0.500000000000072
40
0.500000000000072
40
0.625000000000072
40
0.625000000000072
40
0.687500000000072
40
0.687500000000072
40
0.750000000000072
40
0.812500000000072
40
0.812500000000072
40
0.875000000000072
40
0.875000000000072
40
1
40
1
40
1
40
1
41
1
10
45.1101123932201
20
-1.15203165615495
30
0
41
1
10
45.118620439158
20
-1.14933532049022
30
0
41
1
10
45.1288433437726
20
-1.14796850269195
30
0
41
1
10
45.14650653781
20
-1.14760805730003
30
0
41
1
10
45.1528232919036
20
-1.14778025561549
30
0
41
1
10
45.1658826510828
20
-1.14866328321921
30
0
41
1
10
45.1726603517185
20
-1.14937092315577
30
0
41
1
10
45.1866924914199
20
-1.15128639467477
30
0
41
1
10
45.1939676943039
20
-1.1524984223939
30
0
41
1
10
45.2089119917459
20
-1.15540444223592
30
0
41
1
10
45.2240485933583
20
-1.15875076836761
30
0
41
1
10
45.239550487914
20
-1.16292850891733
30
0
41
1
10
45.2552338107003
20
-1.16752280772155
30
0
41
1
10
45.2632123768375
20
-1.17004513645679
30
0
41
1
10
45.2868946262279
20
-1.17808432533042
30
0
41
1
10
45.3024526223429
20
-1.1840863862767
30
0
41
1
10
45.3254201796785
20
-1.19411617328211
30
0
41
1
10
45.3330317733556
20
-1.19764476913773
30
0
41
1
10
45.3477188810355
20
-1.20488080109314
30
0
41
1
10
45.3619719370159
20
-1.21233766789032
30
0
41
1
10
45.3753449494032
20
-1.22026208147091
30
0
41
1
10
45.38824965088
20
-1.22844591517705
30
0
41
1
10
45.394451651802
20
-1.23266264057059
30
0
41
1
10
45.4117796875884
20
-1.24536094009784
30
0
41
1
10
45.4218443619427
20
-1.25400773450596
30
0
41
1
10
45.4302629264266
20
-1.26290054141143
30
0
0
SPLINE
5
1C1
100
AcDbEntity
8
1
62
256
6
ByLayer
370
18
48
1
60
0
100
AcDbSpline
70
4
71
3
72
10
73
6
40
0
40
0
40
0
40
0
40
0.5
40
0.5
40
1
40
1
40
1
40
1
41
1
10
44.9026265154756
20
-1.22448115213874
30
0
41
1
10
44.937182335699
20
-1.21281218458279
30
0
41
1
10
44.9717564511543
20
-1.20053572559914
30
0
41
1
10
45.0409315392897
20
-1.17560177831532
30
0
41
1
10
45.0755322641536
20
-1.16299065143701
30
0
41
1
10
45.1101123932202
20
-1.15203165615495
30
0
0
SPLINE
5
1C2
100
AcDbEntity
8
1
62
256
6
ByLayer
370
18
48
1
60
0
100
AcDbSpline
70
4
71
3
72
24
73
20
40
0
40
0
40
0
40
0
40
0.0069159201052757
40
0.0136255462853846
40
0.0586853254315995
40
0.104255721551563
40
0.193562106788409
40
0.28643011898347
40
0.37406326394339
40
0.46818545194131
40
0.551983308421404
40
0.649646359212249
40
0.689874734743253
40
0.741140870260418
40
0.798413915818315
40
0.831909412530499
40
0.899740299622346
40
0.960535954944005
40
1
40
1
40
1
40
1
41
1
10
24.2238754701081
20
-3.09888860547073
30
0
41
1
10
24.2252448435042
20
-3.09158397981304
30
0
41
1
10
24.2279427434666
20
-3.07719261706146
30
0
41
1
10
24.2398039924696
20
-3.0152047607867
30
0
41
1
10
24.260595876981
20
-2.91235470947154
30
0
41
1
10
24.3025458666517
20
-2.72284747301987
30
0
41
1
10
24.3621935353945
20
-2.48515936430042
30
0
41
1
10
24.4424407724882
20
-2.21131264929068
30
0
41
1
10
24.5330482006162
20
-1.94509881348731
30
0
41
1
10
24.6278806738972
20
-1.70367094818744
30
0
41
1
10
24.7325942269833
20
-1.47453070756893
30
0
41
1
10
24.8202578409115
20
-1.31029203266164
30
0
41
1
10
24.8964934303126
20
-1.18562682481158
30
0
41
1
10
24.9568814876985
20
-1.09600235699668
30
0
41
1
10
25.0146818587051
20
-1.02038036091273
30
0
41
1
10
25.0791904377178
20
-0.945667230832072
30
0
41
1
10
25.1445053927377
20
-0.880448268420793
30
0
41
1
10
25.2111912523658
20
-0.828449979216515
30
0
41
1
10
25.2502264837812
20
-0.804702440423938
30
0
41
1
10
25.2654422464978
20
-0.796474273457164
30
0
0
SPLINE
5
1C3
100
AcDbEntity
8
1
62
256
6
ByLayer
370
18
48
1
60
0
100
AcDbSpline
70
4
71
3
72
108
73
104
40
0
40
0
40
0
40
0
40
0.0624999999999882
40
0.0624999999999882
40
0.0937499999999824
40
0.0937499999999824
40
0.124999999999977
40
0.124999999999977
40
0.187499999999965
40
0.187499999999965
40
0.218749999999959
40
0.218749999999959
40
0.249999999999953
40
0.249999999999953
40
0.281249999999947
40
0.281249999999947
40
0.312499999999941
40
0.312499999999941
40
0.328124999999938
40
0.328124999999938
40
0.343749999999935
40
0.343749999999935
40
0.374999999999929
40
0.374999999999929
40
0.390624999999926
40
0.390624999999926
40
0.406249999999923
40
0.406249999999923
40
0.42187499999992
40
0.42187499999992
40
0.429687499999918
40
0.429687499999918
40
0.437499999999917
40
0.437499999999917
40
0.445312499999915
40
0.445312499999915
40
0.453124999999914
40
0.453124999999914
40
0.457031249999913
40
0.457031249999913
40
0.460937499999912
40
0.460937499999912
40
0.468749999999911
40
0.468749999999911
40
0.47265624999991
40
0.47265624999991
40
0.47656249999991
40
0.47656249999991
40
0.478515624999909
40
0.478515624999909
40
0.480468749999909
40
0.480468749999909
40
0.484374999999908
40
0.484374999999908
40
0.486328124999908
40
0.486328124999908
40
0.488281249999908
40
0.488281249999908
40
0.492187499999908
40
0.492187499999908
40
0.496093749999908
40
0.496093749999908
40
0.499999999999908
40
0.499999999999908
40
0.507812499999909
40
0.507812499999909
40
0.515624999999909
40
0.515624999999909
40
0.519531249999909
40
0.519531249999909
40
0.523437499999909
40
0.523437499999909
40
0.53124999999991
40
0.53124999999991
40
0.546874999999911
40
0.546874999999911
40
0.562499999999913
40
0.562499999999913
40
0.570312499999914
40
0.570312499999914
40
0.578124999999915
40
0.578124999999915
40
0.593749999999918
40
0.593749999999918
40
0.624999999999924
40
0.624999999999924
40
0.65624999999993
40
0.65624999999993
40
0.687499999999936
40
0.687499999999936
40
0.718749999999941
40
0.718749999999941
40
0.734374999999945
40
0.734374999999945
40
0.749999999999948
40
0.749999999999948
40
0.812499999999961
40
0.812499999999961
40
0.874999999999974
40
0.874999999999974
40
0.937499999999987
40
0.937499999999987
40
1
40
1
40
1
40
1
41
1
10
24.2239112056612
20
-3.09888295650174
30
0
41
1
10
23.8730234619597
20
-3.0955904992145
30
0
41
1
10
23.5238397258721
20
-3.08488027088637
30
0
41
1
10
23.0016250546724
20
-3.05629646635754
30
0
41
1
10
22.8278266432301
20
-3.04468449478591
30
0
41
1
10
22.4805778235336
20
-3.01716758530048
30
0
41
1
10
22.3070937908001
20
-3.00128695687113
30
0
41
1
10
21.7870261631381
20
-2.94702622533893
30
0
41
1
10
21.4408215851082
20
-2.90206670457556
30
0
41
1
10
20.9222120391695
20
-2.81990004198826
30
0
41
1
10
20.7493808460848
20
-2.79003008421114
30
0
41
1
10
20.4048976830855
20
-2.72515134003095
30
0
41
1
10
20.2331468172547
20
-2.69013068987204
30
0
41
1
10
19.8907084006164
20
-2.61446873566823
30
0
41
1
10
19.7200202191692
20
-2.57383006366979
30
0
41
1
10
19.3798338347191
20
-2.48628986587448
30
0
41
1
10
19.2103346048602
20
-2.43939288905722
30
0
41
1
10
18.9571257212043
20
-2.36365014441
30
0
41
1
10
18.8729316843477
20
-2.33752840476677
30
0
41
1
10
18.7053909593918
20
-2.28338221629838
30
0
41
1
10
18.6220120451768
20
-2.25533467238921
30
0
41
1
10
18.3732427772167
20
-2.16789087096956
30
0
41
1
10
18.2091794217299
20
-2.10527100635554
30
0
41
1
10
17.967052228865
20
-2.00234499900068
30
0
41
1
10
17.8870120941885
20
-1.96652232466548
30
0
41
1
10
17.7286571016989
20
-1.89110201187546
30
0
41
1
10
17.650336887375
20
-1.85151452400871
30
0
41
1
10
17.4960407765153
20
-1.76737625002738
30
0
41
1
10
17.4200508111786
20
-1.72285203243814
30
0
41
1
10
17.3086610104813
20
-1.65074469478617
30
0
41
1
10
17.2719683421626
20
-1.62581308492383
30
0
41
1
10
17.1997040439795
20
-1.57368939356121
30
0
41
1
10
17.1643794257126
20
-1.54667117271128
30
0
41
1
10
17.0960873253028
20
-1.49050306352049
30
0
41
1
10
17.0630682593092
20
-1.46132617268077
30
0
41
1
10
16.9999968628349
20
-1.40013442495027
30
0
41
1
10
16.9699327296782
20
-1.36813008928803
30
0
41
1
10
16.9278958766921
20
-1.31722873725104
30
0
41
1
10
16.9143976675274
20
-1.29977532624179
30
0
41
1
10
16.8886522915687
20
-1.26369190359546
30
0
41
1
10
16.8763842468421
20
-1.24503071500385
30
0
41
1
10
16.8420532313514
20
-1.18705337842042
30
0
41
1
10
16.8229584707747
20
-1.14671088999569
30
0
41
1
10
16.8023948868181
20
-1.08265788878492
30
0
41
1
10
16.7968977257707
20
-1.06058186239744
30
0
41
1
10
16.7894190515892
20
-1.01624591547289
30
0
41
1
10
16.7873864308869
20
-0.993879026377215
30
0
41
1
10
16.7871693867368
20
-0.960008157439972
30
0
41
1
10
16.7875696464534
20
-0.948664395574724
30
0
41
1
10
16.7893695673047
20
-0.925865534528384
30
0
41
1
10
16.7907749018489
20
-0.914420373581265
30
0
41
1
10
16.7964239041548
20
-0.880592485197582
30
0
41
1
10
16.802115965307
20
-0.858491945866604
30
0
41
1
10
16.8133737257684
20
-0.825986640070568
30
0
41
1
10
16.8175747487449
20
-0.815257770533776
30
0
41
1
10
16.8268481555603
20
-0.794007716074816
30
0
41
1
10
16.8319445292977
20
-0.783443859310296
30
0
41
1
10
16.8482843848144
20
-0.752458949265417
30
0
41
1
10
16.8605670022627
20
-0.732709040128441
30
0
41
1
10
16.8874336822006
20
-0.694717689488158
30
0
41
1
10
16.9020195811645
20
-0.676477415065079
30
0
41
1
10
16.9331460953066
20
-0.641283551502113
30
0
41
1
10
16.9497585007874
20
-0.624272084482982
30
0
41
1
10
17.0012372663447
20
-0.575708698561442
30
0
41
1
10
17.0379159059231
20
-0.546339322587073
30
0
41
1
10
17.1145291127396
20
-0.491769750701763
30
0
41
1
10
17.1544767557773
20
-0.466585722386554
30
0
41
1
10
17.2162563311937
20
-0.431200488350356
30
0
41
1
10
17.2371235864227
20
-0.419832910653639
30
0
41
1
10
17.2790716866925
20
-0.397982827932452
30
0
41
1
10
17.3001938631523
20
-0.387477082741015
30
0
41
1
10
17.3639489860157
20
-0.357061124357017
30
0
41
1
10
17.4069592171821
20
-0.338219901629458
30
0
41
1
10
17.5371956589326
20
-0.285120570269242
30
0
41
1
10
17.6256116402618
20
-0.254241960671351
30
0
41
1
10
17.8046566268634
20
-0.198798362597927
30
0
41
1
10
17.8952976686048
20
-0.174267128180617
30
0
41
1
10
18.0325352686679
20
-0.141124698827184
30
0
41
1
10
18.078514184557
20
-0.130688818911352
30
0
41
1
10
18.1707798315718
20
-0.110933931808717
30
0
41
1
10
18.216935981801
20
-0.101642325279215
30
0
41
1
10
18.3554664300429
20
-0.0753250902936031
30
0
41
1
10
18.4479025396348
20
-0.0598524082407437
30
0
41
1
10
18.7254214771199
20
-0.0187293579540437
30
0
41
1
10
18.9107073639621
20
0.0018156718649038
30
0
41
1
10
19.2816997979873
20
0.0323185077097605
30
0
41
1
10
19.4674058005293
20
0.0422902661295836
30
0
41
1
10
19.8391677910724
20
0.0534208423580083
30
0
41
1
10
20.0252269968709
20
0.0544987187434174
30
0
41
1
10
20.3976588677847
20
0.0487608747573063
30
0
41
1
10
20.5840302213468
20
0.041978225039685
30
0
41
1
10
20.863800135414
20
0.026445532124427
30
0
41
1
10
20.9570924209928
20
0.0203706669952339
30
0
41
1
10
21.1437465346244
20
0.0064710763663527
30
0
41
1
10
21.2371774220704
20
-0.0013609407264994
30
0
41
1
10
21.7032228764645
20
-0.0447072370176329
30
0
41
1
10
22.0731448414113
20
-0.0924348439307039
30
0
41
1
10
22.8078697015298
20
-0.21014904064188
30
0
41
1
10
23.1726916201204
20
-0.280045001823595
30
0
41
1
10
23.8980288432915
20
-0.437669308014336
30
0
41
1
10
24.2585215646369
20
-0.525493266487729
30
0
41
1
10
24.9760384531286
20
-0.714449024435424
30
0
41
1
10
25.3330751022567
20
-0.815521986281937
30
0
41
1
10
25.6889351127332
20
-0.920453873621426
30
0
0
SPLINE
5
1C4
100
AcDbEntity
8
SK1
62
256
6
ByLayer
370
18
48
1
60
0
100
AcDbSpline
70
4
71
3
72
22
73
18
40
0
40
0
40
0
40
0
40
0.12487035776043
40
0.12487035776043
40
0.249740715520859
40
0.249740715520859
40
0.499481431041718
40
0.499481431041718
40
0.624351788802148
40
0.624351788802148
40
0.686786967682363
40
0.686786967682363
40
0.749222146562577
40
0.749222146562577
40
0.998962862083437
40
0.998962862083437
40
1
40
1
40
1
40
1
41
1
10
-21.8
20
2.49999999999997
30
0
41
1
10
-21.8338868453926
20
2.49999999999997
30
0
41
1
10
-21.8668056538987
20
2.49999999999997
30
0
41
1
10
-21.929830351663
20
2.49999999999997
30
0
41
1
10
-21.9599933941277
20
2.49999999999997
30
0
41
1
10
-22.0458038261019
20
2.49999999999997
30
0
41
1
10
-22.0968055384278
20
2.49999999999997
30
0
41
1
10
-22.16090313596
20
2.49999999999997
30
0
41
1
10
-22.180193144117
20
2.49999999999997
30
0
41
1
10
-22.2055567726693
20
2.49999999999997
30
0
41
1
10
-22.2134156230613
20
2.49999999999997
30
0
41
1
10
-22.2278607740129
20
2.49999999999997
30
0
41
1
10
-22.2344523311081
20
2.49999999999997
30
0
41
1
10
-22.2639634238585
20
2.49999999999997
30
0
41
1
10
-22.2759954779992
20
2.49999999999997
30
0
41
1
10
-22.2760045013118
20
2.49999999999994
30
0
41
1
10
-22.2760032226072
20
2.49999999999994
30
0
41
1
10
-22.2760022225072
20
2.49999999999994
30
0
0
SPLINE
5
1C5
100
AcDbEntity
8
SK1
62
256
6
ByLayer
370
18
48
1
60
0
100
AcDbSpline
70
4
71
3
72
22
73
18
40
0
40
0
40
0
40
0
40
0.0010371247769642
40
0.0010371247769642
40
0.250777843582723
40
0.250777843582723
40
0.313213023284163
40
0.313213023284163
40
0.375648202985602
40
0.375648202985602
40
0.500518562388482
40
0.500518562388482
40
0.750259281194241
40
0.750259281194241
40
0.875129640597121
40
0.875129640597121
40
1
40
1
40
1
40
1
41
1
10
-22.2760022225143
20
-2.50000000000003
30
0
41
1
10
-22.2760032226143
20
-2.50000000000003
30
0
41
1
10
-22.2760045013115
20
-2.50000000000003
30
0
41
1
10
-22.2759954779992
20
-2.50000000000003
30
0
41
1
10
-22.2639634238585
20
-2.50000000000003
30
0
41
1
10
-22.2344523311081
20
-2.50000000000003
30
0
41
1
10
-22.2278607740129
20
-2.50000000000003
30
0
41
1
10
-22.2134156230613
20
-2.50000000000003
30
0
41
1
10
-22.2055567726693
20
-2.50000000000003
30
0
41
1
10
-22.180193144117
20
-2.50000000000003
30
0
41
1
10
-22.16090313596
20
-2.50000000000003
30
0
41
1
10
-22.0968055384278
20
-2.50000000000003
30
0
41
1
10
-22.0458038261019
20
-2.50000000000003
30
0
41
1
10
-21.9599933941277
20
-2.50000000000003
30
0
41
1
10
-21.929830351663
20
-2.50000000000003
30
0
41
1
10
-21.8668056538987
20
-2.50000000000003
30
0
41
1
10
-21.8338868453925
20
-2.50000000000003
30
0
41
1
10
-21.8
20
-2.50000000000003
30
0
0
SPLINE
5
1C6
100
AcDbEntity
8
SK1
62
256
6
ByLayer
370
18
48
1
60
0
100
AcDbSpline
70
4
71
3
72
35
73
31
40
0
40
0
40
0
40
0
40
0.03125
40
0.03125
40
0.0625
40
0.0625
40
0.125
40
0.125
40
0.25
40
0.25
40
0.3125
40
0.34375
40
0.34375
40
0.375
40
0.375
40
0.5
40
0.5
40
0.625
40
0.625
40
0.65625
40
0.65625
40
0.6875
40
0.6875
40
0.75
40
0.75
40
0.875
40
0.875
40
0.9375
40
0.9375
40
1
40
1
40
1
40
1
41
1
10
-21.8
20
-1.61448939296614
30
0
41
1
10
-21.8169563140957
20
-1.58323369629287
30
0
41
1
10
-21.8336767723877
20
-1.55177090006498
30
0
41
1
10
-21.8664672336826
20
-1.48865975589337
30
0
41
1
10
-21.882550076674
20
-1.45698848938889
30
0
41
1
10
-21.9297908471965
20
-1.36160146120923
30
0
41
1
10
-21.9599429863997
20
-1.29751320051349
30
0
41
1
10
-22.0457417108325
20
-1.10352341715316
30
0
41
1
10
-22.0967648963879
20
-0.971909593995235
30
0
41
1
10
-22.1609145082716
20
-0.76990194743675
30
0
41
1
10
-22.1898800631236
20
-0.667746596591172
30
0
41
1
10
-22.2134851264854
20
-0.563605959404441
30
0
41
1
10
-22.2279464434214
20
-0.493706519792312
30
0
41
1
10
-22.23455150376
20
-0.458441118458779
30
0
41
1
10
-22.2639663303255
20
-0.282201981620375
30
0
41
1
10
-22.2760004569616
20
-0.141136015172549
30
0
41
1
10
-22.2759995430122
20
0.141152203402612
30
0
41
1
10
-22.2639634238585
20
0.282374462533255
30
0
41
1
10
-22.2344523311081
20
0.458996216570398
30
0
41
1
10
-22.2278607740129
20
0.494144159265147
30
0
41
1
10
-22.2134156230613
20
0.563918100482653
30
0
41
1
10
-22.2055567726693
20
0.598576026643286
30
0
41
1
10
-22.180193144117
20
0.70190649805653
30
0
41
1
10
-22.16090313596
20
0.769936401254768
30
0
41
1
10
-22.0968055384278
20
0.971784326679938
30
0
41
1
10
-22.0458038261019
20
1.10337260601372
30
0
41
1
10
-21.9599933941277
20
1.29740440659407
30
0
41
1
10
-21.929830351663
20
1.3615202655979
30
0
41
1
10
-21.8668056538987
20
1.48878054457572
30
0
41
1
10
-21.8338868453926
20
1.55202552523946
30
0
41
1
10
-21.8
20
1.61448939296605
30
0
0
SPLINE
5
1C7
100
AcDbEntity
8
1
62
256
6
ByLayer
370
18
48
1
60
0
100
AcDbSpline
70
4
71
1
72
4
73
2
40
0
40
0
40
1
40
1
41
1
10
47
20
2.97083888797451
30
0
41
1
10
46.8803124072297
20
3.09050038979052
30
0
0
SPLINE
5
1C8
100
AcDbEntity
8
1
62
256
6
ByLayer
370
18
48
1
60
0
100
AcDbSpline
70
4
71
2
72
6
73
3
40
0
40
0
40
0
40
1
40
1
40
1
41
1
10
43.7858721838626
20
-3.92174383661779
30
0
41
1
10
43.9578465682349
20
-3.62621097201762
30
0
41
1
10
44.1299006976162
20
-3.33132552277081
30
0
0
SPLINE
5
1C9
100
AcDbEntity
8
1
62
256
6
ByLayer
370
18
48
1
60
0
100
AcDbSpline
70
4
71
1
72
4
73
2
40
0
40
0
40
1
40
1
41
1
10
43.5302251806554
20
-4.0003783282348
30
0
41
1
10
43.7804020313309
20
-3.93678767754028
30
0
0
SPLINE
5
1CA
100
AcDbEntity
8
1
62
256
6
ByLayer
370
18
48
1
60
0
100
AcDbSpline
70
4
71
3
72
13
73
9
40
0
40
0
40
0
40
0
40
0.241175323414138
40
0.369823233424363
40
0.501143088282131
40
0.632305710798055
40
0.760495439693921
40
1
40
1
40
1
40
1
41
1
10
42.8728157654296
20
-3.34581767823528
30
0
41
1
10
42.8857221961275
20
-3.32282373078004
30
0
41
1
10
42.9133676940986
20
-3.29537089102044
30
0
41
1
10
42.9697458228123
20
-3.27135212121164
30
0
41
1
10
43.0186092235748
20
-3.26629893301831
30
0
41
1
10
43.0674759676303
20
-3.27529204386119
30
0
41
1
10
43.1238302393485
20
-3.30444448545717
30
0
41
1
10
43.1515176169274
20
-3.33613580521441
30
0
41
1
10
43.1645023273426
20
-3.36201377210844
30
0
0
SPLINE
5
1CB
100
AcDbEntity
8
1
62
256
6
ByLayer
370
18
48
1
60
0
100
AcDbSpline
70
4
71
2
72
6
73
3
40
0
40
0
40
0
40
1
40
1
40
1
41
1
10
42.4551830366207
20
-4.0648456342135
30
0
41
1
10
42.6629651629212
20
-3.70656992752177
30
0
41
1
10
42.8711680229868
20
-3.34843523147197
30
0
0
SPLINE
5
1CC
100
AcDbEntity
8
1
62
256
6
ByLayer
370
18
48
1
60
0
100
AcDbSpline
70
4
71
2
72
6
73
3
40
0
40
0
40
0
40
1
40
1
40
1
41
1
10
41.9035571049413
20
-3.355083178527
30
0
41
1
10
42.1106468026071
20
-3.71239165806068
30
0
41
1
10
42.3176321311497
20
-4.06994950132315
30
0
0
SPLINE
5
1CD
100
AcDbEntity
8
1
62
256
6
ByLayer
370
18
48
1
60
0
100
AcDbSpline
70
4
71
3
72
11
73
7
40
0
40
0
40
0
40
0
40
0.239031925057251
40
0.487710218844512
40
0.745163106524278
40
1
40
1
40
1
40
1
41
1
10
41.6234787322894
20
-3.34458950846184
30
0
41
1
10
41.6296191894164
20
-3.32973047573123
30
0
41
1
10
41.653761106055
20
-3.30478525066584
30
0
41
1
10
41.7316088553275
20
-3.26357624628037
30
0
41
1
10
41.8395848439903
20
-3.28048755913235
30
0
41
1
10
41.8817273306832
20
-3.32122155835546
30
0
41
1
10
41.8992660900545
20
-3.34964506409219
30
0
0
SPLINE
5
1CE
100
AcDbEntity
8
1
62
256
6
ByLayer
370
18
48
1
60
0
100
AcDbSpline
70
4
71
2
72
6
73
3
40
0
40
0
40
0
40
1
40
1
40
1
41
1
10
41.2073786953993
20
-4.06118969782474
30
0
41
1
10
41.4148935086836
20
-3.70329977491952
30
0
41
1
10
41.6227110260657
20
-3.34588122376528
30
0
0
SPLINE
5
1CF
100
AcDbEntity
8
1
62
256
6
ByLayer
370
18
48
1
60
0
100
AcDbSpline
70
4
71
2
72
6
73
3
40
0
40
0
40
0
40
1
40
1
40
1
41
1
10
40.6436372782878
20
-3.3404157053773
30
0
41
1
10
40.8514302974614
20
-3.69801127311007
30
0
41
1
10
41.058915315864
20
-4.05613233077349
30
0
0
SPLINE
5
1D0
100
AcDbEntity
8
1
62
256
6
ByLayer
370
18
48
1
60
0
100
AcDbSpline
70
4
71
3
72
10
73
6
40
0
40
0
40
0
40
0
40
0.277544205203084
40
0.541543337171071
40
1
40
1
40
1
40
1
41
1
10
40.3734441312166
20
-3.34397982134919
30
0
41
1
10
40.3888982523596
20
-3.31769339051638
30
0
41
1
10
40.4272799293451
20
-3.28054866880169
30
0
41
1
10
40.5672463834269
20
-3.26320337683495
30
0
41
1
10
40.6189475678947
20
-3.2992410358396
30
0
41
1
10
40.6443580966307
20
-3.3417567226376
30
0
0
SPLINE
5
1D1
100
AcDbEntity
8
1
62
256
6
ByLayer
370
18
48
1
60
0
100
AcDbSpline
70
4
71
3
72
11
73
7
40
0
40
0
40
0
40
0
40
0.260164888415121
40
0.51928581281148
40
0.766161549582664
40
1
40
1
40
1
40
1
41
1
10
39.1208135361019
20
-3.34908043712483
30
0
41
1
10
39.1379529512764
20
-3.3209876291447
30
0
41
1
10
39.1795542025327
20
-3.28118430246559
30
0
41
1
10
39.287196601097
20
-3.26369953192767
30
0
41
1
10
39.365428310384
20
-3.30447621757554
30
0
41
1
10
39.3897698239869
20
-3.32979537853967
30
0
41
1
10
39.396194823816
20
-3.34478552297307
30
0
0
SPLINE
5
1D2
100
AcDbEntity
8
1
62
256
6
ByLayer
370
18
48
1
60
0
100
AcDbSpline
70
4
71
2
72
6
73
3
40
0
40
0
40
0
40
1
40
1
40
1
41
1
10
39.9593845742139
20
-4.05672399103338
30
0
41
1
10
40.1674104387904
20
-3.69787574498233
30
0
41
1
10
40.3759633155479
20
-3.33939463903317
30
0
0
SPLINE
5
1D3
100
AcDbEntity
8
1
62
256
6
ByLayer
370
18
48
1
60
0
100
AcDbSpline
70
4
71
2
72
6
73
3
40
0
40
0
40
0
40
1
40
1
40
1
41
1
10
39.3971372512893
20
-3.34637094290878
30
0
41
1
10
39.6046424681342
20
-3.70377090727672
30
0
41
1
10
39.8118910769694
20
-4.06156794994777
30
0
0
SPLINE
5
1D4
100
AcDbEntity
8
1
62
256
6
ByLayer
370
18
48
1
60
0
100
AcDbSpline
70
4
71
3
72
13
73
9
40
0
40
0
40
0
40
0
40
0.241332897088562
40
0.369829982270947
40
0.500932870139492
40
0.631900545943495
40
0.760009303596551
40
1
40
1
40
1
40
1
41
1
10
37.8561245807488
20
-3.36132966695908
30
0
41
1
10
37.8689461676023
20
-3.33564044166047
30
0
41
1
10
37.896498754595
20
-3.30422092770584
30
0
41
1
10
37.9528208285063
20
-3.27515346728504
30
0
41
1
10
38.0016247885575
20
-3.26625589893433
30
0
41
1
10
38.0504318404504
20
-3.27139047557756
30
0
41
1
10
38.1067396401164
20
-3.29551168714585
30
0
41
1
10
38.1343179998989
20
-3.32303543971682
30
0
41
1
10
38.1471948106804
20
-3.34606785904884
30
0
0
SPLINE
5
1D5
100
AcDbEntity
8
1
62
256
6
ByLayer
370
18
48
1
60
0
100
AcDbSpline
70
4
71
3
72
10
73
6
40
0
40
0
40
0
40
0
40
0.0726740150893766
40
0.38653844492598
40
1
40
1
40
1
40
1
41
1
10
33.6981790543302
20
3.28658505162363
30
0
41
1
10
33.6937379087649
20
3.28360950474388
30
0
41
1
10
33.6693886454009
20
3.26971479343331
30
0
41
1
10
33.5727868379119
20
3.27098992021314
30
0
41
1
10
33.5255761924873
20
3.30214519063273
30
0
41
1
10
33.4999239594277
20
3.34171963032068
30
0
0
SPLINE
5
1D6
100
AcDbEntity
8
1
62
256
6
ByLayer
370
18
48
1
60
0
100
AcDbSpline
70
4
71
2
72
6
73
3
40
0
40
0
40
0
40
1
40
1
40
1
41
1
10
33.4978850752117
20
3.34531970769186
30
0
41
1
10
33.4193448028515
20
3.48037444667369
30
0
41
1
10
33.3408455778306
20
3.6155465784847
30
0
0
SPLINE
5
1D7
100
AcDbEntity
8
1
62
256
6
ByLayer
370
18
48
1
60
0
100
AcDbSpline
70
4
71
2
72
6
73
3
40
0
40
0
40
0
40
1
40
1
40
1
41
1
10
38.7027886888577
20
-4.06833671328647
30
0
41
1
10
38.9096546035715
20
-3.7112942491743
30
0
41
1
10
39.1166391697955
20
-3.35459921079092
30
0
0
SPLINE
5
1D8
100
AcDbEntity
8
1
62
256
6
ByLayer
370
18
48
1
60
0
100
AcDbSpline
70
4
71
2
72
6
73
3
40
0
40
0
40
0
40
1
40
1
40
1
41
1
10
38.1480389640219
20
-3.3474048202946
30
0
41
1
10
38.3563683580804
20
-3.70612721300975
30
0
41
1
10
38.5642026580325
20
-4.06471177279184
30
0
0
SPLINE
5
1D9
100
AcDbEntity
8
1
62
256
6
ByLayer
370
18
48
1
60
0
100
AcDbSpline
70
4
71
2
72
6
73
3
40
0
40
0
40
0
40
1
40
1
40
1
41
1
10
36.8363203144624
20
-3.2906856530704
30
0
41
1
10
36.854149418507
20
-3.29980494760935
30
0
41
1
10
36.8648195926142
20
-3.30616910900505
30
0
0
SPLINE
5
1DA
100
AcDbEntity
8
1
62
256
6
ByLayer
370
18
48
1
60
0
100
AcDbSpline
70
4
71
1
72
4
73
2
40
0
40
0
40
1
40
1
41
1
10
36.8774713701007
20
-3.31472505050644
30
0
41
1
10
36.8847207155992
20
-3.31962752924716
30
0
0
SPLINE
5
1DB
100
AcDbEntity
8
1
62
256
6
ByLayer
370
18
48
1
60
0
100
AcDbSpline
70
4
71
2
72
6
73
3
40
0
40
0
40
0
40
1
40
1
40
1
41
1
10
34.7769130275478
20
3.31010059017615
30
0
41
1
10
34.7692444794603
20
3.31635404304618
30
0
41
1
10
34.7672297208579
20
3.31153672441107
30
0
0
SPLINE
5
1DC
100
AcDbEntity
8
1
62
256
6
ByLayer
370
18
48
1
60
0
100
AcDbSpline
70
4
71
2
72
6
73
3
40
0
40
0
40
0
40
1
40
1
40
1
41
1
10
36.8909171801228
20
-3.33457066150501
30
0
41
1
10
37.0976444138116
20
-3.68972881162307
30
0
41
1
10
37.3042657159063
20
-4.04565049893822
30
0
0
SPLINE
5
1DD
100
AcDbEntity
8
1
62
256
6
ByLayer
370
18
48
1
60
0
100
AcDbSpline
70
4
71
2
72
6
73
3
40
0
40
0
40
0
40
1
40
1
40
1
41
1
10
34.7573838791952
20
3.32564292013245
30
0
41
1
10
34.5506846012815
20
3.6793529922177
30
0
41
1
10
34.344084068622
20
4.03405380465847
30
0
0
LINE
5
7F
100
AcDbEntity
8
81
62
256
6
ByLayer
370
18
48
1
60
0
100
AcDbLine
10
47
20
0
30
0
11
52
21
0
31
0
39
0
210
0
220
0
230
1
0
LINE
5
80
100
AcDbEntity
8
SK4
62
256
6
ByLayer
370
18
48
0.05
60
0
100
AcDbLine
10
-28
20
0
30
0
11
52
21
0
31
0
39
0
210
0
220
0
230
1
0
LINE
5
82
100
AcDbEntity
8
80
62
256
6
ByLayer
370
18
48
1
60
0
100
AcDbLine
10
0
20
0
30
0
11
-5
21
0
31
0
39
0
210
0
220
0
230
1
0
LINE
5
83
100
AcDbEntity
8
4
62
256
6
ByLayer
370
18
48
0.05
60
0
100
AcDbLine
10
-5
20
0
30
0
11
52
21
0
31
0
39
0
210
0
220
0
230
1
0
LINE
5
85
100
AcDbEntity
8
1
62
256
6
ByLayer
370
18
48
1
60
0
100
AcDbLine
10
0
20
3.1
30
0
11
0
21
-3.1
31
0
39
0
210
0
220
0
230
1
0
LINE
5
86
100
AcDbEntity
8
1
62
256
6
ByLayer
370
18
48
1
60
0
100
AcDbLine
10
47
20
2.970839
30
0
11
47
21
2.970485
31
0
39
0
210
0
220
0
230
1
0
LINE
5
87
100
AcDbEntity
8
1
62
256
6
ByLayer
370
18
48
1
60
0
100
AcDbLine
10
41.903524
20
-3.355047
30
0
11
41.899397
21
-3.349834
31
0
39
0
210
0
220
0
230
1
0
LINE
5
88
100
AcDbEntity
8
1
62
256
6
ByLayer
370
18
48
1
60
0
100
AcDbLine
10
40.375811
20
-3.339686
30
0
11
40.373265
21
-3.344286
31
0
39
0
210
0
220
0
230
1
0
LINE
5
89
100
AcDbEntity
8
1
62
256
6
ByLayer
370
13
48
1
60
0
100
AcDbLine
10
32.651925
20
3.247372
30
0
11
32.651925
21
2.775188
31
0
39
0
210
0
220
0
230
1
0
LINE
5
8A
100
AcDbEntity
8
1
62
256
6
ByLayer
370
18
48
1
60
0
100
AcDbLine
10
39.119294
20
-3.351263
30
0
11
39.11658
21
-3.354667
31
0
39
0
210
0
220
0
230
1
0
LINE
5
8B
100
AcDbEntity
8
1
62
256
6
ByLayer
370
13
48
1
60
0
100
AcDbLine
10
32.101925
20
2.742149
30
0
11
32.101925
21
3.1
31
0
39
0
210
0
220
0
230
1
0
LINE
5
8C
100
AcDbEntity
8
1
62
256
6
ByLayer
370
13
48
1
60
0
100
AcDbLine
10
32.651925
20
-1.166055
30
0
11
32.651925
21
-2.848011
31
0
39
0
210
0
220
0
230
1
0
LINE
5
8D
100
AcDbEntity
8
1
62
256
6
ByLayer
370
13
48
1
60
0
100
AcDbLine
10
32.101925
20
-2.623258
30
0
11
32.101925
21
-0.938827
31
0
39
0
210
0
220
0
230
1
0
LINE
5
8E
100
AcDbEntity
8
SK1
62
256
6
ByLayer
370
18
48
1
60
0
100
AcDbLine
10
-23
20
1.776
30
0
11
-23
21
-1.776
31
0
39
0
210
0
220
0
230
1
0
LINE
5
90
100
AcDbEntity
8
SK1
62
256
6
ByLayer
370
18
48
1
60
0
100
AcDbLine
10
-15
20
1.614489
30
0
11
-15
21
-1.614489
31
0
39
0
210
0
220
0
230
1
0
LINE
5
91
100
AcDbEntity
8
SK1
62
256
6
ByLayer
370
18
48
1
60
0
100
AcDbLine
10
-15
20
2.5
30
0
11
-14.524
21
2.976
31
0
39
0
210
0
220
0
230
1
0
LINE
5
92
100
AcDbEntity
8
SK1
62
256
6
ByLayer
370
18
48
1
60
0
100
AcDbLine
10
-21.8
20
2.5
30
0
11
-15
21
2.5
31
0
39
0
210
0
220
0
230
1
0
LINE
5
93
100
AcDbEntity
8
SK1
62
256
6
ByLayer
370
18
48
1
60
0
100
AcDbLine
10
-21.8
20
1.614489
30
0
11
-21.8
21
2.5
31
0
39
0
210
0
220
0
230
1
0
LINE
5
94
100
AcDbEntity
8
SK1
62
256
6
ByLayer
370
18
48
1
60
0
100
AcDbLine
10
-15
20
1.614489
30
0
11
-21.8
21
1.614489
31
0
39
0
210
0
220
0
230
1
0
LINE
5
95
100
AcDbEntity
8
SK1
62
256
6
ByLayer
370
18
48
1
60
0
100
AcDbLine
10
-21.8
20
-1.614489
30
0
11
-15
21
-1.614489
31
0
39
0
210
0
220
0
230
1
0
LINE
5
96
100
AcDbEntity
8
SK1
62
256
6
ByLayer
370
18
48
1
60
0
100
AcDbLine
10
-21.8
20
-2.5
30
0
11
-21.8
21
-1.614489
31
0
39
0
210
0
220
0
230
1
0
LINE
5
97
100
AcDbEntity
8
SK1
62
256
6
ByLayer
370
18
48
1
60
0
100
AcDbLine
10
-15
20
-2.5
30
0
11
-21.8
21
-2.5
31
0
39
0
210
0
220
0
230
1
0
LINE
5
98
100
AcDbEntity
8
SK1
62
256
6
ByLayer
370
18
48
1
60
0
100
AcDbLine
10
-15
20
-2.5
30
0
11
-14.524
21
-2.976
31
0
39
0
210
0
220
0
230
1
0
LINE
5
99
100
AcDbEntity
8
SK1
62
256
6
ByLayer
370
18
48
1
60
0
100
AcDbLine
10
-14.2
20
2.976
30
0
11
-14.2
21
-2.976
31
0
39
0
210
0
220
0
230
1
0
LINE
5
9A
100
AcDbEntity
8
SK1
62
256
6
ByLayer
370
18
48
1
60
0
100
AcDbLine
10
0
20
3.1
30
0
11
0
21
-3.1
31
0
39
0
210
0
220
0
230
1
0
LINE
5
9B
100
AcDbEntity
8
SK1
62
256
6
ByLayer
370
18
48
1
60
0
100
AcDbLine
10
-14.076
20
-3.1
30
0
11
-14.076
21
3.1
31
0
39
0
210
0
220
0
230
1
0
LINE
5
9C
100
AcDbEntity
8
1
62
256
6
ByLayer
370
18
48
1
60
0
100
AcDbLine
10
0
20
-3.1
30
0
11
24.469046
21
-3.1
31
0
39
0
210
0
220
0
230
1
0
LINE
5
9D
100
AcDbEntity
8
1
62
256
6
ByLayer
370
18
48
1
60
0
100
AcDbLine
10
32.101925
20
3.1
30
0
11
27.705638
21
3.1
31
0
39
0
210
0
220
0
230
1
0
LINE
5
9E
100
AcDbEntity
8
1
62
256
6
ByLayer
370
18
48
1
60
0
100
AcDbLine
10
17.174301
20
3.1
30
0
11
0
21
3.1
31
0
39
0
210
0
220
0
230
1
0
LINE
5
9F
100
AcDbEntity
8
1
62
256
6
ByLayer
370
18
48
1
60
0
100
AcDbLine
10
43.778707
20
-3.934057
30
0
11
43.782328
21
-3.927834
31
0
39
0
210
0
220
0
230
1
0
LINE
5
A0
100
AcDbEntity
8
1
62
256
6
ByLayer
370
18
48
1
60
0
100
AcDbLine
10
42.325403
20
-4.070629
30
0
11
42.443489
21
-4.070629
31
0
39
0
210
0
220
0
230
1
0
LINE
5
A1
100
AcDbEntity
8
1
62
256
6
ByLayer
370
18
48
1
60
0
100
AcDbLine
10
41.075742
20
-4.070629
30
0
11
41.193394
21
-4.070629
31
0
39
0
210
0
220
0
230
1
0
LINE
5
A2
100
AcDbEntity
8
1
62
256
6
ByLayer
370
18
48
1
60
0
100
AcDbLine
10
39.82532
20
-4.070629
30
0
11
39.943171
21
-4.070629
31
0
39
0
210
0
220
0
230
1
0
LINE
5
A3
100
AcDbEntity
8
1
62
256
6
ByLayer
370
18
48
1
60
0
100
AcDbLine
10
33.311198
20
3.628003
30
0
11
32.651925
21
3.247372
31
0
39
0
210
0
220
0
230
1
0
LINE
5
A4
100
AcDbEntity
8
1
62
256
6
ByLayer
370
18
48
1
60
0
100
AcDbLine
10
38.575584
20
-4.070629
30
0
11
38.693575
21
-4.070629
31
0
39
0
210
0
220
0
230
1
0
LINE
5
A5
100
AcDbEntity
8
1
62
256
6
ByLayer
370
18
48
1
60
0
100
AcDbLine
10
37.325381
20
-4.070629
30
0
11
37.443247
21
-4.070629
31
0
39
0
210
0
220
0
230
1
0
LINE
5
A6
100
AcDbEntity
8
SK1
62
256
6
ByLayer
370
18
48
1
60
0
100
AcDbLine
10
-23
20
-1.776
30
0
11
-22.276
21
-2.5
31
0
39
0
210
0
220
0
230
1
0
LINE
5
A7
100
AcDbEntity
8
SK1
62
256
6
ByLayer
370
18
48
1
60
0
100
AcDbLine
10
-22.276
20
2.5
30
0
11
-23
21
1.776
31
0
39
0
210
0
220
0
230
1
0
LINE
5
A8
100
AcDbEntity
8
SK1
62
256
6
ByLayer
370
18
48
1
60
0
100
AcDbLine
10
-14.2
20
2.976
30
0
11
-14.524
21
2.976
31
0
39
0
210
0
220
0
230
1
0
LINE
5
A9
100
AcDbEntity
8
SK1
62
256
6
ByLayer
370
18
48
1
60
0
100
AcDbLine
10
-14.524
20
-2.976
30
0
11
-14.2
21
-2.976
31
0
39
0
210
0
220
0
230
1
0
LINE
5
AA
100
AcDbEntity
8
SK1
62
256
6
ByLayer
370
18
48
1
60
0
100
AcDbLine
10
-14.2
20
-2.976
30
0
11
-14.076
21
-3.1
31
0
39
0
210
0
220
0
230
1
0
LINE
5
AB
100
AcDbEntity
8
SK1
62
256
6
ByLayer
370
18
48
1
60
0
100
AcDbLine
10
-14.076
20
3.1
30
0
11
-14.2
21
2.976
31
0
39
0
210
0
220
0
230
1
0
LINE
5
AC
100
AcDbEntity
8
SK1
62
256
6
ByLayer
370
18
48
1
60
0
100
AcDbLine
10
-14.076
20
-3.1
30
0
11
0
21
-3.1
31
0
39
0
210
0
220
0
230
1
0
LINE
5
AD
100
AcDbEntity
8
SK1
62
256
6
ByLayer
370
18
48
1
60
0
100
AcDbLine
10
0
20
3.1
30
0
11
-14.076
21
3.1
31
0
39
0
210
0
220
0
230
1
0
LINE
5
AE
100
AcDbEntity
8
SK2
62
256
6
ByLayer
370
13
48
1
60
0
100
AcDbLine
10
3.5
20
34.121845
30
0
11
3.5
21
-10.6
31
0
39
0
210
0
220
0
230
1
0
LINE
5
B0
100
AcDbEntity
8
SK2
62
256
6
ByLayer
370
13
48
1
60
0
100
AcDbLine
10
3.5875
20
3.1
30
0
11
5.5
21
3.1
31
0
39
0
210
0
220
0
230
1
0
LINE
5
B1
100
AcDbEntity
8
SK2
62
256
6
ByLayer
370
13
48
1
60
0
100
AcDbLine
10
3.5875
20
-3.1
30
0
11
5.5
21
-3.1
31
0
39
0
210
0
220
0
230
1
0
LINE
5
B2
100
AcDbEntity
8
1
62
256
6
ByLayer
370
18
48
1
60
1
100
AcDbLine
10
3.5
20
3.1
30
0
11
3.039216
21
6.599998
31
0
39
0
210
0
220
0
230
1
0
LINE
5
B3
100
AcDbEntity
8
1
62
256
6
ByLayer
370
18
48
1
60
1
100
AcDbLine
10
3.039216
20
6.599998
30
0
11
3.960784
21
6.600002
31
0
39
0
210
0
220
0
230
1
0
LINE
5
B4
100
AcDbEntity
8
1
62
256
6
ByLayer
370
18
48
1
60
1
100
AcDbLine
10
3.960784
20
6.600002
30
0
11
3.5
21
3.1
31
0
39
0
210
0
220
0
230
1
0
LINE
5
B5
100
AcDbEntity
8
1
62
256
6
ByLayer
370
18
48
1
60
1
100
AcDbLine
10
3.5
20
-3.1
30
0
11
3.960784
21
-6.599998
31
0
39
0
210
0
220
0
230
1
0
LINE
5
B6
100
AcDbEntity
8
1
62
256
6
ByLayer
370
18
48
1
60
1
100
AcDbLine
10
3.960784
20
-6.599998
30
0
11
3.039216
21
-6.600002
31
0
39
0
210
0
220
0
230
1
0
LINE
5
B7
100
AcDbEntity
8
1
62
256
6
ByLayer
370
18
48
1
60
1
100
AcDbLine
10
3.039216
20
-6.600002
30
0
11
3.5
21
-3.1
31
0
39
0
210
0
220
0
230
1
0
LINE
5
1E3
100
AcDbEntity
8
1
62
256
6
ByLayer
370
18
48
1
60
1
100
AcDbLine
10
3.5
20
3.1
30
0
11
3.039216
21
6.599998
31
0
39
0
210
0
220
0
230
1
0
LINE
5
1E4
100
AcDbEntity
8
1
62
256
6
ByLayer
370
18
48
1
60
1
100
AcDbLine
10
3.039216
20
6.599998
30
0
11
3.960784
21
6.600002
31
0
39
0
210
0
220
0
230
1
0
LINE
5
1E5
100
AcDbEntity
8
1
62
256
6
ByLayer
370
18
48
1
60
1
100
AcDbLine
10
3.960784
20
6.600002
30
0
11
3.5
21
3.1
31
0
39
0
210
0
220
0
230
1
0
LINE
5
1E7
100
AcDbEntity
8
1
62
256
6
ByLayer
370
18
48
1
60
1
100
AcDbLine
10
3.5
20
-3.1
30
0
11
3.960784
21
-6.599998
31
0
39
0
210
0
220
0
230
1
0
LINE
5
1E8
100
AcDbEntity
8
1
62
256
6
ByLayer
370
18
48
1
60
1
100
AcDbLine
10
3.960784
20
-6.599998
30
0
11
3.039216
21
-6.600002
31
0
39
0
210
0
220
0
230
1
0
LINE
5
1E9
100
AcDbEntity
8
1
62
256
6
ByLayer
370
18
48
1
60
1
100
AcDbLine
10
3.039216
20
-6.600002
30
0
11
3.5
21
-3.1
31
0
39
0
210
0
220
0
230
1
0
MTEXT
5
1DE
100
AcDbEntity
8
SK2
62
256
6
ByLayer
370
18
48
1
60
0
100
AcDbMText
10
2.158886
20
13.558438
30
0
210
0
220
0
230
1
1
%%c
40
3
41
0
44
1.084337
50
90
71
7
72
5
7
iso_b_vert
0
MTEXT
5
1E1
100
AcDbEntity
8
SK2
62
256
6
ByLayer
370
18
48
1
60
0
100
AcDbMText
10
2.310366
20
30.098413
30
0
210
0
220
0
230
1
1
\W0.7125;h9
40
3.5
41
0
44
1.084337
50
90
71
7
72
5
7
iso_b_vert
0
MTEXT
5
1E2
100
AcDbEntity
8
SK2
62
256
6
ByLayer
370
18
48
1
60
0
100
AcDbMText
10
2.158886
20
19.535
30
0
210
0
220
0
230
1
1
\W0.7346;6.20
40
3
41
0
44
1.084337
50
90
71
7
72
5
7
iso_b_vert
0
MTEXT
5
1EB
100
AcDbEntity
8
SK6
62
256
6
ByLayer
370
18
48
1
60
0
100
AcDbMText
10
-3.362007
20
-67.114886
30
0
210
0
220
0
230
1
1
\W0.7246;T300-SD151JA-M8     D150
40
3
41
0
44
1.084337
50
0
71
7
72
5
7
iso_b_vert
0
HATCH
5
1E6
100
AcDbEntity
8
SK2
62
256
6
ByLayer
370
13
48
1
60
0
100
AcDbHatch
10
0
20
0
30
0
210
0
220
0
230
1
2
ANSI31
70
0
71
0
91
1
92
5
93
3
72
1
10
3.50000000000003
20
3.09999999999999
11
3.03921625844725
21
6.59999830744681
72
1
10
3.03921625844725
20
6.59999830744681
11
3.9607837415528
21
6.60000169255318
72
1
10
3.9607837415528
20
6.60000169255318
11
3.50000000000003
21
3.09999999999999
97
0
75
0
76
1
52
0
41
0.0062
77
0
78
1
53
45
43
0
44
0
45
-0.0139193969876572
46
0.0139193969876572
79
0
47
0
98
1
10
0
20
0
0
HATCH
5
1EA
100
AcDbEntity
8
SK2
62
256
6
ByLayer
370
13
48
1
60
0
100
AcDbHatch
10
0
20
0
30
0
210
0
220
0
230
1
2
ANSI31
70
0
71
0
91
1
92
5
93
3
72
1
10
3.50000000000003
20
-3.09999999999999
11
3.9607837415528
21
-6.59999830744681
72
1
10
3.9607837415528
20
-6.59999830744681
11
3.03921625844725
21
-6.60000169255318
72
1
10
3.03921625844725
20
-6.60000169255318
11
3.50000000000003
21
-3.09999999999999
97
0
75
0
76
1
52
0
41
0.0062
77
0
78
1
53
45
43
0
44
0
45
-0.0139193969876572
46
0.0139193969876572
79
0
47
0
98
1
10
0
20
0
0
DIMENSION
5
1EE
100
AcDbEntity
8
SK2
62
256
6
ByLayer
370
18
48
1
60
0
100
AcDbDimension
2
_U0
10
47
20
-53.103362
30
0
11
12
21
-53.103362
31
0
70
32
71
1
72
1
41
1
210
0
220
0
230
1
3
Standard
100
AcDbAlignedDimension
13
-23
23
0
33
0
14
47
24
0
34
0
50
0
100
AcDbRotatedDimension
1001
ACAD
1000
DSTYLE
1002
{
1070
   371
1070
    13
1070
   372
1070
    13
1070
     3
1000

1070
   170
1070
     0
1070
   144
1040
1.0
1070
   277
1070
     2
1070
   284
1070
     8
1070
   278
1070
    46
1070
   146
1040
1.166667
1070
   345
1005
16
1070
   347
1005
16
1070
   346
1005
16
1070
   344
1005
0
1070
   343
1005
0
1070
   172
1070
     1
1070
    76
1070
     0
1070
    75
1070
     0
1070
   282
1070
     0
1070
   281
1070
     0
1070
    71
1070
     0
1070
    74
1070
     0
1070
   279
1070
     0
1070
   173
1070
     1
1070
   340
1005
1DF
1070
   271
1070
     2
1070
   272
1070
     3
1070
    77
1070
     1
1070
    73
1070
     1
1070
   171
1070
     3
1070
   274
1070
     4
1070
   177
1070
     2
1070
   176
1070
     2
1070
   178
1070
     2
1070
    78
1070
     8
1070
    48
1040
-0.1
1070
    41
1040
3.5
1070
   147
1040
1.5
1070
    42
1040
1.5875
1070
    44
1040
2.0
1070
   140
1040
3.0
1002
}
1001
ACAD_DSTYLE_DIM_LINETYPE
1070
   380
1005
16
1001
ACAD_DSTYLE_DIM_EXT1_LINETYPE
1070
   381
1005
16
1001
ACAD_DSTYLE_DIM_EXT2_LINETYPE
1070
   382
1005
16
0
DIMENSION
5
207
100
AcDbEntity
8
2
62
256
6
ByLayer
370
18
48
1
60
0
100
AcDbDimension
2
_U1
10
17.25
20
-37.103362
30
0
11
32.125
21
-37.103362
31
0
70
32
71
1
72
1
41
1
210
0
220
0
230
1
3
Standard
100
AcDbAlignedDimension
13
47
23
0
33
0
14
17.25
24
0
34
0
50
0
100
AcDbRotatedDimension
1001
ACAD
1000
DSTYLE
1002
{
1070
   371
1070
    13
1070
   372
1070
    13
1070
     3
1000

1070
   170
1070
     0
1070
   144
1040
1.0
1070
   277
1070
     2
1070
   284
1070
     8
1070
   278
1070
    46
1070
   146
1040
1.166667
1070
   345
1005
16
1070
   347
1005
16
1070
   346
1005
16
1070
   344
1005
0
1070
   343
1005
0
1070
   172
1070
     1
1070
    76
1070
     0
1070
    75
1070
     0
1070
   282
1070
     0
1070
   281
1070
     0
1070
    71
1070
     0
1070
    74
1070
     0
1070
   279
1070
     0
1070
   173
1070
     1
1070
   340
1005
1DF
1070
   271
1070
     2
1070
   272
1070
     3
1070
    77
1070
     1
1070
    73
1070
     1
1070
   171
1070
     3
1070
   274
1070
     4
1070
   177
1070
     2
1070
   176
1070
     2
1070
   178
1070
     2
1070
    78
1070
     8
1070
    48
1040
-0.1
1070
    41
1040
3.5
1070
   147
1040
1.5
1070
    42
1040
1.5875
1070
    44
1040
2.0
1070
   140
1040
3.0
1002
}
1001
ACAD_DSTYLE_DIM_LINETYPE
1070
   380
1005
16
1001
ACAD_DSTYLE_DIM_EXT1_LINETYPE
1070
   381
1005
16
1001
ACAD_DSTYLE_DIM_EXT2_LINETYPE
1070
   382
1005
16
0
DIMENSION
5
220
100
AcDbEntity
8
SK2
62
256
6
ByLayer
370
18
48
1
60
0
100
AcDbDimension
2
_U2
10
34
20
-29.103362
30
0
11
40.5
21
-29.103362
31
0
70
32
71
1
72
1
41
1
210
0
220
0
230
1
3
Standard
100
AcDbAlignedDimension
13
47
23
0
33
0
14
34
24
-2.95
34
0
50
0
100
AcDbRotatedDimension
1001
ACAD
1000
DSTYLE
1002
{
1070
   371
1070
    13
1070
   372
1070
    13
1070
     3
1000

1070
   170
1070
     0
1070
   144
1040
1.0
1070
   277
1070
     2
1070
   284
1070
     8
1070
   278
1070
    46
1070
   146
1040
1.166667
1070
   345
1005
16
1070
   347
1005
16
1070
   346
1005
16
1070
   344
1005
0
1070
   343
1005
0
1070
   172
1070
     1
1070
    76
1070
     0
1070
    75
1070
     0
1070
   282
1070
     0
1070
   281
1070
     0
1070
    71
1070
     0
1070
    74
1070
     0
1070
   279
1070
     0
1070
   173
1070
     1
1070
   340
1005
1DF
1070
   271
1070
     2
1070
   272
1070
     3
1070
    77
1070
     1
1070
    73
1070
     1
1070
   171
1070
     3
1070
   274
1070
     4
1070
   177
1070
     2
1070
   176
1070
     2
1070
   178
1070
     2
1070
    78
1070
     8
1070
    48
1040
-0.1
1070
    41
1040
3.5
1070
   147
1040
1.5
1070
    42
1040
1.5875
1070
    44
1040
2.0
1070
   140
1040
3.0
1002
}
1001
ACAD_DSTYLE_DIM_LINETYPE
1070
   380
1005
16
1001
ACAD_DSTYLE_DIM_EXT1_LINETYPE
1070
   381
1005
16
1001
ACAD_DSTYLE_DIM_EXT2_LINETYPE
1070
   382
1005
16
0
DIMENSION
5
239
100
AcDbEntity
8
SK2
62
256
6
ByLayer
370
18
48
1
60
0
100
AcDbDimension
2
_U3
10
43.56
20
8.641258
30
0
11
45.28
21
8.641258
31
0
70
32
71
1
72
1
41
1
210
0
220
0
230
1
3
Standard
100
AcDbAlignedDimension
13
47
23
0
33
0
14
43.56
24
0
34
0
50
0
100
AcDbRotatedDimension
1001
ACAD
1000
DSTYLE
1002
{
1070
   371
1070
    13
1070
   372
1070
    13
1070
     3
1000

1070
   170
1070
     0
1070
   144
1040
1.0
1070
   277
1070
     2
1070
   284
1070
     8
1070
   278
1070
    46
1070
   146
1040
1.166667
1070
   345
1005
16
1070
   347
1005
16
1070
   346
1005
16
1070
   344
1005
0
1070
   343
1005
0
1070
   172
1070
     1
1070
    76
1070
     0
1070
    75
1070
     0
1070
   282
1070
     0
1070
   281
1070
     0
1070
    71
1070
     0
1070
    74
1070
     0
1070
   279
1070
     0
1070
   173
1070
     1
1070
   340
1005
1DF
1070
   271
1070
     2
1070
   272
1070
     3
1070
    77
1070
     1
1070
    73
1070
     1
1070
   171
1070
     3
1070
   274
1070
     4
1070
   177
1070
     2
1070
   176
1070
     2
1070
   178
1070
     2
1070
    78
1070
     8
1070
    48
1040
-0.1
1070
    41
1040
3.5
1070
   147
1040
1.5
1070
    42
1040
1.5875
1070
    44
1040
2.0
1070
   140
1040
3.0
1002
}
1001
ACAD_DSTYLE_DIM_LINETYPE
1070
   380
1005
16
1001
ACAD_DSTYLE_DIM_EXT1_LINETYPE
1070
   381
1005
16
1001
ACAD_DSTYLE_DIM_EXT2_LINETYPE
1070
   382
1005
16
0
DIMENSION
5
253
100
AcDbEntity
8
2
62
256
6
ByLayer
370
18
48
1
60
0
100
AcDbDimension
2
_U4
10
63.5
20
4.070629
30
0
11
63.5
21
25.164697
31
0
70
32
71
1
72
1
41
1
210
0
220
0
230
1
3
Standard
100
AcDbAlignedDimension
13
47
23
-4.070629
33
0
14
47
24
4.070629
34
0
50
90
100
AcDbRotatedDimension
1001
ACAD
1000
DSTYLE
1002
{
1070
   371
1070
    13
1070
   372
1070
    13
1070
     3
1000

1070
   170
1070
     0
1070
   144
1040
1.0
1070
   277
1070
     2
1070
   284
1070
     8
1070
   278
1070
    46
1070
   146
1040
1.166667
1070
   345
1005
16
1070
   347
1005
16
1070
   346
1005
16
1070
   344
1005
0
1070
   343
1005
0
1070
   172
1070
     1
1070
    76
1070
     0
1070
    75
1070
     0
1070
   282
1070
     0
1070
   281
1070
     0
1070
    71
1070
     0
1070
    74
1070
     0
1070
   279
1070
     0
1070
   173
1070
     1
1070
   340
1005
1DF
1070
   271
1070
     2
1070
   272
1070
     3
1070
    77
1070
     1
1070
    73
1070
     0
1070
   171
1070
     3
1070
   274
1070
     4
1070
   177
1070
     2
1070
   176
1070
     2
1070
   178
1070
     2
1070
    78
1070
     8
1070
    48
1040
-0.1
1070
    41
1040
3.5
1070
   147
1040
1.5
1070
    42
1040
1.5875
1070
    44
1040
2.0
1070
   140
1040
3.0
1002
}
1001
ACAD_DSTYLE_DIM_LINETYPE
1070
   380
1005
16
1001
ACAD_DSTYLE_DIM_EXT1_LINETYPE
1070
   381
1005
16
1001
ACAD_DSTYLE_DIM_EXT2_LINETYPE
1070
   382
1005
16
0
ENDSEC
0
SECTION
2
OBJECTS
0
DICTIONARY
5
2de
330
0
100
AcDbDictionary
280
0
281
1
3
ACAD_GROUP
350
2df
3
ACAD_MLINESTYLE
350
2e0
0
DICTIONARY
5
2df
330
0
100
AcDbDictionary
280
0
281
1
0
DICTIONARY
5
2e0
330
0
100
AcDbDictionary
280
0
281
1
3
Standard
350
18
0
MLINESTYLE
5
18
330
2e0
100
AcDbMlineStyle
2
Standard
70
0
3

62
256
51
90
52
90
71
2
49
-0.5
62
256
6
ByLayer
49
0.5
62
256
6
ByLayer
0
RASTERVARIABLES
5
2cc
330

100
AcDbRasterVariables
90
0
70
1
71
1
72
1
0
ENDSEC
0
EOF
