  0
SECTION
  2
HEADER
  9
$ACADVER
  1
AC1015
  9
$ACADMAINTVER
 70
     6
  9
$DWGCODEPAGE
  3
ANSI_1252
  9
$INSBASE
 10
0.0
 20
0.0
 30
0.0
  9
$EXTMIN
 10
1.000000000000000E+20
 20
1.000000000000000E+20
 30
1.000000000000000E+20
  9
$EXTMAX
 10
-1.000000000000000E+20
 20
-1.000000000000000E+20
 30
-1.000000000000000E+20
  9
$LIMMIN
 10
-170.0
 20
-170.0
  9
$LIMMAX
 10
519.0
 20
260.0
  9
$ORTHOMODE
 70
     0
  9
$REGENMODE
 70
     1
  9
$FILLMODE
 70
     1
  9
$QTEXTMODE
 70
     0
  9
$MIRRTEXT
 70
     0
  9
$LTSCALE
 40
1.0
  9
$ATTMODE
 70
     1
  9
$TEXTSIZE
 40
3.5
  9
$TRACEWID
 40
1.0
  9
$TEXTSTYLE
  7
SIMPLEX
  9
$CLAYER
  8
1
  9
$CELTYPE
  6
BYLAYER
  9
$CECOLOR
 62
   256
  9
$CELTSCALE
 40
1.0
  9
$DISPSILH
 70
     0
  9
$DIMSCALE
 40
1.0
  9
$DIMASZ
 40
2.5
  9
$DIMEXO
 40
0.0
  9
$DIMDLI
 40
3.75
  9
$DIMRND
 40
0.0
  9
$DIMDLE
 40
0.0
  9
$DIMEXE
 40
1.25
  9
$DIMTP
 40
0.0
  9
$DIMTM
 40
0.0
  9
$DIMTXT
 40
3.5
  9
$DIMCEN
 40
0.0
  9
$DIMTSZ
 40
0.0
  9
$DIMTOL
 70
     0
  9
$DIMLIM
 70
     0
  9
$DIMTIH
 70
     0
  9
$DIMTOH
 70
     0
  9
$DIMSE1
 70
     0
  9
$DIMSE2
 70
     0
  9
$DIMTAD
 70
     1
  9
$DIMZIN
 70
     8
  9
$DIMBLK
  1

  9
$DIMASO
 70
     1
  9
$DIMSHO
 70
     1
  9
$DIMPOST
  1

  9
$DIMAPOST
  1

  9
$DIMALT
 70
     0
  9
$DIMALTD
 70
     3
  9
$DIMALTF
 40
0.039370078
  9
$DIMLFAC
 40
1.0
  9
$DIMTOFL
 70
     0
  9
$DIMTVP
 40
0.0
  9
$DIMTIX
 70
     0
  9
$DIMSOXD
 70
     0
  9
$DIMSAH
 70
     0
  9
$DIMBLK1
  1

  9
$DIMBLK2
  1

  9
$DIMSTYLE
  2
STANDARD
  9
$DIMCLRD
 70
     0
  9
$DIMCLRE
 70
     0
  9
$DIMCLRT
 70
     0
  9
$DIMTFAC
 40
1.0
  9
$DIMGAP
 40
0.625
  9
$DIMJUST
 70
     0
  9
$DIMSD1
 70
     0
  9
$DIMSD2
 70
     0
  9
$DIMTOLJ
 70
     0
  9
$DIMTZIN
 70
     8
  9
$DIMALTZ
 70
     0
  9
$DIMALTTZ
 70
     0
  9
$DIMUPT
 70
     0
  9
$DIMDEC
 70
     2
  9
$DIMTDEC
 70
     2
  9
$DIMALTU
 70
     2
  9
$DIMALTTD
 70
     3
  9
$DIMTXSTY
  7
SIMPLEX
  9
$DIMAUNIT
 70
     0
  9
$DIMADEC
 70
     2
  9
$DIMALTRND
 40
0.0
  9
$DIMAZIN
 70
     2
  9
$DIMDSEP
 70
    46
  9
$DIMATFIT
 70
     3
  9
$DIMFRAC
 70
     0
  9
$DIMLDRBLK
  1

  9
$DIMLUNIT
 70
     2
  9
$DIMLWD
 70
    -2
  9
$DIMLWE
 70
    -2
  9
$DIMTMOVE
 70
     0
  9
$LUNITS
 70
     2
  9
$LUPREC
 70
     4
  9
$SKETCHINC
 40
1.0
  9
$FILLETRAD
 40
0.0
  9
$AUNITS
 70
     0
  9
$AUPREC
 70
     0
  9
$MENU
  1
c:\tdm21\cad\caduti13\tdm13
  9
$ELEVATION
 40
0.0
  9
$PELEVATION
 40
0.0
  9
$THICKNESS
 40
0.0
  9
$LIMCHECK
 70
     0
  9
$CHAMFERA
 40
0.0
  9
$CHAMFERB
 40
0.0
  9
$CHAMFERC
 40
0.0
  9
$CHAMFERD
 40
0.0
  9
$SKPOLY
 70
     0
  9
$TDCREATE
 40
2454957.593642639
  9
$TDUCREATE
 40
2454957.510309306
  9
$TDUPDATE
 40
2456860.759002222
  9
$TDUUPDATE
 40
2456860.675668889
  9
$TDINDWG
 40
0.0009643519
  9
$TDUSRTIMER
 40
0.0009475231
  9
$USRTIMER
 70
     1
  9
$ANGBASE
 50
0.0
  9
$ANGDIR
 70
     0
  9
$PDMODE
 70
     1
  9
$PDSIZE
 40
0.0
  9
$PLINEWID
 40
0.0
  9
$SPLFRAME
 70
     0
  9
$SPLINETYPE
 70
     6
  9
$SPLINESEGS
 70
     8
  9
$HANDSEED
  5
6B5
  9
$SURFTAB1
 70
     6
  9
$SURFTAB2
 70
     6
  9
$SURFTYPE
 70
     6
  9
$SURFU
 70
     6
  9
$SURFV
 70
     6
  9
$UCSBASE
  2

  9
$UCSNAME
  2

  9
$UCSORG
 10
0.0
 20
0.0
 30
0.0
  9
$UCSXDIR
 10
1.0
 20
0.0
 30
0.0
  9
$UCSYDIR
 10
0.0
 20
1.0
 30
0.0
  9
$UCSORTHOREF
  2

  9
$UCSORTHOVIEW
 70
     0
  9
$UCSORGTOP
 10
0.0
 20
0.0
 30
0.0
  9
$UCSORGBOTTOM
 10
0.0
 20
0.0
 30
0.0
  9
$UCSORGLEFT
 10
0.0
 20
0.0
 30
0.0
  9
$UCSORGRIGHT
 10
0.0
 20
0.0
 30
0.0
  9
$UCSORGFRONT
 10
0.0
 20
0.0
 30
0.0
  9
$UCSORGBACK
 10
0.0
 20
0.0
 30
0.0
  9
$PUCSBASE
  2

  9
$PUCSNAME
  2

  9
$PUCSORG
 10
0.0
 20
0.0
 30
0.0
  9
$PUCSXDIR
 10
1.0
 20
0.0
 30
0.0
  9
$PUCSYDIR
 10
0.0
 20
1.0
 30
0.0
  9
$PUCSORTHOREF
  2

  9
$PUCSORTHOVIEW
 70
     0
  9
$PUCSORGTOP
 10
0.0
 20
0.0
 30
0.0
  9
$PUCSORGBOTTOM
 10
0.0
 20
0.0
 30
0.0
  9
$PUCSORGLEFT
 10
0.0
 20
0.0
 30
0.0
  9
$PUCSORGRIGHT
 10
0.0
 20
0.0
 30
0.0
  9
$PUCSORGFRONT
 10
0.0
 20
0.0
 30
0.0
  9
$PUCSORGBACK
 10
0.0
 20
0.0
 30
0.0
  9
$USERI1
 70
     0
  9
$USERI2
 70
     0
  9
$USERI3
 70
     0
  9
$USERI4
 70
     0
  9
$USERI5
 70
     0
  9
$USERR1
 40
0.0
  9
$USERR2
 40
0.0
  9
$USERR3
 40
0.0
  9
$USERR4
 40
0.0
  9
$USERR5
 40
0.0
  9
$WORLDVIEW
 70
     1
  9
$SHADEDGE
 70
     3
  9
$SHADEDIF
 70
    70
  9
$TILEMODE
 70
     1
  9
$MAXACTVP
 70
    64
  9
$PINSBASE
 10
0.0
 20
0.0
 30
0.0
  9
$PLIMCHECK
 70
     0
  9
$PEXTMIN
 10
0.0
 20
0.0
 30
0.0
  9
$PEXTMAX
 10
0.0
 20
0.0
 30
0.0
  9
$PLIMMIN
 10
0.0
 20
0.0
  9
$PLIMMAX
 10
12.0
 20
9.0
  9
$UNITMODE
 70
     0
  9
$VISRETAIN
 70
     0
  9
$PLINEGEN
 70
     0
  9
$PSLTSCALE
 70
     1
  9
$TREEDEPTH
 70
  3020
  9
$CMLSTYLE
  2
STANDARD
  9
$CMLJUST
 70
     0
  9
$CMLSCALE
 40
20.0
  9
$PROXYGRAPHICS
 70
     1
  9
$MEASUREMENT
 70
     1
  9
$CELWEIGHT
370
    -1
  9
$ENDCAPS
280
     0
  9
$JOINSTYLE
280
     0
  9
$LWDISPLAY
290
     0
  9
$INSUNITS
 70
     4
  9
$HYPERLINKBASE
  1

  9
$STYLESHEET
  1
MONOCHROME.CTB
  9
$XEDIT
290
     1
  9
$CEPSNTYPE
380
     0
  9
$PSTYLEMODE
290
     1
  9
$FINGERPRINTGUID
  2
{46B44192-1510-48B1-B61B-CBE2ADA013A7}
  9
$VERSIONGUID
  2
{6160D478-9A74-4C97-9D8A-D4A65CE74B12}
  9
$EXTNAMES
290
     1
  9
$PSVPSCALE
 40
0.0
  9
$OLESTARTUP
290
     0
  0
ENDSEC
  0
SECTION
  2
CLASSES
  0
CLASS
  1
ACDBDICTIONARYWDFLT
  2
AcDbDictionaryWithDefault
  3
ObjectDBX Classes
 90
        0
280
     0
281
     0
  0
CLASS
  1
ACDBPLACEHOLDER
  2
AcDbPlaceHolder
  3
ObjectDBX Classes
 90
        0
280
     0
281
     0
  0
CLASS
  1
LAYOUT
  2
AcDbLayout
  3
ObjectDBX Classes
 90
        0
280
     0
281
     0
  0
CLASS
  1
DICTIONARYVAR
  2
AcDbDictionaryVar
  3
ObjectDBX Classes
 90
        0
280
     0
281
     0
  0
CLASS
  1
TABLESTYLE
  2
AcDbTableStyle
  3
ObjectDBX Classes
 90
     4095
280
     0
281
     0
  0
CLASS
  1
SCALE
  2
AcDbScale
  3
ObjectDBX Classes
 90
     1153
280
     0
281
     0
  0
CLASS
  1
MATERIAL
  2
AcDbMaterial
  3
ObjectDBX Classes
 90
     1153
280
     0
281
     0
  0
CLASS
  1
VISUALSTYLE
  2
AcDbVisualStyle
  3
ObjectDBX Classes
 90
     4095
280
     0
281
     0
  0
ENDSEC
  0
SECTION
  2
TABLES
  0
TABLE
  2
VPORT
  5
8
330
0
100
AcDbSymbolTable
 70
     1
  0
VPORT
  5
39A
330
8
100
AcDbSymbolTableRecord
100
AcDbViewportTableRecord
  2
*Active
 70
     0
 10
0.0
 20
0.0
 11
1.0
 21
1.0
 12
218.9201881351169
 22
109.7549380673833
 13
0.0
 23
0.0
 14
5.0
 24
5.0
 15
5.0
 25
5.0
 16
0.0
 26
0.0
 36
1.0
 17
0.0
 27
0.0
 37
0.0
 40
564.6711112651689
 41
1.066073697585768
 42
50.0
 43
0.0
 44
0.0
 50
0.0
 51
0.0
 71
     0
 72
  2000
 73
     1
 74
     1
 75
     0
 76
     0
 77
     0
 78
     0
281
     0
 65
     1
110
0.0
120
0.0
130
0.0
111
1.0
121
0.0
131
0.0
112
0.0
122
1.0
132
0.0
 79
     0
146
0.0
  0
ENDTAB
  0
TABLE
  2
LTYPE
  5
5
330
0
100
AcDbSymbolTable
 70
     3
  0
LTYPE
  5
12
330
5
100
AcDbSymbolTableRecord
100
AcDbLinetypeTableRecord
  2
BYBLOCK
 70
     0
  3

 72
    65
 73
     0
 40
0.0
  0
LTYPE
  5
13
330
5
100
AcDbSymbolTableRecord
100
AcDbLinetypeTableRecord
  2
BYLAYER
 70
     0
  3

 72
    65
 73
     0
 40
0.0
  0
LTYPE
  5
14
330
5
100
AcDbSymbolTableRecord
100
AcDbLinetypeTableRecord
  2
CONTINUOUS
 70
     0
  3
Solid line
 72
    65
 73
     0
 40
0.0
  0
LTYPE
  5
20
330
5
100
AcDbSymbolTableRecord
100
AcDbLinetypeTableRecord
  2
HIDDEN
 70
     0
  3
Hidden __ __ __ __ __ __ __ __ __ __ __ __ __ _
 72
    65
 73
     2
 40
9.524999999999997
 49
6.349999999999998
 74
     0
 49
-3.174999999999998
 74
     0
  0
LTYPE
  5
351
330
5
100
AcDbSymbolTableRecord
100
AcDbLinetypeTableRecord
  2
CENTER
 70
     0
  3
Dash dot __ . __ . __ . __ . __ . __ . __ . __
 72
    65
 73
     4
 40
25.4
 49
12.7
 74
     0
 49
-6.349999999999998
 74
     0
 49
0.0
 74
     0
 49
-6.349999999999998
 74
     0
  0
ENDTAB
  0
TABLE
  2
LAYER
  5
2
330
0
100
AcDbSymbolTable
 70
    16
  0
LAYER
  5
F
330
2
100
AcDbSymbolTableRecord
100
AcDbLayerTableRecord
  2
0
 70
     0
 62
     7
  6
CONTINUOUS
370
    -3
390
300
  0
LAYER
  5
23
330
2
100
AcDbSymbolTableRecord
100
AcDbLayerTableRecord
  2
1
 70
     0
 62
     4
  6
CONTINUOUS
370
    -3
390
300
  0
LAYER
  5
24
330
2
100
AcDbSymbolTableRecord
100
AcDbLayerTableRecord
  2
SK1
 70
     0
 62
     4
  6
CONTINUOUS
370
    -3
390
300
  0
LAYER
  5
25
330
2
100
AcDbSymbolTableRecord
100
AcDbLayerTableRecord
  2
2
 70
     0
 62
     7
  6
CONTINUOUS
370
    -3
390
300
  0
LAYER
  5
26
330
2
100
AcDbSymbolTableRecord
100
AcDbLayerTableRecord
  2
2L
 70
     0
 62
     7
  6
CONTINUOUS
370
    -3
390
300
  0
LAYER
  5
27
330
2
100
AcDbSymbolTableRecord
100
AcDbLayerTableRecord
  2
SK2
 70
     0
 62
     7
  6
CONTINUOUS
370
    -3
390
300
  0
LAYER
  5
28
330
2
100
AcDbSymbolTableRecord
100
AcDbLayerTableRecord
  2
3
 70
     0
 62
     1
  6
HIDDEN
370
    -3
390
300
  0
LAYER
  5
29
330
2
100
AcDbSymbolTableRecord
100
AcDbLayerTableRecord
  2
SK3
 70
     0
 62
     1
  6
HIDDEN
370
    -3
390
300
  0
LAYER
  5
2A
330
2
100
AcDbSymbolTableRecord
100
AcDbLayerTableRecord
  2
4
 70
     0
 62
     2
  6
CENTER
370
    -3
390
300
  0
LAYER
  5
2B
330
2
100
AcDbSymbolTableRecord
100
AcDbLayerTableRecord
  2
SK4
 70
     0
 62
     2
  6
CENTER
370
    -3
390
300
  0
LAYER
  5
2C
330
2
100
AcDbSymbolTableRecord
100
AcDbLayerTableRecord
  2
5
 70
     0
 62
    -7
  6
CONTINUOUS
370
    -3
390
300
  0
LAYER
  5
2D
330
2
100
AcDbSymbolTableRecord
100
AcDbLayerTableRecord
  2
6
 70
     0
 62
     5
  6
CONTINUOUS
370
    -3
390
300
  0
LAYER
  5
2E
330
2
100
AcDbSymbolTableRecord
100
AcDbLayerTableRecord
  2
SK6
 70
     0
 62
     5
  6
CONTINUOUS
370
    -3
390
300
  0
LAYER
  5
2F
330
2
100
AcDbSymbolTableRecord
100
AcDbLayerTableRecord
  2
DEFPOINTS
 70
     0
 62
     7
  6
CONTINUOUS
290
     0
370
    -3
390
300
  0
LAYER
  5
375
330
2
100
AcDbSymbolTableRecord
100
AcDbLayerTableRecord
  2
CUT
 70
     0
 62
     1
  6
CONTINUOUS
370
    -3
390
300
  0
LAYER
  5
376
330
2
100
AcDbSymbolTableRecord
100
AcDbLayerTableRecord
  2
NOCUT
 70
     0
 62
     7
  6
CONTINUOUS
370
    -3
390
300
  0
ENDTAB
  0
TABLE
  2
STYLE
  5
3
330
0
100
AcDbSymbolTable
 70
     4
  0
STYLE
  5
10
330
3
100
AcDbSymbolTableRecord
100
AcDbTextStyleTableRecord
  2
STANDARD
 70
     0
 40
0.0
 41
1.0
 50
0.0
 71
     0
 42
5.0
  3
txt
  4

  0
STYLE
  5
1D
330
3
100
AcDbSymbolTableRecord
100
AcDbTextStyleTableRecord
  2
TXT
 70
     0
 40
8.0
 41
1.0
 50
0.0
 71
     0
 42
8.0
  3
txt
  4

  0
STYLE
  5
1E
330
3
100
AcDbSymbolTableRecord
100
AcDbTextStyleTableRecord
  2
SIMPLEX
 70
     0
 40
0.0
 41
1.0
 50
0.0
 71
     0
 42
3.5
  3
simplex
  4

  0
STYLE
  5
34C
330
3
100
AcDbSymbolTableRecord
100
AcDbTextStyleTableRecord
  2

 70
     1
 40
0.0
 41
1.0
 50
0.0
 71
     0
 42
2.5
  3
ltypeshp.shx
  4

  0
ENDTAB
  0
TABLE
  2
VIEW
  5
6
330
0
100
AcDbSymbolTable
 70
     0
  0
ENDTAB
  0
TABLE
  2
UCS
  5
7
330
0
100
AcDbSymbolTable
 70
     0
  0
ENDTAB
  0
TABLE
  2
APPID
  5
9
330
0
100
AcDbSymbolTable
 70
     1
  0
APPID
  5
11
330
9
100
AcDbSymbolTableRecord
100
AcDbRegAppTableRecord
  2
ACAD
 70
     0
  0
ENDTAB
  0
TABLE
  2
DIMSTYLE
  5
A
330
0
100
AcDbSymbolTable
 70
     1
100
AcDbDimStyleTable
  0
DIMSTYLE
105
3F
102
{ACAD_REACTORS
330
646
330
654
330
661
330
66F
330
67D
102
}
330
A
100
AcDbSymbolTableRecord
100
AcDbDimStyleTableRecord
  2
STANDARD
 70
     0
 41
2.5
 42
0.0
 43
3.75
 44
1.25
 73
     0
 74
     0
 77
     1
 78
     8
 79
     2
140
3.5
141
0.0
143
0.039370078
147
0.625
171
     3
178
     0
179
     2
271
     2
272
     2
274
     3
283
     0
284
     8
340
1E
  0
ENDTAB
  0
TABLE
  2
BLOCK_RECORD
  5
1
330
0
100
AcDbSymbolTable
 70
     5
  0
BLOCK_RECORD
  5
18
330
1
100
AcDbSymbolTableRecord
100
AcDbBlockTableRecord
  2
*MODEL_SPACE
340
303
  0
BLOCK_RECORD
  5
338
330
1
100
AcDbSymbolTableRecord
100
AcDbBlockTableRecord
  2
*Paper_Space
340
33B
  0
BLOCK_RECORD
  5
647
330
1
100
AcDbSymbolTableRecord
100
AcDbBlockTableRecord
  2
*D0
340
0
  0
BLOCK_RECORD
  5
655
330
1
100
AcDbSymbolTableRecord
100
AcDbBlockTableRecord
  2
*D1
340
0
  0
BLOCK_RECORD
  5
662
330
1
100
AcDbSymbolTableRecord
100
AcDbBlockTableRecord
  2
*D2
340
0
  0
BLOCK_RECORD
  5
670
330
1
100
AcDbSymbolTableRecord
100
AcDbBlockTableRecord
  2
*D3
340
0
  0
BLOCK_RECORD
  5
67E
330
1
100
AcDbSymbolTableRecord
100
AcDbBlockTableRecord
  2
*D4
340
0
  0
ENDTAB
  0
ENDSEC
  0
SECTION
  2
BLOCKS
  0
BLOCK
  5
32
330
18
100
AcDbEntity
  8
0
100
AcDbBlockBegin
  2
*MODEL_SPACE
 70
     0
 10
0.0
 20
0.0
 30
0.0
  3
*MODEL_SPACE
  1

  0
ENDBLK
  5
33
330
18
100
AcDbEntity
  8
0
100
AcDbBlockEnd
  0
BLOCK
  5
339
330
338
100
AcDbEntity
 67
     1
  8
0
100
AcDbBlockBegin
  2
*Paper_Space
 70
     0
 10
0.0
 20
0.0
 30
0.0
  3
*Paper_Space
  1

  0
ENDBLK
  5
33A
330
338
100
AcDbEntity
 67
     1
  8
0
100
AcDbBlockEnd
  0
BLOCK
  5
648
330
647
100
AcDbEntity
  8
0
100
AcDbBlockBegin
  2
*D0
 70
     1
 10
0.0
 20
0.0
 30
0.0
  3
*D0
  1

  0
LINE
  5
64A
330
647
100
AcDbEntity
  8
2
 62
     0
370
    -2
100
AcDbLine
 10
20.0
 20
0.6
 30
0.0
 11
36.25
 21
0.6000000000000568
 31
0.0
  0
LINE
  5
64B
330
647
100
AcDbEntity
  8
2
 62
     0
370
    -2
100
AcDbLine
 10
20.0
 20
-0.6
 30
0.0
 11
36.25000000000001
 21
-0.5999999999999432
 31
0.0
  0
LINE
  5
64C
330
647
100
AcDbEntity
  8
2
 62
     0
370
    -2
100
AcDbLine
 10
35.00000000000002
 20
-3.099999999999948
 30
0.0
 11
35.00000000000011
 21
-17.22049999999994
 31
0.0
  0
LINE
  5
64D
330
647
100
AcDbEntity
  8
2
 62
     0
370
    -2
100
AcDbLine
 10
34.99999999999999
 20
3.100000000000052
 30
0.0
 11
34.99999999999997
 21
5.600000000000053
 31
0.0
  0
SOLID
  5
64E
330
647
100
AcDbEntity
  8
2
 62
     0
100
AcDbTrace
 10
34.58333333333332
 20
3.10000000000005
 30
0.0
 11
35.41666666666665
 21
3.100000000000055
 31
0.0
 12
35.0
 22
0.6000000000000525
 32
0.0
 13
35.0
 23
0.6000000000000525
 33
0.0
  0
SOLID
  5
64F
330
647
100
AcDbEntity
  8
2
 62
     0
100
AcDbTrace
 10
35.41666666666669
 20
-3.099999999999945
 30
0.0
 11
34.58333333333336
 21
-3.09999999999995
 31
0.0
 12
35.00000000000001
 22
-0.5999999999999476
 32
0.0
 13
35.00000000000001
 23
-0.5999999999999476
 33
0.0
  0
MTEXT
  5
650
330
647
100
AcDbEntity
  8
2
 62
     0
100
AcDbMText
 10
32.60225000000007
 20
-11.41024999999996
 30
0.0
 40
3.5
 41
0.0
 71
     5
 72
     1
  1
M1.2
  7
SIMPLEX
 11
-5.921189464667501E-15
 21
1.0
 31
0.0
 73
     1
 44
1.0
  0
POINT
  5
651
330
647
100
AcDbEntity
  8
DEFPOINTS
 62
     0
100
AcDbPoint
 10
20.0
 20
0.6
 30
0.0
  0
POINT
  5
652
330
647
100
AcDbEntity
  8
DEFPOINTS
 62
     0
100
AcDbPoint
 10
20.0
 20
-0.6
 30
0.0
  0
POINT
  5
653
330
647
100
AcDbEntity
  8
DEFPOINTS
 62
     0
100
AcDbPoint
 10
35.00000000000001
 20
-0.5999999999999476
 30
0.0
  0
ENDBLK
  5
649
330
647
100
AcDbEntity
  8
0
100
AcDbBlockEnd
  0
BLOCK
  5
656
330
655
100
AcDbEntity
  8
0
100
AcDbBlockBegin
  2
*D1
 70
     1
 10
0.0
 20
0.0
 30
0.0
  3
*D1
  1

  0
LINE
  5
658
330
655
100
AcDbEntity
  8
2
 62
     0
370
    -2
100
AcDbLine
 10
0.0
 20
0.0
 30
0.0
 11
0.0
 21
76.25
 31
0.0
  0
LINE
  5
659
330
655
100
AcDbEntity
  8
2
 62
     0
370
    -2
100
AcDbLine
 10
20.0
 20
0.0
 30
0.0
 11
20.0
 21
76.25
 31
0.0
  0
LINE
  5
65A
330
655
100
AcDbEntity
  8
2
 62
     0
370
    -2
100
AcDbLine
 10
2.5
 20
75.0
 30
0.0
 11
17.5
 21
75.0
 31
0.0
  0
SOLID
  5
65B
330
655
100
AcDbEntity
  8
2
 62
     0
100
AcDbTrace
 10
2.5
 20
75.41666666666667
 30
0.0
 11
2.5
 21
74.58333333333333
 31
0.0
 12
0.0
 22
75.0
 32
0.0
 13
0.0
 23
75.0
 33
0.0
  0
SOLID
  5
65C
330
655
100
AcDbEntity
  8
2
 62
     0
100
AcDbTrace
 10
17.5
 20
74.58333333333333
 30
0.0
 11
17.5
 21
75.41666666666667
 31
0.0
 12
20.0
 22
75.0
 32
0.0
 13
20.0
 23
75.0
 33
0.0
  0
MTEXT
  5
65D
330
655
100
AcDbEntity
  8
2
 62
     0
100
AcDbMText
 10
10.0
 20
77.39075
 30
0.0
 40
3.5
 41
0.0
 71
     5
 72
     1
  1
20
  7
SIMPLEX
 73
     1
 44
1.0
  0
POINT
  5
65E
330
655
100
AcDbEntity
  8
DEFPOINTS
 62
     0
100
AcDbPoint
 10
0.0
 20
0.0
 30
0.0
  0
POINT
  5
65F
330
655
100
AcDbEntity
  8
DEFPOINTS
 62
     0
100
AcDbPoint
 10
20.0
 20
0.0
 30
0.0
  0
POINT
  5
660
330
655
100
AcDbEntity
  8
DEFPOINTS
 62
     0
100
AcDbPoint
 10
20.0
 20
75.0
 30
0.0
  0
ENDBLK
  5
657
330
655
100
AcDbEntity
  8
0
100
AcDbBlockEnd
  0
BLOCK
  5
663
330
662
100
AcDbEntity
  8
0
100
AcDbBlockBegin
  2
*D2
 70
     1
 10
0.0
 20
0.0
 30
0.0
  3
*D2
  1

  0
LINE
  5
665
330
662
100
AcDbEntity
  8
SK2
 62
     0
370
    -2
100
AcDbLine
 10
-15.47
 20
1.25
 30
0.0
 11
-36.72000000000638
 21
1.249999999891552
 31
0.0
  0
LINE
  5
666
330
662
100
AcDbEntity
  8
SK2
 62
     0
370
    -2
100
AcDbLine
 10
-15.47
 20
-1.25
 30
0.0
 11
-36.71999999999362
 21
-1.250000000108448
 31
0.0
  0
LINE
  5
667
330
662
100
AcDbEntity
  8
SK2
 62
     0
370
    -2
100
AcDbLine
 10
-35.46999999998086
 20
-3.750000000102069
 30
0.0
 11
-35.46999999990608
 21
-18.39900000010207
 31
0.0
  0
LINE
  5
668
330
662
100
AcDbEntity
  8
SK2
 62
     0
370
    -2
100
AcDbLine
 10
-35.47000000001914
 20
3.749999999897931
 30
0.0
 11
-35.4700000000319
 21
6.249999999897931
 31
0.0
  0
SOLID
  5
669
330
662
100
AcDbEntity
  8
SK2
 62
     0
100
AcDbTrace
 10
-35.88666666668581
 20
3.749999999895805
 30
0.0
 11
-35.05333333335248
 21
3.749999999900058
 31
0.0
 12
-35.47000000000638
 22
1.249999999897932
 32
0.0
 13
-35.47000000000638
 23
1.249999999897932
 33
0.0
  0
SOLID
  5
66A
330
662
100
AcDbEntity
  8
SK2
 62
     0
100
AcDbTrace
 10
-35.05333333331419
 20
-3.750000000099942
 30
0.0
 11
-35.88666666664752
 21
-3.750000000104195
 31
0.0
 12
-35.46999999999362
 22
-1.250000000102068
 32
0.0
 13
-35.46999999999362
 23
-1.250000000102068
 33
0.0
  0
MTEXT
  5
66B
330
662
100
AcDbEntity
  8
SK2
 62
     0
100
AcDbMText
 10
-37.86774999993709
 20
-12.32450000011431
 30
0.0
 40
3.5
 41
0.0
 71
     5
 72
     1
  1
%%c2.5
  7
SIMPLEX
 11
-5.104539013700560E-12
 21
1.0
 31
0.0
 73
     1
 44
1.0
  0
POINT
  5
66C
330
662
100
AcDbEntity
  8
DEFPOINTS
 62
     0
100
AcDbPoint
 10
-15.47
 20
1.25
 30
0.0
  0
POINT
  5
66D
330
662
100
AcDbEntity
  8
DEFPOINTS
 62
     0
100
AcDbPoint
 10
-15.47
 20
-1.25
 30
0.0
  0
POINT
  5
66E
330
662
100
AcDbEntity
  8
DEFPOINTS
 62
     0
100
AcDbPoint
 10
-35.46999999999362
 20
-1.250000000102068
 30
0.0
  0
ENDBLK
  5
664
330
662
100
AcDbEntity
  8
0
100
AcDbBlockEnd
  0
BLOCK
  5
671
330
670
100
AcDbEntity
  8
0
100
AcDbBlockBegin
  2
*D3
 70
     1
 10
0.0
 20
0.0
 30
0.0
  3
*D3
  1

  0
LINE
  5
673
330
670
100
AcDbEntity
  8
2
 62
     0
370
    -2
100
AcDbLine
 10
15.0
 20
1.25
 30
0.0
 11
15.0
 21
61.25
 31
0.0
  0
LINE
  5
674
330
670
100
AcDbEntity
  8
2
 62
     0
370
    -2
100
AcDbLine
 10
20.0
 20
0.6
 30
0.0
 11
20.0
 21
61.25
 31
0.0
  0
LINE
  5
675
330
670
100
AcDbEntity
  8
2
 62
     0
370
    -2
100
AcDbLine
 10
12.5
 20
60.0
 30
0.0
 11
10.0
 21
60.0
 31
0.0
  0
LINE
  5
676
330
670
100
AcDbEntity
  8
2
 62
     0
370
    -2
100
AcDbLine
 10
22.5
 20
60.0
 30
0.0
 11
25.0
 21
60.0
 31
0.0
  0
SOLID
  5
677
330
670
100
AcDbEntity
  8
2
 62
     0
100
AcDbTrace
 10
12.5
 20
59.58333333333334
 30
0.0
 11
12.5
 21
60.41666666666666
 31
0.0
 12
15.0
 22
60.0
 32
0.0
 13
15.0
 23
60.0
 33
0.0
  0
SOLID
  5
678
330
670
100
AcDbEntity
  8
2
 62
     0
100
AcDbTrace
 10
22.5
 20
60.41666666666666
 30
0.0
 11
22.5
 21
59.58333333333334
 31
0.0
 12
20.0
 22
60.0
 32
0.0
 13
20.0
 23
60.0
 33
0.0
  0
MTEXT
  5
679
330
670
100
AcDbEntity
  8
2
 62
     0
100
AcDbMText
 10
17.5
 20
62.39075
 30
0.0
 40
3.5
 41
0.0
 71
     5
 72
     1
  1
5
  7
SIMPLEX
 73
     1
 44
1.0
  0
POINT
  5
67A
330
670
100
AcDbEntity
  8
DEFPOINTS
 62
     0
100
AcDbPoint
 10
15.0
 20
1.25
 30
0.0
  0
POINT
  5
67B
330
670
100
AcDbEntity
  8
DEFPOINTS
 62
     0
100
AcDbPoint
 10
20.0
 20
0.6
 30
0.0
  0
POINT
  5
67C
330
670
100
AcDbEntity
  8
DEFPOINTS
 62
     0
100
AcDbPoint
 10
20.0
 20
60.0
 30
0.0
  0
ENDBLK
  5
672
330
670
100
AcDbEntity
  8
0
100
AcDbBlockEnd
  0
BLOCK
  5
67F
330
67E
100
AcDbEntity
  8
0
100
AcDbBlockBegin
  2
*D4
 70
     1
 10
0.0
 20
0.0
 30
0.0
  3
*D4
  1

  0
LINE
  5
681
330
67E
100
AcDbEntity
  8
SK2
 62
     0
370
    -2
100
AcDbLine
 10
-20.47
 20
0.6
 30
0.0
 11
-20.47
 21
91.25
 31
0.0
  0
LINE
  5
682
330
67E
100
AcDbEntity
  8
SK2
 62
     0
370
    -2
100
AcDbLine
 10
20.0
 20
0.6
 30
0.0
 11
20.0
 21
91.25
 31
0.0
  0
LINE
  5
683
330
67E
100
AcDbEntity
  8
SK2
 62
     0
370
    -2
100
AcDbLine
 10
-17.97
 20
90.0
 30
0.0
 11
17.5
 21
90.0
 31
0.0
  0
SOLID
  5
684
330
67E
100
AcDbEntity
  8
SK2
 62
     0
100
AcDbTrace
 10
-17.97
 20
90.41666666666667
 30
0.0
 11
-17.97
 21
89.58333333333333
 31
0.0
 12
-20.47
 22
90.0
 32
0.0
 13
-20.47
 23
90.0
 33
0.0
  0
SOLID
  5
685
330
67E
100
AcDbEntity
  8
SK2
 62
     0
100
AcDbTrace
 10
17.5
 20
89.58333333333333
 30
0.0
 11
17.5
 21
90.41666666666667
 31
0.0
 12
20.0
 22
90.0
 32
0.0
 13
20.0
 23
90.0
 33
0.0
  0
MTEXT
  5
686
330
67E
100
AcDbEntity
  8
SK2
 62
     0
100
AcDbMText
 10
-0.2349999999999994
 20
92.438
 30
0.0
 40
3.5
 41
0.0
 71
     5
 72
     1
  1
40.47
  7
SIMPLEX
 73
     1
 44
1.0
  0
POINT
  5
687
330
67E
100
AcDbEntity
  8
DEFPOINTS
 62
     0
100
AcDbPoint
 10
-20.47
 20
0.6
 30
0.0
  0
POINT
  5
688
330
67E
100
AcDbEntity
  8
DEFPOINTS
 62
     0
100
AcDbPoint
 10
20.0
 20
0.6
 30
0.0
  0
POINT
  5
689
330
67E
100
AcDbEntity
  8
DEFPOINTS
 62
     0
100
AcDbPoint
 10
20.0
 20
90.0
 30
0.0
  0
ENDBLK
  5
680
330
67E
100
AcDbEntity
  8
0
100
AcDbBlockEnd
  0
ENDSEC
  0
SECTION
  2
ENTITIES
  0
LINE
  5
3D6
330
18
100
AcDbEntity
  8
SK4
100
AcDbLine
 10
-22.47
 20
0.0
 30
0.0
 11
15.0
 21
0.0
 31
0.0
  0
LINE
  5
3D7
330
18
100
AcDbEntity
  8
4
100
AcDbLine
 10
13.0
 20
0.0
 30
0.0
 11
22.0
 21
0.0
 31
0.0
  0
LINE
  5
3D8
330
18
100
AcDbEntity
  8
SK4
100
AcDbLine
 10
13.0
 20
0.0
 30
0.0
 11
22.0
 21
0.0
 31
0.0
  0
LINE
  5
3D9
330
18
100
AcDbEntity
  8
1
100
AcDbLine
 10
15.0
 20
-1.234062624018732
 30
0.0
 11
14.875
 21
-1.234062624018732
 31
0.0
  0
LINE
  5
3DA
330
18
100
AcDbEntity
  8
1
100
AcDbLine
 10
14.875
 20
-0.6080382882680984
 30
0.0
 11
15.0
 21
-0.3848607102434098
 31
0.0
  0
LINE
  5
3DB
330
18
100
AcDbEntity
  8
1
100
AcDbLine
 10
15.0
 20
-0.40349375
 30
0.0
 11
14.875
 21
-0.62
 31
0.0
  0
LINE
  5
3DC
330
18
100
AcDbEntity
  8
1
100
AcDbLine
 10
9.000000000000005
 20
-0.2268425109857823
 30
0.0
 11
9.000000000000005
 21
-1.244110348803513
 31
0.0
  0
LINE
  5
3DD
330
18
100
AcDbEntity
  8
1
100
AcDbLine
 10
9.0
 20
-1.244110348803513
 30
0.0
 11
15.0
 21
-1.244110348803513
 31
0.0
  0
LINE
  5
3DE
330
18
100
AcDbEntity
  8
1
100
AcDbLine
 10
9.0
 20
-0.2268425109857822
 30
0.0
 11
15.0
 21
-0.226842510985783
 31
0.0
  0
LINE
  5
3DF
330
18
100
AcDbEntity
  8
1
100
AcDbLine
 10
15.0
 20
1.25
 30
0.0
 11
-0.0000000000000009
 21
1.25
 31
0.0
  0
LINE
  5
3E0
330
18
100
AcDbEntity
  8
1
100
AcDbLine
 10
14.875
 20
-1.234062624018732
 30
0.0
 11
14.875
 21
-0.6080382882680982
 31
0.0
  0
LINE
  5
3E1
330
18
100
AcDbEntity
  8
1
100
AcDbLine
 10
15.0
 20
-0.4034937500000002
 30
0.0
 11
15.0
 21
-1.234062624018722
 31
0.0
  0
LINE
  5
3E2
330
18
100
AcDbEntity
  8
1
100
AcDbLine
 10
15.0
 20
-1.244110348803513
 30
0.0
 11
15.0
 21
-1.234062624018732
 31
0.0
  0
LINE
  5
3E3
330
18
100
AcDbEntity
  8
1
100
AcDbLine
 10
15.0
 20
-1.244110348803513
 30
0.0
 11
15.0
 21
-1.249999998468115
 31
0.0
  0
LINE
  5
3E4
330
18
100
AcDbEntity
  8
1
100
AcDbLine
 10
15.0
 20
1.25
 30
0.0
 11
15.0
 21
1.249610044212988
 31
0.0
  0
LINE
  5
3E5
330
18
100
AcDbEntity
  8
1
100
AcDbLine
 10
15.0
 20
1.249610044212988
 30
0.0
 11
15.0
 21
1.216088111139013
 31
0.0
  0
LINE
  5
3E6
330
18
100
AcDbEntity
  8
1
100
AcDbLine
 10
15.0
 20
1.216088111139013
 30
0.0
 11
15.0
 21
-0.2268425109857877
 31
0.0
  0
LINE
  5
3E7
330
18
100
AcDbEntity
  8
1
100
AcDbLine
 10
15.0
 20
-0.2268425109857877
 30
0.0
 11
15.0
 21
-0.3394606145240666
 31
0.0
  0
LINE
  5
3E8
330
18
100
AcDbEntity
  8
1
100
AcDbLine
 10
15.0
 20
-0.3394606145240715
 30
0.0
 11
15.0
 21
-0.3848607102434098
 31
0.0
  0
LINE
  5
3E9
330
18
100
AcDbEntity
  8
1
100
AcDbLine
 10
15.0
 20
-0.40349375
 30
0.0
 11
15.0
 21
-0.4034896265812265
 31
0.0
  0
LINE
  5
3EA
330
18
100
AcDbEntity
  8
1
100
AcDbLine
 10
15.0
 20
-0.4034896265812265
 30
0.0
 11
15.0
 21
-0.4022674186963372
 31
0.0
  0
LINE
  5
3EB
330
18
100
AcDbEntity
  8
1
100
AcDbLine
 10
15.0
 20
-0.4022674186963372
 30
0.0
 11
15.0
 21
-0.3848607102434098
 31
0.0
  0
LINE
  5
3EC
330
18
100
AcDbEntity
  8
1
100
AcDbLine
 10
-0.000000000000004
 20
-1.25
 30
0.0
 11
15.0
 21
-1.25
 31
0.0
  0
LINE
  5
3ED
330
18
100
AcDbEntity
  8
1
 62
     1
100
AcDbLine
 10
20.0
 20
0.0130054329476209
 30
0.0
 11
20.0
 21
0.40349375
 31
0.0
  0
LINE
  5
3EE
330
18
100
AcDbEntity
  8
1
 62
     1
100
AcDbLine
 10
20.00000000000001
 20
0.0130054329476216
 30
0.0
 11
20.0
 21
-0.3394606145240666
 31
0.0
  0
LINE
  5
3EF
330
18
100
AcDbEntity
  8
1
 62
     1
100
AcDbLine
 10
20.0
 20
-0.3848607102434098
 30
0.0
 11
20.0
 21
-0.3394606145240666
 31
0.0
  0
LINE
  5
3F0
330
18
100
AcDbEntity
  8
1
 62
     1
100
AcDbLine
 10
20.0
 20
-0.40349375
 30
0.0
 11
20.0
 21
-0.4034896265812265
 31
0.0
  0
LINE
  5
3F1
330
18
100
AcDbEntity
  8
1
 62
     1
100
AcDbLine
 10
20.0
 20
-0.4034896265812265
 30
0.0
 11
20.0
 21
-0.4022674186963373
 31
0.0
  0
LINE
  5
3F2
330
18
100
AcDbEntity
  8
1
 62
     1
100
AcDbLine
 10
20.0
 20
-0.4022674186963373
 30
0.0
 11
20.0
 21
-0.3848607102434098
 31
0.0
  0
LINE
  5
3F3
330
18
100
AcDbEntity
  8
1
 62
     1
100
AcDbLine
 10
19.79918638172094
 20
0.4886870224597547
 30
0.0
 11
19.95942250410467
 21
0.4737760017654922
 31
0.0
  0
LINE
  5
3F4
330
18
100
AcDbEntity
  8
1
 62
     1
100
AcDbLine
 10
16.61345298923241
 20
0.5999999999999999
 30
0.0
 11
16.63654701076758
 21
0.5999999999999999
 31
0.0
  0
LINE
  5
3F5
330
18
100
AcDbEntity
  8
1
 62
     1
100
AcDbLine
 10
16.86345298923241
 20
0.6
 30
0.0
 11
16.88654701076759
 21
0.6
 31
0.0
  0
LINE
  5
3F6
330
18
100
AcDbEntity
  8
1
 62
     1
100
AcDbLine
 10
15.86345298923242
 20
0.6
 30
0.0
 11
15.88654701076759
 21
0.6000000000000001
 31
0.0
  0
LINE
  5
3F7
330
18
100
AcDbEntity
  8
1
 62
     1
100
AcDbLine
 10
15.36345298923242
 20
0.6
 30
0.0
 11
15.38654701076759
 21
0.6
 31
0.0
  0
LINE
  5
3F8
330
18
100
AcDbEntity
  8
1
 62
     1
100
AcDbLine
 10
15.11345298923242
 20
0.6
 30
0.0
 11
15.13654701076759
 21
0.6
 31
0.0
  0
LINE
  5
3F9
330
18
100
AcDbEntity
  8
1
 62
     1
100
AcDbLine
 10
20.0
 20
-0.40349375
 30
0.0
 11
19.95942250410467
 21
-0.4737760017655017
 31
0.0
  0
LINE
  5
3FA
330
18
100
AcDbEntity
  8
1
 62
     1
100
AcDbLine
 10
19.08742656683325
 20
-0.5549209350835267
 30
0.0
 11
19.0
 21
-0.40349375
 31
0.0
  0
LINE
  5
3FB
330
18
100
AcDbEntity
  8
1
 62
     1
100
AcDbLine
 10
19.25
 20
-0.40349375
 30
0.0
 11
19.16684002014085
 21
-0.5475309931150354
 31
0.0
  0
LINE
  5
3FC
330
18
100
AcDbEntity
  8
1
 62
     1
100
AcDbLine
 10
19.32467983846248
 20
-0.5328429642089378
 30
0.0
 11
19.25
 21
-0.40349375
 31
0.0
  0
LINE
  5
3FD
330
18
100
AcDbEntity
  8
1
 62
     1
100
AcDbLine
 10
19.75
 20
-0.40349375
 30
0.0
 11
19.69522834278341
 21
-0.4983609988820027
 31
0.0
  0
LINE
  5
3FE
330
18
100
AcDbEntity
  8
1
 62
     1
100
AcDbLine
 10
17.11345298923241
 20
-0.6000000000000025
 30
0.0
 11
17.0
 21
-0.40349375
 31
0.0
  0
LINE
  5
3FF
330
18
100
AcDbEntity
  8
1
 62
     1
100
AcDbLine
 10
19.75
 20
-0.3848607102434098
 30
0.0
 11
19.79918638172094
 21
-0.4734190172781248
 31
0.0
  0
LINE
  5
400
330
18
100
AcDbEntity
  8
1
 62
     1
100
AcDbLine
 10
19.79918638172094
 20
-0.4886870224597601
 30
0.0
 11
19.75
 21
-0.40349375
 31
0.0
  0
LINE
  5
401
330
18
100
AcDbEntity
  8
1
 62
     1
100
AcDbLine
 10
19.79918638172094
 20
-0.4734190172781194
 30
0.0
 11
19.79918638172094
 21
-0.4886870224597547
 31
0.0
  0
LINE
  5
402
330
18
100
AcDbEntity
  8
1
 62
     1
100
AcDbLine
 10
19.95942250410467
 20
-0.4580112005714532
 30
0.0
 11
20.0
 21
-0.3848607102434098
 31
0.0
  0
LINE
  5
403
330
18
100
AcDbEntity
  8
1
 62
     1
100
AcDbLine
 10
19.95942250410467
 20
-0.458011200571444
 30
0.0
 11
19.95942250410467
 21
-0.4737760017654922
 31
0.0
  0
LINE
  5
404
330
18
100
AcDbEntity
  8
1
 62
     1
100
AcDbLine
 10
19.0
 20
-0.3848607102434098
 30
0.0
 11
19.08742656683325
 21
-0.5415235952329085
 31
0.0
  0
LINE
  5
405
330
18
100
AcDbEntity
  8
1
 62
     1
100
AcDbLine
 10
19.0
 20
-0.40349375
 30
0.0
 11
19.0
 21
-0.4034896265812265
 31
0.0
  0
LINE
  5
406
330
18
100
AcDbEntity
  8
1
 62
     1
100
AcDbLine
 10
19.0
 20
-0.4034896265812265
 30
0.0
 11
19.0
 21
-0.4022674186963372
 31
0.0
  0
LINE
  5
407
330
18
100
AcDbEntity
  8
1
 62
     1
100
AcDbLine
 10
19.0
 20
-0.4022674186963372
 30
0.0
 11
19.0
 21
-0.3848607102434098
 31
0.0
  0
LINE
  5
408
330
18
100
AcDbEntity
  8
1
 62
     1
100
AcDbLine
 10
19.08742656683325
 20
-0.5415235952328776
 30
0.0
 11
19.08742656683325
 21
-0.5549209350835204
 31
0.0
  0
LINE
  5
409
330
18
100
AcDbEntity
  8
1
 62
     1
100
AcDbLine
 10
18.90264585881959
 20
-0.5591308132079741
 30
0.0
 11
19.0
 21
-0.3848607102434098
 31
0.0
  0
LINE
  5
40A
330
18
100
AcDbEntity
  8
1
 62
     1
100
AcDbLine
 10
18.90264585881959
 20
-0.5591308132079134
 30
0.0
 11
18.90264585881959
 21
-0.5721159902315347
 31
0.0
  0
LINE
  5
40B
330
18
100
AcDbEntity
  8
1
 62
     1
100
AcDbLine
 10
19.0
 20
-0.40349375
 30
0.0
 11
18.90264585881959
 21
-0.5721159902315364
 31
0.0
  0
LINE
  5
40C
330
18
100
AcDbEntity
  8
1
 62
     1
100
AcDbLine
 10
19.16684002014085
 20
-0.5339482638060883
 30
0.0
 11
19.25
 21
-0.3848607102434098
 31
0.0
  0
LINE
  5
40D
330
18
100
AcDbEntity
  8
1
 62
     1
100
AcDbLine
 10
19.16684002014085
 20
-0.5339482638060618
 30
0.0
 11
19.16684002014085
 21
-0.5475309931150245
 31
0.0
  0
LINE
  5
40E
330
18
100
AcDbEntity
  8
1
 62
     1
100
AcDbLine
 10
19.25
 20
-0.3848607102434098
 30
0.0
 11
19.32467983846248
 21
-0.5188758854552471
 31
0.0
  0
LINE
  5
40F
330
18
100
AcDbEntity
  8
1
 62
     1
100
AcDbLine
 10
19.25
 20
-0.40349375
 30
0.0
 11
19.25
 21
-0.4034896265812265
 31
0.0
  0
LINE
  5
410
330
18
100
AcDbEntity
  8
1
 62
     1
100
AcDbLine
 10
19.25
 20
-0.4034896265812265
 30
0.0
 11
19.25
 21
-0.4022674186963372
 31
0.0
  0
LINE
  5
411
330
18
100
AcDbEntity
  8
1
 62
     1
100
AcDbLine
 10
19.25
 20
-0.4022674186963372
 30
0.0
 11
19.25
 21
-0.3848607102434098
 31
0.0
  0
LINE
  5
412
330
18
100
AcDbEntity
  8
1
 62
     1
100
AcDbLine
 10
19.32467983846248
 20
-0.518875885455235
 30
0.0
 11
19.32467983846248
 21
-0.5328429642089318
 31
0.0
  0
LINE
  5
413
330
18
100
AcDbEntity
  8
1
 62
     1
100
AcDbLine
 10
19.43103418146213
 20
-0.5087072583823422
 30
0.0
 11
19.5
 21
-0.3848607102434098
 31
0.0
  0
LINE
  5
414
330
18
100
AcDbEntity
  8
1
 62
     1
100
AcDbLine
 10
19.43103418146213
 20
-0.5087072583823367
 30
0.0
 11
19.43103418146213
 21
-0.5229459959985132
 31
0.0
  0
LINE
  5
415
330
18
100
AcDbEntity
  8
1
 62
     1
100
AcDbLine
 10
19.5
 20
-0.40349375
 30
0.0
 11
19.43103418146213
 21
-0.522945995998516
 31
0.0
  0
LINE
  5
416
330
18
100
AcDbEntity
  8
1
 62
     1
100
AcDbLine
 10
19.5
 20
-0.3848607102434098
 30
0.0
 11
19.56193311009171
 21
-0.4961768217237044
 31
0.0
  0
LINE
  5
417
330
18
100
AcDbEntity
  8
1
 62
     1
100
AcDbLine
 10
19.5
 20
-0.40349375
 30
0.0
 11
19.5
 21
-0.4034896265812265
 31
0.0
  0
LINE
  5
418
330
18
100
AcDbEntity
  8
1
 62
     1
100
AcDbLine
 10
19.5
 20
-0.4034896265812265
 30
0.0
 11
19.5
 21
-0.4022674186963372
 31
0.0
  0
LINE
  5
419
330
18
100
AcDbEntity
  8
1
 62
     1
100
AcDbLine
 10
19.5
 20
-0.4022674186963372
 30
0.0
 11
19.5
 21
-0.3848607102434098
 31
0.0
  0
LINE
  5
41A
330
18
100
AcDbEntity
  8
1
 62
     1
100
AcDbLine
 10
19.56193311009171
 20
-0.510764993334349
 30
0.0
 11
19.5
 21
-0.40349375
 31
0.0
  0
LINE
  5
41B
330
18
100
AcDbEntity
  8
1
 62
     1
100
AcDbLine
 10
19.56193311009171
 20
-0.4961768217236978
 30
0.0
 11
19.56193311009171
 21
-0.5107649933343432
 31
0.0
  0
LINE
  5
41C
330
18
100
AcDbEntity
  8
1
 62
     1
100
AcDbLine
 10
19.69522834278341
 20
-0.483398640054631
 30
0.0
 11
19.75
 21
-0.3848607102434098
 31
0.0
  0
LINE
  5
41D
330
18
100
AcDbEntity
  8
1
 62
     1
100
AcDbLine
 10
19.6952283427834
 20
-0.4833986400546303
 30
0.0
 11
19.69522834278341
 21
-0.4983609988820024
 31
0.0
  0
LINE
  5
41E
330
18
100
AcDbEntity
  8
1
 62
     1
100
AcDbLine
 10
19.75
 20
-0.40349375
 30
0.0
 11
19.75
 21
-0.4034896265812265
 31
0.0
  0
LINE
  5
41F
330
18
100
AcDbEntity
  8
1
 62
     1
100
AcDbLine
 10
19.75
 20
-0.4034896265812265
 30
0.0
 11
19.75
 21
-0.4022674186963372
 31
0.0
  0
LINE
  5
420
330
18
100
AcDbEntity
  8
1
 62
     1
100
AcDbLine
 10
19.75
 20
-0.4022674186963372
 30
0.0
 11
19.75
 21
-0.3848607102434098
 31
0.0
  0
LINE
  5
421
330
18
100
AcDbEntity
  8
1
 62
     1
100
AcDbLine
 10
19.95942250410468
 20
0.02166951517944
 30
0.0
 11
19.86096543877292
 21
0.0217858323077442
 31
0.0
  0
LINE
  5
422
330
18
100
AcDbEntity
  8
1
 62
     1
100
AcDbLine
 10
19.56193311009171
 20
0.5107649933343432
 30
0.0
 11
19.69522834278341
 21
0.4983609988820024
 31
0.0
  0
LINE
  5
423
330
18
100
AcDbEntity
  8
1
 62
     1
100
AcDbLine
 10
19.43103418146213
 20
0.0195494852068293
 30
0.0
 11
19.32467983846248
 21
0.0182973437352373
 31
0.0
  0
LINE
  5
424
330
18
100
AcDbEntity
  8
1
 62
     1
100
AcDbLine
 10
19.32467983846248
 20
0.5328429642089318
 30
0.0
 11
19.43103418146213
 21
0.5229459959985132
 31
0.0
  0
LINE
  5
425
330
18
100
AcDbEntity
  8
1
 62
     1
100
AcDbLine
 10
19.08742656683325
 20
0.5549209350835203
 30
0.0
 11
19.16684002014085
 21
0.5475309931150244
 31
0.0
  0
LINE
  5
426
330
18
100
AcDbEntity
  8
1
 62
     1
100
AcDbLine
 10
18.85017329520402
 20
0.5769989059581085
 30
0.0
 11
18.90264585881959
 21
0.5721159902315347
 31
0.0
  0
LINE
  5
427
330
18
100
AcDbEntity
  8
1
 62
     1
100
AcDbLine
 10
18.61292002357478
 20
0.5990768768326974
 30
0.0
 11
18.63845169749831
 21
0.5967009873480456
 31
0.0
  0
LINE
  5
428
330
18
100
AcDbEntity
  8
1
 62
     1
100
AcDbLine
 10
18.36345298923241
 20
0.6
 30
0.0
 11
18.38654701076759
 21
0.6
 31
0.0
  0
LINE
  5
429
330
18
100
AcDbEntity
  8
1
 62
     1
100
AcDbLine
 10
18.11345298923241
 20
0.6
 30
0.0
 11
18.13654701076759
 21
0.6000000000000001
 31
0.0
  0
LINE
  5
42A
330
18
100
AcDbEntity
  8
1
 62
     1
100
AcDbLine
 10
18.11345298923241
 20
0.6
 30
0.0
 11
18.11345298923241
 21
0.599852926161708
 31
0.0
  0
LINE
  5
42B
330
18
100
AcDbEntity
  8
1
 62
     1
100
AcDbLine
 10
18.11345298923241
 20
0.599852926161708
 30
0.0
 11
18.11345298923241
 21
0.5872966786755118
 31
0.0
  0
LINE
  5
42C
330
18
100
AcDbEntity
  8
1
 62
     1
100
AcDbLine
 10
18.11345298923241
 20
0.5872966786755118
 30
0.0
 11
18.11345298923241
 21
0.0021254457866441
 31
0.0
  0
LINE
  5
42D
330
18
100
AcDbEntity
  8
1
 62
     1
100
AcDbLine
 10
17.86345298923241
 20
0.6
 30
0.0
 11
17.88654701076758
 21
0.6
 31
0.0
  0
LINE
  5
42E
330
18
100
AcDbEntity
  8
1
 62
     1
100
AcDbLine
 10
17.61345298923241
 20
0.6
 30
0.0
 11
17.63654701076759
 21
0.6
 31
0.0
  0
LINE
  5
42F
330
18
100
AcDbEntity
  8
1
 62
     1
100
AcDbLine
 10
17.38654701076759
 20
0.0021254457866441
 30
0.0
 11
17.36345298923241
 21
0.0021254457866441
 31
0.0
  0
LINE
  5
430
330
18
100
AcDbEntity
  8
1
 62
     1
100
AcDbLine
 10
17.36345298923241
 20
0.6
 30
0.0
 11
17.38654701076759
 21
0.6
 31
0.0
  0
LINE
  5
431
330
18
100
AcDbEntity
  8
1
 62
     1
100
AcDbLine
 10
17.13654701076759
 20
0.0021254457866441
 30
0.0
 11
17.11345298923241
 21
0.0021254457866441
 31
0.0
  0
LINE
  5
432
330
18
100
AcDbEntity
  8
1
 62
     1
100
AcDbLine
 10
17.11345298923241
 20
0.6
 30
0.0
 11
17.13654701076759
 21
0.6
 31
0.0
  0
LINE
  5
433
330
18
100
AcDbEntity
  8
1
 62
     1
100
AcDbLine
 10
17.11345298923241
 20
0.6
 30
0.0
 11
17.11345298923241
 21
0.599852926161708
 31
0.0
  0
LINE
  5
434
330
18
100
AcDbEntity
  8
1
 62
     1
100
AcDbLine
 10
17.11345298923241
 20
0.599852926161708
 30
0.0
 11
17.11345298923241
 21
0.5872966786755118
 31
0.0
  0
LINE
  5
435
330
18
100
AcDbEntity
  8
1
 62
     1
100
AcDbLine
 10
17.11345298923241
 20
0.5872966786755118
 30
0.0
 11
17.11345298923242
 21
0.0021254457866441
 31
0.0
  0
LINE
  5
436
330
18
100
AcDbEntity
  8
1
 62
     1
100
AcDbLine
 10
16.61345298923241
 20
0.6
 30
0.0
 11
16.61345298923241
 21
0.599852926161708
 31
0.0
  0
LINE
  5
437
330
18
100
AcDbEntity
  8
1
 62
     1
100
AcDbLine
 10
16.61345298923241
 20
0.599852926161708
 30
0.0
 11
16.61345298923241
 21
0.5872966786755118
 31
0.0
  0
LINE
  5
438
330
18
100
AcDbEntity
  8
1
 62
     1
100
AcDbLine
 10
16.61345298923241
 20
0.5872966786755118
 30
0.0
 11
16.61345298923241
 21
0.0021254457866441
 31
0.0
  0
LINE
  5
439
330
18
100
AcDbEntity
  8
1
 62
     1
100
AcDbLine
 10
16.38654701076759
 20
0.6
 30
0.0
 11
16.38654701076759
 21
0.599852926161708
 31
0.0
  0
LINE
  5
43A
330
18
100
AcDbEntity
  8
1
 62
     1
100
AcDbLine
 10
16.38654701076759
 20
0.599852926161708
 30
0.0
 11
16.38654701076759
 21
0.5872966786755118
 31
0.0
  0
LINE
  5
43B
330
18
100
AcDbEntity
  8
1
 62
     1
100
AcDbLine
 10
16.38654701076759
 20
0.5872966786755118
 30
0.0
 11
16.38654701076759
 21
0.0021254457866441
 31
0.0
  0
LINE
  5
43C
330
18
100
AcDbEntity
  8
1
 62
     1
100
AcDbLine
 10
16.36345298923241
 20
0.6
 30
0.0
 11
16.38654701076759
 21
0.6
 31
0.0
  0
LINE
  5
43D
330
18
100
AcDbEntity
  8
1
 62
     1
100
AcDbLine
 10
16.36345298923241
 20
0.6
 30
0.0
 11
16.36345298923241
 21
0.599852926161708
 31
0.0
  0
LINE
  5
43E
330
18
100
AcDbEntity
  8
1
 62
     1
100
AcDbLine
 10
16.36345298923241
 20
0.599852926161708
 30
0.0
 11
16.36345298923241
 21
0.5872966786755118
 31
0.0
  0
LINE
  5
43F
330
18
100
AcDbEntity
  8
1
 62
     1
100
AcDbLine
 10
16.36345298923241
 20
0.5872966786755118
 30
0.0
 11
16.36345298923241
 21
0.0021254457866441
 31
0.0
  0
LINE
  5
440
330
18
100
AcDbEntity
  8
1
 62
     1
100
AcDbLine
 10
16.13654701076758
 20
0.0021254457866441
 30
0.0
 11
16.11345298923241
 21
0.0021254457866441
 31
0.0
  0
LINE
  5
441
330
18
100
AcDbEntity
  8
1
 62
     1
100
AcDbLine
 10
16.11345298923241
 20
0.6
 30
0.0
 11
16.13654701076759
 21
0.6
 31
0.0
  0
LINE
  5
442
330
18
100
AcDbEntity
  8
1
 62
     1
100
AcDbLine
 10
15.88654701076759
 20
0.6
 30
0.0
 11
15.88654701076759
 21
0.599852926161708
 31
0.0
  0
LINE
  5
443
330
18
100
AcDbEntity
  8
1
 62
     1
100
AcDbLine
 10
15.88654701076759
 20
0.599852926161708
 30
0.0
 11
15.88654701076759
 21
0.5872966786755118
 31
0.0
  0
LINE
  5
444
330
18
100
AcDbEntity
  8
1
 62
     1
100
AcDbLine
 10
15.88654701076759
 20
0.5872966786755118
 30
0.0
 11
15.88654701076759
 21
0.0021254457866441
 31
0.0
  0
LINE
  5
445
330
18
100
AcDbEntity
  8
1
 62
     1
100
AcDbLine
 10
15.63654701076758
 20
0.0021254457866441
 30
0.0
 11
15.61345298923242
 21
0.0021254457866441
 31
0.0
  0
LINE
  5
446
330
18
100
AcDbEntity
  8
1
 62
     1
100
AcDbLine
 10
15.63654701076759
 20
0.6
 30
0.0
 11
15.63654701076759
 21
0.599852926161708
 31
0.0
  0
LINE
  5
447
330
18
100
AcDbEntity
  8
1
 62
     1
100
AcDbLine
 10
15.63654701076759
 20
0.599852926161708
 30
0.0
 11
15.63654701076759
 21
0.5872966786755118
 31
0.0
  0
LINE
  5
448
330
18
100
AcDbEntity
  8
1
 62
     1
100
AcDbLine
 10
15.63654701076759
 20
0.5872966786755118
 30
0.0
 11
15.63654701076759
 21
0.0021254457866441
 31
0.0
  0
LINE
  5
449
330
18
100
AcDbEntity
  8
1
 62
     1
100
AcDbLine
 10
15.61345298923242
 20
0.6
 30
0.0
 11
15.63654701076759
 21
0.6
 31
0.0
  0
LINE
  5
44A
330
18
100
AcDbEntity
  8
1
 62
     1
100
AcDbLine
 10
17.5
 20
-0.3848607102434098
 30
0.0
 11
17.61345298923241
 21
-0.587631312984594
 31
0.0
  0
LINE
  5
44B
330
18
100
AcDbEntity
  8
1
 62
     1
100
AcDbLine
 10
17.5
 20
-0.40349375
 30
0.0
 11
17.5
 21
-0.4034896265812265
 31
0.0
  0
LINE
  5
44C
330
18
100
AcDbEntity
  8
1
 62
     1
100
AcDbLine
 10
17.5
 20
-0.4034896265812265
 30
0.0
 11
17.5
 21
-0.4022674186963372
 31
0.0
  0
LINE
  5
44D
330
18
100
AcDbEntity
  8
1
 62
     1
100
AcDbLine
 10
17.5
 20
-0.4022674186963372
 30
0.0
 11
17.5
 21
-0.3848607102434098
 31
0.0
  0
LINE
  5
44E
330
18
100
AcDbEntity
  8
1
 62
     1
100
AcDbLine
 10
17.61345298923241
 20
-0.5999999999999963
 30
0.0
 11
17.5
 21
-0.40349375
 31
0.0
  0
LINE
  5
44F
330
18
100
AcDbEntity
  8
1
 62
     1
100
AcDbLine
 10
17.61345298923241
 20
-0.5876313129845949
 30
0.0
 11
17.61345298923241
 21
-0.6
 31
0.0
  0
LINE
  5
450
330
18
100
AcDbEntity
  8
1
 62
     1
100
AcDbLine
 10
17.38654701076759
 20
-0.5876313129845976
 30
0.0
 11
17.5
 21
-0.3848607102434098
 31
0.0
  0
LINE
  5
451
330
18
100
AcDbEntity
  8
1
 62
     1
100
AcDbLine
 10
17.38654701076759
 20
-0.5876313129845949
 30
0.0
 11
17.38654701076759
 21
-0.6
 31
0.0
  0
LINE
  5
452
330
18
100
AcDbEntity
  8
1
 62
     1
100
AcDbLine
 10
17.5
 20
-0.40349375
 30
0.0
 11
17.38654701076759
 21
-0.6000000000000025
 31
0.0
  0
LINE
  5
453
330
18
100
AcDbEntity
  8
1
 62
     1
100
AcDbLine
 10
17.25
 20
-0.3848607102434098
 30
0.0
 11
17.36345298923241
 21
-0.587631312984594
 31
0.0
  0
LINE
  5
454
330
18
100
AcDbEntity
  8
1
 62
     1
100
AcDbLine
 10
17.25
 20
-0.40349375
 30
0.0
 11
17.25
 21
-0.4034896265812265
 31
0.0
  0
LINE
  5
455
330
18
100
AcDbEntity
  8
1
 62
     1
100
AcDbLine
 10
17.25
 20
-0.4034896265812265
 30
0.0
 11
17.25
 21
-0.4022674186963372
 31
0.0
  0
LINE
  5
456
330
18
100
AcDbEntity
  8
1
 62
     1
100
AcDbLine
 10
17.25
 20
-0.4022674186963372
 30
0.0
 11
17.25
 21
-0.3848607102434098
 31
0.0
  0
LINE
  5
457
330
18
100
AcDbEntity
  8
1
 62
     1
100
AcDbLine
 10
17.36345298923241
 20
-0.5999999999999963
 30
0.0
 11
17.25
 21
-0.40349375
 31
0.0
  0
LINE
  5
458
330
18
100
AcDbEntity
  8
1
 62
     1
100
AcDbLine
 10
17.36345298923241
 20
-0.5876313129845949
 30
0.0
 11
17.36345298923241
 21
-0.6
 31
0.0
  0
LINE
  5
459
330
18
100
AcDbEntity
  8
1
 62
     1
100
AcDbLine
 10
17.13654701076759
 20
-0.5876313129845976
 30
0.0
 11
17.25
 21
-0.3848607102434098
 31
0.0
  0
LINE
  5
45A
330
18
100
AcDbEntity
  8
1
 62
     1
100
AcDbLine
 10
17.13654701076759
 20
-0.5876313129845949
 30
0.0
 11
17.13654701076759
 21
-0.6
 31
0.0
  0
LINE
  5
45B
330
18
100
AcDbEntity
  8
1
 62
     1
100
AcDbLine
 10
17.25
 20
-0.40349375
 30
0.0
 11
17.13654701076759
 21
-0.6000000000000025
 31
0.0
  0
LINE
  5
45C
330
18
100
AcDbEntity
  8
1
 62
     1
100
AcDbLine
 10
17.0
 20
-0.3848607102434098
 30
0.0
 11
17.11345298923241
 21
-0.5876313129845976
 31
0.0
  0
LINE
  5
45D
330
18
100
AcDbEntity
  8
1
 62
     1
100
AcDbLine
 10
17.11345298923241
 20
-0.5876313129845949
 30
0.0
 11
17.11345298923241
 21
-0.6
 31
0.0
  0
LINE
  5
45E
330
18
100
AcDbEntity
  8
1
 62
     1
100
AcDbLine
 10
16.88654701076759
 20
-0.5876313129845976
 30
0.0
 11
17.0
 21
-0.3848607102434098
 31
0.0
  0
LINE
  5
45F
330
18
100
AcDbEntity
  8
1
 62
     1
100
AcDbLine
 10
16.88654701076759
 20
-0.5876313129845949
 30
0.0
 11
16.88654701076759
 21
-0.6
 31
0.0
  0
LINE
  5
460
330
18
100
AcDbEntity
  8
1
 62
     1
100
AcDbLine
 10
17.0
 20
-0.40349375
 30
0.0
 11
16.88654701076759
 21
-0.6000000000000025
 31
0.0
  0
LINE
  5
461
330
18
100
AcDbEntity
  8
1
 62
     1
100
AcDbLine
 10
17.0
 20
-0.40349375
 30
0.0
 11
17.0
 21
-0.4034896265812265
 31
0.0
  0
LINE
  5
462
330
18
100
AcDbEntity
  8
1
 62
     1
100
AcDbLine
 10
17.0
 20
-0.4034896265812265
 30
0.0
 11
17.0
 21
-0.4022674186963372
 31
0.0
  0
LINE
  5
463
330
18
100
AcDbEntity
  8
1
 62
     1
100
AcDbLine
 10
17.0
 20
-0.4022674186963372
 30
0.0
 11
17.0
 21
-0.3848607102434098
 31
0.0
  0
LINE
  5
464
330
18
100
AcDbEntity
  8
1
 62
     1
100
AcDbLine
 10
17.88654701076759
 20
-0.5876313129845976
 30
0.0
 11
18.0
 21
-0.3848607102434098
 31
0.0
  0
LINE
  5
465
330
18
100
AcDbEntity
  8
1
 62
     1
100
AcDbLine
 10
17.88654701076759
 20
-0.5876313129845949
 30
0.0
 11
17.88654701076759
 21
-0.6
 31
0.0
  0
LINE
  5
466
330
18
100
AcDbEntity
  8
1
 62
     1
100
AcDbLine
 10
18.0
 20
-0.40349375
 30
0.0
 11
17.88654701076759
 21
-0.6000000000000025
 31
0.0
  0
LINE
  5
467
330
18
100
AcDbEntity
  8
1
 62
     1
100
AcDbLine
 10
18.63845169749831
 20
-0.5842624652518218
 30
0.0
 11
18.75
 21
-0.3848607102434098
 31
0.0
  0
LINE
  5
468
330
18
100
AcDbEntity
  8
1
 62
     1
100
AcDbLine
 10
18.63845169749831
 20
-0.5842624653048151
 30
0.0
 11
18.63845169749831
 21
-0.5967009873480456
 31
0.0
  0
LINE
  5
469
330
18
100
AcDbEntity
  8
1
 62
     1
100
AcDbLine
 10
18.75
 20
-0.40349375
 30
0.0
 11
18.63845169749831
 21
-0.5967009873480497
 31
0.0
  0
LINE
  5
46A
330
18
100
AcDbEntity
  8
1
 62
     1
100
AcDbLine
 10
18.75
 20
-0.3848607102434098
 30
0.0
 11
18.85017329520402
 21
-0.5641261361405516
 31
0.0
  0
LINE
  5
46B
330
18
100
AcDbEntity
  8
1
 62
     1
100
AcDbLine
 10
18.75
 20
-0.40349375
 30
0.0
 11
18.75
 21
-0.4034896265812265
 31
0.0
  0
LINE
  5
46C
330
18
100
AcDbEntity
  8
1
 62
     1
100
AcDbLine
 10
18.75
 20
-0.4034896265812265
 30
0.0
 11
18.75
 21
-0.4022674186963372
 31
0.0
  0
LINE
  5
46D
330
18
100
AcDbEntity
  8
1
 62
     1
100
AcDbLine
 10
18.75
 20
-0.4022674186963372
 30
0.0
 11
18.75
 21
-0.3848607102434098
 31
0.0
  0
LINE
  5
46E
330
18
100
AcDbEntity
  8
1
 62
     1
100
AcDbLine
 10
18.85017329520402
 20
-0.5769989059581216
 30
0.0
 11
18.75
 21
-0.40349375
 31
0.0
  0
LINE
  5
46F
330
18
100
AcDbEntity
  8
1
 62
     1
100
AcDbLine
 10
18.85017329520402
 20
-0.5641261361405384
 30
0.0
 11
18.85017329520402
 21
-0.5769989059581085
 31
0.0
  0
LINE
  5
470
330
18
100
AcDbEntity
  8
1
 62
     1
100
AcDbLine
 10
18.5
 20
-0.3848607102434098
 30
0.0
 11
18.61292002357478
 21
-0.5866887286761391
 31
0.0
  0
LINE
  5
471
330
18
100
AcDbEntity
  8
1
 62
     1
100
AcDbLine
 10
18.5
 20
-0.40349375
 30
0.0
 11
18.5
 21
-0.4034896265812265
 31
0.0
  0
LINE
  5
472
330
18
100
AcDbEntity
  8
1
 62
     1
100
AcDbLine
 10
18.5
 20
-0.4034896265812265
 30
0.0
 11
18.5
 21
-0.4022674186963372
 31
0.0
  0
LINE
  5
473
330
18
100
AcDbEntity
  8
1
 62
     1
100
AcDbLine
 10
18.5
 20
-0.4022674186963372
 30
0.0
 11
18.5
 21
-0.3848607102434098
 31
0.0
  0
LINE
  5
474
330
18
100
AcDbEntity
  8
1
 62
     1
100
AcDbLine
 10
18.61292002357478
 20
-0.5990768768327043
 30
0.0
 11
18.5
 21
-0.40349375
 31
0.0
  0
LINE
  5
475
330
18
100
AcDbEntity
  8
1
 62
     1
100
AcDbLine
 10
18.61292002357479
 20
-0.5866887286759517
 30
0.0
 11
18.61292002357478
 21
-0.5990768768326974
 31
0.0
  0
LINE
  5
476
330
18
100
AcDbEntity
  8
1
 62
     1
100
AcDbLine
 10
18.38654701076759
 20
-0.5876313129845976
 30
0.0
 11
18.5
 21
-0.3848607102434098
 31
0.0
  0
LINE
  5
477
330
18
100
AcDbEntity
  8
1
 62
     1
100
AcDbLine
 10
18.38654701076759
 20
-0.5876313129844067
 30
0.0
 11
18.38654701076759
 21
-0.6
 31
0.0
  0
LINE
  5
478
330
18
100
AcDbEntity
  8
1
 62
     1
100
AcDbLine
 10
18.5
 20
-0.40349375
 30
0.0
 11
18.38654701076759
 21
-0.6000000000000025
 31
0.0
  0
LINE
  5
479
330
18
100
AcDbEntity
  8
1
 62
     1
100
AcDbLine
 10
17.63654701076759
 20
-0.5876313129845976
 30
0.0
 11
17.75
 21
-0.3848607102434098
 31
0.0
  0
LINE
  5
47A
330
18
100
AcDbEntity
  8
1
 62
     1
100
AcDbLine
 10
17.63654701076759
 20
-0.5876313129845949
 30
0.0
 11
17.63654701076759
 21
-0.6
 31
0.0
  0
LINE
  5
47B
330
18
100
AcDbEntity
  8
1
 62
     1
100
AcDbLine
 10
17.75
 20
-0.40349375
 30
0.0
 11
17.63654701076759
 21
-0.6000000000000025
 31
0.0
  0
LINE
  5
47C
330
18
100
AcDbEntity
  8
1
 62
     1
100
AcDbLine
 10
17.75
 20
-0.3848607102434098
 30
0.0
 11
17.86345298923241
 21
-0.5876313129845976
 31
0.0
  0
LINE
  5
47D
330
18
100
AcDbEntity
  8
1
 62
     1
100
AcDbLine
 10
17.75
 20
-0.40349375
 30
0.0
 11
17.75
 21
-0.4034896265812265
 31
0.0
  0
LINE
  5
47E
330
18
100
AcDbEntity
  8
1
 62
     1
100
AcDbLine
 10
17.75
 20
-0.4034896265812265
 30
0.0
 11
17.75
 21
-0.4022674186963372
 31
0.0
  0
LINE
  5
47F
330
18
100
AcDbEntity
  8
1
 62
     1
100
AcDbLine
 10
17.75
 20
-0.4022674186963372
 30
0.0
 11
17.75
 21
-0.3848607102434098
 31
0.0
  0
LINE
  5
480
330
18
100
AcDbEntity
  8
1
 62
     1
100
AcDbLine
 10
17.86345298923241
 20
-0.6000000000000025
 30
0.0
 11
17.75
 21
-0.40349375
 31
0.0
  0
LINE
  5
481
330
18
100
AcDbEntity
  8
1
 62
     1
100
AcDbLine
 10
17.86345298923242
 20
-0.5876313129845949
 30
0.0
 11
17.86345298923241
 21
-0.6
 31
0.0
  0
LINE
  5
482
330
18
100
AcDbEntity
  8
1
 62
     1
100
AcDbLine
 10
18.25
 20
-0.3848607102434098
 30
0.0
 11
18.36345298923241
 21
-0.587631312984594
 31
0.0
  0
LINE
  5
483
330
18
100
AcDbEntity
  8
1
 62
     1
100
AcDbLine
 10
18.25
 20
-0.40349375
 30
0.0
 11
18.25
 21
-0.4034896265812265
 31
0.0
  0
LINE
  5
484
330
18
100
AcDbEntity
  8
1
 62
     1
100
AcDbLine
 10
18.25
 20
-0.4034896265812265
 30
0.0
 11
18.25
 21
-0.4022674186963372
 31
0.0
  0
LINE
  5
485
330
18
100
AcDbEntity
  8
1
 62
     1
100
AcDbLine
 10
18.25
 20
-0.4022674186963372
 30
0.0
 11
18.25
 21
-0.3848607102434098
 31
0.0
  0
LINE
  5
486
330
18
100
AcDbEntity
  8
1
 62
     1
100
AcDbLine
 10
18.36345298923241
 20
-0.5999999999999963
 30
0.0
 11
18.25
 21
-0.40349375
 31
0.0
  0
LINE
  5
487
330
18
100
AcDbEntity
  8
1
 62
     1
100
AcDbLine
 10
18.13654701076759
 20
-0.5876313129845976
 30
0.0
 11
18.25
 21
-0.3848607102434098
 31
0.0
  0
LINE
  5
488
330
18
100
AcDbEntity
  8
1
 62
     1
100
AcDbLine
 10
18.13654701076759
 20
-0.5876313129845949
 30
0.0
 11
18.13654701076759
 21
-0.6
 31
0.0
  0
LINE
  5
489
330
18
100
AcDbEntity
  8
1
 62
     1
100
AcDbLine
 10
18.25
 20
-0.40349375
 30
0.0
 11
18.13654701076759
 21
-0.6000000000000025
 31
0.0
  0
LINE
  5
48A
330
18
100
AcDbEntity
  8
1
 62
     1
100
AcDbLine
 10
18.0
 20
-0.3848607102434098
 30
0.0
 11
18.11345298923241
 21
-0.587631312984594
 31
0.0
  0
LINE
  5
48B
330
18
100
AcDbEntity
  8
1
 62
     1
100
AcDbLine
 10
18.0
 20
-0.40349375
 30
0.0
 11
18.0
 21
-0.4034896265812265
 31
0.0
  0
LINE
  5
48C
330
18
100
AcDbEntity
  8
1
 62
     1
100
AcDbLine
 10
18.0
 20
-0.4034896265812265
 30
0.0
 11
18.0
 21
-0.4022674186963372
 31
0.0
  0
LINE
  5
48D
330
18
100
AcDbEntity
  8
1
 62
     1
100
AcDbLine
 10
18.0
 20
-0.4022674186963372
 30
0.0
 11
18.0
 21
-0.3848607102434098
 31
0.0
  0
LINE
  5
48E
330
18
100
AcDbEntity
  8
1
 62
     1
100
AcDbLine
 10
18.11345298923241
 20
-0.5999999999999963
 30
0.0
 11
18.0
 21
-0.40349375
 31
0.0
  0
LINE
  5
48F
330
18
100
AcDbEntity
  8
1
 62
     1
100
AcDbLine
 10
18.11345298923241
 20
-0.5876313129845949
 30
0.0
 11
18.11345298923241
 21
-0.6
 31
0.0
  0
LINE
  5
490
330
18
100
AcDbEntity
  8
1
 62
     1
100
AcDbLine
 10
16.75
 20
-0.3848607102434098
 30
0.0
 11
16.86345298923241
 21
-0.587631312984594
 31
0.0
  0
LINE
  5
491
330
18
100
AcDbEntity
  8
1
 62
     1
100
AcDbLine
 10
16.75
 20
-0.40349375
 30
0.0
 11
16.75
 21
-0.4034896265812265
 31
0.0
  0
LINE
  5
492
330
18
100
AcDbEntity
  8
1
 62
     1
100
AcDbLine
 10
16.75
 20
-0.4034896265812265
 30
0.0
 11
16.75
 21
-0.4022674186963372
 31
0.0
  0
LINE
  5
493
330
18
100
AcDbEntity
  8
1
 62
     1
100
AcDbLine
 10
16.75
 20
-0.4022674186963372
 30
0.0
 11
16.75
 21
-0.3848607102434098
 31
0.0
  0
LINE
  5
494
330
18
100
AcDbEntity
  8
1
 62
     1
100
AcDbLine
 10
16.86345298923241
 20
-0.5999999999999963
 30
0.0
 11
16.75
 21
-0.40349375
 31
0.0
  0
LINE
  5
495
330
18
100
AcDbEntity
  8
1
 62
     1
100
AcDbLine
 10
16.86345298923241
 20
-0.5876313129845949
 30
0.0
 11
16.86345298923241
 21
-0.6
 31
0.0
  0
LINE
  5
496
330
18
100
AcDbEntity
  8
1
 62
     1
100
AcDbLine
 10
15.0
 20
-0.3848607102434098
 30
0.0
 11
15.11345298923242
 21
-0.5876313129846
 31
0.0
  0
LINE
  5
497
330
18
100
AcDbEntity
  8
1
 62
     1
100
AcDbLine
 10
15.11345298923242
 20
-0.6000000000000058
 30
0.0
 11
15.0
 21
-0.40349375
 31
0.0
  0
LINE
  5
498
330
18
100
AcDbEntity
  8
1
 62
     1
100
AcDbLine
 10
15.11345298923242
 20
-0.5876313129844067
 30
0.0
 11
15.11345298923242
 21
-0.6
 31
0.0
  0
LINE
  5
499
330
18
100
AcDbEntity
  8
1
 62
     1
100
AcDbLine
 10
15.13654701076759
 20
-0.5876313129845947
 30
0.0
 11
15.25
 21
-0.3848607102434098
 31
0.0
  0
LINE
  5
49A
330
18
100
AcDbEntity
  8
1
 62
     1
100
AcDbLine
 10
15.25
 20
-0.40349375
 30
0.0
 11
15.13654701076759
 21
-0.5999999999999991
 31
0.0
  0
LINE
  5
49B
330
18
100
AcDbEntity
  8
1
 62
     1
100
AcDbLine
 10
15.25
 20
-0.3848607102434098
 30
0.0
 11
15.36345298923242
 21
-0.5876313129846007
 31
0.0
  0
LINE
  5
49C
330
18
100
AcDbEntity
  8
1
 62
     1
100
AcDbLine
 10
15.25
 20
-0.40349375
 30
0.0
 11
15.25
 21
-0.4034896265812265
 31
0.0
  0
LINE
  5
49D
330
18
100
AcDbEntity
  8
1
 62
     1
100
AcDbLine
 10
15.25
 20
-0.4034896265812265
 30
0.0
 11
15.25
 21
-0.4022674186963372
 31
0.0
  0
LINE
  5
49E
330
18
100
AcDbEntity
  8
1
 62
     1
100
AcDbLine
 10
15.25
 20
-0.4022674186963372
 30
0.0
 11
15.25
 21
-0.3848607102434098
 31
0.0
  0
LINE
  5
49F
330
18
100
AcDbEntity
  8
1
 62
     1
100
AcDbLine
 10
15.36345298923242
 20
-0.6000000000000058
 30
0.0
 11
15.25
 21
-0.40349375
 31
0.0
  0
LINE
  5
4A0
330
18
100
AcDbEntity
  8
1
 62
     1
100
AcDbLine
 10
15.36345298923242
 20
-0.5876313129845949
 30
0.0
 11
15.36345298923242
 21
-0.6
 31
0.0
  0
LINE
  5
4A1
330
18
100
AcDbEntity
  8
1
 62
     1
100
AcDbLine
 10
15.38654701076759
 20
-0.5876313129845939
 30
0.0
 11
15.5
 21
-0.3848607102434098
 31
0.0
  0
LINE
  5
4A2
330
18
100
AcDbEntity
  8
1
 62
     1
100
AcDbLine
 10
15.38654701076759
 20
-0.5876313129845949
 30
0.0
 11
15.38654701076759
 21
-0.6
 31
0.0
  0
LINE
  5
4A3
330
18
100
AcDbEntity
  8
1
 62
     1
100
AcDbLine
 10
15.5
 20
-0.40349375
 30
0.0
 11
15.38654701076759
 21
-0.599999999999996
 31
0.0
  0
LINE
  5
4A4
330
18
100
AcDbEntity
  8
1
 62
     1
100
AcDbLine
 10
16.0
 20
-0.3848607102434098
 30
0.0
 11
16.11345298923241
 21
-0.5876313129845976
 31
0.0
  0
LINE
  5
4A5
330
18
100
AcDbEntity
  8
1
 62
     1
100
AcDbLine
 10
16.11345298923241
 20
-0.6000000000000025
 30
0.0
 11
16.0
 21
-0.40349375
 31
0.0
  0
LINE
  5
4A6
330
18
100
AcDbEntity
  8
1
 62
     1
100
AcDbLine
 10
16.11345298923241
 20
-0.5876313129845949
 30
0.0
 11
16.11345298923241
 21
-0.6
 31
0.0
  0
LINE
  5
4A7
330
18
100
AcDbEntity
  8
1
 62
     1
100
AcDbLine
 10
15.88654701076759
 20
-0.5876313129845947
 30
0.0
 11
16.0
 21
-0.3848607102434098
 31
0.0
  0
LINE
  5
4A8
330
18
100
AcDbEntity
  8
1
 62
     1
100
AcDbLine
 10
15.88654701076759
 20
-0.5876313129845949
 30
0.0
 11
15.88654701076759
 21
-0.6
 31
0.0
  0
LINE
  5
4A9
330
18
100
AcDbEntity
  8
1
 62
     1
100
AcDbLine
 10
16.0
 20
-0.40349375
 30
0.0
 11
15.88654701076759
 21
-0.5999999999999991
 31
0.0
  0
LINE
  5
4AA
330
18
100
AcDbEntity
  8
1
 62
     1
100
AcDbLine
 10
16.0
 20
-0.40349375
 30
0.0
 11
16.0
 21
-0.4034896265812265
 31
0.0
  0
LINE
  5
4AB
330
18
100
AcDbEntity
  8
1
 62
     1
100
AcDbLine
 10
16.0
 20
-0.4034896265812265
 30
0.0
 11
16.0
 21
-0.4022674186963372
 31
0.0
  0
LINE
  5
4AC
330
18
100
AcDbEntity
  8
1
 62
     1
100
AcDbLine
 10
16.0
 20
-0.4022674186963372
 30
0.0
 11
16.0
 21
-0.3848607102434098
 31
0.0
  0
LINE
  5
4AD
330
18
100
AcDbEntity
  8
1
 62
     1
100
AcDbLine
 10
16.13654701076759
 20
-0.5876313129845976
 30
0.0
 11
16.25
 21
-0.3848607102434098
 31
0.0
  0
LINE
  5
4AE
330
18
100
AcDbEntity
  8
1
 62
     1
100
AcDbLine
 10
16.13654701076759
 20
-0.5876313129845949
 30
0.0
 11
16.13654701076759
 21
-0.6
 31
0.0
  0
LINE
  5
4AF
330
18
100
AcDbEntity
  8
1
 62
     1
100
AcDbLine
 10
16.25
 20
-0.40349375
 30
0.0
 11
16.13654701076759
 21
-0.6000000000000025
 31
0.0
  0
LINE
  5
4B0
330
18
100
AcDbEntity
  8
1
 62
     1
100
AcDbLine
 10
16.25
 20
-0.3848607102434098
 30
0.0
 11
16.36345298923241
 21
-0.587631312984594
 31
0.0
  0
LINE
  5
4B1
330
18
100
AcDbEntity
  8
1
 62
     1
100
AcDbLine
 10
16.25
 20
-0.40349375
 30
0.0
 11
16.25
 21
-0.4034896265812265
 31
0.0
  0
LINE
  5
4B2
330
18
100
AcDbEntity
  8
1
 62
     1
100
AcDbLine
 10
16.25
 20
-0.4034896265812265
 30
0.0
 11
16.25
 21
-0.4022674186963372
 31
0.0
  0
LINE
  5
4B3
330
18
100
AcDbEntity
  8
1
 62
     1
100
AcDbLine
 10
16.25
 20
-0.4022674186963372
 30
0.0
 11
16.25
 21
-0.3848607102434098
 31
0.0
  0
LINE
  5
4B4
330
18
100
AcDbEntity
  8
1
 62
     1
100
AcDbLine
 10
16.36345298923241
 20
-0.5999999999999963
 30
0.0
 11
16.25
 21
-0.40349375
 31
0.0
  0
LINE
  5
4B5
330
18
100
AcDbEntity
  8
1
 62
     1
100
AcDbLine
 10
16.36345298923241
 20
-0.5876313129845949
 30
0.0
 11
16.36345298923241
 21
-0.6
 31
0.0
  0
LINE
  5
4B6
330
18
100
AcDbEntity
  8
1
 62
     1
100
AcDbLine
 10
16.38654701076759
 20
-0.5876313129845976
 30
0.0
 11
16.5
 21
-0.3848607102434098
 31
0.0
  0
LINE
  5
4B7
330
18
100
AcDbEntity
  8
1
 62
     1
100
AcDbLine
 10
16.38654701076759
 20
-0.5876313129845949
 30
0.0
 11
16.38654701076759
 21
-0.6
 31
0.0
  0
LINE
  5
4B8
330
18
100
AcDbEntity
  8
1
 62
     1
100
AcDbLine
 10
16.5
 20
-0.40349375
 30
0.0
 11
16.38654701076759
 21
-0.6000000000000025
 31
0.0
  0
LINE
  5
4B9
330
18
100
AcDbEntity
  8
1
 62
     1
100
AcDbLine
 10
16.5
 20
-0.3848607102434098
 30
0.0
 11
16.61345298923241
 21
-0.587631312984594
 31
0.0
  0
LINE
  5
4BA
330
18
100
AcDbEntity
  8
1
 62
     1
100
AcDbLine
 10
16.5
 20
-0.40349375
 30
0.0
 11
16.5
 21
-0.4034896265812265
 31
0.0
  0
LINE
  5
4BB
330
18
100
AcDbEntity
  8
1
 62
     1
100
AcDbLine
 10
16.5
 20
-0.4034896265812265
 30
0.0
 11
16.5
 21
-0.4022674186963372
 31
0.0
  0
LINE
  5
4BC
330
18
100
AcDbEntity
  8
1
 62
     1
100
AcDbLine
 10
16.5
 20
-0.4022674186963372
 30
0.0
 11
16.5
 21
-0.3848607102434098
 31
0.0
  0
LINE
  5
4BD
330
18
100
AcDbEntity
  8
1
 62
     1
100
AcDbLine
 10
16.61345298923241
 20
-0.5999999999999963
 30
0.0
 11
16.5
 21
-0.40349375
 31
0.0
  0
LINE
  5
4BE
330
18
100
AcDbEntity
  8
1
 62
     1
100
AcDbLine
 10
16.61345298923241
 20
-0.5876313129845949
 30
0.0
 11
16.61345298923241
 21
-0.6
 31
0.0
  0
LINE
  5
4BF
330
18
100
AcDbEntity
  8
1
 62
     1
100
AcDbLine
 10
16.63654701076759
 20
-0.5876313129845976
 30
0.0
 11
16.75
 21
-0.3848607102434098
 31
0.0
  0
LINE
  5
4C0
330
18
100
AcDbEntity
  8
1
 62
     1
100
AcDbLine
 10
16.63654701076759
 20
-0.5876313129845949
 30
0.0
 11
16.63654701076759
 21
-0.6
 31
0.0
  0
LINE
  5
4C1
330
18
100
AcDbEntity
  8
1
 62
     1
100
AcDbLine
 10
16.75
 20
-0.40349375
 30
0.0
 11
16.63654701076759
 21
-0.6000000000000025
 31
0.0
  0
LINE
  5
4C2
330
18
100
AcDbEntity
  8
1
 62
     1
100
AcDbLine
 10
15.75
 20
-0.3848607102434098
 30
0.0
 11
15.86345298923242
 21
-0.5876313129845985
 31
0.0
  0
LINE
  5
4C3
330
18
100
AcDbEntity
  8
1
 62
     1
100
AcDbLine
 10
15.86345298923242
 20
-0.6000000000000028
 30
0.0
 11
15.75
 21
-0.40349375
 31
0.0
  0
LINE
  5
4C4
330
18
100
AcDbEntity
  8
1
 62
     1
100
AcDbLine
 10
15.86345298923242
 20
-0.5876313129845949
 30
0.0
 11
15.86345298923242
 21
-0.6
 31
0.0
  0
LINE
  5
4C5
330
18
100
AcDbEntity
  8
1
 62
     1
100
AcDbLine
 10
15.63654701076759
 20
-0.5876313129845947
 30
0.0
 11
15.75
 21
-0.3848607102434098
 31
0.0
  0
LINE
  5
4C6
330
18
100
AcDbEntity
  8
1
 62
     1
100
AcDbLine
 10
15.63654701076759
 20
-0.5876313129845949
 30
0.0
 11
15.63654701076759
 21
-0.6
 31
0.0
  0
LINE
  5
4C7
330
18
100
AcDbEntity
  8
1
 62
     1
100
AcDbLine
 10
15.75
 20
-0.40349375
 30
0.0
 11
15.63654701076759
 21
-0.5999999999999991
 31
0.0
  0
LINE
  5
4C8
330
18
100
AcDbEntity
  8
1
 62
     1
100
AcDbLine
 10
15.75
 20
-0.40349375
 30
0.0
 11
15.75
 21
-0.4034896265812265
 31
0.0
  0
LINE
  5
4C9
330
18
100
AcDbEntity
  8
1
 62
     1
100
AcDbLine
 10
15.75
 20
-0.4034896265812265
 30
0.0
 11
15.75
 21
-0.4022674186963372
 31
0.0
  0
LINE
  5
4CA
330
18
100
AcDbEntity
  8
1
 62
     1
100
AcDbLine
 10
15.75
 20
-0.4022674186963372
 30
0.0
 11
15.75
 21
-0.3848607102434098
 31
0.0
  0
LINE
  5
4CB
330
18
100
AcDbEntity
  8
1
 62
     1
100
AcDbLine
 10
15.5
 20
-0.3848607102434098
 30
0.0
 11
15.61345298923241
 21
-0.5876313129845985
 31
0.0
  0
LINE
  5
4CC
330
18
100
AcDbEntity
  8
1
 62
     1
100
AcDbLine
 10
15.5
 20
-0.40349375
 30
0.0
 11
15.5
 21
-0.4034896265812265
 31
0.0
  0
LINE
  5
4CD
330
18
100
AcDbEntity
  8
1
 62
     1
100
AcDbLine
 10
15.5
 20
-0.4034896265812265
 30
0.0
 11
15.5
 21
-0.4022674186963372
 31
0.0
  0
LINE
  5
4CE
330
18
100
AcDbEntity
  8
1
 62
     1
100
AcDbLine
 10
15.5
 20
-0.4022674186963372
 30
0.0
 11
15.5
 21
-0.3848607102434098
 31
0.0
  0
LINE
  5
4CF
330
18
100
AcDbEntity
  8
1
 62
     1
100
AcDbLine
 10
15.61345298923242
 20
-0.6000000000000028
 30
0.0
 11
15.5
 21
-0.40349375
 31
0.0
  0
LINE
  5
4D0
330
18
100
AcDbEntity
  8
1
 62
     1
100
AcDbLine
 10
15.61345298923242
 20
-0.5876313129845949
 30
0.0
 11
15.61345298923242
 21
-0.6
 31
0.0
  0
LINE
  5
4D1
330
18
100
AcDbEntity
  8
1
 62
     1
100
AcDbLine
 10
16.88654701076759
 20
-0.5876313129845949
 30
0.0
 11
16.86345298923241
 21
-0.5876313129845949
 31
0.0
  0
LINE
  5
4D2
330
18
100
AcDbEntity
  8
1
 62
     1
100
AcDbLine
 10
17.6365470107676
 20
-0.5876313129845949
 30
0.0
 11
17.6134529892324
 21
-0.5876313129845949
 31
0.0
  0
LINE
  5
4D3
330
18
100
AcDbEntity
  8
1
 62
     1
100
AcDbLine
 10
19.6952283427834
 20
0.0214551802648682
 30
0.0
 11
19.70412698250336
 21
0.0217854225590139
 31
0.0
  0
LINE
  5
4D4
330
18
100
AcDbEntity
  8
1
 62
     1
100
AcDbLine
 10
19.70412698250336
 20
0.0217854225590139
 30
0.0
 11
19.70413310542645
 21
0.0217854224031556
 31
0.0
  0
LINE
  5
4D5
330
18
100
AcDbEntity
  8
1
 62
     1
100
AcDbLine
 10
19.69522834600093
 20
0.021455230959547
 30
0.0
 11
19.56193311105764
 21
0.0207069412693327
 31
0.0
  0
ARC
  5
4D6
330
18
100
AcDbEntity
  8
1
 62
     1
100
AcDbCircle
 10
19.20442074127081
 20
-0.1013081754311737
 30
0.0
 40
0.1231001744534974
100
AcDbArc
 50
90.13692313619293
 51
107.7751480854208
  0
LINE
  5
4D7
330
18
100
AcDbEntity
  8
1
 62
     1
100
AcDbLine
 10
19.20412657652082
 20
0.0217854597248211
 30
0.0
 11
19.2041330791335
 21
0.0217854595489904
 31
0.0
  0
LINE
  5
4D8
330
18
100
AcDbEntity
  8
1
 62
     1
100
AcDbLine
 10
19.16684002149715
 20
0.0159167593193446
 30
0.0
 11
19.08742656687571
 21
0.0144797629525047
 31
0.0
  0
LINE
  5
4D9
330
18
100
AcDbEntity
  8
1
 62
     1
100
AcDbLine
 10
18.90264585881959
 20
0.0105045978127313
 30
0.0
 11
18.85017329520401
 21
0.0092121895627082
 31
0.0
  0
LINE
  5
4DA
330
18
100
AcDbEntity
  8
1
 62
     1
100
AcDbLine
 10
18.63845169794409
 20
0.0032446665433334
 30
0.0
 11
18.61292002357478
 21
0.0024421396026414
 31
0.0
  0
ARC
  5
4DB
330
18
100
AcDbEntity
  8
1
 62
     1
100
AcDbCircle
 10
18.45619856165946
 20
-0.1107175853596513
 30
0.0
 40
0.1325909017344694
100
AcDbArc
 50
90.89530690205258
 51
121.6846613005708
  0
LINE
  5
4DC
330
18
100
AcDbEntity
  8
1
 62
     1
100
AcDbLine
 10
18.4541278949771
 20
0.0217853641443411
 30
0.0
 11
18.45413314439283
 21
0.0217853640297978
 31
0.0
  0
LINE
  5
4DD
330
18
100
AcDbEntity
  8
1
 62
     1
100
AcDbLine
 10
18.38654701076759
 20
0.0021254457866441
 30
0.0
 11
18.36345298923241
 21
0.0021254457866441
 31
0.0
  0
ARC
  5
4DE
330
18
100
AcDbEntity
  8
1
 62
     1
100
AcDbCircle
 10
18.20619856165839
 20
-0.1107175853569872
 30
0.0
 40
0.1325909017316332
100
AcDbArc
 50
90.89530689687781
 51
121.6846613007797
  0
LINE
  5
4DF
330
18
100
AcDbEntity
  8
1
 62
     1
100
AcDbLine
 10
18.20412789498804
 20
0.0217853641443412
 30
0.0
 11
18.20413314439284
 21
0.0217853640297979
 31
0.0
  0
LINE
  5
4E0
330
18
100
AcDbEntity
  8
1
 62
     1
100
AcDbLine
 10
18.13654701076759
 20
0.0021254457866441
 30
0.0
 11
18.11345298923241
 21
0.0021254457866441
 31
0.0
  0
ARC
  5
4E1
330
18
100
AcDbEntity
  8
1
 62
     1
100
AcDbCircle
 10
17.95619856165823
 20
-0.1107175853565745
 30
0.0
 40
0.1325909017311962
100
AcDbArc
 50
90.89530689614953
 51
121.6846613008145
  0
LINE
  5
4E2
330
18
100
AcDbEntity
  8
1
 62
     1
100
AcDbLine
 10
17.95412789498957
 20
0.0217853641443412
 30
0.0
 11
17.95413314439284
 21
0.0217853640297978
 31
0.0
  0
LINE
  5
4E3
330
18
100
AcDbEntity
  8
1
 62
     1
100
AcDbLine
 10
17.88654701076759
 20
0.0021254457866441
 30
0.0
 11
17.86345298923242
 21
0.0021254457866441
 31
0.0
  0
ARC
  5
4E4
330
18
100
AcDbEntity
  8
1
 62
     1
100
AcDbCircle
 10
17.70619856165821
 20
-0.1107175853565354
 30
0.0
 40
0.132590901731156
100
AcDbArc
 50
90.89530689611601
 51
121.6846613008182
  0
LINE
  5
4E5
330
18
100
AcDbEntity
  8
1
 62
     1
100
AcDbLine
 10
17.70412789498963
 20
0.0217853641443412
 30
0.0
 11
17.70413314439283
 21
0.0217853640297979
 31
0.0
  0
LINE
  5
4E6
330
18
100
AcDbEntity
  8
1
 62
     1
100
AcDbLine
 10
17.63654701076759
 20
0.0021254457866441
 30
0.0
 11
17.61345298923241
 21
0.0021254457866441
 31
0.0
  0
ARC
  5
4E7
330
18
100
AcDbEntity
  8
1
 62
     1
100
AcDbCircle
 10
17.45619856168558
 20
-0.1107175854245496
 30
0.0
 40
0.1325909018035292
100
AcDbArc
 50
90.89530702723044
 51
121.6846612954461
  0
LINE
  5
4E8
330
18
100
AcDbEntity
  8
1
 62
     1
100
AcDbLine
 10
17.45412789471265
 20
0.0217853641443411
 30
0.0
 11
17.45413314439283
 21
0.0217853640297978
 31
0.0
  0
ARC
  5
4E9
330
18
100
AcDbEntity
  8
1
 62
     1
100
AcDbCircle
 10
17.20619856165825
 20
-0.1107175853566843
 30
0.0
 40
0.1325909017313085
100
AcDbArc
 50
90.89530689616105
 51
121.6846613008013
  0
LINE
  5
4EA
330
18
100
AcDbEntity
  8
1
 62
     1
100
AcDbLine
 10
17.20412789498957
 20
0.0217853641443411
 30
0.0
 11
17.20413314439283
 21
0.0217853640297978
 31
0.0
  0
ARC
  5
4EB
330
18
100
AcDbEntity
  8
1
 62
     1
100
AcDbCircle
 10
16.95619856165813
 20
-0.1107175853563682
 30
0.0
 40
0.1325909017309736
100
AcDbArc
 50
90.89530689561951
 51
121.6846613008274
  0
LINE
  5
4EC
330
18
100
AcDbEntity
  8
1
 62
     1
100
AcDbLine
 10
16.95412789499071
 20
0.0217853641443411
 30
0.0
 11
16.95413314439283
 21
0.0217853640297978
 31
0.0
  0
LINE
  5
4ED
330
18
100
AcDbEntity
  8
1
 62
     1
100
AcDbLine
 10
16.88654701076759
 20
0.0021254457866441
 30
0.0
 11
16.8634529892324
 21
0.0021254457866441
 31
0.0
  0
ARC
  5
4EE
330
18
100
AcDbEntity
  8
1
 62
     1
100
AcDbCircle
 10
16.70619856165821
 20
-0.1107175853565367
 30
0.0
 40
0.1325909017311562
100
AcDbArc
 50
90.89530689611601
 51
121.6846613008166
  0
LINE
  5
4EF
330
18
100
AcDbEntity
  8
1
 62
     1
100
AcDbLine
 10
16.70412789498963
 20
0.0217853641443411
 30
0.0
 11
16.70413314439284
 21
0.0217853640297978
 31
0.0
  0
LINE
  5
4F0
330
18
100
AcDbEntity
  8
1
 62
     1
100
AcDbLine
 10
16.63654701076759
 20
0.0021254457866441
 30
0.0
 11
16.61345298923241
 21
0.0021254457866441
 31
0.0
  0
ARC
  5
4F1
330
18
100
AcDbEntity
  8
1
 62
     1
100
AcDbCircle
 10
16.45619856165763
 20
-0.1107175853551127
 30
0.0
 40
0.1325909017296376
100
AcDbArc
 50
90.89530689320286
 51
121.6846613009268
  0
LINE
  5
4F2
330
18
100
AcDbEntity
  8
1
 62
     1
100
AcDbLine
 10
16.45412789499581
 20
0.0217853641443413
 30
0.0
 11
16.45413314439283
 21
0.021785364029798
 31
0.0
  0
LINE
  5
4F3
330
18
100
AcDbEntity
  8
1
 62
     1
100
AcDbLine
 10
16.38654701076759
 20
0.0021254457866441
 30
0.0
 11
16.3634529892324
 21
0.0021254457866441
 31
0.0
  0
ARC
  5
4F4
330
18
100
AcDbEntity
  8
1
 62
     1
100
AcDbCircle
 10
16.2061985616583
 20
-0.1107175853567533
 30
0.0
 40
0.1325909017313872
100
AcDbArc
 50
90.89530689652308
 51
121.6846613008001
  0
LINE
  5
4F5
330
18
100
AcDbEntity
  8
1
 62
     1
100
AcDbLine
 10
16.20412789498877
 20
0.0217853641443411
 30
0.0
 11
16.20413314439284
 21
0.0217853640297978
 31
0.0
  0
ARC
  5
4F6
330
18
100
AcDbEntity
  8
1
 62
     1
100
AcDbCircle
 10
15.95619856164373
 20
-0.1107175853205691
 30
0.0
 40
0.1325909016928811
100
AcDbArc
 50
90.89530682666708
 51
121.6846613036553
  0
LINE
  5
4F7
330
18
100
AcDbEntity
  8
1
 62
     1
100
AcDbLine
 10
15.95412789513636
 20
0.0217853641443412
 30
0.0
 11
15.95413314439284
 21
0.0217853640297978
 31
0.0
  0
LINE
  5
4F8
330
18
100
AcDbEntity
  8
1
 62
     1
100
AcDbLine
 10
15.88654701076759
 20
0.0021254457866441
 30
0.0
 11
15.86345298923241
 21
0.0021254457866441
 31
0.0
  0
ARC
  5
4F9
330
18
100
AcDbEntity
  8
1
 62
     1
100
AcDbCircle
 10
15.70619856165758
 20
-0.1107175853549788
 30
0.0
 40
0.1325909017294977
100
AcDbArc
 50
90.89530689304327
 51
121.6846613009387
  0
LINE
  5
4FA
330
18
100
AcDbEntity
  8
1
 62
     1
100
AcDbLine
 10
15.70412789499613
 20
0.0217853641443412
 30
0.0
 11
15.70413314439283
 21
0.0217853640297979
 31
0.0
  0
ARC
  5
4FB
330
18
100
AcDbEntity
  8
1
 62
     1
100
AcDbCircle
 10
15.45619856164374
 20
-0.1107175853205853
 30
0.0
 40
0.1325909016928978
100
AcDbArc
 50
90.89530682664086
 51
121.6846613036536
  0
LINE
  5
4FC
330
18
100
AcDbEntity
  8
1
 62
     1
100
AcDbLine
 10
15.45412789513643
 20
0.0217853641443411
 30
0.0
 11
15.45413314439284
 21
0.0217853640297978
 31
0.0
  0
LINE
  5
4FD
330
18
100
AcDbEntity
  8
1
 62
     1
100
AcDbLine
 10
15.38654701076759
 20
0.0021254457866441
 30
0.0
 11
15.36345298923242
 21
0.0021254457866441
 31
0.0
  0
ARC
  5
4FE
330
18
100
AcDbEntity
  8
1
 62
     1
100
AcDbCircle
 10
15.20619856165809
 20
-0.1107175853562575
 30
0.0
 40
0.1325909017308573
100
AcDbArc
 50
90.89530689545134
 51
121.6846613008366
  0
LINE
  5
4FF
330
18
100
AcDbEntity
  8
1
 62
     1
100
AcDbLine
 10
15.20412789499105
 20
0.0217853641443412
 30
0.0
 11
15.20413314439283
 21
0.0217853640297979
 31
0.0
  0
LINE
  5
500
330
18
100
AcDbEntity
  8
1
 62
     1
100
AcDbLine
 10
15.13654701076759
 20
0.0021254457866441
 30
0.0
 11
15.11345298923242
 21
0.0021254457866441
 31
0.0
  0
ARC
  5
501
330
18
100
AcDbEntity
  8
1
 62
     1
100
AcDbCircle
 10
19.54661448215116
 20
-0.1059925430888912
 30
0.0
 40
0.1277984714430477
100
AcDbArc
 50
90.33572398504651
 51
111.3915204989609
  0
LINE
  5
502
330
18
100
AcDbEntity
  8
1
 62
     1
100
AcDbLine
 10
19.54586575822548
 20
0.0217857269056676
 30
0.0
 11
19.54586715874435
 21
0.0217857268969286
 31
0.0
  0
LINE
  5
503
330
18
100
AcDbEntity
  8
1
 62
     1
100
AcDbLine
 10
19.56193311009171
 20
0.5107649933343432
 30
0.0
 11
19.56193311009172
 21
0.5106462468355697
 31
0.0
  0
LINE
  5
504
330
18
100
AcDbEntity
  8
1
 62
     1
100
AcDbLine
 10
19.56193311009172
 20
0.5106462468355697
 30
0.0
 11
19.56193311009172
 21
0.5005230557557098
 31
0.0
  0
LINE
  5
505
330
18
100
AcDbEntity
  8
1
 62
     1
100
AcDbLine
 10
19.56193311009172
 20
0.5005230557557098
 30
0.0
 11
19.56193311009171
 21
0.0207069252653943
 31
0.0
  0
LINE
  5
506
330
18
100
AcDbEntity
  8
1
 62
     1
100
AcDbLine
 10
19.43103418146213
 20
0.5229459959985132
 30
0.0
 11
19.43103418146213
 21
0.5228238640178279
 31
0.0
  0
LINE
  5
507
330
18
100
AcDbEntity
  8
1
 62
     1
100
AcDbLine
 10
19.43103418146213
 20
0.5228238640178279
 30
0.0
 11
19.43103418146213
 21
0.5124107768740433
 31
0.0
  0
LINE
  5
508
330
18
100
AcDbEntity
  8
1
 62
     1
100
AcDbLine
 10
19.43103418146213
 20
0.5124107768740433
 30
0.0
 11
19.43103418146213
 21
0.0195494852068293
 31
0.0
  0
LINE
  5
509
330
18
100
AcDbEntity
  8
1
 62
     1
100
AcDbLine
 10
19.43103418146213
 20
0.0195494852068289
 30
0.0
 11
19.4541329388656
 21
0.0217855571747611
 31
0.0
  0
LINE
  5
50A
330
18
100
AcDbEntity
  8
1
 62
     1
100
AcDbLine
 10
19.5
 20
0.0130054329476215
 30
0.0
 11
19.5
 21
0.40349375
 31
0.0
  0
ARC
  5
50B
330
18
100
AcDbEntity
  8
1
 62
     1
100
AcDbCircle
 10
19.29661448248851
 20
-0.1059925443600525
 30
0.0
 40
0.1277984727509094
100
AcDbArc
 50
90.33572719353796
 51
111.3915204319224
  0
LINE
  5
50C
330
18
100
AcDbEntity
  8
1
 62
     1
100
AcDbLine
 10
19.29586575139971
 20
0.0217857269056703
 30
0.0
 11
19.29586715874436
 21
0.0217857268969287
 31
0.0
  0
LINE
  5
50D
330
18
100
AcDbEntity
  8
1
 62
     1
100
AcDbLine
 10
19.32467983846248
 20
0.5328429642089318
 30
0.0
 11
19.32467983846248
 21
0.5327179752257154
 31
0.0
  0
LINE
  5
50E
330
18
100
AcDbEntity
  8
1
 62
     1
100
AcDbLine
 10
19.32467983846248
 20
0.5327179752257154
 30
0.0
 11
19.32467983846248
 21
0.522060031702962
 31
0.0
  0
LINE
  5
50F
330
18
100
AcDbEntity
  8
1
 62
     1
100
AcDbLine
 10
19.32467983846248
 20
0.522060031702962
 30
0.0
 11
19.32467983846248
 21
0.0182973437352374
 31
0.0
  0
LINE
  5
510
330
18
100
AcDbEntity
  8
1
 62
     1
100
AcDbLine
 10
19.75
 20
0.0130054329476217
 30
0.0
 11
19.75
 21
0.40349375
 31
0.0
  0
ARC
  5
511
330
18
100
AcDbEntity
  8
1
 62
     1
100
AcDbCircle
 10
19.79661455234576
 20
-0.1059927305446321
 30
0.0
 40
0.1277986841286142
100
AcDbArc
 50
90.33509832940324
 51
111.3915191479479
  0
LINE
  5
512
330
18
100
AcDbEntity
  8
1
 62
     1
100
AcDbLine
 10
19.79918638172094
 20
0.4886870224597547
 30
0.0
 11
19.79918638172095
 21
0.4885740526978184
 31
0.0
  0
LINE
  5
513
330
18
100
AcDbEntity
  8
1
 62
     1
100
AcDbLine
 10
19.79918638172095
 20
0.4885740526978184
 30
0.0
 11
19.79918638172095
 21
0.4789448122527533
 31
0.0
  0
LINE
  5
514
330
18
100
AcDbEntity
  8
1
 62
     1
100
AcDbLine
 10
19.79918638172095
 20
0.4789448122527533
 30
0.0
 11
19.79918638172094
 21
0.0217399535625654
 31
0.0
  0
LINE
  5
515
330
18
100
AcDbEntity
  8
1
 62
     1
100
AcDbLine
 10
19.95942250410467
 20
-0.4580112005714433
 30
0.0
 11
19.79918638239861
 21
-0.4734190243329005
 31
0.0
  0
LINE
  5
516
330
18
100
AcDbEntity
  8
1
 62
     1
100
AcDbLine
 10
19.69522834278341
 20
-0.4833986400546304
 30
0.0
 11
19.561933110661
 21
-0.4961768276666646
 31
0.0
  0
LINE
  5
517
330
18
100
AcDbEntity
  8
1
 62
     1
100
AcDbLine
 10
19.43103418146213
 20
-0.5087072583823367
 30
0.0
 11
19.32467983847532
 21
-0.51887588558963
 31
0.0
  0
LINE
  5
518
330
18
100
AcDbEntity
  8
1
 62
     1
100
AcDbLine
 10
19.16684002028071
 20
-0.5339482652716239
 30
0.0
 11
19.08742656683318
 21
-0.5415235952328362
 31
0.0
  0
LINE
  5
519
330
18
100
AcDbEntity
  8
1
 62
     1
100
AcDbLine
 10
18.90264586160902
 20
-0.5591308425031917
 30
0.0
 11
18.85017329520401
 21
-0.5641261361405391
 31
0.0
  0
LINE
  5
51A
330
18
100
AcDbEntity
  8
1
 62
     1
100
AcDbLine
 10
18.63845169761536
 20
-0.5842624665364158
 30
0.0
 11
18.61292002357479
 21
-0.5866887286761338
 31
0.0
  0
LINE
  5
51B
330
18
100
AcDbEntity
  8
1
 62
     1
100
AcDbLine
 10
19.95942250410467
 20
0.4737760017654922
 30
0.0
 11
19.95942250410467
 21
0.4736666764308645
 31
0.0
  0
LINE
  5
51C
330
18
100
AcDbEntity
  8
1
 62
     1
100
AcDbLine
 10
19.95942250410467
 20
0.4736666764308645
 30
0.0
 11
19.95942250410467
 21
0.4643485317594818
 31
0.0
  0
LINE
  5
51D
330
18
100
AcDbEntity
  8
1
 62
     1
100
AcDbLine
 10
19.95942250410467
 20
0.4643485317594818
 30
0.0
 11
19.95942250410467
 21
0.021669515179539
 31
0.0
  0
ARC
  5
51E
330
18
100
AcDbEntity
  8
1
 62
     1
100
AcDbCircle
 10
19.9534969516004
 20
-0.1051314801038697
 30
0.0
 40
0.126942426122952
100
AcDbArc
 50
68.51357044342623
 51
87.3244505487792
  0
LINE
  5
51F
330
18
100
AcDbEntity
  8
1
 62
     1
100
AcDbLine
 10
19.0
 20
0.013005432947621
 30
0.0
 11
19.0
 21
0.40349375
 31
0.0
  0
ARC
  5
520
330
18
100
AcDbEntity
  8
1
 62
     1
100
AcDbCircle
 10
19.04661448215104
 20
-0.1059925430884341
 30
0.0
 40
0.1277984714425766
100
AcDbArc
 50
90.33572398381473
 51
111.3915204989837
  0
LINE
  5
521
330
18
100
AcDbEntity
  8
1
 62
     1
100
AcDbLine
 10
19.0458657582281
 20
0.0217857269056676
 30
0.0
 11
19.04586715874436
 21
0.0217857268969286
 31
0.0
  0
LINE
  5
522
330
18
100
AcDbEntity
  8
1
 62
     1
100
AcDbLine
 10
19.08742656683325
 20
0.5549209350835204
 30
0.0
 11
19.08742656683325
 21
0.5547892187433802
 31
0.0
  0
LINE
  5
523
330
18
100
AcDbEntity
  8
1
 62
     1
100
AcDbLine
 10
19.08742656683325
 20
0.5547892187433802
 30
0.0
 11
19.08742656683324
 21
0.5435540107682983
 31
0.0
  0
LINE
  5
524
330
18
100
AcDbEntity
  8
1
 62
     1
100
AcDbLine
 10
19.08742656683324
 20
0.5435540107682983
 30
0.0
 11
19.08742656683324
 21
0.0144797621025943
 31
0.0
  0
LINE
  5
525
330
18
100
AcDbEntity
  8
1
 62
     1
100
AcDbLine
 10
18.90264585881959
 20
0.5721159902315347
 30
0.0
 11
18.90264585881959
 21
0.5719786821805448
 31
0.0
  0
LINE
  5
526
330
18
100
AcDbEntity
  8
1
 62
     1
100
AcDbLine
 10
18.90264585881959
 20
0.5719786821805448
 30
0.0
 11
18.90264585881959
 21
0.5602629709012231
 31
0.0
  0
LINE
  5
527
330
18
100
AcDbEntity
  8
1
 62
     1
100
AcDbLine
 10
18.90264585881959
 20
0.5602629709012231
 30
0.0
 11
18.90264585881959
 21
0.0105045978127312
 31
0.0
  0
ARC
  5
528
330
18
100
AcDbEntity
  8
1
 62
     1
100
AcDbCircle
 10
18.95496492802064
 20
-0.1048326636736623
 30
0.0
 40
0.1266435630701095
100
AcDbArc
 50
90.37646786205153
 51
114.3999040129183
  0
LINE
  5
529
330
18
100
AcDbEntity
  8
1
 62
     1
100
AcDbLine
 10
19.16684002014085
 20
0.5475309931150245
 30
0.0
 11
19.16684002014086
 21
0.54740158400175
 31
0.0
  0
LINE
  5
52A
330
18
100
AcDbEntity
  8
1
 62
     1
100
AcDbLine
 10
19.16684002014086
 20
0.54740158400175
 30
0.0
 11
19.16684002014085
 21
0.536364461867999
 31
0.0
  0
LINE
  5
52B
330
18
100
AcDbEntity
  8
1
 62
     1
100
AcDbLine
 10
19.16684002014085
 20
0.536364461867999
 30
0.0
 11
19.16684002014085
 21
0.0159167332281971
 31
0.0
  0
LINE
  5
52C
330
18
100
AcDbEntity
  8
1
 62
     1
100
AcDbLine
 10
19.25
 20
0.0130054329476217
 30
0.0
 11
19.25
 21
0.40349375
 31
0.0
  0
LINE
  5
52D
330
18
100
AcDbEntity
  8
1
 62
     1
100
AcDbLine
 10
19.69522834278341
 20
0.4983609988820024
 30
0.0
 11
19.69522834278341
 21
0.4982455542908569
 31
0.0
  0
LINE
  5
52E
330
18
100
AcDbEntity
  8
1
 62
     1
100
AcDbLine
 10
19.69522834278341
 20
0.4982455542908569
 30
0.0
 11
19.69522834278341
 21
0.4884048155588303
 31
0.0
  0
LINE
  5
52F
330
18
100
AcDbEntity
  8
1
 62
     1
100
AcDbLine
 10
19.69522834278341
 20
0.4884048155588303
 30
0.0
 11
19.69522834278341
 21
0.0214551802650357
 31
0.0
  0
LINE
  5
530
330
18
100
AcDbEntity
  8
1
 62
     1
100
AcDbLine
 10
18.38654701076759
 20
-0.5876313129845949
 30
0.0
 11
18.36345298923241
 21
-0.5876313129845949
 31
0.0
  0
LINE
  5
531
330
18
100
AcDbEntity
  8
1
 62
     1
100
AcDbLine
 10
18.36345298923241
 20
-0.5876313129845949
 30
0.0
 11
18.36345298923241
 21
-0.6
 31
0.0
  0
LINE
  5
532
330
18
100
AcDbEntity
  8
1
 62
     1
100
AcDbLine
 10
18.13654701076759
 20
-0.5876313129845949
 30
0.0
 11
18.11345298923241
 21
-0.5876313129845949
 31
0.0
  0
LINE
  5
533
330
18
100
AcDbEntity
  8
1
 62
     1
100
AcDbLine
 10
17.88654701076759
 20
-0.5876313129845949
 30
0.0
 11
17.86345298923242
 21
-0.5876313129845949
 31
0.0
  0
LINE
  5
534
330
18
100
AcDbEntity
  8
1
 62
     1
100
AcDbLine
 10
17.38654701076759
 20
-0.5876313129845949
 30
0.0
 11
17.36345298923242
 21
-0.5876313129845949
 31
0.0
  0
LINE
  5
535
330
18
100
AcDbEntity
  8
1
 62
     1
100
AcDbLine
 10
17.13654701076759
 20
-0.5876313129845949
 30
0.0
 11
17.11345298923241
 21
-0.5876313129845949
 31
0.0
  0
LINE
  5
536
330
18
100
AcDbEntity
  8
1
 62
     1
100
AcDbLine
 10
16.63654701076759
 20
-0.5876313129845949
 30
0.0
 11
16.61345298923241
 21
-0.5876313129845949
 31
0.0
  0
LINE
  5
537
330
18
100
AcDbEntity
  8
1
 62
     1
100
AcDbLine
 10
16.38654701076759
 20
-0.5876313129845949
 30
0.0
 11
16.36345298923241
 21
-0.5876313129845949
 31
0.0
  0
LINE
  5
538
330
18
100
AcDbEntity
  8
1
 62
     1
100
AcDbLine
 10
16.13654701076758
 20
-0.5876313129845949
 30
0.0
 11
16.11345298923241
 21
-0.5876313129845949
 31
0.0
  0
LINE
  5
539
330
18
100
AcDbEntity
  8
1
 62
     1
100
AcDbLine
 10
15.88654701076759
 20
-0.5876313129845949
 30
0.0
 11
15.86345298923242
 21
-0.5876313129845949
 31
0.0
  0
LINE
  5
53A
330
18
100
AcDbEntity
  8
1
 62
     1
100
AcDbLine
 10
15.63654701076759
 20
-0.5876313129845949
 30
0.0
 11
15.61345298923241
 21
-0.5876313129845949
 31
0.0
  0
LINE
  5
53B
330
18
100
AcDbEntity
  8
1
 62
     1
100
AcDbLine
 10
15.38654701076759
 20
-0.5876313129845949
 30
0.0
 11
15.36345298923242
 21
-0.5876313129845949
 31
0.0
  0
LINE
  5
53C
330
18
100
AcDbEntity
  8
1
 62
     1
100
AcDbLine
 10
15.13654701076759
 20
-0.5876313129845949
 30
0.0
 11
15.13654701076759
 21
-0.6
 31
0.0
  0
LINE
  5
53D
330
18
100
AcDbEntity
  8
1
 62
     1
100
AcDbLine
 10
15.13654701076759
 20
-0.5876313129845949
 30
0.0
 11
15.11345298923242
 21
-0.5876313129845949
 31
0.0
  0
ARC
  5
53E
330
18
100
AcDbEntity
  8
1
 62
     1
100
AcDbCircle
 10
16.79661448237719
 20
-0.1059925439406026
 30
0.0
 40
0.1277984723193493
100
AcDbArc
 50
90.33572613477001
 51
111.3915204540443
  0
LINE
  5
53F
330
18
100
AcDbEntity
  8
1
 62
     1
100
AcDbLine
 10
16.79586575365215
 20
0.0217857269056694
 30
0.0
 11
16.79586715874436
 21
0.0217857268969287
 31
0.0
  0
LINE
  5
540
330
18
100
AcDbEntity
  8
1
 62
     1
100
AcDbLine
 10
16.86345298923241
 20
0.6
 30
0.0
 11
16.86345298923241
 21
0.599852926161708
 31
0.0
  0
LINE
  5
541
330
18
100
AcDbEntity
  8
1
 62
     1
100
AcDbLine
 10
16.86345298923241
 20
0.599852926161708
 30
0.0
 11
16.86345298923241
 21
0.5872966786755118
 31
0.0
  0
LINE
  5
542
330
18
100
AcDbEntity
  8
1
 62
     1
100
AcDbLine
 10
16.86345298923241
 20
0.5872966786755118
 30
0.0
 11
16.86345298923241
 21
0.0021254457866441
 31
0.0
  0
LINE
  5
543
330
18
100
AcDbEntity
  8
1
 62
     1
100
AcDbLine
 10
18.0
 20
0.0130054329476215
 30
0.0
 11
18.0
 21
0.40349375
 31
0.0
  0
ARC
  5
544
330
18
100
AcDbEntity
  8
1
 62
     1
100
AcDbCircle
 10
18.04661448248886
 20
-0.1059925443613687
 30
0.0
 40
0.1277984727522641
100
AcDbArc
 50
90.33572719690525
 51
111.391520431854
  0
LINE
  5
545
330
18
100
AcDbEntity
  8
1
 62
     1
100
AcDbLine
 10
18.04586575139254
 20
0.0217857269056703
 30
0.0
 11
18.04586715874435
 21
0.0217857268969287
 31
0.0
  0
LINE
  5
546
330
18
100
AcDbEntity
  8
1
 62
     1
100
AcDbLine
 10
18.13654701076759
 20
0.6
 30
0.0
 11
18.13654701076759
 21
0.599852926161708
 31
0.0
  0
LINE
  5
547
330
18
100
AcDbEntity
  8
1
 62
     1
100
AcDbLine
 10
18.13654701076759
 20
0.599852926161708
 30
0.0
 11
18.13654701076759
 21
0.5872966786755118
 31
0.0
  0
LINE
  5
548
330
18
100
AcDbEntity
  8
1
 62
     1
100
AcDbLine
 10
18.13654701076759
 20
0.5872966786755118
 30
0.0
 11
18.13654701076759
 21
0.0021254457866441
 31
0.0
  0
LINE
  5
549
330
18
100
AcDbEntity
  8
1
 62
     1
100
AcDbLine
 10
18.25
 20
0.0130054329476216
 30
0.0
 11
18.25
 21
0.40349375
 31
0.0
  0
ARC
  5
54A
330
18
100
AcDbEntity
  8
1
 62
     1
100
AcDbCircle
 10
18.29661448215123
 20
-0.1059925430891779
 30
0.0
 40
0.1277984714433414
100
AcDbArc
 50
90.33572398565904
 51
111.3915204989436
  0
LINE
  5
54B
330
18
100
AcDbEntity
  8
1
 62
     1
100
AcDbLine
 10
18.29586575822418
 20
0.0217857269056676
 30
0.0
 11
18.29586715874436
 21
0.0217857268969287
 31
0.0
  0
LINE
  5
54C
330
18
100
AcDbEntity
  8
1
 62
     1
100
AcDbLine
 10
18.36345298923241
 20
0.6
 30
0.0
 11
18.36345298923241
 21
0.599852926161708
 31
0.0
  0
LINE
  5
54D
330
18
100
AcDbEntity
  8
1
 62
     1
100
AcDbLine
 10
18.36345298923241
 20
0.599852926161708
 30
0.0
 11
18.36345298923241
 21
0.5872966786755118
 31
0.0
  0
LINE
  5
54E
330
18
100
AcDbEntity
  8
1
 62
     1
100
AcDbLine
 10
18.36345298923241
 20
0.5872966786755118
 30
0.0
 11
18.36345298923241
 21
0.0021254457866441
 31
0.0
  0
LINE
  5
54F
330
18
100
AcDbEntity
  8
1
 62
     1
100
AcDbLine
 10
17.75
 20
0.0130054329476218
 30
0.0
 11
17.75
 21
0.40349375
 31
0.0
  0
ARC
  5
550
330
18
100
AcDbEntity
  8
1
 62
     1
100
AcDbCircle
 10
17.79661448215098
 20
-0.1059925430882297
 30
0.0
 40
0.1277984714423663
100
AcDbArc
 50
90.33572398324817
 51
111.3915204989949
  0
LINE
  5
551
330
18
100
AcDbEntity
  8
1
 62
     1
100
AcDbLine
 10
17.79586575822931
 20
0.0217857269056676
 30
0.0
 11
17.79586715874436
 21
0.0217857268969287
 31
0.0
  0
LINE
  5
552
330
18
100
AcDbEntity
  8
1
 62
     1
100
AcDbLine
 10
17.86345298923241
 20
0.6
 30
0.0
 11
17.86345298923241
 21
0.599852926161708
 31
0.0
  0
LINE
  5
553
330
18
100
AcDbEntity
  8
1
 62
     1
100
AcDbLine
 10
17.86345298923241
 20
0.599852926161708
 30
0.0
 11
17.86345298923242
 21
0.5872966786755118
 31
0.0
  0
LINE
  5
554
330
18
100
AcDbEntity
  8
1
 62
     1
100
AcDbLine
 10
17.86345298923242
 20
0.5872966786755118
 30
0.0
 11
17.86345298923242
 21
0.0021254457866441
 31
0.0
  0
LINE
  5
555
330
18
100
AcDbEntity
  8
1
 62
     1
100
AcDbLine
 10
17.63654701076759
 20
0.6
 30
0.0
 11
17.63654701076759
 21
0.599852926161708
 31
0.0
  0
LINE
  5
556
330
18
100
AcDbEntity
  8
1
 62
     1
100
AcDbLine
 10
17.63654701076759
 20
0.599852926161708
 30
0.0
 11
17.63654701076759
 21
0.5872966786755118
 31
0.0
  0
LINE
  5
557
330
18
100
AcDbEntity
  8
1
 62
     1
100
AcDbLine
 10
17.63654701076759
 20
0.5872966786755118
 30
0.0
 11
17.63654701076758
 21
0.0021254457866441
 31
0.0
  0
LINE
  5
558
330
18
100
AcDbEntity
  8
1
 62
     1
100
AcDbLine
 10
18.38654701076759
 20
0.6
 30
0.0
 11
18.38654701076759
 21
0.599852926161708
 31
0.0
  0
LINE
  5
559
330
18
100
AcDbEntity
  8
1
 62
     1
100
AcDbLine
 10
18.38654701076759
 20
0.599852926161708
 30
0.0
 11
18.38654701076759
 21
0.5872966786755118
 31
0.0
  0
LINE
  5
55A
330
18
100
AcDbEntity
  8
1
 62
     1
100
AcDbLine
 10
18.38654701076759
 20
0.5872966786755118
 30
0.0
 11
18.38654701076758
 21
0.0021254457866441
 31
0.0
  0
ARC
  5
55B
330
18
100
AcDbEntity
  8
1
 62
     1
100
AcDbCircle
 10
18.79661448237808
 20
-0.1059925439439477
 30
0.0
 40
0.1277984723227895
100
AcDbArc
 50
90.33572614309571
 51
111.3915204538651
  0
LINE
  5
55C
330
18
100
AcDbEntity
  8
1
 62
     1
100
AcDbLine
 10
18.79586575363444
 20
0.0217857269056694
 30
0.0
 11
18.79586715874435
 21
0.0217857268969287
 31
0.0
  0
LINE
  5
55D
330
18
100
AcDbEntity
  8
1
 62
     1
100
AcDbLine
 10
18.85017329520402
 20
0.5769989059581085
 30
0.0
 11
18.85017329520402
 21
0.5768599515321137
 31
0.0
  0
LINE
  5
55E
330
18
100
AcDbEntity
  8
1
 62
     1
100
AcDbLine
 10
18.85017329520402
 20
0.5768599515321137
 30
0.0
 11
18.85017329520402
 21
0.5650026542752085
 31
0.0
  0
LINE
  5
55F
330
18
100
AcDbEntity
  8
1
 62
     1
100
AcDbLine
 10
18.85017329520402
 20
0.5650026542752085
 30
0.0
 11
18.85017329520402
 21
0.0092121895627089
 31
0.0
  0
LINE
  5
560
330
18
100
AcDbEntity
  8
1
 62
     1
100
AcDbLine
 10
18.63845169749831
 20
0.5967009873480456
 30
0.0
 11
18.63845169749831
 21
0.5965551159528752
 31
0.0
  0
LINE
  5
561
330
18
100
AcDbEntity
  8
1
 62
     1
100
AcDbLine
 10
18.63845169749831
 20
0.5965551159528752
 30
0.0
 11
18.63845169749831
 21
0.5841024497561318
 31
0.0
  0
LINE
  5
562
330
18
100
AcDbEntity
  8
1
 62
     1
100
AcDbLine
 10
18.63845169749831
 20
0.5841024497561318
 30
0.0
 11
18.63845169749831
 21
0.0032446665172845
 31
0.0
  0
ARC
  5
563
330
18
100
AcDbEntity
  8
1
 62
     1
100
AcDbCircle
 10
18.70601176048701
 20
-0.1099172215195971
 30
0.0
 40
0.1317799114077004
100
AcDbArc
 50
90.82010621340355
 51
120.8381047127332
  0
LINE
  5
564
330
18
100
AcDbEntity
  8
1
 62
     1
100
AcDbLine
 10
18.70412649821898
 20
0.0217854684072265
 30
0.0
 11
18.70413307284638
 21
0.0217854682274815
 31
0.0
  0
LINE
  5
565
330
18
100
AcDbEntity
  8
1
 62
     1
100
AcDbLine
 10
18.75
 20
0.0130054329476216
 30
0.0
 11
18.75
 21
0.40349375
 31
0.0
  0
LINE
  5
566
330
18
100
AcDbEntity
  8
1
 62
     1
100
AcDbLine
 10
17.5
 20
0.0130054329476217
 30
0.0
 11
17.5
 21
0.40349375
 31
0.0
  0
ARC
  5
567
330
18
100
AcDbEntity
  8
1
 62
     1
100
AcDbCircle
 10
17.54661448248857
 20
-0.105992544360283
 30
0.0
 40
0.1277984727511456
100
AcDbArc
 50
90.33572719403756
 51
111.3915204319099
  0
LINE
  5
568
330
18
100
AcDbEntity
  8
1
 62
     1
100
AcDbLine
 10
17.54586575139865
 20
0.0217857269056703
 30
0.0
 11
17.54586715874436
 21
0.0217857268969287
 31
0.0
  0
LINE
  5
569
330
18
100
AcDbEntity
  8
1
 62
     1
100
AcDbLine
 10
17.61345298923241
 20
0.6
 30
0.0
 11
17.61345298923241
 21
0.599852926161708
 31
0.0
  0
LINE
  5
56A
330
18
100
AcDbEntity
  8
1
 62
     1
100
AcDbLine
 10
17.61345298923241
 20
0.599852926161708
 30
0.0
 11
17.61345298923241
 21
0.5872966786755118
 31
0.0
  0
LINE
  5
56B
330
18
100
AcDbEntity
  8
1
 62
     1
100
AcDbLine
 10
17.61345298923241
 20
0.5872966786755118
 30
0.0
 11
17.61345298923241
 21
0.0021254457866441
 31
0.0
  0
LINE
  5
56C
330
18
100
AcDbEntity
  8
1
 62
     1
100
AcDbLine
 10
17.38654701076759
 20
0.6
 30
0.0
 11
17.38654701076759
 21
0.599852926161708
 31
0.0
  0
LINE
  5
56D
330
18
100
AcDbEntity
  8
1
 62
     1
100
AcDbLine
 10
17.38654701076759
 20
0.599852926161708
 30
0.0
 11
17.38654701076759
 21
0.5872966786755118
 31
0.0
  0
LINE
  5
56E
330
18
100
AcDbEntity
  8
1
 62
     1
100
AcDbLine
 10
17.38654701076759
 20
0.5872966786755118
 30
0.0
 11
17.38654701076759
 21
0.0021254457866441
 31
0.0
  0
LINE
  5
56F
330
18
100
AcDbEntity
  8
1
 62
     1
100
AcDbLine
 10
17.25
 20
0.0130054329476218
 30
0.0
 11
17.25
 21
0.40349375
 31
0.0
  0
ARC
  5
570
330
18
100
AcDbEntity
  8
1
 62
     1
100
AcDbCircle
 10
17.29661448248892
 20
-0.1059925443615633
 30
0.0
 40
0.1277984727524659
100
AcDbArc
 50
90.33572719753874
 51
111.3915204318458
  0
LINE
  5
571
330
18
100
AcDbEntity
  8
1
 62
     1
100
AcDbLine
 10
17.29586575139119
 20
0.0217857269056703
 30
0.0
 11
17.29586715874435
 21
0.0217857268969287
 31
0.0
  0
LINE
  5
572
330
18
100
AcDbEntity
  8
1
 62
     1
100
AcDbLine
 10
17.36345298923241
 20
0.6
 30
0.0
 11
17.36345298923241
 21
0.599852926161708
 31
0.0
  0
LINE
  5
573
330
18
100
AcDbEntity
  8
1
 62
     1
100
AcDbLine
 10
17.36345298923241
 20
0.599852926161708
 30
0.0
 11
17.36345298923241
 21
0.5872966786755118
 31
0.0
  0
LINE
  5
574
330
18
100
AcDbEntity
  8
1
 62
     1
100
AcDbLine
 10
17.36345298923241
 20
0.5872966786755118
 30
0.0
 11
17.36345298923241
 21
0.0021254457866441
 31
0.0
  0
LINE
  5
575
330
18
100
AcDbEntity
  8
1
 62
     1
100
AcDbLine
 10
17.13654701076759
 20
0.6
 30
0.0
 11
17.13654701076759
 21
0.599852926161708
 31
0.0
  0
LINE
  5
576
330
18
100
AcDbEntity
  8
1
 62
     1
100
AcDbLine
 10
17.13654701076759
 20
0.599852926161708
 30
0.0
 11
17.13654701076759
 21
0.5872966786755118
 31
0.0
  0
LINE
  5
577
330
18
100
AcDbEntity
  8
1
 62
     1
100
AcDbLine
 10
17.13654701076759
 20
0.5872966786755118
 30
0.0
 11
17.13654701076758
 21
0.0021254457866441
 31
0.0
  0
ARC
  5
578
330
18
100
AcDbEntity
  8
1
 62
     1
100
AcDbCircle
 10
17.04661448248907
 20
-0.1059925443621453
 30
0.0
 40
0.1277984727530642
100
AcDbArc
 50
90.33572719899
 51
111.3915204318145
  0
LINE
  5
579
330
18
100
AcDbEntity
  8
1
 62
     1
100
AcDbLine
 10
17.0458657513881
 20
0.0217857269056702
 30
0.0
 11
17.04586715874436
 21
0.0217857268969286
 31
0.0
  0
LINE
  5
57A
330
18
100
AcDbEntity
  8
1
 62
     1
100
AcDbLine
 10
16.88654701076759
 20
0.6
 30
0.0
 11
16.88654701076758
 21
0.599852926161708
 31
0.0
  0
LINE
  5
57B
330
18
100
AcDbEntity
  8
1
 62
     1
100
AcDbLine
 10
16.88654701076758
 20
0.599852926161708
 30
0.0
 11
16.88654701076759
 21
0.5872966786755118
 31
0.0
  0
LINE
  5
57C
330
18
100
AcDbEntity
  8
1
 62
     1
100
AcDbLine
 10
16.88654701076759
 20
0.5872966786755118
 30
0.0
 11
16.88654701076759
 21
0.0021254457866441
 31
0.0
  0
LINE
  5
57D
330
18
100
AcDbEntity
  8
1
 62
     1
100
AcDbLine
 10
17.0
 20
0.013005432947622
 30
0.0
 11
17.0
 21
0.40349375
 31
0.0
  0
LINE
  5
57E
330
18
100
AcDbEntity
  8
1
 62
     1
100
AcDbLine
 10
17.88654701076759
 20
0.6
 30
0.0
 11
17.88654701076759
 21
0.599852926161708
 31
0.0
  0
LINE
  5
57F
330
18
100
AcDbEntity
  8
1
 62
     1
100
AcDbLine
 10
17.88654701076759
 20
0.599852926161708
 30
0.0
 11
17.88654701076759
 21
0.5872966786755118
 31
0.0
  0
LINE
  5
580
330
18
100
AcDbEntity
  8
1
 62
     1
100
AcDbLine
 10
17.88654701076759
 20
0.5872966786755118
 30
0.0
 11
17.88654701076759
 21
0.0021254457866441
 31
0.0
  0
LINE
  5
581
330
18
100
AcDbEntity
  8
1
 62
     1
100
AcDbLine
 10
18.5
 20
0.0130054329476222
 30
0.0
 11
18.5
 21
0.40349375
 31
0.0
  0
ARC
  5
582
330
18
100
AcDbEntity
  8
1
 62
     1
100
AcDbCircle
 10
18.54661448215089
 20
-0.1059925430878866
 30
0.0
 40
0.1277984714420116
100
AcDbArc
 50
90.33572398223274
 51
111.3915204990109
  0
LINE
  5
583
330
18
100
AcDbEntity
  8
1
 62
     1
100
AcDbLine
 10
18.54586575823149
 20
0.0217857269056676
 30
0.0
 11
18.54586715874435
 21
0.0217857268969286
 31
0.0
  0
LINE
  5
584
330
18
100
AcDbEntity
  8
1
 62
     1
100
AcDbLine
 10
18.61292002357478
 20
0.5990768768326974
 30
0.0
 11
18.61292002357478
 21
0.5989301407691021
 31
0.0
  0
LINE
  5
585
330
18
100
AcDbEntity
  8
1
 62
     1
100
AcDbLine
 10
18.61292002357478
 20
0.5989301407691021
 30
0.0
 11
18.61292002357478
 21
0.5864029923983161
 31
0.0
  0
LINE
  5
586
330
18
100
AcDbEntity
  8
1
 62
     1
100
AcDbLine
 10
18.61292002357478
 20
0.5864029923983161
 30
0.0
 11
18.61292002357479
 21
0.0024421396026414
 31
0.0
  0
ARC
  5
587
330
18
100
AcDbEntity
  8
1
 62
     1
100
AcDbCircle
 10
15.54661448237806
 20
-0.1059925439438612
 30
0.0
 40
0.1277984723227025
100
AcDbArc
 50
90.33572614308558
 51
111.3915204538725
  0
LINE
  5
588
330
18
100
AcDbEntity
  8
1
 62
     1
100
AcDbLine
 10
15.54586575363445
 20
0.0217857269056694
 30
0.0
 11
15.54586715874436
 21
0.0217857268969287
 31
0.0
  0
LINE
  5
589
330
18
100
AcDbEntity
  8
1
 62
     1
100
AcDbLine
 10
15.61345298923242
 20
0.6
 30
0.0
 11
15.61345298923242
 21
0.599852926161708
 31
0.0
  0
LINE
  5
58A
330
18
100
AcDbEntity
  8
1
 62
     1
100
AcDbLine
 10
15.61345298923242
 20
0.599852926161708
 30
0.0
 11
15.61345298923242
 21
0.5872966786755118
 31
0.0
  0
LINE
  5
58B
330
18
100
AcDbEntity
  8
1
 62
     1
100
AcDbLine
 10
15.61345298923242
 20
0.5872966786755118
 30
0.0
 11
15.61345298923242
 21
0.0021254457866441
 31
0.0
  0
LINE
  5
58C
330
18
100
AcDbEntity
  8
1
 62
     1
100
AcDbLine
 10
15.75
 20
0.0130054329476218
 30
0.0
 11
15.75
 21
0.40349375
 31
0.0
  0
ARC
  5
58D
330
18
100
AcDbEntity
  8
1
 62
     1
100
AcDbCircle
 10
15.79661448237721
 20
-0.1059925439406918
 30
0.0
 40
0.1277984723194389
100
AcDbArc
 50
90.33572613477537
 51
111.3915204540364
  0
LINE
  5
58E
330
18
100
AcDbEntity
  8
1
 62
     1
100
AcDbLine
 10
15.79586575365215
 20
0.0217857269056694
 30
0.0
 11
15.79586715874436
 21
0.0217857268969286
 31
0.0
  0
LINE
  5
58F
330
18
100
AcDbEntity
  8
1
 62
     1
100
AcDbLine
 10
15.86345298923242
 20
0.6
 30
0.0
 11
15.86345298923241
 21
0.599852926161708
 31
0.0
  0
LINE
  5
590
330
18
100
AcDbEntity
  8
1
 62
     1
100
AcDbLine
 10
15.86345298923241
 20
0.599852926161708
 30
0.0
 11
15.86345298923242
 21
0.5872966786755118
 31
0.0
  0
LINE
  5
591
330
18
100
AcDbEntity
  8
1
 62
     1
100
AcDbLine
 10
15.86345298923242
 20
0.5872966786755118
 30
0.0
 11
15.86345298923241
 21
0.0021254457866441
 31
0.0
  0
LINE
  5
592
330
18
100
AcDbEntity
  8
1
 62
     1
100
AcDbLine
 10
16.63654701076759
 20
0.6
 30
0.0
 11
16.63654701076759
 21
0.599852926161708
 31
0.0
  0
LINE
  5
593
330
18
100
AcDbEntity
  8
1
 62
     1
100
AcDbLine
 10
16.63654701076759
 20
0.599852926161708
 30
0.0
 11
16.63654701076759
 21
0.5872966786755118
 31
0.0
  0
LINE
  5
594
330
18
100
AcDbEntity
  8
1
 62
     1
100
AcDbLine
 10
16.63654701076759
 20
0.5872966786755118
 30
0.0
 11
16.63654701076759
 21
0.0021254457866441
 31
0.0
  0
LINE
  5
595
330
18
100
AcDbEntity
  8
1
 62
     1
100
AcDbLine
 10
16.75
 20
0.0130054329476213
 30
0.0
 11
16.75
 21
0.40349375
 31
0.0
  0
ARC
  5
596
330
18
100
AcDbEntity
  8
1
 62
     1
100
AcDbCircle
 10
15.04661448236272
 20
-0.1059925438860767
 30
0.0
 40
0.1277984722632481
100
AcDbArc
 50
90.33572599712988
 51
111.3915204569185
  0
LINE
  5
597
330
18
100
AcDbEntity
  8
1
 62
     1
100
AcDbLine
 10
15.04586575394496
 20
0.0217857269056693
 30
0.0
 11
15.04586715874436
 21
0.0217857268969287
 31
0.0
  0
LINE
  5
598
330
18
100
AcDbEntity
  8
1
 62
     1
100
AcDbLine
 10
15.11345298923242
 20
0.6
 30
0.0
 11
15.11345298923242
 21
0.599852926161708
 31
0.0
  0
LINE
  5
599
330
18
100
AcDbEntity
  8
1
 62
     1
100
AcDbLine
 10
15.11345298923242
 20
0.599852926161708
 30
0.0
 11
15.11345298923242
 21
0.5872966786755118
 31
0.0
  0
LINE
  5
59A
330
18
100
AcDbEntity
  8
1
 62
     1
100
AcDbLine
 10
15.11345298923242
 20
0.5872966786755118
 30
0.0
 11
15.11345298923242
 21
0.0021254457866441
 31
0.0
  0
LINE
  5
59B
330
18
100
AcDbEntity
  8
1
 62
     1
100
AcDbLine
 10
15.13654701076759
 20
0.6
 30
0.0
 11
15.13654701076759
 21
0.599852926161708
 31
0.0
  0
LINE
  5
59C
330
18
100
AcDbEntity
  8
1
 62
     1
100
AcDbLine
 10
15.13654701076759
 20
0.599852926161708
 30
0.0
 11
15.13654701076759
 21
0.5872966786755118
 31
0.0
  0
LINE
  5
59D
330
18
100
AcDbEntity
  8
1
 62
     1
100
AcDbLine
 10
15.13654701076759
 20
0.5872966786755118
 30
0.0
 11
15.13654701076759
 21
0.0021254457866441
 31
0.0
  0
LINE
  5
59E
330
18
100
AcDbEntity
  8
1
 62
     1
100
AcDbLine
 10
15.25
 20
0.0130054329476215
 30
0.0
 11
15.25
 21
0.40349375
 31
0.0
  0
ARC
  5
59F
330
18
100
AcDbEntity
  8
1
 62
     1
100
AcDbCircle
 10
15.29661448236334
 20
-0.1059925438884093
 30
0.0
 40
0.1277984722656487
100
AcDbArc
 50
90.33572600298355
 51
111.3915204567958
  0
LINE
  5
5A0
330
18
100
AcDbEntity
  8
1
 62
     1
100
AcDbLine
 10
15.29586575393251
 20
0.0217857269056693
 30
0.0
 11
15.29586715874436
 21
0.0217857268969287
 31
0.0
  0
LINE
  5
5A1
330
18
100
AcDbEntity
  8
1
 62
     1
100
AcDbLine
 10
15.36345298923242
 20
0.6
 30
0.0
 11
15.36345298923242
 21
0.599852926161708
 31
0.0
  0
LINE
  5
5A2
330
18
100
AcDbEntity
  8
1
 62
     1
100
AcDbLine
 10
15.36345298923242
 20
0.599852926161708
 30
0.0
 11
15.36345298923242
 21
0.5872966786755118
 31
0.0
  0
LINE
  5
5A3
330
18
100
AcDbEntity
  8
1
 62
     1
100
AcDbLine
 10
15.36345298923242
 20
0.5872966786755118
 30
0.0
 11
15.36345298923242
 21
0.0021254457866441
 31
0.0
  0
LINE
  5
5A4
330
18
100
AcDbEntity
  8
1
 62
     1
100
AcDbLine
 10
15.38654701076759
 20
0.6
 30
0.0
 11
15.38654701076759
 21
0.599852926161708
 31
0.0
  0
LINE
  5
5A5
330
18
100
AcDbEntity
  8
1
 62
     1
100
AcDbLine
 10
15.38654701076759
 20
0.599852926161708
 30
0.0
 11
15.38654701076759
 21
0.5872966786755118
 31
0.0
  0
LINE
  5
5A6
330
18
100
AcDbEntity
  8
1
 62
     1
100
AcDbLine
 10
15.38654701076759
 20
0.5872966786755118
 30
0.0
 11
15.38654701076759
 21
0.0021254457866441
 31
0.0
  0
LINE
  5
5A7
330
18
100
AcDbEntity
  8
1
 62
     1
100
AcDbLine
 10
15.5
 20
0.0130054329476217
 30
0.0
 11
15.5
 21
0.40349375
 31
0.0
  0
LINE
  5
5A8
330
18
100
AcDbEntity
  8
1
 62
     1
100
AcDbLine
 10
16.0
 20
0.0130054329476217
 30
0.0
 11
16.0
 21
0.40349375
 31
0.0
  0
ARC
  5
5A9
330
18
100
AcDbEntity
  8
1
 62
     1
100
AcDbCircle
 10
16.04661448248857
 20
-0.1059925443602911
 30
0.0
 40
0.1277984727511548
100
AcDbArc
 50
90.33572719412994
 51
111.3915204319101
  0
LINE
  5
5AA
330
18
100
AcDbEntity
  8
1
 62
     1
100
AcDbLine
 10
16.04586575139845
 20
0.0217857269056702
 30
0.0
 11
16.04586715874436
 21
0.0217857268969286
 31
0.0
  0
LINE
  5
5AB
330
18
100
AcDbEntity
  8
1
 62
     1
100
AcDbLine
 10
16.11345298923241
 20
0.6
 30
0.0
 11
16.11345298923241
 21
0.599852926161708
 31
0.0
  0
LINE
  5
5AC
330
18
100
AcDbEntity
  8
1
 62
     1
100
AcDbLine
 10
16.11345298923241
 20
0.599852926161708
 30
0.0
 11
16.11345298923242
 21
0.5872966786755118
 31
0.0
  0
LINE
  5
5AD
330
18
100
AcDbEntity
  8
1
 62
     1
100
AcDbLine
 10
16.11345298923242
 20
0.5872966786755118
 30
0.0
 11
16.11345298923241
 21
0.0021254457866441
 31
0.0
  0
LINE
  5
5AE
330
18
100
AcDbEntity
  8
1
 62
     1
100
AcDbLine
 10
16.13654701076759
 20
0.6
 30
0.0
 11
16.13654701076759
 21
0.599852926161708
 31
0.0
  0
LINE
  5
5AF
330
18
100
AcDbEntity
  8
1
 62
     1
100
AcDbLine
 10
16.13654701076759
 20
0.599852926161708
 30
0.0
 11
16.13654701076759
 21
0.5872966786755118
 31
0.0
  0
LINE
  5
5B0
330
18
100
AcDbEntity
  8
1
 62
     1
100
AcDbLine
 10
16.13654701076759
 20
0.5872966786755118
 30
0.0
 11
16.13654701076759
 21
0.0021254457866441
 31
0.0
  0
LINE
  5
5B1
330
18
100
AcDbEntity
  8
1
 62
     1
100
AcDbLine
 10
16.25
 20
0.0130054329476216
 30
0.0
 11
16.25
 21
0.40349375
 31
0.0
  0
ARC
  5
5B2
330
18
100
AcDbEntity
  8
1
 62
     1
100
AcDbCircle
 10
16.29661448248886
 20
-0.1059925443613479
 30
0.0
 40
0.1277984727522435
100
AcDbArc
 50
90.33572719690851
 51
111.3915204318559
  0
LINE
  5
5B3
330
18
100
AcDbEntity
  8
1
 62
     1
100
AcDbLine
 10
16.29586575139253
 20
0.0217857269056703
 30
0.0
 11
16.29586715874436
 21
0.0217857268969287
 31
0.0
  0
LINE
  5
5B4
330
18
100
AcDbEntity
  8
1
 62
     1
100
AcDbLine
 10
16.5
 20
0.0130054329476215
 30
0.0
 11
16.5
 21
0.40349375
 31
0.0
  0
ARC
  5
5B5
330
18
100
AcDbEntity
  8
1
 62
     1
100
AcDbCircle
 10
16.54661448248886
 20
-0.1059925443613777
 30
0.0
 40
0.1277984727522733
100
AcDbArc
 50
90.33572719695619
 51
111.391520431854
  0
LINE
  5
5B6
330
18
100
AcDbEntity
  8
1
 62
     1
100
AcDbLine
 10
16.54586575139243
 20
0.0217857269056703
 30
0.0
 11
16.54586715874436
 21
0.0217857268969287
 31
0.0
  0
LINE
  5
5B7
330
18
100
AcDbEntity
  8
1
 62
     1
100
AcDbLine
 10
15.0
 20
-0.40349375
 30
0.0
 11
15.0
 21
-0.4034896265812265
 31
0.0
  0
LINE
  5
5B8
330
18
100
AcDbEntity
  8
1
 62
     1
100
AcDbLine
 10
15.0
 20
-0.4034896265812265
 30
0.0
 11
15.0
 21
-0.4022674186963372
 31
0.0
  0
LINE
  5
5B9
330
18
100
AcDbEntity
  8
1
 62
     1
100
AcDbLine
 10
15.0
 20
-0.4022674186963372
 30
0.0
 11
15.0
 21
-0.3848607102434098
 31
0.0
  0
LINE
  5
5BA
330
18
100
AcDbEntity
  8
1
 62
     1
100
AcDbLine
 10
15.0
 20
-0.3394606145240715
 30
0.0
 11
15.0
 21
-0.3848607102434098
 31
0.0
  0
LINE
  5
5BB
330
18
100
AcDbEntity
  8
1
 62
     1
100
AcDbLine
 10
15.0
 20
-0.2268425109857877
 30
0.0
 11
15.0
 21
-0.3394606145240666
 31
0.0
  0
LINE
  5
5BC
330
18
100
AcDbEntity
  8
1
 62
     1
100
AcDbLine
 10
19.86096543877292
 20
0.0217858323077442
 30
0.0
 11
19.79918638172083
 21
0.0217399535630392
 31
0.0
  0
LINE
  5
5BD
330
18
100
AcDbEntity
  8
1
 62
     1
100
AcDbLine
 10
19.79586722213892
 20
0.0217858191506624
 30
0.0
 11
19.79918638172095
 21
0.0217399535624377
 31
0.0
  0
LINE
  5
5BE
330
18
100
AcDbEntity
  8
1
 62
     1
100
AcDbLine
 10
19.86096543877292
 20
0.0217858260834623
 30
0.0
 11
19.79586722213891
 21
0.0217858260834623
 31
0.0
  0
ARC
  5
5BF
330
18
100
AcDbEntity
  8
1
 62
     1
100
AcDbCircle
 10
19.70374943849748
 20
-0.1040039284632363
 30
0.0
 40
0.1257940184335797
100
AcDbArc
 50
68.4324845104651
 51
89.82524412877237
  0
ARC
  5
5C0
330
18
100
AcDbEntity
  8
1
 62
     1
100
AcDbCircle
 10
19.54586388820406
 20
-0.0984061045475472
 30
0.0
 40
0.1201918635678148
100
AcDbArc
 50
82.31676635435193
 51
89.99844092436851
  0
LINE
  5
5C1
330
18
100
AcDbEntity
  8
1
 62
     1
100
AcDbLine
 10
19.70413310542646
 20
0.0217858260834623
 30
0.0
 11
19.70412698250336
 21
0.0217858260834623
 31
0.0
  0
ARC
  5
5C2
330
18
100
AcDbEntity
  8
1
 62
     1
100
AcDbCircle
 10
19.45374763330356
 20
-0.1040123963804171
 30
0.0
 40
0.1258027085392563
100
AcDbArc
 50
68.43313747827584
 51
89.82450975656569
  0
ARC
  5
5C3
330
18
100
AcDbEntity
  8
1
 62
     1
100
AcDbCircle
 10
19.29581921796871
 20
-0.0992136257958779
 30
0.0
 40
0.1209998577604476
100
AcDbArc
 50
76.20130686121388
 51
89.97729901932074
  0
ARC
  5
5C4
330
18
100
AcDbEntity
  8
1
 62
     1
100
AcDbCircle
 10
19.20374907466767
 20
-0.1040054298667019
 30
0.0
 40
0.1257955542796746
100
AcDbArc
 50
68.43258175915528
 51
89.82509252488192
  0
ARC
  5
5C5
330
18
100
AcDbEntity
  8
1
 62
     1
100
AcDbCircle
 10
19.04567984672392
 20
-0.1008316387201551
 30
0.0
 40
0.1226200453160361
100
AcDbArc
 50
70.0979898516601
 51
89.91247422564615
  0
LINE
  5
5C6
330
18
100
AcDbEntity
  8
1
 62
     1
100
AcDbLine
 10
19.20413307913349
 20
0.0217858260834623
 30
0.0
 11
19.20412657652082
 21
0.0217858260834623
 31
0.0
  0
ARC
  5
5C7
330
18
100
AcDbEntity
  8
1
 62
     1
100
AcDbCircle
 10
18.9537478362066
 20
-0.1040116685604779
 30
0.0
 40
0.125801955947203
100
AcDbArc
 50
68.43310157831054
 51
89.82459236302196
  0
ARC
  5
5C8
330
18
100
AcDbEntity
  8
1
 62
     1
100
AcDbCircle
 10
18.79539740775754
 20
-0.1032447412917118
 30
0.0
 40
0.1250392207824244
100
AcDbArc
 50
64.03006248023009
 51
89.78473549113788
  0
ARC
  5
5C9
330
18
100
AcDbEntity
  8
1
 62
     1
100
AcDbCircle
 10
18.70374897887438
 20
-0.1040058427251807
 30
0.0
 40
0.1257959755407474
100
AcDbArc
 50
68.4326103015786
 51
89.8250523428645
  0
ARC
  5
5CA
330
18
100
AcDbEntity
  8
1
 62
     1
100
AcDbCircle
 10
18.54491054055153
 20
-0.1065206361462482
 30
0.0
 40
0.1283286649169304
100
AcDbArc
 50
58.02951270890265
 51
89.57282578827164
  0
LINE
  5
5CB
330
18
100
AcDbEntity
  8
1
 62
     1
100
AcDbLine
 10
18.70413307284637
 20
0.0217858260834623
 30
0.0
 11
18.70412649873965
 21
0.0217858260834623
 31
0.0
  0
ARC
  5
5CC
330
18
100
AcDbEntity
  8
1
 62
     1
100
AcDbCircle
 10
18.45374989423431
 20
-0.1040022313135818
 30
0.0
 40
0.1257922707973178
100
AcDbArc
 50
68.43239341447338
 51
89.82543152546953
  0
ARC
  5
5CD
330
18
100
AcDbEntity
  8
1
 62
     1
100
AcDbCircle
 10
18.29488476650829
 20
-0.106676952328503
 30
0.0
 40
0.1284858013559379
100
AcDbArc
 50
57.78051113535125
 51
89.5618507095634
  0
LINE
  5
5CE
330
18
100
AcDbEntity
  8
1
 62
     1
100
AcDbLine
 10
18.45413314439284
 20
0.0217858260834623
 30
0.0
 11
18.45412789500202
 21
0.0217858260834623
 31
0.0
  0
ARC
  5
5CF
330
18
100
AcDbEntity
  8
1
 62
     1
100
AcDbCircle
 10
18.20374989423432
 20
-0.10400223131358
 30
0.0
 40
0.1257922707973149
100
AcDbArc
 50
68.43239341447457
 51
89.82543152546953
  0
ARC
  5
5D0
330
18
100
AcDbEntity
  8
1
 62
     1
100
AcDbCircle
 10
18.0448847665083
 20
-0.1066769523284927
 30
0.0
 40
0.1284858013559271
100
AcDbArc
 50
57.7805111353488
 51
89.56185070956656
  0
LINE
  5
5D1
330
18
100
AcDbEntity
  8
1
 62
     1
100
AcDbLine
 10
18.20413314439284
 20
0.0217858260834623
 30
0.0
 11
18.20412789497703
 21
0.0217858260834623
 31
0.0
  0
ARC
  5
5D2
330
18
100
AcDbEntity
  8
1
 62
     1
100
AcDbCircle
 10
17.95374989423432
 20
-0.1040022313135697
 30
0.0
 40
0.1257922707973051
100
AcDbArc
 50
68.43239341447288
 51
89.82543152547115
  0
ARC
  5
5D3
330
18
100
AcDbEntity
  8
1
 62
     1
100
AcDbCircle
 10
17.79488476650828
 20
-0.106676952328586
 30
0.0
 40
0.1284858013560209
100
AcDbArc
 50
57.78051113536128
 51
89.56185070955577
  0
LINE
  5
5D4
330
18
100
AcDbEntity
  8
1
 62
     1
100
AcDbLine
 10
17.95413314439283
 20
0.0217858260834623
 30
0.0
 11
17.95412789497704
 21
0.0217858260834623
 31
0.0
  0
ARC
  5
5D5
330
18
100
AcDbEntity
  8
1
 62
     1
100
AcDbCircle
 10
17.70374989423432
 20
-0.1040022313135275
 30
0.0
 40
0.1257922707972628
100
AcDbArc
 50
68.4323934144688
 51
89.8254315254743
  0
ARC
  5
5D6
330
18
100
AcDbEntity
  8
1
 62
     1
100
AcDbCircle
 10
17.5448847665083
 20
-0.1066769523284752
 30
0.0
 40
0.1284858013559102
100
AcDbArc
 50
57.78051113534463
 51
89.56185070956806
  0
LINE
  5
5D7
330
18
100
AcDbEntity
  8
1
 62
     1
100
AcDbLine
 10
17.70413314439283
 20
0.0217858260834623
 30
0.0
 11
17.70412789497704
 21
0.0217858260834623
 31
0.0
  0
ARC
  5
5D8
330
18
100
AcDbEntity
  8
1
 62
     1
100
AcDbCircle
 10
17.45374989423431
 20
-0.1040022313135829
 30
0.0
 40
0.1257922707973183
100
AcDbArc
 50
68.43239341447357
 51
89.8254315254679
  0
ARC
  5
5D9
330
18
100
AcDbEntity
  8
1
 62
     1
100
AcDbCircle
 10
17.29488476650832
 20
-0.1066769523284054
 30
0.0
 40
0.1284858013558388
100
AcDbArc
 50
57.78051113533743
 51
89.56185070957575
  0
LINE
  5
5DA
330
18
100
AcDbEntity
  8
1
 62
     1
100
AcDbLine
 10
17.45413314439283
 20
0.0217858260834623
 30
0.0
 11
17.45412789500203
 21
0.0217858260834623
 31
0.0
  0
ARC
  5
5DB
330
18
100
AcDbEntity
  8
1
 62
     1
100
AcDbCircle
 10
17.20374989423432
 20
-0.1040022313135288
 30
0.0
 40
0.1257922707972646
100
AcDbArc
 50
68.43239341446753
 51
89.8254315254727
  0
ARC
  5
5DC
330
18
100
AcDbEntity
  8
1
 62
     1
100
AcDbCircle
 10
17.04488476650829
 20
-0.1066769523285147
 30
0.0
 40
0.1284858013559482
100
AcDbArc
 50
57.78051113535238
 51
89.56185070956663
  0
LINE
  5
5DD
330
18
100
AcDbEntity
  8
1
 62
     1
100
AcDbLine
 10
17.20413314439283
 20
0.0217858260834623
 30
0.0
 11
17.20412789497704
 21
0.0217858260834623
 31
0.0
  0
ARC
  5
5DE
330
18
100
AcDbEntity
  8
1
 62
     1
100
AcDbCircle
 10
16.95374989423432
 20
-0.1040022313135346
 30
0.0
 40
0.1257922707972708
100
AcDbArc
 50
68.43239341446697
 51
89.82543152547107
  0
ARC
  5
5DF
330
18
100
AcDbEntity
  8
1
 62
     1
100
AcDbCircle
 10
16.79488476650829
 20
-0.1066769523285002
 30
0.0
 40
0.1284858013559349
100
AcDbArc
 50
57.78051113534925
 51
89.56185070956181
  0
LINE
  5
5E0
330
18
100
AcDbEntity
  8
1
 62
     1
100
AcDbLine
 10
16.95413314439283
 20
0.0217858260834623
 30
0.0
 11
16.95412789513628
 21
0.0217858260834623
 31
0.0
  0
ARC
  5
5E1
330
18
100
AcDbEntity
  8
1
 62
     1
100
AcDbCircle
 10
16.70374989423432
 20
-0.1040022313135728
 30
0.0
 40
0.1257922707973083
100
AcDbArc
 50
68.43239341447338
 51
89.82543152547115
  0
ARC
  5
5E2
330
18
100
AcDbEntity
  8
1
 62
     1
100
AcDbCircle
 10
16.5448847665083
 20
-0.1066769523285121
 30
0.0
 40
0.1284858013559457
100
AcDbArc
 50
57.78051113535341
 51
89.56185070956819
  0
LINE
  5
5E3
330
18
100
AcDbEntity
  8
1
 62
     1
100
AcDbLine
 10
16.70413314439283
 20
0.0217858260834623
 30
0.0
 11
16.70412789497705
 21
0.0217858260834623
 31
0.0
  0
ARC
  5
5E4
330
18
100
AcDbEntity
  8
1
 62
     1
100
AcDbCircle
 10
16.45374989423433
 20
-0.1040022313134629
 30
0.0
 40
0.1257922707971987
100
AcDbArc
 50
68.4323934144625
 51
89.82543152547906
  0
ARC
  5
5E5
330
18
100
AcDbEntity
  8
1
 62
     1
100
AcDbCircle
 10
16.2948847665083
 20
-0.1066769523285239
 30
0.0
 40
0.1284858013559567
100
AcDbArc
 50
57.7805111353562
 51
89.56185070956508
  0
LINE
  5
5E6
330
18
100
AcDbEntity
  8
1
 62
     1
100
AcDbLine
 10
16.45413314439283
 20
0.0217858260834623
 30
0.0
 11
16.45412789499613
 21
0.0217858260834623
 31
0.0
  0
ARC
  5
5E7
330
18
100
AcDbEntity
  8
1
 62
     1
100
AcDbCircle
 10
16.20374989423432
 20
-0.1040022313135734
 30
0.0
 40
0.125792270797309
100
AcDbArc
 50
68.43239341447345
 51
89.82543152547115
  0
ARC
  5
5E8
330
18
100
AcDbEntity
  8
1
 62
     1
100
AcDbCircle
 10
16.04488476650829
 20
-0.1066769523285599
 30
0.0
 40
0.1284858013559934
100
AcDbArc
 50
57.78051113536046
 51
89.56185070956204
  0
LINE
  5
5E9
330
18
100
AcDbEntity
  8
1
 62
     1
100
AcDbLine
 10
16.20413314439283
 20
0.0217858260834623
 30
0.0
 11
16.20412789513629
 21
0.0217858260834623
 31
0.0
  0
ARC
  5
5EA
330
18
100
AcDbEntity
  8
1
 62
     1
100
AcDbCircle
 10
15.95374989423432
 20
-0.1040022313135121
 30
0.0
 40
0.1257922707972475
100
AcDbArc
 50
68.43239341446622
 51
89.82543152547429
  0
ARC
  5
5EB
330
18
100
AcDbEntity
  8
1
 62
     1
100
AcDbCircle
 10
15.7948847665083
 20
-0.1066769523284995
 30
0.0
 40
0.1284858013559338
100
AcDbArc
 50
57.78051113534738
 51
89.56185070956577
  0
LINE
  5
5EC
330
18
100
AcDbEntity
  8
1
 62
     1
100
AcDbLine
 10
15.95413314439283
 20
0.0217858260834623
 30
0.0
 11
15.95412789513635
 21
0.0217858260834623
 31
0.0
  0
ARC
  5
5ED
330
18
100
AcDbEntity
  8
1
 62
     1
100
AcDbCircle
 10
15.70374989423433
 20
-0.1040022313134532
 30
0.0
 40
0.1257922707971887
100
AcDbArc
 50
68.43239341446163
 51
89.82543152548067
  0
ARC
  5
5EE
330
18
100
AcDbEntity
  8
1
 62
     1
100
AcDbCircle
 10
15.54488476650831
 20
-0.1066769523284527
 30
0.0
 40
0.1284858013558869
100
AcDbArc
 50
57.78051113534097
 51
89.56185070957117
  0
LINE
  5
5EF
330
18
100
AcDbEntity
  8
1
 62
     1
100
AcDbLine
 10
15.70413314439284
 20
0.0217858260834623
 30
0.0
 11
15.70412789500202
 21
0.0217858260834623
 31
0.0
  0
ARC
  5
5F0
330
18
100
AcDbEntity
  8
1
 62
     1
100
AcDbCircle
 10
15.45374989423432
 20
-0.1040022313135692
 30
0.0
 40
0.1257922707973049
100
AcDbArc
 50
68.43239341447281
 51
89.82543152547275
  0
ARC
  5
5F1
330
18
100
AcDbEntity
  8
1
 62
     1
100
AcDbCircle
 10
15.29488476650831
 20
-0.1066769523284404
 30
0.0
 40
0.1284858013558748
100
AcDbArc
 50
57.78051113533785
 51
89.56185070957271
  0
LINE
  5
5F2
330
18
100
AcDbEntity
  8
1
 62
     1
100
AcDbLine
 10
15.45413314439283
 20
0.0217858260834623
 30
0.0
 11
15.45412789513643
 21
0.0217858260834623
 31
0.0
  0
ARC
  5
5F3
330
18
100
AcDbEntity
  8
1
 62
     1
100
AcDbCircle
 10
15.20374989423432
 20
-0.1040022313135258
 30
0.0
 40
0.1257922707972618
100
AcDbArc
 50
68.43239341446777
 51
89.8254315254743
  0
ARC
  5
5F4
330
18
100
AcDbEntity
  8
1
 62
     1
100
AcDbCircle
 10
15.0448847665083
 20
-0.1066769523285123
 30
0.0
 40
0.1284858013559458
100
AcDbArc
 50
57.78051113535096
 51
89.56185070956502
  0
LINE
  5
5F5
330
18
100
AcDbEntity
  8
1
 62
     1
100
AcDbLine
 10
15.20413314439283
 20
0.0217858260834623
 30
0.0
 11
15.20412789499105
 21
0.0217858260834623
 31
0.0
  0
LINE
  5
5F6
330
18
100
AcDbEntity
  8
1
 62
     1
100
AcDbLine
 10
19.56193311009171
 20
0.510764993334349
 30
0.0
 11
19.5
 21
0.40349375
 31
0.0
  0
LINE
  5
5F7
330
18
100
AcDbEntity
  8
1
 62
     1
100
AcDbLine
 10
19.5
 20
0.40349375
 30
0.0
 11
19.43103418146213
 21
0.522945995998516
 31
0.0
  0
LINE
  5
5F8
330
18
100
AcDbEntity
  8
1
 62
     1
100
AcDbLine
 10
19.32467983846248
 20
0.532842964208938
 30
0.0
 11
19.25
 21
0.40349375
 31
0.0
  0
LINE
  5
5F9
330
18
100
AcDbEntity
  8
1
 62
     1
100
AcDbLine
 10
19.79918638172094
 20
0.4886870224597601
 30
0.0
 11
19.75
 21
0.40349375
 31
0.0
  0
LINE
  5
5FA
330
18
100
AcDbEntity
  8
1
 62
     1
100
AcDbLine
 10
19.79918638172094
 20
-0.4886870224597547
 30
0.0
 11
19.95942250410467
 21
-0.4737760017654922
 31
0.0
  0
LINE
  5
5FB
330
18
100
AcDbEntity
  8
1
 62
     1
100
AcDbLine
 10
19.56193311009171
 20
-0.5107649933343432
 30
0.0
 11
19.69522834278341
 21
-0.4983609988820024
 31
0.0
  0
LINE
  5
5FC
330
18
100
AcDbEntity
  8
1
 62
     1
100
AcDbLine
 10
19.32467983846248
 20
-0.5328429642089322
 30
0.0
 11
19.43103418146214
 21
-0.5229459959985133
 31
0.0
  0
LINE
  5
5FD
330
18
100
AcDbEntity
  8
1
 62
     1
100
AcDbLine
 10
19.08742656683324
 20
-0.5549209350835203
 30
0.0
 11
19.16684002014086
 21
-0.5475309931150241
 31
0.0
  0
LINE
  5
5FE
330
18
100
AcDbEntity
  8
1
 62
     1
100
AcDbLine
 10
18.85017329520402
 20
-0.5769989059581085
 30
0.0
 11
18.90264585881959
 21
-0.5721159902315347
 31
0.0
  0
LINE
  5
5FF
330
18
100
AcDbEntity
  8
1
 62
     1
100
AcDbLine
 10
18.61292002357478
 20
-0.5990768768326974
 30
0.0
 11
18.63845169749831
 21
-0.5967009873480456
 31
0.0
  0
LINE
  5
600
330
18
100
AcDbEntity
  8
1
 62
     1
100
AcDbLine
 10
20.0
 20
0.40349375
 30
0.0
 11
19.95942250410467
 21
0.4737760017655017
 31
0.0
  0
LINE
  5
601
330
18
100
AcDbEntity
  8
1
 62
     1
100
AcDbLine
 10
19.08742656683325
 20
0.5549209350835268
 30
0.0
 11
19.0
 21
0.40349375
 31
0.0
  0
LINE
  5
602
330
18
100
AcDbEntity
  8
1
 62
     1
100
AcDbLine
 10
19.0
 20
0.40349375
 30
0.0
 11
18.90264585881959
 21
0.5721159902315364
 31
0.0
  0
LINE
  5
603
330
18
100
AcDbEntity
  8
1
 62
     1
100
AcDbLine
 10
19.25
 20
0.40349375
 30
0.0
 11
19.16684002014085
 21
0.5475309931150354
 31
0.0
  0
LINE
  5
604
330
18
100
AcDbEntity
  8
1
 62
     1
100
AcDbLine
 10
19.75
 20
0.40349375
 30
0.0
 11
19.69522834278341
 21
0.4983609988820027
 31
0.0
  0
LINE
  5
605
330
18
100
AcDbEntity
  8
1
 62
     1
100
AcDbLine
 10
18.36345298923241
 20
-0.6
 30
0.0
 11
18.38654701076759
 21
-0.6
 31
0.0
  0
LINE
  5
606
330
18
100
AcDbEntity
  8
1
 62
     1
100
AcDbLine
 10
18.11345298923241
 20
-0.6
 30
0.0
 11
18.13654701076759
 21
-0.6
 31
0.0
  0
LINE
  5
607
330
18
100
AcDbEntity
  8
1
 62
     1
100
AcDbLine
 10
17.86345298923241
 20
-0.6
 30
0.0
 11
17.88654701076759
 21
-0.6
 31
0.0
  0
LINE
  5
608
330
18
100
AcDbEntity
  8
1
 62
     1
100
AcDbLine
 10
17.61345298923241
 20
-0.6
 30
0.0
 11
17.63654701076759
 21
-0.6
 31
0.0
  0
LINE
  5
609
330
18
100
AcDbEntity
  8
1
 62
     1
100
AcDbLine
 10
17.36345298923241
 20
-0.6
 30
0.0
 11
17.38654701076759
 21
-0.6
 31
0.0
  0
LINE
  5
60A
330
18
100
AcDbEntity
  8
1
 62
     1
100
AcDbLine
 10
17.11345298923241
 20
-0.6
 30
0.0
 11
17.13654701076759
 21
-0.6
 31
0.0
  0
LINE
  5
60B
330
18
100
AcDbEntity
  8
1
 62
     1
100
AcDbLine
 10
16.86345298923241
 20
-0.6
 30
0.0
 11
16.88654701076759
 21
-0.6
 31
0.0
  0
LINE
  5
60C
330
18
100
AcDbEntity
  8
1
 62
     1
100
AcDbLine
 10
16.61345298923241
 20
-0.5999999999999999
 30
0.0
 11
16.63654701076759
 21
-0.5999999999999999
 31
0.0
  0
LINE
  5
60D
330
18
100
AcDbEntity
  8
1
 62
     1
100
AcDbLine
 10
16.36345298923241
 20
-0.6
 30
0.0
 11
16.38654701076759
 21
-0.6
 31
0.0
  0
LINE
  5
60E
330
18
100
AcDbEntity
  8
1
 62
     1
100
AcDbLine
 10
16.11345298923241
 20
-0.6000000000000001
 30
0.0
 11
16.13654701076759
 21
-0.6
 31
0.0
  0
LINE
  5
60F
330
18
100
AcDbEntity
  8
1
 62
     1
100
AcDbLine
 10
15.86345298923242
 20
-0.6
 30
0.0
 11
15.88654701076759
 21
-0.6
 31
0.0
  0
LINE
  5
610
330
18
100
AcDbEntity
  8
1
 62
     1
100
AcDbLine
 10
15.61345298923241
 20
-0.6000000000000001
 30
0.0
 11
15.63654701076759
 21
-0.6
 31
0.0
  0
LINE
  5
611
330
18
100
AcDbEntity
  8
1
 62
     1
100
AcDbLine
 10
15.36345298923241
 20
-0.6
 30
0.0
 11
15.38654701076759
 21
-0.6
 31
0.0
  0
LINE
  5
612
330
18
100
AcDbEntity
  8
1
 62
     1
100
AcDbLine
 10
15.11345298923242
 20
-0.6
 30
0.0
 11
15.13654701076759
 21
-0.6
 31
0.0
  0
LINE
  5
613
330
18
100
AcDbEntity
  8
1
 62
     1
100
AcDbLine
 10
16.86345298923241
 20
0.5999999999999991
 30
0.0
 11
16.75
 21
0.40349375
 31
0.0
  0
LINE
  5
614
330
18
100
AcDbEntity
  8
1
 62
     1
100
AcDbLine
 10
18.11345298923241
 20
0.5999999999999992
 30
0.0
 11
18.0
 21
0.40349375
 31
0.0
  0
LINE
  5
615
330
18
100
AcDbEntity
  8
1
 62
     1
100
AcDbLine
 10
18.25
 20
0.40349375
 30
0.0
 11
18.13654701076759
 21
0.6000000000000025
 31
0.0
  0
LINE
  5
616
330
18
100
AcDbEntity
  8
1
 62
     1
100
AcDbLine
 10
18.36345298923241
 20
0.5999999999999992
 30
0.0
 11
18.25
 21
0.40349375
 31
0.0
  0
LINE
  5
617
330
18
100
AcDbEntity
  8
1
 62
     1
100
AcDbLine
 10
17.86345298923241
 20
0.6000000000000026
 30
0.0
 11
17.75
 21
0.40349375
 31
0.0
  0
LINE
  5
618
330
18
100
AcDbEntity
  8
1
 62
     1
100
AcDbLine
 10
17.75
 20
0.40349375
 30
0.0
 11
17.63654701076759
 21
0.6000000000000025
 31
0.0
  0
LINE
  5
619
330
18
100
AcDbEntity
  8
1
 62
     1
100
AcDbLine
 10
18.5
 20
0.40349375
 30
0.0
 11
18.38654701076759
 21
0.6000000000000025
 31
0.0
  0
LINE
  5
61A
330
18
100
AcDbEntity
  8
1
 62
     1
100
AcDbLine
 10
18.85017329520402
 20
0.5769989059581215
 30
0.0
 11
18.75
 21
0.40349375
 31
0.0
  0
LINE
  5
61B
330
18
100
AcDbEntity
  8
1
 62
     1
100
AcDbLine
 10
18.75
 20
0.40349375
 30
0.0
 11
18.63845169749831
 21
0.5967009873480497
 31
0.0
  0
LINE
  5
61C
330
18
100
AcDbEntity
  8
1
 62
     1
100
AcDbLine
 10
17.61345298923241
 20
0.5999999999999991
 30
0.0
 11
17.5
 21
0.40349375
 31
0.0
  0
LINE
  5
61D
330
18
100
AcDbEntity
  8
1
 62
     1
100
AcDbLine
 10
17.5
 20
0.40349375
 30
0.0
 11
17.38654701076759
 21
0.6000000000000025
 31
0.0
  0
LINE
  5
61E
330
18
100
AcDbEntity
  8
1
 62
     1
100
AcDbLine
 10
17.36345298923241
 20
0.5999999999999992
 30
0.0
 11
17.25
 21
0.40349375
 31
0.0
  0
LINE
  5
61F
330
18
100
AcDbEntity
  8
1
 62
     1
100
AcDbLine
 10
17.25
 20
0.40349375
 30
0.0
 11
17.13654701076759
 21
0.6000000000000025
 31
0.0
  0
LINE
  5
620
330
18
100
AcDbEntity
  8
1
 62
     1
100
AcDbLine
 10
17.11345298923241
 20
0.6000000000000026
 30
0.0
 11
17.0
 21
0.40349375
 31
0.0
  0
LINE
  5
621
330
18
100
AcDbEntity
  8
1
 62
     1
100
AcDbLine
 10
17.0
 20
0.40349375
 30
0.0
 11
16.88654701076759
 21
0.6000000000000025
 31
0.0
  0
LINE
  5
622
330
18
100
AcDbEntity
  8
1
 62
     1
100
AcDbLine
 10
18.0
 20
0.40349375
 30
0.0
 11
17.88654701076759
 21
0.6000000000000025
 31
0.0
  0
LINE
  5
623
330
18
100
AcDbEntity
  8
1
 62
     1
100
AcDbLine
 10
18.61292002357478
 20
0.5990768768327028
 30
0.0
 11
18.5
 21
0.40349375
 31
0.0
  0
LINE
  5
624
330
18
100
AcDbEntity
  8
1
 62
     1
100
AcDbLine
 10
15.61345298923242
 20
0.6000000000000035
 30
0.0
 11
15.5
 21
0.40349375
 31
0.0
  0
LINE
  5
625
330
18
100
AcDbEntity
  8
1
 62
     1
100
AcDbLine
 10
15.75
 20
0.4034937499999999
 30
0.0
 11
15.63654701076759
 21
0.5999999999999998
 31
0.0
  0
LINE
  5
626
330
18
100
AcDbEntity
  8
1
 62
     1
100
AcDbLine
 10
15.86345298923241
 20
0.6000000000000033
 30
0.0
 11
15.75
 21
0.40349375
 31
0.0
  0
LINE
  5
627
330
18
100
AcDbEntity
  8
1
 62
     1
100
AcDbLine
 10
16.75
 20
0.40349375
 30
0.0
 11
16.63654701076759
 21
0.6000000000000025
 31
0.0
  0
LINE
  5
628
330
18
100
AcDbEntity
  8
1
 62
     1
100
AcDbLine
 10
15.11345298923242
 20
0.600000000000005
 30
0.0
 11
15.0
 21
0.40349375
 31
0.0
  0
LINE
  5
629
330
18
100
AcDbEntity
  8
1
 62
     1
100
AcDbLine
 10
15.25
 20
0.40349375
 30
0.0
 11
15.13654701076759
 21
0.5999999999999998
 31
0.0
  0
LINE
  5
62A
330
18
100
AcDbEntity
  8
1
 62
     1
100
AcDbLine
 10
15.36345298923242
 20
0.6000000000000055
 30
0.0
 11
15.25
 21
0.40349375
 31
0.0
  0
LINE
  5
62B
330
18
100
AcDbEntity
  8
1
 62
     1
100
AcDbLine
 10
15.5
 20
0.40349375
 30
0.0
 11
15.38654701076759
 21
0.599999999999999
 31
0.0
  0
LINE
  5
62C
330
18
100
AcDbEntity
  8
1
 62
     1
100
AcDbLine
 10
16.11345298923241
 20
0.6000000000000026
 30
0.0
 11
16.0
 21
0.40349375
 31
0.0
  0
LINE
  5
62D
330
18
100
AcDbEntity
  8
1
 62
     1
100
AcDbLine
 10
16.0
 20
0.40349375
 30
0.0
 11
15.88654701076759
 21
0.5999999999999998
 31
0.0
  0
LINE
  5
62E
330
18
100
AcDbEntity
  8
1
 62
     1
100
AcDbLine
 10
16.25
 20
0.40349375
 30
0.0
 11
16.13654701076759
 21
0.6000000000000025
 31
0.0
  0
LINE
  5
62F
330
18
100
AcDbEntity
  8
1
 62
     1
100
AcDbLine
 10
16.36345298923241
 20
0.5999999999999992
 30
0.0
 11
16.25
 21
0.40349375
 31
0.0
  0
LINE
  5
630
330
18
100
AcDbEntity
  8
1
 62
     1
100
AcDbLine
 10
16.5
 20
0.40349375
 30
0.0
 11
16.38654701076759
 21
0.6000000000000025
 31
0.0
  0
LINE
  5
631
330
18
100
AcDbEntity
  8
1
 62
     1
100
AcDbLine
 10
16.61345298923242
 20
0.5999999999999991
 30
0.0
 11
16.5
 21
0.40349375
 31
0.0
  0
LINE
  5
632
330
18
100
AcDbEntity
  8
SK1
100
AcDbLine
 10
-15.47
 20
-1.049999999999905
 30
0.0
 11
-15.47
 21
-1.25
 31
0.0
  0
LINE
  5
633
330
18
100
AcDbEntity
  8
SK1
100
AcDbLine
 10
-20.345
 20
0.6782329983125267
 30
0.0
 11
-15.47
 21
0.6782329983125267
 31
0.0
  0
LINE
  5
634
330
18
100
AcDbEntity
  8
SK1
100
AcDbLine
 10
-20.345
 20
1.05
 30
0.0
 11
-15.47
 21
1.05
 31
0.0
  0
LINE
  5
635
330
18
100
AcDbEntity
  8
SK1
100
AcDbLine
 10
-20.345
 20
1.049999999999905
 30
0.0
 11
-20.345
 21
0.6782329983125266
 31
0.0
  0
ARC
  5
636
330
18
100
AcDbEntity
  8
SK1
100
AcDbCircle
 10
-18.64873312031163
 20
-0.2617812441013737
 30
0.0
 40
1.939139678601655
100
AcDbArc
 50
151.0062492250216
 51
159.9227651753722
  0
LINE
  5
637
330
18
100
AcDbEntity
  8
SK1
100
AcDbLine
 10
-20.47
 20
1.05
 30
0.0
 11
-20.345
 21
1.05
 31
0.0
  0
LINE
  5
638
330
18
100
AcDbEntity
  8
SK1
100
AcDbLine
 10
-15.47
 20
1.25
 30
0.0
 11
-15.47
 21
1.249957708264052
 31
0.0
  0
LINE
  5
639
330
18
100
AcDbEntity
  8
SK1
100
AcDbLine
 10
-15.47
 20
1.249957708264052
 30
0.0
 11
-15.47
 21
1.237149268026273
 31
0.0
  0
LINE
  5
63A
330
18
100
AcDbEntity
  8
SK1
100
AcDbLine
 10
-15.47
 20
1.237149268026273
 30
0.0
 11
-15.47
 21
1.049999999999905
 31
0.0
  0
LINE
  5
63B
330
18
100
AcDbEntity
  8
SK1
100
AcDbLine
 10
-20.345
 20
-0.6782329983125264
 30
0.0
 11
-15.47
 21
-0.6782329983125264
 31
0.0
  0
LINE
  5
63C
330
18
100
AcDbEntity
  8
SK1
100
AcDbLine
 10
-20.345
 20
-0.6782329983126736
 30
0.0
 11
-20.345
 21
-1.049999999999905
 31
0.0
  0
LINE
  5
63D
330
18
100
AcDbEntity
  8
SK1
100
AcDbLine
 10
-20.345
 20
-1.05
 30
0.0
 11
-15.47
 21
-1.05
 31
0.0
  0
LINE
  5
63E
330
18
100
AcDbEntity
  8
SK1
100
AcDbLine
 10
-20.47
 20
0.4038873605350879
 30
0.0
 11
-20.47000000000001
 21
-0.4038873605350874
 31
0.0
  0
LINE
  5
63F
330
18
100
AcDbEntity
  8
SK1
100
AcDbLine
 10
-20.47
 20
1.05
 30
0.0
 11
-20.47
 21
0.4038873605350875
 31
0.0
  0
LINE
  5
640
330
18
100
AcDbEntity
  8
SK1
100
AcDbLine
 10
-20.47
 20
-0.4038873605350875
 30
0.0
 11
-20.47
 21
-1.05
 31
0.0
  0
ARC
  5
641
330
18
100
AcDbEntity
  8
SK1
100
AcDbCircle
 10
-18.64873312031338
 20
0.2617812441006521
 30
0.0
 40
1.939139678599764
100
AcDbArc
 50
200.0772348246253
 51
208.9937507749848
  0
LINE
  5
642
330
18
100
AcDbEntity
  8
SK1
100
AcDbLine
 10
-20.47
 20
-1.05
 30
0.0
 11
-20.345
 21
-1.05
 31
0.0
  0
LINE
  5
643
330
18
100
AcDbEntity
  8
SK1
100
AcDbLine
 10
-15.47
 20
0.6782329983125266
 30
0.0
 11
-15.47
 21
-0.6782329983125263
 31
0.0
  0
LINE
  5
644
330
18
100
AcDbEntity
  8
SK1
100
AcDbLine
 10
-0.0000000000000009
 20
1.25
 30
0.0
 11
-15.47
 21
1.25
 31
0.0
  0
LINE
  5
645
330
18
100
AcDbEntity
  8
SK1
100
AcDbLine
 10
-15.47
 20
-1.25
 30
0.0
 11
0.0
 21
-1.25
 31
0.0
  0
DIMENSION
  5
646
330
18
100
AcDbEntity
  8
2
100
AcDbDimension
  2
*D0
 10
35.00000000000001
 20
-0.5999999999999476
 30
0.0
 11
32.60225000000007
 21
-11.41024999999996
 31
0.0
 70
    32
  1
M1.2
 71
     5
 42
1.2
  3
STANDARD
100
AcDbAlignedDimension
 13
20.0
 23
0.6
 33
0.0
 14
20.0
 24
-0.6
 34
0.0
 50
90.0000000000002
100
AcDbRotatedDimension
  0
DIMENSION
  5
654
330
18
100
AcDbEntity
  8
2
100
AcDbDimension
  2
*D1
 10
20.0
 20
75.0
 30
0.0
 11
10.0
 21
77.39075
 31
0.0
 70
    32
  1
<>
 71
     5
 42
20.0
  3
STANDARD
100
AcDbAlignedDimension
 13
0.0
 23
0.0
 33
0.0
 14
20.0
 24
0.0
 34
0.0
100
AcDbRotatedDimension
  0
DIMENSION
  5
661
330
18
100
AcDbEntity
  8
SK2
100
AcDbDimension
  2
*D2
 10
-35.46999999999362
 20
-1.250000000102068
 30
0.0
 11
-37.86774999993709
 21
-12.32450000011431
 31
0.0
 70
    32
  1
%%c<>
 71
     5
 42
2.5
  3
STANDARD
100
AcDbAlignedDimension
 13
-15.47
 23
1.25
 33
0.0
 14
-15.47
 24
-1.25
 34
0.0
 50
90.0000000002924
100
AcDbRotatedDimension
  0
DIMENSION
  5
66F
330
18
100
AcDbEntity
  8
2
100
AcDbDimension
  2
*D3
 10
20.0
 20
60.0
 30
0.0
 11
17.5
 21
62.39075
 31
0.0
 70
    32
  1
<>
 71
     5
 42
5.0
  3
STANDARD
100
AcDbAlignedDimension
 13
15.0
 23
1.25
 33
0.0
 14
20.0
 24
0.6
 34
0.0
100
AcDbRotatedDimension
  0
DIMENSION
  5
67D
330
18
100
AcDbEntity
  8
SK2
100
AcDbDimension
  2
*D4
 10
20.0
 20
90.0
 30
0.0
 11
-0.2349999999999994
 21
92.438
 31
0.0
 70
    32
  1
<>
 71
     5
 42
40.47
  3
STANDARD
100
AcDbAlignedDimension
 13
-20.47
 23
0.6
 33
0.0
 14
20.0
 24
0.6
 34
0.0
100
AcDbRotatedDimension
  0
ENDSEC
  0
SECTION
  2
OBJECTS
  0
DICTIONARY
  5
C
330
0
100
AcDbDictionary
281
     1
  3
ACAD_COLOR
350
387
  3
ACAD_GROUP
350
D
  3
ACAD_LAYOUT
350
301
  3
ACAD_MATERIAL
350
386
  3
ACAD_MLEADERSTYLE
350
68A
  3
ACAD_MLINESTYLE
350
E
  3
ACAD_PLOTSETTINGS
350
302
  3
ACAD_PLOTSTYLENAME
350
2FF
  3
ACAD_SCALELIST
350
3A0
  3
ACAD_TABLESTYLE
350
388
  3
ACAD_VISUALSTYLE
350
3C5
  3
ACDBHEADERROUNDTRIPXREC
350
68B
  3
AcDbVariableDictionary
350
357
  0
DICTIONARY
  5
387
102
{ACAD_REACTORS
330
C
102
}
330
C
100
AcDbDictionary
281
     1
  0
DICTIONARY
  5
D
102
{ACAD_REACTORS
330
C
102
}
330
C
100
AcDbDictionary
281
     1
  0
DICTIONARY
  5
301
102
{ACAD_REACTORS
330
C
102
}
330
C
100
AcDbDictionary
281
     1
  3
Layout1
350
33B
  3
Model
350
303
  0
DICTIONARY
  5
386
102
{ACAD_REACTORS
330
C
102
}
330
C
100
AcDbDictionary
281
     1
  3
ByBlock
350
3C3
  3
ByLayer
350
3C2
  3
Global
350
3C4
  0
DICTIONARY
  5
68A
102
{ACAD_REACTORS
330
C
102
}
330
C
100
AcDbDictionary
281
     1
  0
DICTIONARY
  5
E
102
{ACAD_REACTORS
330
C
102
}
330
C
100
AcDbDictionary
281
     1
  3
STANDARD
350
1B
  0
DICTIONARY
  5
302
102
{ACAD_REACTORS
330
C
102
}
330
C
100
AcDbDictionary
281
     1
  0
ACDBDICTIONARYWDFLT
  5
2FF
102
{ACAD_REACTORS
330
C
102
}
330
C
100
AcDbDictionary
281
     1
  3
Normal
350
300
100
AcDbDictionaryWithDefault
340
300
  0
DICTIONARY
  5
3A0
102
{ACAD_REACTORS
330
C
102
}
330
C
100
AcDbDictionary
281
     1
  3
A0
350
3A1
  3
A1
350
3A2
  3
A2
350
3A3
  3
A3
350
3A4
  3
A4
350
3A5
  3
A5
350
3A6
  3
A6
350
3A7
  3
A7
350
3A8
  3
A8
350
3A9
  3
A9
350
3AA
  3
B0
350
3AB
  3
B1
350
3AC
  3
B2
350
3AD
  3
B3
350
3AE
  3
B4
350
3AF
  3
B5
350
3B0
  3
B6
350
3B1
  3
B7
350
3B2
  3
B8
350
3B3
  3
B9
350
3B4
  3
C0
350
3B5
  3
C1
350
3B6
  3
C2
350
3B7
  3
C3
350
3B8
  3
C4
350
3B9
  3
C5
350
3BA
  3
C6
350
3BB
  3
C7
350
3BC
  3
C8
350
3BD
  3
C9
350
3BE
  3
D0
350
3BF
  3
D1
350
3C0
  3
D2
350
3C1
  0
DICTIONARY
  5
388
102
{ACAD_REACTORS
330
C
102
}
330
C
100
AcDbDictionary
281
     1
  3
Standard
350
389
  0
DICTIONARY
  5
3C5
102
{ACAD_REACTORS
330
C
102
}
330
C
100
AcDbDictionary
281
     1
  3
2dWireframe
350
3CA
  3
3D Hidden
350
3CC
  3
3dWireframe
350
3CB
  3
Basic
350
3CD
  3
Brighten
350
3D1
  3
ColorChange
350
3D5
  3
Conceptual
350
3CF
  3
Dim
350
3D0
  3
Facepattern
350
3D4
  3
Flat
350
3C6
  3
FlatWithEdges
350
3C7
  3
Gouraud
350
3C8
  3
GouraudWithEdges
350
3C9
  3
Linepattern
350
3D3
  3
Realistic
350
3CE
  3
Thicken
350
3D2
  0
DICTIONARY
  5
68B
102
{ACAD_REACTORS
330
C
102
}
330
C
100
AcDbDictionary
281
     1
  3
COLORDICT
350
68C
  3
MATERIALDICT
350
68D
  0
DICTIONARY
  5
357
102
{ACAD_REACTORS
330
C
102
}
330
C
100
AcDbDictionary
281
     1
  3
CANNOSCALE
350
68E
  3
CTABLESTYLE
350
38D
  3
DIMASSOC
350
359
  3
HIDETEXT
350
358
  3
PROJECTNAME
350
38E
  0
LAYOUT
  5
33B
102
{ACAD_REACTORS
330
301
102
}
330
301
100
AcDbPlotSettings
  1

  2
Lexmark Optra PS2
  4

  6

 40
0.0
 41
0.0
 42
0.0
 43
0.0
 44
0.0
 45
0.0
 46
0.0
 47
0.0
 48
0.0
 49
0.0
140
0.0
141
0.0
142
1.0
143
1.0
 70
   688
 72
     0
 73
     0
 74
     5
  7
monochrome.ctb
 75
    16
147
1.0
148
0.0
149
0.0
100
AcDbLayout
  1
Layout1
 70
     1
 71
     1
 10
0.0
 20
0.0
 11
12.0
 21
9.0
 12
0.0
 22
0.0
 32
0.0
 14
0.0
 24
0.0
 34
0.0
 15
0.0
 25
0.0
 35
0.0
146
0.0
 13
0.0
 23
0.0
 33
0.0
 16
1.0
 26
0.0
 36
0.0
 17
0.0
 27
1.0
 37
0.0
 76
     0
330
338
  0
LAYOUT
  5
303
102
{ACAD_REACTORS
330
301
102
}
330
301
100
AcDbPlotSettings
  1

  2
Lexmark Optra Rx
  4
A4
  6

 40
6.805083274841307
 41
5.535083293914794
 42
6.974411010742187
 43
7.14373779296875
 44
209.9733276367186
 45
296.9259948730469
 46
0.0
 47
0.0
 48
0.0
 49
0.0
140
0.0
141
0.0
142
1.0
143
2.976565420630886
 70
 11952
 72
     1
 73
     1
 74
     0
  7
monochrome.ctb
 75
     0
147
0.335957675604539
148
204.1199660668592
149
172.3933209647495
100
AcDbLayout
  1
Model
 70
     1
 71
     0
 10
0.0
 20
0.0
 11
12.0
 21
9.0
 12
0.0
 22
0.0
 32
0.0
 14
0.0
 24
0.0
 34
0.0
 15
0.0
 25
0.0
 35
0.0
146
0.0
 13
0.0
 23
0.0
 33
0.0
 16
1.0
 26
0.0
 36
0.0
 17
0.0
 27
1.0
 37
0.0
 76
     0
330
18
331
39A
  0
MATERIAL
  5
3C3
102
{ACAD_REACTORS
330
386
102
}
102
{ACAD_XDICTIONARY
360
691
102
}
330
386
100
AcDbMaterial
  1
ByBlock
  0
MATERIAL
  5
3C2
102
{ACAD_REACTORS
330
386
102
}
102
{ACAD_XDICTIONARY
360
68F
102
}
330
386
100
AcDbMaterial
  1
ByLayer
  0
MATERIAL
  5
3C4
102
{ACAD_REACTORS
330
386
102
}
102
{ACAD_XDICTIONARY
360
693
102
}
330
386
100
AcDbMaterial
  1
Global
  0
MLINESTYLE
  5
1B
102
{ACAD_REACTORS
330
E
102
}
330
E
100
AcDbMlineStyle
  2
STANDARD
 70
     0
  3

 62
     0
 51
90.0
 52
90.0
 71
     2
 49
0.5
 62
   256
  6
BYLAYER
 49
-0.5
 62
   256
  6
BYLAYER
  0
ACDBPLACEHOLDER
  5
300
102
{ACAD_REACTORS
330
2FF
102
}
330
2FF
  0
SCALE
  5
3A1
102
{ACAD_REACTORS
330
3A0
102
}
330
3A0
100
AcDbScale
 70
     0
300
1:1
140
1.0
141
1.0
290
     1
  0
SCALE
  5
3A2
102
{ACAD_REACTORS
330
3A0
102
}
330
3A0
100
AcDbScale
 70
     0
300
1:2
140
1.0
141
2.0
290
     0
  0
SCALE
  5
3A3
102
{ACAD_REACTORS
330
3A0
102
}
330
3A0
100
AcDbScale
 70
     0
300
1:4
140
1.0
141
4.0
290
     0
  0
SCALE
  5
3A4
102
{ACAD_REACTORS
330
3A0
102
}
330
3A0
100
AcDbScale
 70
     0
300
1:5
140
1.0
141
5.0
290
     0
  0
SCALE
  5
3A5
102
{ACAD_REACTORS
330
3A0
102
}
330
3A0
100
AcDbScale
 70
     0
300
1:8
140
1.0
141
8.0
290
     0
  0
SCALE
  5
3A6
102
{ACAD_REACTORS
330
3A0
102
}
330
3A0
100
AcDbScale
 70
     0
300
1:10
140
1.0
141
10.0
290
     0
  0
SCALE
  5
3A7
102
{ACAD_REACTORS
330
3A0
102
}
330
3A0
100
AcDbScale
 70
     0
300
1:16
140
1.0
141
16.0
290
     0
  0
SCALE
  5
3A8
102
{ACAD_REACTORS
330
3A0
102
}
330
3A0
100
AcDbScale
 70
     0
300
1:20
140
1.0
141
20.0
290
     0
  0
SCALE
  5
3A9
102
{ACAD_REACTORS
330
3A0
102
}
330
3A0
100
AcDbScale
 70
     0
300
1:30
140
1.0
141
30.0
290
     0
  0
SCALE
  5
3AA
102
{ACAD_REACTORS
330
3A0
102
}
330
3A0
100
AcDbScale
 70
     0
300
1:40
140
1.0
141
40.0
290
     0
  0
SCALE
  5
3AB
102
{ACAD_REACTORS
330
3A0
102
}
330
3A0
100
AcDbScale
 70
     0
300
1:50
140
1.0
141
50.0
290
     0
  0
SCALE
  5
3AC
102
{ACAD_REACTORS
330
3A0
102
}
330
3A0
100
AcDbScale
 70
     0
300
1:100
140
1.0
141
100.0
290
     0
  0
SCALE
  5
3AD
102
{ACAD_REACTORS
330
3A0
102
}
330
3A0
100
AcDbScale
 70
     0
300
2:1
140
2.0
141
1.0
290
     0
  0
SCALE
  5
3AE
102
{ACAD_REACTORS
330
3A0
102
}
330
3A0
100
AcDbScale
 70
     0
300
4:1
140
4.0
141
1.0
290
     0
  0
SCALE
  5
3AF
102
{ACAD_REACTORS
330
3A0
102
}
330
3A0
100
AcDbScale
 70
     0
300
8:1
140
8.0
141
1.0
290
     0
  0
SCALE
  5
3B0
102
{ACAD_REACTORS
330
3A0
102
}
330
3A0
100
AcDbScale
 70
     0
300
10:1
140
10.0
141
1.0
290
     0
  0
SCALE
  5
3B1
102
{ACAD_REACTORS
330
3A0
102
}
330
3A0
100
AcDbScale
 70
     0
300
100:1
140
100.0
141
1.0
290
     0
  0
SCALE
  5
3B2
102
{ACAD_REACTORS
330
3A0
102
}
330
3A0
100
AcDbScale
 70
     0
300
1/128" = 1'-0"
140
0.0078125
141
12.0
290
     0
  0
SCALE
  5
3B3
102
{ACAD_REACTORS
330
3A0
102
}
330
3A0
100
AcDbScale
 70
     0
300
1/64" = 1'-0"
140
0.015625
141
12.0
290
     0
  0
SCALE
  5
3B4
102
{ACAD_REACTORS
330
3A0
102
}
330
3A0
100
AcDbScale
 70
     0
300
1/32" = 1'-0"
140
0.03125
141
12.0
290
     0
  0
SCALE
  5
3B5
102
{ACAD_REACTORS
330
3A0
102
}
330
3A0
100
AcDbScale
 70
     0
300
1/16" = 1'-0"
140
0.0625
141
12.0
290
     0
  0
SCALE
  5
3B6
102
{ACAD_REACTORS
330
3A0
102
}
330
3A0
100
AcDbScale
 70
     0
300
3/32" = 1'-0"
140
0.09375
141
12.0
290
     0
  0
SCALE
  5
3B7
102
{ACAD_REACTORS
330
3A0
102
}
330
3A0
100
AcDbScale
 70
     0
300
1/8" = 1'-0"
140
0.125
141
12.0
290
     0
  0
SCALE
  5
3B8
102
{ACAD_REACTORS
330
3A0
102
}
330
3A0
100
AcDbScale
 70
     0
300
3/16" = 1'-0"
140
0.1875
141
12.0
290
     0
  0
SCALE
  5
3B9
102
{ACAD_REACTORS
330
3A0
102
}
330
3A0
100
AcDbScale
 70
     0
300
1/4" = 1'-0"
140
0.25
141
12.0
290
     0
  0
SCALE
  5
3BA
102
{ACAD_REACTORS
330
3A0
102
}
330
3A0
100
AcDbScale
 70
     0
300
3/8" = 1'-0"
140
0.375
141
12.0
290
     0
  0
SCALE
  5
3BB
102
{ACAD_REACTORS
330
3A0
102
}
330
3A0
100
AcDbScale
 70
     0
300
1/2" = 1'-0"
140
0.5
141
12.0
290
     0
  0
SCALE
  5
3BC
102
{ACAD_REACTORS
330
3A0
102
}
330
3A0
100
AcDbScale
 70
     0
300
3/4" = 1'-0"
140
0.75
141
12.0
290
     0
  0
SCALE
  5
3BD
102
{ACAD_REACTORS
330
3A0
102
}
330
3A0
100
AcDbScale
 70
     0
300
1" = 1'-0"
140
1.0
141
12.0
290
     0
  0
SCALE
  5
3BE
102
{ACAD_REACTORS
330
3A0
102
}
330
3A0
100
AcDbScale
 70
     0
300
1-1/2" = 1'-0"
140
1.5
141
12.0
290
     0
  0
SCALE
  5
3BF
102
{ACAD_REACTORS
330
3A0
102
}
330
3A0
100
AcDbScale
 70
     0
300
3" = 1'-0"
140
3.0
141
12.0
290
     0
  0
SCALE
  5
3C0
102
{ACAD_REACTORS
330
3A0
102
}
330
3A0
100
AcDbScale
 70
     0
300
6" = 1'-0"
140
6.0
141
12.0
290
     0
  0
SCALE
  5
3C1
102
{ACAD_REACTORS
330
3A0
102
}
330
3A0
100
AcDbScale
 70
     0
300
1'-0" = 1'-0"
140
12.0
141
12.0
290
     0
  0
TABLESTYLE
  5
389
102
{ACAD_REACTORS
330
388
102
}
330
388
100
AcDbTableStyle
  3
Standard
 70
     0
 71
     0
 40
1.5
 41
1.5
280
     0
281
     0
  7
STANDARD
140
4.5
170
     2
 62
     0
 63
   257
283
     0
274
    -2
284
     1
 64
     0
275
    -2
285
     1
 65
     0
276
    -2
286
     1
 66
     0
277
    -2
287
     1
 67
     0
278
    -2
288
     1
 68
     0
279
    -2
289
     1
 69
     0
  7
STANDARD
140
6.0
170
     5
 62
     0
 63
   257
283
     0
274
    -2
284
     1
 64
     0
275
    -2
285
     1
 65
     0
276
    -2
286
     1
 66
     0
277
    -2
287
     1
 67
     0
278
    -2
288
     1
 68
     0
279
    -2
289
     1
 69
     0
  7
STANDARD
140
4.5
170
     5
 62
     0
 63
   257
283
     0
274
    -2
284
     1
 64
     0
275
    -2
285
     1
 65
     0
276
    -2
286
     1
 66
     0
277
    -2
287
     1
 67
     0
278
    -2
288
     1
 68
     0
279
    -2
289
     1
 69
     0
  0
VISUALSTYLE
  5
3CA
102
{ACAD_REACTORS
330
3C5
102
}
102
{ACAD_XDICTIONARY
360
69D
102
}
330
3C5
100
AcDbVisualStyle
  2
2dWireframe
 70
     4
 71
     0
 72
     2
 73
     0
 90
        0
 40
-0.6
 41
-30.0
 62
     5
 63
     7
 74
     1
 91
        4
 64
     7
 65
   257
 75
     1
175
     1
 42
1.0
 92
        0
 66
   257
 43
1.0
 76
     1
 77
     6
 78
     2
 67
     7
 79
     5
170
     0
171
     0
290
     0
174
     0
 93
        1
 44
0.0
173
     0
291
     0
 45
0.0
1001
ACAD
1000
AcDbSavedByObjectVersion
1070
     0
  0
VISUALSTYLE
  5
3CC
102
{ACAD_REACTORS
330
3C5
102
}
102
{ACAD_XDICTIONARY
360
6A1
102
}
330
3C5
100
AcDbVisualStyle
  2
3D Hidden
 70
     6
 71
     1
 72
     2
 73
     2
 90
        0
 40
-0.6
 41
-30.0
 62
     5
 63
     7
 74
     2
 91
        2
 64
     7
 65
   257
 75
     2
175
     1
 42
40.0
 92
        0
 66
   257
 43
1.0
 76
     1
 77
     6
 78
     2
 67
     7
 79
     3
170
     0
171
     0
290
     0
174
     0
 93
        1
 44
0.0
173
     0
291
     0
 45
0.0
1001
ACAD
1000
AcDbSavedByObjectVersion
1070
     0
  0
VISUALSTYLE
  5
3CB
102
{ACAD_REACTORS
330
3C5
102
}
102
{ACAD_XDICTIONARY
360
69F
102
}
330
3C5
100
AcDbVisualStyle
  2
3dWireframe
 70
     5
 71
     0
 72
     2
 73
     0
 90
        0
 40
-0.6
 41
-30.0
 62
     5
 63
     7
 74
     1
 91
        4
 64
     7
 65
   257
 75
     1
175
     1
 42
1.0
 92
        0
 66
   257
 43
1.0
 76
     1
 77
     6
 78
     2
 67
     7
 79
     5
170
     0
171
     0
290
     0
174
     0
 93
        1
 44
0.0
173
     0
291
     0
 45
0.0
1001
ACAD
1000
AcDbSavedByObjectVersion
1070
     0
  0
VISUALSTYLE
  5
3CD
102
{ACAD_REACTORS
330
3C5
102
}
102
{ACAD_XDICTIONARY
360
6A3
102
}
330
3C5
100
AcDbVisualStyle
  2
Basic
 70
     7
 71
     1
 72
     0
 73
     1
 90
        0
 40
-0.6
 41
-30.0
 62
     5
 63
     7
 74
     0
 91
        4
 64
     7
 65
   257
 75
     1
175
     1
 42
1.0
 92
        8
 66
     7
 43
1.0
 76
     1
 77
     6
 78
     2
 67
     7
 79
     5
170
     0
171
     0
290
     0
174
     0
 93
        1
 44
0.0
173
     0
291
     1
 45
0.0
1001
ACAD
1000
AcDbSavedByObjectVersion
1070
     0
  0
VISUALSTYLE
  5
3D1
102
{ACAD_REACTORS
330
3C5
102
}
102
{ACAD_XDICTIONARY
360
6AB
102
}
330
3C5
100
AcDbVisualStyle
  2
Brighten
 70
    12
 71
     2
 72
     2
 73
     0
 90
        0
 40
-0.6
 41
-30.0
 62
     5
 63
     7
 74
     1
 91
        4
 64
     7
 65
   257
 75
     1
175
     1
 42
1.0
 92
        8
 66
     7
 43
1.0
 76
     1
 77
     6
 78
     2
 67
     7
 79
     5
170
     0
171
     0
290
     0
174
     0
 93
        1
 44
50.0
173
     0
291
     1
 45
0.0
1001
ACAD
1000
AcDbSavedByObjectVersion
1070
     0
  0
VISUALSTYLE
  5
3D5
102
{ACAD_REACTORS
330
3C5
102
}
102
{ACAD_XDICTIONARY
360
6B3
102
}
330
3C5
100
AcDbVisualStyle
  2
ColorChange
 70
    16
 71
     2
 72
     2
 73
     3
 90
        0
 40
-0.6
 41
-30.0
 62
     5
 63
     8
 74
     1
 91
        4
 64
     7
 65
   257
 75
     1
175
     1
 42
1.0
 92
        8
 66
     8
 43
1.0
 76
     1
 77
     6
 78
     2
 67
     7
 79
     5
170
     0
171
     0
290
     0
174
     0
 93
        1
 44
0.0
173
     0
291
     1
 45
0.0
1001
ACAD
1000
AcDbSavedByObjectVersion
1070
     0
  0
VISUALSTYLE
  5
3CF
102
{ACAD_REACTORS
330
3C5
102
}
102
{ACAD_XDICTIONARY
360
6A7
102
}
330
3C5
100
AcDbVisualStyle
  2
Conceptual
 70
     9
 71
     3
 72
     2
 73
     0
 90
        0
 40
-0.6
 41
-30.0
 62
     5
 63
     7
 74
     2
 91
        2
 64
     7
 65
   257
 75
     1
175
     1
 42
40.0
 92
        8
 66
     7
 43
1.0
 76
     1
 77
     6
 78
     2
 67
     7
 79
     3
170
     0
171
     0
290
     0
174
     0
 93
        1
 44
0.0
173
     0
291
     0
 45
0.0
1001
ACAD
1000
AcDbSavedByObjectVersion
1070
     0
  0
VISUALSTYLE
  5
3D0
102
{ACAD_REACTORS
330
3C5
102
}
102
{ACAD_XDICTIONARY
360
6A9
102
}
330
3C5
100
AcDbVisualStyle
  2
Dim
 70
    11
 71
     2
 72
     2
 73
     0
 90
        0
 40
-0.6
 41
-30.0
 62
     5
 63
     7
 74
     1
 91
        4
 64
     7
 65
   257
 75
     1
175
     1
 42
1.0
 92
        8
 66
     7
 43
1.0
 76
     1
 77
     6
 78
     2
 67
     7
 79
     5
170
     0
171
     0
290
     0
174
     0
 93
        1
 44
-50.0
173
     0
291
     1
 45
0.0
1001
ACAD
1000
AcDbSavedByObjectVersion
1070
     0
  0
VISUALSTYLE
  5
3D4
102
{ACAD_REACTORS
330
3C5
102
}
102
{ACAD_XDICTIONARY
360
6B1
102
}
330
3C5
100
AcDbVisualStyle
  2
Facepattern
 70
    15
 71
     2
 72
     2
 73
     0
 90
        0
 40
-0.6
 41
-30.0
 62
     5
 63
     7
 74
     1
 91
        4
 64
     7
 65
   257
 75
     1
175
     1
 42
1.0
 92
        8
 66
     7
 43
1.0
 76
     1
 77
     6
 78
     2
 67
     7
 79
     5
170
     0
171
     0
290
     0
174
     0
 93
        1
 44
0.0
173
     0
291
     1
 45
0.0
1001
ACAD
1000
AcDbSavedByObjectVersion
1070
     0
  0
VISUALSTYLE
  5
3C6
102
{ACAD_REACTORS
330
3C5
102
}
102
{ACAD_XDICTIONARY
360
695
102
}
330
3C5
100
AcDbVisualStyle
  2
Flat
 70
     0
 71
     2
 72
     1
 73
     1
 90
        2
 40
-0.6
 41
30.0
 62
     5
 63
     7
 74
     0
 91
        4
 64
     7
 65
   257
 75
     1
175
     1
 42
1.0
 92
        8
 66
     7
 43
1.0
 76
     1
 77
     6
 78
     2
 67
     7
 79
     5
170
     0
171
     0
290
     0
174
     0
 93
       13
 44
0.0
173
     0
291
     1
 45
0.0
1001
ACAD
1000
AcDbSavedByObjectVersion
1070
     0
  0
VISUALSTYLE
  5
3C7
102
{ACAD_REACTORS
330
3C5
102
}
102
{ACAD_XDICTIONARY
360
697
102
}
330
3C5
100
AcDbVisualStyle
  2
FlatWithEdges
 70
     1
 71
     2
 72
     1
 73
     1
 90
        2
 40
-0.6
 41
30.0
 62
     5
 63
     7
 74
     1
 91
        4
 64
     7
 65
   257
 75
     1
175
     1
 42
1.0
 92
        0
 66
   257
 43
1.0
 76
     1
 77
     6
 78
     2
 67
     7
 79
     5
170
     0
171
     0
290
     0
174
     0
 93
       13
 44
0.0
173
     0
291
     1
 45
0.0
1001
ACAD
1000
AcDbSavedByObjectVersion
1070
     0
  0
VISUALSTYLE
  5
3C8
102
{ACAD_REACTORS
330
3C5
102
}
102
{ACAD_XDICTIONARY
360
699
102
}
330
3C5
100
AcDbVisualStyle
  2
Gouraud
 70
     2
 71
     2
 72
     2
 73
     1
 90
        2
 40
-0.6
 41
30.0
 62
     5
 63
     7
 74
     0
 91
        4
 64
     7
 65
   257
 75
     1
175
     1
 42
1.0
 92
        0
 66
     7
 43
1.0
 76
     1
 77
     6
 78
     2
 67
     7
 79
     5
170
     0
171
     0
290
     0
174
     0
 93
       13
 44
0.0
173
     0
291
     1
 45
0.0
1001
ACAD
1000
AcDbSavedByObjectVersion
1070
     0
  0
VISUALSTYLE
  5
3C9
102
{ACAD_REACTORS
330
3C5
102
}
102
{ACAD_XDICTIONARY
360
69B
102
}
330
3C5
100
AcDbVisualStyle
  2
GouraudWithEdges
 70
     3
 71
     2
 72
     2
 73
     1
 90
        2
 40
-0.6
 41
30.0
 62
     5
 63
     7
 74
     1
 91
        4
 64
     7
 65
   257
 75
     1
175
     1
 42
1.0
 92
        0
 66
   257
 43
1.0
 76
     1
 77
     6
 78
     2
 67
     7
 79
     5
170
     0
171
     0
290
     0
174
     0
 93
       13
 44
0.0
173
     0
291
     1
 45
0.0
1001
ACAD
1000
AcDbSavedByObjectVersion
1070
     0
  0
VISUALSTYLE
  5
3D3
102
{ACAD_REACTORS
330
3C5
102
}
102
{ACAD_XDICTIONARY
360
6AF
102
}
330
3C5
100
AcDbVisualStyle
  2
Linepattern
 70
    14
 71
     2
 72
     2
 73
     0
 90
        0
 40
-0.6
 41
-30.0
 62
     5
 63
     7
 74
     1
 91
        4
 64
     7
 65
   257
 75
     7
175
     7
 42
1.0
 92
        8
 66
     7
 43
1.0
 76
     1
 77
     6
 78
     2
 67
     7
 79
     5
170
     0
171
     0
290
     0
174
     0
 93
        1
 44
0.0
173
     0
291
     1
 45
0.0
1001
ACAD
1000
AcDbSavedByObjectVersion
1070
     0
  0
VISUALSTYLE
  5
3CE
102
{ACAD_REACTORS
330
3C5
102
}
102
{ACAD_XDICTIONARY
360
6A5
102
}
330
3C5
100
AcDbVisualStyle
  2
Realistic
 70
     8
 71
     2
 72
     2
 73
     0
 90
        0
 40
-0.6
 41
-30.0
 62
     5
 63
     7
 74
     1
 91
        0
 64
     7
 65
   257
 75
     1
175
     1
 42
1.0
 92
        8
 66
     8
 43
1.0
 76
     1
 77
     6
 78
     2
 67
     7
 79
     5
170
     0
171
     0
290
     0
174
     0
 93
       13
 44
0.0
173
     0
291
     0
 45
0.0
1001
ACAD
1000
AcDbSavedByObjectVersion
1070
     0
  0
VISUALSTYLE
  5
3D2
102
{ACAD_REACTORS
330
3C5
102
}
102
{ACAD_XDICTIONARY
360
6AD
102
}
330
3C5
100
AcDbVisualStyle
  2
Thicken
 70
    13
 71
     2
 72
     2
 73
     0
 90
        0
 40
-0.6
 41
-30.0
 62
     5
 63
     7
 74
     1
 91
        4
 64
     7
 65
   257
 75
     1
175
     1
 42
1.0
 92
       12
 66
     7
 43
1.0
 76
     1
 77
     6
 78
     2
 67
     7
 79
     5
170
     0
171
     0
290
     0
174
     0
 93
        1
 44
0.0
173
     0
291
     1
 45
0.0
1001
ACAD
1000
AcDbSavedByObjectVersion
1070
     0
  0
XRECORD
  5
68C
102
{ACAD_REACTORS
330
68B
102
}
330
68B
100
AcDbXrecord
280
     1
340
387
  0
XRECORD
  5
68D
102
{ACAD_REACTORS
330
68B
102
}
330
68B
100
AcDbXrecord
280
     1
340
386
  0
DICTIONARYVAR
  5
68E
102
{ACAD_REACTORS
330
357
102
}
330
357
100
DictionaryVariables
280
     0
  1
1:1
  0
DICTIONARYVAR
  5
38D
102
{ACAD_REACTORS
330
357
102
}
330
357
100
DictionaryVariables
280
     0
  1
Standard
  0
DICTIONARYVAR
  5
359
102
{ACAD_REACTORS
330
357
102
}
330
357
100
DictionaryVariables
280
     0
  1
2
  0
DICTIONARYVAR
  5
358
102
{ACAD_REACTORS
330
357
102
}
330
357
100
DictionaryVariables
280
     0
  1
1
  0
DICTIONARYVAR
  5
38E
102
{ACAD_REACTORS
330
357
102
}
330
357
100
DictionaryVariables
280
     0
  1

  0
DICTIONARY
  5
691
330
3C3
100
AcDbDictionary
280
     1
281
     1
  3
ACAD_XREC_ROUNDTRIP
360
692
  0
DICTIONARY
  5
68F
330
3C2
100
AcDbDictionary
280
     1
281
     1
  3
ACAD_XREC_ROUNDTRIP
360
690
  0
DICTIONARY
  5
693
330
3C4
100
AcDbDictionary
280
     1
281
     1
  3
ACAD_XREC_ROUNDTRIP
360
694
  0
DICTIONARY
  5
69D
330
3CA
100
AcDbDictionary
280
     1
281
     1
  3
ACAD_XREC_ROUNDTRIP
360
69E
  0
DICTIONARY
  5
6A1
330
3CC
100
AcDbDictionary
280
     1
281
     1
  3
ACAD_XREC_ROUNDTRIP
360
6A2
  0
DICTIONARY
  5
69F
330
3CB
100
AcDbDictionary
280
     1
281
     1
  3
ACAD_XREC_ROUNDTRIP
360
6A0
  0
DICTIONARY
  5
6A3
330
3CD
100
AcDbDictionary
280
     1
281
     1
  3
ACAD_XREC_ROUNDTRIP
360
6A4
  0
DICTIONARY
  5
6AB
330
3D1
100
AcDbDictionary
280
     1
281
     1
  3
ACAD_XREC_ROUNDTRIP
360
6AC
  0
DICTIONARY
  5
6B3
330
3D5
100
AcDbDictionary
280
     1
281
     1
  3
ACAD_XREC_ROUNDTRIP
360
6B4
  0
DICTIONARY
  5
6A7
330
3CF
100
AcDbDictionary
280
     1
281
     1
  3
ACAD_XREC_ROUNDTRIP
360
6A8
  0
DICTIONARY
  5
6A9
330
3D0
100
AcDbDictionary
280
     1
281
     1
  3
ACAD_XREC_ROUNDTRIP
360
6AA
  0
DICTIONARY
  5
6B1
330
3D4
100
AcDbDictionary
280
     1
281
     1
  3
ACAD_XREC_ROUNDTRIP
360
6B2
  0
DICTIONARY
  5
695
330
3C6
100
AcDbDictionary
280
     1
281
     1
  3
ACAD_XREC_ROUNDTRIP
360
696
  0
DICTIONARY
  5
697
330
3C7
100
AcDbDictionary
280
     1
281
     1
  3
ACAD_XREC_ROUNDTRIP
360
698
  0
DICTIONARY
  5
699
330
3C8
100
AcDbDictionary
280
     1
281
     1
  3
ACAD_XREC_ROUNDTRIP
360
69A
  0
DICTIONARY
  5
69B
330
3C9
100
AcDbDictionary
280
     1
281
     1
  3
ACAD_XREC_ROUNDTRIP
360
69C
  0
DICTIONARY
  5
6AF
330
3D3
100
AcDbDictionary
280
     1
281
     1
  3
ACAD_XREC_ROUNDTRIP
360
6B0
  0
DICTIONARY
  5
6A5
330
3CE
100
AcDbDictionary
280
     1
281
     1
  3
ACAD_XREC_ROUNDTRIP
360
6A6
  0
DICTIONARY
  5
6AD
330
3D2
100
AcDbDictionary
280
     1
281
     1
  3
ACAD_XREC_ROUNDTRIP
360
6AE
  0
XRECORD
  5
692
102
{ACAD_REACTORS
330
691
102
}
330
691
100
AcDbXrecord
280
     1
102
MATERIAL
148
0.0
149
0.0
149
0.0
 93
        0
 94
      127
282
     0
 72
     1
 77
     1
171
     1
175
     1
179
     1
273
     0
  0
XRECORD
  5
690
102
{ACAD_REACTORS
330
68F
102
}
330
68F
100
AcDbXrecord
280
     1
102
MATERIAL
148
0.0
149
0.0
149
0.0
 93
        0
 94
      127
282
     0
 72
     1
 77
     1
171
     1
175
     1
179
     1
273
     0
  0
XRECORD
  5
694
102
{ACAD_REACTORS
330
693
102
}
330
693
100
AcDbXrecord
280
     1
102
MATERIAL
148
0.0
149
0.0
149
0.0
 93
        0
 94
      127
282
     0
 72
     1
 77
     1
171
     1
175
     1
179
     1
273
     0
  0
XRECORD
  5
69E
102
{ACAD_REACTORS
330
69D
102
}
330
69D
100
AcDbXrecord
280
     1
102
RTVSPropertyOp0
 70
     1
102
RTVSPropertyOp1
 70
     1
102
RTVSPropertyOp2
 70
     1
102
RTVSPropertyOp3
 70
     1
102
RTVSPropertyOp4
 70
     1
102
RTVSPropertyOp5
 70
     1
102
RTVSPropertyOp6
 70
     1
102
RTVSPropertyOp7
 70
     1
102
RTVSPropertyOp8
 70
     1
102
RTVSPropertyOp9
 70
     1
102
RTVSPropertyOp10
 70
     1
102
RTVSPropertyOp11
 70
     1
102
RTVSPropertyOp12
 70
     1
102
RTVSPropertyOp13
 70
     1
102
RTVSPropertyOp14
 70
     1
102
RTVSPropertyOp15
 70
     1
102
RTVSPropertyOp16
 70
     1
102
RTVSPropertyOp17
 70
     1
102
RTVSPropertyOp18
 70
     1
102
RTVSPropertyOp19
 70
     1
102
RTVSPropertyOp20
 70
     1
102
RTVSPropertyOp21
 70
     1
102
RTVSPropertyOp22
 70
     1
102
RTVSPropertyOp23
 70
     1
102
RTVSPropertyOp24
 70
     1
102
RTVSPropertyOp25
 70
     1
102
RTVSPropertyOp26
 70
     1
102
RTVSPropertyOp27
 70
     1
102
RTVSPropertyOp28
 70
     1
102
RTVSPropertyOp29
 70
     1
102
RTVSPropertyOp30
 70
     1
102
RTVSPropertyOp31
 70
     1
102
RTVSPropertyOp32
 70
     1
  0
XRECORD
  5
6A2
102
{ACAD_REACTORS
330
6A1
102
}
330
6A1
100
AcDbXrecord
280
     1
102
RTVSPropertyOp0
 70
     1
102
RTVSPropertyOp1
 70
     1
102
RTVSPropertyOp2
 70
     1
102
RTVSPropertyOp3
 70
     1
102
RTVSPropertyOp4
 70
     1
102
RTVSPropertyOp5
 70
     1
102
RTVSPropertyOp6
 70
     1
102
RTVSPropertyOp7
 70
     1
102
RTVSPropertyOp8
 70
     1
102
RTVSPropertyOp9
 70
     1
102
RTVSPropertyOp10
 70
     1
102
RTVSPropertyOp11
 70
     1
102
RTVSPropertyOp12
 70
     1
102
RTVSPropertyOp13
 70
     1
102
RTVSPropertyOp14
 70
     1
102
RTVSPropertyOp15
 70
     1
102
RTVSPropertyOp16
 70
     1
102
RTVSPropertyOp17
 70
     1
102
RTVSPropertyOp18
 70
     1
102
RTVSPropertyOp19
 70
     1
102
RTVSPropertyOp20
 70
     1
102
RTVSPropertyOp21
 70
     1
102
RTVSPropertyOp22
 70
     1
102
RTVSPropertyOp23
 70
     1
102
RTVSPropertyOp24
 70
     1
102
RTVSPropertyOp25
 70
     1
102
RTVSPropertyOp26
 70
     1
102
RTVSPropertyOp27
 70
     1
102
RTVSPropertyOp28
 70
     1
102
RTVSPropertyOp29
 70
     1
102
RTVSPropertyOp30
 70
     1
102
RTVSPropertyOp31
 70
     1
102
RTVSPropertyOp32
 70
     1
  0
XRECORD
  5
6A0
102
{ACAD_REACTORS
330
69F
102
}
330
69F
100
AcDbXrecord
280
     1
102
RTVSPropertyOp0
 70
     1
102
RTVSPropertyOp1
 70
     1
102
RTVSPropertyOp2
 70
     1
102
RTVSPropertyOp3
 70
     1
102
RTVSPropertyOp4
 70
     1
102
RTVSPropertyOp5
 70
     1
102
RTVSPropertyOp6
 70
     1
102
RTVSPropertyOp7
 70
     1
102
RTVSPropertyOp8
 70
     1
102
RTVSPropertyOp9
 70
     1
102
RTVSPropertyOp10
 70
     1
102
RTVSPropertyOp11
 70
     1
102
RTVSPropertyOp12
 70
     1
102
RTVSPropertyOp13
 70
     1
102
RTVSPropertyOp14
 70
     1
102
RTVSPropertyOp15
 70
     1
102
RTVSPropertyOp16
 70
     1
102
RTVSPropertyOp17
 70
     1
102
RTVSPropertyOp18
 70
     1
102
RTVSPropertyOp19
 70
     1
102
RTVSPropertyOp20
 70
     1
102
RTVSPropertyOp21
 70
     1
102
RTVSPropertyOp22
 70
     1
102
RTVSPropertyOp23
 70
     1
102
RTVSPropertyOp24
 70
     1
102
RTVSPropertyOp25
 70
     1
102
RTVSPropertyOp26
 70
     1
102
RTVSPropertyOp27
 70
     1
102
RTVSPropertyOp28
 70
     1
102
RTVSPropertyOp29
 70
     1
102
RTVSPropertyOp30
 70
     1
102
RTVSPropertyOp31
 70
     1
102
RTVSPropertyOp32
 70
     1
  0
XRECORD
  5
6A4
102
{ACAD_REACTORS
330
6A3
102
}
330
6A3
100
AcDbXrecord
280
     1
102
RTVSPropertyOp0
 70
     1
102
RTVSPropertyOp1
 70
     1
102
RTVSPropertyOp2
 70
     1
102
RTVSPropertyOp3
 70
     1
102
RTVSPropertyOp4
 70
     1
102
RTVSPropertyOp5
 70
     1
102
RTVSPropertyOp6
 70
     1
102
RTVSPropertyOp7
 70
     1
102
RTVSPropertyOp8
 70
     1
102
RTVSPropertyOp9
 70
     1
102
RTVSPropertyOp10
 70
     1
102
RTVSPropertyOp11
 70
     1
102
RTVSPropertyOp12
 70
     1
102
RTVSPropertyOp13
 70
     1
102
RTVSPropertyOp14
 70
     1
102
RTVSPropertyOp15
 70
     1
102
RTVSPropertyOp16
 70
     1
102
RTVSPropertyOp17
 70
     1
102
RTVSPropertyOp18
 70
     1
102
RTVSPropertyOp19
 70
     1
102
RTVSPropertyOp20
 70
     1
102
RTVSPropertyOp21
 70
     1
102
RTVSPropertyOp22
 70
     1
102
RTVSPropertyOp23
 70
     1
102
RTVSPropertyOp24
 70
     1
102
RTVSPropertyOp25
 70
     1
102
RTVSPropertyOp26
 70
     1
102
RTVSPropertyOp27
 70
     1
102
RTVSPropertyOp28
 70
     1
102
RTVSPropertyOp29
 70
     1
102
RTVSPropertyOp30
 70
     1
102
RTVSPropertyOp31
 70
     1
102
RTVSPropertyOp32
 70
     1
  0
XRECORD
  5
6AC
102
{ACAD_REACTORS
330
6AB
102
}
330
6AB
100
AcDbXrecord
280
     1
102
RTVSPropertyOp0
 70
     1
102
RTVSPropertyOp1
 70
     1
102
RTVSPropertyOp2
 70
     1
102
RTVSPropertyOp3
 70
     1
102
RTVSPropertyOp4
 70
     1
102
RTVSPropertyOp5
 70
     1
102
RTVSPropertyOp6
 70
     1
102
RTVSPropertyOp7
 70
     1
102
RTVSPropertyOp8
 70
     1
102
RTVSPropertyOp9
 70
     1
102
RTVSPropertyOp10
 70
     1
102
RTVSPropertyOp11
 70
     1
102
RTVSPropertyOp12
 70
     1
102
RTVSPropertyOp13
 70
     1
102
RTVSPropertyOp14
 70
     1
102
RTVSPropertyOp15
 70
     1
102
RTVSPropertyOp16
 70
     1
102
RTVSPropertyOp17
 70
     1
102
RTVSPropertyOp18
 70
     1
102
RTVSPropertyOp19
 70
     1
102
RTVSPropertyOp20
 70
     1
102
RTVSPropertyOp21
 70
     1
102
RTVSPropertyOp22
 70
     1
102
RTVSPropertyOp23
 70
     1
102
RTVSPropertyOp24
 70
     1
102
RTVSPropertyOp25
 70
     1
102
RTVSPropertyOp26
 70
     1
102
RTVSPropertyOp27
 70
     1
102
RTVSPropertyOp28
 70
     1
102
RTVSPropertyOp29
 70
     1
102
RTVSPropertyOp30
 70
     1
102
RTVSPropertyOp31
 70
     1
102
RTVSPropertyOp32
 70
     1
  0
XRECORD
  5
6B4
102
{ACAD_REACTORS
330
6B3
102
}
330
6B3
100
AcDbXrecord
280
     1
102
RTVSPropertyOp0
 70
     1
102
RTVSPropertyOp1
 70
     1
102
RTVSPropertyOp2
 70
     1
102
RTVSPropertyOp3
 70
     1
102
RTVSPropertyOp4
 70
     1
102
RTVSPropertyOp5
 70
     1
102
RTVSPropertyOp6
 70
     1
102
RTVSPropertyOp7
 70
     1
102
RTVSPropertyOp8
 70
     1
102
RTVSPropertyOp9
 70
     1
102
RTVSPropertyOp10
 70
     1
102
RTVSPropertyOp11
 70
     1
102
RTVSPropertyOp12
 70
     1
102
RTVSPropertyOp13
 70
     1
102
RTVSPropertyOp14
 70
     1
102
RTVSPropertyOp15
 70
     1
102
RTVSPropertyOp16
 70
     1
102
RTVSPropertyOp17
 70
     1
102
RTVSPropertyOp18
 70
     1
102
RTVSPropertyOp19
 70
     1
102
RTVSPropertyOp20
 70
     1
102
RTVSPropertyOp21
 70
     1
102
RTVSPropertyOp22
 70
     1
102
RTVSPropertyOp23
 70
     1
102
RTVSPropertyOp24
 70
     1
102
RTVSPropertyOp25
 70
     1
102
RTVSPropertyOp26
 70
     1
102
RTVSPropertyOp27
 70
     1
102
RTVSPropertyOp28
 70
     1
102
RTVSPropertyOp29
 70
     1
102
RTVSPropertyOp30
 70
     1
102
RTVSPropertyOp31
 70
     1
102
RTVSPropertyOp32
 70
     1
  0
XRECORD
  5
6A8
102
{ACAD_REACTORS
330
6A7
102
}
330
6A7
100
AcDbXrecord
280
     1
102
RTVSPropertyOp0
 70
     1
102
RTVSPropertyOp1
 70
     1
102
RTVSPropertyOp2
 70
     1
102
RTVSPropertyOp3
 70
     1
102
RTVSPropertyOp4
 70
     1
102
RTVSPropertyOp5
 70
     1
102
RTVSPropertyOp6
 70
     1
102
RTVSPropertyOp7
 70
     1
102
RTVSPropertyOp8
 70
     1
102
RTVSPropertyOp9
 70
     1
102
RTVSPropertyOp10
 70
     1
102
RTVSPropertyOp11
 70
     1
102
RTVSPropertyOp12
 70
     1
102
RTVSPropertyOp13
 70
     1
102
RTVSPropertyOp14
 70
     1
102
RTVSPropertyOp15
 70
     1
102
RTVSPropertyOp16
 70
     1
102
RTVSPropertyOp17
 70
     1
102
RTVSPropertyOp18
 70
     1
102
RTVSPropertyOp19
 70
     1
102
RTVSPropertyOp20
 70
     1
102
RTVSPropertyOp21
 70
     1
102
RTVSPropertyOp22
 70
     1
102
RTVSPropertyOp23
 70
     1
102
RTVSPropertyOp24
 70
     1
102
RTVSPropertyOp25
 70
     1
102
RTVSPropertyOp26
 70
     1
102
RTVSPropertyOp27
 70
     1
102
RTVSPropertyOp28
 70
     1
102
RTVSPropertyOp29
 70
     1
102
RTVSPropertyOp30
 70
     1
102
RTVSPropertyOp31
 70
     1
102
RTVSPropertyOp32
 70
     1
  0
XRECORD
  5
6AA
102
{ACAD_REACTORS
330
6A9
102
}
330
6A9
100
AcDbXrecord
280
     1
102
RTVSPropertyOp0
 70
     1
102
RTVSPropertyOp1
 70
     1
102
RTVSPropertyOp2
 70
     1
102
RTVSPropertyOp3
 70
     1
102
RTVSPropertyOp4
 70
     1
102
RTVSPropertyOp5
 70
     1
102
RTVSPropertyOp6
 70
     1
102
RTVSPropertyOp7
 70
     1
102
RTVSPropertyOp8
 70
     1
102
RTVSPropertyOp9
 70
     1
102
RTVSPropertyOp10
 70
     1
102
RTVSPropertyOp11
 70
     1
102
RTVSPropertyOp12
 70
     1
102
RTVSPropertyOp13
 70
     1
102
RTVSPropertyOp14
 70
     1
102
RTVSPropertyOp15
 70
     1
102
RTVSPropertyOp16
 70
     1
102
RTVSPropertyOp17
 70
     1
102
RTVSPropertyOp18
 70
     1
102
RTVSPropertyOp19
 70
     1
102
RTVSPropertyOp20
 70
     1
102
RTVSPropertyOp21
 70
     1
102
RTVSPropertyOp22
 70
     1
102
RTVSPropertyOp23
 70
     1
102
RTVSPropertyOp24
 70
     1
102
RTVSPropertyOp25
 70
     1
102
RTVSPropertyOp26
 70
     1
102
RTVSPropertyOp27
 70
     1
102
RTVSPropertyOp28
 70
     1
102
RTVSPropertyOp29
 70
     1
102
RTVSPropertyOp30
 70
     1
102
RTVSPropertyOp31
 70
     1
102
RTVSPropertyOp32
 70
     1
  0
XRECORD
  5
6B2
102
{ACAD_REACTORS
330
6B1
102
}
330
6B1
100
AcDbXrecord
280
     1
102
RTVSPropertyOp0
 70
     1
102
RTVSPropertyOp1
 70
     1
102
RTVSPropertyOp2
 70
     1
102
RTVSPropertyOp3
 70
     1
102
RTVSPropertyOp4
 70
     1
102
RTVSPropertyOp5
 70
     1
102
RTVSPropertyOp6
 70
     1
102
RTVSPropertyOp7
 70
     1
102
RTVSPropertyOp8
 70
     1
102
RTVSPropertyOp9
 70
     1
102
RTVSPropertyOp10
 70
     1
102
RTVSPropertyOp11
 70
     1
102
RTVSPropertyOp12
 70
     1
102
RTVSPropertyOp13
 70
     1
102
RTVSPropertyOp14
 70
     1
102
RTVSPropertyOp15
 70
     1
102
RTVSPropertyOp16
 70
     1
102
RTVSPropertyOp17
 70
     1
102
RTVSPropertyOp18
 70
     1
102
RTVSPropertyOp19
 70
     1
102
RTVSPropertyOp20
 70
     1
102
RTVSPropertyOp21
 70
     1
102
RTVSPropertyOp22
 70
     1
102
RTVSPropertyOp23
 70
     1
102
RTVSPropertyOp24
 70
     1
102
RTVSPropertyOp25
 70
     1
102
RTVSPropertyOp26
 70
     1
102
RTVSPropertyOp27
 70
     1
102
RTVSPropertyOp28
 70
     1
102
RTVSPropertyOp29
 70
     1
102
RTVSPropertyOp30
 70
     1
102
RTVSPropertyOp31
 70
     1
102
RTVSPropertyOp32
 70
     1
  0
XRECORD
  5
696
102
{ACAD_REACTORS
330
695
102
}
330
695
100
AcDbXrecord
280
     1
102
RTVSPropertyOp0
 70
     1
102
RTVSPropertyOp1
 70
     1
102
RTVSPropertyOp2
 70
     1
102
RTVSPropertyOp3
 70
     1
102
RTVSPropertyOp4
 70
     1
102
RTVSPropertyOp5
 70
     1
102
RTVSPropertyOp6
 70
     1
102
RTVSPropertyOp7
 70
     1
102
RTVSPropertyOp8
 70
     1
102
RTVSPropertyOp9
 70
     1
102
RTVSPropertyOp10
 70
     1
102
RTVSPropertyOp11
 70
     1
102
RTVSPropertyOp12
 70
     1
102
RTVSPropertyOp13
 70
     1
102
RTVSPropertyOp14
 70
     1
102
RTVSPropertyOp15
 70
     1
102
RTVSPropertyOp16
 70
     1
102
RTVSPropertyOp17
 70
     1
102
RTVSPropertyOp18
 70
     1
102
RTVSPropertyOp19
 70
     1
102
RTVSPropertyOp20
 70
     1
102
RTVSPropertyOp21
 70
     1
102
RTVSPropertyOp22
 70
     1
102
RTVSPropertyOp23
 70
     1
102
RTVSPropertyOp24
 70
     1
102
RTVSPropertyOp25
 70
     1
102
RTVSPropertyOp26
 70
     1
102
RTVSPropertyOp27
 70
     1
102
RTVSPropertyOp28
 70
     1
102
RTVSPropertyOp29
 70
     1
102
RTVSPropertyOp30
 70
     1
102
RTVSPropertyOp31
 70
     1
102
RTVSPropertyOp32
 70
     1
  0
XRECORD
  5
698
102
{ACAD_REACTORS
330
697
102
}
330
697
100
AcDbXrecord
280
     1
102
RTVSPropertyOp0
 70
     1
102
RTVSPropertyOp1
 70
     1
102
RTVSPropertyOp2
 70
     1
102
RTVSPropertyOp3
 70
     1
102
RTVSPropertyOp4
 70
     1
102
RTVSPropertyOp5
 70
     1
102
RTVSPropertyOp6
 70
     1
102
RTVSPropertyOp7
 70
     1
102
RTVSPropertyOp8
 70
     1
102
RTVSPropertyOp9
 70
     1
102
RTVSPropertyOp10
 70
     1
102
RTVSPropertyOp11
 70
     1
102
RTVSPropertyOp12
 70
     1
102
RTVSPropertyOp13
 70
     1
102
RTVSPropertyOp14
 70
     1
102
RTVSPropertyOp15
 70
     1
102
RTVSPropertyOp16
 70
     1
102
RTVSPropertyOp17
 70
     1
102
RTVSPropertyOp18
 70
     1
102
RTVSPropertyOp19
 70
     1
102
RTVSPropertyOp20
 70
     1
102
RTVSPropertyOp21
 70
     1
102
RTVSPropertyOp22
 70
     1
102
RTVSPropertyOp23
 70
     1
102
RTVSPropertyOp24
 70
     1
102
RTVSPropertyOp25
 70
     1
102
RTVSPropertyOp26
 70
     1
102
RTVSPropertyOp27
 70
     1
102
RTVSPropertyOp28
 70
     1
102
RTVSPropertyOp29
 70
     1
102
RTVSPropertyOp30
 70
     1
102
RTVSPropertyOp31
 70
     1
102
RTVSPropertyOp32
 70
     1
  0
XRECORD
  5
69A
102
{ACAD_REACTORS
330
699
102
}
330
699
100
AcDbXrecord
280
     1
102
RTVSPropertyOp0
 70
     1
102
RTVSPropertyOp1
 70
     1
102
RTVSPropertyOp2
 70
     1
102
RTVSPropertyOp3
 70
     1
102
RTVSPropertyOp4
 70
     1
102
RTVSPropertyOp5
 70
     1
102
RTVSPropertyOp6
 70
     1
102
RTVSPropertyOp7
 70
     1
102
RTVSPropertyOp8
 70
     1
102
RTVSPropertyOp9
 70
     1
102
RTVSPropertyOp10
 70
     1
102
RTVSPropertyOp11
 70
     1
102
RTVSPropertyOp12
 70
     1
102
RTVSPropertyOp13
 70
     1
102
RTVSPropertyOp14
 70
     1
102
RTVSPropertyOp15
 70
     1
102
RTVSPropertyOp16
 70
     1
102
RTVSPropertyOp17
 70
     1
102
RTVSPropertyOp18
 70
     1
102
RTVSPropertyOp19
 70
     1
102
RTVSPropertyOp20
 70
     1
102
RTVSPropertyOp21
 70
     1
102
RTVSPropertyOp22
 70
     1
102
RTVSPropertyOp23
 70
     1
102
RTVSPropertyOp24
 70
     1
102
RTVSPropertyOp25
 70
     1
102
RTVSPropertyOp26
 70
     1
102
RTVSPropertyOp27
 70
     1
102
RTVSPropertyOp28
 70
     1
102
RTVSPropertyOp29
 70
     1
102
RTVSPropertyOp30
 70
     1
102
RTVSPropertyOp31
 70
     1
102
RTVSPropertyOp32
 70
     1
  0
XRECORD
  5
69C
102
{ACAD_REACTORS
330
69B
102
}
330
69B
100
AcDbXrecord
280
     1
102
RTVSPropertyOp0
 70
     1
102
RTVSPropertyOp1
 70
     1
102
RTVSPropertyOp2
 70
     1
102
RTVSPropertyOp3
 70
     1
102
RTVSPropertyOp4
 70
     1
102
RTVSPropertyOp5
 70
     1
102
RTVSPropertyOp6
 70
     1
102
RTVSPropertyOp7
 70
     1
102
RTVSPropertyOp8
 70
     1
102
RTVSPropertyOp9
 70
     1
102
RTVSPropertyOp10
 70
     1
102
RTVSPropertyOp11
 70
     1
102
RTVSPropertyOp12
 70
     1
102
RTVSPropertyOp13
 70
     1
102
RTVSPropertyOp14
 70
     1
102
RTVSPropertyOp15
 70
     1
102
RTVSPropertyOp16
 70
     1
102
RTVSPropertyOp17
 70
     1
102
RTVSPropertyOp18
 70
     1
102
RTVSPropertyOp19
 70
     1
102
RTVSPropertyOp20
 70
     1
102
RTVSPropertyOp21
 70
     1
102
RTVSPropertyOp22
 70
     1
102
RTVSPropertyOp23
 70
     1
102
RTVSPropertyOp24
 70
     1
102
RTVSPropertyOp25
 70
     1
102
RTVSPropertyOp26
 70
     1
102
RTVSPropertyOp27
 70
     1
102
RTVSPropertyOp28
 70
     1
102
RTVSPropertyOp29
 70
     1
102
RTVSPropertyOp30
 70
     1
102
RTVSPropertyOp31
 70
     1
102
RTVSPropertyOp32
 70
     1
  0
XRECORD
  5
6B0
102
{ACAD_REACTORS
330
6AF
102
}
330
6AF
100
AcDbXrecord
280
     1
102
RTVSPropertyOp0
 70
     1
102
RTVSPropertyOp1
 70
     1
102
RTVSPropertyOp2
 70
     1
102
RTVSPropertyOp3
 70
     1
102
RTVSPropertyOp4
 70
     1
102
RTVSPropertyOp5
 70
     1
102
RTVSPropertyOp6
 70
     1
102
RTVSPropertyOp7
 70
     1
102
RTVSPropertyOp8
 70
     1
102
RTVSPropertyOp9
 70
     1
102
RTVSPropertyOp10
 70
     1
102
RTVSPropertyOp11
 70
     1
102
RTVSPropertyOp12
 70
     1
102
RTVSPropertyOp13
 70
     1
102
RTVSPropertyOp14
 70
     1
102
RTVSPropertyOp15
 70
     1
102
RTVSPropertyOp16
 70
     1
102
RTVSPropertyOp17
 70
     1
102
RTVSPropertyOp18
 70
     1
102
RTVSPropertyOp19
 70
     1
102
RTVSPropertyOp20
 70
     1
102
RTVSPropertyOp21
 70
     1
102
RTVSPropertyOp22
 70
     1
102
RTVSPropertyOp23
 70
     1
102
RTVSPropertyOp24
 70
     1
102
RTVSPropertyOp25
 70
     1
102
RTVSPropertyOp26
 70
     1
102
RTVSPropertyOp27
 70
     1
102
RTVSPropertyOp28
 70
     1
102
RTVSPropertyOp29
 70
     1
102
RTVSPropertyOp30
 70
     1
102
RTVSPropertyOp31
 70
     1
102
RTVSPropertyOp32
 70
     1
  0
XRECORD
  5
6A6
102
{ACAD_REACTORS
330
6A5
102
}
330
6A5
100
AcDbXrecord
280
     1
102
RTVSPropertyOp0
 70
     1
102
RTVSPropertyOp1
 70
     1
102
RTVSPropertyOp2
 70
     1
102
RTVSPropertyOp3
 70
     1
102
RTVSPropertyOp4
 70
     1
102
RTVSPropertyOp5
 70
     1
102
RTVSPropertyOp6
 70
     1
102
RTVSPropertyOp7
 70
     1
102
RTVSPropertyOp8
 70
     1
102
RTVSPropertyOp9
 70
     1
102
RTVSPropertyOp10
 70
     1
102
RTVSPropertyOp11
 70
     1
102
RTVSPropertyOp12
 70
     1
102
RTVSPropertyOp13
 70
     1
102
RTVSPropertyOp14
 70
     1
102
RTVSPropertyOp15
 70
     1
102
RTVSPropertyOp16
 70
     1
102
RTVSPropertyOp17
 70
     1
102
RTVSPropertyOp18
 70
     1
102
RTVSPropertyOp19
 70
     1
102
RTVSPropertyOp20
 70
     1
102
RTVSPropertyOp21
 70
     1
102
RTVSPropertyOp22
 70
     1
102
RTVSPropertyOp23
 70
     1
102
RTVSPropertyOp24
 70
     1
102
RTVSPropertyOp25
 70
     1
102
RTVSPropertyOp26
 70
     1
102
RTVSPropertyOp27
 70
     1
102
RTVSPropertyOp28
 70
     1
102
RTVSPropertyOp29
 70
     1
102
RTVSPropertyOp30
 70
     1
102
RTVSPropertyOp31
 70
     1
102
RTVSPropertyOp32
 70
     1
  0
XRECORD
  5
6AE
102
{ACAD_REACTORS
330
6AD
102
}
330
6AD
100
AcDbXrecord
280
     1
102
RTVSPropertyOp0
 70
     1
102
RTVSPropertyOp1
 70
     1
102
RTVSPropertyOp2
 70
     1
102
RTVSPropertyOp3
 70
     1
102
RTVSPropertyOp4
 70
     1
102
RTVSPropertyOp5
 70
     1
102
RTVSPropertyOp6
 70
     1
102
RTVSPropertyOp7
 70
     1
102
RTVSPropertyOp8
 70
     1
102
RTVSPropertyOp9
 70
     1
102
RTVSPropertyOp10
 70
     1
102
RTVSPropertyOp11
 70
     1
102
RTVSPropertyOp12
 70
     1
102
RTVSPropertyOp13
 70
     1
102
RTVSPropertyOp14
 70
     1
102
RTVSPropertyOp15
 70
     1
102
RTVSPropertyOp16
 70
     1
102
RTVSPropertyOp17
 70
     1
102
RTVSPropertyOp18
 70
     1
102
RTVSPropertyOp19
 70
     1
102
RTVSPropertyOp20
 70
     1
102
RTVSPropertyOp21
 70
     1
102
RTVSPropertyOp22
 70
     1
102
RTVSPropertyOp23
 70
     1
102
RTVSPropertyOp24
 70
     1
102
RTVSPropertyOp25
 70
     1
102
RTVSPropertyOp26
 70
     1
102
RTVSPropertyOp27
 70
     1
102
RTVSPropertyOp28
 70
     1
102
RTVSPropertyOp29
 70
     1
102
RTVSPropertyOp30
 70
     1
102
RTVSPropertyOp31
 70
     1
102
RTVSPropertyOp32
 70
     1
  0
ENDSEC
  0
EOF
