0
SECTION
2
HEADER
9
$ACADVER
1
AC1015
9
$DWGCODEPAGE
3
ANSI_1252
9
$HANDSEED
5
373
9
$ANGBASE
50
0
9
$ANGDIR
70
0
9
$ATTMODE
70
1
9
$AUNITS
70
0
9
$AUPREC
70
0
9
$CECOLOR
62
256
9
$CELTSCALE
40
1
9
$CELTYPE
6
ByLayer
9
$CELWEIGHT
370
18
9
$CLAYER
8
0
9
$CMLJUST
70
0
9
$CMLSCALE
40
1
9
$CMLSTYLE
2
Standard
9
$DIMSTYLE
2
Standard
9
$TEXTSIZE
40
0.2
9
$TEXTSTYLE
7
Standard
9
$LUNITS
70
2
9
$LUPREC
70
4
9
$EXTNAMES
290
1
9
$INSUNITS
70
4
9
$LTSCALE
40
1
9
$LWDISPLAY
290
1
9
$PDMODE
70
0
9
$PDSIZE
40
0
9
$PLINEGEN
70
0
0
ENDSEC
0
SECTION
2
CLASSES
0
CLASS
1
RASTERVARIABLES
2
AcDbRasterVariables
3
ISM
90
0
280
0
281
0
0
ENDSEC
0
SECTION
2
TABLES
0
TABLE
2
VPORT
5
369
100
AcDbSymbolTable
0
VPORT
5
1
100
AcDbSymbolTableRecord
100
AcDbViewportTableRecord
2
*Active
70
0
10
0
20
0
11
1
21
1
12
-1
22
1
13
0
23
0
14
0.5
24
0.5
15
10
25
10
16
0
26
0
36
1
17
0
27
0
37
0
0
ENDTAB
0
TABLE
2
LTYPE
5
36a
100
AcDbSymbolTable
0
LTYPE
5
14
100
AcDbSymbolTableRecord
100
AcDbLinetypeTableRecord
70
0
2
ByBlock
3

72
65
73
0
40
0
0
LTYPE
5
15
100
AcDbSymbolTableRecord
100
AcDbLinetypeTableRecord
70
0
2
ByLayer
3

72
65
73
0
40
0
0
LTYPE
5
16
100
AcDbSymbolTableRecord
100
AcDbLinetypeTableRecord
70
0
2
Continuous
3
Solid line
72
65
73
0
40
0
0
LTYPE
5
6E
100
AcDbSymbolTableRecord
100
AcDbLinetypeTableRecord
70
0
2
CENTER
3
____ _ ____ _ ____ _ ____
72
65
73
4
40
47.5
49
22
74
0
49
-8.5
74
0
49
8.5
74
0
49
-8.5
74
0
0
LTYPE
5
6F
100
AcDbSymbolTableRecord
100
AcDbLinetypeTableRecord
70
0
2
DASHED
3
__ __ __ __ __ __ __ __ __
72
65
73
2
40
25.72
49
12.86
74
0
49
-12.86
74
0
0
ENDTAB
0
TABLE
2
LAYER
5
36b
100
AcDbSymbolTable
0
LAYER
5
10
100
AcDbSymbolTableRecord
100
AcDbLayerTableRecord
2
0
70
0
62
7
6
Continuous
290
1
370
-3
390
0
0
LAYER
5
71
100
AcDbSymbolTableRecord
100
AcDbLayerTableRecord
2
80
70
0
62
-6
6
Continuous
290
1
370
-3
390
0
0
LAYER
5
73
100
AcDbSymbolTableRecord
100
AcDbLayerTableRecord
2
81
70
0
62
-3
6
Continuous
290
1
370
-3
390
0
0
LAYER
5
75
100
AcDbSymbolTableRecord
100
AcDbLayerTableRecord
2
1
70
0
62
4
6
Continuous
290
1
370
-3
390
0
0
LAYER
5
85
100
AcDbSymbolTableRecord
100
AcDbLayerTableRecord
2
4
70
0
62
-2
6
CENTER
290
1
370
-3
390
0
0
LAYER
5
CA
100
AcDbSymbolTableRecord
100
AcDbLayerTableRecord
2
2
70
0
62
7
6
Continuous
290
1
370
-3
390
0
0
LAYER
5
260
100
AcDbSymbolTableRecord
100
AcDbLayerTableRecord
2
Defpoints
70
0
62
7
6
Continuous
290
0
370
-3
390
0
0
LAYER
5
355
100
AcDbSymbolTableRecord
100
AcDbLayerTableRecord
2
SK4
70
0
62
2
6
CENTER
290
1
370
-3
390
0
0
LAYER
5
356
100
AcDbSymbolTableRecord
100
AcDbLayerTableRecord
2
SK1
70
0
62
4
6
Continuous
290
1
370
-3
390
0
0
LAYER
5
357
100
AcDbSymbolTableRecord
100
AcDbLayerTableRecord
2
SK2
70
0
62
7
6
Continuous
290
1
370
-3
390
0
0
LAYER
5
358
100
AcDbSymbolTableRecord
100
AcDbLayerTableRecord
2
SK6
70
0
62
5
6
Continuous
290
1
370
-3
390
0
0
ENDTAB
0
TABLE
2
STYLE
5
36c
100
AcDbSymbolTable
0
STYLE
5
11
100
AcDbSymbolTableRecord
100
AcDbTextStyleTableRecord
2
Standard
3
txt
70
0
71
0
40
0
41
1
42
0
50
0
0
STYLE
5
246
100
AcDbSymbolTableRecord
100
AcDbTextStyleTableRecord
2
iso_b_vert
3
simplex.shx
70
0
71
0
40
0
41
1
42
0
50
0
0
STYLE
5
247
100
AcDbSymbolTableRecord
100
AcDbTextStyleTableRecord
2
DWGDirectTextStyle
3
simplex
70
0
71
0
40
0
41
1
42
0
50
0
0
ENDTAB
0
TABLE
2
DIMSTYLE
5
36d
100
AcDbSymbolTable
100
AcDbDimStyleTable
0
DIMSTYLE
105
27
100
AcDbSymbolTableRecord
100
AcDbDimStyleTableRecord
2
Standard
70
0
3
<>
41
0.18
42
0.0625
44
0.18
140
0.18
147
0.09
73
0
74
0
77
1
271
2
275
0
278
52
280
0
340
11
0
ENDTAB
0
TABLE
2
VIEW
5
36e
100
AcDbSymbolTable
0
ENDTAB
0
TABLE
2
UCS
5
36f
100
AcDbSymbolTable
0
ENDTAB
0
TABLE
2
APPID
5
370
100
AcDbSymbolTable
0
APPID
5
12
100
AcDbSymbolTableRecord
100
AcDbRegAppTableRecord
2
ACAD
70
0
0
APPID
5
25C
100
AcDbSymbolTableRecord
100
AcDbRegAppTableRecord
2
ACAD_DSTYLE_DIMBREAK
70
0
0
APPID
5
314
100
AcDbSymbolTableRecord
100
AcDbRegAppTableRecord
2
ACAD_DSTYLE_DIM_LINETYPE
70
0
0
APPID
5
315
100
AcDbSymbolTableRecord
100
AcDbRegAppTableRecord
2
ACAD_DSTYLE_DIM_EXT1_LINETYPE
70
0
0
APPID
5
316
100
AcDbSymbolTableRecord
100
AcDbRegAppTableRecord
2
ACAD_DSTYLE_DIM_EXT2_LINETYPE
70
0
0
APPID
5
351
100
AcDbSymbolTableRecord
100
AcDbRegAppTableRecord
2
ACAD_MLEADERVER
70
0
0
ENDTAB
0
TABLE
2
BLOCK_RECORD
5
371
100
AcDbSymbolTable
0
BLOCK_RECORD
5
1F
100
AcDbSymbolTableRecord
100
AcDbBlockTableRecord
2
*Model_Space
340
0
70
0
0
BLOCK_RECORD
5
1B
100
AcDbSymbolTableRecord
100
AcDbBlockTableRecord
2
*Paper_Space
340
0
70
0
0
BLOCK_RECORD
5
23
100
AcDbSymbolTableRecord
100
AcDbBlockTableRecord
2
*Paper_Space0
340
0
70
0
0
BLOCK_RECORD
5
261
100
AcDbSymbolTableRecord
100
AcDbBlockTableRecord
2
*D1
340
0
70
0
0
BLOCK_RECORD
5
26F
100
AcDbSymbolTableRecord
100
AcDbBlockTableRecord
2
_U0
340
0
70
0
0
BLOCK_RECORD
5
27B
100
AcDbSymbolTableRecord
100
AcDbBlockTableRecord
2
*D3
340
0
70
0
0
BLOCK_RECORD
5
289
100
AcDbSymbolTableRecord
100
AcDbBlockTableRecord
2
_U1
340
0
70
0
0
BLOCK_RECORD
5
295
100
AcDbSymbolTableRecord
100
AcDbBlockTableRecord
2
*D5
340
0
70
0
0
BLOCK_RECORD
5
2A2
100
AcDbSymbolTableRecord
100
AcDbBlockTableRecord
2
_U2
340
0
70
0
0
BLOCK_RECORD
5
2AF
100
AcDbSymbolTableRecord
100
AcDbBlockTableRecord
2
*D7
340
0
70
0
0
BLOCK_RECORD
5
2BC
100
AcDbSymbolTableRecord
100
AcDbBlockTableRecord
2
_U3
340
0
70
0
0
BLOCK_RECORD
5
2C8
100
AcDbSymbolTableRecord
100
AcDbBlockTableRecord
2
*D9
340
0
70
0
0
BLOCK_RECORD
5
2D4
100
AcDbSymbolTableRecord
100
AcDbBlockTableRecord
2
_U4
340
0
70
0
0
BLOCK_RECORD
5
2E0
100
AcDbSymbolTableRecord
100
AcDbBlockTableRecord
2
*D11
340
0
70
0
0
BLOCK_RECORD
5
2ED
100
AcDbSymbolTableRecord
100
AcDbBlockTableRecord
2
_U5
340
0
70
0
0
ENDTAB
0
ENDSEC
0
SECTION
2
BLOCKS
0
BLOCK
5
20
100
AcDbEntity
8
0
100
AcDbBlockBegin
2
*Model_Space
70
0
10
0
20
0
30
0
3
*Model_Space
0
ENDBLK
5
21
100
AcDbEntity
8
0
100
AcDbBlockEnd
0
BLOCK
5
1C
100
AcDbEntity
8
0
100
AcDbBlockBegin
2
*Paper_Space
70
0
10
0
20
0
30
0
3
*Paper_Space
0
ENDBLK
5
1D
100
AcDbEntity
8
0
100
AcDbBlockEnd
0
BLOCK
5
24
100
AcDbEntity
8
0
100
AcDbBlockBegin
2
*Paper_Space0
70
0
10
0
20
0
30
0
3
*Paper_Space0
0
ENDBLK
5
25
100
AcDbEntity
8
0
100
AcDbBlockEnd
0
BLOCK
5
262
100
AcDbEntity
8
0
100
AcDbBlockBegin
2
*D1
70
1
10
0
20
0
30
0
3
*D1
0
LINE
5
264
100
AcDbEntity
8
0
62
256
6
ByLayer
370
-2
48
1
60
0
100
AcDbLine
10
37.7575
20
1.792892
30
0
11
56.847108
21
1.792892
31
0
39
0
210
0
220
0
230
1
0
LINE
5
265
100
AcDbEntity
8
0
62
256
6
ByLayer
370
-2
48
1
60
0
100
AcDbLine
10
37.7575
20
-1.792892
30
0
11
56.847108
21
-1.792892
31
0
39
0
210
0
220
0
230
1
0
LINE
5
266
100
AcDbEntity
8
0
62
256
6
ByLayer
370
-2
48
1
60
0
100
AcDbLine
10
54.847108
20
1.792892
30
0
11
54.847108
21
30.909091
31
0
39
0
210
0
220
0
230
1
0
LINE
5
267
100
AcDbEntity
8
0
62
256
6
ByLayer
370
-2
48
1
60
0
100
AcDbLine
10
54.847108
20
5.292892
30
0
11
54.847108
21
8.792892
31
0
39
0
210
0
220
0
230
1
0
LINE
5
268
100
AcDbEntity
8
0
62
256
6
ByLayer
370
-2
48
1
60
0
100
AcDbLine
10
54.847108
20
-5.292892
30
0
11
54.847108
21
-8.792892
31
0
39
0
210
0
220
0
230
1
0
SOLID
5
269
100
AcDbEntity
8
0
62
256
6
ByLayer
370
-1
48
1
60
0
100
AcDbTrace
10
54.263774
20
5.292892
30
0
11
55.430441
21
5.292892
31
0
12
54.847108
22
1.792892
32
0
13
54.847108
23
1.792892
33
0
39
0
210
0
220
0
230
1
0
SOLID
5
26A
100
AcDbEntity
8
0
62
256
6
ByLayer
370
-1
48
1
60
0
100
AcDbTrace
10
55.430441
20
-5.292892
30
0
11
54.263774
21
-5.292892
31
0
12
54.847108
22
-1.792892
32
0
13
54.847108
23
-1.792892
33
0
39
0
210
0
220
0
230
1
0
MTEXT
5
26B
100
AcDbEntity
8
0
62
256
6
ByLayer
370
18
48
1
60
0
100
AcDbMText
10
48.847108
20
20.409091
30
0
210
0
220
0
230
1
1
\A1;3.586
40
3
41
0
44
1
50
90
71
5
72
5
7
iso_b_vert
0
POINT
5
26C
100
AcDbEntity
8
Defpoints
62
0
6
ByLayer
370
-1
48
1
60
0
100
AcDbPoint
10
36.17
20
1.792892
30
0
39
0
210
0
220
0
230
1
50
360
0
POINT
5
26D
100
AcDbEntity
8
Defpoints
62
0
6
ByLayer
370
-1
48
1
60
0
100
AcDbPoint
10
36.17
20
-1.792892
30
0
39
0
210
0
220
0
230
1
50
360
0
POINT
5
26E
100
AcDbEntity
8
Defpoints
62
0
6
ByLayer
370
-1
48
1
60
0
100
AcDbPoint
10
54.847108
20
-1.792892
30
0
39
0
210
0
220
0
230
1
50
360
0
ENDBLK
5
263
100
AcDbEntity
8
0
100
AcDbBlockEnd
0
BLOCK
5
276
100
AcDbEntity
8
0
100
AcDbBlockBegin
2
_U0
70
0
10
0
20
0
30
0
3
_U0
0
MTEXT
5
270
100
AcDbEntity
8
2
62
256
6
ByLayer
370
18
48
1
60
0
100
AcDbMText
10
54.255993
20
11.927892
30
0
210
0
220
0
230
1
1
\W0.7126;UNC 6-32
40
3
41
0
44
1.084337
50
90
71
7
72
5
7
iso_b_vert
0
LINE
5
271
100
AcDbEntity
8
2
62
256
6
ByLayer
370
13
48
1
60
0
100
AcDbLine
10
37.7575
20
1.792892
30
0
11
56.847108
21
1.792892
31
0
39
0
210
0
220
0
230
1
0
LINE
5
272
100
AcDbEntity
8
2
62
256
6
ByLayer
370
13
48
1
60
0
100
AcDbLine
10
37.7575
20
-1.792892
30
0
11
56.847108
21
-1.792892
31
0
39
0
210
0
220
0
230
1
0
LINE
5
273
100
AcDbEntity
8
2
62
256
6
ByLayer
370
13
48
1
60
0
100
AcDbLine
10
54.847108
20
-9.292892
30
0
11
54.847108
21
29.02529
31
0
39
0
210
0
220
0
230
1
0
SOLID
5
274
100
AcDbEntity
8
2
62
256
6
ByLayer
370
18
48
1
60
0
100
AcDbTrace
10
54.847108
20
1.792892
30
0
11
54.386324
21
5.292891
31
0
12
55.307891
22
5.292894
32
0
13
55.307891
23
5.292894
33
0
39
0
210
0
220
0
230
1
0
SOLID
5
275
100
AcDbEntity
8
2
62
256
6
ByLayer
370
18
48
1
60
0
100
AcDbTrace
10
54.847108
20
-1.792892
30
0
11
55.307891
21
-5.292891
31
0
12
54.386324
22
-5.292894
32
0
13
54.386324
23
-5.292894
33
0
39
0
210
0
220
0
230
1
0
ENDBLK
5
277
100
AcDbEntity
8
0
100
AcDbBlockEnd
0
BLOCK
5
27C
100
AcDbEntity
8
0
100
AcDbBlockBegin
2
*D3
70
1
10
0
20
0
30
0
3
*D3
0
LINE
5
27E
100
AcDbEntity
8
0
62
256
6
ByLayer
370
-2
48
1
60
0
100
AcDbLine
10
-20.4175
20
-1.395
30
0
11
-26.83
21
-1.395
31
0
39
0
210
0
220
0
230
1
0
LINE
5
27F
100
AcDbEntity
8
0
62
256
6
ByLayer
370
-2
48
1
60
0
100
AcDbLine
10
-20.4175
20
1.395
30
0
11
-26.83
21
1.395
31
0
39
0
210
0
220
0
230
1
0
LINE
5
280
100
AcDbEntity
8
0
62
256
6
ByLayer
370
-2
48
1
60
0
100
AcDbLine
10
-24.83
20
1.395
30
0
11
-24.83
21
31.165626
31
0
39
0
210
0
220
0
230
1
0
LINE
5
281
100
AcDbEntity
8
0
62
256
6
ByLayer
370
-2
48
1
60
0
100
AcDbLine
10
-24.83
20
-4.895
30
0
11
-24.83
21
-8.395
31
0
39
0
210
0
220
0
230
1
0
LINE
5
282
100
AcDbEntity
8
0
62
256
6
ByLayer
370
-2
48
1
60
0
100
AcDbLine
10
-24.83
20
4.895
30
0
11
-24.83
21
8.395
31
0
39
0
210
0
220
0
230
1
0
SOLID
5
283
100
AcDbEntity
8
0
62
256
6
ByLayer
370
-1
48
1
60
0
100
AcDbTrace
10
-24.246667
20
-4.895
30
0
11
-25.413333
21
-4.895
31
0
12
-24.83
22
-1.395
32
0
13
-24.83
23
-1.395
33
0
39
0
210
0
220
0
230
1
0
SOLID
5
284
100
AcDbEntity
8
0
62
256
6
ByLayer
370
-1
48
1
60
0
100
AcDbTrace
10
-25.413333
20
4.895
30
0
11
-24.246667
21
4.895
31
0
12
-24.83
22
1.395
32
0
13
-24.83
23
1.395
33
0
39
0
210
0
220
0
230
1
0
MTEXT
5
285
100
AcDbEntity
8
0
62
256
6
ByLayer
370
18
48
1
60
0
100
AcDbMText
10
-30.83
20
22.165626
30
0
210
0
220
0
230
1
1
\A1;2.79
40
3
41
0
44
1
50
90
71
5
72
5
7
iso_b_vert
0
POINT
5
286
100
AcDbEntity
8
Defpoints
62
0
6
ByLayer
370
-1
48
1
60
0
100
AcDbPoint
10
-18.83
20
-1.395
30
0
39
0
210
0
220
0
230
1
50
360
0
POINT
5
287
100
AcDbEntity
8
Defpoints
62
0
6
ByLayer
370
-1
48
1
60
0
100
AcDbPoint
10
-18.83
20
1.395
30
0
39
0
210
0
220
0
230
1
50
360
0
POINT
5
288
100
AcDbEntity
8
Defpoints
62
0
6
ByLayer
370
-1
48
1
60
0
100
AcDbPoint
10
-24.83
20
1.395
30
0
39
0
210
0
220
0
230
1
50
360
0
ENDBLK
5
27D
100
AcDbEntity
8
0
100
AcDbBlockEnd
0
BLOCK
5
290
100
AcDbEntity
8
0
100
AcDbBlockBegin
2
_U1
70
0
10
0
20
0
30
0
3
_U1
0
MTEXT
5
28A
100
AcDbEntity
8
SK2
62
256
6
ByLayer
370
18
48
1
60
0
100
AcDbMText
10
-25.421114
20
11.135
30
0
210
0
220
0
230
1
1
\W0.7265;3.581 x 2.79
40
3
41
0
44
1.084337
50
90
71
7
72
5
7
iso_b_vert
0
LINE
5
28B
100
AcDbEntity
8
SK2
62
256
6
ByLayer
370
13
48
1
60
0
100
AcDbLine
10
-20.4175
20
-1.395
30
0
11
-26.83
21
-1.395
31
0
39
0
210
0
220
0
230
1
0
LINE
5
28C
100
AcDbEntity
8
SK2
62
256
6
ByLayer
370
13
48
1
60
0
100
AcDbLine
10
-20.4175
20
1.395
30
0
11
-26.83
21
1.395
31
0
39
0
210
0
220
0
230
1
0
LINE
5
28D
100
AcDbEntity
8
SK2
62
256
6
ByLayer
370
13
48
1
60
0
100
AcDbLine
10
-24.83
20
33.331253
30
0
11
-24.83
21
-8.895
31
0
39
0
210
0
220
0
230
1
0
SOLID
5
28E
100
AcDbEntity
8
SK2
62
256
6
ByLayer
370
18
48
1
60
0
100
AcDbTrace
10
-24.83
20
-1.395
30
0
11
-24.369216
21
-4.894998
31
0
12
-25.290784
22
-4.895002
32
0
13
-25.290784
23
-4.895002
33
0
39
0
210
0
220
0
230
1
0
SOLID
5
28F
100
AcDbEntity
8
SK2
62
256
6
ByLayer
370
18
48
1
60
0
100
AcDbTrace
10
-24.83
20
1.395
30
0
11
-25.290784
21
4.894998
31
0
12
-24.369216
22
4.895002
32
0
13
-24.369216
23
4.895002
33
0
39
0
210
0
220
0
230
1
0
ENDBLK
5
291
100
AcDbEntity
8
0
100
AcDbBlockEnd
0
BLOCK
5
296
100
AcDbEntity
8
0
100
AcDbBlockBegin
2
*D5
70
1
10
0
20
0
30
0
3
*D5
0
LINE
5
298
100
AcDbEntity
8
0
62
256
6
ByLayer
370
-2
48
1
60
0
100
AcDbLine
10
36.17
20
3.380392
30
0
11
36.17
21
12.759785
31
0
39
0
210
0
220
0
230
1
0
LINE
5
299
100
AcDbEntity
8
0
62
256
6
ByLayer
370
-2
48
1
60
0
100
AcDbLine
10
34.38
20
1.5875
30
0
11
34.38
21
12.759785
31
0
39
0
210
0
220
0
230
1
0
LINE
5
29A
100
AcDbEntity
8
0
62
256
6
ByLayer
370
-2
48
1
60
0
100
AcDbLine
10
39.67
20
10.759785
30
0
11
43.17
21
10.759785
31
0
39
0
210
0
220
0
230
1
0
LINE
5
29B
100
AcDbEntity
8
0
62
256
6
ByLayer
370
-2
48
1
60
0
100
AcDbLine
10
30.88
20
10.759785
30
0
11
27.38
21
10.759785
31
0
39
0
210
0
220
0
230
1
0
SOLID
5
29C
100
AcDbEntity
8
0
62
256
6
ByLayer
370
-1
48
1
60
0
100
AcDbTrace
10
39.67
20
11.343118
30
0
11
39.67
21
10.176451
31
0
12
36.17
22
10.759785
32
0
13
36.17
23
10.759785
33
0
39
0
210
0
220
0
230
1
0
SOLID
5
29D
100
AcDbEntity
8
0
62
256
6
ByLayer
370
-1
48
1
60
0
100
AcDbTrace
10
30.88
20
10.176451
30
0
11
30.88
21
11.343118
31
0
12
34.38
22
10.759785
32
0
13
34.38
23
10.759785
33
0
39
0
210
0
220
0
230
1
0
MTEXT
5
29E
100
AcDbEntity
8
0
62
256
6
ByLayer
370
18
48
1
60
0
100
AcDbMText
10
35.275
20
16.759785
30
0
210
0
220
0
230
1
1
\A1;1.79
40
3
41
0
44
1
50
0
71
5
72
5
7
iso_b_vert
0
POINT
5
29F
100
AcDbEntity
8
Defpoints
62
0
6
ByLayer
370
-1
48
1
60
0
100
AcDbPoint
10
36.17
20
1.792892
30
0
39
0
210
0
220
0
230
1
50
360
0
POINT
5
2A0
100
AcDbEntity
8
Defpoints
62
0
6
ByLayer
370
-1
48
1
60
0
100
AcDbPoint
10
34.38
20
0
30
0
39
0
210
0
220
0
230
1
50
360
0
POINT
5
2A1
100
AcDbEntity
8
Defpoints
62
0
6
ByLayer
370
-1
48
1
60
0
100
AcDbPoint
10
34.38
20
10.759785
30
0
39
0
210
0
220
0
230
1
50
360
0
ENDBLK
5
297
100
AcDbEntity
8
0
100
AcDbBlockEnd
0
BLOCK
5
2AA
100
AcDbEntity
8
0
100
AcDbBlockBegin
2
_U2
70
0
10
0
20
0
30
0
3
_U2
0
MTEXT
5
2A3
100
AcDbEntity
8
SK2
62
256
6
ByLayer
370
18
48
1
60
0
100
AcDbMText
10
32.314986
20
11.542418
30
0
210
0
220
0
230
1
1
\W0.6474;'C'
40
3.5
41
0
44
1.084337
50
0
71
7
72
5
7
iso_b_vert
0
MTEXT
5
2A4
100
AcDbEntity
8
SK2
62
256
6
ByLayer
370
18
48
1
60
0
100
AcDbMText
10
32.288486
20
18.644899
30
0
210
0
220
0
230
1
1
\W0.6662;1.79
40
3
41
0
44
1.084337
50
0
71
7
72
5
7
iso_b_vert
0
LINE
5
2A5
100
AcDbEntity
8
SK2
62
256
6
ByLayer
370
13
48
1
60
0
100
AcDbLine
10
36.17
20
3.380392
30
0
11
36.17
21
12.759785
31
0
39
0
210
0
220
0
230
1
0
LINE
5
2A6
100
AcDbEntity
8
SK2
62
256
6
ByLayer
370
13
48
1
60
0
100
AcDbLine
10
34.38
20
1.5875
30
0
11
34.38
21
12.759785
31
0
39
0
210
0
220
0
230
1
0
LINE
5
2A7
100
AcDbEntity
8
SK2
62
256
6
ByLayer
370
13
48
1
60
0
100
AcDbLine
10
43.67
20
10.759785
30
0
11
26.88
21
10.759785
31
0
39
0
210
0
220
0
230
1
0
SOLID
5
2A8
100
AcDbEntity
8
SK2
62
256
6
ByLayer
370
18
48
1
60
0
100
AcDbTrace
10
36.17
20
10.759785
30
0
11
39.669998
21
11.220569
31
0
12
39.670002
22
10.299001
32
0
13
39.670002
23
10.299001
33
0
39
0
210
0
220
0
230
1
0
SOLID
5
2A9
100
AcDbEntity
8
SK2
62
256
6
ByLayer
370
18
48
1
60
0
100
AcDbTrace
10
34.38
20
10.759785
30
0
11
30.880002
21
10.299001
31
0
12
30.879998
22
11.220569
32
0
13
30.879998
23
11.220569
33
0
39
0
210
0
220
0
230
1
0
ENDBLK
5
2AB
100
AcDbEntity
8
0
100
AcDbBlockEnd
0
BLOCK
5
2B0
100
AcDbEntity
8
0
100
AcDbBlockBegin
2
*D7
70
1
10
0
20
0
30
0
3
*D7
0
LINE
5
2B2
100
AcDbEntity
8
0
62
256
6
ByLayer
370
-2
48
1
60
0
100
AcDbLine
10
36.17
20
-3.380392
30
0
11
36.17
21
-10.792892
31
0
39
0
210
0
220
0
230
1
0
LINE
5
2B3
100
AcDbEntity
8
0
62
256
6
ByLayer
370
-2
48
1
60
0
100
AcDbLine
10
24.67
20
-3.380392
30
0
11
24.67
21
-10.792892
31
0
39
0
210
0
220
0
230
1
0
LINE
5
2B4
100
AcDbEntity
8
0
62
256
6
ByLayer
370
-2
48
1
60
0
100
AcDbLine
10
39.67
20
-8.792892
30
0
11
43.17
21
-8.792892
31
0
39
0
210
0
220
0
230
1
0
LINE
5
2B5
100
AcDbEntity
8
0
62
256
6
ByLayer
370
-2
48
1
60
0
100
AcDbLine
10
21.17
20
-8.792892
30
0
11
17.67
21
-8.792892
31
0
39
0
210
0
220
0
230
1
0
SOLID
5
2B6
100
AcDbEntity
8
0
62
256
6
ByLayer
370
-1
48
1
60
0
100
AcDbTrace
10
39.67
20
-8.209559
30
0
11
39.67
21
-9.376226
31
0
12
36.17
22
-8.792892
32
0
13
36.17
23
-8.792892
33
0
39
0
210
0
220
0
230
1
0
SOLID
5
2B7
100
AcDbEntity
8
0
62
256
6
ByLayer
370
-1
48
1
60
0
100
AcDbTrace
10
21.17
20
-9.376226
30
0
11
21.17
21
-8.209559
31
0
12
24.67
22
-8.792892
32
0
13
24.67
23
-8.792892
33
0
39
0
210
0
220
0
230
1
0
MTEXT
5
2B8
100
AcDbEntity
8
0
62
256
6
ByLayer
370
18
48
1
60
0
100
AcDbMText
10
26.586667
20
-2.792892
30
0
210
0
220
0
230
1
1
\A1;11.5
40
3
41
0
44
1
50
0
71
5
72
5
7
iso_b_vert
0
POINT
5
2B9
100
AcDbEntity
8
Defpoints
62
0
6
ByLayer
370
-1
48
1
60
0
100
AcDbPoint
10
36.17
20
-1.792892
30
0
39
0
210
0
220
0
230
1
50
360
0
POINT
5
2BA
100
AcDbEntity
8
Defpoints
62
0
6
ByLayer
370
-1
48
1
60
0
100
AcDbPoint
10
24.67
20
-1.792892
30
0
39
0
210
0
220
0
230
1
50
360
0
POINT
5
2BB
100
AcDbEntity
8
Defpoints
62
0
6
ByLayer
370
-1
48
1
60
0
100
AcDbPoint
10
24.67
20
-8.792892
30
0
39
0
210
0
220
0
230
1
50
360
0
ENDBLK
5
2B1
100
AcDbEntity
8
0
100
AcDbBlockEnd
0
BLOCK
5
2C3
100
AcDbEntity
8
0
100
AcDbBlockBegin
2
_U3
70
0
10
0
20
0
30
0
3
_U3
0
MTEXT
5
2BD
100
AcDbEntity
8
SK2
62
256
6
ByLayer
370
18
48
1
60
0
100
AcDbMText
10
23.975096
20
-7.907778
30
0
210
0
220
0
230
1
1
\W0.5779;11.5
40
3
41
0
44
1.084337
50
0
71
7
72
5
7
iso_b_vert
0
LINE
5
2BE
100
AcDbEntity
8
SK2
62
256
6
ByLayer
370
13
48
1
60
0
100
AcDbLine
10
36.17
20
-3.380392
30
0
11
36.17
21
-10.792892
31
0
39
0
210
0
220
0
230
1
0
LINE
5
2BF
100
AcDbEntity
8
SK2
62
256
6
ByLayer
370
13
48
1
60
0
100
AcDbLine
10
24.67
20
-3.380392
30
0
11
24.67
21
-10.792892
31
0
39
0
210
0
220
0
230
1
0
LINE
5
2C0
100
AcDbEntity
8
SK2
62
256
6
ByLayer
370
13
48
1
60
0
100
AcDbLine
10
36.17
20
-8.792892
30
0
11
23.816096
21
-8.792892
31
0
39
0
210
0
220
0
230
1
0
SOLID
5
2C1
100
AcDbEntity
8
SK2
62
256
6
ByLayer
370
18
48
1
60
0
100
AcDbTrace
10
36.17
20
-8.792892
30
0
11
32.670002
21
-9.253676
31
0
12
32.669998
22
-8.332109
32
0
13
32.669998
23
-8.332109
33
0
39
0
210
0
220
0
230
1
0
SOLID
5
2C2
100
AcDbEntity
8
SK2
62
256
6
ByLayer
370
18
48
1
60
0
100
AcDbTrace
10
24.67
20
-8.792892
30
0
11
28.169998
21
-8.332109
31
0
12
28.170002
22
-9.253676
32
0
13
28.170002
23
-9.253676
33
0
39
0
210
0
220
0
230
1
0
ENDBLK
5
2C4
100
AcDbEntity
8
0
100
AcDbBlockEnd
0
BLOCK
5
2C9
100
AcDbEntity
8
0
100
AcDbBlockBegin
2
*D9
70
1
10
0
20
0
30
0
3
*D9
0
LINE
5
2CB
100
AcDbEntity
8
0
62
256
6
ByLayer
370
-2
48
1
60
0
100
AcDbLine
10
36.17
20
-3.380392
30
0
11
36.17
21
-33.292892
31
0
39
0
210
0
220
0
230
1
0
LINE
5
2CC
100
AcDbEntity
8
0
62
256
6
ByLayer
370
-2
48
1
60
0
100
AcDbLine
10
19.17
20
-2.8225
30
0
11
19.17
21
-33.292892
31
0
39
0
210
0
220
0
230
1
0
LINE
5
2CD
100
AcDbEntity
8
0
62
256
6
ByLayer
370
-2
48
1
60
0
100
AcDbLine
10
32.67
20
-31.292892
30
0
11
22.67
21
-31.292892
31
0
39
0
210
0
220
0
230
1
0
SOLID
5
2CE
100
AcDbEntity
8
0
62
256
6
ByLayer
370
-1
48
1
60
0
100
AcDbTrace
10
32.67
20
-31.876226
30
0
11
32.67
21
-30.709559
31
0
12
36.17
22
-31.292892
32
0
13
36.17
23
-31.292892
33
0
39
0
210
0
220
0
230
1
0
SOLID
5
2CF
100
AcDbEntity
8
0
62
256
6
ByLayer
370
-1
48
1
60
0
100
AcDbTrace
10
22.67
20
-30.709559
30
0
11
22.67
21
-31.876226
31
0
12
19.17
22
-31.292892
32
0
13
19.17
23
-31.292892
33
0
39
0
210
0
220
0
230
1
0
MTEXT
5
2D0
100
AcDbEntity
8
0
62
256
6
ByLayer
370
18
48
1
60
0
100
AcDbMText
10
27.67
20
-25.292892
30
0
210
0
220
0
230
1
1
\A1;17
40
3
41
0
44
1
50
0
71
5
72
5
7
iso_b_vert
0
POINT
5
2D1
100
AcDbEntity
8
Defpoints
62
0
6
ByLayer
370
-1
48
1
60
0
100
AcDbPoint
10
36.17
20
-1.792892
30
0
39
0
210
0
220
0
230
1
50
360
0
POINT
5
2D2
100
AcDbEntity
8
Defpoints
62
0
6
ByLayer
370
-1
48
1
60
0
100
AcDbPoint
10
19.17
20
-1.235
30
0
39
0
210
0
220
0
230
1
50
360
0
POINT
5
2D3
100
AcDbEntity
8
Defpoints
62
0
6
ByLayer
370
-1
48
1
60
0
100
AcDbPoint
10
19.17
20
-31.292892
30
0
39
0
210
0
220
0
230
1
50
360
0
ENDBLK
5
2CA
100
AcDbEntity
8
0
100
AcDbBlockEnd
0
BLOCK
5
2DB
100
AcDbEntity
8
0
100
AcDbBlockBegin
2
_U4
70
0
10
0
20
0
30
0
3
_U4
0
MTEXT
5
2D5
100
AcDbEntity
8
SK2
62
256
6
ByLayer
370
18
48
1
60
0
100
AcDbMText
10
26.412115
20
-30.407778
30
0
210
0
220
0
230
1
1
\W0.5321;17
40
3
41
0
44
1.084337
50
0
71
7
72
5
7
iso_b_vert
0
LINE
5
2D6
100
AcDbEntity
8
SK2
62
256
6
ByLayer
370
13
48
1
60
0
100
AcDbLine
10
36.17
20
-3.380392
30
0
11
36.17
21
-33.292892
31
0
39
0
210
0
220
0
230
1
0
LINE
5
2D7
100
AcDbEntity
8
SK2
62
256
6
ByLayer
370
13
48
1
60
0
100
AcDbLine
10
19.17
20
-2.8225
30
0
11
19.17
21
-33.292892
31
0
39
0
210
0
220
0
230
1
0
LINE
5
2D8
100
AcDbEntity
8
SK2
62
256
6
ByLayer
370
13
48
1
60
0
100
AcDbLine
10
36.17
20
-31.292892
30
0
11
19.17
21
-31.292892
31
0
39
0
210
0
220
0
230
1
0
SOLID
5
2D9
100
AcDbEntity
8
SK2
62
256
6
ByLayer
370
18
48
1
60
0
100
AcDbTrace
10
36.17
20
-31.292892
30
0
11
32.670002
21
-31.753676
31
0
12
32.669998
22
-30.832109
32
0
13
32.669998
23
-30.832109
33
0
39
0
210
0
220
0
230
1
0
SOLID
5
2DA
100
AcDbEntity
8
SK2
62
256
6
ByLayer
370
18
48
1
60
0
100
AcDbTrace
10
19.17
20
-31.292892
30
0
11
22.669998
21
-30.832109
31
0
12
22.670002
22
-31.753676
32
0
13
22.670002
23
-31.753676
33
0
39
0
210
0
220
0
230
1
0
ENDBLK
5
2DC
100
AcDbEntity
8
0
100
AcDbBlockEnd
0
BLOCK
5
2E1
100
AcDbEntity
8
0
100
AcDbBlockBegin
2
*D11
70
1
10
0
20
0
30
0
3
*D11
0
LINE
5
2E3
100
AcDbEntity
8
0
62
256
6
ByLayer
370
-2
48
1
60
0
100
AcDbLine
10
36.17
20
-3.380392
30
0
11
36.17
21
-22.292892
31
0
39
0
210
0
220
0
230
1
0
LINE
5
2E4
100
AcDbEntity
8
0
62
256
6
ByLayer
370
-2
48
1
60
0
100
AcDbLine
10
21.72
20
-1.5875
30
0
11
21.72
21
-22.292892
31
0
39
0
210
0
220
0
230
1
0
LINE
5
2E5
100
AcDbEntity
8
0
62
256
6
ByLayer
370
-2
48
1
60
0
100
AcDbLine
10
39.67
20
-20.292892
30
0
11
43.17
21
-20.292892
31
0
39
0
210
0
220
0
230
1
0
LINE
5
2E6
100
AcDbEntity
8
0
62
256
6
ByLayer
370
-2
48
1
60
0
100
AcDbLine
10
18.22
20
-20.292892
30
0
11
14.72
21
-20.292892
31
0
39
0
210
0
220
0
230
1
0
SOLID
5
2E7
100
AcDbEntity
8
0
62
256
6
ByLayer
370
-1
48
1
60
0
100
AcDbTrace
10
39.67
20
-19.709559
30
0
11
39.67
21
-20.876226
31
0
12
36.17
22
-20.292892
32
0
13
36.17
23
-20.292892
33
0
39
0
210
0
220
0
230
1
0
SOLID
5
2E8
100
AcDbEntity
8
0
62
256
6
ByLayer
370
-1
48
1
60
0
100
AcDbTrace
10
18.22
20
-20.876226
30
0
11
18.22
21
-19.709559
31
0
12
21.72
22
-20.292892
32
0
13
21.72
23
-20.292892
33
0
39
0
210
0
220
0
230
1
0
MTEXT
5
2E9
100
AcDbEntity
8
0
62
256
6
ByLayer
370
18
48
1
60
0
100
AcDbMText
10
28.945
20
-14.292892
30
0
210
0
220
0
230
1
1
\A1;14.5
40
3
41
0
44
1
50
0
71
5
72
5
7
iso_b_vert
0
POINT
5
2EA
100
AcDbEntity
8
Defpoints
62
0
6
ByLayer
370
-1
48
1
60
0
100
AcDbPoint
10
36.17
20
-1.792892
30
0
39
0
210
0
220
0
230
1
50
360
0
POINT
5
2EB
100
AcDbEntity
8
Defpoints
62
0
6
ByLayer
370
-1
48
1
60
0
100
AcDbPoint
10
21.72
20
0
30
0
39
0
210
0
220
0
230
1
50
360
0
POINT
5
2EC
100
AcDbEntity
8
Defpoints
62
0
6
ByLayer
370
-1
48
1
60
0
100
AcDbPoint
10
21.72
20
-20.292892
30
0
39
0
210
0
220
0
230
1
50
360
0
ENDBLK
5
2E2
100
AcDbEntity
8
0
100
AcDbBlockEnd
0
BLOCK
5
2F4
100
AcDbEntity
8
0
100
AcDbBlockBegin
2
_U5
70
0
10
0
20
0
30
0
3
_U5
0
MTEXT
5
2EE
100
AcDbEntity
8
2
62
256
6
ByLayer
370
18
48
1
60
0
100
AcDbMText
10
25.642601
20
-19.407778
30
0
210
0
220
0
230
1
1
\W0.7093;14.4
40
3
41
0
44
1.084337
50
0
71
7
72
5
7
iso_b_vert
0
LINE
5
2EF
100
AcDbEntity
8
2
62
256
6
ByLayer
370
13
48
1
60
0
100
AcDbLine
10
36.17
20
-3.380392
30
0
11
36.17
21
-22.292892
31
0
39
0
210
0
220
0
230
1
0
LINE
5
2F0
100
AcDbEntity
8
2
62
256
6
ByLayer
370
13
48
1
60
0
100
AcDbLine
10
21.72
20
-1.5875
30
0
11
21.72
21
-22.292892
31
0
39
0
210
0
220
0
230
1
0
LINE
5
2F1
100
AcDbEntity
8
2
62
256
6
ByLayer
370
13
48
1
60
0
100
AcDbLine
10
36.17
20
-20.292892
30
0
11
21.72
21
-20.292892
31
0
39
0
210
0
220
0
230
1
0
SOLID
5
2F2
100
AcDbEntity
8
2
62
256
6
ByLayer
370
18
48
1
60
0
100
AcDbTrace
10
36.17
20
-20.292892
30
0
11
32.670002
21
-20.753676
31
0
12
32.669998
22
-19.832109
32
0
13
32.669998
23
-19.832109
33
0
39
0
210
0
220
0
230
1
0
SOLID
5
2F3
100
AcDbEntity
8
2
62
256
6
ByLayer
370
18
48
1
60
0
100
AcDbTrace
10
21.72
20
-20.292892
30
0
11
25.219998
21
-19.832109
31
0
12
25.220002
22
-20.753676
32
0
13
25.220002
23
-20.753676
33
0
39
0
210
0
220
0
230
1
0
ENDBLK
5
2F5
100
AcDbEntity
8
0
100
AcDbBlockEnd
0
ENDSEC
0
SECTION
2
ENTITIES
0
ARC
5
D3
100
AcDbEntity
8
SK1
62
256
6
ByLayer
370
18
48
1
60
0
100
AcDbCircle
39
0
10
-16.395
20
0
30
0
40
1.71887999999986
210
0
220
0
230
1
100
AcDbArc
50
324.250098
51
35.749902
0
ARC
5
D4
100
AcDbEntity
8
1
62
256
6
ByLayer
370
18
48
1
60
0
100
AcDbCircle
39
0
10
24.433694
20
-1.835
30
0
40
0.6
210
0
220
0
230
1
100
AcDbArc
50
66.806139
51
90
0
ARC
5
D5
100
AcDbEntity
8
1
62
256
6
ByLayer
370
18
48
1
60
0
100
AcDbCircle
39
0
10
19.239991
20
-2.035
30
0
40
0.8
210
0
220
0
230
1
100
AcDbArc
50
90
51
100
0
ARC
5
D6
100
AcDbEntity
8
1
62
256
6
ByLayer
370
18
48
1
60
0
100
AcDbCircle
39
0
10
19.239991
20
2.035
30
0
40
0.8
210
0
220
0
230
1
100
AcDbArc
50
260
51
270
0
POINT
5
70
100
AcDbEntity
8
80
62
256
6
ByLayer
370
18
48
1
60
0
100
AcDbPoint
10
0
20
0
30
0
39
0
210
0
220
0
230
1
50
360
0
POINT
5
72
100
AcDbEntity
8
81
62
256
6
ByLayer
370
18
48
1
60
0
100
AcDbPoint
10
36.27
20
0
30
0
39
0
210
0
220
0
230
1
50
360
0
POINT
5
74
100
AcDbEntity
8
1
62
256
6
ByLayer
370
18
48
1
60
1
100
AcDbPoint
10
36.17
20
1.792892
30
0
39
0
210
0
220
0
230
1
50
360
0
POINT
5
76
100
AcDbEntity
8
1
62
256
6
ByLayer
370
18
48
1
60
1
100
AcDbPoint
10
36.17
20
-1.792892
30
0
39
0
210
0
220
0
230
1
50
360
0
POINT
5
77
100
AcDbEntity
8
1
62
256
6
ByLayer
370
18
48
1
60
1
100
AcDbPoint
10
-18.83
20
-1.395
30
0
39
0
210
0
220
0
230
1
50
360
0
POINT
5
78
100
AcDbEntity
8
1
62
256
6
ByLayer
370
18
48
1
60
1
100
AcDbPoint
10
-18.83
20
1.395
30
0
39
0
210
0
220
0
230
1
50
360
0
POINT
5
79
100
AcDbEntity
8
1
62
256
6
ByLayer
370
18
48
1
60
1
100
AcDbPoint
10
36.17
20
1.792892
30
0
39
0
210
0
220
0
230
1
50
360
0
POINT
5
7A
100
AcDbEntity
8
1
62
256
6
ByLayer
370
18
48
1
60
1
100
AcDbPoint
10
34.38
20
0
30
0
39
0
210
0
220
0
230
1
50
360
0
POINT
5
7B
100
AcDbEntity
8
1
62
256
6
ByLayer
370
18
48
1
60
1
100
AcDbPoint
10
36.17
20
-1.792892
30
0
39
0
210
0
220
0
230
1
50
360
0
POINT
5
7C
100
AcDbEntity
8
1
62
256
6
ByLayer
370
18
48
1
60
1
100
AcDbPoint
10
24.67
20
-1.792892
30
0
39
0
210
0
220
0
230
1
50
360
0
POINT
5
7D
100
AcDbEntity
8
1
62
256
6
ByLayer
370
18
48
1
60
1
100
AcDbPoint
10
36.17
20
-1.792892
30
0
39
0
210
0
220
0
230
1
50
360
0
POINT
5
7E
100
AcDbEntity
8
1
62
256
6
ByLayer
370
18
48
1
60
1
100
AcDbPoint
10
19.17
20
-1.235
30
0
39
0
210
0
220
0
230
1
50
360
0
POINT
5
7F
100
AcDbEntity
8
1
62
256
6
ByLayer
370
18
48
1
60
1
100
AcDbPoint
10
36.17
20
-1.792892
30
0
39
0
210
0
220
0
230
1
50
360
0
POINT
5
80
100
AcDbEntity
8
1
62
256
6
ByLayer
370
18
48
1
60
1
100
AcDbPoint
10
21.72
20
0
30
0
39
0
210
0
220
0
230
1
50
360
0
SPLINE
5
D7
100
AcDbEntity
8
1
62
256
6
ByLayer
370
18
48
1
60
0
100
AcDbSpline
70
4
71
3
72
10
73
6
40
0
40
0
40
0
40
0
40
0.264371542244879
40
0.264371542244879
40
1
40
1
40
1
40
1
41
1
10
32.4809429421135
20
1.75356576767481
30
0
41
1
10
32.4825786641623
20
1.75837620855557
30
0
41
1
10
32.4842077143269
20
1.76273614554898
30
0
41
1
10
32.4903490550918
20
1.77755102913505
30
0
41
1
10
32.4948239735619
20
1.78502408186094
30
0
41
1
10
32.4992901842504
20
1.78913524117601
30
0
0
SPLINE
5
D8
100
AcDbEntity
8
1
62
256
6
ByLayer
370
13
48
1
60
0
100
AcDbSpline
70
4
71
3
72
9
73
5
40
0
40
0
40
0
40
0
40
0.369135865896699
40
1
40
1
40
1
40
1
41
1.04
10
25.3217475798818
20
-1.320786584559
30
0
41
1.04
10
25.3195556719186
20
-1.32474539017783
30
0
41
1.04
10
25.3136161603128
20
-1.33387280359666
30
0
41
1.04
10
25.3076726014663
20
-1.33863384359782
30
0
41
1.04
10
25.3039177304519
20
-1.33987668473515
30
0
0
SPLINE
5
D9
100
AcDbEntity
8
1
62
256
6
ByLayer
370
18
48
1
60
0
100
AcDbSpline
70
4
71
3
72
10
73
6
40
0
40
0
40
0
40
0
40
0.40705444188632
40
0.40705444188632
40
1
40
1
40
1
40
1
41
1
10
32.2051659996357
20
-1.76408273089004
30
0
41
1
10
32.2020526674277
20
-1.7718852111314
30
0
41
1
10
32.1989298644542
20
-1.77810032443517
30
0
41
1
10
32.1912229957312
20
-1.78949567820837
30
0
41
1
10
32.1866457092624
20
-1.79290776049928
30
0
41
1
10
32.1821080842889
20
-1.79289238462081
30
0
0
SPLINE
5
DA
100
AcDbEntity
8
1
62
256
6
ByLayer
370
13
48
1
60
0
100
AcDbSpline
70
4
71
3
72
8
73
4
40
0
40
0
40
0
40
0
40
1
40
1
40
1
40
1
41
1
10
25.8958741800016
20
1.34108161175655
30
0
41
1
10
25.8896460466823
20
1.34090085463177
30
0
41
1
10
25.8834703282161
20
1.33579611067535
30
0
41
1
10
25.8773339187804
20
1.32604798710329
30
0
0
SPLINE
5
DB
100
AcDbEntity
8
1
62
256
6
ByLayer
370
18
48
1
60
0
100
AcDbSpline
70
4
71
3
72
8
73
4
40
0
40
0
40
0
40
0
40
1
40
1
40
1
40
1
41
1
10
29.0509302048022
20
1.32325628327817
30
0
41
1
10
29.0471569409115
20
1.3167204934164
30
0
41
1
10
29.0433789916265
20
1.30840847596906
30
0
41
1
10
29.0395960543046
20
1.29835683414299
30
0
0
SPLINE
5
DC
100
AcDbEntity
8
1
62
256
6
ByLayer
370
18
48
1
60
0
100
AcDbSpline
70
4
71
3
72
10
73
6
40
0
40
0
40
0
40
0
40
0.631766676735033
40
0.631766676735033
40
1
40
1
40
1
40
1
41
1
10
35.0485814965477
20
-1.38243820948935
30
0
41
1
10
35.0553441417493
20
-1.40127752087915
30
0
41
1
10
35.0620239715236
20
-1.41760148781819
30
0
41
1
10
35.0724996239553
20
-1.43948516943925
30
0
41
1
10
35.0763351962166
20
-1.44669292686922
30
0
41
1
10
35.0801521143187
20
-1.45302939578471
30
0
0
SPLINE
5
DD
100
AcDbEntity
8
1
62
256
6
ByLayer
370
18
48
1
60
0
100
AcDbSpline
70
4
71
3
72
10
73
6
40
0
40
0
40
0
40
0
40
0.05158578273495
40
0.05158578273495
40
1
40
1
40
1
40
1
41
1
10
35.1067638742894
20
-1.48302007335329
30
0
41
1
10
35.1070802564185
20
-1.4832017332923
30
0
41
1
10
35.1073964668626
20
-1.48337681609479
30
0
41
1
10
35.1135226723575
20
-1.48664290198974
30
0
41
1
10
35.1192082148377
20
-1.48748915285225
30
0
41
1
10
35.1247875678274
20
-1.48616641380406
30
0
0
SPLINE
5
DE
100
AcDbEntity
8
1
62
256
6
ByLayer
370
18
48
1
60
0
100
AcDbSpline
70
4
71
3
72
10
73
6
40
0
40
0
40
0
40
0
40
0.184407774416813
40
0.184407774416813
40
1
40
1
40
1
40
1
41
1
10
25.2976583298143
20
-1.36106037037797
30
0
41
1
10
25.2968652497189
20
-1.36210304618874
30
0
41
1
10
25.2960718543447
20
-1.3630534363771
30
0
41
1
10
25.291766944898
20
-1.36770405517379
30
0
41
1
10
25.2882366899532
20
-1.36966657609554
30
0
41
1
10
25.2847430172293
20
-1.36975436120642
30
0
0
SPLINE
5
DF
100
AcDbEntity
8
1
62
256
6
ByLayer
370
13
48
1
60
0
100
AcDbSpline
70
4
71
3
72
8
73
4
40
0
40
0
40
0
40
0
40
1
40
1
40
1
40
1
41
1.04
10
29.6952668142568
20
1.30462053090151
30
0
41
1.04
10
29.6917511066425
20
1.31323071197884
30
0
41
1.04
10
29.6882444176722
20
1.32030985480625
30
0
41
1.04
10
29.6847442842321
20
1.32585171153094
30
0
0
SPLINE
5
E0
100
AcDbEntity
8
1
62
256
6
ByLayer
370
18
48
1
60
0
100
AcDbSpline
70
4
71
3
72
8
73
4
40
0
40
0
40
0
40
0
40
1
40
1
40
1
40
1
41
1.04
10
29.6847443700412
20
1.32585157566683
30
0
41
1.04
10
29.6820298194545
20
1.33014961699141
30
0
41
1.04
10
29.6793192119499
20
1.33352299988257
30
0
41
1.04
10
29.6766113985154
20
1.33596880979532
30
0
0
SPLINE
5
E1
100
AcDbEntity
8
1
62
256
6
ByLayer
370
18
48
1
60
0
100
AcDbSpline
70
4
71
3
72
14
73
10
40
0
40
0
40
0
40
0
40
0.122469358766945
40
0.122469358766945
40
0.341852019075208
40
0.341852019075208
40
0.561234679383472
40
0.561234679383472
40
1
40
1
40
1
40
1
41
1
10
25.9488005713704
20
1.44836145609022
30
0
41
1
10
25.95000511162
20
1.45035421956845
30
0
41
1
10
25.9512107602023
20
1.4521818321972
30
0
41
1
10
25.9545806264396
20
1.45682251595579
30
0
41
1
10
25.9567484714144
20
1.45926659765024
30
0
41
1
10
25.9611005840461
20
1.46306958778604
30
0
41
1
10
25.9632901204107
20
1.46442900599479
30
0
41
1
10
25.9698349497719
20
1.46682972476395
30
0
41
1
10
25.9741767152656
20
1.46621716826533
30
0
41
1
10
25.9785131276277
20
1.46344630536731
30
0
0
SPLINE
5
E2
100
AcDbEntity
8
1
62
256
6
ByLayer
370
18
48
1
60
0
100
AcDbSpline
70
4
71
3
72
14
73
10
40
0
40
0
40
0
40
0
40
0.536673481860552
40
0.536673481860552
40
0.805010222790829
40
0.805010222790829
40
0.939178593255968
40
0.939178593255968
40
1
40
1
40
1
40
1
41
1
10
26.4261280233106
20
1.43262049261062
30
0
41
1
10
26.4186593026208
20
1.46616425366784
30
0
41
1
10
26.4112961835501
20
1.49050745173562
30
0
41
1
10
26.4001564033594
20
1.51340590921424
30
0
41
1
10
26.3964267003941
20
1.51875405252906
30
0
41
1
10
26.3907707940422
20
1.5232277527152
30
0
41
1
10
26.3888841675117
20
1.52411734791809
30
0
41
1
10
26.386150157151
20
1.52454285343654
30
0
41
1
10
26.3852978558618
20
1.52455344338892
30
0
41
1
10
26.3844458062239
20
1.52444268566089
30
0
0
SPLINE
5
E3
100
AcDbEntity
8
1
62
256
6
ByLayer
370
13
48
1
60
0
100
AcDbSpline
70
4
71
3
72
8
73
4
40
0
40
0
40
0
40
0
40
1
40
1
40
1
40
1
41
1
10
35.0063363109478
20
-1.32660940096156
30
0
41
1
10
34.9988658937778
20
-1.31484234697496
30
0
41
1
10
34.9913534340827
20
-1.29595684747724
30
0
41
1
10
34.9838008961494
20
-1.27022999996188
30
0
0
SPLINE
5
E4
100
AcDbEntity
8
1
62
256
6
ByLayer
370
13
48
1
60
0
100
AcDbSpline
70
4
71
3
72
9
73
5
40
0
40
0
40
0
40
0
40
0.472621447314733
40
1
40
1
40
1
40
1
41
1.04
10
28.4941417455379
20
-1.32574103578602
30
0
41
1.04
10
28.488469621517
20
-1.33480610261867
30
0
41
1.04
10
28.4765460266714
20
-1.34537381565084
30
0
41
1.04
10
28.4647443044133
20
-1.33787675219743
30
0
41
1.04
10
28.4585511198527
20
-1.32918533774272
30
0
0
SPLINE
5
E5
100
AcDbEntity
8
1
62
256
6
ByLayer
370
13
48
1
60
0
100
AcDbSpline
70
4
71
3
72
8
73
4
40
0
40
0
40
0
40
0
40
1
40
1
40
1
40
1
41
1.04
10
26.540222510819
20
1.23901032048177
30
0
41
1.04
10
26.5308330749114
20
1.27713462063161
30
0
41
1.04
10
26.521423188891
20
1.30508189452426
30
0
41
1.04
10
26.5119446293546
20
1.32198169828085
30
0
0
SPLINE
5
E6
100
AcDbEntity
8
1
62
256
6
ByLayer
370
18
48
1
60
0
100
AcDbSpline
70
4
71
3
72
15
73
11
40
0
40
0
40
0
40
0
40
0.114237668753832
40
0.114237668753832
40
0.261864723961527
40
0.261864723961527
40
0.409491779169222
40
0.409491779169222
40
0.704745889584611
40
1
40
1
40
1
40
1
41
1
10
28.2194563405074
20
-1.7823377331284
30
0
41
1
10
28.2178622463815
20
-1.78208885840243
30
0
41
1
10
28.2162620432077
20
-1.78134225023121
30
0
41
1
10
28.2125778335646
20
-1.77847889136052
30
0
41
1
10
28.2104845637609
20
-1.77601409399713
30
0
41
1
10
28.2063044502418
20
-1.76940997736193
30
0
41
1
10
28.2042207422103
20
-1.76528097648244
30
0
41
1
10
28.197985089954
20
-1.75045439528344
30
0
41
1
10
28.1897134957227
20
-1.72419330980495
30
0
41
1
10
28.1814558574932
20
-1.68504919764123
30
0
41
1
10
28.1772963399187
20
-1.66216996187569
30
0
0
SPLINE
5
E7
100
AcDbEntity
8
1
62
256
6
ByLayer
370
18
48
1
60
0
100
AcDbSpline
70
4
71
3
72
16
73
12
40
0
40
0
40
0
40
0
40
0.251107661893872
40
0.502215323787743
40
0.502215323787743
40
0.564992239261211
40
0.564992239261211
40
0.627769154734679
40
0.753322985681617
40
0.753322985681617
40
1
40
1
40
1
40
1
41
1
10
28.0696981704402
20
-1.6043613364964
30
0
41
1
10
28.0746095805283
20
-1.63087953140033
30
0
41
1
10
28.0843375025576
20
-1.67769498356094
30
0
41
1
10
28.0940303177169
20
-1.712088659621
30
0
41
1
10
28.1001691366976
20
-1.72957908018435
30
0
41
1
10
28.1014015192712
20
-1.73287602986724
30
0
41
1
10
28.1038616765334
20
-1.73902857732057
30
0
41
1
10
28.1075500912497
20
-1.74761172136596
30
0
41
1
10
28.1112336135674
20
-1.75428095892923
30
0
41
1
10
28.1185093238609
20
-1.76498017523201
30
0
41
1
10
28.1233245724002
20
-1.76884496254775
30
0
41
1
10
28.1281408784818
20
-1.76950330546853
30
0
0
SPLINE
5
E8
100
AcDbEntity
8
1
62
256
6
ByLayer
370
13
48
1
60
0
100
AcDbSpline
70
4
71
3
72
9
73
5
40
0
40
0
40
0
40
0
40
0.367682986942091
40
1
40
1
40
1
40
1
41
1.04
10
34.8402609301467
20
-1.33169750758616
30
0
41
1.04
10
34.8315165785493
20
-1.34260427198793
30
0
41
1.04
10
34.807636711368
20
-1.34638667599604
30
0
41
1.04
10
34.7833139639633
20
-1.27530219584772
30
0
41
1.04
10
34.7677739520461
20
-1.2026429314767
30
0
0
SPLINE
5
E9
100
AcDbEntity
8
1
62
256
6
ByLayer
370
13
48
1
60
0
100
AcDbSpline
70
4
71
3
72
9
73
5
40
0
40
0
40
0
40
0
40
0.818849790959434
40
1
40
1
40
1
40
1
41
1
10
33.0665210070293
20
1.31239434530673
30
0
41
1
10
33.0535985850203
20
1.34062263531351
30
0
41
1
10
33.037700173733
20
1.35041563064476
30
0
41
1
10
33.0215638438172
20
1.32656069444758
30
0
41
1
10
33.0186353347199
20
1.32115808703097
30
0
0
SPLINE
5
EA
100
AcDbEntity
8
1
62
256
6
ByLayer
370
13
48
1
60
0
100
AcDbSpline
70
4
71
3
72
9
73
5
40
0
40
0
40
0
40
0
40
0.103543131622232
40
1
40
1
40
1
40
1
41
1
10
27.8614157345096
20
-1.32547602446687
30
0
41
1
10
27.8598068064676
20
-1.32287615912188
30
0
41
1
10
27.8442502162186
20
-1.29458405073973
30
0
41
1
10
27.8285044875995
20
-1.235348938578
30
0
41
1
10
27.8142513570905
20
-1.15942852127156
30
0
0
SPLINE
5
EB
100
AcDbEntity
8
1
62
256
6
ByLayer
370
13
48
1
60
0
100
AcDbSpline
70
4
71
3
72
8
73
4
40
0
40
0
40
0
40
0
40
1
40
1
40
1
40
1
41
1.04
10
31.6708054209931
20
-1.32354377350891
30
0
41
1.04
10
31.6512490066368
20
-1.3569958694742
30
0
41
1.04
10
31.6321220302615
20
-1.34131080450526
30
0
41
1.04
10
31.6131507277788
20
-1.28289656326613
30
0
0
SPLINE
5
EC
100
AcDbEntity
8
1
62
256
6
ByLayer
370
13
48
1
60
0
100
AcDbSpline
70
4
71
3
72
9
73
5
40
0
40
0
40
0
40
0
40
0.466213281638432
40
1
40
1
40
1
40
1
41
1.04
10
33.7108438416214
20
1.10563839619332
30
0
41
1.04
10
33.7023962722671
20
1.15646480290021
30
0
41
1.04
10
33.6840571269806
20
1.25092463449947
30
0
41
1.04
10
33.6652459564714
20
1.30638811770899
30
0
41
1.04
10
33.6552518152868
20
1.32351126049047
30
0
0
SPLINE
5
ED
100
AcDbEntity
8
1
62
256
6
ByLayer
370
13
48
1
60
0
100
AcDbSpline
70
4
71
3
72
9
73
5
40
0
40
0
40
0
40
0
40
0.540157500893429
40
1
40
1
40
1
40
1
41
1
10
31.036844782184
20
-1.32561778680599
30
0
41
1
10
31.0244941964593
20
-1.30571871857498
30
0
41
1
10
31.0017858125126
20
-1.23405360841403
30
0
41
1
10
30.9792257348416
20
-1.10475460619207
30
0
41
1
10
30.9688678261753
20
-1.03487345415405
30
0
0
SPLINE
5
EE
100
AcDbEntity
8
1
62
256
6
ByLayer
370
13
48
1
60
0
100
AcDbSpline
70
4
71
3
72
8
73
4
40
0
40
0
40
0
40
0
40
1
40
1
40
1
40
1
41
1
10
26.7562892593427
20
1.16075651650149
30
0
41
1
10
26.7269437984749
20
1.31681369305485
30
0
41
1
10
26.6977034460187
20
1.37819176455491
30
0
41
1
10
26.6670945782873
20
1.31896735336193
30
0
0
SPLINE
5
EF
100
AcDbEntity
8
1
62
256
6
ByLayer
370
13
48
1
60
0
100
AcDbSpline
70
4
71
3
72
9
73
5
40
0
40
0
40
0
40
0
40
0.72091137152948
40
1
40
1
40
1
40
1
41
1
10
29.9113683687797
20
1.25262296950675
30
0
41
1
10
29.8958634657669
20
1.3112825570899
30
0
41
1
10
29.8747063856694
20
1.35234699891242
30
0
41
1
10
29.8536414371442
20
1.3367152597495
30
0
41
1
10
29.8477594463278
20
1.32803457632903
30
0
0
SPLINE
5
F0
100
AcDbEntity
8
1
62
256
6
ByLayer
370
13
48
1
60
0
100
AcDbSpline
70
4
71
3
72
9
73
5
40
0
40
0
40
0
40
0
40
0.18308397839218
40
1
40
1
40
1
40
1
41
1.04
10
30.5557860052788
20
0.971384914449331
30
0
41
1.04
10
30.5511243060898
20
1.00559961695842
30
0
41
1.04
10
30.5257140594862
20
1.18118918631828
30
0
41
1.04
10
30.5004526736571
20
1.28928535938121
30
0
41
1.04
10
30.4797295852608
20
1.32410738182986
30
0
0
SPLINE
5
F1
100
AcDbEntity
8
1
62
256
6
ByLayer
370
18
48
1
60
0
100
AcDbSpline
70
4
71
3
72
19
73
15
40
0
40
0
40
0
40
0
40
0.0347908902833069
40
0.0347908902833069
40
0.115224982759698
40
0.115224982759698
40
0.195659075236089
40
0.195659075236089
40
0.356527260188872
40
0.356527260188872
40
0.517395445141654
40
0.678263630094436
40
0.678263630094436
40
1
40
1
40
1
40
1
41
1
10
34.6700841630871
20
-1.61670949478272
30
0
41
1
10
34.6698072808108
20
-1.6161761160036
30
0
41
1
10
34.6695344152262
20
-1.61552491269168
30
0
41
1
10
34.668643486876
20
-1.61297691696106
30
0
41
1
10
34.668041863808
20
-1.61056148548272
30
0
41
1
10
34.6668737810783
20
-1.60442730650351
30
0
41
1
10
34.6663081295286
20
-1.60070773167897
30
0
41
1
10
34.6646726582834
20
-1.587722508985
30
0
41
1
10
34.6636611258306
20
-1.57659238920485
30
0
41
1
10
34.6617848786473
20
-1.54956506131833
30
0
41
1
10
34.6600277732522
20
-1.51781616058983
30
0
41
1
10
34.6583234249628
20
-1.47687831922457
30
0
41
1
10
34.655726715612
20
-1.40839799964803
30
0
41
1
10
34.6540049081497
20
-1.35482230674469
30
0
41
1
10
34.6522360543331
20
-1.29338485323078
30
0
0
SPLINE
5
F2
100
AcDbEntity
8
1
62
256
6
ByLayer
370
18
48
1
60
0
100
AcDbSpline
70
4
71
3
72
22
73
18
40
0
40
0
40
0
40
0
40
0.331744253645897
40
0.331744253645897
40
0.414680317057372
40
0.414680317057372
40
0.497616380468846
40
0.497616380468846
40
0.663488507291797
40
0.663488507291797
40
0.829360634114748
40
0.829360634114748
40
0.912296697526225
40
0.912296697526225
40
0.995232760937701
40
0.995232760937701
40
1
40
1
40
1
40
1
41
1
10
34.2744433315467
20
-1.11654683417447
30
0
41
1
10
34.2886005545031
20
-1.2057940744188
30
0
41
1
10
34.3026668689081
20
-1.28590483679557
30
0
41
1
10
34.3203477081886
20
-1.37450918232474
30
0
41
1
10
34.3238883437638
20
-1.39164748828949
30
0
41
1
10
34.3309831420173
20
-1.42472453511996
30
0
41
1
10
34.33450425527
20
-1.44051074653947
30
0
41
1
10
34.3450276118443
20
-1.48568448548338
30
0
41
1
10
34.351998882215
20
-1.51290012277471
30
0
41
1
10
34.3659792034518
20
-1.56171378663373
30
0
41
1
10
34.3729811940344
20
-1.58331419084246
30
0
41
1
10
34.3834926123508
20
-1.61140845338636
30
0
41
1
10
34.3869972348799
20
-1.62005292354229
30
0
41
1
10
34.393999672023
20
-1.63585091121715
30
0
41
1
10
34.3974928146539
20
-1.64298860993495
30
0
41
1
10
34.4011320897355
20
-1.64964222171346
30
0
41
1
10
34.40132976183
20
-1.65000118997708
30
0
41
1
10
34.4015272890773
20
-1.65035746039871
30
0
0
SPLINE
5
F3
100
AcDbEntity
8
1
62
256
6
ByLayer
370
18
48
1
60
0
100
AcDbSpline
70
4
71
3
72
8
73
4
40
0
40
0
40
0
40
0
40
1
40
1
40
1
40
1
41
1
10
34.2138021381544
20
-1.32821477379932
30
0
41
1
10
34.2102147585111
20
-1.32303377355746
30
0
41
1
10
34.206615271121
20
-1.3162396394558
30
0
41
1
10
34.2030018047044
20
-1.30780992314595
30
0
0
SPLINE
5
F4
100
AcDbEntity
8
1
62
256
6
ByLayer
370
13
48
1
60
0
100
AcDbSpline
70
4
71
3
72
10
73
6
40
0
40
0
40
0
40
0
40
0.288109377350281
40
0.755256989947021
40
1
40
1
40
1
40
1
41
1
10
34.2030017723612
20
-1.3078098476935
30
0
41
1
10
34.1956014526913
20
-1.29054590802647
30
0
41
1
10
34.1760483754618
20
-1.22730677211263
30
0
41
1
10
34.1494793515558
20
-1.07940302737302
30
0
41
1
10
34.1301964265348
20
-0.936098254532766
30
0
41
1
10
34.1235093409439
20
-0.882708461317009
30
0
0
SPLINE
5
F5
100
AcDbEntity
8
1
62
256
6
ByLayer
370
13
48
1
60
0
100
AcDbSpline
70
4
71
3
72
10
73
6
40
0
40
0
40
0
40
0
40
0.32637696383415
40
0.947013284630064
40
1
40
1
40
1
40
1
41
1.04
10
27.6875327938442
20
-1.33922496477504
30
0
41
1.04
10
27.6779937186617
20
-1.34423876945812
30
0
41
1.04
10
27.6502151172778
20
-1.32571540134275
30
0
41
1.04
10
27.6202378218706
20
-1.2004846944173
30
0
41
1.04
10
27.5997733525286
20
-1.07068094994045
30
0
41
1.04
10
27.5981617049491
20
-1.06019555186737
30
0
0
SPLINE
5
F6
100
AcDbEntity
8
1
62
256
6
ByLayer
370
13
48
1
60
0
100
AcDbSpline
70
4
71
3
72
9
73
5
40
0
40
0
40
0
40
0
40
0.223949344870532
40
1
40
1
40
1
40
1
41
1.04
10
27.4007267546412
20
0.812528846101848
30
0
41
1.04
10
27.3937001095901
20
0.871888925981888
30
0
41
1.04
10
27.3624661177044
20
1.11903358307079
30
0
41
1.04
10
27.3332203339159
20
1.26103786120223
30
0
41
1.04
10
27.3114329715492
20
1.31037714531186
30
0
0
SPLINE
5
F7
100
AcDbEntity
8
1
62
256
6
ByLayer
370
18
48
1
60
0
100
AcDbSpline
70
4
71
3
72
22
73
18
40
0
40
0
40
0
40
0
40
0.125
40
0.125
40
0.25
40
0.25
40
0.312499999999999
40
0.312499999999999
40
0.374999999999999
40
0.374999999999999
40
0.499999999999999
40
0.499999999999999
40
0.75
40
0.75
40
0.875
40
0.875
40
1
40
1
40
1
40
1
41
1
10
27.2191785496513
20
1.06684400050085
30
0
41
1
10
27.2153265755838
20
1.10821713127459
30
0
41
1
10
27.2115174429649
20
1.14758878224674
30
0
41
1
10
27.2038028506341
20
1.22235721248134
30
0
41
1
10
27.1998926009638
20
1.25775348266996
30
0
41
1
10
27.1939543916361
20
1.30781984122922
30
0
41
1
10
27.191962930077
20
1.32400302538619
30
0
41
1
10
27.1879573198303
20
1.35533859166827
30
0
41
1
10
27.1859442908785
20
1.37047798934196
30
0
41
1
10
27.179942360708
20
1.41383473312644
30
0
41
1
10
27.1759683130553
20
1.44017886066524
30
0
41
1
10
27.1641274455843
20
1.51172105213982
30
0
41
1
10
27.1563648950149
20
1.54950913555345
30
0
41
1
10
27.144636249581
20
1.59066687667649
30
0
41
1
10
27.1407644374307
20
1.60156926359224
30
0
41
1
10
27.1329888458147
20
1.61784145763926
30
0
41
1
10
27.1290857903141
20
1.62321910304598
30
0
41
1
10
27.1251508790857
20
1.62583325484579
30
0
0
SPLINE
5
F8
100
AcDbEntity
8
1
62
256
6
ByLayer
370
18
48
1
60
0
100
AcDbSpline
70
4
71
3
72
22
73
18
40
0
40
0
40
0
40
0
40
0.109314342969349
40
0.109314342969349
40
0.183538147721904
40
0.183538147721904
40
0.257761952474459
40
0.257761952474459
40
0.406209561979566
40
0.406209561979566
40
0.703104780989781
40
0.703104780989781
40
0.777328585742336
40
0.777328585742336
40
0.851552390494891
40
0.851552390494891
40
1
40
1
40
1
40
1
41
1
10
26.832166814751
20
1.58738370456237
30
0
41
1
10
26.8355741579735
20
1.58786508842195
30
0
41
1
10
26.8389888413382
20
1.58689489408476
30
0
41
1
10
26.8447424937881
20
1.58283221609776
30
0
41
1
10
26.8470748484548
20
1.58051465243216
30
0
41
1
10
26.8517541055945
20
1.57450572008489
30
0
41
1
10
26.8541044740229
20
1.57080415760828
30
0
41
1
10
26.8611048077215
20
1.5577542303993
30
0
41
1
10
26.8657282348384
20
1.5464429268076
30
0
41
1
10
26.8795277415061
20
1.50489167659822
30
0
41
1
10
26.8886242824953
20
1.46710908254309
30
0
41
1
10
26.9001600310781
20
1.40685725993001
30
0
41
1
10
26.9024673417508
20
1.3941930921662
30
0
41
1
10
26.907063545473
20
1.36780964703774
30
0
41
1
10
26.9093578557026
20
1.35406798582193
30
0
41
1
10
26.9162276210028
20
1.31121357311278
30
0
41
1
10
26.9207852029681
20
1.28047462582023
30
0
41
1
10
26.9253305592702
20
1.24757350080353
30
0
0
SPLINE
5
F9
100
AcDbEntity
8
1
62
256
6
ByLayer
370
18
48
1
60
0
100
AcDbSpline
70
4
71
3
72
21
73
17
40
0
40
0
40
0
40
0
40
0.249999999999998
40
0.249999999999998
40
0.312499999999998
40
0.312499999999998
40
0.374999999999998
40
0.374999999999998
40
0.499999999999998
40
0.624999999999998
40
0.624999999999998
40
0.687499999999998
40
0.687499999999998
40
0.749999999999999
40
0.749999999999999
40
1
40
1
40
1
40
1
41
1
10
27.4835381337844
20
-1.67869281155691
30
0
41
1
10
27.4756698106663
20
-1.67575629005123
30
0
41
1
10
27.4678178791851
20
-1.66140856806612
30
0
41
1
10
27.4577714620496
20
-1.62906327330299
30
0
41
1
10
27.455754170088
20
-1.62186723060245
30
0
41
1
10
27.4517050058769
20
-1.60598957442599
30
0
41
1
10
27.4496868365861
20
-1.59736031535573
30
0
41
1
10
27.4436672708577
20
-1.56951562544896
30
0
41
1
10
27.4357210313934
20
-1.52712156541159
30
0
41
1
10
27.4278597908795
20
-1.47440635484134
30
0
41
1
10
27.4219448069051
20
-1.43095689520925
30
0
41
1
10
27.4199697615372
20
-1.41582033644374
30
0
41
1
10
27.4160018144183
20
-1.38421762974835
30
0
41
1
10
27.4140030572332
20
-1.36770438431867
30
0
41
1
10
27.404014053996
20
-1.28238618340356
30
0
41
1
10
27.3960811816724
20
-1.20564624082036
30
0
41
1
10
27.3880884675962
20
-1.12056302073037
30
0
0
SPLINE
5
FA
100
AcDbEntity
8
1
62
256
6
ByLayer
370
18
48
1
60
0
100
AcDbSpline
70
4
71
3
72
22
73
18
40
0
40
0
40
0
40
0
40
0.250000000000001
40
0.250000000000001
40
0.312500000000001
40
0.312500000000001
40
0.375000000000002
40
0.375000000000002
40
0.500000000000002
40
0.500000000000002
40
0.625000000000001
40
0.625000000000001
40
0.687500000000001
40
0.687500000000001
40
0.750000000000001
40
0.750000000000001
40
1
40
1
40
1
40
1
41
1
10
27.1283953895216
20
-0.897140509131617
30
0
41
1
10
27.1377240116339
20
-0.990914949776084
30
0
41
1
10
27.1470756022047
20
-1.07768784995414
30
0
41
1
10
27.1588629525031
20
-1.1773529624312
30
0
41
1
10
27.1612261132823
20
-1.1968416554659
30
0
41
1
10
27.1659691544923
20
-1.23491142242449
30
0
41
1
10
27.1683366678658
20
-1.25339127162073
30
0
41
1
10
27.1754009411312
20
-1.30691387374026
30
0
41
1
10
27.1800743056588
20
-1.34016728722435
30
0
41
1
10
27.189413658904
20
-1.40192701464537
30
0
41
1
10
27.1940850733571
20
-1.4304335849117
30
0
41
1
10
27.2011151112033
20
-1.46960249377847
30
0
41
1
10
27.2034615821899
20
-1.48205911169444
30
0
41
1
10
27.2081639877429
20
-1.50575350310237
30
0
41
1
10
27.2105263098795
20
-1.51701910870315
30
0
41
1
10
27.2222871286661
20
-1.56983864583299
30
0
41
1
10
27.2314911810453
20
-1.60091100611908
30
0
41
1
10
27.2407905020593
20
-1.62107444319918
30
0
0
SPLINE
5
FB
100
AcDbEntity
8
1
62
256
6
ByLayer
370
13
48
1
60
0
100
AcDbSpline
70
4
71
3
72
10
73
6
40
0
40
0
40
0
40
0
40
0.262497036936152
40
0.889074446051296
40
1
40
1
40
1
40
1
41
1
10
27.0431336330597
20
-1.26107795514468
30
0
41
1
10
27.0352592412293
20
-1.23267885093134
30
0
41
1
10
27.0087013121026
20
-1.11211289343186
30
0
41
1
10
26.9791304821873
20
-0.891748213246615
30
0
41
1
10
26.9572003045907
20
-0.693795670619238
30
0
41
1
10
26.9538990984171
20
-0.663319966714596
30
0
0
SPLINE
5
FC
100
AcDbEntity
8
1
62
256
6
ByLayer
370
13
48
1
60
0
100
AcDbSpline
70
4
71
3
72
8
73
4
40
0
40
0
40
0
40
0
40
1
40
1
40
1
40
1
41
1.04
10
25.10604399124
20
-0.0478473864890433
30
0
41
1.04
10
25.0971348239665
20
0.0466056446953189
30
0
41
1.04
10
25.0881284174009
20
0.142423785132751
30
0
41
1.04
10
25.0790119164384
20
0.237659495483883
30
0
0
SPLINE
5
FD
100
AcDbEntity
8
1
62
256
6
ByLayer
370
18
48
1
60
0
100
AcDbSpline
70
4
71
3
72
8
73
4
40
0
40
0
40
0
40
0
40
1
40
1
40
1
40
1
41
1
10
25.1038064738424
20
-0.0472637769955497
30
0
41
1
10
25.0955193458663
20
0.0485294553160429
30
0
41
1
10
25.0873483726247
20
0.143513568440739
30
0
41
1
10
25.0790119164383
20
0.237659495483911
30
0
0
SPLINE
5
FE
100
AcDbEntity
8
1
62
256
6
ByLayer
370
18
48
1
60
0
100
AcDbSpline
70
4
71
3
72
15
73
11
40
0
40
0
40
0
40
0
40
0.250000000000001
40
0.250000000000001
40
0.375000000000002
40
0.375000000000002
40
0.500000000000003
40
0.500000000000003
40
0.750000000000001
40
1
40
1
40
1
40
1
41
1
10
25.0790119164375
20
0.237659495492608
30
0
41
1
10
25.0742811883988
20
0.291084927934548
30
0
41
1
10
25.0695525145952
20
0.343607806305414
30
0
41
1
10
25.0624395765269
20
0.421047698819564
30
0
41
1
10
25.0600614562943
20
0.446687665273828
30
0
41
1
10
25.0553200411414
20
0.497267442224654
30
0
41
1
10
25.0529630354531
20
0.522141111396706
30
0
41
1
10
25.045923219562
20
0.595538982197468
30
0
41
1
10
25.0366213171526
20
0.690149925347328
30
0
41
1
10
25.0273437416665
20
0.778302539744573
30
0
41
1
10
25.0226659204992
20
0.820703731088713
30
0
0
SPLINE
5
FF
100
AcDbEntity
8
1
62
256
6
ByLayer
370
13
48
1
60
0
100
AcDbSpline
70
4
71
3
72
10
73
6
40
0
40
0
40
0
40
0
40
0.493991283565578
40
0.899929241424433
40
1
40
1
40
1
40
1
41
1
10
33.9269856483787
20
0.995611158239967
30
0
41
1
10
33.9126308419479
20
1.09769431385914
30
0
41
1
10
33.8859225359874
20
1.25271594100863
30
0
41
1
10
33.855112873602
20
1.33123778433463
30
0
41
1
10
33.8397404710902
20
1.34022841460643
30
0
41
1
10
33.8367083508828
20
1.34083422004033
30
0
0
SPLINE
5
100
100
AcDbEntity
8
1
62
256
6
ByLayer
370
13
48
1
60
0
100
AcDbSpline
70
4
71
3
72
9
73
5
40
0
40
0
40
0
40
0
40
0.58347546573912
40
1
40
1
40
1
40
1
41
1
10
25.3221794873289
20
-0.224803038043518
30
0
41
1
10
25.3055253260195
20
-0.0505750832200818
30
0
41
1
10
25.2764372129622
20
0.264152415587745
30
0
41
1
10
25.2461586853293
20
0.566823355559052
30
0
41
1
10
25.2332521652392
20
0.684636933579469
30
0
0
SPLINE
5
101
100
AcDbEntity
8
1
62
256
6
ByLayer
370
13
48
1
60
0
100
AcDbSpline
70
4
71
3
72
10
73
6
40
0
40
0
40
0
40
0
40
0.251356257292986
40
0.948371364275926
40
1
40
1
40
1
40
1
41
1.04
10
34.5713402887068
20
0.572984786745022
30
0
41
1.04
10
34.5631325419392
20
0.651697765620112
30
0
41
1.04
10
34.532639673718
20
0.9309514902409
30
0
41
1.04
10
34.5034222626078
20
1.12846569177204
30
0
41
1.04
10
34.4824331871401
20
1.2215039630096
30
0
41
1.04
10
34.4809897612975
20
1.2276612402801
30
0
0
SPLINE
5
102
100
AcDbEntity
8
1
62
256
6
ByLayer
370
18
48
1
60
0
100
AcDbSpline
70
4
71
3
72
21
73
17
40
0
40
0
40
0
40
0
40
0.25
40
0.25
40
0.3125
40
0.3125
40
0.375
40
0.375
40
0.5
40
0.625
40
0.625
40
0.6875
40
0.6875
40
0.75
40
0.75
40
1
40
1
40
1
40
1
41
1
10
34.3497334394258
20
0.835755070083422
30
0
41
1
10
34.3471938401843
20
0.923378810540356
30
0
41
1
10
34.3453295402343
20
1.0043606475536
30
0
41
1
10
34.3432325499664
20
1.0972315969891
30
0
41
1
10
34.3428207910128
20
1.11543480843872
30
0
41
1
10
34.3419987094547
20
1.15077487205144
30
0
41
1
10
34.341588949457
20
1.16788919703021
30
0
41
1
10
34.3403421738383
20
1.21761819586612
30
0
41
1
10
34.3386269116429
20
1.2796343739474
30
0
41
1
10
34.3367375457382
20
1.33325152582182
30
0
41
1
10
34.3352897501786
20
1.37020455867113
30
0
41
1
10
34.3348025936682
20
1.38197711123081
30
0
41
1
10
34.3338312146171
20
1.40438991425367
30
0
41
1
10
34.3333473928788
20
1.41503499679084
30
0
41
1
10
34.3309403079732
20
1.46485515887264
30
0
41
1
10
34.3290154216172
20
1.49443657368144
30
0
41
1
10
34.32685265746
20
1.51403480428496
30
0
0
SPLINE
5
103
100
AcDbEntity
8
1
62
256
6
ByLayer
370
18
48
1
60
0
100
AcDbSpline
70
4
71
3
72
27
73
23
40
0
40
0
40
0
40
0
40
0.125
40
0.25
40
0.25
40
0.28125
40
0.28125
40
0.312500000000001
40
0.312500000000001
40
0.375000000000002
40
0.375000000000002
40
0.500000000000002
40
0.500000000000002
40
0.625000000000002
40
0.625000000000002
40
0.687500000000003
40
0.687500000000003
40
0.750000000000003
40
0.750000000000003
40
0.875000000000001
40
0.875000000000001
40
1
40
1
40
1
40
1
41
1
10
34.0172048076495
20
1.63079990308748
30
0
41
1
10
34.0242129050638
20
1.62902551895948
30
0
41
1
10
34.0383505162949
20
1.61890510979961
30
0
41
1
10
34.0525113735434
20
1.59577983541149
30
0
41
1
10
34.0614009610661
20
1.57712307417279
30
0
41
1
10
34.0631812330881
20
1.57318082532666
30
0
41
1
10
34.0667489688611
20
1.56486806924394
30
0
41
1
10
34.068539175914
20
1.56049020008709
30
0
41
1
10
34.0738992609022
20
1.54677760023432
30
0
41
1
10
34.0774637885519
20
1.53685996528381
30
0
41
1
10
34.0881371819133
20
1.50483422355634
30
0
41
1
10
34.0952245406413
20
1.48046226455713
30
0
41
1
10
34.1093300031966
20
1.42574421750334
30
0
41
1
10
34.1163544790995
20
1.39540828004047
30
0
41
1
10
34.1269460424288
20
1.34547864918295
30
0
41
1
10
34.1304852195618
20
1.32809512211787
30
0
41
1
10
34.1375922345321
20
1.29181996673589
30
0
41
1
10
34.1411395651348
20
1.27303124648301
30
0
41
1
10
34.1517314811488
20
1.21496423087726
30
0
41
1
10
34.1587515667912
20
1.17389974468924
30
0
41
1
10
34.1726928071186
20
1.08700588732773
30
0
41
1
10
34.17958908322
20
1.04115925045201
30
0
41
1
10
34.1863811199371
20
0.992811297224534
30
0
0
SPLINE
5
104
100
AcDbEntity
8
1
62
256
6
ByLayer
370
13
48
1
60
0
100
AcDbSpline
70
4
71
3
72
9
73
5
40
0
40
0
40
0
40
0
40
0.637956767151064
40
1
40
1
40
1
40
1
41
1.04
10
25.9665971215494
20
-0.716362323402273
30
0
41
1.04
10
25.9481542148482
20
-0.550840678637107
30
0
41
1.04
10
25.918895283853
20
-0.253150342096421
30
0
41
1.04
10
25.888478399434
20
0.0731701475279541
30
0
41
1.04
10
25.8774756714691
20
0.189057855347376
30
0
0
SPLINE
5
105
100
AcDbEntity
8
1
62
256
6
ByLayer
370
18
48
1
60
0
100
AcDbSpline
70
4
71
3
72
20
73
16
40
0
40
0
40
0
40
0
40
0.249999999999997
40
0.249999999999997
40
0.374999999999996
40
0.374999999999996
40
0.437499999999996
40
0.437499999999996
40
0.499999999999995
40
0.499999999999995
40
0.749999999999997
40
0.749999999999997
40
0.874999999999998
40
0.874999999999998
40
1
40
1
40
1
40
1
41
1
10
25.8973573070284
20
-0.754866323173019
30
0
41
1
10
25.8901142801573
20
-0.677024988242266
30
0
41
1
10
25.8829930850986
20
-0.595946251300262
30
0
41
1
10
25.872229903504
20
-0.469604704742238
30
0
41
1
10
25.8686279891447
20
-0.426698612804074
30
0
41
1
10
25.8631665891045
20
-0.36112169099718
30
0
41
1
10
25.8613314508842
20
-0.339000207647075
30
0
41
1
10
25.8576634542721
20
-0.294682812145169
30
0
41
1
10
25.855831226174
20
-0.272495138212321
30
0
41
1
10
25.8466655978538
20
-0.161415522056643
30
0
41
1
10
25.839274239516
20
-0.072106792529496
30
0
41
1
10
25.828332941115
20
0.0625354203899349
30
0
41
1
10
25.824708382625
20
0.107543619039603
30
0
41
1
10
25.8174805088786
20
0.19773860578681
30
0
41
1
10
25.8139282066165
20
0.242284173579179
30
0
41
1
10
25.8103908569692
20
0.286287399933855
30
0
0
SPLINE
5
106
100
AcDbEntity
8
1
62
256
6
ByLayer
370
18
48
1
60
0
100
AcDbSpline
70
4
71
3
72
22
73
18
40
0
40
0
40
0
40
0
40
0.25
40
0.25
40
0.374999999999999
40
0.374999999999999
40
0.437499999999998
40
0.437499999999998
40
0.499999999999997
40
0.499999999999997
40
0.749999999999999
40
0.749999999999999
40
0.874999999999999
40
0.874999999999999
40
0.9375
40
0.9375
40
1
40
1
40
1
40
1
41
1
10
25.2475758290879
20
0.691438983157752
30
0
41
1
10
25.2559663453064
20
0.620244712398829
30
0
41
1
10
25.2641748577055
20
0.546140712181227
30
0
41
1
10
25.276472923762
20
0.430811223432897
30
0
41
1
10
25.2805712115343
20
0.391668318102717
30
0
41
1
10
25.2867698549944
20
0.331892859421771
30
0
41
1
10
25.2888454529041
20
0.311790722370915
30
0
41
1
10
25.2930217620587
20
0.271226849527267
30
0
41
1
10
25.2951177924024
20
0.250803463399791
30
0
41
1
10
25.3055543765146
20
0.14880074361534
30
0
41
1
10
25.3138352623069
20
0.0668203873370885
30
0
41
1
10
25.3262315416784
20
-0.0566962767580037
30
0
41
1
10
25.3303605478042
20
-0.0979599535260149
30
0
41
1
10
25.3365755692311
20
-0.159993250467295
30
0
41
1
10
25.3386559370826
20
-0.180743291756414
30
0
41
1
10
25.3428029739059
20
-0.222014231776115
30
0
41
1
10
25.3448684379932
20
-0.242523259051069
30
0
41
1
10
25.3469297622124
20
-0.262907557145638
30
0
0
SPLINE
5
107
100
AcDbEntity
8
1
62
256
6
ByLayer
370
13
48
1
60
0
100
AcDbSpline
70
4
71
3
72
10
73
6
40
0
40
0
40
0
40
0
40
0.447530403145929
40
0.862572102893384
40
1
40
1
40
1
40
1
41
1.04
10
30.8426250917681
20
-1.33266458068548
30
0
41
1.04
10
30.8290605077088
20
-1.31658416436163
30
0
41
1.04
10
30.8031209647565
20
-1.24134230159422
30
0
41
1.04
10
30.7732733940114
20
-1.06689866003561
30
0
41
1.04
10
30.7568170224592
20
-0.944590693377788
30
0
41
1.04
10
30.7527250906391
20
-0.912733774306208
30
0
0
SPLINE
5
108
100
AcDbEntity
8
1
62
256
6
ByLayer
370
13
48
1
60
0
100
AcDbSpline
70
4
71
3
72
10
73
6
40
0
40
0
40
0
40
0
40
0.170069500309826
40
0.585369648982177
40
1
40
1
40
1
40
1
41
1.04
10
33.9977128365215
20
-1.29244201317984
30
0
41
1.04
10
33.992771769678
20
-1.27853951958991
30
0
41
1.04
10
33.9756676765122
20
-1.22013531726978
30
0
41
1.04
10
33.9457812781525
20
-1.05697021036935
30
0
41
1.04
10
33.920343808537
20
-0.855926468387616
30
0
41
1.04
10
33.9073790813525
20
-0.74152153290478
30
0
0
SPLINE
5
109
100
AcDbEntity
8
1
62
256
6
ByLayer
370
13
48
1
60
0
100
AcDbSpline
70
4
71
3
72
9
73
5
40
0
40
0
40
0
40
0
40
0.840268103720898
40
1
40
1
40
1
40
1
41
1
10
26.1826652793129
20
-0.859886909548237
30
0
41
1
10
26.1582750048785
20
-0.660723109223369
30
0
41
1
10
26.128951449457
20
-0.364045899210964
30
0
41
1
10
26.0984445217608
20
-0.0400341349351265
30
0
41
1
10
26.0935557073626
20
0.0118952040414797
30
0
0
SPLINE
5
10A
100
AcDbEntity
8
1
62
256
6
ByLayer
370
13
48
1
60
0
100
AcDbSpline
70
4
71
3
72
10
73
6
40
0
40
0
40
0
40
0
40
0.0584280866700426
40
0.685046096527898
40
1
40
1
40
1
40
1
41
1.04
10
26.8270149264942
20
-1.18955419405838
30
0
41
1.04
10
26.825272487938
20
-1.18103095601379
30
0
41
1.04
10
26.8048579010965
20
-1.07718345669946
30
0
41
1.04
10
26.7752890870156
20
-0.859950748102224
30
0
41
1.04
10
26.7472494639419
20
-0.596460144785301
30
0
41
1.04
10
26.737847985522
20
-0.504001926471805
30
0
0
SPLINE
5
10B
100
AcDbEntity
8
1
62
256
6
ByLayer
370
18
48
1
60
0
100
AcDbSpline
70
4
71
3
72
22
73
18
40
0
40
0
40
0
40
0
40
0.249999999999998
40
0.249999999999998
40
0.312499999999998
40
0.312499999999998
40
0.374999999999997
40
0.374999999999997
40
0.499999999999998
40
0.499999999999998
40
0.749999999999998
40
0.749999999999998
40
0.812499999999999
40
0.812499999999999
40
0.874999999999999
40
0.874999999999999
40
1
40
1
40
1
40
1
41
1
10
26.6905079161277
20
-1.36052289472735
30
0
41
1
10
26.6829361370918
20
-1.30890713687683
30
0
41
1
10
26.6754330376202
20
-1.24934369993556
30
0
41
1
10
26.6659853358151
20
-1.16504931260809
30
0
41
1
10
26.6640918430651
20
-1.1476940422661
30
0
41
1
10
26.6602907977957
20
-1.11197518005776
30
0
41
1
10
26.6583793386393
20
-1.09357293863499
30
0
41
1
10
26.6526400745168
20
-1.03708701168907
30
0
41
1
10
26.6488356809438
20
-0.998012128201168
30
0
41
1
10
26.6373933670708
20
-0.87667224458275
30
0
41
1
10
26.6296828929213
20
-0.790330182419012
30
0
41
1
10
26.6199846584747
20
-0.675456520820575
30
0
41
1
10
26.6180374267985
20
-0.652075543217364
30
0
41
1
10
26.6141581767485
20
-0.604877220673188
30
0
41
1
10
26.6122298394962
20
-0.581106468414959
30
0
41
1
10
26.6064730404336
20
-0.509287844874507
30
0
41
1
10
26.6026735367945
20
-0.460734766671351
30
0
41
1
10
26.5988882236412
20
-0.411515501529664
30
0
0
SPLINE
5
10C
100
AcDbEntity
8
1
62
256
6
ByLayer
370
18
48
1
60
0
100
AcDbSpline
70
4
71
3
72
23
73
19
40
0
40
0
40
0
40
0
40
0.125
40
0.125
40
0.250000000000001
40
0.375000000000001
40
0.375000000000001
40
0.437500000000001
40
0.437500000000001
40
0.500000000000001
40
0.500000000000001
40
0.75
40
0.75
40
0.8125
40
0.8125
40
0.875
40
0.875
40
1
40
1
40
1
40
1
41
1
10
26.1878038236172
20
-0.0360424433305866
30
0
41
1
10
26.1921905504359
20
-0.0847505516077547
30
0
41
1
10
26.1965355074034
20
-0.133131907792318
30
0
41
1
10
26.2053156828306
20
-0.229243542372927
30
0
41
1
10
26.2141660720001
20
-0.324705482556169
30
0
41
1
10
26.2231585136569
20
-0.418861953160047
30
0
41
1
10
26.2299589529599
20
-0.48897315335941
30
0
41
1
10
26.2322242066745
20
-0.512145408482638
30
0
41
1
10
26.2367302218761
20
-0.557871506759142
30
0
41
1
10
26.2389745166192
20
-0.580461872193752
30
0
41
1
10
26.2501572310395
20
-0.692070004551852
30
0
41
1
10
26.2589682478635
20
-0.777093951290198
30
0
41
1
10
26.2699857453928
20
-0.877981151744933
30
0
41
1
10
26.2721901902935
20
-0.897886614045547
30
0
41
1
10
26.2766087885502
20
-0.937142256581865
30
0
41
1
10
26.2788117745619
20
-0.956392128222063
30
0
41
1
10
26.2853894717021
20
-1.01279576811638
30
0
41
1
10
26.2897436063304
20
-1.04870625160626
30
0
41
1
10
26.294110737365
20
-1.08295487765511
30
0
0
SPLINE
5
10D
100
AcDbEntity
8
1
62
256
6
ByLayer
370
13
48
1
60
0
100
AcDbSpline
70
4
71
3
72
10
73
6
40
0
40
0
40
0
40
0
40
0.189578812589646
40
0.606633964743319
40
1
40
1
40
1
40
1
41
1
10
30.1982574269177
20
-1.17293637377688
30
0
41
1
10
30.1927260453472
20
-1.14452570422176
30
0
41
1
10
30.1749629174249
20
-1.04257837707996
30
0
41
1
10
30.1452730626528
20
-0.818476235244191
30
0
41
1
10
30.1205789568874
20
-0.585540449103718
30
0
41
1
10
30.1085333768968
20
-0.465685737534642
30
0
0
SPLINE
5
10E
100
AcDbEntity
8
1
62
256
6
ByLayer
370
18
48
1
60
0
100
AcDbSpline
70
4
71
3
72
29
73
25
40
0
40
0
40
0
40
0
40
0.0312499999999998
40
0.0312499999999998
40
0.0624999999999997
40
0.124999999999999
40
0.124999999999999
40
0.249999999999998
40
0.249999999999998
40
0.374999999999998
40
0.374999999999998
40
0.437499999999998
40
0.437499999999998
40
0.499999999999998
40
0.499999999999998
40
0.624999999999998
40
0.624999999999998
40
0.749999999999998
40
0.749999999999998
40
0.812499999999999
40
0.812499999999999
40
0.874999999999999
40
0.874999999999999
40
1
40
1
40
1
40
1
41
1
10
30.3836518800534
20
-0.808041168909682
30
0
41
1
10
30.3847740335327
20
-0.822381359846872
30
0
41
1
10
30.3858970857004
20
-0.836662976389249
30
0
41
1
10
30.3881318210958
20
-0.864921532592035
30
0
41
1
10
30.3914718635023
20
-0.906915335618123
30
0
41
1
10
30.3947842992834
20
-0.947740695511982
30
0
41
1
10
30.4014020828298
20
-1.02785640922002
30
0
41
1
10
30.4058169853513
20
-1.07922367934441
30
0
41
1
10
30.414756592397
20
-1.17789242974553
30
0
41
1
10
30.4192653090817
20
-1.22519511057305
30
0
41
1
10
30.4260852227424
20
-1.29301662486739
30
0
41
1
10
30.4283742443658
20
-1.31515462432486
30
0
41
1
10
30.4329247877412
20
-1.35789313613716
30
0
41
1
10
30.4351905212257
20
-1.37853896471657
30
0
41
1
10
30.4419677040114
20
-1.43834637975806
30
0
41
1
10
30.4464611711728
20
-1.4753836798846
30
0
41
1
10
30.4554422465393
20
-1.54385558613441
30
0
41
1
10
30.4599286415216
20
-1.575290390145
30
0
41
1
10
30.4666884664882
20
-1.61814666104962
30
0
41
1
10
30.4689508966734
20
-1.63173702013094
30
0
41
1
10
30.4734763789296
20
-1.65734831988698
30
0
41
1
10
30.4757276020137
20
-1.66930511159617
30
0
41
1
10
30.482460385005
20
-1.70268369476833
30
0
41
1
10
30.4869206368313
20
-1.72162056657618
30
0
41
1
10
30.4913932393663
20
-1.73729978190187
30
0
0
SPLINE
5
10F
100
AcDbEntity
8
1
62
256
6
ByLayer
370
13
48
1
60
0
100
AcDbSpline
70
4
71
3
72
9
73
5
40
0
40
0
40
0
40
0
40
0.357471781999645
40
1
40
1
40
1
40
1
41
1
10
30.7718698789471
20
0.840649440325819
30
0
41
1
10
30.7610613383638
20
0.930154061767951
30
0
41
1
10
30.7310530172069
20
1.15327199975286
30
0
41
1
10
30.7012522757239
20
1.28191621353972
30
0
41
1
10
30.682041367567
20
1.31896240355749
30
0
0
SPLINE
5
110
100
AcDbEntity
8
1
62
256
6
ByLayer
370
13
48
1
60
0
100
AcDbSpline
70
4
71
3
72
9
73
5
40
0
40
0
40
0
40
0
40
0.449877588040474
40
1
40
1
40
1
40
1
41
1
10
34.7874554857883
20
0.408035110138457
30
0
41
1
10
34.7729482589865
20
0.554513485655605
30
0
41
1
10
34.7412014529913
20
0.856601927339909
30
0
41
1
10
34.7123673862852
20
1.06151880738008
30
0
41
1
10
34.6970557807435
20
1.14597637462501
30
0
0
SPLINE
5
111
100
AcDbEntity
8
1
62
256
6
ByLayer
370
18
48
1
60
0
100
AcDbSpline
70
4
71
3
72
20
73
16
40
0
40
0
40
0
40
0
40
0.25
40
0.25
40
0.375
40
0.375
40
0.5
40
0.5
40
0.749999999999999
40
0.749999999999999
40
0.812499999999999
40
0.812499999999999
40
0.875
40
0.875
40
1
40
1
40
1
40
1
41
1
10
35.3418603766106
20
-0.0925753263351794
30
0
41
1
10
35.3366277675282
20
-0.0042236150540589
30
0
41
1
10
35.3320969270957
20
0.0831717708449276
30
0
41
1
10
35.3259048623804
20
0.212859722712977
30
0
41
1
10
35.3239461616107
20
0.25587584890198
30
0
41
1
10
35.3202141838524
20
0.34132435781865
30
0
41
1
10
35.3184700311665
20
0.383081596823814
30
0
41
1
10
35.3135546176815
20
0.505532031993255
30
0
41
1
10
35.3107057953392
20
0.583425316295404
30
0
41
1
10
35.3075626518284
20
0.675963376498174
30
0
41
1
10
35.3069536253156
20
0.694276249792637
30
0
41
1
10
35.3057848941038
20
0.730141297544009
30
0
41
1
10
35.305225813951
20
0.747671586988901
30
0
41
1
10
35.3036200661217
20
0.799075772889637
30
0
41
1
10
35.3026492895913
20
0.831762102904747
30
0
41
1
10
35.3017723230928
20
0.862892501809199
30
0
0
SPLINE
5
112
100
AcDbEntity
8
1
62
256
6
ByLayer
370
18
48
1
60
0
100
AcDbSpline
70
4
71
3
72
24
73
20
40
0
40
0
40
0
40
0
40
0.125000000000001
40
0.250000000000002
40
0.250000000000002
40
0.312500000000001
40
0.312500000000001
40
0.375
40
0.375
40
0.5
40
0.5
40
0.625
40
0.749999999999999
40
0.749999999999999
40
0.812499999999999
40
0.812499999999999
40
0.874999999999999
40
0.874999999999999
40
1
40
1
40
1
40
1
41
1
10
34.790198143224
20
1.24806143663759
30
0
41
1
10
34.7970832603547
20
1.22248934154175
30
0
41
1
10
34.8107265285637
20
1.1667474999484
30
0
41
1
10
34.824380688605
20
1.10216558736613
30
0
41
1
10
34.8346574713467
20
1.05036240748649
30
0
41
1
10
34.8380884050017
20
1.03253169940942
30
0
41
1
10
34.8449575319096
20
0.995711175246356
30
0
41
1
10
34.8484062764041
20
0.976659882167951
30
0
41
1
10
34.8586458248167
20
0.918284057505872
30
0
41
1
10
34.8653311066306
20
0.877697307312815
30
0
41
1
10
34.8783856283059
20
0.793283087358105
30
0
41
1
10
34.8911274602198
20
0.705633411426533
30
0
41
1
10
34.9033837127237
20
0.611534782217774
30
0
41
1
10
34.9124996752366
20
0.53846814560265
30
0
41
1
10
34.9155088083341
20
0.51383423461408
30
0
41
1
10
34.9214668230457
20
0.464233273381893
30
0
41
1
10
34.9244211862158
20
0.439232646333636
30
0
41
1
10
34.933237204221
20
0.363640553777913
30
0
41
1
10
34.9390409280958
20
0.312460710717829
30
0
41
1
10
34.9447554882207
20
0.260495622367102
30
0
0
SPLINE
5
113
100
AcDbEntity
8
1
62
256
6
ByLayer
370
13
48
1
60
0
100
AcDbSpline
70
4
71
3
72
10
73
6
40
0
40
0
40
0
40
0
40
0.0218467097300481
40
0.426265109621025
40
1
40
1
40
1
40
1
41
1
10
27.6168049063211
20
0.664550481899539
30
0
41
1
10
27.6161327267912
20
0.670756357735343
30
0
41
1
10
27.6030127670832
20
0.791323769927715
30
0
41
1
10
27.5720674012947
20
1.04896390210729
30
0
41
1
10
27.5436245310672
20
1.20347100550475
30
0
41
1
10
27.5274601862811
20
1.26167359690118
30
0
0
SPLINE
5
114
100
AcDbEntity
8
1
62
256
6
ByLayer
370
18
48
1
60
0
100
AcDbSpline
70
4
71
3
72
16
73
12
40
0
40
0
40
0
40
0
40
0.25
40
0.25
40
0.500000000000001
40
0.500000000000001
40
0.625
40
0.625
40
0.75
40
0.75
40
1
40
1
40
1
40
1
41
1
10
33.6939052356511
20
-1.47777863645592
30
0
41
1
10
33.6925127212559
20
-1.42396981413458
30
0
41
1
10
33.6911138454067
20
-1.36622649296794
30
0
41
1
10
33.6881803517569
20
-1.24312175831716
30
0
41
1
10
33.686647354248
20
-1.17776834278501
30
0
41
1
10
33.6840495411513
20
-1.0740064130201
30
0
41
1
10
33.6831297886025
20
-1.03833642230921
30
0
41
1
10
33.6811763842977
20
-0.965917331945889
30
0
41
1
10
33.680141722186
20
-0.929122505242987
30
0
41
1
10
33.676823134191
20
-0.81702048097344
30
0
41
1
10
33.6743073311894
20
-0.74000767181883
30
0
41
1
10
33.6714677237414
20
-0.660695484363771
30
0
0
SPLINE
5
115
100
AcDbEntity
8
1
62
256
6
ByLayer
370
18
48
1
60
0
100
AcDbSpline
70
4
71
3
72
18
73
14
40
0
40
0
40
0
40
0
40
0.249999999999998
40
0.249999999999998
40
0.374999999999998
40
0.374999999999998
40
0.437499999999999
40
0.437499999999999
40
0.500000000000001
40
0.500000000000001
40
0.75
40
0.75
40
1
40
1
40
1
40
1
41
1
10
33.5068039795817
20
-0.502810605441709
30
0
41
1
10
33.514214556296
20
-0.577240512805503
30
0
41
1
10
33.5217626217839
20
-0.650192537571627
30
0
41
1
10
33.5333820751475
20
-0.75739654545356
30
0
41
1
10
33.5373055355988
20
-0.792759893031274
30
0
41
1
10
33.5432754556721
20
-0.845237199958746
30
0
41
1
10
33.5452795290882
20
-0.862634944891369
30
0
41
1
10
33.5493171339341
20
-0.897238365706329
30
0
41
1
10
33.5513522587487
20
-0.914455887762784
30
0
41
1
10
33.5615326680597
20
-0.999504520282244
30
0
41
1
10
33.5697386259719
20
-1.06466572920061
30
0
41
1
10
33.5862289124666
20
-1.18935106336008
30
0
41
1
10
33.5945141906642
20
-1.24887480926299
30
0
41
1
10
33.6028509110332
20
-1.30548365243297
30
0
0
SPLINE
5
116
100
AcDbEntity
8
1
62
256
6
ByLayer
370
13
48
1
60
0
100
AcDbSpline
70
4
71
3
72
9
73
5
40
0
40
0
40
0
40
0
40
0.509002113747235
40
1
40
1
40
1
40
1
41
1
10
33.3532958345371
20
-1.05498460275885
30
0
41
1
10
33.33726165467
20
-0.94987057790965
30
0
41
1
10
33.3066982185428
20
-0.699115857283118
30
0
41
1
10
33.2773401076481
20
-0.403742297995962
30
0
41
1
10
33.2630882947293
20
-0.255322272572556
30
0
0
SPLINE
5
117
100
AcDbEntity
8
1
62
256
6
ByLayer
370
18
48
1
60
0
100
AcDbSpline
70
4
71
3
72
14
73
10
40
0
40
0
40
0
40
0
40
0.499999999999998
40
0.499999999999998
40
0.624999999999998
40
0.624999999999998
40
0.749999999999998
40
0.749999999999998
40
1
40
1
40
1
40
1
41
1
10
33.6028509110332
20
-1.30548365243297
30
0
41
1
10
33.6101512632317
20
-1.37642090289779
30
0
41
1
10
33.6173628315956
20
-1.44049023597302
30
0
41
1
10
33.6264620202941
20
-1.51188526267123
30
0
41
1
10
33.6282861582013
20
-1.52572666101901
30
0
41
1
10
33.6319479110539
20
-1.55251904842683
30
0
41
1
10
33.6337870642613
20
-1.56547763216375
30
0
41
1
10
33.6392772796949
20
-1.60263528818356
30
0
41
1
10
33.6429198252478
20
-1.62525287108943
30
0
41
1
10
33.6465541223481
20
-1.64577095051496
30
0
0
SPLINE
5
118
100
AcDbEntity
8
1
62
256
6
ByLayer
370
18
48
1
60
0
100
AcDbSpline
70
4
71
3
72
24
73
20
40
0
40
0
40
0
40
0
40
0.125
40
0.125
40
0.249999999999999
40
0.249999999999999
40
0.312499999999999
40
0.312499999999999
40
0.374999999999998
40
0.374999999999998
40
0.499999999999998
40
0.624999999999999
40
0.624999999999999
40
0.687499999999999
40
0.687499999999999
40
0.75
40
0.75
40
0.875
40
1
40
1
40
1
40
1
41
1
10
31.1427991965832
20
0.654270240307397
30
0
41
1
10
31.1383445514404
20
0.713693246712666
30
0
41
1
10
31.1339323070727
20
0.771565693996166
30
0
41
1
10
31.1250895839965
20
0.884247344748445
30
0
41
1
10
31.1206566533123
20
0.939056430016137
30
0
41
1
10
31.113902144049
20
1.01892240979512
30
0
41
1
10
31.1116354947285
20
1.04515246599334
30
0
41
1
10
31.1070731302169
20
1.09681082642814
30
0
41
1
10
31.104796569858
20
1.12202191157388
30
0
41
1
10
31.0979883094059
20
1.19575725195116
30
0
41
1
10
31.0889625589997
20
1.28909746757478
30
0
41
1
10
31.0799997672217
20
1.37268616963797
30
0
41
1
10
31.0732667073243
20
1.43166822234304
30
0
41
1
10
31.0710203263929
20
1.45070936733893
30
0
41
1
10
31.066515292766
20
1.48752740103043
30
0
41
1
10
31.0642557488931
20
1.50530554510465
30
0
41
1
10
31.0575264973264
20
1.55609699960499
30
0
41
1
10
31.0486310722218
20
1.61751374753854
30
0
41
1
10
31.0397240374988
20
1.6666357543084
30
0
41
1
10
31.0352266049522
20
1.6880973144805
30
0
0
SPLINE
5
119
100
AcDbEntity
8
1
62
256
6
ByLayer
370
13
48
1
60
0
100
AcDbSpline
70
4
71
3
72
9
73
5
40
0
40
0
40
0
40
0
40
0.417551522565642
40
1
40
1
40
1
40
1
41
1.04
10
31.4162458216929
20
0.373732480843468
30
0
41
1.04
10
31.4037389153211
20
0.501150536979941
30
0
41
1.04
10
31.373864302588
20
0.79260842356244
30
0
41
1.04
10
31.3439835681436
20
1.02188050742614
30
0
41
1.04
10
31.3263693563532
20
1.12392391879059
30
0
0
SPLINE
5
11A
100
AcDbEntity
8
1
62
256
6
ByLayer
370
13
48
1
60
0
100
AcDbSpline
70
4
71
3
72
10
73
6
40
0
40
0
40
0
40
0
40
0.0798366425426336
40
0.70100646398207
40
1
40
1
40
1
40
1
41
1.04
10
28.261156326112
20
0.165064497164517
30
0
41
1.04
10
28.2587704934772
20
0.190171841391846
30
0
41
1.04
10
28.2378002547761
20
0.410057453310678
30
0
41
1.04
10
28.2076289338561
20
0.712092096750019
30
0
41
1.04
10
28.1805053183776
20
0.927874637460135
30
0
41
1.04
10
28.1717322645953
20
0.990559481592721
30
0
0
SPLINE
5
11B
100
AcDbEntity
8
1
62
256
6
ByLayer
370
13
48
1
60
0
100
AcDbSpline
70
4
71
3
72
9
73
5
40
0
40
0
40
0
40
0
40
0.62052989154688
40
1
40
1
40
1
40
1
41
1
10
31.6323846851973
20
0.200281893945743
30
0
41
1
10
31.6137175525398
20
0.395989507923247
30
0
41
1
10
31.5838103950291
20
0.698896151343348
30
0
41
1
10
31.5538968479535
20
0.938468870338028
30
0
41
1
10
31.5424869193368
20
1.01739272829164
30
0
0
SPLINE
5
11C
100
AcDbEntity
8
1
62
256
6
ByLayer
370
13
48
1
60
0
100
AcDbSpline
70
4
71
3
72
10
73
6
40
0
40
0
40
0
40
0
40
0.134802812463503
40
0.962817436093031
40
1
40
1
40
1
40
1
41
1
10
29.3377446200927
20
-0.685942508856186
30
0
41
1
10
29.3338423999035
20
-0.650385954243887
30
0
41
1
10
29.3058539658815
20
-0.388323852937106
30
0
41
1
10
29.2760043427651
20
-0.0619612663132614
30
0
41
1
10
29.2492924966157
20
0.217746898377101
30
0
41
1
10
29.2481429823417
20
0.229756933294567
30
0
0
SPLINE
5
11D
100
AcDbEntity
8
1
62
256
6
ByLayer
370
13
48
1
60
0
100
AcDbSpline
70
4
71
3
72
9
73
5
40
0
40
0
40
0
40
0
40
0.402032342245674
40
1
40
1
40
1
40
1
41
1.04
10
29.982101034048
20
-1.07642190162085
30
0
41
1.04
10
29.9703883837526
20
-1.0023652141889
30
0
41
1.04
10
29.9409845963247
20
-0.781702747754308
30
0
41
1.04
10
29.9106367734377
20
-0.484087407759732
30
0
41
1.04
10
29.8924574238143
20
-0.296020450287288
30
0
0
SPLINE
5
11E
100
AcDbEntity
8
1
62
256
6
ByLayer
370
13
48
1
60
0
100
AcDbSpline
70
4
71
3
72
9
73
5
40
0
40
0
40
0
40
0
40
0.763984100862407
40
1
40
1
40
1
40
1
41
1.04
10
29.1216854222972
20
-0.527940173331105
30
0
41
1.04
10
29.0995935816287
20
-0.312241825017878
30
0
41
1.04
10
29.0700487321954
20
0.0086067262028422
30
0
41
1.04
10
29.0393518863357
20
0.327976683752759
30
0
41
1.04
10
29.0320638348457
20
0.401836276735642
30
0
0
SPLINE
5
11F
100
AcDbEntity
8
1
62
256
6
ByLayer
370
13
48
1
60
0
100
AcDbSpline
70
4
71
3
72
9
73
5
40
0
40
0
40
0
40
0
40
0.676294159640813
40
1
40
1
40
1
40
1
41
1.04
10
32.2767268693908
20
-0.32566883298087
30
0
41
1.04
10
32.2564512426069
20
-0.116706513557765
30
0
41
1.04
10
32.2263772011812
20
0.212405180583002
30
0
41
1.04
10
32.19635688643
20
0.512553439268888
30
0
41
1.04
10
32.1866946170071
20
0.603960033023708
30
0
0
SPLINE
5
120
100
AcDbEntity
8
1
62
256
6
ByLayer
370
13
48
1
60
0
100
AcDbSpline
70
4
71
3
72
10
73
6
40
0
40
0
40
0
40
0
40
0.0539327647012511
40
0.879617300488307
40
1
40
1
40
1
40
1
41
1
10
32.4928555027888
20
-0.494953775796262
30
0
41
1
10
32.4912411926115
20
-0.479045517657568
30
0
41
1
10
32.4649029472217
20
-0.217468670523061
30
0
41
1
10
32.4348011958941
20
0.116176998839421
30
0
41
1
10
32.4063710611424
20
0.405136305638962
30
0
41
1
10
32.4027568026715
20
0.441328046092252
30
0
0
SPLINE
5
121
100
AcDbEntity
8
1
62
256
6
ByLayer
370
18
48
1
60
0
100
AcDbSpline
70
4
71
3
72
29
73
25
40
0
40
0
40
0
40
0
40
0.124999999999999
40
0.124999999999999
40
0.187499999999999
40
0.187499999999999
40
0.249999999999999
40
0.249999999999999
40
0.374999999999999
40
0.499999999999999
40
0.499999999999999
40
0.5625
40
0.5625
40
0.625
40
0.625
40
0.75
40
0.75
40
0.875
40
0.875
40
0.90625
40
0.90625
40
0.937499999999999
40
0.937499999999999
40
1
40
1
40
1
40
1
41
1
10
32.6780533596459
20
0.390650970801914
30
0
41
1
10
32.6825623261794
20
0.328578981258232
30
0
41
1
10
32.687118693323
20
0.265586248255715
30
0
41
1
10
32.6939994375763
20
0.169664244741028
30
0
41
1
10
32.6962871181603
20
0.137644770458053
30
0
41
1
10
32.7008304002929
20
0.07380083950423
30
0
41
1
10
32.7030892827285
20
0.0419306934709311
30
0
41
1
10
32.7098324599408
20
-0.0535262808151344
30
0
41
1
10
32.7187314972905
20
-0.180394025966791
30
0
41
1
10
32.7275638123707
20
-0.306440682129278
30
0
41
1
10
32.734243505441
20
-0.400652789279093
30
0
41
1
10
32.736483058951
20
-0.432047440377176
30
0
41
1
10
32.7409462033608
20
-0.493983530285021
30
0
41
1
10
32.7431760884281
20
-0.524614364614962
30
0
41
1
10
32.7498901292875
20
-0.615511276918397
30
0
41
1
10
32.7544114778063
20
-0.6747836996324
30
0
41
1
10
32.7634889272369
20
-0.790708356469366
30
0
41
1
10
32.7680420182288
20
-0.847360869855351
30
0
41
1
10
32.7737407585985
20
-0.916500281611036
30
0
41
1
10
32.7748810238772
20
-0.930244114252076
30
0
41
1
10
32.7771629409859
20
-0.957561722517738
30
0
41
1
10
32.7783060130485
20
-0.971152067414465
30
0
41
1
10
32.7817191067588
20
-1.01143976240476
30
0
41
1
10
32.7839775974163
20
-1.03771133095501
30
0
41
1
10
32.7862233897221
20
-1.06340782856461
30
0
0
SPLINE
5
122
100
AcDbEntity
8
1
62
256
6
ByLayer
370
18
48
1
60
0
100
AcDbSpline
70
4
71
3
72
29
73
25
40
0
40
0
40
0
40
0
40
0.0625000000000001
40
0.0625000000000001
40
0.125
40
0.125
40
0.249999999999999
40
0.249999999999999
40
0.374999999999998
40
0.374999999999998
40
0.406249999999998
40
0.406249999999998
40
0.437499999999998
40
0.437499999999998
40
0.499999999999998
40
0.499999999999998
40
0.624999999999998
40
0.749999999999998
40
0.749999999999998
40
0.812499999999999
40
0.812499999999999
40
0.874999999999999
40
0.874999999999999
40
1
40
1
40
1
40
1
41
1
10
32.8637789197452
20
-1.13087678386074
30
0
41
1
10
32.861557749484
20
-1.10597400816968
30
0
41
1
10
32.8593290303705
20
-1.0803846051426
30
0
41
1
10
32.854900191954
20
-1.0285217634368
30
0
41
1
10
32.8526939586677
20
-1.00218164946631
30
0
41
1
10
32.8460697081587
20
-0.921958891729389
30
0
41
1
10
32.8416374191775
20
-0.866877689059066
30
0
41
1
10
32.8327007514363
20
-0.753552440766128
30
0
41
1
10
32.8281981399585
20
-0.695308414542211
30
0
41
1
10
32.8225145254833
20
-0.620480331571969
30
0
41
1
10
32.8213750426063
20
-0.60541328653153
30
0
41
1
10
32.8190902432195
20
-0.575074043179711
30
0
41
1
10
32.8179433879819
20
-0.55978112160679
30
0
41
1
10
32.8145123104269
20
-0.513842194467514
30
0
41
1
10
32.8122335798191
20
-0.483083621640787
30
0
41
1
10
32.8054193381565
20
-0.390418526722073
30
0
41
1
10
32.7963927386204
20
-0.265828841444488
30
0
41
1
10
32.7874300780361
20
-0.139203068537142
30
0
41
1
10
32.7806982519427
20
-0.0434587351997777
30
0
41
1
10
32.7784525066165
20
-0.0114145323710773
30
0
41
1
10
32.7739493211354
20
0.052937913221939
30
0
41
1
10
32.7717041128284
20
0.0850710840484226
30
0
41
1
10
32.7650091338897
20
0.180829659001489
30
0
41
1
10
32.7605852896714
20
0.244033193823981
30
0
41
1
10
32.7561552451959
20
0.30661171526296
30
0
0
SPLINE
5
123
100
AcDbEntity
8
1
62
256
6
ByLayer
370
13
48
1
60
0
100
AcDbSpline
70
4
71
3
72
9
73
5
40
0
40
0
40
0
40
0
40
0.308580278433532
40
1
40
1
40
1
40
1
41
1.04
10
33.1371672497051
20
-0.935913037347601
30
0
41
1.04
10
33.1275182401487
20
-0.862445299623715
30
0
41
1.04
10
33.0967562816785
20
-0.601563082505954
30
0
41
1.04
10
33.0672344481502
20
-0.293698293876414
30
0
41
1.04
10
33.0470433882452
20
-0.0797303119445139
30
0
0
SPLINE
5
124
100
AcDbEntity
8
1
62
256
6
ByLayer
370
18
48
1
60
0
100
AcDbSpline
70
4
71
3
72
12
73
8
40
0
40
0
40
0
40
0
40
0.50000000000001
40
0.50000000000001
40
0.750000000000005
40
0.750000000000005
40
1
40
1
40
1
40
1
41
1
10
28.261156326112
20
0.165064497164536
30
0
41
1
10
28.2189076953807
20
0.186804371069854
30
0
41
1
10
28.177057348011
20
0.213977106819698
30
0
41
1
10
28.1146391080723
20
0.262487342589821
30
0
41
1
10
28.0939242620815
20
0.279917044293256
30
0
41
1
10
28.0528034151815
20
0.317021974912592
30
0
41
1
10
28.0323699998736
20
0.336718602283128
30
0
41
1
10
28.0120357569027
20
0.357515888557856
30
0
0
SPLINE
5
125
100
AcDbEntity
8
1
62
256
6
ByLayer
370
18
48
1
60
0
100
AcDbSpline
70
4
71
3
72
12
73
8
40
0
40
0
40
0
40
0
40
0.25
40
0.25
40
0.5
40
0.5
40
1
40
1
40
1
40
1
41
1
10
27.8716531730127
20
0.502475764785856
30
0
41
1
10
27.8508915803555
20
0.521367946732056
30
0
41
1
10
27.8300233662086
20
0.538983768364659
30
0
41
1
10
27.788014153261
20
0.571591883930836
30
0
41
1
10
27.7668439640777
20
0.586601697514709
30
0
41
1
10
27.7030993996933
20
0.627374475543633
30
0
41
1
10
27.6602786419921
20
0.648909436170385
30
0
41
1
10
27.6168049063211
20
0.664550481899568
30
0
0
SPLINE
5
126
100
AcDbEntity
8
1
62
256
6
ByLayer
370
18
48
1
60
0
100
AcDbSpline
70
4
71
3
72
28
73
24
40
0
40
0
40
0
40
0
40
0.125000000000057
40
0.125000000000057
40
0.250000000000114
40
0.250000000000114
40
0.375000000000171
40
0.375000000000171
40
0.437500000000175
40
0.437500000000175
40
0.500000000000179
40
0.500000000000179
40
0.625000000000134
40
0.625000000000134
40
0.75000000000009
40
0.75000000000009
40
0.812500000000067
40
0.812500000000067
40
0.875000000000045
40
0.875000000000045
40
0.937500000000022
40
0.937500000000022
40
1
40
1
40
1
40
1
41
1
10
27.6168049063211
20
0.664550481899568
30
0
41
1
10
27.6109415226657
20
0.666660018852582
30
0
41
1
10
27.6041729955389
20
0.66958136428056
30
0
41
1
10
27.5892305472846
20
0.676628624734121
30
0
41
1
10
27.580989223235
20
0.680797625038991
30
0
41
1
10
27.5637616228574
20
0.68997837809377
30
0
41
1
10
27.5547247296214
20
0.695012286779416
30
0
41
1
10
27.5405791099645
20
0.703239598613948
30
0
41
1
10
27.5357646236217
20
0.706096078763579
30
0
41
1
10
27.5259338709798
20
0.712055769264765
30
0
41
1
10
27.5209253045492
20
0.715155004265966
30
0
41
1
10
27.5058554002687
20
0.724691533225979
30
0
41
1
10
27.495669214504
20
0.731410738567149
30
0
41
1
10
27.4750434415262
20
0.745776980315895
30
0
41
1
10
27.4645241644227
20
0.753490403212595
30
0
41
1
10
27.4492858708788
20
0.76550073790483
30
0
41
1
10
27.4442731099236
20
0.769593830563338
30
0
41
1
10
27.4344126895833
20
0.778001285478098
30
0
41
1
10
27.4295666392421
20
0.782318331099646
30
0
41
1
10
27.420395349239
20
0.790934804279317
30
0
41
1
10
27.4160307976029
20
0.795266092884049
30
0
41
1
10
27.4078342512889
20
0.803984740354537
30
0
41
1
10
27.40405775906
20
0.808317481773059
30
0
41
1
10
27.4007267546439
20
0.812528846098417
30
0
0
SPLINE
5
127
100
AcDbEntity
8
1
62
256
6
ByLayer
370
18
48
1
60
0
100
AcDbSpline
70
4
71
3
72
10
73
6
40
0
40
0
40
0
40
0
40
0.5
40
0.5
40
1
40
1
40
1
40
1
41
1
10
27.4007267546412
20
0.812528846101856
30
0
41
1
10
27.3700977479476
20
0.851252873453632
30
0
41
1
10
27.3396818319782
20
0.891911341111779
30
0
41
1
10
27.2791615062369
20
0.976823646792582
30
0
41
1
10
27.2490046529701
20
1.02116201590596
30
0
41
1
10
27.219178549654
20
1.06684400050381
30
0
0
SPLINE
5
128
100
AcDbEntity
8
1
62
256
6
ByLayer
370
18
48
1
60
0
100
AcDbSpline
70
4
71
3
72
12
73
8
40
0
40
0
40
0
40
0
40
0.249999999999991
40
0.249999999999991
40
0.499999999999983
40
0.499999999999983
40
1
40
1
40
1
40
1
41
1
10
27.2191785496603
20
1.06684400050227
30
0
41
1
10
27.1948504921337
20
1.0838815853823
30
0
41
1
10
27.1704258702499
20
1.10048135845528
30
0
41
1
10
27.1213632485989
20
1.13278484460065
30
0
41
1
10
27.0967875752574
20
1.14844640701654
30
0
41
1
10
27.0232351043069
20
1.19372738402049
30
0
41
1
10
26.9742896761119
20
1.22173815572367
30
0
41
1
10
26.9253305592637
20
1.24757350079847
30
0
0
SPLINE
5
129
100
AcDbEntity
8
1
62
256
6
ByLayer
370
18
48
1
60
0
100
AcDbSpline
70
4
71
3
72
12
73
8
40
0
40
0
40
0
40
0
40
0.25
40
0.25
40
0.5
40
0.5
40
1
40
1
40
1
40
1
41
1
10
26.9253305592671
20
1.24757350079281
30
0
41
1
10
26.9114455408143
20
1.24272454365195
30
0
41
1
10
26.8974876402812
20
1.23727136603469
30
0
41
1
10
26.8695148701193
20
1.22518962597655
30
0
41
1
10
26.8554888793371
20
1.21855775092269
30
0
41
1
10
26.8132631005908
20
1.19687637139217
30
0
41
1
10
26.7849174865963
20
1.18004538129637
30
0
41
1
10
26.7562892593427
20
1.16075651650149
30
0
0
SPLINE
5
12A
100
AcDbEntity
8
1
62
256
6
ByLayer
370
18
48
1
60
0
100
AcDbSpline
70
4
71
3
72
28
73
24
40
0
40
0
40
0
40
0
40
0.125000000000056
40
0.125000000000056
40
0.250000000000112
40
0.250000000000112
40
0.375000000000168
40
0.375000000000168
40
0.437500000000171
40
0.437500000000171
40
0.500000000000175
40
0.500000000000175
40
0.625000000000131
40
0.625000000000131
40
0.750000000000086
40
0.750000000000086
40
0.812500000000065
40
0.812500000000065
40
0.875000000000043
40
0.875000000000043
40
0.937500000000022
40
0.937500000000022
40
1
40
1
40
1
40
1
41
1
10
26.7562892593427
20
1.16075651650147
30
0
41
1
10
26.7504278557847
20
1.15680727368817
30
0
41
1
10
26.7436640891934
20
1.15399771162137
30
0
41
1
10
26.7287349092151
20
1.15008666996559
30
0
41
1
10
26.720502060067
20
1.14900522372028
30
0
41
1
10
26.7032896066054
20
1.14845386220969
30
0
41
1
10
26.6942598539215
20
1.14896407614052
30
0
41
1
10
26.6801225128359
20
1.15089421703894
30
0
41
1
10
26.6753103806337
20
1.15173385281673
30
0
41
1
10
26.6654832116682
20
1.15383005701253
30
0
41
1
10
26.6604746153498
20
1.15508727407553
30
0
41
1
10
26.6454029214857
20
1.15945734271298
30
0
41
1
10
26.6352126101124
20
1.16317293990198
30
0
41
1
10
26.6145722559619
20
1.17253330862314
30
0
41
1
10
26.6040428435345
20
1.17824012882221
30
0
41
1
10
26.5887916749073
20
1.18833430668519
30
0
41
1
10
26.5837748391546
20
1.19196519086913
30
0
41
1
10
26.5739073254725
20
1.1998626965115
30
0
41
1
10
26.569058940189
20
1.20413583760771
30
0
41
1
10
26.5598852597399
20
1.21315593000975
30
0
41
1
10
26.5555205586568
20
1.21793080350943
30
0
41
1
10
26.5473257157607
20
1.22811759061665
30
0
41
1
10
26.5435512651632
20
1.23346922536041
30
0
41
1
10
26.540222510822
20
1.23901032047564
30
0
0
SPLINE
5
12B
100
AcDbEntity
8
1
62
256
6
ByLayer
370
18
48
1
60
0
100
AcDbSpline
70
4
71
3
72
8
73
4
40
0
40
0
40
0
40
0
40
1
40
1
40
1
40
1
41
1
10
26.5402225108189
20
1.23901032048011
30
0
41
1
10
26.5018932739093
20
1.30281375133004
30
0
41
1
10
26.4639029008968
20
1.36738984433094
30
0
41
1
10
26.4261280233119
20
1.4326204926098
30
0
0
SPLINE
5
12C
100
AcDbEntity
8
1
62
256
6
ByLayer
370
18
48
1
60
0
100
AcDbSpline
70
4
71
3
72
13
73
9
40
0
40
0
40
0
40
0
40
0.124999999999988
40
0.124999999999988
40
0.249999999999976
40
0.499999999999976
40
0.499999999999976
40
1
40
1
40
1
40
1
41
1
10
26.4261280233159
20
1.4326204926115
30
0
41
1
10
26.4075128117354
20
1.43655697083793
30
0
41
1
10
26.3888178976077
20
1.44017624017423
30
0
41
1
10
26.3514966000914
20
1.44673041487638
30
0
41
1
10
26.295568304074
20
1.45554806310503
30
0
41
1
10
26.2397356253795
20
1.46135047713511
30
0
41
1
10
26.1280310086517
20
1.46899227696542
30
0
41
1
10
26.0534850090195
20
1.46880232104576
30
0
41
1
10
25.9785131276212
20
1.46344630536586
30
0
0
SPLINE
5
12D
100
AcDbEntity
8
1
62
256
6
ByLayer
370
18
48
1
60
0
100
AcDbSpline
70
4
71
3
72
8
73
4
40
0
40
0
40
0
40
0
40
1
40
1
40
1
40
1
41
1
10
25.9785131276246
20
1.46344630536029
30
0
41
1
10
25.9511777420008
20
1.42424163580819
30
0
41
1
10
25.9236566376538
20
1.38345688490159
30
0
41
1
10
25.8958741800016
20
1.34108161175655
30
0
0
SPLINE
5
12E
100
AcDbEntity
8
1
62
256
6
ByLayer
370
18
48
1
60
0
100
AcDbSpline
70
4
71
3
72
30
73
26
40
0
40
0
40
0
40
0
40
0.125000000000031
40
0.125000000000031
40
0.250000000000062
40
0.250000000000062
40
0.375000000000094
40
0.375000000000094
40
0.437500000000084
40
0.437500000000084
40
0.500000000000075
40
0.500000000000075
40
0.625000000000056
40
0.625000000000056
40
0.687500000000047
40
0.687500000000047
40
0.750000000000038
40
0.750000000000038
40
0.812500000000028
40
0.812500000000028
40
0.875000000000019
40
0.875000000000019
40
0.937500000000009
40
0.937500000000009
40
1
40
1
40
1
40
1
41
1
10
25.8958741800016
20
1.34108161175655
30
0
41
1
10
25.8899975118018
20
1.33211820674512
30
0
41
1
10
25.8832140253253
20
1.32432000530858
30
0
41
1
10
25.8682421229249
20
1.31048485433058
30
0
41
1
10
25.8599863001764
20
1.30444018085672
30
0
41
1
10
25.8427325623337
20
1.29431157063706
30
0
41
1
10
25.8336836303182
20
1.29017034942112
30
0
41
1
10
25.8195221870403
20
1.28530638730413
30
0
41
1
10
25.8147027984339
20
1.28391206873295
30
0
41
1
10
25.8048631121163
20
1.28160063915854
30
0
41
1
10
25.7998517260468
20
1.28068863972146
30
0
41
1
10
25.7848008715408
20
1.27875194615191
30
0
41
1
10
25.7746556229791
20
1.27849002063581
30
0
41
1
10
25.7592989955719
20
1.27987046960189
30
0
41
1
10
25.7541568371116
20
1.280628972448
30
0
41
1
10
25.7438282865066
20
1.2828330975162
30
0
41
1
10
25.7386069008891
20
1.28429284591766
30
0
41
1
10
25.7283714479821
20
1.2879515095849
30
0
41
1
10
25.723343557728
20
1.29014763350455
30
0
41
1
10
25.7135018493906
20
1.29538493750084
30
0
41
1
10
25.7086511627863
20
1.29845346992406
30
0
41
1
10
25.69940508351
20
1.30548951244512
30
0
41
1
10
25.6950349674276
20
1.30942771096304
30
0
41
1
10
25.6868805385079
20
1.31827611109659
30
0
41
1
10
25.6830755452191
20
1.32322698697442
30
0
41
1
10
25.6797355613692
20
1.32861245507004
30
0
0
SPLINE
5
12F
100
AcDbEntity
8
1
62
256
6
ByLayer
370
18
48
1
60
0
100
AcDbSpline
70
4
71
3
72
8
73
4
40
0
40
0
40
0
40
0
40
1
40
1
40
1
40
1
41
1
10
25.6797355613661
20
1.32861245507516
30
0
41
1
10
25.6641164290736
20
1.35379710938244
30
0
41
1
10
25.6485519633816
20
1.37869465274818
30
0
41
1
10
25.6330350390139
20
1.40331058525496
30
0
0
SPLINE
5
130
100
AcDbEntity
8
1
62
256
6
ByLayer
370
18
48
1
60
0
100
AcDbSpline
70
4
71
3
72
10
73
6
40
0
40
0
40
0
40
0
40
0.5
40
0.5
40
1
40
1
40
1
40
1
41
1
10
25.6330350390172
20
1.40331058525854
30
0
41
1
10
25.5327983181548
20
1.37590976119148
30
0
41
1
10
25.4329111917743
20
1.34037276309681
30
0
41
1
10
25.2326644441577
20
1.25454354021167
30
0
41
1
10
25.1322488718342
20
1.20422594006388
30
0
41
1
10
25.0304157621855
20
1.14719028468261
30
0
0
SPLINE
5
131
100
AcDbEntity
8
1
62
256
6
ByLayer
370
18
48
1
60
0
100
AcDbSpline
70
4
71
3
72
22
73
18
40
0
40
0
40
0
40
0
40
0.125000000000021
40
0.125000000000021
40
0.250000000000042
40
0.250000000000042
40
0.500000000000028
40
0.500000000000028
40
0.625000000000021
40
0.625000000000021
40
0.750000000000015
40
0.750000000000015
40
0.875000000000008
40
0.875000000000008
40
0.937500000000004
40
0.937500000000004
40
1
40
1
40
1
40
1
41
1
10
25.0304157621855
20
1.14719028468258
30
0
41
1
10
25.0252267905406
20
1.13814495673333
30
0
41
1
10
25.0194803396624
20
1.12962636698393
30
0
41
1
10
25.0070497048035
20
1.11346713698634
30
0
41
1
10
25.0003363295347
20
1.10580792034608
30
0
41
1
10
24.979244875383
20
1.0844479924734
30
0
41
1
10
24.9638215941442
20
1.07221201228054
30
0
41
1
10
24.9395469139161
20
1.05740172019173
30
0
41
1
10
24.9312971132267
20
1.05307735745191
30
0
41
1
10
24.9144877289887
20
1.04575573839546
30
0
41
1
10
24.9060496347929
20
1.04281353875621
30
0
41
1
10
24.8892419686369
20
1.03854039973538
30
0
41
1
10
24.880856475196
20
1.03719665975928
30
0
41
1
10
24.8683434333827
20
1.03667131043832
30
0
41
1
10
24.8641670146321
20
1.03675159241462
30
0
41
1
10
24.8560434212282
20
1.03748519582771
30
0
41
1
10
24.8520750774248
20
1.03813523411446
30
0
41
1
10
24.8482138873696
20
1.03910479607529
30
0
0
SPLINE
5
132
100
AcDbEntity
8
1
62
256
6
ByLayer
370
18
48
1
60
0
100
AcDbSpline
70
4
71
3
72
8
73
4
40
0
40
0
40
0
40
0
40
1
40
1
40
1
40
1
41
1
10
24.8482138873695
20
1.03910479607572
30
0
41
1
10
24.806467778988
20
1.01298398174467
30
0
41
1
10
24.7646816746366
20
0.985944902867118
30
0
41
1
10
24.7227760582064
20
0.958059037395572
30
0
0
SPLINE
5
133
100
AcDbEntity
8
1
62
256
6
ByLayer
370
18
48
1
60
0
100
AcDbSpline
70
4
71
3
72
10
73
6
40
0
40
0
40
0
40
0
40
0.5
40
0.5
40
1
40
1
40
1
40
1
41
1
10
24.670000000001
20
0.980924028445571
30
0
41
1
10
24.7297982052246
20
0.958501425702508
30
0
41
1
10
24.7889880196013
20
0.933867310075527
30
0
41
1
10
24.906442576099
20
0.880387219732285
30
0
41
1
10
24.9646693603067
20
0.851499088981711
30
0
41
1
10
25.0226659204944
20
0.820703731083455
30
0
0
SPLINE
5
134
100
AcDbEntity
8
1
62
256
6
ByLayer
370
18
48
1
60
0
100
AcDbSpline
70
4
71
3
72
24
73
20
40
0
40
0
40
0
40
0
40
0.125
40
0.125
40
0.25
40
0.25
40
0.500000000000001
40
0.500000000000001
40
0.625000000000001
40
0.625000000000001
40
0.75
40
0.75
40
0.8125
40
0.8125
40
0.875
40
0.875
40
0.9375
40
0.9375
40
1
40
1
40
1
40
1
41
1
10
25.0226659204967
20
0.820703731086127
30
0
41
1
10
25.0289189211056
20
0.810166824624048
30
0
41
1
10
25.035954961777
20
0.80005270734469
30
0
41
1
10
25.0513095501086
20
0.780520828261331
30
0
41
1
10
25.0596151810104
20
0.771141843102441
30
0
41
1
10
25.0857115566284
20
0.744581366116705
30
0
41
1
10
25.1046729629882
20
0.728921438855224
30
0
41
1
10
25.1340273765069
20
0.709409289743974
30
0
41
1
10
25.1439433542336
20
0.703597641561288
30
0
41
1
10
25.1635366686256
20
0.693722427507481
30
0
41
1
10
25.1732765112986
20
0.689607800121451
30
0
41
1
10
25.1877237500523
20
0.6849749457852
30
0
41
1
10
25.1924949697319
20
0.683700607599036
30
0
41
1
10
25.2017008475067
20
0.681820040393461
30
0
41
1
10
25.2061661343412
20
0.681202617852392
30
0
41
1
10
25.2147721839923
20
0.680725929257932
30
0
41
1
10
25.2189221533848
20
0.680874730360614
30
0
41
1
10
25.2265580200919
20
0.682058750075441
30
0
41
1
10
25.2300795964992
20
0.683087540284902
30
0
41
1
10
25.2332521652392
20
0.684636933579412
30
0
0
SPLINE
5
135
100
AcDbEntity
8
1
62
256
6
ByLayer
370
18
48
1
60
0
100
AcDbSpline
70
4
71
3
72
8
73
4
40
0
40
0
40
0
40
0
40
1
40
1
40
1
40
1
41
1
10
25.2332521652392
20
0.684636933579384
30
0
41
1
10
25.2380315323502
20
0.686971041982076
30
0
41
1
10
25.2428060630204
20
0.689239172507882
30
0
41
1
10
25.2475758290879
20
0.691438983157752
30
0
0
SPLINE
5
136
100
AcDbEntity
8
1
62
256
6
ByLayer
370
18
48
1
60
0
100
AcDbSpline
70
4
71
3
72
16
73
12
40
0
40
0
40
0
40
0
40
0.25
40
0.25
40
0.5
40
0.5
40
0.625
40
0.625
40
0.75
40
0.75
40
1
40
1
40
1
40
1
41
1
10
25.2475758290879
20
0.691438983157752
30
0
41
1
10
25.294828962217
20
0.662208809511554
30
0
41
1
10
25.3420193253814
20
0.631760508970274
30
0
41
1
10
25.4362912718515
20
0.568345816946618
30
0
41
1
10
25.4833002237396
20
0.535279068921625
30
0
41
1
10
25.5539313828672
20
0.483943713897275
30
0
41
1
10
25.5775011949679
20
0.46654941820313
30
0
41
1
10
25.624446786362
20
0.431471013456076
30
0
41
1
10
25.6478587246778
20
0.413759551879082
30
0
41
1
10
25.717881165543
20
0.360074494942268
30
0
41
1
10
25.7642598533903
20
0.323529132682722
30
0
41
1
10
25.8103908569776
20
0.286287399934821
30
0
0
SPLINE
5
137
100
AcDbEntity
8
1
62
256
6
ByLayer
370
18
48
1
60
0
100
AcDbSpline
70
4
71
3
72
8
73
4
40
0
40
0
40
0
40
0
40
1
40
1
40
1
40
1
41
1
10
25.810390856972
20
0.286287399937208
30
0
41
1
10
25.8325806925408
20
0.252833288105819
30
0
41
1
10
25.8549244004233
20
0.220410083968829
30
0
41
1
10
25.8774756714691
20
0.189057855347585
30
0
0
SPLINE
5
138
100
AcDbEntity
8
1
62
256
6
ByLayer
370
18
48
1
60
0
100
AcDbSpline
70
4
71
3
72
28
73
24
40
0
40
0
40
0
40
0
40
0.12500000000002
40
0.12500000000002
40
0.25000000000004
40
0.25000000000004
40
0.37500000000006
40
0.37500000000006
40
0.50000000000008
40
0.50000000000008
40
0.6250000000001
40
0.6250000000001
40
0.687500000000083
40
0.687500000000083
40
0.750000000000067
40
0.750000000000067
40
0.81250000000005
40
0.81250000000005
40
0.875000000000033
40
0.875000000000033
40
0.937500000000017
40
0.937500000000017
40
1
40
1
40
1
40
1
41
1
10
25.877475671472
20
0.189057855346988
30
0
41
1
10
25.8834626890392
20
0.180734318144744
30
0
41
1
10
25.8903903660799
20
0.172238301113879
30
0
41
1
10
25.9056782473298
20
0.155017971078706
30
0
41
1
10
25.9141153014748
20
0.146232991115653
30
0
41
1
10
25.9316815236157
20
0.12901809247856
30
0
41
1
10
25.9408662568909
20
0.12052052381344
30
0
41
1
10
25.9599667954383
20
0.103695168963782
30
0
41
1
10
25.9699728510876
20
0.0953009430239433
30
0
41
1
10
25.9900637606526
20
0.0791776025201045
30
0
41
1
10
26.0001928240658
20
0.0714018371927523
30
0
41
1
10
26.0154781094592
20
0.0601592948978009
30
0
41
1
10
26.02058854366
20
0.0564825176990951
30
0
41
1
10
26.0308344669611
20
0.0492776424406998
30
0
41
1
10
26.0359605606985
20
0.0457573523293888
30
0
41
1
10
26.0459734762142
20
0.0390518787930034
30
0
41
1
10
26.0508905066748
20
0.0358449395301648
30
0
41
1
10
26.0605132865048
20
0.0297579528714493
30
0
41
1
10
26.0652555876766
20
0.0268564451056932
30
0
41
1
10
26.074267265823
20
0.0215774329638521
30
0
41
1
10
26.0785347567674
20
0.0191985017353318
30
0
41
1
10
26.086516292053
20
0.0150447078787863
30
0
41
1
10
26.0902524401992
20
0.0132612859559913
30
0
41
1
10
26.0935557073626
20
0.011895204041025
30
0
0
SPLINE
5
139
100
AcDbEntity
8
1
62
256
6
ByLayer
370
18
48
1
60
0
100
AcDbSpline
70
4
71
3
72
8
73
4
40
0
40
0
40
0
40
0
40
1
40
1
40
1
40
1
41
1
10
26.0935557073626
20
0.0118952040412807
30
0
41
1
10
26.1251758805341
20
-0.0011814696217982
30
0
41
1
10
26.1565992954961
20
-0.017225043154383
30
0
41
1
10
26.1878038236172
20
-0.0360424433305866
30
0
0
SPLINE
5
13A
100
AcDbEntity
8
1
62
256
6
ByLayer
370
18
48
1
60
0
100
AcDbSpline
70
4
71
3
72
12
73
8
40
0
40
0
40
0
40
0
40
0.500000000000014
40
0.500000000000014
40
0.750000000000007
40
0.750000000000007
40
1
40
1
40
1
40
1
41
1
10
26.1878038236171
20
-0.0360424433305013
30
0
41
1
10
26.2566308712659
20
-0.0971872242685947
30
0
41
1
10
26.325435526793
20
-0.159339727584324
30
0
41
1
10
26.4287973593301
20
-0.253947190073177
30
0
41
1
10
26.4631040776513
20
-0.285555506795447
30
0
41
1
10
26.5312491644569
20
-0.348630869763156
30
0
41
1
10
26.5651355390526
20
-0.380122616327583
30
0
41
1
10
26.5988882236413
20
-0.411515501529777
30
0
0
SPLINE
5
13B
100
AcDbEntity
8
1
62
256
6
ByLayer
370
18
48
1
60
0
100
AcDbSpline
70
4
71
3
72
8
73
4
40
0
40
0
40
0
40
0
40
1
40
1
40
1
40
1
41
1
10
26.5988882236412
20
-0.411515501529664
30
0
41
1
10
26.6445684729948
20
-0.448772722670014
30
0
41
1
10
26.6907541074103
20
-0.479679716146933
30
0
41
1
10
26.737847985522
20
-0.504001926471773
30
0
0
SPLINE
5
13C
100
AcDbEntity
8
1
62
256
6
ByLayer
370
18
48
1
60
0
100
AcDbSpline
70
4
71
3
72
28
73
24
40
0
40
0
40
0
40
0
40
0.12499999999998
40
0.12499999999998
40
0.24999999999996
40
0.24999999999996
40
0.37499999999994
40
0.37499999999994
40
0.49999999999992
40
0.49999999999992
40
0.6249999999999
40
0.6249999999999
40
0.687499999999916
40
0.687499999999916
40
0.749999999999933
40
0.749999999999933
40
0.81249999999995
40
0.81249999999995
40
0.874999999999967
40
0.874999999999967
40
0.937499999999983
40
0.937499999999983
40
1
40
1
40
1
40
1
41
1
10
26.7378479855247
20
-0.504001926469698
30
0
41
1
10
26.7438425043282
20
-0.507097869148367
30
0
41
1
10
26.7507792966401
20
-0.510999749563581
30
0
41
1
10
26.7660856316388
20
-0.519972785471566
30
0
41
1
10
26.7745333423229
20
-0.525097524494583
30
0
41
1
10
26.7921186435557
20
-0.536071668221155
30
0
41
1
10
26.8013113142038
20
-0.541952064729031
30
0
41
1
10
26.8204238707561
20
-0.554499092664713
30
0
41
1
10
26.830433691545
20
-0.561227939150598
30
0
41
1
10
26.8505285684507
20
-0.575147771937964
30
0
41
1
10
26.8606580783818
20
-0.582364652829597
30
0
41
1
10
26.8759399923226
20
-0.593688415205207
30
0
41
1
10
26.881048636303
20
-0.597546950950687
30
0
41
1
10
26.8912891925402
20
-0.605467784088091
30
0
41
1
10
26.8964099972754
20
-0.609523004014306
30
0
41
1
10
26.906411177554
20
-0.61767147627188
30
0
41
1
10
26.9113214458155
20
-0.621787416592753
30
0
41
1
10
26.9209285504077
20
-0.630122971262523
30
0
41
1
10
26.9256616904602
20
-0.634376993906869
30
0
41
1
10
26.9346552492526
20
-0.642816024844564
30
0
41
1
10
26.9389131230714
20
-0.646995220258617
30
0
41
1
10
26.9468753731485
20
-0.655259806128015
30
0
41
1
10
26.9506022285011
20
-0.659373349064737
30
0
41
1
10
26.9538990984172
20
-0.663319966714795
30
0
0
SPLINE
5
13D
100
AcDbEntity
8
1
62
256
6
ByLayer
370
18
48
1
60
0
100
AcDbSpline
70
4
71
3
72
12
73
8
40
0
40
0
40
0
40
0
40
0.499999999999986
40
0.499999999999986
40
0.749999999999993
40
0.749999999999993
40
1
40
1
40
1
40
1
41
1
10
26.9538990984171
20
-0.663319966714596
30
0
41
1
10
26.9833690706084
20
-0.698597886486482
30
0
41
1
10
27.0126617603903
20
-0.73581829238131
30
0
41
1
10
27.0563242502787
20
-0.794346124499697
30
0
41
1
10
27.0708162395704
20
-0.81429512876224
30
0
41
1
10
27.0996881278646
20
-0.855104475623961
30
0
41
1
10
27.1140773788016
20
-0.875963255278009
30
0
41
1
10
27.1283953895217
20
-0.897140509131674
30
0
0
SPLINE
5
13E
100
AcDbEntity
8
1
62
256
6
ByLayer
370
18
48
1
60
0
100
AcDbSpline
70
4
71
3
72
12
73
8
40
0
40
0
40
0
40
0
40
0.25
40
0.25
40
0.5
40
0.5
40
1
40
1
40
1
40
1
41
1
10
27.1283953895217
20
-0.897140509131646
30
0
41
1
10
27.1500442910188
20
-0.916524646888206
30
0
41
1
10
27.1717608232554
20
-0.93574035332523
30
0
41
1
10
27.2153801502482
20
-0.973789371769101
30
0
41
1
10
27.2372167301572
20
-0.992663207997253
30
0
41
1
10
27.302288730888
20
-1.04860720276392
30
0
41
1
10
27.3452994021035
20
-1.08505782033495
30
0
41
1
10
27.3880884675957
20
-1.12056302073037
30
0
0
SPLINE
5
13F
100
AcDbEntity
8
1
62
256
6
ByLayer
370
18
48
1
60
0
100
AcDbSpline
70
4
71
3
72
12
73
8
40
0
40
0
40
0
40
0
40
0.250000000000005
40
0.250000000000005
40
0.50000000000001
40
0.50000000000001
40
1
40
1
40
1
40
1
41
1
10
27.388088467596
20
-1.12056302073074
30
0
41
1
10
27.4052123882898
20
-1.11927959918384
30
0
41
1
10
27.4224335145568
20
-1.11706895274165
30
0
41
1
10
27.4571138420694
20
-1.11075823181602
30
0
41
1
10
27.4745447987848
20
-1.10666279504062
30
0
41
1
10
27.5270381937096
20
-1.09157682687106
30
0
41
1
10
27.5623519962584
20
-1.07778745689143
30
0
41
1
10
27.5981617049491
20
-1.06019555186737
30
0
0
SPLINE
5
140
100
AcDbEntity
8
1
62
256
6
ByLayer
370
18
48
1
60
0
100
AcDbSpline
70
4
71
3
72
28
73
24
40
0
40
0
40
0
40
0
40
0.125
40
0.125
40
0.25
40
0.25
40
0.375
40
0.375
40
0.5
40
0.5
40
0.625
40
0.625
40
0.6875
40
0.6875
40
0.75
40
0.75
40
0.8125
40
0.8125
40
0.875
40
0.875
40
0.9375
40
0.9375
40
1
40
1
40
1
40
1
41
1
10
27.598161704952
20
-1.06019555186336
30
0
41
1
10
27.6041601374806
20
-1.05724875728868
30
0
41
1
10
27.6111018991804
20
-1.05553135797928
30
0
41
1
10
27.6264152087801
20
-1.05390161165911
30
0
41
1
10
27.6348642825025
20
-1.05402106053396
30
0
41
1
10
27.6524459898603
20
-1.05587335826397
30
0
41
1
10
27.6616344556771
20
-1.05759228216323
30
0
41
1
10
27.6807365039442
20
-1.06255855140503
30
0
41
1
10
27.6907405729064
20
-1.06584713232675
30
0
41
1
10
27.7108303407425
20
-1.07388486346048
30
0
41
1
10
27.7209588099526
20
-1.07863226465815
30
0
41
1
10
27.7362405866226
20
-1.08703310551078
30
0
41
1
10
27.7413494262581
20
-1.09004874755828
30
0
41
1
10
27.7515905126075
20
-1.0965796190406
30
0
41
1
10
27.7567153996631
20
-1.10009404474468
30
0
41
1
10
27.7667233365611
20
-1.10751983608753
30
0
41
1
10
27.7716368159855
20
-1.11144928060597
30
0
41
1
10
27.7812497127836
20
-1.11981020892441
30
0
41
1
10
27.7859852835294
20
-1.12427950754079
30
0
41
1
10
27.7949884383006
20
-1.13362140281194
30
0
41
1
10
27.7992504661065
20
-1.1384802223977
30
0
41
1
10
27.8072197648565
20
-1.14863295474782
30
0
41
1
10
27.8109500357456
20
-1.15396714468946
30
0
41
1
10
27.8142513570905
20
-1.15942852127165
30
0
0
SPLINE
5
141
100
AcDbEntity
8
1
62
256
6
ByLayer
370
18
48
1
60
0
100
AcDbSpline
70
4
71
3
72
12
73
8
40
0
40
0
40
0
40
0
40
0.5
40
0.5
40
0.75
40
0.75
40
1
40
1
40
1
40
1
41
1
10
27.8142513570905
20
-1.15942852127156
30
0
41
1
10
27.8576955128851
20
-1.23129819716741
30
0
41
1
10
27.9007818268445
20
-1.3048031349814
30
0
41
1
10
27.9647199157348
20
-1.41644205443538
30
0
41
1
10
27.9859311310734
20
-1.45390917013177
30
0
41
1
10
28.0280190048463
20
-1.52898170974365
30
0
41
1
10
28.0489175168419
20
-1.56662550328744
30
0
41
1
10
28.0696981704274
20
-1.60436133647619
30
0
0
SPLINE
5
142
100
AcDbEntity
8
1
62
256
6
ByLayer
370
18
48
1
60
0
100
AcDbSpline
70
4
71
3
72
8
73
4
40
0
40
0
40
0
40
0
40
1
40
1
40
1
40
1
41
1
10
28.0696981704289
20
-1.60436133649406
30
0
41
1
10
28.1057633526406
20
-1.62468898426377
30
0
41
1
10
28.1415955623981
20
-1.64397205885001
30
0
41
1
10
28.1772963399273
20
-1.66216996187668
30
0
0
SPLINE
5
143
100
AcDbEntity
8
1
62
256
6
ByLayer
370
18
48
1
60
0
100
AcDbSpline
70
4
71
3
72
12
73
8
40
0
40
0
40
0
40
0
40
0.25
40
0.25
40
0.5
40
0.5
40
1
40
1
40
1
40
1
41
1
10
28.1772963399218
20
-1.66216996186822
30
0
41
1
10
28.200029944528
20
-1.63995747602175
30
0
41
1
10
28.2228932468211
20
-1.61635893302218
30
0
41
1
10
28.2690366176453
20
-1.56620984701104
30
0
41
1
10
28.2923191629554
20
-1.53969344756442
30
0
41
1
10
28.3627289670867
20
-1.45608374941045
30
0
41
1
10
28.4101796649368
20
-1.39519497718572
30
0
41
1
10
28.4585511198526
20
-1.32918533774262
30
0
0
SPLINE
5
144
100
AcDbEntity
8
1
62
256
6
ByLayer
370
18
48
1
60
0
100
AcDbSpline
70
4
71
3
72
28
73
24
40
0
40
0
40
0
40
0
40
0.125
40
0.125
40
0.25
40
0.25
40
0.374999999999999
40
0.374999999999999
40
0.499999999999999
40
0.499999999999999
40
0.624999999999999
40
0.624999999999999
40
0.687499999999999
40
0.687499999999999
40
0.749999999999999
40
0.749999999999999
40
0.8125
40
0.8125
40
0.875
40
0.875
40
0.9375
40
0.9375
40
1
40
1
40
1
40
1
41
1
10
28.4585511198558
20
-1.32918533773778
30
0
41
1
10
28.4645605471065
20
-1.32098463079859
30
0
41
1
10
28.4715175565141
20
-1.31410080236188
30
0
41
1
10
28.4868669489837
20
-1.30228201291925
30
0
41
1
10
28.4953381797367
20
-1.29734795001104
30
0
41
1
10
28.5129604015449
20
-1.28955208103807
30
0
41
1
10
28.5221674781173
20
-1.28663489918918
30
0
41
1
10
28.541297362663
20
-1.28266619123147
30
0
41
1
10
28.551308856984
20
-1.28162437105794
30
0
41
1
10
28.571393278958
20
-1.28160548851034
30
0
41
1
10
28.5815126460435
20
-1.28259931163427
30
0
41
1
10
28.5967761005493
20
-1.28579905038757
30
0
41
1
10
28.6018781689382
20
-1.28715325042307
30
0
41
1
10
28.612105030035
20
-1.29051954452669
30
0
41
1
10
28.6172150370056
20
-1.29253151011193
30
0
41
1
10
28.6271985115936
20
-1.29720208408929
30
0
41
1
10
28.6321008427813
20
-1.29986860825812
30
0
41
1
10
28.6416938957658
20
-1.30596347298294
30
0
41
1
10
28.6464207983901
20
-1.30942324605209
30
0
41
1
10
28.6554026812943
20
-1.31709504052674
30
0
41
1
10
28.6596559784693
20
-1.32129487861926
30
0
41
1
10
28.6676108465917
20
-1.33053693630549
30
0
41
1
10
28.671335062014
20
-1.33561956946716
30
0
41
1
10
28.6746320310918
20
-1.34108443142688
30
0
0
SPLINE
5
145
100
AcDbEntity
8
1
62
256
6
ByLayer
370
18
48
1
60
0
100
AcDbSpline
70
4
71
3
72
14
73
10
40
0
40
0
40
0
40
0
40
0.25
40
0.25
40
0.5
40
0.5
40
0.75
40
0.75
40
1
40
1
40
1
40
1
41
1
10
28.6746320310918
20
-1.34108443142688
30
0
41
1
10
28.6980631387593
20
-1.37992245688113
30
0
41
1
10
28.7213516988525
20
-1.4182551767621
30
0
41
1
10
28.7677377284097
20
-1.49401289244469
30
0
41
1
10
28.7908008489466
20
-1.53139182394062
30
0
41
1
10
28.8366738184517
20
-1.60505737816541
30
0
41
1
10
28.8594757031227
20
-1.64133373749803
30
0
41
1
10
28.904734713591
20
-1.71252958352898
30
0
41
1
10
28.9272106903014
20
-1.74747722837878
30
0
41
1
10
28.9495623991815
20
-1.78174840739735
30
0
0
SPLINE
5
146
100
AcDbEntity
8
1
62
256
6
ByLayer
370
18
48
1
60
0
100
AcDbSpline
70
4
71
3
72
8
73
4
40
0
40
0
40
0
40
0
40
1
40
1
40
1
40
1
41
1
10
29.0273347628074
20
-1.77025307588596
30
0
41
1
10
29.0014682879107
20
-1.77474665060811
30
0
41
1
10
28.9755501413888
20
-1.77858114380132
30
0
41
1
10
28.9495623991822
20
-1.78174840739643
30
0
0
SPLINE
5
147
100
AcDbEntity
8
1
62
256
6
ByLayer
370
18
48
1
60
0
100
AcDbSpline
70
4
71
3
72
10
73
6
40
0
40
0
40
0
40
0
40
0.5
40
0.5
40
1
40
1
40
1
40
1
41
1
10
29.0273347628074
20
-1.77025307588596
30
0
41
1
10
29.0745770543477
20
-1.68713798396894
30
0
41
1
10
29.122345039621
20
-1.60092924560627
30
0
41
1
10
29.2196529997135
20
-1.42254446142607
30
0
41
1
10
29.2687637900206
20
-1.33114859784558
30
0
41
1
10
29.3188852479977
20
-1.2376506459976
30
0
0
SPLINE
5
148
100
AcDbEntity
8
1
62
256
6
ByLayer
370
18
48
1
60
0
100
AcDbSpline
70
4
71
3
72
28
73
24
40
0
40
0
40
0
40
0
40
0.125
40
0.125
40
0.25
40
0.25
40
0.374999999999999
40
0.374999999999999
40
0.499999999999999
40
0.499999999999999
40
0.624999999999999
40
0.624999999999999
40
0.687499999999999
40
0.687499999999999
40
0.749999999999999
40
0.749999999999999
40
0.812499999999999
40
0.812499999999999
40
0.875
40
0.875
40
0.9375
40
0.9375
40
1
40
1
40
1
40
1
41
1
10
29.3188852480006
20
-1.2376506459932
30
0
41
1
10
29.3248901209203
20
-1.22644899022231
30
0
41
1
10
29.331841657262
20
-1.21628597305116
30
0
41
1
10
29.3471802762176
20
-1.19751093423454
30
0
41
1
10
29.3556461231995
20
-1.18886817621225
30
0
41
1
10
29.373261718725
20
-1.17353731208527
30
0
41
1
10
29.3824675098259
20
-1.16676782664598
30
0
41
1
10
29.40160206825
20
-1.15491717866919
30
0
41
1
10
29.4116199037554
20
-1.14981224477967
30
0
41
1
10
29.4317194162699
20
-1.14171597660183
30
0
41
1
10
29.4418482570824
20
-1.13867509863559
30
0
41
1
10
29.4571237704398
20
-1.13579478675092
30
0
41
1
10
29.4622294810067
20
-1.1351175516007
30
0
41
1
10
29.4724620027401
20
-1.13440221754578
30
0
41
1
10
29.4775710047415
20
-1.1343697715098
30
0
41
1
10
29.4875509579325
20
-1.135022785308
30
0
41
1
10
29.4924502800379
20
-1.1357047552174
30
0
41
1
10
29.5020348848687
20
-1.13787960510672
30
0
41
1
10
29.5067560885036
20
-1.139388496322
30
0
41
1
10
29.5157268696093
20
-1.14330480651526
30
0
41
1
10
29.5199744524762
20
-1.14570136039379
30
0
41
1
10
29.5279192252602
20
-1.15151008531521
30
0
41
1
10
29.5316392914839
20
-1.15495222126276
30
0
41
1
10
29.5349345312205
20
-1.15892734250985
30
0
0
SPLINE
5
149
100
AcDbEntity
8
1
62
256
6
ByLayer
370
18
48
1
60
0
100
AcDbSpline
70
4
71
3
72
8
73
4
40
0
40
0
40
0
40
0
40
1
40
1
40
1
40
1
41
1
10
29.5349345312205
20
-1.15892734250994
30
0
41
1
10
29.5640148586494
20
-1.19400759058803
30
0
41
1
10
29.5929217957652
20
-1.22726834381848
30
0
41
1
10
29.6216331876994
20
-1.25865376630307
30
0
0
SPLINE
5
14A
100
AcDbEntity
8
1
62
256
6
ByLayer
370
18
48
1
60
0
100
AcDbSpline
70
4
71
3
72
10
73
6
40
0
40
0
40
0
40
0
40
0.32753179587924
40
0.32753179587924
40
1
40
1
40
1
40
1
41
1
10
29.7093492258218
20
-1.34925496460832
30
0
41
1
10
29.720446890387
20
-1.36002863167821
30
0
41
1
10
29.731503602377
20
-1.37048838573386
30
0
41
1
10
29.7651167468961
20
-1.40140760007557
30
0
41
1
10
29.787540508242
20
-1.42079172689989
30
0
41
1
10
29.8098508552969
20
-1.43894858566694
30
0
0
SPLINE
5
14B
100
AcDbEntity
8
1
62
256
6
ByLayer
370
18
48
1
60
0
100
AcDbSpline
70
4
71
3
72
8
73
4
40
0
40
0
40
0
40
0
40
1
40
1
40
1
40
1
41
1
10
29.8876728076878
20
-1.38609876104186
30
0
41
1
10
29.8616956774244
20
-1.40420178632729
30
0
41
1
10
29.835750707866
20
-1.42181903473121
30
0
41
1
10
29.8098508552969
20
-1.43894858566688
30
0
0
SPLINE
5
14C
100
AcDbEntity
8
1
62
256
6
ByLayer
370
18
48
1
60
0
100
AcDbSpline
70
4
71
3
72
10
73
6
40
0
40
0
40
0
40
0
40
0.884442441654053
40
0.884442441654053
40
1
40
1
40
1
40
1
41
1
10
29.8876728076878
20
-1.38609876104186
30
0
41
1
10
29.934868243181
20
-1.28832368798038
30
0
41
1
10
29.9826156805673
20
-1.19107174211379
30
0
41
1
10
30.0376386429883
20
-1.08205823583063
30
0
41
1
10
30.0440051710148
20
-1.06948961013475
30
0
41
1
10
30.0503809937618
20
-1.05695031401476
30
0
0
SPLINE
5
14D
100
AcDbEntity
8
1
62
256
6
ByLayer
370
18
48
1
60
0
100
AcDbSpline
70
4
71
3
72
20
73
16
40
0
40
0
40
0
40
0
40
0.229856871426355
40
0.229856871426355
40
0.358214059521962
40
0.358214059521962
40
0.48657124761757
40
0.48657124761757
40
0.614928435713177
40
0.614928435713177
40
0.743285623808785
40
0.743285623808785
40
0.871642811904392
40
0.871642811904392
40
1
40
1
40
1
40
1
41
1
10
33.7269812459475
20
1.28270024519685
30
0
41
1
10
33.735995242462
20
1.28278395092303
30
0
41
1
10
33.7450635069239
20
1.28369103269563
30
0
41
1
10
33.7592532107402
20
1.28653490624225
30
0
41
1
10
33.764349467048
20
1.28784287305268
30
0
41
1
10
33.7745592978898
20
1.29111778598781
30
0
41
1
10
33.779639426438
20
1.2930777451277
30
0
41
1
10
33.7895705231503
20
1.29764480358381
30
0
41
1
10
33.7944450340634
20
1.30025829943162
30
0
41
1
10
33.8039791339222
20
1.30624084954897
30
0
41
1
10
33.8086738715724
20
1.30964025275867
30
0
41
1
10
33.8175923446111
20
1.3171835838632
30
0
41
1
10
33.8218159527001
20
1.32131683083341
30
0
41
1
10
33.8297188357625
20
1.33042080027107
30
0
41
1
10
33.833421226217
20
1.3354309516225
30
0
41
1
10
33.8367083517958
20
1.34083421985793
30
0
0
SPLINE
5
14E
100
AcDbEntity
8
1
62
256
6
ByLayer
370
18
48
1
60
0
100
AcDbSpline
70
4
71
3
72
10
73
6
40
0
40
0
40
0
40
0
40
0.5
40
0.5
40
1
40
1
40
1
40
1
41
1
10
33.8367083517958
20
1.34083421985793
30
0
41
1
10
33.8672332120159
20
1.39100997483317
30
0
41
1
10
33.8975479946249
20
1.44037695550028
30
0
41
1
10
33.9577455605615
20
1.53718052783947
30
0
41
1
10
33.9876251012652
20
1.58461336471907
30
0
41
1
10
34.01720480765
20
1.63079990308839
30
0
0
SPLINE
5
14F
100
AcDbEntity
8
1
62
256
6
ByLayer
370
18
48
1
60
0
100
AcDbSpline
70
4
71
3
72
12
73
8
40
0
40
0
40
0
40
0
40
0.500000000000016
40
0.500000000000016
40
0.750000000000008
40
0.750000000000008
40
1
40
1
40
1
40
1
41
1
10
34.0172048076499
20
1.63079990308773
30
0
41
1
10
34.0680117850964
20
1.61618062867009
30
0
41
1
10
34.1190982237397
20
1.59915246927551
30
0
41
1
10
34.1965918601536
20
1.56988828091016
30
0
41
1
10
34.2226390004696
20
1.55948679088272
30
0
41
1
10
34.2747459611379
20
1.53757524885327
30
0
41
1
10
34.3007982051295
20
1.52607094972777
30
0
41
1
10
34.3268526574601
20
1.51403480428496
30
0
0
SPLINE
5
150
100
AcDbEntity
8
1
62
256
6
ByLayer
370
18
48
1
60
0
100
AcDbSpline
70
4
71
3
72
8
73
4
40
0
40
0
40
0
40
0
40
1
40
1
40
1
40
1
41
1
10
34.3268526574601
20
1.51403480428496
30
0
41
1
10
34.377509927712
20
1.42064576125807
30
0
41
1
10
34.4287455517705
20
1.32507101173545
30
0
41
1
10
34.4809897612978
20
1.22766124027922
30
0
0
SPLINE
5
151
100
AcDbEntity
8
1
62
256
6
ByLayer
370
18
48
1
60
0
100
AcDbSpline
70
4
71
3
72
26
73
22
40
0
40
0
40
0
40
0
40
0.125
40
0.125
40
0.25
40
0.25
40
0.375
40
0.375
40
0.5
40
0.5
40
0.625
40
0.625
40
0.75
40
0.75
40
0.8125
40
0.8125
40
0.875
40
0.875
40
0.9375
40
0.9375
40
1
40
1
40
1
40
1
41
1
10
34.4809897612997
20
1.22766124027584
30
0
41
1
10
34.4870358978108
20
1.21638816750934
30
0
41
1
10
34.4940421916198
20
1.20616216245654
30
0
41
1
10
34.509498821381
20
1.18726238638195
30
0
41
1
10
34.5180291596749
20
1.1785564596652
30
0
41
1
10
34.5357575680336
20
1.16311044229917
30
0
41
1
10
34.5450132425992
20
1.1562859654787
30
0
41
1
10
34.5642510776789
20
1.14432873184899
30
0
41
1
10
34.5743185831687
20
1.13917848352398
30
0
41
1
10
34.5944635341569
20
1.13097906858192
30
0
41
1
10
34.6045947103826
20
1.12787455753255
30
0
41
1
10
34.6249020488797
20
1.12382691739356
30
0
41
1
10
34.6351979435105
20
1.12289673095077
30
0
41
1
10
34.6500321686033
20
1.12360228228132
30
0
41
1
10
34.6548879277646
20
1.1241823476945
30
0
41
1
10
34.66439058302
20
1.126132354509
30
0
41
1
10
34.6690720177663
20
1.1275169095681
30
0
41
1
10
34.6779644331635
20
1.13115892600766
30
0
41
1
10
34.682178755579
20
1.13340809459939
30
0
41
1
10
34.6900697332616
20
1.13890149394811
30
0
41
1
10
34.6937692919115
20
1.14217341065705
30
0
41
1
10
34.6970557807435
20
1.14597637462495
30
0
0
SPLINE
5
152
100
AcDbEntity
8
1
62
256
6
ByLayer
370
18
48
1
60
0
100
AcDbSpline
70
4
71
3
72
8
73
4
40
0
40
0
40
0
40
0
40
1
40
1
40
1
40
1
41
1
10
34.6970557807435
20
1.14597637462501
30
0
41
1
10
34.7283265519992
20
1.1821613800862
30
0
41
1
10
34.7593780897474
20
1.21621515743945
30
0
41
1
10
34.790198143224
20
1.24806143663761
30
0
0
SPLINE
5
153
100
AcDbEntity
8
1
62
256
6
ByLayer
370
18
48
1
60
0
100
AcDbSpline
70
4
71
3
72
14
73
10
40
0
40
0
40
0
40
0
40
0.249999999999984
40
0.249999999999984
40
0.374999999999987
40
0.374999999999987
40
0.499999999999989
40
0.499999999999989
40
1
40
1
40
1
40
1
41
1
10
34.7901981432253
20
1.24806143663713
30
0
41
1
10
34.8321102528606
20
1.21984621925918
30
0
41
1
10
34.8743001714782
20
1.19049385227262
30
0
41
1
10
34.9380434394398
20
1.14481801677604
30
0
41
1
10
34.9593688329808
20
1.12931799707854
30
0
41
1
10
35.0021818473792
20
1.09777166997344
30
0
41
1
10
35.0236467934473
20
1.08174102306967
30
0
41
1
10
35.1306837596638
20
1.00075835179368
30
0
41
1
10
35.2159171301959
20
0.932925832510364
30
0
41
1
10
35.3017723230929
20
0.862892501809199
30
0
0
SPLINE
5
154
100
AcDbEntity
8
1
62
256
6
ByLayer
370
18
48
1
60
0
100
AcDbSpline
70
4
71
3
72
8
73
4
40
0
40
0
40
0
40
0
40
1
40
1
40
1
40
1
41
1
10
35.3017723230929
20
0.862892501809199
30
0
41
1
10
35.3149084732485
20
0.838465794848275
30
0
41
1
10
35.3281064660553
20
0.8141879034944
30
0
41
1
10
35.3413791025179
20
0.790069791108834
30
0
0
SPLINE
5
155
100
AcDbEntity
8
1
62
256
6
ByLayer
370
18
48
1
60
0
100
AcDbSpline
70
4
71
3
72
28
73
24
40
0
40
0
40
0
40
0
40
0.124999999999981
40
0.124999999999981
40
0.249999999999962
40
0.249999999999962
40
0.374999999999943
40
0.374999999999943
40
0.437499999999959
40
0.437499999999959
40
0.499999999999975
40
0.499999999999975
40
0.625000000000008
40
0.625000000000008
40
0.75000000000004
40
0.75000000000004
40
0.81250000000003
40
0.81250000000003
40
0.87500000000002
40
0.87500000000002
40
0.93750000000001
40
0.93750000000001
40
1
40
1
40
1
40
1
41
1
10
35.3611267277554
20
1.18877939073184
30
0
41
1
10
35.355276938855
20
1.17738664482124
30
0
41
1
10
35.3485286267699
20
1.16688605167124
30
0
41
1
10
35.3336358751645
20
1.14725341108902
30
0
41
1
10
35.3254253343222
20
1.13808924290763
30
0
41
1
10
35.3082547660799
20
1.12155168850427
30
0
41
1
10
35.2992452069051
20
1.114101436764
30
0
41
1
10
35.2851298381645
20
1.10411441273587
30
0
41
1
10
35.2803236715487
20
1.10098552430631
30
0
41
1
10
35.2705057934221
20
1.09514598955198
30
0
41
1
10
35.2654978070757
20
1.09244050748808
30
0
41
1
10
35.2504248075501
20
1.085119790345
30
0
41
1
10
35.2402290709457
20
1.08123443730455
30
0
41
1
10
35.2195634164229
20
1.07576131889121
30
0
41
1
10
35.2090118637718
20
1.07418781344185
30
0
41
1
10
35.1937171764398
20
1.07416280030145
30
0
41
1
10
35.1886843962251
20
1.07453639007409
30
0
41
1
10
35.1787828633413
20
1.07618310617983
30
0
41
1
10
35.1739203996576
20
1.07746491380715
30
0
41
1
10
35.1647196233832
20
1.08100407191537
30
0
41
1
10
35.1603417554674
20
1.08326363986688
30
0
41
1
10
35.152122269378
20
1.08896279825092
30
0
41
1
10
35.1483463180637
20
1.09236587872178
30
0
41
1
10
35.1450150049074
20
1.09635221494705
30
0
0
SPLINE
5
156
100
AcDbEntity
8
1
62
256
6
ByLayer
370
18
48
1
60
0
100
AcDbSpline
70
4
71
3
72
8
73
4
40
0
40
0
40
0
40
0
40
1
40
1
40
1
40
1
41
1
10
35.1450150049046
20
1.09635221495029
30
0
41
1
10
35.099088431325
20
1.15130915096853
30
0
41
1
10
35.053622440003
20
1.20107313509601
30
0
41
1
10
35.0084127008519
20
1.24601362025135
30
0
0
SPLINE
5
157
100
AcDbEntity
8
1
62
256
6
ByLayer
370
18
48
1
60
0
100
AcDbSpline
70
4
71
3
72
8
73
4
40
0
40
0
40
0
40
0
40
1
40
1
40
1
40
1
41
1
10
35.0084127008519
20
1.24601362025135
30
0
41
1
10
34.9645009870274
20
1.22973993633599
30
0
41
1
10
34.9207637886344
20
1.21173215652954
30
0
41
1
10
34.8771077143869
20
1.19202325341513
30
0
0
SPLINE
5
158
100
AcDbEntity
8
1
62
256
6
ByLayer
370
18
48
1
60
0
100
AcDbSpline
70
4
71
3
72
22
73
18
40
0
40
0
40
0
40
0
40
0.0540494538024076
40
0.0540494538024076
40
0.159155070046604
40
0.159155070046604
40
0.369366302534998
40
0.369366302534998
40
0.579577535023391
40
0.579577535023391
40
0.684683151267543
40
0.684683151267543
40
0.789788767511695
40
0.789788767511695
40
0.894894383755848
40
0.894894383755848
40
1
40
1
40
1
40
1
41
1
10
30.9804045638526
20
-1.28646136926869
30
0
41
1
10
30.9779337388391
20
-1.2857891139854
30
0
41
1
10
30.9754362897585
20
-1.28517793344861
30
0
41
1
10
30.9680030845228
20
-1.2835628710412
30
0
41
1
10
30.9629964178027
20
-1.28273710249556
30
0
41
1
10
30.9479287721237
20
-1.28105222800775
30
0
41
1
10
30.9377381337775
20
-1.28095087377804
30
0
41
1
10
30.9170889349873
20
-1.28315252284136
30
0
41
1
10
30.9065486251225
20
-1.28549823231236
30
0
41
1
10
30.8912750049348
20
-1.29121725259131
30
0
41
1
10
30.8862498953999
20
-1.29349244022151
30
0
41
1
10
30.8763646856982
20
-1.29891702592821
30
0
41
1
10
30.8715075867364
20
-1.30207517433465
30
0
41
1
10
30.8623172795416
20
-1.3092179428204
30
0
41
1
10
30.8579444794494
20
-1.31321963410738
30
0
41
1
10
30.849734131695
20
-1.32225937320928
30
0
41
1
10
30.8459566313617
20
-1.32724188404757
30
0
41
1
10
30.8426250917709
20
-1.33266458068104
30
0
0
SPLINE
5
159
100
AcDbEntity
8
1
62
256
6
ByLayer
370
18
48
1
60
0
100
AcDbSpline
70
4
71
3
72
10
73
6
40
0
40
0
40
0
40
0
40
0.5
40
0.5
40
1
40
1
40
1
40
1
41
1
10
30.8426250917681
20
-1.33266458068547
30
0
41
1
10
30.7961609552484
20
-1.40829355336862
30
0
41
1
10
30.7501785243403
20
-1.48153220068795
30
0
41
1
10
30.658755483243
20
-1.62345350507203
30
0
41
1
10
30.6137737569407
20
-1.69141352308659
30
0
41
1
10
30.5692280869882
20
-1.75646784346685
30
0
0
SPLINE
5
15A
100
AcDbEntity
8
1
62
256
6
ByLayer
370
18
48
1
60
0
100
AcDbSpline
70
4
71
3
72
8
73
4
40
0
40
0
40
0
40
0
40
1
40
1
40
1
40
1
41
1
10
30.4913932393802
20
-1.73729978190164
30
0
41
1
10
30.5173995637452
20
-1.74436888529456
30
0
41
1
10
30.5433499539083
20
-1.75075870845126
30
0
41
1
10
30.5692280869882
20
-1.75646784346679
30
0
0
SPLINE
5
15B
100
AcDbEntity
8
1
62
256
6
ByLayer
370
18
48
1
60
0
100
AcDbSpline
70
4
71
3
72
10
73
6
40
0
40
0
40
0
40
0
40
0.5
40
0.5
40
1
40
1
40
1
40
1
41
1
10
30.4913932393719
20
-1.73729978191019
30
0
41
1
10
30.4437732753676
20
-1.64837471211231
30
0
41
1
10
30.3956999134513
20
-1.55657164498547
30
0
41
1
10
30.2978379157354
20
-1.3675119489655
30
0
41
1
10
30.248477408302
20
-1.27108994709303
30
0
41
1
10
30.1982574269177
20
-1.17293637377688
30
0
0
SPLINE
5
15C
100
AcDbEntity
8
1
62
256
6
ByLayer
370
18
48
1
60
0
100
AcDbSpline
70
4
71
3
72
28
73
24
40
0
40
0
40
0
40
0
40
0.12500000000003
40
0.12500000000003
40
0.25000000000006
40
0.25000000000006
40
0.37500000000009
40
0.37500000000009
40
0.43750000000008
40
0.43750000000008
40
0.500000000000071
40
0.500000000000071
40
0.625000000000053
40
0.625000000000053
40
0.750000000000035
40
0.750000000000035
40
0.812500000000026
40
0.812500000000026
40
0.875000000000017
40
0.875000000000017
40
0.937500000000009
40
0.937500000000009
40
1
40
1
40
1
40
1
41
1
10
30.1982574269176
20
-1.17293637377685
30
0
41
1
10
30.1923908361239
20
-1.16147028331406
30
0
41
1
10
30.1856208366486
20
-1.15088300306829
30
0
41
1
10
30.1706788334244
20
-1.13105456197448
30
0
41
1
10
30.1624403933946
20
-1.12178056143785
30
0
41
1
10
30.145220691972
20
-1.10501233514705
30
0
41
1
10
30.136188652487
20
-1.09743999981188
30
0
41
1
10
30.1220504693105
20
-1.08725338417244
30
0
41
1
10
30.1172384880204
20
-1.08405514281174
30
0
41
1
10
30.1074125903688
20
-1.07807000682905
30
0
41
1
10
30.1024045135589
20
-1.0752895226305
30
0
41
1
10
30.0873349602778
20
-1.06773457757481
30
0
41
1
10
30.0771468918215
20
-1.06368125519504
30
0
41
1
10
30.0565119169933
20
-1.05783341993981
30
0
41
1
10
30.0459831189179
20
-1.05604837260174
30
0
41
1
10
30.0307254991198
20
-1.05567300171205
30
0
41
1
10
30.0257057601211
20
-1.05592462920643
30
0
41
1
10
30.0158307242252
20
-1.057315771117
30
0
41
1
10
30.0109771461307
20
-1.05846480754579
30
0
41
1
10
30.0017919565208
20
-1.06173751718697
30
0
41
1
10
29.9974208627604
20
-1.06386228675288
30
0
41
1
10
29.9892124898191
20
-1.06928918900141
30
0
41
1
10
29.9854335971418
20
-1.0725627638794
30
0
41
1
10
29.9821010340506
20
-1.07642190161772
30
0
0
SPLINE
5
15D
100
AcDbEntity
8
1
62
256
6
ByLayer
370
18
48
1
60
0
100
AcDbSpline
70
4
71
3
72
10
73
6
40
0
40
0
40
0
40
0
40
0.5
40
0.5
40
1
40
1
40
1
40
1
41
1
10
29.9821010340479
20
-1.07642190162085
30
0
41
1
10
29.9356551689984
20
-1.13020662698912
30
0
41
1
10
29.8896837122124
20
-1.17870333781545
30
0
41
1
10
29.7982858617692
20
-1.2655558068052
30
0
41
1
10
29.7533259735163
20
-1.30343244640679
30
0
41
1
10
29.7088008719255
20
-1.33610450720749
30
0
0
SPLINE
5
15E
100
AcDbEntity
8
1
62
256
6
ByLayer
370
18
48
1
60
0
100
AcDbSpline
70
4
71
3
72
10
73
6
40
0
40
0
40
0
40
0
40
0.5
40
0.5
40
1
40
1
40
1
40
1
41
1
10
29.6308205381793
20
-1.27738834959581
30
0
41
1
10
29.5832206813949
20
-1.17614479499002
30
0
41
1
10
29.5351550244884
20
-1.07580133376413
30
0
41
1
10
29.4373262359429
20
-0.877579255815647
30
0
41
1
10
29.387987043242
20
-0.780550835449105
30
0
41
1
10
29.3377446200927
20
-0.685942508856186
30
0
0
SPLINE
5
15F
100
AcDbEntity
8
1
62
256
6
ByLayer
370
18
48
1
60
0
100
AcDbSpline
70
4
71
3
72
30
73
26
40
0
40
0
40
0
40
0
40
0.124999999999973
40
0.124999999999973
40
0.249999999999946
40
0.249999999999946
40
0.374999999999919
40
0.374999999999919
40
0.437499999999906
40
0.437499999999906
40
0.499999999999893
40
0.499999999999893
40
0.624999999999919
40
0.624999999999919
40
0.687499999999933
40
0.687499999999933
40
0.749999999999946
40
0.749999999999946
40
0.81249999999996
40
0.81249999999996
40
0.874999999999973
40
0.874999999999973
40
0.937499999999987
40
0.937499999999987
40
1
40
1
40
1
40
1
41
1
10
29.3377446200927
20
-0.685942508856215
30
0
41
1
10
29.3318800306877
20
-0.674899271787041
30
0
41
1
10
29.3251109508271
20
-0.664214355427873
30
0
41
1
10
29.3101651897772
20
-0.643415892518675
30
0
41
1
10
29.3019210861637
20
-0.633251326052459
30
0
41
1
10
29.2846832349275
20
-0.614058181959166
30
0
41
1
10
29.2756389902074
20
-0.604950527476007
30
0
41
1
10
29.2614789213665
20
-0.59197714582578
30
0
41
1
10
29.2566590655064
20
-0.587768422931049
30
0
41
1
10
29.2468166727479
20
-0.579587462798656
30
0
41
1
10
29.2418032570324
20
-0.575625095077584
30
0
41
1
10
29.2267455443588
20
-0.564322840913746
30
0
41
1
10
29.2165943660423
20
-0.557483226039267
30
0
41
1
10
29.2012298211589
20
-0.548357912247468
30
0
41
1
10
29.1960852085455
20
-0.54550684825233
30
0
41
1
10
29.1857521741633
20
-0.54023333759352
30
0
41
1
10
29.1805290688233
20
-0.537797604832775
30
0
41
1
10
29.1702936886115
20
-0.533538107462448
30
0
41
1
10
29.1652663420676
20
-0.531702929472658
30
0
41
1
10
29.1554267175807
20
-0.528702121642397
30
0
41
1
10
29.150577260273
20
-0.527529990510061
30
0
41
1
10
29.1413374454917
20
-0.526035629257251
30
0
41
1
10
29.1369706441381
20
-0.525710830306849
30
0
41
1
10
29.1288226973861
20
-0.526039135379591
30
0
41
1
10
29.1250214037285
20
-0.526704237743445
30
0
41
1
10
29.1216854223003
20
-0.527940173329142
30
0
0
SPLINE
5
160
100
AcDbEntity
8
1
62
256
6
ByLayer
370
18
48
1
60
0
100
AcDbSpline
70
4
71
3
72
10
73
6
40
0
40
0
40
0
40
0
40
0.5
40
0.5
40
1
40
1
40
1
40
1
41
1
10
29.1216854222972
20
-0.527940173331103
30
0
41
1
10
29.0752323261939
20
-0.545150411396719
30
0
41
1
10
29.0292600844992
20
-0.555402195410778
30
0
41
1
10
28.9378473108673
20
-0.563085200088636
30
0
41
1
10
28.8928643263924
20
-0.560473358655429
30
0
41
1
10
28.8483166511354
20
-0.551807750396137
30
0
0
SPLINE
5
161
100
AcDbEntity
8
1
62
256
6
ByLayer
370
18
48
1
60
0
100
AcDbSpline
70
4
71
3
72
10
73
6
40
0
40
0
40
0
40
0
40
0.5
40
0.5
40
1
40
1
40
1
40
1
41
1
10
28.7704426152271
20
-0.469685856881313
30
0
41
1
10
28.7228419310131
20
-0.38375868094937
30
0
41
1
10
28.6747675777953
20
-0.302277982023099
30
0
41
1
10
28.5768926261026
20
-0.148994051891776
30
0
41
1
10
28.5275300199397
20
-0.0778047204396159
30
0
41
1
10
28.4772976656897
20
-0.0124544861114941
30
0
0
SPLINE
5
162
100
AcDbEntity
8
1
62
256
6
ByLayer
370
18
48
1
60
0
100
AcDbSpline
70
4
71
3
72
28
73
24
40
0
40
0
40
0
40
0
40
0.125000000000013
40
0.125000000000013
40
0.250000000000026
40
0.250000000000026
40
0.37500000000004
40
0.37500000000004
40
0.437500000000046
40
0.437500000000046
40
0.500000000000053
40
0.500000000000053
40
0.625000000000066
40
0.625000000000066
40
0.750000000000079
40
0.750000000000079
40
0.812500000000059
40
0.812500000000059
40
0.875000000000039
40
0.875000000000039
40
0.93750000000002
40
0.93750000000002
40
1
40
1
40
1
40
1
41
1
10
28.4772976656897
20
-0.0124544861116647
30
0
41
1
10
28.4714283538973
20
-0.0048187519976466
30
0
41
1
10
28.4646552793766
20
0.0030815546168412
30
0
41
1
10
28.4497073791432
20
0.0192511365352743
30
0
41
1
10
28.4414653817406
20
0.0275746554982845
30
0
41
1
10
28.4242392739607
20
0.0440514189504597
30
0
41
1
10
28.4152044489606
20
0.0522635098222395
30
0
41
1
10
28.4010632770926
20
0.0645731812091412
30
0
41
1
10
28.3962505000097
20
0.0686751306497513
30
0
41
1
10
28.3864235472095
20
0.076883989207829
30
0
41
1
10
28.3814152873146
20
0.0809851212417527
30
0
41
1
10
28.3663460506448
20
0.0930965674766924
30
0
41
1
10
28.3561593861916
20
0.100985658596727
30
0
41
1
10
28.3355305147617
20
0.116425186793805
30
0
41
1
10
28.325005782726
20
0.124030235517921
30
0
41
1
10
28.3097548776353
20
0.134658514390225
30
0
41
1
10
28.3047376307357
20
0.138088769425792
30
0
41
1
10
28.2948681025289
20
0.144693430104439
30
0
41
1
10
28.290016705799
20
0.147865850247939
30
0
41
1
10
28.2808362553761
20
0.153703499822854
30
0
41
1
10
28.276467713716
20
0.156395783130137
30
0
41
1
10
28.2682650818891
20
0.161236568755442
30
0
41
1
10
28.2644873226535
20
0.163350466590259
30
0
41
1
10
28.2611563261147
20
0.165064497163115
30
0
0
SPLINE
5
163
100
AcDbEntity
8
1
62
256
6
ByLayer
370
18
48
1
60
0
100
AcDbSpline
70
4
71
3
72
24
73
20
40
0
40
0
40
0
40
0
40
0.124999999999999
40
0.249999999999998
40
0.249999999999998
40
0.312499999999998
40
0.312499999999998
40
0.374999999999997
40
0.374999999999997
40
0.499999999999997
40
0.499999999999997
40
0.624999999999997
40
0.624999999999997
40
0.687499999999997
40
0.687499999999997
40
0.749999999999997
40
0.749999999999997
40
0.874999999999999
40
1
40
1
40
1
40
1
41
1
10
28.0120357569009
20
0.357515888552513
30
0
41
1
10
28.0079372806515
20
0.416824279292911
30
0
41
1
10
27.9997115840789
20
0.533674517939374
30
0
41
1
10
27.991546796852
20
0.647022372713991
30
0
41
1
10
27.9854354577513
20
0.730682349967594
30
0
41
1
10
27.983394326607
20
0.758416039943398
30
0
41
1
10
27.9793482312414
20
0.812849905518192
30
0
41
1
10
27.9773400333448
20
0.839595511977251
30
0
41
1
10
27.9713384922584
20
0.918441828160752
30
0
41
1
10
27.9673690890022
20
0.969155784518847
30
0
41
1
10
27.9593362086779
20
1.06691041144336
30
0
41
1
10
27.955279557764
20
1.1139521958915
30
0
41
1
10
27.9491320125781
20
1.18170801449807
30
0
41
1
10
27.9470723446044
20
1.20382452737641
30
0
41
1
10
27.9429305006089
20
1.24709883972875
30
0
41
1
10
27.9408620088474
20
1.26811263888015
30
0
41
1
10
27.934676861399
20
1.32915086535485
30
0
41
1
10
27.9264710842534
20
1.40535140686674
30
0
41
1
10
27.9182892098128
20
1.47131804295697
30
0
41
1
10
27.9141789699032
20
1.50168965316675
30
0
0
SPLINE
5
164
100
AcDbEntity
8
1
62
256
6
ByLayer
370
18
48
1
60
0
100
AcDbSpline
70
4
71
3
72
25
73
21
40
0
40
0
40
0
40
0
40
0.125000000000001
40
0.250000000000003
40
0.250000000000003
40
0.312500000000004
40
0.312500000000004
40
0.375000000000004
40
0.375000000000004
40
0.500000000000004
40
0.500000000000004
40
0.625000000000004
40
0.625000000000004
40
0.687500000000003
40
0.687500000000003
40
0.750000000000003
40
0.750000000000003
40
0.875000000000001
40
0.875000000000001
40
1
40
1
40
1
40
1
41
1
10
27.7559860375597
20
1.55759982944335
30
0
41
1
10
27.760797259374
20
1.5327876852453
30
0
41
1
10
27.7703503024305
20
1.47753888600713
30
0
41
1
10
27.7799545471241
20
1.41112465816724
30
0
41
1
10
27.7872473453201
20
1.35701785149033
30
0
41
1
10
27.7896982293913
20
1.33822195825775
30
0
41
1
10
27.7945839870978
20
1.29961377322996
30
0
41
1
10
27.7970258338642
20
1.27976012109721
30
0
41
1
10
27.8043482357649
20
1.21858022883271
30
0
41
1
10
27.8092071620118
20
1.17563672965585
30
0
41
1
10
27.818810509376
20
1.08547230629807
30
0
41
1
10
27.8235557653199
20
1.03825144055708
30
0
41
1
10
27.830682251396
20
0.964155296465179
30
0
41
1
10
27.8330645954672
20
0.938868448323376
30
0
41
1
10
27.8378508960886
20
0.887375342484034
30
0
41
1
10
27.8402473049945
20
0.861295879158234
30
0
41
1
10
27.847448696066
20
0.782078086062228
30
0
41
1
10
27.852254268652
20
0.727961498767058
30
0
41
1
10
27.8619120348376
20
0.617158096197045
30
0
41
1
10
27.8667733748513
20
0.56047256159971
30
0
41
1
10
27.8716531730127
20
0.502475764785828
30
0
0
SPLINE
5
165
100
AcDbEntity
8
1
62
256
6
ByLayer
370
18
48
1
60
0
100
AcDbSpline
70
4
71
3
72
12
73
8
40
0
40
0
40
0
40
0
40
0.366031969640525
40
0.366031969640525
40
0.889631531283999
40
0.889631531283999
40
1
40
1
40
1
40
1
41
1
10
22.5141193815542
20
-0.859933508132428
30
0
41
1
10
22.4998522293515
20
-0.885749468463359
30
0
41
1
10
22.4893219644017
20
-0.91555215720166
30
0
41
1
10
22.4718494338142
20
-0.994381433935501
30
0
41
1
10
22.4686659816231
20
-1.04544250865712
30
0
41
1
10
22.4718755583509
20
-1.10885781065977
30
0
41
1
10
22.4727172478927
20
-1.11994512526266
30
0
41
1
10
22.4737614441664
20
-1.13106625706433
30
0
0
SPLINE
5
166
100
AcDbEntity
8
1
62
256
6
ByLayer
370
18
48
1
60
0
100
AcDbSpline
70
4
71
3
72
18
73
14
40
0
40
0
40
0
40
0
40
0.239220042907532
40
0.239220042907532
40
0.478440085815065
40
0.478440085815065
40
0.598050107268818
40
0.598050107268818
40
0.717660128722571
40
0.717660128722571
40
0.956880171630079
40
0.956880171630079
40
1
40
1
40
1
40
1
41
1
10
22.4738603126149
20
-1.13103211452653
30
0
41
1
10
22.5148684615957
20
-1.11862524891427
30
0
41
1
10
22.5557718484666
20
-1.10520444537184
30
0
41
1
10
22.6373540079687
20
-1.07634973171184
30
0
41
1
10
22.6779862590757
20
-1.06088056606941
30
0
41
1
10
22.738993856766
20
-1.03632720265767
30
0
41
1
10
22.7593720832586
20
-1.02794380102199
30
0
41
1
10
22.7999787993029
20
-1.01060484760126
30
0
41
1
10
22.8201876713824
20
-1.00163100204318
30
0
41
1
10
22.8809424681779
20
-0.974108349357834
30
0
41
1
10
22.9215505792687
20
-0.954914790367184
30
0
41
1
10
22.9695723754443
20
-0.931255250725599
30
0
41
1
10
22.9769086789868
20
-0.927613998503006
30
0
41
1
10
22.9842472777949
20
-0.923944799690048
30
0
0
SPLINE
5
167
100
AcDbEntity
8
1
62
256
6
ByLayer
370
18
48
1
60
0
100
AcDbSpline
70
4
71
3
72
8
73
4
40
0
40
0
40
0
40
0
40
1
40
1
40
1
40
1
41
1
10
26.7593041596113
20
1.47711107780006
30
0
41
1
10
26.7778369799338
20
1.50891810497106
30
0
41
1
10
26.7962927030525
20
1.54058663827851
30
0
41
1
10
26.8146665289809
20
1.57207230057807
30
0
0
SPLINE
5
168
100
AcDbEntity
8
1
62
256
6
ByLayer
370
18
48
1
60
0
100
AcDbSpline
70
4
71
3
72
10
73
6
40
0
40
0
40
0
40
0
40
0.209092894185026
40
0.209092894185026
40
1
40
1
40
1
40
1
41
1
10
27.0273687612874
20
1.614799429155
30
0
41
1
10
27.0342018583817
20
1.61576581256611
30
0
41
1
10
27.0410328909703
20
1.61669176790753
30
0
41
1
10
27.0736914290479
20
1.6209254489859
30
0
41
1
10
27.099406245653
20
1.62367595687405
30
0
41
1
10
27.1251508790853
20
1.62583325484573
30
0
0
SPLINE
5
169
100
AcDbEntity
8
1
62
256
6
ByLayer
370
18
48
1
60
0
100
AcDbSpline
70
4
71
3
72
8
73
4
40
0
40
0
40
0
40
0
40
1
40
1
40
1
40
1
41
1
10
27.2959321060674
20
1.33741378966764
30
0
41
1
10
27.3010892006174
20
1.32843754699311
30
0
41
1
10
27.3062559494175
20
1.31942531707895
30
0
41
1
10
27.3114329715484
20
1.3103771453136
30
0
0
SPLINE
5
16A
100
AcDbEntity
8
1
62
256
6
ByLayer
370
18
48
1
60
0
100
AcDbSpline
70
4
71
3
72
28
73
24
40
0
40
0
40
0
40
0
40
0.125
40
0.125
40
0.25
40
0.25
40
0.375
40
0.375
40
0.5
40
0.5
40
0.625
40
0.625
40
0.6875
40
0.6875
40
0.75
40
0.75
40
0.8125
40
0.8125
40
0.875
40
0.875
40
0.9375
40
0.9375
40
1
40
1
40
1
40
1
41
1
10
27.3114329715484
20
1.3103771453136
30
0
41
1
10
27.3174272794333
20
1.2999005574249
30
0
41
1
10
27.3243648152999
20
1.29058843745503
30
0
41
1
10
27.3396719929808
20
1.2737008161138
30
0
41
1
10
27.3481196030708
20
1.26610488502845
30
0
41
1
10
27.3657015100806
20
1.25296521152396
30
0
41
1
10
27.374891319108
20
1.24734718424088
30
0
41
1
10
27.3939973516279
20
1.23791429782767
30
0
41
1
10
27.4040036510419
20
1.23408594928492
30
0
41
1
10
27.4240928683333
20
1.22859642464346
30
0
41
1
10
27.4342202330021
20
1.22689217893432
30
0
41
1
10
27.4494999441089
20
1.22608812889641
30
0
41
1
10
27.4546081078168
20
1.22611496153695
30
0
41
1
10
27.464847958527
20
1.22683814662548
30
0
41
1
10
27.469968120815
20
1.22753870725364
30
0
41
1
10
27.4799683362648
20
1.22966012979447
30
0
41
1
10
27.4848782022751
20
1.23108134201036
30
0
41
1
10
27.4944845696201
20
1.23474846480136
30
0
41
1
10
27.4992172913169
20
1.23701653210304
30
0
41
1
10
27.5082111626199
20
1.24243490996946
30
0
41
1
10
27.5124694642159
20
1.24557280802441
30
0
41
1
10
27.5204332039028
20
1.25284239058706
30
0
41
1
10
27.5241612805838
20
1.25700916624982
30
0
41
1
10
27.5274601862805
20
1.26167359690368
30
0
0
SPLINE
5
16B
100
AcDbEntity
8
1
62
256
6
ByLayer
370
18
48
1
60
0
100
AcDbSpline
70
4
71
3
72
14
73
10
40
0
40
0
40
0
40
0
40
0.25
40
0.25
40
0.5
40
0.5
40
0.75
40
0.75
40
1
40
1
40
1
40
1
41
1
10
27.5274601862805
20
1.26167359690373
30
0
41
1
10
27.5468511216735
20
1.28909107462886
30
0
41
1
10
27.566155509883
20
1.31584352989839
30
0
41
1
10
27.6046237823768
20
1.36800645456444
30
0
41
1
10
27.6237879100105
20
1.39341820702734
30
0
41
1
10
27.6618988982316
20
1.44278100643379
30
0
41
1
10
27.6808779451384
20
1.46677389896607
30
0
41
1
10
27.7185989233689
20
1.51328494810963
30
0
41
1
10
27.7373409427699
20
1.53580480865824
30
0
41
1
10
27.7559860375519
20
1.55759982943104
30
0
0
SPLINE
5
16C
100
AcDbEntity
8
1
62
256
6
ByLayer
370
18
48
1
60
0
100
AcDbSpline
70
4
71
3
72
8
73
4
40
0
40
0
40
0
40
0
40
1
40
1
40
1
40
1
41
1
10
27.7559860375516
20
1.55759982944346
30
0
41
1
10
27.8086676399793
20
1.54153081128874
30
0
41
1
10
27.8613868506735
20
1.52291737422215
30
0
41
1
10
27.9141789699031
20
1.50168965316675
30
0
0
SPLINE
5
16D
100
AcDbEntity
8
1
62
256
6
ByLayer
370
18
48
1
60
0
100
AcDbSpline
70
4
71
3
72
12
73
8
40
0
40
0
40
0
40
0
40
0.25
40
0.25
40
0.5
40
0.5
40
1
40
1
40
1
40
1
41
1
10
27.9141789699031
20
1.50168965316678
30
0
41
1
10
27.9350855784398
20
1.4593520885343
30
0
41
1
10
27.9561144355523
20
1.41687245641572
30
0
41
1
10
27.9984842601888
20
1.33165887255544
30
0
41
1
10
28.0198543581523
20
1.28886767826998
30
0
41
1
10
28.08428768046
20
1.16064946524651
30
0
41
1
10
28.1276340040075
20
1.07539792623555
30
0
41
1
10
28.1717322645953
20
0.990559481592697
30
0
0
SPLINE
5
16E
100
AcDbEntity
8
1
62
256
6
ByLayer
370
18
48
1
60
0
100
AcDbSpline
70
4
71
3
72
28
73
24
40
0
40
0
40
0
40
0
40
0.125
40
0.125
40
0.25
40
0.25
40
0.375
40
0.375
40
0.5
40
0.5
40
0.625
40
0.625
40
0.6875
40
0.6875
40
0.75
40
0.75
40
0.8125
40
0.8125
40
0.875
40
0.875
40
0.9375
40
0.9375
40
1
40
1
40
1
40
1
41
1
10
29.032063834847
20
0.401836276721781
30
0
41
1
10
29.0380769068209
20
0.392394513401513
30
0
41
1
10
29.0450397681158
20
0.382985221624523
30
0
41
1
10
29.060403999614
20
0.364242471737555
30
0
41
1
10
29.0688845049673
20
0.354846779599029
30
0
41
1
10
29.0865239821197
20
0.336732059894814
30
0
41
1
10
29.0957395331852
20
0.327937526540808
30
0
41
1
10
29.1148888422086
20
0.310811223421979
30
0
41
1
10
29.1249104771941
20
0.302419698465286
30
0
41
1
10
29.1450088408731
20
0.286618740920716
30
0
41
1
10
29.1551348944061
20
0.279154925387445
30
0
41
1
10
29.1704040596775
20
0.268636513208492
30
0
41
1
10
29.1755073273545
20
0.265244439390415
30
0
41
1
10
29.1857345268202
20
0.258707543440551
30
0
41
1
10
29.1908351553392
20
0.255578769678209
30
0
41
1
10
29.2008026010271
20
0.249739172438666
30
0
41
1
10
29.2056962157656
20
0.247010617305449
30
0
41
1
10
29.2152706007026
20
0.241983732911052
30
0
41
1
10
29.2199871353139
20
0.239669353480821
30
0
41
1
10
29.2289472570224
20
0.235659643192463
30
0
41
1
10
29.2331909095147
20
0.233961050377815
30
0
41
1
10
29.2411302811215
20
0.2312753138105
30
0
41
1
10
29.2448487337095
20
0.230285256411349
30
0
41
1
10
29.2481429823418
20
0.229756933294425
30
0
0
SPLINE
5
16F
100
AcDbEntity
8
1
62
256
6
ByLayer
370
18
48
1
60
0
100
AcDbSpline
70
4
71
3
72
12
73
8
40
0
40
0
40
0
40
0
40
0.5
40
0.5
40
0.75
40
0.75
40
1
40
1
40
1
40
1
41
1
10
29.2481429823417
20
0.229756933294567
30
0
41
1
10
29.2949778838459
20
0.222245672334964
30
0
41
1
10
29.3413609747267
20
0.207878762669878
30
0
41
1
10
29.4101590815808
20
0.177177261100667
30
0
41
1
10
29.432951708196
20
0.165409490049683
30
0
41
1
10
29.4781860668729
20
0.138982691193434
30
0
41
1
10
29.5006495823294
20
0.124313989633265
30
0
41
1
10
29.5229962812454
20
0.108225773661871
30
0
0
SPLINE
5
170
100
AcDbEntity
8
1
62
256
6
ByLayer
370
18
48
1
60
0
100
AcDbSpline
70
4
71
3
72
14
73
10
40
0
40
0
40
0
40
0
40
0.25
40
0.25
40
0.5
40
0.5
40
0.75
40
0.75
40
1
40
1
40
1
40
1
41
1
10
29.600748316745
20
0.0230156395705876
30
0
41
1
10
29.6243771825538
20
-0.0096251118465318
30
0
41
1
10
29.6481416584012
20
-0.0408326845097804
30
0
41
1
10
29.6960327715611
20
-0.10031514960653
30
0
41
1
10
29.7201724735672
20
-0.128571946233109
30
0
41
1
10
29.768837573336
20
-0.182197513328475
30
0
41
1
10
29.7932617190708
20
-0.207495160192764
30
0
41
1
10
29.8425140564756
20
-0.254508317864037
30
0
41
1
10
29.8673623196681
20
-0.276151361259934
30
0
41
1
10
29.8924574238143
20
-0.296020450287273
30
0
0
SPLINE
5
171
100
AcDbEntity
8
1
62
256
6
ByLayer
370
18
48
1
60
0
100
AcDbSpline
70
4
71
3
72
28
73
24
40
0
40
0
40
0
40
0
40
0.125
40
0.125
40
0.25
40
0.25
40
0.375
40
0.375
40
0.499999999999999
40
0.499999999999999
40
0.624999999999999
40
0.624999999999999
40
0.687499999999999
40
0.687499999999999
40
0.749999999999999
40
0.749999999999999
40
0.8125
40
0.8125
40
0.875
40
0.875
40
0.9375
40
0.9375
40
1
40
1
40
1
40
1
41
1
10
29.8924574238143
20
-0.296020450287301
30
0
41
1
10
29.8984718118303
20
-0.300782351662093
30
0
41
1
10
29.905435710066
20
-0.30619214652026
30
0
41
1
10
29.9207987992311
20
-0.317941369779902
30
0
41
1
10
29.9292772393869
20
-0.324340221911029
30
0
41
1
10
29.9469116143595
20
-0.337560018088396
30
0
41
1
10
29.9561238069629
20
-0.344423898510712
30
0
41
1
10
29.9752641492904
20
-0.358670558849212
30
0
41
1
10
29.9852811492485
20
-0.366116442024037
30
0
41
1
10
30.0053750203713
20
-0.381137722005576
30
0
41
1
10
30.0154988222652
20
-0.38874828766231
30
0
41
1
10
30.0307645983418
20
-0.400396779364172
30
0
41
1
10
30.0358667220518
20
-0.404318685236575
30
0
41
1
10
30.0460916789368
20
-0.412264326911526
30
0
41
1
10
30.0511969979713
20
-0.416275471134412
30
0
41
1
10
30.061170137629
20
-0.424227408036387
30
0
41
1
10
30.0660662477298
20
-0.428190037662688
30
0
41
1
10
30.0756448027432
20
-0.436093300097156
30
0
41
1
10
30.080363061667
20
-0.440065153988371
30
0
41
1
10
30.0893299004248
20
-0.447805094943561
30
0
41
1
10
30.093575935853
20
-0.45156853714164
30
0
41
1
10
30.1015184150253
20
-0.458848048461022
30
0
41
1
10
30.1052378630244
20
-0.462387784992245
30
0
41
1
10
30.1085333768968
20
-0.465685737534756
30
0
0
SPLINE
5
172
100
AcDbEntity
8
1
62
256
6
ByLayer
370
18
48
1
60
0
100
AcDbSpline
70
4
71
3
72
12
73
8
40
0
40
0
40
0
40
0
40
0.5
40
0.5
40
0.75
40
0.75
40
1
40
1
40
1
40
1
41
1
10
30.1085333768968
20
-0.465685737534614
30
0
41
1
10
30.1554737195208
20
-0.51266081586607
30
0
41
1
10
30.201960785904
20
-0.565218293194221
30
0
41
1
10
30.2708380780589
20
-0.651300081931169
30
0
41
1
10
30.2936420469466
20
-0.681200442791777
30
0
41
1
10
30.3388715808902
20
-0.743074259419615
30
0
41
1
10
30.3613215244891
20
-0.775069307238255
30
0
41
1
10
30.3836518800535
20
-0.808041168909767
30
0
0
SPLINE
5
173
100
AcDbEntity
8
1
62
256
6
ByLayer
370
18
48
1
60
0
100
AcDbSpline
70
4
71
3
72
10
73
6
40
0
40
0
40
0
40
0
40
0.5
40
0.5
40
1
40
1
40
1
40
1
41
1
10
30.4614184306005
20
-0.883444760267054
30
0
41
1
10
30.5085207741794
20
-0.902779261752443
30
0
41
1
10
30.556188546669
20
-0.915057483411829
30
0
41
1
10
30.6534308519305
20
-0.925017242984666
30
0
41
1
10
30.7025845785572
20
-0.922651810818877
30
0
41
1
10
30.7527250906392
20
-0.912733774306218
30
0
0
SPLINE
5
174
100
AcDbEntity
8
1
62
256
6
ByLayer
370
18
48
1
60
0
100
AcDbSpline
70
4
71
3
72
28
73
24
40
0
40
0
40
0
40
0
40
0.12500000000002
40
0.12500000000002
40
0.250000000000041
40
0.250000000000041
40
0.375000000000061
40
0.375000000000061
40
0.500000000000081
40
0.500000000000081
40
0.625000000000102
40
0.625000000000102
40
0.687500000000085
40
0.687500000000085
40
0.750000000000068
40
0.750000000000068
40
0.812500000000051
40
0.812500000000051
40
0.875000000000034
40
0.875000000000034
40
0.937500000000017
40
0.937500000000017
40
1
40
1
40
1
40
1
41
1
10
30.7527250906392
20
-0.912733774306218
30
0
41
1
10
30.7587557772802
20
-0.911540875234806
30
0
41
1
10
30.7657414516522
20
-0.911511784248887
30
0
41
1
10
30.7811528396526
20
-0.913151912922672
30
0
41
1
10
30.7896579542623
20
-0.914864095724113
30
0
41
1
10
30.807336733695
20
-0.919702807389598
30
0
41
1
10
30.8165678141681
20
-0.92282867252257
30
0
41
1
10
30.8357370710591
20
-0.930441981234623
30
0
41
1
10
30.8457612453719
20
-0.934977400885288
30
0
41
1
10
30.8658523636107
20
-0.945247837916838
30
0
41
1
10
30.8759695348034
20
-0.950992328793774
30
0
41
1
10
30.8912194889775
20
-0.9606825770922
30
0
41
1
10
30.8963153820677
20
-0.964093258861482
30
0
41
1
10
30.9065262756704
20
-0.97133504638316
30
0
41
1
10
30.9116170179676
20
-0.975151972796425
30
0
41
1
10
30.921567548105
20
-0.983085802901513
30
0
41
1
10
30.9264534164722
20
-0.987220379391999
30
0
41
1
10
30.9360140479027
20
-0.995880286530962
30
0
41
1
10
30.9407243941187
20
-1.00044339496935
30
0
41
1
10
30.9496761235893
20
-1.00982942066952
30
0
41
1
10
30.9539169554675
20
-1.01464441886802
30
0
41
1
10
30.9618530332663
20
-1.0245576523682
30
0
41
1
10
30.9655712795609
20
-1.0296936658404
30
0
41
1
10
30.9688678261724
20
-1.03487345414953
30
0
0
SPLINE
5
175
100
AcDbEntity
8
1
62
256
6
ByLayer
370
18
48
1
60
0
100
AcDbSpline
70
4
71
3
72
12
73
8
40
0
40
0
40
0
40
0
40
0.499999999999991
40
0.499999999999991
40
0.749999999999995
40
0.749999999999995
40
1
40
1
40
1
40
1
41
1
10
30.9688678261753
20
-1.03487345415414
30
0
41
1
10
31.0157905721725
20
-1.10860209197227
30
0
41
1
10
31.0622542146104
20
-1.18515339042702
30
0
41
1
10
31.1311254576954
20
-1.30289767518042
30
0
41
1
10
31.1539343838164
20
-1.34261400656459
30
0
41
1
10
31.1991823456377
20
-1.42267030705295
30
0
41
1
10
31.2216428091385
20
-1.46304833751773
30
0
41
1
10
31.2439771575343
20
-1.50375129828416
30
0
0
SPLINE
5
176
100
AcDbEntity
8
1
62
256
6
ByLayer
370
18
48
1
60
0
100
AcDbSpline
70
4
71
3
72
14
73
10
40
0
40
0
40
0
40
0
40
0.25
40
0.25
40
0.5
40
0.5
40
0.75
40
0.75
40
1
40
1
40
1
40
1
41
1
10
31.3219436619146
20
-1.54866419505626
30
0
41
1
10
31.3455395547696
20
-1.53288485047793
30
0
41
1
10
31.3692572540313
20
-1.51551848711327
30
0
41
1
10
31.4169548600057
20
-1.47786023155035
30
0
41
1
10
31.4409605302307
20
-1.45748971811656
30
0
41
1
10
31.4895415520197
20
-1.41307181158581
30
0
41
1
10
31.5139955813045
20
-1.38917112841369
30
0
41
1
10
31.5632622649678
20
-1.33834847287372
30
0
41
1
10
31.588080907934
20
-1.31139903121249
30
0
41
1
10
31.6131507277788
20
-1.28289656326612
30
0
0
SPLINE
5
177
100
AcDbEntity
8
1
62
256
6
ByLayer
370
18
48
1
60
0
100
AcDbSpline
70
4
71
3
72
28
73
24
40
0
40
0
40
0
40
0
40
0.12500000000002
40
0.12500000000002
40
0.25000000000004
40
0.25000000000004
40
0.37500000000006
40
0.37500000000006
40
0.500000000000079
40
0.500000000000079
40
0.625000000000099
40
0.625000000000099
40
0.687500000000083
40
0.687500000000083
40
0.750000000000066
40
0.750000000000066
40
0.81250000000005
40
0.81250000000005
40
0.875000000000033
40
0.875000000000033
40
0.937500000000017
40
0.937500000000017
40
1
40
1
40
1
40
1
41
1
10
31.6131507277788
20
-1.28289656326612
30
0
41
1
10
31.6191737054935
20
-1.27604889821427
30
0
41
1
10
31.626150506417
20
-1.27055317629427
30
0
41
1
10
31.641544672898
20
-1.26155200383744
30
0
41
1
10
31.6500421480449
20
-1.2580588009892
30
0
41
1
10
31.6677095997939
20
-1.25308969655757
30
0
41
1
10
31.6769361634347
20
-1.25156884022286
30
0
41
1
10
31.6961032785176
20
-1.25035982835874
30
0
41
1
10
31.7061304496447
20
-1.25069251811104
30
0
41
1
10
31.7262285191075
20
-1.2533057616686
30
0
41
1
10
31.7363507429277
20
-1.25556584053592
30
0
41
1
10
31.7516086636666
20
-1.2605857152632
30
0
41
1
10
31.7567072877392
20
-1.26253321813076
30
0
41
1
10
31.7669239340319
20
-1.26705633123134
30
0
41
1
10
31.7720121206105
20
-1.26962260005894
30
0
41
1
10
31.7819576768888
20
-1.2753414697255
30
0
41
1
10
31.786839947506
20
-1.27850389382806
30
0
41
1
10
31.7963908069384
20
-1.28552490114052
30
0
41
1
10
31.8010948374654
20
-1.28941764061673
30
0
41
1
10
31.8100298120004
20
-1.29785307912121
30
0
41
1
10
31.8142615620237
20
-1.30238610418527
30
0
41
1
10
31.8221797640882
20
-1.31218277792814
30
0
41
1
10
31.8258890972153
20
-1.31748762813018
30
0
41
1
10
31.8291788692887
20
-1.32310738577871
30
0
0
SPLINE
5
178
100
AcDbEntity
8
1
62
256
6
ByLayer
370
18
48
1
60
0
100
AcDbSpline
70
4
71
3
72
14
73
10
40
0
40
0
40
0
40
0
40
0.25
40
0.25
40
0.5
40
0.5
40
0.75
40
0.75
40
1
40
1
40
1
40
1
41
1
10
31.8291788692887
20
-1.32310738577868
30
0
41
1
10
31.8526740355246
20
-1.36324303566781
30
0
41
1
10
31.8760311237474
20
-1.40318812381418
30
0
41
1
10
31.9225326814117
20
-1.48266392205406
30
0
41
1
10
31.9456367050758
20
-1.52212484814879
30
0
41
1
10
31.9915633945405
20
-1.60036253129954
30
0
41
1
10
32.0143741501099
20
-1.63911890340944
30
0
41
1
10
32.0596303122105
20
-1.71565866483394
30
0
41
1
10
32.0820971575323
20
-1.75347861208809
30
0
41
1
10
32.1044423473855
20
-1.7908440514737
30
0
0
SPLINE
5
179
100
AcDbEntity
8
1
62
256
6
ByLayer
370
18
48
1
60
0
100
AcDbSpline
70
4
71
3
72
10
73
6
40
0
40
0
40
0
40
0
40
0.5
40
0.5
40
1
40
1
40
1
40
1
41
1
10
32.182108084289
20
-1.79289238462044
30
0
41
1
10
32.2292682365332
20
-1.71910225334739
30
0
41
1
10
32.2770302913784
20
-1.641318574965
30
0
41
1
10
32.3743263455409
20
-1.47799019556706
30
0
41
1
10
32.4234046351907
20
-1.39316566997977
30
0
41
1
10
32.4734608427018
20
-1.3051606566483
30
0
0
SPLINE
5
17A
100
AcDbEntity
8
1
62
256
6
ByLayer
370
18
48
1
60
0
100
AcDbSpline
70
4
71
3
72
28
73
24
40
0
40
0
40
0
40
0
40
0.12499999999998
40
0.12499999999998
40
0.24999999999996
40
0.24999999999996
40
0.374999999999939
40
0.374999999999939
40
0.499999999999919
40
0.499999999999919
40
0.624999999999899
40
0.624999999999899
40
0.687499999999916
40
0.687499999999916
40
0.749999999999933
40
0.749999999999933
40
0.81249999999995
40
0.81249999999995
40
0.874999999999966
40
0.874999999999966
40
0.937499999999983
40
0.937499999999983
40
1
40
1
40
1
40
1
41
1
10
32.4734608427018
20
-1.3051606566483
30
0
41
1
10
32.4794936640677
20
-1.29455420939564
30
0
41
1
10
32.4864808463632
20
-1.28512835780347
30
0
41
1
10
32.5018924638619
20
-1.26802185802015
30
0
41
1
10
32.5103962912226
20
-1.26032050559752
30
0
41
1
10
32.5280721655109
20
-1.24698336751095
30
0
41
1
10
32.5373014398151
20
-1.24127091571052
30
0
41
1
10
32.5564711339829
20
-1.23164465257713
30
0
41
1
10
32.5664987040434
20
-1.22771880355396
30
0
41
1
10
32.586600914819
20
-1.22202249116813
30
0
41
1
10
32.5967250926943
20
-1.22020719512719
30
0
41
1
10
32.611984741782
20
-1.21921529624547
30
0
41
1
10
32.6170837204631
20
-1.21917597800132
30
0
41
1
10
32.6273001324207
20
-1.21975766153165
30
0
41
1
10
32.6323938451063
20
-1.22038137810966
30
0
41
1
10
32.6423465579845
20
-1.22233768449638
30
0
41
1
10
32.6472320734771
20
-1.2236704637566
30
0
41
1
10
32.6567885222426
20
-1.22714545855973
30
0
41
1
10
32.6614948098746
20
-1.22930852111099
30
0
41
1
10
32.6704404119813
20
-1.23450291697245
30
0
41
1
10
32.6746766590206
20
-1.23752246229793
30
0
41
1
10
32.6826020696974
20
-1.24453995942031
30
0
41
1
10
32.6863145726321
20
-1.24857141353303
30
0
41
1
10
32.6896088382982
20
-1.25310471385453
30
0
0
SPLINE
5
17B
100
AcDbEntity
8
1
62
256
6
ByLayer
370
18
48
1
60
0
100
AcDbSpline
70
4
71
3
72
12
73
8
40
0
40
0
40
0
40
0
40
0.5
40
0.5
40
0.75
40
0.75
40
1
40
1
40
1
40
1
41
1
10
32.6896088382982
20
-1.25310471385456
30
0
41
1
10
32.7366246803115
20
-1.317804089471
30
0
41
1
10
32.7831626963004
20
-1.37852079755299
30
0
41
1
10
32.8521215001484
20
-1.46310057635623
30
0
41
1
10
32.8749548547661
20
-1.49019653956694
30
0
41
1
10
32.9202455936718
20
-1.54204918211065
30
0
41
1
10
32.9427246881002
20
-1.56683161401696
30
0
41
1
10
32.9650752975194
20
-1.59047544829835
30
0
0
SPLINE
5
17C
100
AcDbEntity
8
1
62
256
6
ByLayer
370
18
48
1
60
0
100
AcDbSpline
70
4
71
3
72
8
73
4
40
0
40
0
40
0
40
0
40
1
40
1
40
1
40
1
41
1
10
33.0430887056667
20
-1.54897067897355
30
0
41
1
10
33.0170554320008
20
-1.56342716183889
30
0
41
1
10
32.991061014387
20
-1.57726463045117
30
0
41
1
10
32.9650752975194
20
-1.59047544829832
30
0
0
SPLINE
5
17D
100
AcDbEntity
8
1
62
256
6
ByLayer
370
18
48
1
60
0
100
AcDbSpline
70
4
71
3
72
10
73
6
40
0
40
0
40
0
40
0
40
0.5
40
0.5
40
1
40
1
40
1
40
1
41
1
10
33.0430887056662
20
-1.54897067897329
30
0
41
1
10
33.0901457635471
20
-1.45332653931803
30
0
41
1
10
33.1377257092244
20
-1.35710119297434
30
0
41
1
10
33.2347934204428
20
-1.16408729053293
30
0
41
1
10
33.283818268037
20
-1.06813261420532
30
0
41
1
10
33.3338703035861
20
-0.973016556798399
30
0
0
SPLINE
5
17E
100
AcDbEntity
8
1
62
256
6
ByLayer
370
18
48
1
60
0
100
AcDbSpline
70
4
71
3
72
26
73
22
40
0
40
0
40
0
40
0
40
0.0807596771659143
40
0.0807596771659143
40
0.233966397638305
40
0.233966397638305
40
0.310569757874499
40
0.310569757874499
40
0.387173118110694
40
0.387173118110694
40
0.540379838583021
40
0.540379838583021
40
0.693586559055347
40
0.693586559055347
40
0.770189919291511
40
0.770189919291511
40
0.846793279527674
40
0.846793279527674
40
0.923396639763837
40
0.923396639763837
40
1
40
1
40
1
40
1
41
1
10
34.1826954350252
20
-1.29107949263493
30
0
41
1
10
34.1784303330361
20
-1.28734035212284
30
0
41
1
10
34.1740035075482
20
-1.28384944551468
30
0
41
1
10
34.1608758768689
20
-1.2745191835354
30
0
41
1
10
34.1518534124285
20
-1.26931874016677
30
0
41
1
10
34.1377211233931
20
-1.26284778908086
30
0
41
1
10
34.1329096062225
20
-1.26091472392693
30
0
41
1
10
34.1230814694616
20
-1.25751953588085
30
0
41
1
10
34.1180705492091
20
-1.25606231840908
30
0
41
1
10
34.1029904964532
20
-1.25250831663899
30
0
41
1
10
34.0927925040196
20
-1.25118391845285
30
0
41
1
10
34.0721341393351
20
-1.25097221050117
30
0
41
1
10
34.0615945804164
20
-1.25211879597555
30
0
41
1
10
34.0463269571803
20
-1.25613553776074
30
0
41
1
10
34.0413042300747
20
-1.25785676382253
30
0
41
1
10
34.031424093273
20
-1.26220363626953
30
0
41
1
10
34.0265710007882
20
-1.26483779113181
30
0
41
1
10
34.0173879728382
20
-1.27100193750417
30
0
41
1
10
34.0130185957107
20
-1.27454463879951
30
0
41
1
10
34.0048146427064
20
-1.28273975179289
30
0
41
1
10
34.0010412729093
20
-1.28734139740587
30
0
41
1
10
33.997712836524
20
-1.2924420131759
30
0
0
SPLINE
5
17F
100
AcDbEntity
8
1
62
256
6
ByLayer
370
18
48
1
60
0
100
AcDbSpline
70
4
71
3
72
10
73
6
40
0
40
0
40
0
40
0
40
0.5
40
0.5
40
1
40
1
40
1
40
1
41
1
10
33.9977128365215
20
-1.29244201317979
30
0
41
1
10
33.9513306307471
20
-1.3635197754873
30
0
41
1
10
33.9054133856637
20
-1.43124857420946
30
0
41
1
10
33.8140996454721
20
-1.5602983408701
30
0
41
1
10
33.7691572142332
20
-1.6209747803066
30
0
41
1
10
33.7246358575837
20
-1.67795024667785
30
0
0
SPLINE
5
180
100
AcDbEntity
8
1
62
256
6
ByLayer
370
18
48
1
60
0
100
AcDbSpline
70
4
71
3
72
8
73
4
40
0
40
0
40
0
40
0
40
1
40
1
40
1
40
1
41
1
10
33.6465541223479
20
-1.64577095051496
30
0
41
1
10
33.672572560652
20
-1.65712774590611
30
0
41
1
10
33.6985943599838
20
-1.66785658335615
30
0
41
1
10
33.7246358575837
20
-1.67795024667782
30
0
0
SPLINE
5
181
100
AcDbEntity
8
1
62
256
6
ByLayer
370
18
48
1
60
0
100
AcDbSpline
70
4
71
3
72
10
73
6
40
0
40
0
40
0
40
0
40
0.5
40
0.5
40
1
40
1
40
1
40
1
41
1
10
33.6465541223481
20
-1.64577095051493
30
0
41
1
10
33.5989134235624
20
-1.55018811906098
30
0
41
1
10
33.5507956547314
20
-1.45280845437227
30
0
41
1
10
33.4528726696185
20
-1.25487323836933
30
0
41
1
10
33.4035139788835
20
-1.15519055050839
30
0
41
1
10
33.3532958345371
20
-1.05498460275885
30
0
0
SPLINE
5
182
100
AcDbEntity
8
1
62
256
6
ByLayer
370
18
48
1
60
0
100
AcDbSpline
70
4
71
3
72
28
73
24
40
0
40
0
40
0
40
0
40
0.125000000000031
40
0.125000000000031
40
0.250000000000062
40
0.250000000000062
40
0.375000000000093
40
0.375000000000093
40
0.437500000000084
40
0.437500000000084
40
0.500000000000075
40
0.500000000000075
40
0.625000000000056
40
0.625000000000056
40
0.750000000000038
40
0.750000000000038
40
0.812500000000028
40
0.812500000000028
40
0.875000000000019
40
0.875000000000019
40
0.93750000000001
40
0.93750000000001
40
1
40
1
40
1
40
1
41
1
10
33.3532958345362
20
-1.05498460275734
30
0
41
1
10
33.3474388959816
20
-1.04329759029579
30
0
41
1
10
33.3406816995006
20
-1.03234808678567
30
0
41
1
10
33.3257711698166
20
-1.01158501335368
30
0
41
1
10
33.3175519164639
20
-1.00173220454275
30
0
41
1
10
33.3003683341463
20
-0.983647793562369
30
0
41
1
10
33.2913536606062
20
-0.975335862058472
30
0
41
1
10
33.2772377343479
20
-0.963919582306232
30
0
41
1
10
33.2724325488297
20
-0.960291173984331
30
0
41
1
10
33.2626183688348
20
-0.953402690571153
30
0
41
1
10
33.2576127463409
20
-0.950147826394812
30
0
41
1
10
33.2425472824205
20
-0.941126852709317
30
0
41
1
10
33.2323569698683
20
-0.936031487499861
30
0
41
1
10
33.2117046520922
20
-0.927942641493104
30
0
41
1
10
33.2011605737163
20
-0.924948380091223
30
0
41
1
10
33.1858755652626
20
-0.922681612324538
30
0
41
1
10
33.1808457609317
20
-0.922287252535085
30
0
41
1
10
33.1709491707384
20
-0.922348098863409
30
0
41
1
10
33.1660865545716
20
-0.922812279114652
30
0
41
1
10
33.1568843066516
20
-0.924712330806699
30
0
41
1
10
33.1525050393545
20
-0.926144303271343
30
0
41
1
10
33.1442816606351
20
-0.930169757671621
30
0
41
1
10
33.1405016702084
20
-0.932740586724378
30
0
41
1
10
33.1371672497064
20
-0.935913037344932
30
0
0
SPLINE
5
183
100
AcDbEntity
8
1
62
256
6
ByLayer
370
18
48
1
60
0
100
AcDbSpline
70
4
71
3
72
10
73
6
40
0
40
0
40
0
40
0
40
0.5
40
0.5
40
1
40
1
40
1
40
1
41
1
10
33.1371672497049
20
-0.935913037346268
30
0
41
1
10
33.0907089840746
20
-0.980114587075605
30
0
41
1
10
33.0447160653814
20
-1.01837277311492
30
0
41
1
10
32.9532888756217
20
-1.08344316435867
30
0
41
1
10
32.9083157131265
20
-1.10994926207104
30
0
41
1
10
32.8637789197451
20
-1.13087678386074
30
0
0
SPLINE
5
184
100
AcDbEntity
8
1
62
256
6
ByLayer
370
18
48
1
60
0
100
AcDbSpline
70
4
71
3
72
8
73
4
40
0
40
0
40
0
40
0
40
1
40
1
40
1
40
1
41
1
10
32.7862233897221
20
-1.06340782856461
30
0
41
1
10
32.8120669423687
20
-1.08629989711383
30
0
41
1
10
32.8379134312396
20
-1.10879377989923
30
0
41
1
10
32.8637789197451
20
-1.13087678386071
30
0
0
SPLINE
5
185
100
AcDbEntity
8
1
62
256
6
ByLayer
370
18
48
1
60
0
100
AcDbSpline
70
4
71
3
72
10
73
6
40
0
40
0
40
0
40
0
40
0.5
40
0.5
40
1
40
1
40
1
40
1
41
1
10
32.7862233897221
20
-1.06340782856461
30
0
41
1
10
32.7385926204009
20
-0.963719602508661
30
0
41
1
10
32.6904758847673
20
-0.86604796961339
30
0
41
1
10
32.592528036473
20
-0.675472666942653
30
0
41
1
10
32.5431248707526
20
-0.583405951094619
30
0
41
1
10
32.4928555027901
20
-0.494953775809392
30
0
0
SPLINE
5
186
100
AcDbEntity
8
1
62
256
6
ByLayer
370
18
48
1
60
0
100
AcDbSpline
70
4
71
3
72
28
73
24
40
0
40
0
40
0
40
0
40
0.12500000000007
40
0.12500000000007
40
0.25000000000014
40
0.25000000000014
40
0.37500000000021
40
0.37500000000021
40
0.43750000000022
40
0.43750000000022
40
0.500000000000231
40
0.500000000000231
40
0.625000000000199
40
0.625000000000199
40
0.750000000000168
40
0.750000000000168
40
0.812500000000126
40
0.812500000000126
40
0.875000000000084
40
0.875000000000084
40
0.937500000000042
40
0.937500000000042
40
1
40
1
40
1
40
1
41
1
10
32.4928555027901
20
-0.494953775809364
30
0
41
1
10
32.4869926902999
20
-0.484637781416268
30
0
41
1
10
32.4802267508639
20
-0.474497611783136
30
0
41
1
10
32.4652943072717
20
-0.454508661656263
30
0
41
1
10
32.4570614696598
20
-0.444606842616196
30
0
41
1
10
32.4398528212234
20
-0.4256616786748
30
0
41
1
10
32.4308266398864
20
-0.416543629005219
30
0
41
1
10
32.4166973383292
20
-0.403357336279981
30
0
41
1
10
32.4118883323266
20
-0.399044423909203
30
0
41
1
10
32.4020683374658
20
-0.390585184653418
30
0
41
1
10
32.3970609111506
20
-0.386443775442729
30
0
41
1
10
32.3819930237186
20
-0.374485749174141
30
0
41
1
10
32.371804961863
20
-0.367055878090412
30
0
41
1
10
32.35116766364
20
-0.353379704240382
30
0
41
1
10
32.3406350553746
20
-0.347096995516608
30
0
41
1
10
32.3253699818201
20
-0.339196563222401
30
0
41
1
10
32.3203476343307
20
-0.336801478506459
30
0
41
1
10
32.310467221563
20
-0.332566350900521
30
0
41
1
10
32.3056109696083
20
-0.330732164794654
30
0
41
1
10
32.2964213355
20
-0.327838176777192
30
0
41
1
10
32.2920483646867
20
-0.326758897848407
30
0
41
1
10
32.2838369235148
20
-0.325487295118307
30
0
41
1
10
32.2800587819452
20
-0.325309747962621
30
0
41
1
10
32.2767268693933
20
-0.325668832981421
30
0
0
SPLINE
5
187
100
AcDbEntity
8
1
62
256
6
ByLayer
370
18
48
1
60
0
100
AcDbSpline
70
4
71
3
72
10
73
6
40
0
40
0
40
0
40
0
40
0.5
40
0.5
40
1
40
1
40
1
40
1
41
1
10
32.2767268693908
20
-0.325668832981449
30
0
41
1
10
32.2302869732952
20
-0.3306737275324
30
0
41
1
10
32.1843091111879
20
-0.328689389884033
30
0
41
1
10
32.0928871006609
20
-0.311717946578227
30
0
41
1
10
32.0478948022516
20
-0.296824648304892
30
0
41
1
10
32.0033381977309
20
-0.275930561773578
30
0
0
SPLINE
5
188
100
AcDbEntity
8
1
62
256
6
ByLayer
370
18
48
1
60
0
100
AcDbSpline
70
4
71
3
72
10
73
6
40
0
40
0
40
0
40
0
40
0.5
40
0.5
40
1
40
1
40
1
40
1
41
1
10
31.9255946225795
20
-0.191137441653382
30
0
41
1
10
31.877952275026
20
-0.114493907167372
30
0
41
1
10
31.8298159928967
20
-0.0431691956376596
30
0
41
1
10
31.7319188903369
20
0.0881187246112063
30
0
41
1
10
31.6825898728861
20
0.14752446945775
30
0
41
1
10
31.6323846851967
20
0.200281893951711
30
0
0
SPLINE
5
189
100
AcDbEntity
8
1
62
256
6
ByLayer
370
18
48
1
60
0
100
AcDbSpline
70
4
71
3
72
28
73
24
40
0
40
0
40
0
40
0
40
0.124999999999987
40
0.124999999999987
40
0.249999999999973
40
0.249999999999973
40
0.37499999999996
40
0.37499999999996
40
0.437499999999953
40
0.437499999999953
40
0.499999999999946
40
0.499999999999946
40
0.624999999999933
40
0.624999999999933
40
0.74999999999992
40
0.74999999999992
40
0.81249999999994
40
0.81249999999994
40
0.87499999999996
40
0.87499999999996
40
0.93749999999998
40
0.93749999999998
40
1
40
1
40
1
40
1
41
1
10
31.6323846851968
20
0.200281893951683
30
0
41
1
10
31.6265275995598
20
0.20643673108043
30
0
41
1
10
31.619769804938
20
0.213030513207883
30
0
41
1
10
31.6048550005941
20
0.226855208411109
30
0
41
1
10
31.5966318589971
20
0.234138525010735
30
0
41
1
10
31.5794387209562
20
0.248841882744955
30
0
41
1
10
31.5704184374256
20
0.256310820512255
30
0
41
1
10
31.5562931997475
20
0.267713640826344
30
0
41
1
10
31.5514847504932
20
0.271548327818863
30
0
41
1
10
31.5416638965342
20
0.279296134229213
30
0
41
1
10
31.5366559612348
20
0.283205312333081
30
0
41
1
10
31.5215839521511
20
0.294865773400801
30
0
41
1
10
31.5113897549762
20
0.302614821236546
30
0
41
1
10
31.4907324161442
20
0.318150784482015
30
0
41
1
10
31.4801885171531
20
0.325995918466731
30
0
41
1
10
31.4649104182662
20
0.337340132796868
30
0
41
1
10
31.4598837909168
20
0.341068808720706
30
0
41
1
10
31.4499954311198
20
0.348413137510391
30
0
41
1
10
31.4451373519415
20
0.352026441944361
30
0
41
1
10
31.4359445385023
20
0.35888611690595
30
0
41
1
10
31.431570252565
20
0.362161901735874
30
0
41
1
10
31.423356544612
20
0.368341369600415
30
0
41
1
10
31.4195783287584
20
0.371199088226803
30
0
41
1
10
31.4162458216957
20
0.373732480841369
30
0
0
SPLINE
5
18A
100
AcDbEntity
8
1
62
256
6
ByLayer
370
18
48
1
60
0
100
AcDbSpline
70
4
71
3
72
10
73
6
40
0
40
0
40
0
40
0
40
0.5
40
0.5
40
1
40
1
40
1
40
1
41
1
10
31.4162458216928
20
0.373732480843813
30
0
41
1
10
31.3697733918845
20
0.40906111128416
30
0
41
1
10
31.32377499631
20
0.450541682527415
30
0
41
1
10
31.2323369901841
20
0.544898932837754
30
0
41
1
10
31.1873508986981
20
0.597243553673479
30
0
41
1
10
31.1427991965832
20
0.654270240307397
30
0
0
SPLINE
5
18B
100
AcDbEntity
8
1
62
256
6
ByLayer
370
18
48
1
60
0
100
AcDbSpline
70
4
71
3
72
10
73
6
40
0
40
0
40
0
40
0
40
0.5
40
0.5
40
1
40
1
40
1
40
1
41
1
10
31.0648210763745
20
0.733366815869488
30
0
41
1
10
31.01721882597
20
0.766033591606657
30
0
41
1
10
30.9691765284771
20
0.791616205835709
30
0
41
1
10
30.871388180519
20
0.827746848106472
30
0
41
1
10
30.8220645294679
20
0.838120544665173
30
0
41
1
10
30.7718698789471
20
0.840649440325819
30
0
0
SPLINE
5
18C
100
AcDbEntity
8
1
62
256
6
ByLayer
370
18
48
1
60
0
100
AcDbSpline
70
4
71
3
72
28
73
24
40
0
40
0
40
0
40
0
40
0.12499999999997
40
0.12499999999997
40
0.249999999999939
40
0.249999999999939
40
0.374999999999908
40
0.374999999999908
40
0.437499999999917
40
0.437499999999917
40
0.499999999999926
40
0.499999999999926
40
0.624999999999945
40
0.624999999999945
40
0.749999999999963
40
0.749999999999963
40
0.812499999999972
40
0.812499999999972
40
0.874999999999982
40
0.874999999999982
40
0.937499999999991
40
0.937499999999991
40
1
40
1
40
1
40
1
41
1
10
30.7718698789457
20
0.840649440328207
30
0
41
1
10
30.7660090675986
20
0.840944718415983
30
0
41
1
10
30.7592452355997
20
0.842175633937671
30
0
41
1
10
30.7443148155924
20
0.846035695441742
30
0
41
1
10
30.7360817001489
20
0.84870266246989
30
0
41
1
10
30.7188706656588
20
0.855143184679747
30
0
41
1
10
30.709842131854
20
0.858926384932602
30
0
41
1
10
30.6957074370644
20
0.865447439977316
30
0
41
1
10
30.6908963229417
20
0.867763767795594
30
0
41
1
10
30.681071459385
20
0.872702475399876
30
0
41
1
10
30.6760642418572
20
0.875322693688418
30
0
41
1
10
30.6609965224778
20
0.883539565063217
30
0
41
1
10
30.6508088571357
20
0.889524912745713
30
0
41
1
10
30.6301728613751
20
0.902759167949512
30
0
41
1
10
30.6196444419297
20
0.910075118688013
30
0
41
1
10
30.6043895107458
20
0.921842126388555
30
0
41
1
10
30.5993706897776
20
0.925911629765807
30
0
41
1
10
30.5894975806496
20
0.934408086418642
30
0
41
1
10
30.5846463217834
20
0.938837940296395
30
0
41
1
10
30.5754656168806
20
0.947833375154403
30
0
41
1
10
30.571096752245
20
0.952430571001742
30
0
41
1
10
30.562892536988
20
0.961864344615321
30
0
41
1
10
30.5591165852406
20
0.966638353071033
30
0
41
1
10
30.5557860052788
20
0.971384914449374
30
0
0
SPLINE
5
18D
100
AcDbEntity
8
1
62
256
6
ByLayer
370
18
48
1
60
0
100
AcDbSpline
70
4
71
3
72
10
73
6
40
0
40
0
40
0
40
0
40
0.5
40
0.5
40
1
40
1
40
1
40
1
41
1
10
30.5557860052788
20
0.971384914449374
30
0
41
1
10
30.5093632550539
20
1.03754409267614
30
0
41
1
10
30.4634148915883
20
1.1072369686799
30
0
41
1
10
30.3720592305534
20
1.25304516915105
30
0
41
1
10
30.3271107891941
20
1.32841887545058
30
0
41
1
10
30.2825933993326
20
1.40598166243746
30
0
0
SPLINE
5
18E
100
AcDbEntity
8
1
62
256
6
ByLayer
370
18
48
1
60
0
100
AcDbSpline
70
4
71
3
72
10
73
6
40
0
40
0
40
0
40
0
40
0.5
40
0.5
40
1
40
1
40
1
40
1
41
1
10
30.2045389117176
20
1.457638534094
30
0
41
1
10
30.1568851257143
20
1.43751563928672
30
0
41
1
10
30.1087704380346
20
1.41041466130179
30
0
41
1
10
30.0108998293088
20
1.34191216468059
30
0
41
1
10
29.9615768089672
20
1.30082684125694
30
0
41
1
10
29.9113683687794
20
1.25262296950771
30
0
0
SPLINE
5
18F
100
AcDbEntity
8
1
62
256
6
ByLayer
370
18
48
1
60
0
100
AcDbSpline
70
4
71
3
72
28
73
24
40
0
40
0
40
0
40
0
40
0.125000000000027
40
0.125000000000027
40
0.250000000000053
40
0.250000000000053
40
0.37500000000008
40
0.37500000000008
40
0.437500000000093
40
0.437500000000093
40
0.500000000000106
40
0.500000000000106
40
0.625000000000079
40
0.625000000000079
40
0.750000000000053
40
0.750000000000053
40
0.81250000000004
40
0.81250000000004
40
0.875000000000027
40
0.875000000000027
40
0.937500000000013
40
0.937500000000013
40
1
40
1
40
1
40
1
41
1
10
29.9113683687795
20
1.25262296950771
30
0
41
1
10
29.9055100116806
20
1.24699850690337
30
0
41
1
10
29.8987501146477
20
1.24254569164114
30
0
41
1
10
29.8838269539962
20
1.23540392480001
30
0
41
1
10
29.8755968925188
20
1.23272708052511
30
0
41
1
10
29.8583861589609
20
1.22913487220751
30
0
41
1
10
29.8493553522526
20
1.22818752871376
30
0
41
1
10
29.8352148168604
20
1.22802206160932
30
0
41
1
10
29.8304013740635
20
1.22817841532694
30
0
41
1
10
29.8205715977146
20
1.22893942508332
30
0
41
1
10
29.8155614235148
20
1.22954593991722
30
0
41
1
10
29.8004854160502
20
1.23204537644938
30
0
41
1
10
29.7902926153274
20
1.23460997907526
30
0
41
1
10
29.7696490625888
20
1.24187874776752
30
0
41
1
10
29.7591182852094
20
1.24664010475192
30
0
41
1
10
29.7438623196423
20
1.25557646493215
30
0
41
1
10
29.7388435514221
20
1.2588623502244
30
0
41
1
10
29.7289712829315
20
1.26616566378854
30
0
41
1
10
29.7241204586931
20
1.27019036882643
30
0
41
1
10
29.7149413449879
20
1.27884288560205
30
0
41
1
10
29.7105735927695
20
1.28349580837229
30
0
41
1
10
29.7023720961731
20
1.29358826172191
30
0
41
1
10
29.6985966814676
20
1.29896566656552
30
0
41
1
10
29.6952668142586
20
1.30462053089852
30
0
0
SPLINE
5
190
100
AcDbEntity
8
1
62
256
6
ByLayer
370
18
48
1
60
0
100
AcDbSpline
70
4
71
3
72
10
73
6
40
0
40
0
40
0
40
0
40
0.5
40
0.5
40
1
40
1
40
1
40
1
41
1
10
29.6952668142568
20
1.30462053090153
30
0
41
1
10
29.6487974926293
20
1.38353590288838
30
0
41
1
10
29.6028124462761
20
1.46247162870802
30
0
41
1
10
29.5113942518044
20
1.62013869000353
30
0
41
1
10
29.4664121238799
20
1.69807947932054
30
0
41
1
10
29.4218649736908
20
1.77504767787229
30
0
0
SPLINE
5
191
100
AcDbEntity
8
1
62
256
6
ByLayer
370
18
48
1
60
0
100
AcDbSpline
70
4
71
3
72
10
73
6
40
0
40
0
40
0
40
0
40
0.5
40
0.5
40
1
40
1
40
1
40
1
41
1
10
29.344004405488
20
1.78507318296585
30
0
41
1
10
29.2963687915613
20
1.71769914345006
30
0
41
1
10
29.2482498773241
20
1.64536014841576
30
0
41
1
10
29.1503752837918
20
1.49070756275174
30
0
41
1
10
29.1010801901675
20
1.40908975984192
30
0
41
1
10
29.0509302048022
20
1.32325628327817
30
0
0
SPLINE
5
192
100
AcDbEntity
8
1
62
256
6
ByLayer
370
18
48
1
60
0
100
AcDbSpline
70
4
71
3
72
28
73
24
40
0
40
0
40
0
40
0
40
0.125
40
0.125
40
0.249999999999999
40
0.249999999999999
40
0.374999999999999
40
0.374999999999999
40
0.437499999999999
40
0.437499999999999
40
0.499999999999999
40
0.499999999999999
40
0.625
40
0.625
40
0.75
40
0.75
40
0.8125
40
0.8125
40
0.875
40
0.875
40
0.9375
40
0.9375
40
1
40
1
40
1
40
1
41
1
10
29.0509302048023
20
1.32325628327817
30
0
41
1
10
29.0450695885201
20
1.31322563089327
30
0
41
1
10
29.0383071016655
20
1.30428931410694
30
0
41
1
10
29.0233807554401
20
1.2880798745891
30
0
41
1
10
29.0151503159985
20
1.28079044899943
30
0
41
1
10
28.9979438753804
20
1.26815981189031
30
0
41
1
10
28.9889172901599
20
1.26275299248252
30
0
41
1
10
28.9747845615118
20
1.25596728625121
30
0
41
1
10
28.9699739430796
20
1.25392843397472
30
0
41
1
10
28.9601496746424
20
1.25031899622704
30
0
41
1
10
28.9551420184292
20
1.24875352731263
30
0
41
1
10
28.9400724372538
20
1.24487494853267
30
0
41
1
10
28.9298825557964
20
1.24333291180656
30
0
41
1
10
28.9092400912858
20
1.24268126792805
30
0
41
1
10
28.8987073019209
20
1.243603606927
30
0
41
1
10
28.8834454790793
20
1.24729515837618
30
0
41
1
10
28.8784242853791
20
1.24890927831899
30
0
41
1
10
28.8685463062046
20
1.2530448055536
30
0
41
1
10
28.8636925976546
20
1.25557537372319
30
0
41
1
10
28.8545071906537
20
1.26154358188663
30
0
41
1
10
28.8501359903033
20
1.26499315985623
30
0
41
1
10
28.8419275003734
20
1.27301320918002
30
0
41
1
10
28.8381496370243
20
1.27753627510279
30
0
41
1
10
28.8348173511592
20
1.28256670547634
30
0
0
SPLINE
5
193
100
AcDbEntity
8
1
62
256
6
ByLayer
370
18
48
1
60
0
100
AcDbSpline
70
4
71
3
72
10
73
6
40
0
40
0
40
0
40
0
40
0.5
40
0.5
40
1
40
1
40
1
40
1
41
1
10
28.8348173511575
20
1.28256670547881
30
0
41
1
10
28.7883415454625
20
1.35272674398848
30
0
41
1
10
28.7423448034762
20
1.41936854252029
30
0
41
1
10
28.6509068796438
20
1.54587450575133
30
0
41
1
10
28.6059306505853
20
1.60506348936389
30
0
41
1
10
28.5613897077656
20
1.6604094097159
30
0
0
SPLINE
5
194
100
AcDbEntity
8
1
62
256
6
ByLayer
370
18
48
1
60
0
100
AcDbSpline
70
4
71
3
72
8
73
4
40
0
40
0
40
0
40
0
40
1
40
1
40
1
40
1
41
1
10
28.4835936529563
20
1.62624137798909
30
0
41
1
10
28.5095010965386
20
1.63824109026126
30
0
41
1
10
28.5354279333333
20
1.64963363796173
30
0
41
1
10
28.5613897077656
20
1.66040940971584
30
0
0
SPLINE
5
195
100
AcDbEntity
8
1
62
256
6
ByLayer
370
18
48
1
60
0
100
AcDbSpline
70
4
71
3
72
10
73
6
40
0
40
0
40
0
40
0
40
0.5
40
0.5
40
1
40
1
40
1
40
1
41
1
10
28.4835936529563
20
1.62624137798912
30
0
41
1
10
28.4360149168829
20
1.52989140069693
30
0
41
1
10
28.3879615189626
20
1.43198749110817
30
0
41
1
10
28.2901298335672
20
1.23350998045308
30
0
41
1
10
28.2407696389445
20
1.1337981800618
30
0
41
1
10
28.1904882609011
20
1.03381507753127
30
0
0
SPLINE
5
196
100
AcDbEntity
8
1
62
256
6
ByLayer
370
18
48
1
60
0
100
AcDbSpline
70
4
71
3
72
10
73
6
40
0
40
0
40
0
40
0
40
0.84548323949664
40
0.84548323949664
40
1
40
1
40
1
40
1
41
1
10
28.1904882609011
20
1.03381507753127
30
0
41
1
10
28.184613778307
20
1.02213383452673
30
0
41
1
10
28.1778318269462
20
1.01117452384423
30
0
41
1
10
28.1689774177737
20
0.998870667184036
30
0
41
1
10
28.1675834750195
20
0.996986747286172
30
0
41
1
10
28.1661661905834
20
0.995121824826469
30
0
0
SPLINE
5
197
100
AcDbEntity
8
1
62
256
6
ByLayer
370
18
48
1
60
0
100
AcDbSpline
70
4
71
3
72
12
73
8
40
0
40
0
40
0
40
0
40
0.5
40
0.5
40
0.75
40
0.75
40
1
40
1
40
1
40
1
41
1
10
27.6875327938442
20
-1.33922496477504
30
0
41
1
10
27.6530598101235
20
-1.39732118148308
30
0
41
1
10
27.6188527486326
20
-1.45471402286256
30
0
41
1
10
27.5678196343612
20
-1.53972544230038
30
0
41
1
10
27.5508325141084
20
-1.56791853042739
30
0
41
1
10
27.5170481019873
20
-1.62373539857631
30
0
41
1
10
27.5002528414399
20
-1.65135612118166
30
0
41
1
10
27.4835381337854
20
-1.67869281155461
30
0
0
SPLINE
5
198
100
AcDbEntity
8
1
62
256
6
ByLayer
370
18
48
1
60
0
100
AcDbSpline
70
4
71
3
72
8
73
4
40
0
40
0
40
0
40
0
40
1
40
1
40
1
40
1
41
1
10
27.4835381337879
20
-1.6786928115574
30
0
41
1
10
27.403272050385
20
-1.66603876353486
30
0
41
1
10
27.3225569678421
20
-1.64683835718847
30
0
41
1
10
27.2407905020593
20
-1.62107444319918
30
0
0
SPLINE
5
199
100
AcDbEntity
8
1
62
256
6
ByLayer
370
18
48
1
60
0
100
AcDbSpline
70
4
71
3
72
10
73
6
40
0
40
0
40
0
40
0
40
0.5
40
0.5
40
1
40
1
40
1
40
1
41
1
10
27.2407905020593
20
-1.62107444319921
30
0
41
1
10
27.2084485534417
20
-1.56407396773179
30
0
41
1
10
27.1757319052168
20
-1.50525752001175
30
0
41
1
10
27.1098873783538
20
-1.38514583868619
30
0
41
1
10
27.0767108370442
20
-1.32376489385896
30
0
41
1
10
27.0431336330597
20
-1.26107795514466
30
0
0
SPLINE
5
19A
100
AcDbEntity
8
1
62
256
6
ByLayer
370
18
48
1
60
0
100
AcDbSpline
70
4
71
3
72
30
73
26
40
0
40
0
40
0
40
0
40
0.124999999999981
40
0.124999999999981
40
0.249999999999961
40
0.249999999999961
40
0.374999999999941
40
0.374999999999941
40
0.437499999999931
40
0.437499999999931
40
0.499999999999921
40
0.499999999999921
40
0.624999999999901
40
0.624999999999901
40
0.687499999999917
40
0.687499999999917
40
0.749999999999934
40
0.749999999999934
40
0.81249999999995
40
0.81249999999995
40
0.874999999999967
40
0.874999999999967
40
0.937499999999983
40
0.937499999999983
40
1
40
1
40
1
40
1
41
1
10
27.0431336330597
20
-1.26107795514466
30
0
41
1
10
27.0372602969964
20
-1.25011273427586
30
0
41
1
10
27.0304803862491
20
-1.24014602943578
30
0
41
1
10
27.0155138397975
20
-1.22173529822535
30
0
41
1
10
27.0072597296328
20
-1.2132656174621
30
0
41
1
10
26.9900085142449
20
-1.19822081697112
30
0
41
1
10
26.9809604264601
20
-1.19157187719529
30
0
41
1
10
26.9667996392677
20
-1.18286357361063
30
0
41
1
10
26.9619803673573
20
-1.18017381715165
30
0
41
1
10
26.952140699848
20
-1.17523949086132
30
0
41
1
10
26.9471294933608
20
-1.17300264417742
30
0
41
1
10
26.9320789278105
20
-1.1671121164627
30
0
41
1
10
26.9219336577257
20
-1.16421826345564
30
0
41
1
10
26.9065765213138
20
-1.16163426172173
30
0
41
1
10
26.9014341118068
20
-1.16106846928278
30
0
41
1
10
26.8911048414749
20
-1.16061344324226
30
0
41
1
10
26.8858832006405
20
-1.16072934613743
30
0
41
1
10
26.8756483541328
20
-1.16174792495596
30
0
41
1
10
26.8706206443432
20
-1.16264429144948
30
0
41
1
10
26.8607790216904
20
-1.16532545930991
30
0
41
1
10
26.8559279840899
20
-1.16712807560179
30
0
41
1
10
26.8466830607504
20
-1.17173182948719
30
0
41
1
10
26.8423132318442
20
-1.17451084495971
30
0
41
1
10
26.8341589133185
20
-1.18117303068649
30
0
41
1
10
26.830354140081
20
-1.18509075503726
30
0
41
1
10
26.8270149264972
20
-1.18955419405387
30
0
0
SPLINE
5
19B
100
AcDbEntity
8
1
62
256
6
ByLayer
370
18
48
1
60
0
100
AcDbSpline
70
4
71
3
72
8
73
4
40
0
40
0
40
0
40
0
40
1
40
1
40
1
40
1
41
1
10
26.8270149264943
20
-1.18955419405836
30
0
41
1
10
26.7811048094391
20
-1.25092104065558
30
0
41
1
10
26.735671700896
20
-1.30783359820404
30
0
41
1
10
26.6905079161277
20
-1.36052289472744
30
0
0
SPLINE
5
19C
100
AcDbEntity
8
1
62
256
6
ByLayer
370
18
48
1
60
0
100
AcDbSpline
70
4
71
3
72
14
73
10
40
0
40
0
40
0
40
0
40
0.500000000000013
40
0.500000000000013
40
0.62500000000001
40
0.62500000000001
40
0.750000000000006
40
0.750000000000006
40
1
40
1
40
1
40
1
41
1
10
26.6905079161276
20
-1.36052289472732
30
0
41
1
10
26.6254154379385
20
-1.32033797131419
30
0
41
1
10
26.5598726171833
20
-1.27697951612726
30
0
41
1
10
26.4771488153144
20
-1.21892013476406
30
0
41
1
10
26.4605637967238
20
-1.20711496687622
30
0
41
1
10
26.4273033392609
20
-1.18312108522213
30
0
41
1
10
26.4106110214755
20
-1.1709195389185
30
0
41
1
10
26.3606244939576
20
-1.13392534764469
30
0
41
1
10
26.3273585369105
20
-1.10869968429074
30
0
41
1
10
26.2941107373603
20
-1.08295487765841
30
0
0
SPLINE
5
19D
100
AcDbEntity
8
1
62
256
6
ByLayer
370
18
48
1
60
0
100
AcDbSpline
70
4
71
3
72
8
73
4
40
0
40
0
40
0
40
0
40
1
40
1
40
1
40
1
41
1
10
26.294110737363
20
-1.08295487765685
30
0
41
1
10
26.2573186574482
20
-1.00801413667801
30
0
41
1
10
26.2202428617122
20
-0.933617488883414
30
0
41
1
10
26.1826652793129
20
-0.859886909548379
30
0
0
SPLINE
5
19E
100
AcDbEntity
8
1
62
256
6
ByLayer
370
18
48
1
60
0
100
AcDbSpline
70
4
71
3
72
28
73
24
40
0
40
0
40
0
40
0
40
0.125
40
0.125
40
0.249999999999999
40
0.249999999999999
40
0.374999999999999
40
0.374999999999999
40
0.437499999999999
40
0.437499999999999
40
0.499999999999999
40
0.499999999999999
40
0.624999999999999
40
0.624999999999999
40
0.749999999999998
40
0.749999999999998
40
0.812499999999999
40
0.812499999999999
40
0.874999999999999
40
0.874999999999999
40
0.9375
40
0.9375
40
1
40
1
40
1
40
1
41
1
10
26.1826652793127
20
-0.859886909548209
30
0
41
1
10
26.1768038073469
20
-0.848386177031585
30
0
41
1
10
26.1700390392983
20
-0.837415560357812
30
0
41
1
10
26.1551061965941
20
-0.816301537197887
30
0
41
1
10
26.1468705468673
20
-0.806111173938291
30
0
41
1
10
26.1296521017807
20
-0.78709975091644
30
0
41
1
10
26.1206190924119
20
-0.778197571198945
30
0
41
1
10
26.1064771225101
20
-0.765703739895372
30
0
41
1
10
26.1016634911904
20
-0.761683754994579
30
0
41
1
10
26.0918335381294
20
-0.753942166536774
30
0
41
1
10
26.0868245028919
20
-0.750228694385129
30
0
41
1
10
26.0717519264376
20
-0.73974143130863
30
0
41
1
10
26.0615619801064
20
-0.733544458281642
30
0
41
1
10
26.0409248254323
20
-0.722937628616563
30
0
41
1
10
26.0303985132125
20
-0.718513829305039
30
0
41
1
10
26.0151529568386
20
-0.713869881895903
30
0
41
1
10
26.0101381619095
20
-0.712641440627067
30
0
41
1
10
26.0002749548122
20
-0.710932438987015
30
0
41
1
10
25.9954282101523
20
-0.710459906494918
30
0
41
1
10
25.9862574896351
20
-0.710427000165964
30
0
41
1
10
25.9818941502418
20
-0.71085624435878
30
0
41
1
10
25.9737016054245
20
-0.712785326870289
30
0
41
1
10
25.9699264421463
20
-0.714280626175082
30
0
41
1
10
25.9665971215499
20
-0.716362323407395
30
0
0
SPLINE
5
19F
100
AcDbEntity
8
1
62
256
6
ByLayer
370
18
48
1
60
0
100
AcDbSpline
70
4
71
3
72
8
73
4
40
0
40
0
40
0
40
0
40
1
40
1
40
1
40
1
41
1
10
25.9665971215499
20
-0.716362323407367
30
0
41
1
10
25.9434013873398
20
-0.730865731628256
30
0
41
1
10
25.9203301925964
20
-0.743666663792681
30
0
41
1
10
25.8973573070298
20
-0.754866323166624
30
0
0
SPLINE
5
1A0
100
AcDbEntity
8
1
62
256
6
ByLayer
370
18
48
1
60
0
100
AcDbSpline
70
4
71
3
72
13
73
9
40
0
40
0
40
0
40
0
40
0.250000000000031
40
0.375000000000036
40
0.375000000000036
40
0.500000000000041
40
0.500000000000041
40
1
40
1
40
1
40
1
41
1
10
25.8973573070328
20
-0.754866323172962
30
0
41
1
10
25.852199203986
20
-0.715575053566198
30
0
41
1
10
25.7841646856661
20
-0.655592786135912
30
0
41
1
10
25.7154461217642
20
-0.594248973769879
30
0
41
1
10
25.66945325617
20
-0.5530746587267
30
0
41
1
10
25.6463502775763
20
-0.532333635013543
30
0
41
1
10
25.5311139141144
20
-0.428721927610468
30
0
41
1
10
25.4391314376842
20
-0.345660831289933
30
0
41
1
10
25.3469297622125
20
-0.262907557145667
30
0
0
SPLINE
5
1A1
100
AcDbEntity
8
1
62
256
6
ByLayer
370
18
48
1
60
0
100
AcDbSpline
70
4
71
3
72
8
73
4
40
0
40
0
40
0
40
0
40
1
40
1
40
1
40
1
41
1
10
25.3469297622124
20
-0.262907557145638
30
0
41
1
10
25.3387017228602
20
-0.250073249318547
30
0
41
1
10
25.3304524863601
20
-0.237370960605403
30
0
41
1
10
25.3221794873289
20
-0.224803038043547
30
0
0
SPLINE
5
1A2
100
AcDbEntity
8
1
62
256
6
ByLayer
370
18
48
1
60
0
100
AcDbSpline
70
4
71
3
72
24
73
20
40
0
40
0
40
0
40
0
40
0.125000000000017
40
0.125000000000017
40
0.250000000000033
40
0.250000000000033
40
0.500000000000022
40
0.500000000000022
40
0.62499999999999
40
0.62499999999999
40
0.749999999999959
40
0.749999999999959
40
0.812499999999969
40
0.812499999999969
40
0.874999999999979
40
0.874999999999979
40
0.93749999999999
40
0.93749999999999
40
1
40
1
40
1
40
1
41
1
10
25.3221794873289
20
-0.224803038043518
30
0
41
1
10
25.3163204786924
20
-0.215902327847147
30
0
41
1
10
25.3095601137197
20
-0.206920982764444
30
0
41
1
10
25.29464109076
20
-0.188866825977442
30
0
41
1
10
25.2864334469742
20
-0.179755406830083
30
0
41
1
10
25.260419039591
20
-0.152856657047863
30
0
41
1
10
25.2410979124894
20
-0.135345482644595
30
0
41
1
10
25.2108635767702
20
-0.110817840006121
30
0
41
1
10
25.2005168584004
20
-0.102890988085505
30
0
41
1
10
25.1800000930257
20
-0.0880640324832029
30
0
41
1
10
25.1697598208262
20
-0.0810999449689405
30
0
41
1
10
25.1544929989043
20
-0.0714603996642325
30
0
41
1
10
25.149405847584
20
-0.0683776005275831
30
0
41
1
10
25.1395869328582
20
-0.0627139374984154
30
0
41
1
10
25.1348191447934
20
-0.0601089770711951
30
0
41
1
10
25.1256244003629
20
-0.0554302362208148
30
0
41
1
10
25.121197558033
20
-0.0533611049241927
30
0
41
1
10
25.1130946696068
20
-0.0500124098244044
30
0
41
1
10
25.1093737563995
20
-0.0487078252894833
30
0
41
1
10
25.10604399124
20
-0.0478473864890532
30
0
0
SPLINE
5
1A3
100
AcDbEntity
8
1
62
256
6
ByLayer
370
18
48
1
60
0
100
AcDbSpline
70
4
71
3
72
8
73
4
40
0
40
0
40
0
40
0
40
1
40
1
40
1
40
1
41
1
10
25.10604399124
20
-0.0478473864890532
30
0
41
1
10
25.105298027551
20
-0.0476546233147985
30
0
41
1
10
25.1045521885886
20
-0.0474600869836479
30
0
41
1
10
25.1038064738424
20
-0.0472637769955782
30
0
0
SPLINE
5
1A4
100
AcDbEntity
8
1
62
256
6
ByLayer
370
18
48
1
60
0
100
AcDbSpline
70
4
71
3
72
12
73
8
40
0
40
0
40
0
40
0
40
0.249999999999993
40
0.249999999999993
40
0.499999999999986
40
0.499999999999986
40
1
40
1
40
1
40
1
41
1
10
25.1038064738424
20
-0.0472637769955497
30
0
41
1
10
25.068261113766
20
-0.0162717051451295
30
0
41
1
10
25.0325699466063
20
0.0145464729720004
30
0
41
1
10
24.9607632176716
20
0.0756845499764722
30
0
41
1
10
24.9246411086738
20
0.10601896610217
30
0
41
1
10
24.815768063784
20
0.196287193608924
30
0
41
1
10
24.7431240464985
20
0.254910781161811
30
0
41
1
10
24.67
20
0.311515741497999
30
0
0
SPLINE
5
1A5
100
AcDbEntity
8
1
62
256
6
ByLayer
370
18
48
1
60
0
100
AcDbSpline
70
4
71
3
72
18
73
14
40
0
40
0
40
0
40
0
40
0.124999999999995
40
0.124999999999995
40
0.24999999999999
40
0.24999999999999
40
0.499999999999993
40
0.499999999999993
40
0.749999999999997
40
0.749999999999997
40
0.874999999999998
40
0.874999999999998
40
1
40
1
40
1
40
1
41
1
10
24.4336939452127
20
0.483891725415447
30
0
41
1
10
24.3931280289336
20
0.512094058940676
30
0
41
1
10
24.3526853529979
20
0.539707097246861
30
0
41
1
10
24.2721191382839
20
0.59387007867457
30
0
41
1
10
24.2319857353893
20
0.62040566015429
30
0
41
1
10
24.1118224373336
20
0.698139532291862
30
0
41
1
10
24.0320217139003
20
0.747452651847397
30
0
41
1
10
23.8720300735051
20
0.84006879092928
30
0
41
1
10
23.7919604536191
20
0.883511504560715
30
0
41
1
10
23.6715451166998
20
0.944096848207238
30
0
41
1
10
23.6313420989534
20
0.963514441612801
30
0
41
1
10
23.5506733067739
20
1.00065140136428
30
0
41
1
10
23.5101124207573
20
1.01840769161871
30
0
41
1
10
23.4697120064012
20
1.03511070855325
30
0
0
SPLINE
5
1A6
100
AcDbEntity
8
1
62
256
6
ByLayer
370
18
48
1
60
0
100
AcDbSpline
70
4
71
3
72
10
73
6
40
0
40
0
40
0
40
0
40
0.5
40
0.5
40
1
40
1
40
1
40
1
41
1
10
24.6700000000007
20
-1.20730067161114
30
0
41
1
10
24.7750342567102
20
-1.24785187555807
30
0
41
1
10
24.8781825266701
20
-1.28195768697418
30
0
41
1
10
25.0823312588843
20
-1.33637786815095
30
0
41
1
10
25.1836938439922
20
-1.35669638782326
30
0
41
1
10
25.2847430172333
20
-1.36975436120704
30
0
0
SPLINE
5
1A7
100
AcDbEntity
8
1
62
256
6
ByLayer
370
18
48
1
60
0
100
AcDbSpline
70
4
71
3
72
8
73
4
40
0
40
0
40
0
40
0
40
1
40
1
40
1
40
1
41
1
10
25.2847430172312
20
-1.36975436120238
30
0
41
1
10
25.291118906658
20
-1.35987117623901
30
0
41
1
10
25.297509766251
20
-1.3499126769371
30
0
41
1
10
25.3039177304519
20
-1.33987668473512
30
0
0
SPLINE
5
1A8
100
AcDbEntity
8
1
62
256
6
ByLayer
370
18
48
1
60
0
100
AcDbSpline
70
4
71
3
72
28
73
24
40
0
40
0
40
0
40
0
40
0.12500000000002
40
0.12500000000002
40
0.250000000000041
40
0.250000000000041
40
0.375000000000061
40
0.375000000000061
40
0.500000000000081
40
0.500000000000081
40
0.625000000000101
40
0.625000000000101
40
0.687500000000084
40
0.687500000000084
40
0.750000000000067
40
0.750000000000067
40
0.812500000000051
40
0.812500000000051
40
0.875000000000034
40
0.875000000000034
40
0.937500000000017
40
0.937500000000017
40
1
40
1
40
1
40
1
41
1
10
25.3039177304519
20
-1.33987668473512
30
0
41
1
10
25.3099048701358
20
-1.33049977729684
30
0
41
1
10
25.3168330119293
20
-1.32236908296045
30
0
41
1
10
25.3321236141049
20
-1.30796662841016
30
0
41
1
10
25.3405634740455
20
-1.30168516669656
30
0
41
1
10
25.3581380337832
20
-1.29120337162516
30
0
41
1
10
25.3673277178755
20
-1.28693863744903
30
0
41
1
10
25.3864381567162
20
-1.28027122256933
30
0
41
1
10
25.3964492186913
20
-1.27786692884178
30
0
41
1
10
25.4165485536807
20
-1.27520837144786
30
0
41
1
10
25.4266807947341
20
-1.27491808507264
30
0
41
1
10
25.4419651095265
20
-1.27624252014058
30
0
41
1
10
25.4470742219961
20
-1.27698002830994
30
0
41
1
10
25.4573148429894
20
-1.27912919675657
30
0
41
1
10
25.4624368130078
20
-1.28054396465305
30
0
41
1
10
25.4724405215452
20
-1.28406666020169
30
0
41
1
10
25.4773523298625
20
-1.28617907287665
30
0
41
1
10
25.4869641490693
20
-1.29121053327205
30
0
41
1
10
25.4917006318063
20
-1.29415727158846
30
0
41
1
10
25.5007020198772
20
-1.30088214605115
30
0
41
1
10
25.504964606254
20
-1.30464745160779
30
0
41
1
10
25.5129371122676
20
-1.31311380076718
30
0
41
1
10
25.5166691712279
20
-1.31785346428012
30
0
41
1
10
25.5199688834809
20
-1.32303617598001
30
0
0
SPLINE
5
1A9
100
AcDbEntity
8
1
62
256
6
ByLayer
370
18
48
1
60
0
100
AcDbSpline
70
4
71
3
72
8
73
4
40
0
40
0
40
0
40
0
40
1
40
1
40
1
40
1
41
1
10
25.5199688834809
20
-1.32303617598004
30
0
41
1
10
25.533634722254
20
-1.34450050288746
30
0
41
1
10
25.5472590954602
20
-1.36573142865723
30
0
41
1
10
25.5608478159201
20
-1.3867298376594
30
0
0
SPLINE
5
1AA
100
AcDbEntity
8
1
62
256
6
ByLayer
370
18
48
1
60
0
100
AcDbSpline
70
4
71
3
72
14
73
10
40
0
40
0
40
0
40
0
40
0.25
40
0.25
40
0.5
40
0.5
40
0.75
40
0.75
40
1
40
1
40
1
40
1
41
1
10
25.5608478159201
20
-1.38672983765932
30
0
41
1
10
25.6044467325828
20
-1.38636991510691
30
0
41
1
10
25.6478232094934
20
-1.38457547953837
30
0
41
1
10
25.7340950959664
20
-1.37812205922131
30
0
41
1
10
25.7769740514969
20
-1.37345407079377
30
0
41
1
10
25.8623187142511
20
-1.3612505677855
30
0
41
1
10
25.904782568266
20
-1.35371462364375
30
0
41
1
10
25.9893578683488
20
-1.33574916932085
30
0
41
1
10
26.031436682548
20
-1.32529590881194
30
0
41
1
10
26.0734901337945
20
-1.31345320584853
30
0
0
SPLINE
5
1AB
100
AcDbEntity
8
1
62
256
6
ByLayer
370
18
48
1
60
0
100
AcDbSpline
70
4
71
3
72
8
73
4
40
0
40
0
40
0
40
0
40
1
40
1
40
1
40
1
41
1
10
26.0734901337942
20
-1.31345320584845
30
0
41
1
10
26.1034676959711
20
-1.25517140471692
30
0
41
1
10
26.1337007993904
20
-1.19648678765972
30
0
41
1
10
26.1643186764825
20
-1.13746335020104
30
0
0
SPLINE
5
1AC
100
AcDbEntity
8
1
62
256
6
ByLayer
370
18
48
1
60
0
100
AcDbSpline
70
4
71
3
72
16
73
12
40
0
40
0
40
0
40
0
40
0.229713733910147
40
0.229713733910147
40
0.459427467820295
40
0.459427467820295
40
0.689141201730442
40
0.689141201730442
40
0.918854935640589
40
0.918854935640589
40
1
40
1
40
1
40
1
41
1
10
26.1643186764825
20
-1.13746335020104
30
0
41
1
10
26.1702986533253
20
-1.12593548404232
30
0
41
1
10
26.1772175990392
20
-1.11528521887499
30
0
41
1
10
26.1924878477607
20
-1.09530933345437
30
0
41
1
10
26.2009165986218
20
-1.08594478879508
30
0
41
1
10
26.2184718092903
20
-1.06901112764442
30
0
41
1
10
26.2276527425159
20
-1.06135796165199
30
0
41
1
10
26.2467492363125
20
-1.04758471915645
30
0
41
1
10
26.2567556850458
20
-1.04142881812132
30
0
41
1
10
26.270352306479
20
-1.0344602160136
30
0
41
1
10
26.2739120423789
20
-1.0327603028561
30
0
41
1
10
26.2774812869955
20
-1.03118405410876
30
0
0
SPLINE
5
1AD
100
AcDbEntity
8
1
62
256
6
ByLayer
370
18
48
1
60
0
100
AcDbSpline
70
4
71
3
72
24
73
20
40
0
40
0
40
0
40
0
40
0.141724672387467
40
0.141724672387467
40
0.313379737909929
40
0.313379737909929
40
0.485034803432392
40
0.485034803432392
40
0.57086233619366
40
0.57086233619366
40
0.656689868954928
40
0.656689868954928
40
0.742517401716196
40
0.742517401716196
40
0.828344934477464
40
0.828344934477464
40
0.914172467238732
40
0.914172467238732
40
1
40
1
40
1
40
1
41
1
10
30.5163067914734
20
1.2921831438627
30
0
41
1
10
30.5237059010764
20
1.28803097770458
30
0
41
1
10
30.5313692175446
20
1.2845446472252
30
0
41
1
10
30.5488522124986
20
1.27824158951483
30
0
41
1
10
30.5588736206462
20
1.27572043419565
30
0
41
1
10
30.5789700201076
20
1.27282696938923
30
0
41
1
10
30.5890933774972
20
1.27241733693697
30
0
41
1
10
30.6043554222887
20
1.27355458188833
30
0
41
1
10
30.6094557949903
20
1.27422843531838
30
0
41
1
10
30.6196761461888
20
1.27624685255972
30
0
41
1
10
30.6247747016126
20
1.27759157154088
30
0
41
1
10
30.6347363175024
20
1.28097033999282
30
0
41
1
10
30.6396266012524
20
1.28300831975426
30
0
41
1
10
30.6491934196681
20
1.28788246914317
30
0
41
1
10
30.6539056140859
20
1.29074517390063
30
0
41
1
10
30.6628599552098
20
1.29729319005531
30
0
41
1
10
30.6671003332842
20
1.30096660092857
30
0
41
1
10
30.6750329162726
20
1.30923897745552
30
0
41
1
10
30.6787481589935
20
1.31387572918723
30
0
41
1
10
30.6820413675636
20
1.31896240355226
30
0
0
SPLINE
5
1AE
100
AcDbEntity
8
1
62
256
6
ByLayer
370
18
48
1
60
0
100
AcDbSpline
70
4
71
3
72
12
73
8
40
0
40
0
40
0
40
0
40
0.5
40
0.5
40
0.75
40
0.75
40
1
40
1
40
1
40
1
41
1
10
30.682041367567
20
1.31896240355749
30
0
41
1
10
30.7290135523952
20
1.39151541785537
30
0
41
1
10
30.7755320937293
20
1.46120277896108
30
0
41
1
10
30.8444581316749
20
1.56054803587207
30
0
41
1
10
30.8672774989409
20
1.59276847184122
30
0
41
1
10
30.9125390131708
20
1.65526680770617
30
0
41
1
10
30.9350061890954
20
1.68558528720658
30
0
41
1
10
30.9573573445891
20
1.71502712791232
30
0
0
SPLINE
5
1AF
100
AcDbEntity
8
1
62
256
6
ByLayer
370
18
48
1
60
0
100
AcDbSpline
70
4
71
3
72
8
73
4
40
0
40
0
40
0
40
0
40
1
40
1
40
1
40
1
41
1
10
31.0352266049522
20
1.6880973144805
30
0
41
1
10
31.0092239763166
20
1.69772055106193
30
0
41
1
10
30.9832673350786
20
1.70669730439351
30
0
41
1
10
30.9573573445891
20
1.71502712791232
30
0
0
SPLINE
5
1B0
100
AcDbEntity
8
1
62
256
6
ByLayer
370
18
48
1
60
0
100
AcDbSpline
70
4
71
3
72
10
73
6
40
0
40
0
40
0
40
0
40
0.5
40
0.5
40
1
40
1
40
1
40
1
41
1
10
31.0352266049522
20
1.6880973144805
30
0
41
1
10
31.082370549699
20
1.59711521675649
30
0
41
1
10
31.1300559500663
20
1.50424204839118
30
0
41
1
10
31.227238227525
20
1.31521437743535
30
0
41
1
10
31.2762882944508
20
1.21987667561584
30
0
41
1
10
31.3263693563532
20
1.12392391879061
30
0
0
SPLINE
5
1B1
100
AcDbEntity
8
1
62
256
6
ByLayer
370
18
48
1
60
0
100
AcDbSpline
70
4
71
3
72
28
73
24
40
0
40
0
40
0
40
0
40
0.12499999999998
40
0.12499999999998
40
0.24999999999996
40
0.24999999999996
40
0.37499999999994
40
0.37499999999994
40
0.49999999999992
40
0.49999999999992
40
0.624999999999901
40
0.624999999999901
40
0.687499999999917
40
0.687499999999917
40
0.749999999999934
40
0.749999999999934
40
0.81249999999995
40
0.81249999999995
40
0.874999999999967
40
0.874999999999967
40
0.937499999999983
40
0.937499999999983
40
1
40
1
40
1
40
1
41
1
10
31.3263693563532
20
1.12392391879058
30
0
41
1
10
31.3324018417195
20
1.1123659849263
30
0
41
1
10
31.3393913771323
20
1.10168896021736
30
0
41
1
10
31.3548068900203
20
1.08165097375479
30
0
41
1
10
31.3633111098902
20
1.07224993652505
30
0
41
1
10
31.3809610429099
20
1.05522959309528
30
0
41
1
10
31.3901658543763
20
1.04752236948173
30
0
41
1
10
31.4092707879635
20
1.03360082589447
30
0
41
1
10
31.4192576262591
20
1.02735287413705
30
0
41
1
10
31.4392961798511
20
1.01682619585523
30
0
41
1
10
31.4493956284608
20
1.01249396927028
30
0
41
1
10
31.4646517317402
20
1.00756829976746
30
0
41
1
10
31.4697552345955
20
1.00619155145284
30
0
41
1
10
31.4799888490521
20
1.00403345317406
30
0
41
1
10
31.4851015151677
20
1.00325960055818
30
0
41
1
10
31.4950883769931
20
1.00240996888226
30
0
41
1
10
31.4999912414264
20
1.00232678603678
30
0
41
1
10
31.5095802298081
20
1.0029320874699
30
0
41
1
10
31.5143018732543
20
1.00362947353017
30
0
41
1
10
31.5232755403251
20
1.00591075135696
30
0
41
1
10
31.5275236632863
20
1.0074851581351
30
0
41
1
10
31.5354685276375
20
1.01163796098771
30
0
41
1
10
31.5391885955523
20
1.01423999502816
30
0
41
1
10
31.5424869193368
20
1.01739272829158
30
0
0
SPLINE
5
1B2
100
AcDbEntity
8
1
62
256
6
ByLayer
370
18
48
1
60
0
100
AcDbSpline
70
4
71
3
72
12
73
8
40
0
40
0
40
0
40
0
40
0.50000000000001
40
0.50000000000001
40
0.750000000000005
40
0.750000000000005
40
1
40
1
40
1
40
1
41
1
10
31.5424869193368
20
1.01739272829164
30
0
41
1
10
31.5894276257583
20
1.06226143622095
30
0
41
1
10
31.6358928918897
20
1.10150850401493
30
0
41
1
10
31.7047494710254
20
1.15197086714272
30
0
41
1
10
31.7275507592784
20
1.16738000307984
30
0
41
1
10
31.7727827629676
20
1.19534325044447
30
0
41
1
10
31.7952354867774
20
1.20791421719866
30
0
41
1
10
31.8175626445732
20
1.21908955870438
30
0
0
SPLINE
5
1B3
100
AcDbEntity
8
1
62
256
6
ByLayer
370
18
48
1
60
0
100
AcDbSpline
70
4
71
3
72
10
73
6
40
0
40
0
40
0
40
0
40
0.5
40
0.5
40
1
40
1
40
1
40
1
41
1
10
31.8953487350333
20
1.15498885404915
30
0
41
1
10
31.9424711351786
20
1.05861613662336
30
0
41
1
10
31.9901111808873
20
0.964013880705068
30
0
41
1
10
32.0873605678952
20
0.779274387665168
30
0
41
1
10
32.1365131324408
20
0.689941099978682
30
0
41
1
10
32.1866946170071
20
0.603960033023725
30
0
0
SPLINE
5
1B4
100
AcDbEntity
8
1
62
256
6
ByLayer
370
18
48
1
60
0
100
AcDbSpline
70
4
71
3
72
28
73
24
40
0
40
0
40
0
40
0
40
0.12500000000002
40
0.12500000000002
40
0.250000000000041
40
0.250000000000041
40
0.375000000000061
40
0.375000000000061
40
0.500000000000082
40
0.500000000000082
40
0.625000000000102
40
0.625000000000102
40
0.687500000000085
40
0.687500000000085
40
0.750000000000068
40
0.750000000000068
40
0.812500000000051
40
0.812500000000051
40
0.875000000000034
40
0.875000000000034
40
0.937500000000017
40
0.937500000000017
40
1
40
1
40
1
40
1
41
1
10
32.1866946170071
20
0.603960033023725
30
0
41
1
10
32.1927262139584
20
0.593625481431076
30
0
41
1
10
32.1997144119087
20
0.583534794350157
30
0
41
1
10
32.2151346062938
20
0.563741333371837
30
0
41
1
10
32.2236473503949
20
0.553977040570487
30
0
41
1
10
32.2413434381334
20
0.535435638957949
30
0
41
1
10
32.2505836426698
20
0.52657668593983
30
0
41
1
10
32.2697753439623
20
0.509605905999251
30
0
41
1
10
32.2798121431763
20
0.501441011849209
30
0
41
1
10
32.2999204267871
20
0.486380117918799
30
0
41
1
10
32.3100449740838
20
0.479424763125962
30
0
41
1
10
32.3253002071423
20
0.469903436305714
30
0
41
1
10
32.3303969032548
20
0.466883197092585
30
0
41
1
10
32.3406071911059
20
0.461180964264713
30
0
41
1
10
32.3456858916143
20
0.458519814262445
30
0
41
1
10
32.3556154707375
20
0.453686646587784
30
0
41
1
10
32.3604893517141
20
0.451501360559689
30
0
41
1
10
32.3700228064624
20
0.447652302286343
30
0
41
1
10
32.3747175366435
20
0.445978161897472
30
0
41
1
10
32.383635504014
20
0.443327392041084
30
0
41
1
10
32.3878596734139
20
0.442346158476653
30
0
41
1
10
32.3957650204936
20
0.441185259979164
30
0
41
1
10
32.3994692369859
20
0.441008274082492
30
0
41
1
10
32.4027568026715
20
0.441328046092195
30
0
0
SPLINE
5
1B5
100
AcDbEntity
8
1
62
256
6
ByLayer
370
18
48
1
60
0
100
AcDbSpline
70
4
71
3
72
12
73
8
40
0
40
0
40
0
40
0
40
0.5
40
0.5
40
0.75
40
0.75
40
1
40
1
40
1
40
1
41
1
10
32.4027568026715
20
0.441328046092281
30
0
41
1
10
32.4497318949841
20
0.445897177513814
30
0
41
1
10
32.4962161170768
20
0.443559576253023
30
0
41
1
10
32.5651111248542
20
0.430573054412008
30
0
41
1
10
32.5879280672183
20
0.424674243981542
30
0
41
1
10
32.6332070400459
20
0.409892155645593
30
0
41
1
10
32.6556900295622
20
0.401003638882599
30
0
41
1
10
32.6780533596457
20
0.390650970801318
30
0
0
SPLINE
5
1B6
100
AcDbEntity
8
1
62
256
6
ByLayer
370
18
48
1
60
0
100
AcDbSpline
70
4
71
3
72
10
73
6
40
0
40
0
40
0
40
0
40
0.5
40
0.5
40
1
40
1
40
1
40
1
41
1
10
32.7561552451959
20
0.30661171526296
30
0
41
1
10
32.8032620257529
20
0.231517389075862
30
0
41
1
10
32.8508868347898
20
0.161366750033238
30
0
41
1
10
32.9479622832239
20
0.0317555555801903
30
0
41
1
10
32.9969936774317
20
-0.0271650966325296
30
0
41
1
10
33.0470433882452
20
-0.079730311944445
30
0
0
SPLINE
5
1B7
100
AcDbEntity
8
1
62
256
6
ByLayer
370
18
48
1
60
0
100
AcDbSpline
70
4
71
3
72
28
73
24
40
0
40
0
40
0
40
0
40
0.125
40
0.125
40
0.25
40
0.25
40
0.375
40
0.375
40
0.5
40
0.5
40
0.625
40
0.625
40
0.6875
40
0.6875
40
0.75
40
0.75
40
0.8125
40
0.8125
40
0.875
40
0.875
40
0.9375
40
0.9375
40
1
40
1
40
1
40
1
41
1
10
33.0470433882452
20
-0.0797303119445303
30
0
41
1
10
33.0530734760923
20
-0.0860634727333149
30
0
41
1
10
33.0600587661804
20
-0.0928642340903139
30
0
41
1
10
33.0754700703777
20
-0.107123368416524
30
0
41
1
10
33.0839760685052
20
-0.114647649327935
30
0
41
1
10
33.1016585531801
20
-0.129791936725127
30
0
41
1
10
33.1108919252552
20
-0.137467009785269
30
0
41
1
10
33.1300757825152
20
-0.153039873399962
30
0
41
1
10
33.1401123539584
20
-0.160999326009772
30
0
41
1
10
33.1602247131173
20
-0.176700715947732
30
0
41
1
10
33.1703532982854
20
-0.184488999165183
30
0
41
1
10
33.18561597399
20
-0.196133904856765
30
0
41
1
10
33.1907153761798
20
-0.200009098308016
30
0
41
1
10
33.2009311746563
20
-0.207757700462508
30
0
41
1
10
33.2060132550827
20
-0.2116056016838
30
0
41
1
10
33.2159474757195
20
-0.21913410320775
30
0
41
1
10
33.2208230243816
20
-0.222832284614498
30
0
41
1
10
33.2303583410058
20
-0.230086672584747
30
0
41
1
10
33.2350533245925
20
-0.233670027380953
30
0
41
1
10
33.2439719856511
20
-0.240505595501105
30
0
41
1
10
33.2481956087491
20
-0.243756592728573
30
0
41
1
10
33.2560986265067
20
-0.249869477636707
30
0
41
1
10
33.2598011501909
20
-0.252749956314574
30
0
41
1
10
33.2630882947293
20
-0.25532227257284
30
0
0
SPLINE
5
1B8
100
AcDbEntity
8
1
62
256
6
ByLayer
370
18
48
1
60
0
100
AcDbSpline
70
4
71
3
72
14
73
10
40
0
40
0
40
0
40
0
40
0.25
40
0.25
40
0.5
40
0.5
40
0.75
40
0.75
40
1
40
1
40
1
40
1
41
1
10
33.2630882947293
20
-0.255322272572556
30
0
41
1
10
33.283826161698
20
-0.27155044621739
30
0
41
1
10
33.3044550502689
20
-0.288960283897978
30
0
41
1
10
33.3455434902384
20
-0.326061369171754
30
0
41
1
10
33.3659942304267
20
-0.345733931815147
30
0
41
1
10
33.4066516304178
20
-0.387161279458212
30
0
41
1
10
33.4268878907626
20
-0.408948491379135
30
0
41
1
10
33.4670454530017
20
-0.454432368015432
30
0
41
1
10
33.4869826764398
20
-0.4781439507247
30
0
41
1
10
33.5068039795817
20
-0.502810605441709
30
0
0
SPLINE
5
1B9
100
AcDbEntity
8
1
62
256
6
ByLayer
370
18
48
1
60
0
100
AcDbSpline
70
4
71
3
72
8
73
4
40
0
40
0
40
0
40
0
40
1
40
1
40
1
40
1
41
1
10
33.5068039795817
20
-0.502810605441709
30
0
41
1
10
33.561706452111
20
-0.55743525748963
30
0
41
1
10
33.6164179020463
20
-0.610234170776124
30
0
41
1
10
33.6714677237414
20
-0.660695484363771
30
0
0
SPLINE
5
1BA
100
AcDbEntity
8
1
62
256
6
ByLayer
370
18
48
1
60
0
100
AcDbSpline
70
4
71
3
72
12
73
8
40
0
40
0
40
0
40
0
40
0.250000000000004
40
0.250000000000004
40
0.500000000000008
40
0.500000000000008
40
1
40
1
40
1
40
1
41
1
10
33.6714677237414
20
-0.660695484363799
30
0
41
1
10
33.6906323551084
20
-0.672112189586642
30
0
41
1
10
33.7099149992063
20
-0.682387438139841
30
0
41
1
10
33.748766458259
20
-0.700628285029865
30
0
41
1
10
33.7683524862275
20
-0.708595963569309
30
0
41
1
10
33.8273407819304
20
-0.728873418358745
30
0
41
1
10
33.8670483525386
20
-0.737622575988553
30
0
41
1
10
33.9073790813525
20
-0.741521532904784
30
0
0
SPLINE
5
1BB
100
AcDbEntity
8
1
62
256
6
ByLayer
370
18
48
1
60
0
100
AcDbSpline
70
4
71
3
72
28
73
24
40
0
40
0
40
0
40
0
40
0.12499999999998
40
0.12499999999998
40
0.24999999999996
40
0.24999999999996
40
0.37499999999994
40
0.37499999999994
40
0.49999999999992
40
0.49999999999992
40
0.6249999999999
40
0.6249999999999
40
0.687499999999916
40
0.687499999999916
40
0.749999999999933
40
0.749999999999933
40
0.81249999999995
40
0.81249999999995
40
0.874999999999967
40
0.874999999999967
40
0.937499999999983
40
0.937499999999983
40
1
40
1
40
1
40
1
41
1
10
33.9073790813525
20
-0.741521532904784
30
0
41
1
10
33.9134255537403
20
-0.742106073181048
30
0
41
1
10
33.9204324169986
20
-0.743750461904625
30
0
41
1
10
33.9358886286182
20
-0.748575123742512
30
0
41
1
10
33.9444178513547
20
-0.751808747255325
30
0
41
1
10
33.9621362640654
20
-0.759439434298685
30
0
41
1
10
33.9713831677784
20
-0.763849968679068
30
0
41
1
10
33.9905832995619
20
-0.773814353515235
30
0
41
1
10
34.0006200070764
20
-0.779422438040314
30
0
41
1
10
34.0207218162398
20
-0.791544767736127
30
0
41
1
10
34.0308404457305
20
-0.798079720013277
30
0
41
1
10
34.0460850951298
20
-0.808731860573829
30
0
41
1
10
34.0511780021344
20
-0.812425426445571
30
0
41
1
10
34.061380801669
20
-0.820147224309409
30
0
41
1
10
34.0664558693709
20
-0.824151078674504
30
0
41
1
10
34.0763791956411
20
-0.832360525942079
30
0
41
1
10
34.0812502585897
20
-0.83658259863995
30
0
41
1
10
34.090778550822
20
-0.845302603526676
30
0
41
1
10
34.0954707962676
20
-0.849837129761227
30
0
41
1
10
34.1043865195563
20
-0.859030706455258
30
0
41
1
10
34.108609928873
20
-0.863683374539278
30
0
41
1
10
34.1165146741725
20
-0.87311597195918
30
0
41
1
10
34.1202192018185
20
-0.877930766496547
30
0
41
1
10
34.1235093409439
20
-0.882708461317065
30
0
0
SPLINE
5
1BC
100
AcDbEntity
8
1
62
256
6
ByLayer
370
18
48
1
60
0
100
AcDbSpline
70
4
71
3
72
8
73
4
40
0
40
0
40
0
40
0
40
1
40
1
40
1
40
1
41
1
10
34.1235093409438
20
-0.882708461317009
30
0
41
1
10
34.1744255478009
20
-0.956645182079143
30
0
41
1
10
34.2247515921728
20
-1.03498335812861
30
0
41
1
10
34.2744433315467
20
-1.1165468341745
30
0
0
SPLINE
5
1BD
100
AcDbEntity
8
1
62
256
6
ByLayer
370
18
48
1
60
0
100
AcDbSpline
70
4
71
3
72
14
73
10
40
0
40
0
40
0
40
0
40
0.499999999999971
40
0.499999999999971
40
0.749999999999971
40
0.749999999999971
40
0.874999999999986
40
0.874999999999986
40
1
40
1
40
1
40
1
41
1
10
34.2744433315467
20
-1.1165468341745
30
0
41
1
10
34.3372899365474
20
-1.15318882817402
30
0
41
1
10
34.4001423079687
20
-1.18616882573974
30
0
41
1
10
34.4944624817352
20
-1.23042076256306
30
0
41
1
10
34.5259049261346
20
-1.24430373221378
30
0
41
1
10
34.5732639326385
20
-1.26366811154912
30
0
41
1
10
34.5890866731696
20
-1.26987686299853
30
0
41
1
10
34.6206779721778
20
-1.28192962960731
30
0
41
1
10
34.636439509499
20
-1.2877790274562
30
0
41
1
10
34.6522360543323
20
-1.29338485323117
30
0
0
SPLINE
5
1BE
100
AcDbEntity
8
1
62
256
6
ByLayer
370
18
48
1
60
0
100
AcDbSpline
70
4
71
3
72
8
73
4
40
0
40
0
40
0
40
0
40
1
40
1
40
1
40
1
41
1
10
34.6522360543324
20
-1.2933848532312
30
0
41
1
10
34.690266963141
20
-1.26735569001673
30
0
41
1
10
34.7286989299106
20
-1.23709731224255
30
0
41
1
10
34.7677739520461
20
-1.2026429314767
30
0
0
SPLINE
5
1BF
100
AcDbEntity
8
1
62
256
6
ByLayer
370
18
48
1
60
0
100
AcDbSpline
70
4
71
3
72
26
73
22
40
0
40
0
40
0
40
0
40
0.125
40
0.125
40
0.25
40
0.25
40
0.375
40
0.375
40
0.5
40
0.5
40
0.625
40
0.625
40
0.750000000000001
40
0.750000000000001
40
0.812500000000001
40
0.812500000000001
40
0.875
40
0.875
40
0.9375
40
0.9375
40
1
40
1
40
1
40
1
41
1
10
34.7677739520461
20
-1.2026429314767
30
0
41
1
10
34.7738130811997
20
-1.19731793243855
30
0
41
1
10
34.7808123036222
20
-1.19334858043848
30
0
41
1
10
34.7962572404705
20
-1.18739316438899
30
0
41
1
10
34.8047838929684
20
-1.1854319411847
30
0
41
1
10
34.8225026936877
20
-1.18341973232137
30
0
41
1
10
34.8317519470542
20
-1.18333597781574
30
0
41
1
10
34.8509606895779
20
-1.18492082578706
30
0
41
1
10
34.8610025738022
20
-1.18662091043447
30
0
41
1
10
34.8811093580379
20
-1.19179912353948
30
0
41
1
10
34.8912303644885
20
-1.19526698241825
30
0
41
1
10
34.9115602429561
20
-1.20421293055827
30
0
41
1
10
34.9218858953515
20
-1.20977004981063
30
0
41
1
10
34.9367536216084
20
-1.21969856567426
30
0
41
1
10
34.9416187576165
20
-1.22327650886612
30
0
41
1
10
34.9511348528667
20
-1.23104993164461
30
0
41
1
10
34.9558206519433
20
-1.23528152296348
30
0
41
1
10
34.9647175716591
20
-1.24428150385381
30
0
41
1
10
34.9689318910938
20
-1.24904319138727
30
0
41
1
10
34.976820093618
20
-1.25917200718826
30
0
41
1
10
34.9805168539937
20
-1.26458005460987
30
0
41
1
10
34.9838008961494
20
-1.27022999996191
30
0
0
SPLINE
5
1C0
100
AcDbEntity
8
1
62
256
6
ByLayer
370
18
48
1
60
0
100
AcDbSpline
70
4
71
3
72
8
73
4
40
0
40
0
40
0
40
0
40
1
40
1
40
1
40
1
41
1
10
34.9838008961494
20
-1.27022999996188
30
0
41
1
10
35.0055090565019
20
-1.30757724274051
30
0
41
1
10
35.0270941149546
20
-1.34498486973507
30
0
41
1
10
35.0485814965477
20
-1.38243820948935
30
0
0
SPLINE
5
1C1
100
AcDbEntity
8
1
62
256
6
ByLayer
370
18
48
1
60
0
100
AcDbSpline
70
4
71
3
72
10
73
6
40
0
40
0
40
0
40
0
40
0.5
40
0.5
40
1
40
1
40
1
40
1
41
1
10
35.3418603766106
20
-0.0925753263352078
30
0
41
1
10
35.2743191176263
20
-0.0364094929545331
30
0
41
1
10
35.2076266935887
20
0.0212820301240129
30
0
41
1
10
35.0754181975462
20
0.139143561421946
30
0
41
1
10
35.0099484479748
20
0.199368745830071
30
0
41
1
10
34.9447554882208
20
0.260495622367074
30
0
0
SPLINE
5
1C2
100
AcDbEntity
8
1
62
256
6
ByLayer
370
18
48
1
60
0
100
AcDbSpline
70
4
71
3
72
10
73
6
40
0
40
0
40
0
40
0
40
0.5
40
0.5
40
1
40
1
40
1
40
1
41
1
10
34.9447554882208
20
0.260495622367046
30
0
41
1
10
34.9188498111757
20
0.288999258262408
30
0
41
1
10
34.8927967402354
20
0.315616990361093
30
0
41
1
10
34.84040144632
20
0.364848415545794
30
0
41
1
10
34.8140468504141
20
0.387487554641979
30
0
41
1
10
34.7874554857881
20
0.408035110139764
30
0
0
SPLINE
5
1C3
100
AcDbEntity
8
1
62
256
6
ByLayer
370
18
48
1
60
0
100
AcDbSpline
70
4
71
3
72
28
73
24
40
0
40
0
40
0
40
0
40
0.124999999999986
40
0.124999999999986
40
0.249999999999972
40
0.249999999999972
40
0.374999999999959
40
0.374999999999959
40
0.437499999999952
40
0.437499999999952
40
0.499999999999946
40
0.499999999999946
40
0.624999999999986
40
0.624999999999986
40
0.750000000000026
40
0.750000000000026
40
0.81250000000002
40
0.81250000000002
40
0.875000000000013
40
0.875000000000013
40
0.937500000000007
40
0.937500000000007
40
1
40
1
40
1
40
1
41
1
10
34.7874554857881
20
0.408035110139764
30
0
41
1
10
34.7816070599008
20
0.412554278568564
30
0
41
1
10
34.7748608176698
20
0.417674152046317
30
0
41
1
10
34.7599739365341
20
0.428800960490832
30
0
41
1
10
34.7517675427254
20
0.43485565998057
30
0
41
1
10
34.7346045017085
20
0.447401440777639
30
0
41
1
10
34.7255983427856
20
0.453930768838774
30
0
41
1
10
34.7114892349717
20
0.464124927581849
30
0
41
1
10
34.7066852142011
20
0.467590443277771
30
0
41
1
10
34.6968713526055
20
0.474671469891319
30
0
41
1
10
34.6918639309839
20
0.478285350959055
30
0
41
1
10
34.6767917938247
20
0.489189414841604
30
0
41
1
10
34.6665951357695
20
0.496599584457385
30
0
41
1
10
34.6459254599925
20
0.511842120702198
30
0
41
1
10
34.6353705245533
20
0.519735352731345
30
0
41
1
10
34.6200705242256
20
0.531517890091436
30
0
41
1
10
34.6150356873684
20
0.535453669435384
30
0
41
1
10
34.6051292224822
20
0.543356762892302
30
0
41
1
10
34.6002640302369
20
0.547320844587375
30
0
41
1
10
34.5910575771711
20
0.555029644758037
30
0
41
1
10
34.5866766973169
20
0.558805374174653
30
0
41
1
10
34.5784509665053
20
0.566167662886642
30
0
41
1
10
34.5746734141724
20
0.569695861883417
30
0
41
1
10
34.5713402887095
20
0.572984786742296
30
0
0
SPLINE
5
1C4
100
AcDbEntity
8
1
62
256
6
ByLayer
370
18
48
1
60
0
100
AcDbSpline
70
4
71
3
72
12
73
8
40
0
40
0
40
0
40
0
40
0.5
40
0.5
40
0.75
40
0.75
40
1
40
1
40
1
40
1
41
1
10
34.5713402887068
20
0.572984786745025
30
0
41
1
10
34.5338514202284
20
0.609976515034134
30
0
41
1
10
34.496667894578
20
0.650626120552431
30
0
41
1
10
34.4411947862628
20
0.716619766141434
30
0
41
1
10
34.4227374008589
20
0.739476309583608
30
0
41
1
10
34.3860826525958
20
0.786563168207607
30
0
41
1
10
34.3678634709431
20
0.810817923058551
30
0
41
1
10
34.3497334394259
20
0.835755070083366
30
0
0
SPLINE
5
1C5
100
AcDbEntity
8
1
62
256
6
ByLayer
370
18
48
1
60
0
100
AcDbSpline
70
4
71
3
72
8
73
4
40
0
40
0
40
0
40
0
40
1
40
1
40
1
40
1
41
1
10
34.3497334394258
20
0.835755070083422
30
0
41
1
10
34.2950677884497
20
0.888800935292011
30
0
41
1
10
34.2406738901132
20
0.941211667746558
30
0
41
1
10
34.186381119937
20
0.992811297224534
30
0
0
SPLINE
5
1C6
100
AcDbEntity
8
1
62
256
6
ByLayer
370
18
48
1
60
0
100
AcDbSpline
70
4
71
3
72
12
73
8
40
0
40
0
40
0
40
0
40
0.249999999999996
40
0.249999999999996
40
0.499999999999992
40
0.499999999999992
40
1
40
1
40
1
40
1
41
1
10
34.1863811199371
20
0.992811297224563
30
0
41
1
10
34.1652674993976
20
0.998941458331529
30
0
41
1
10
34.1440449786192
20
1.00363605289491
30
0
41
1
10
34.1013112071129
20
1.01008816946333
30
0
41
1
10
34.0797699537297
20
1.01184557188824
30
0
41
1
10
34.0148679106146
20
1.01262188086008
30
0
41
1
10
33.9712686991383
20
1.00719053686322
30
0
41
1
10
33.9269856462432
20
0.995611173426227
30
0
0
SPLINE
5
1C7
100
AcDbEntity
8
1
62
256
6
ByLayer
370
18
48
1
60
0
100
AcDbSpline
70
4
71
3
72
28
73
24
40
0
40
0
40
0
40
0
40
0.125000000000013
40
0.125000000000013
40
0.250000000000025
40
0.250000000000025
40
0.375000000000038
40
0.375000000000038
40
0.437500000000044
40
0.437500000000044
40
0.50000000000005
40
0.50000000000005
40
0.625000000000011
40
0.625000000000011
40
0.749999999999971
40
0.749999999999971
40
0.812499999999978
40
0.812499999999978
40
0.874999999999985
40
0.874999999999985
40
0.937499999999993
40
0.937499999999993
40
1
40
1
40
1
40
1
41
1
10
33.9269856462432
20
0.995611173426227
30
0
41
1
10
33.921127276739
20
0.994079296439367
30
0
41
1
10
33.9143680628206
20
0.993580407293791
30
0
41
1
10
33.899451891928
20
0.994136278149682
30
0
41
1
10
33.8912288542231
20
0.995220670488351
30
0
41
1
10
33.8740368545552
20
0.998728265961546
30
0
41
1
10
33.8650174299779
20
1.00114846358537
30
0
41
1
10
33.850894010624
20
1.00577312765381
30
0
41
1
10
33.846086212688
20
1.00748221548253
30
0
41
1
10
33.8362666500457
20
1.0112581188616
30
0
41
1
10
33.8312593973841
20
1.01332480782241
30
0
41
1
10
33.8161898666941
20
1.01999136941032
30
0
41
1
10
33.8059982430242
20
1.02507873540847
30
0
41
1
10
33.7853466223278
20
1.03682695660555
30
0
41
1
10
33.7748051366207
20
1.04355394943556
30
0
41
1
10
33.7595264559036
20
1.05477777121467
30
0
41
1
10
33.7544990385925
20
1.05872113108094
30
0
41
1
10
33.7446076317867
20
1.06709501724939
30
0
41
1
10
33.7397478294289
20
1.07152882582125
30
0
41
1
10
33.7305508371402
20
1.08068443684652
30
0
41
1
10
33.7261740918308
20
1.08543682925062
30
0
41
1
10
33.7179554117025
20
1.09536272014111
30
0
41
1
10
33.7141769103313
20
1.10046625351131
30
0
41
1
10
33.7108438414818
20
1.10563839704378
30
0
0
SPLINE
5
1C8
100
AcDbEntity
8
1
62
256
6
ByLayer
370
18
48
1
60
0
100
AcDbSpline
70
4
71
3
72
10
73
6
40
0
40
0
40
0
40
0
40
0.5
40
0.5
40
1
40
1
40
1
40
1
41
1
10
33.7108438414794
20
1.10563839704761
30
0
41
1
10
33.6644510785892
20
1.17762911772866
30
0
41
1
10
33.6185159284621
20
1.25215837260939
30
0
41
1
10
33.5271804676524
20
1.40580886555713
30
0
41
1
10
33.4822431803893
20
1.48415298609709
30
0
41
1
10
33.4377313088823
20
1.56375899619024
30
0
0
SPLINE
5
1C9
100
AcDbEntity
8
1
62
256
6
ByLayer
370
18
48
1
60
0
100
AcDbSpline
70
4
71
3
72
10
73
6
40
0
40
0
40
0
40
0
40
0.5
40
0.5
40
1
40
1
40
1
40
1
41
1
10
33.3597317055319
20
1.60392421944675
30
0
41
1
10
33.3121327767342
20
1.56838343967718
30
0
41
1
10
33.2640645523534
20
1.52632134878056
30
0
41
1
10
33.1661965312234
20
1.42884944321349
30
0
41
1
10
33.1168241825864
20
1.37386361160762
30
0
41
1
10
33.0665210070294
20
1.31239434530647
30
0
0
SPLINE
5
1CA
100
AcDbEntity
8
1
62
256
6
ByLayer
370
18
48
1
60
0
100
AcDbSpline
70
4
71
3
72
28
73
24
40
0
40
0
40
0
40
0
40
0.124999999999992
40
0.124999999999992
40
0.249999999999983
40
0.249999999999983
40
0.374999999999975
40
0.374999999999975
40
0.437499999999946
40
0.437499999999946
40
0.499999999999917
40
0.499999999999917
40
0.624999999999911
40
0.624999999999911
40
0.749999999999906
40
0.749999999999906
40
0.812499999999929
40
0.812499999999929
40
0.874999999999953
40
0.874999999999953
40
0.937499999999976
40
0.937499999999976
40
1
40
1
40
1
40
1
41
1
10
33.0665210070294
20
1.31239434530647
30
0
41
1
10
33.0606610792938
20
1.3052336550619
30
0
41
1
10
33.0538977191931
20
1.29925368832105
30
0
41
1
10
33.0389672728534
20
1.28908445749926
30
0
41
1
10
33.0307331296021
20
1.28489809414151
30
0
41
1
10
33.0135171115617
20
1.2784015049084
30
0
41
1
10
33.0044849203749
20
1.2760476968036
30
0
41
1
10
32.9903432666282
20
1.27383226630246
30
0
41
1
10
32.9855295971471
20
1.27331534125832
30
0
41
1
10
32.975699328481
20
1.27274943901765
30
0
41
1
10
32.9706892800096
20
1.2727034114622
30
0
41
1
10
32.9556135627732
20
1.27330808549416
30
0
41
1
10
32.9454211170467
20
1.27468127804491
30
0
41
1
10
32.9247792613519
20
1.27972035681603
30
0
41
1
10
32.9142500237581
20
1.28343721917398
30
0
41
1
10
32.8989970647551
20
1.29101717226311
30
0
41
1
10
32.893979423179
20
1.29388341050861
30
0
41
1
10
32.8841096960006
20
1.30042274424369
30
0
41
1
10
32.8792600953315
20
1.3041041007977
30
0
41
1
10
32.8700833632071
20
1.31218133202003
30
0
41
1
10
32.865716832985
20
1.31659890360081
30
0
41
1
10
32.8575177468012
20
1.32634687069986
30
0
41
1
10
32.8537433578339
20
1.33161841999072
30
0
41
1
10
32.8504145255974
20
1.33724688118593
30
0
0
SPLINE
5
1CB
100
AcDbEntity
8
1
62
256
6
ByLayer
370
18
48
1
60
0
100
AcDbSpline
70
4
71
3
72
10
73
6
40
0
40
0
40
0
40
0
40
0.5
40
0.5
40
1
40
1
40
1
40
1
41
1
10
32.8504145255945
20
1.33724688119085
30
0
41
1
10
32.8040059100646
20
1.41571556723545
30
0
41
1
10
32.7580698488554
20
1.49311179229747
30
0
41
1
10
32.6667311358625
20
1.64569341340797
30
0
41
1
10
32.6217805355052
20
1.72011241404832
30
0
41
1
10
32.5772597184325
20
1.79263647777063
30
0
0
SPLINE
5
1CC
100
AcDbEntity
8
1
62
256
6
ByLayer
370
18
48
1
60
0
100
AcDbSpline
70
4
71
3
72
8
73
4
40
0
40
0
40
0
40
0
40
1
40
1
40
1
40
1
41
1
10
32.4992901842503
20
1.78913524117601
30
0
41
1
10
32.5253010002452
20
1.7909872711036
30
0
41
1
10
32.5512851147204
20
1.79215355756716
30
0
41
1
10
32.5772597184325
20
1.7926364777706
30
0
0
SPLINE
5
1CD
100
AcDbEntity
8
1
62
256
6
ByLayer
370
18
48
1
60
0
100
AcDbSpline
70
4
71
3
72
10
73
6
40
0
40
0
40
0
40
0
40
0.5
40
0.5
40
1
40
1
40
1
40
1
41
1
10
32.4992901842503
20
1.78913524117601
30
0
41
1
10
32.451659520506
20
1.71062524629045
30
0
41
1
10
32.4035427722293
20
1.62803840742217
30
0
41
1
10
32.305617469235
20
1.45493088885033
30
0
41
1
10
32.2562429248412
20
1.36517410023129
30
0
41
1
10
32.2060087325196
20
1.272253006738
30
0
0
SPLINE
5
1CE
100
AcDbEntity
8
1
62
256
6
ByLayer
370
18
48
1
60
0
100
AcDbSpline
70
4
71
3
72
28
73
24
40
0
40
0
40
0
40
0
40
0.124999999999973
40
0.124999999999973
40
0.249999999999946
40
0.249999999999946
40
0.37499999999992
40
0.37499999999992
40
0.437499999999907
40
0.437499999999907
40
0.499999999999894
40
0.499999999999894
40
0.624999999999921
40
0.624999999999921
40
0.749999999999947
40
0.749999999999947
40
0.81249999999996
40
0.81249999999996
40
0.874999999999973
40
0.874999999999973
40
0.937499999999987
40
0.937499999999987
40
1
40
1
40
1
40
1
41
1
10
32.2060087325196
20
1.272253006738
30
0
41
1
10
32.2001490255743
20
1.26141396759456
30
0
41
1
10
32.1933884416164
20
1.25158175592523
30
0
41
1
10
32.1784694191167
20
1.23345329712873
30
0
41
1
10
32.1702448216784
20
1.22513258050375
30
0
41
1
10
32.1530506193254
20
1.21038225639714
30
0
41
1
10
32.1440306822637
20
1.20388071389939
30
0
41
1
10
32.1299077574562
20
1.19539734242261
30
0
41
1
10
32.1251003808597
20
1.1927832282064
30
0
41
1
10
32.115282401861
20
1.18800249697998
30
0
41
1
10
32.1102756821217
20
1.1858407752224
30
0
41
1
10
32.0952080463575
20
1.18017081518576
30
0
41
1
10
32.0850176896898
20
1.1774209655234
30
0
41
1
10
32.0643703460241
20
1.17431102772517
30
0
41
1
10
32.0538312272197
20
1.17397284581207
30
0
41
1
10
32.0385561091141
20
1.17581279079874
30
0
41
1
10
32.0335301002277
20
1.1768133949216
30
0
41
1
10
32.0236420735369
20
1.17972960016888
30
0
41
1
10
32.018783440184
20
1.18165452129915
30
0
41
1
10
32.0095895632227
20
1.186459304972
30
0
41
1
10
32.0052147158203
20
1.18934617103454
30
0
41
1
10
31.9970003560741
20
1.19628737985855
30
0
41
1
10
31.9932230642837
20
1.20029950629043
30
0
41
1
10
31.989891635539
20
1.20486452992336
30
0
0
SPLINE
5
1CF
100
AcDbEntity
8
1
62
256
6
ByLayer
370
18
48
1
60
0
100
AcDbSpline
70
4
71
3
72
10
73
6
40
0
40
0
40
0
40
0
40
0.5
40
0.5
40
1
40
1
40
1
40
1
41
1
10
31.9898916355362
20
1.2048645299268
30
0
41
1
10
31.9434756665708
20
1.26846786997817
30
0
41
1
10
31.8975241490596
20
1.32765835214192
30
0
41
1
10
31.8061614280348
20
1.43745947078941
30
0
41
1
10
31.7612074650882
20
1.48756592679751
30
0
41
1
10
31.716678625853
20
1.53317265835264
30
0
0
SPLINE
5
1D0
100
AcDbEntity
8
1
62
256
6
ByLayer
370
18
48
1
60
0
100
AcDbSpline
70
4
71
3
72
8
73
4
40
0
40
0
40
0
40
0
40
1
40
1
40
1
40
1
41
1
10
31.6386675936408
20
1.4869438265421
30
0
41
1
10
31.6646925205836
20
1.50294050116972
30
0
41
1
10
31.6906907387834
20
1.51835193546069
30
0
41
1
10
31.716678625853
20
1.53317265835261
30
0
0
SPLINE
5
1D1
100
AcDbEntity
8
1
62
256
6
ByLayer
370
18
48
1
60
0
100
AcDbSpline
70
4
71
3
72
10
73
6
40
0
40
0
40
0
40
0
40
0.657488962321858
40
0.657488962321858
40
1
40
1
40
1
40
1
41
1
10
31.6386675936409
20
1.4869438265421
30
0
41
1
10
31.5910591405627
20
1.3868343001871
30
0
41
1
10
31.5430025581791
20
1.28627238647067
30
0
41
1
10
31.4686001021053
20
1.13306744686281
30
0
41
1
10
31.4429998094517
20
1.08078726298726
30
0
41
1
10
31.4172175811241
20
1.02873664657145
30
0
0
SPLINE
5
1D2
100
AcDbEntity
8
1
62
256
6
ByLayer
370
18
48
1
60
0
100
AcDbSpline
70
4
71
3
72
8
73
4
40
0
40
0
40
0
40
0
40
1
40
1
40
1
40
1
41
1.04
10
35.6437071447895
20
-1.31601919205247
30
0
41
1.04
10
35.63854776696
20
-1.32648951715428
30
0
41
1.04
10
35.6333611189242
20
-1.3337216579983
30
0
41
1.04
10
35.6281453095772
20
-1.33756702134158
30
0
0
SPLINE
5
1D3
100
AcDbEntity
8
1
62
256
6
ByLayer
370
18
48
1
60
0
100
AcDbSpline
70
4
71
3
72
8
73
4
40
0
40
0
40
0
40
0
40
1
40
1
40
1
40
1
41
1
10
29.33209307135
20
1.79289275743929
30
0
41
1
10
29.3360598492944
20
1.79288954737927
30
0
41
1
10
29.3400331812626
20
1.79028154893501
30
0
41
1
10
29.344004405488
20
1.7850731829659
30
0
0
SPLINE
5
1D4
100
AcDbEntity
8
1
62
256
6
ByLayer
370
18
48
1
60
0
100
AcDbSpline
70
4
71
3
72
10
73
6
40
0
40
0
40
0
40
0
40
0.753296822639916
40
0.753296822639916
40
1
40
1
40
1
40
1
41
1
10
29.4218649736908
20
1.77504767787227
30
0
41
1
10
29.41741415649
20
1.78397613960979
30
0
41
1
10
29.4129699227456
20
1.78957822887563
30
0
41
1
10
29.4070199599588
20
1.79253021965647
30
0
41
1
10
29.4055476654037
20
1.79289539298469
30
0
41
1
10
29.4040705165767
20
1.79289252170673
30
0
0
SPLINE
5
1D5
100
AcDbEntity
8
1
62
256
6
ByLayer
370
18
48
1
60
0
100
AcDbSpline
70
4
71
3
72
8
73
4
40
0
40
0
40
0
40
0
40
1
40
1
40
1
40
1
41
1
10
35.6281453095772
20
-1.33756702134156
30
0
41
1
10
35.6281392458711
20
-1.33755896269619
30
0
41
1
10
35.6281331963641
20
-1.33755085094265
30
0
41
1
10
35.6281271610958
20
-1.33754268606975
30
0
0
SPLINE
5
1D6
100
AcDbEntity
8
1
62
256
6
ByLayer
370
18
48
1
60
0
100
AcDbSpline
70
4
71
3
72
16
73
12
40
0
40
0
40
0
40
0
40
0.0798490710611191
40
0.309886803295839
40
0.539924535530559
40
0.539924535530559
40
0.65494340164792
40
0.65494340164792
40
0.76996226776528
40
0.76996226776528
40
1
40
1
40
1
40
1
41
1
10
33.3009805698227
20
1.79289345396222
30
0
41
1
10
33.3025661413567
20
1.79291273959254
30
0
41
1
10
33.3087176357702
20
1.79139333651281
30
0
41
1
10
33.3194124960737
20
1.77808753671351
30
0
41
1
10
33.3284955956928
20
1.75324255323562
30
0
41
1
10
33.3353179598272
20
1.7293572030695
30
0
41
1
10
33.3375779112356
20
1.7205728819489
30
0
41
1
10
33.3420631679369
20
1.7014451398141
30
0
41
1
10
33.344290721832
20
1.69109383930018
30
0
41
1
10
33.3509421793931
20
1.65771219071712
30
0
41
1
10
33.3553338388548
20
1.63236046571916
30
0
41
1
10
33.359731705532
20
1.60392421944681
30
0
0
SPLINE
5
1D7
100
AcDbEntity
8
1
62
256
6
ByLayer
370
18
48
1
60
0
100
AcDbSpline
70
4
71
3
72
20
73
16
40
0
40
0
40
0
40
0
40
0.209150431682962
40
0.209150431682962
40
0.313725647524443
40
0.313725647524443
40
0.418300863365924
40
0.418300863365924
40
0.627451295048887
40
0.627451295048887
40
0.83660172673185
40
0.83660172673185
40
0.941176942573332
40
0.941176942573332
40
1
40
1
40
1
40
1
41
1
10
33.4377313088823
20
1.56375899619022
30
0
41
1
10
33.4332809201125
20
1.59485098244971
30
0
41
1
10
33.4288161476547
20
1.62300449225592
30
0
41
1
10
33.4220164661884
20
1.66074823515373
30
0
41
1
10
33.4197353770077
20
1.67258027184138
30
0
41
1
10
33.4151601520168
20
1.69471355375148
30
0
41
1
10
33.4128762771588
20
1.70496163102595
30
0
41
1
10
33.406088013159
20
1.73308549862796
30
0
41
1
10
33.4016330213128
20
1.74844071639146
30
0
41
1
10
33.3927666206108
20
1.77250960643232
30
0
41
1
10
33.3883441473137
20
1.78122282505365
30
0
41
1
10
33.3815881934125
20
1.78925159642915
30
0
41
1
10
33.3793206370725
20
1.79108600846078
30
0
41
1
10
33.3757551104398
20
1.79261211961483
30
0
41
1
10
33.3744655011323
20
1.79288827265185
30
0
41
1
10
33.3731755841445
20
1.79289110410542
30
0
0
SPLINE
5
1D8
100
AcDbEntity
8
1
62
256
6
ByLayer
370
18
48
1
60
0
100
AcDbSpline
70
4
71
3
72
19
73
15
40
0
40
0
40
0
40
0
40
0.191577453193957
40
0.191577453193957
40
0.292630271544712
40
0.292630271544712
40
0.393683089895466
40
0.393683089895466
40
0.595788726596977
40
0.797894363298488
40
0.797894363298488
40
0.898947181649244
40
0.898947181649244
40
1
40
1
40
1
40
1
41
1
10
31.3886787691518
20
-1.7928925340232
30
0
41
1
10
31.3843992839154
20
-1.79290467492962
30
0
41
1
10
31.3801207879242
20
-1.78989098148352
30
0
41
1
10
31.3735734017788
20
-1.78061836573059
30
0
41
1
10
31.3713101038014
20
-1.77656400659103
30
0
41
1
10
31.3667743358823
20
-1.76671933230026
30
0
41
1
10
31.3644960561285
20
-1.76090858158537
30
0
41
1
10
31.3577135928114
20
-1.74104284536529
30
0
41
1
10
31.3487752833666
20
-1.70803873068397
30
0
41
1
10
31.339912331805
20
-1.66237315157221
30
0
41
1
10
31.3332255262858
20
-1.62335347900102
30
0
41
1
10
31.3309897964187
20
-1.60955020342843
30
0
41
1
10
31.326490787239
20
-1.58032616487202
30
0
41
1
10
31.3242226631388
20
-1.56487409284887
30
0
41
1
10
31.3219436619144
20
-1.54866419505677
30
0
0
SPLINE
5
1D9
100
AcDbEntity
8
1
62
256
6
ByLayer
370
18
48
1
60
0
100
AcDbSpline
70
4
71
3
72
19
73
15
40
0
40
0
40
0
40
0
40
0.185022532064314
40
0.185022532064314
40
0.370045064128627
40
0.370045064128627
40
0.462556330160784
40
0.462556330160784
40
0.555067596192941
40
0.555067596192941
40
0.740090128257254
40
0.925112660321568
40
0.925112660321568
40
1
40
1
40
1
40
1
41
1
10
31.2439771575343
20
-1.50375129828413
30
0
41
1
10
31.2484771941927
20
-1.53865876587022
30
0
41
1
10
31.2529383131878
20
-1.57044173218793
30
0
41
1
10
31.2618851897444
20
-1.62791349722428
30
0
41
1
10
31.2663804205188
20
-1.6536018005568
30
0
41
1
10
31.2731599379318
20
-1.68752488757374
30
0
41
1
10
31.2754256329074
20
-1.69806275845477
30
0
41
1
10
31.2799706769375
20
-1.71757237566004
30
0
41
1
10
31.2822569825479
20
-1.72656738808479
30
0
41
1
10
31.2890803433303
20
-1.75092997634042
30
0
41
1
10
31.2980806078016
20
-1.77648371530438
30
0
41
1
10
31.3069862852933
20
-1.7886011555731
30
0
41
1
10
31.3132557642685
20
-1.79237975638279
30
0
41
1
10
31.3150645196746
20
-1.79291672417204
30
0
41
1
10
31.3168768904739
20
-1.79289350160556
30
0
0
SPLINE
5
1DA
100
AcDbEntity
8
1
62
256
6
ByLayer
370
18
48
1
60
0
100
AcDbSpline
70
4
71
3
72
24
73
20
40
0
40
0
40
0
40
0
40
0.13527328619048
40
0.13527328619048
40
0.171303565932543
40
0.171303565932543
40
0.207333845674606
40
0.207333845674606
40
0.279394405158733
40
0.279394405158733
40
0.423515524126986
40
0.567636643095239
40
0.567636643095239
40
0.639697202579366
40
0.639697202579366
40
0.711757762063493
40
0.711757762063493
40
0.855878881031746
40
1
40
1
40
1
40
1
41
1
10
30.1110195738479
20
1.78017700267557
30
0
41
1
10
30.1151888119711
20
1.78726798410773
30
0
41
1
10
30.1193624281488
20
1.79142054516069
30
0
41
1
10
30.1246988502893
20
1.79287184211441
30
0
41
1
10
30.125824261205
20
1.79296321681704
30
0
41
1
10
30.1280819147257
20
1.79271324418284
30
0
41
1
10
30.1292151077355
20
1.79237080044803
30
0
41
1
10
30.1326051205087
20
1.7906988160621
30
0
41
1
10
30.1348583321538
20
1.78872608422751
30
0
41
1
10
30.1416023616703
20
1.78028603692016
30
0
41
1
10
30.1505516698149
20
1.76232159705174
30
0
41
1
10
30.1594935303896
20
1.73113792103544
30
0
41
1
10
30.1662386509327
20
1.7026998064176
30
0
41
1
10
30.1684936026225
20
1.69237695727145
30
0
41
1
10
30.1730249945651
20
1.67000628006247
30
0
41
1
10
30.1752856562783
20
1.65803482958111
30
0
41
1
10
30.1820435789456
20
1.61992259443497
30
0
41
1
10
30.1910092148851
20
1.5631658553279
30
0
41
1
10
30.2000080272776
20
1.49477762940029
30
0
41
1
10
30.2045389117176
20
1.45763853409406
30
0
0
SPLINE
5
1DB
100
AcDbEntity
8
1
62
256
6
ByLayer
370
18
48
1
60
0
100
AcDbSpline
70
4
71
3
72
22
73
18
40
0
40
0
40
0
40
0
40
0.159673943799887
40
0.319347887599775
40
0.319347887599775
40
0.399184859499719
40
0.399184859499719
40
0.479021831399663
40
0.479021831399663
40
0.638695775199552
40
0.79836971899944
40
0.79836971899944
40
0.878206690899384
40
0.878206690899384
40
0.958043662799328
40
0.958043662799328
40
1
40
1
40
1
40
1
41
1
10
30.2825933993326
20
1.4059816624374
30
0
41
1
10
30.2781339340785
20
1.44546053307434
30
0
41
1
10
30.2691661311724
20
1.518901846392
30
0
41
1
10
30.2601126452367
20
1.58131021223704
30
0
41
1
10
30.2532763622131
20
1.62383286962225
30
0
41
1
10
30.251000091183
20
1.63722331474398
30
0
41
1
10
30.2464773904355
20
1.66228773188922
30
0
41
1
10
30.2442263404852
20
1.67399067478269
30
0
41
1
10
30.237494119505
20
1.70664934797534
30
0
41
1
10
30.2285749846995
20
1.74367361362781
30
0
41
1
10
30.219631100952
20
1.76772252952199
30
0
41
1
10
30.2128440957307
20
1.78075030189566
30
0
41
1
10
30.2105637360115
20
1.78425720373565
30
0
41
1
10
30.2060158909713
20
1.78950683546142
30
0
41
1
10
30.2037418309989
20
1.79126406462106
30
0
41
1
10
30.2002752273266
20
1.79264533128457
30
0
41
1
10
30.1990816076406
20
1.79288639965108
30
0
41
1
10
30.1978886313428
20
1.79289337314498
30
0
0
SPLINE
5
1DC
100
AcDbEntity
8
1
62
256
6
ByLayer
370
18
48
1
60
0
100
AcDbSpline
70
4
71
3
72
85
73
81
40
0
40
0
40
0
40
0
40
0.0312499999999998
40
0.0312499999999998
40
0.0624999999999997
40
0.0624999999999997
40
0.124999999999994
40
0.124999999999994
40
0.156249999999992
40
0.156249999999992
40
0.17187499999999
40
0.17187499999999
40
0.187499999999989
40
0.187499999999989
40
0.249999999999995
40
0.249999999999995
40
0.281249999999995
40
0.281249999999995
40
0.296874999999995
40
0.296874999999995
40
0.312499999999995
40
0.312499999999995
40
0.343749999999989
40
0.343749999999989
40
0.359374999999986
40
0.359374999999986
40
0.374999999999982
40
0.390624999999979
40
0.390624999999979
40
0.406249999999976
40
0.406249999999976
40
0.43749999999997
40
0.43749999999997
40
0.468749999999964
40
0.468749999999964
40
0.484374999999963
40
0.484374999999963
40
0.499999999999963
40
0.499999999999963
40
0.531249999999962
40
0.531249999999962
40
0.546874999999962
40
0.546874999999962
40
0.562499999999961
40
0.562499999999961
40
0.578124999999961
40
0.578124999999961
40
0.585937499999961
40
0.585937499999961
40
0.593749999999961
40
0.609374999999961
40
0.617187499999961
40
0.617187499999961
40
0.624999999999962
40
0.624999999999962
40
0.640624999999963
40
0.640624999999963
40
0.648437499999964
40
0.648437499999964
40
0.656249999999966
40
0.656249999999966
40
0.671874999999968
40
0.671874999999968
40
0.687499999999971
40
0.687499999999971
40
0.703124999999973
40
0.703124999999973
40
0.718749999999976
40
0.718749999999976
40
0.749999999999977
40
0.749999999999977
40
0.781249999999978
40
0.781249999999978
40
0.81249999999998
40
0.81249999999998
40
0.874999999999986
40
0.874999999999986
40
0.937499999999993
40
0.937499999999993
40
1
40
1
40
1
40
1
41
1
10
23.4698697318588
20
1.03510627810451
30
0
41
1
10
23.4435578100087
20
1.04781253839474
30
0
41
1
10
23.4170942393749
20
1.05978621408781
30
0
41
1
10
23.3633151377436
20
1.08198625335441
30
0
41
1
10
23.3359504561483
20
1.09218219643935
30
0
41
1
10
23.2523698352823
20
1.12033826825549
30
0
41
1
10
23.1946685008288
20
1.13585825820638
30
0
41
1
10
23.1043755532517
20
1.15504885200448
30
0
41
1
10
23.0736524591633
20
1.16076408725689
30
0
41
1
10
23.0265035477497
20
1.16840807631411
30
0
41
1
10
23.0106095923202
20
1.17080120704355
30
0
41
1
10
22.9784411965043
20
1.17529228029454
30
0
41
1
10
22.9621583355075
20
1.17739033922163
30
0
41
1
10
22.8804835545193
20
1.18709453448668
30
0
41
1
10
22.8137637109438
20
1.19246813224817
30
0
41
1
10
22.7110521574358
20
1.19765133004484
30
0
41
1
10
22.6763845208786
20
1.19890308625682
30
0
41
1
10
22.6234970814692
20
1.199942831306
30
0
41
1
10
22.6057120187529
20
1.20012861475234
30
0
41
1
10
22.570423993511
20
1.20022535394517
30
0
41
1
10
22.5528416462872
20
1.20013809178704
30
0
41
1
10
22.500240711752
20
1.19955163928344
30
0
41
1
10
22.4653694129181
20
1.19872406126706
30
0
41
1
10
22.4131840090938
20
1.19717215361555
30
0
41
1
10
22.3958090887708
20
1.19660381411751
30
0
41
1
10
22.3611301818195
20
1.19528608505866
30
0
41
1
10
22.3265149968193
20
1.19380373400887
30
0
41
1
10
22.2920375218993
20
1.19194216772107
30
0
41
1
10
22.2576350614812
20
1.18985905624959
30
0
41
1
10
22.2404887776869
20
1.18870726180026
30
0
41
1
10
22.1895464578488
20
1.18489051745436
30
0
41
1
10
22.1561366661744
20
1.18185885954694
30
0
41
1
10
22.0906002328035
20
1.17445763729339
30
0
41
1
10
22.0584654885587
20
1.17009847932655
30
0
41
1
10
22.0114867805503
20
1.1620724613021
30
0
41
1
10
21.9959857804585
20
1.15914546687321
30
0
41
1
10
21.9655953246835
20
1.15274213927546
30
0
41
1
10
21.950775410852
20
1.14927946213976
30
0
41
1
10
21.9075520707114
20
1.13796059211765
30
0
41
1
10
21.8803682239075
20
1.1291948648491
30
0
41
1
10
21.84271169601
20
1.113336520628
30
0
41
1
10
21.8306744415378
20
1.10757782225562
30
0
41
1
10
21.8083110127962
20
1.09523515166146
30
0
41
1
10
21.7979145944844
20
1.08862510700772
30
0
41
1
10
21.7788066057997
20
1.07439179208256
30
0
41
1
10
21.7701217267505
20
1.06675924539823
30
0
41
1
10
21.7583523767275
20
1.05446590431214
30
0
41
1
10
21.7546345246478
20
1.0502169873715
30
0
41
1
10
21.7477494492205
20
1.04152788999266
30
0
41
1
10
21.7382101427112
20
1.02817275384371
30
0
41
1
10
21.7287367214909
20
1.00902279038951
30
0
41
1
10
21.7241868381395
20
0.993560096008565
30
0
41
1
10
21.7217330411478
20
0.982995951958003
30
0
41
1
10
21.7207872975778
20
0.977595155105661
30
0
41
1
10
21.7189282172378
20
0.961268136535978
30
0
41
1
10
21.7200242372289
20
0.950171290510639
30
0
41
1
10
21.7241236246142
20
0.933187400498269
30
0
41
1
10
21.7259124314822
20
0.92745384057983
30
0
41
1
10
21.7301831774419
20
0.915942328210718
30
0
41
1
10
21.7326444339461
20
0.91021244130647
30
0
41
1
10
21.7408213149346
20
0.893065397145818
30
0
41
1
10
21.7473207309996
20
0.881689071441116
30
0
41
1
10
21.7618015290776
20
0.858932523045695
30
0
41
1
10
21.7697890560798
20
0.847553534512087
30
0
41
1
10
21.7868946340611
20
0.824727887415548
30
0
41
1
10
21.7959672639559
20
0.813345171592687
30
0
41
1
10
21.8147618236199
20
0.790749069319901
30
0
41
1
10
21.8245097023028
20
0.779506032417032
30
0
41
1
10
21.8545705013555
20
0.745848767863464
30
0
41
1
10
21.8756886950741
20
0.723501949753199
30
0
41
1
10
21.9193303937651
20
0.678688942959127
30
0
41
1
10
21.9418623483223
20
0.65622616584119
30
0
41
1
10
21.9879197570369
20
0.611004579905853
30
0
41
1
10
22.0114738774848
20
0.588222699330487
30
0
41
1
10
22.0830634395905
20
0.51939815526552
30
0
41
1
10
22.1315764998847
20
0.473262625373906
30
0
41
1
10
22.2290769941797
20
0.379685537720803
30
0
41
1
10
22.2780625737508
20
0.33223809957579
30
0
41
1
10
22.3759690035955
20
0.235543065879227
30
0
41
1
10
22.4248982163709
20
0.186301195689623
30
0
41
1
10
22.4737616463294
20
0.136078807331757
30
0
0
SPLINE
5
1DD
100
AcDbEntity
8
1
62
256
6
ByLayer
370
18
48
1
60
0
100
AcDbSpline
70
4
71
3
72
85
73
81
40
0
40
0
40
0
40
0
40
0.0312500000000027
40
0.0312500000000027
40
0.0625000000000054
40
0.0625000000000054
40
0.125000000000011
40
0.125000000000011
40
0.156250000000011
40
0.156250000000011
40
0.171875000000014
40
0.171875000000014
40
0.187500000000016
40
0.187500000000016
40
0.250000000000016
40
0.250000000000016
40
0.281250000000016
40
0.281250000000016
40
0.296875000000016
40
0.296875000000016
40
0.312500000000016
40
0.312500000000016
40
0.343750000000009
40
0.343750000000009
40
0.359375000000006
40
0.359375000000006
40
0.375000000000003
40
0.390625
40
0.390625
40
0.406249999999997
40
0.406249999999997
40
0.437499999999996
40
0.437499999999996
40
0.468749999999996
40
0.468749999999996
40
0.484374999999999
40
0.484374999999999
40
0.500000000000001
40
0.500000000000001
40
0.531250000000011
40
0.531250000000011
40
0.546875000000016
40
0.546875000000016
40
0.562500000000021
40
0.562500000000021
40
0.578125000000026
40
0.578125000000026
40
0.585937500000027
40
0.585937500000027
40
0.593750000000028
40
0.609375000000029
40
0.617187500000028
40
0.617187500000028
40
0.625000000000028
40
0.625000000000028
40
0.640625000000028
40
0.640625000000028
40
0.648437500000028
40
0.648437500000028
40
0.656250000000027
40
0.656250000000027
40
0.671875000000027
40
0.671875000000027
40
0.687500000000027
40
0.687500000000027
40
0.703125000000026
40
0.703125000000026
40
0.718750000000026
40
0.718750000000026
40
0.750000000000022
40
0.750000000000022
40
0.781250000000017
40
0.781250000000017
40
0.812500000000013
40
0.812500000000013
40
0.875000000000009
40
0.875000000000009
40
0.937500000000004
40
0.937500000000004
40
1
40
1
40
1
40
1
41
1
10
23.4698697318588
20
-1.10093551346157
30
0
41
1
10
23.4435578100088
20
-1.09037992681829
30
0
41
1
10
23.4170942393749
20
-1.07937566208486
30
0
41
1
10
23.3633151377436
20
-1.05700718039696
30
0
41
1
10
23.3359504561482
20
-1.04568641110888
30
0
41
1
10
23.2523698352822
20
-1.01165903524674
30
0
41
1
10
23.1946685008288
20
-0.98887800340043
30
0
41
1
10
23.1043755532517
20
-0.956394832696049
30
0
41
1
10
23.0736524591633
20
-0.945851277279871
30
0
41
1
10
23.0265035477497
20
-0.930730250028802
30
0
41
1
10
23.0106095923201
20
-0.925805970923875
30
0
41
1
10
22.9784411965042
20
-0.916239286571766
30
0
41
1
10
22.9621583355074
20
-0.911595776556652
30
0
41
1
10
22.8804835545192
20
-0.889413177427627
30
0
41
1
10
22.8137637109437
20
-0.874761179848178
30
0
41
1
10
22.7110521574357
20
-0.85993515490452
30
0
41
1
10
22.6763845208785
20
-0.856158903633542
30
0
41
1
10
22.6234970814691
20
-0.852999566955759
30
0
41
1
10
22.6057120187528
20
-0.852427661688893
30
0
41
1
10
22.5704239935108
20
-0.852130744521133
30
0
41
1
10
22.552841646287
20
-0.852399548559617
30
0
41
1
10
22.5002407117519
20
-0.854192204524708
30
0
41
1
10
22.4653694129179
20
-0.85670947893226
30
0
41
1
10
22.4131840090936
20
-0.861276481211831
30
0
41
1
10
22.3958090887707
20
-0.862930825418857
30
0
41
1
10
22.3611301818194
20
-0.866701329061669
30
0
41
1
10
22.3265150063244
20
-0.870885294131313
30
0
41
1
10
22.2920375218992
20
-0.875945638984575
30
0
41
1
10
22.2576350614812
20
-0.881472578304425
30
0
41
1
10
22.2404887776868
20
-0.884467580399615
30
0
41
1
10
22.1895464578487
20
-0.894122029098384
30
0
41
1
10
22.1561366661743
20
-0.901477627413442
30
0
41
1
10
22.0906002328034
20
-0.918166727667455
30
0
41
1
10
22.0584654885586
20
-0.927489268430406
30
0
41
1
10
22.0114867805502
20
-0.943193670807801
30
0
41
1
10
21.9959857804583
20
-0.948716507082167
30
0
41
1
10
21.9655953246834
20
-0.960259016706686
30
0
41
1
10
21.9507754108519
20
-0.96625526246774
30
0
41
1
10
21.9075520707112
20
-0.984923515870292
30
0
41
1
10
21.8803682239074
20
-0.998273301541474
30
0
41
1
10
21.8427116960099
20
-1.01969827204741
30
0
41
1
10
21.8306744415377
20
-1.02708781732733
30
0
41
1
10
21.8083110127961
20
-1.04198919799148
30
0
41
1
10
21.7979145944843
20
-1.04953846609757
30
0
41
1
10
21.7788066057996
20
-1.06477849458966
30
0
41
1
10
21.7701217267505
20
-1.07247808599413
30
0
41
1
10
21.7583523767274
20
-1.08404751706718
30
0
41
1
10
21.7546345246478
20
-1.08791575413466
30
0
41
1
10
21.7477494492205
20
-1.09555394457212
30
0
41
1
10
21.7382101427112
20
-1.10689769485455
30
0
41
1
10
21.7287367214909
20
-1.12153399793277
30
0
41
1
10
21.7241868381394
20
-1.13207972967535
30
0
41
1
10
21.7217330411478
20
-1.13900562276194
30
0
41
1
10
21.7207872975778
20
-1.14240903471813
30
0
41
1
10
21.7189282172378
20
-1.1522924910314
30
0
41
1
10
21.7200242372289
20
-1.1584796999106
30
0
41
1
10
21.7241236246142
20
-1.16719819309353
30
0
41
1
10
21.7259124314822
20
-1.17001784144236
30
0
41
1
10
21.730183177442
20
-1.1754403785327
30
0
41
1
10
21.7326444339461
20
-1.1780215570717
30
0
41
1
10
21.7408213149347
20
-1.18542091525973
30
0
41
1
10
21.7473207309996
20
-1.18989722117792
30
0
41
1
10
21.7618015290777
20
-1.19809349904156
30
0
41
1
10
21.7697890560798
20
-1.20181202964443
30
0
41
1
10
21.7868946340611
20
-1.20858442115545
30
0
41
1
10
21.795967263956
20
-1.21161763723734
30
0
41
1
10
21.8147618236199
20
-1.21703215434192
30
0
41
1
10
21.8245097023029
20
-1.21942193078681
30
0
41
1
10
21.8545705013555
20
-1.22575318070233
30
0
41
1
10
21.8756886950741
20
-1.22886286769625
30
0
41
1
10
21.9193303937651
20
-1.23321824733975
30
0
41
1
10
21.9418623483224
20
-1.23445991780505
30
0
41
1
10
21.9879197570369
20
-1.23525721634837
30
0
41
1
10
22.0114738774848
20
-1.23480983678573
30
0
41
1
10
22.0830634395904
20
-1.23108227901943
30
0
41
1
10
22.1315764998846
20
-1.22546890842261
30
0
41
1
10
22.2290769941796
20
-1.20849977418968
30
0
41
1
10
22.2780625737508
20
-1.19712974285929
30
0
41
1
10
22.3759690035955
20
-1.1685613613173
30
0
41
1
10
22.4248982163709
20
-1.15135786193932
30
0
41
1
10
22.4737616463294
20
-1.13106841015926
30
0
0
SPLINE
5
1DE
100
AcDbEntity
8
1
62
256
6
ByLayer
370
13
48
1
60
0
100
AcDbSpline
70
4
71
3
72
10
73
6
40
0
40
0
40
0
40
0
40
0.0252292365746503
40
0.413816931036065
40
1
40
1
40
1
40
1
41
1
10
35.6479499253818
20
-0.291222869141592
30
0
41
1
10
35.6472043764449
20
-0.283505636313123
30
0
41
1
10
35.6349676544488
20
-0.156578868093874
30
0
41
1
10
35.6050749934439
20
0.163312881273214
30
0
41
1
10
35.5755915776162
20
0.471224277889832
30
0
41
1
10
35.5573899201405
20
0.640768159267736
30
0
0
SPLINE
5
1DF
100
AcDbEntity
8
1
62
256
6
ByLayer
370
18
48
1
60
0
100
AcDbSpline
70
4
71
3
72
22
73
18
40
0
40
0
40
0
40
0
40
0.250000000000002
40
0.250000000000002
40
0.375000000000003
40
0.375000000000003
40
0.437500000000003
40
0.437500000000003
40
0.500000000000004
40
0.500000000000004
40
0.750000000000001
40
0.750000000000001
40
0.812500000000001
40
0.812500000000001
40
0.875
40
0.875
40
1
40
1
40
1
40
1
41
1
10
35.5645037675199
20
0.643267939507354
30
0
41
1
10
35.5766449681341
20
0.569896368656288
30
0
41
1
10
35.588245962233
20
0.492833518729469
30
0
41
1
10
35.6051022644978
20
0.371925492477601
30
0
41
1
10
35.6106302481762
20
0.330731277490969
30
0
41
1
10
35.6188223448397
20
0.267574083670809
30
0
41
1
10
35.621541829806
20
0.24624804792262
30
0
41
1
10
35.6268944647885
20
0.203598310124249
30
0
41
1
10
35.6295338689226
20
0.182227806790109
30
0
41
1
10
35.642563611366
20
0.0751524259537462
30
0
41
1
10
35.6524639203279
20
-0.011212715199548
30
0
41
1
10
35.6643061907999
20
-0.120054133151029
30
0
41
1
10
35.6666482210763
20
-0.141867096370987
30
0
41
1
10
35.6712848715815
20
-0.185584118034512
30
0
41
1
10
35.6735717543719
20
-0.207416141420538
30
0
41
1
10
35.6803129348189
20
-0.27246453073937
30
0
41
1
10
35.6846702292896
20
-0.315382036589142
30
0
41
1
10
35.6889041045229
20
-0.357847545701901
30
0
0
SPLINE
5
1E0
100
AcDbEntity
8
1
62
256
6
ByLayer
370
18
48
1
60
0
100
AcDbSpline
70
4
71
3
72
24
73
20
40
0
40
0
40
0
40
0
40
0.0624999999999988
40
0.0624999999999988
40
0.124999999999998
40
0.249999999999999
40
0.375
40
0.375
40
0.437500000000001
40
0.437500000000001
40
0.500000000000001
40
0.500000000000001
40
0.750000000000001
40
0.750000000000001
40
0.875000000000001
40
0.875000000000001
40
0.937500000000001
40
0.937500000000001
40
1
40
1
40
1
40
1
41
1
10
35.9414323379295
20
0.320487661648713
30
0
41
1
10
35.9388936918894
20
0.304980599644097
30
0
41
1
10
35.9363973326549
20
0.289250984997409
30
0
41
1
10
35.9315365109757
20
0.257689249285818
30
0
41
1
10
35.9244234247872
20
0.210072485307535
30
0
41
1
10
35.9134033375496
20
0.129372798323061
30
0
41
1
10
35.905414182393
20
0.0634111745024484
30
0
41
1
10
35.8997277216848
20
0.0134074094788161
30
0
41
1
10
35.8978833244047
20
-0.0033494382091419
30
0
41
1
10
35.8942981043016
20
-0.0370442053071258
30
0
41
1
10
35.8925537086194
20
-0.0540185470713936
30
0
41
1
10
35.8841406973119
20
-0.138916775509614
30
0
41
1
10
35.8784566826356
20
-0.206193786732172
30
0
41
1
10
35.8715145018751
20
-0.306167976764243
30
0
41
1
10
35.8694659873043
20
-0.339334868871248
30
0
41
1
10
35.8668019874455
20
-0.388842624647367
30
0
41
1
10
35.8659821701104
20
-0.405304719951829
30
0
41
1
10
35.8644810653632
20
-0.438146208744996
30
0
41
1
10
35.8638003010751
20
-0.454524969678232
30
0
41
1
10
35.8631954881006
20
-0.470685939457525
30
0
0
SPLINE
5
1E1
100
AcDbEntity
8
1
62
256
6
ByLayer
370
13
48
1
60
0
100
AcDbSpline
70
4
71
3
72
10
73
6
40
0
40
0
40
0
40
0
40
0.210712004327163
40
0.935757470566993
40
1
40
1
40
1
40
1
41
1.04
10
35.4318185872462
20
-0.115339191603179
30
0
41
1.04
10
35.4256072488139
20
-0.0496118458083463
30
0
41
1.04
10
35.3979103780398
20
0.245449393571671
30
0
41
1.04
10
35.3679801894602
20
0.558190721089465
30
0
41
1.04
10
35.3433856914519
20
0.772850476907841
30
0
41
1.04
10
35.3413791025178
20
0.790069791108841
30
0
0
SPLINE
5
1E2
100
AcDbEntity
8
1
62
256
6
ByLayer
370
18
48
1
60
0
100
AcDbSpline
70
4
71
3
72
13
73
9
40
0
40
0
40
0
40
0
40
0.249999999999997
40
0.249999999999997
40
0.374999999999997
40
0.374999999999997
40
0.499999999999997
40
1
40
1
40
1
40
1
41
1
10
33.7246358575837
20
-1.67795024667782
30
0
41
1
10
33.7220850264536
20
-1.66523205840119
30
0
41
1
10
33.7195168538667
20
-1.65145704452092
30
0
41
1
10
33.715641899457
20
-1.62917178909493
30
0
41
1
10
33.7143464510044
20
-1.62147111598458
30
0
41
1
10
33.7117662159565
20
-1.60563407006111
30
0
41
1
10
33.7053302702404
20
-1.56488638670859
30
0
41
1
10
33.6989742641606
20
-1.51846699897916
30
0
41
1
10
33.6939052356511
20
-1.47777863645584
30
0
0
SPLINE
5
1E3
100
AcDbEntity
8
1
62
256
6
ByLayer
370
18
48
1
60
0
100
AcDbSpline
70
4
71
3
72
27
73
23
40
0
40
0
40
0
40
0
40
0.124999999999998
40
0.124999999999998
40
0.156249999999997
40
0.156249999999997
40
0.187499999999996
40
0.249999999999995
40
0.249999999999995
40
0.374999999999996
40
0.499999999999996
40
0.499999999999996
40
0.562499999999996
40
0.562499999999996
40
0.624999999999996
40
0.624999999999996
40
0.749999999999997
40
0.874999999999999
40
0.874999999999999
40
0.937499999999999
40
0.937499999999999
40
1
40
1
40
1
40
1
41
1
10
30.5692280869882
20
-1.75646784346679
30
0
41
1
10
30.56474164085
20
-1.74373400885776
30
0
41
1
10
30.5602593085111
20
-1.72767478082471
30
0
41
1
10
30.5546228957655
20
-1.70331098008873
30
0
41
1
10
30.5534921407386
20
-1.69821489612187
30
0
41
1
10
30.5512367170666
20
-1.68763932278856
30
0
41
1
10
30.5478616910761
20
-1.67119862446518
30
0
41
1
10
30.5445044817773
20
-1.65304774850165
30
0
41
1
10
30.5377944758383
20
-1.61450469852454
30
0
41
1
10
30.5288607919206
20
-1.55714931286477
30
0
41
1
10
30.5199106554127
20
-1.48796542974591
30
0
41
1
10
30.5131441648697
20
-1.43152849649133
30
0
41
1
10
30.5108723997602
20
-1.41189316023969
30
0
41
1
10
30.5063398039637
20
-1.3714456369255
30
0
41
1
10
30.504077604905
20
-1.35063639920145
30
0
41
1
10
30.4972941096145
20
-1.28648741902006
30
0
41
1
10
30.4882704229166
20
-1.19637433570733
30
0
41
1
10
30.4793101951337
20
-1.09722569135081
30
0
41
1
10
30.4725912037681
20
-1.01940892609062
30
0
41
1
10
30.4703514075066
20
-0.992892939409018
30
0
41
1
10
30.4658634532911
20
-0.938680464760466
30
0
41
1
10
30.4636355666589
20
-0.911229255904402
30
0
41
1
10
30.4614184306004
20
-0.883444760267338
30
0
0
SPLINE
5
1E4
100
AcDbEntity
8
1
62
256
6
ByLayer
370
18
48
1
60
0
100
AcDbSpline
70
4
71
3
72
8
73
4
40
0
40
0
40
0
40
0
40
1
40
1
40
1
40
1
41
1
10
33.6939052356511
20
-1.47777863645592
30
0
41
1
10
33.6632447853275
20
-1.42575435761785
30
0
41
1
10
33.6329362519509
20
-1.36830036743098
30
0
41
1
10
33.6028509110332
20
-1.30548365243294
30
0
0
SPLINE
5
1E5
100
AcDbEntity
8
1
62
256
6
ByLayer
370
18
48
1
60
0
100
AcDbSpline
70
4
71
3
72
26
73
22
40
0
40
0
40
0
40
0
40
0.125
40
0.125
40
0.1875
40
0.1875
40
0.25
40
0.25
40
0.375
40
0.375
40
0.5
40
0.5
40
0.625
40
0.625
40
0.656249999999999
40
0.656249999999999
40
0.687499999999999
40
0.749999999999999
40
0.749999999999999
40
0.874999999999999
40
1
40
1
40
1
40
1
41
1
10
30.9573573445891
20
1.71502712791232
30
0
41
1
10
30.9618605898734
20
1.69650783352645
30
0
41
1
10
30.9663340229764
20
1.67480230480589
30
0
41
1
10
30.9730372253279
20
1.63743890005341
30
0
41
1
10
30.9752707043978
20
1.62418192480027
30
0
41
1
10
30.9797451485083
20
1.59603807970973
30
0
41
1
10
30.9819909508491
20
1.58111708764079
30
0
41
1
10
30.9887235530879
20
1.534084881751
30
0
41
1
10
30.9931676997582
20
1.49998836908677
30
0
41
1
10
31.0020747364207
20
1.42650187354406
30
0
41
1
10
31.0065433270218
20
1.38711169748794
30
0
41
1
10
31.0155125043829
20
1.3030395305544
30
0
41
1
10
31.0200120484762
20
1.25835797728112
30
0
41
1
10
31.0256725652627
20
1.19908592254504
30
0
41
1
10
31.026806898971
20
1.1870557865725
30
0
41
1
10
31.0290663162154
20
1.16279794468315
30
0
41
1
10
31.0324467180193
20
1.12606149178856
30
0
41
1
10
31.0358047091979
20
1.08828867397796
30
0
41
1
10
31.0425022742242
20
1.01138349502401
30
0
41
1
10
31.0513823371388
20
0.905225003880275
30
0
41
1
10
31.0603066151779
20
0.791882439125544
30
0
41
1
10
31.0648210763745
20
0.733366815869658
30
0
0
SPLINE
5
1E6
100
AcDbEntity
8
1
62
256
6
ByLayer
370
18
48
1
60
0
100
AcDbSpline
70
4
71
3
72
29
73
25
40
0
40
0
40
0
40
0
40
0.0624999999999999
40
0.0624999999999999
40
0.125
40
0.125
40
0.25
40
0.25
40
0.375
40
0.375
40
0.4375
40
0.46875
40
0.46875
40
0.5
40
0.5
40
0.625
40
0.625
40
0.749999999999999
40
0.749999999999999
40
0.874999999999999
40
0.874999999999999
40
0.9375
40
0.9375
40
1
40
1
40
1
40
1
41
1
10
29.7088008719255
20
-1.33610450720747
30
0
41
1
10
29.7065687235289
20
-1.3148655094771
30
0
41
1
10
29.7043309812339
20
-1.29294229938429
30
0
41
1
10
29.6998342536972
20
-1.24770154969113
30
0
41
1
10
29.6975717361164
20
-1.22434362691914
30
0
41
1
10
29.6908146491651
20
-1.15299712354502
30
0
41
1
10
29.686317997111
20
-1.10349579663864
30
0
41
1
10
29.6772898981432
20
-1.00072667407591
30
0
41
1
10
29.6727750216998
20
-0.947457755088465
30
0
41
1
10
29.6660193444192
20
-0.864707614037371
30
0
41
1
10
29.6626447231831
20
-0.822619421497564
30
0
41
1
10
29.6592699700229
20
-0.779444313657535
30
0
41
1
10
29.6570189841626
20
-0.750416467687984
30
0
41
1
10
29.6558914402037
20
-0.735760512412469
30
0
41
1
10
29.6502783386695
20
-0.662265098551984
30
0
41
1
10
29.6458526016152
20
-0.602579569048572
30
0
41
1
10
29.6370072257552
20
-0.481495963130158
30
0
41
1
10
29.6325826828522
20
-0.420098054151936
30
0
41
1
10
29.623589685778
20
-0.295598475679242
30
0
41
1
10
29.6190426645933
20
-0.232495542662122
30
0
41
1
10
29.6121523342355
20
-0.136515369594065
30
0
41
1
10
29.6098529577356
20
-0.104467281856301
30
0
41
1
10
29.6052825559042
20
-0.0406228877577917
30
0
41
1
10
29.6030084281646
20
-0.0087697314032198
30
0
41
1
10
29.6007483167448
20
0.0230156395703602
30
0
0
SPLINE
5
1E7
100
AcDbEntity
8
1
62
256
6
ByLayer
370
18
48
1
60
0
100
AcDbSpline
70
4
71
3
72
28
73
24
40
0
40
0
40
0
40
0
40
0.0625000000000006
40
0.0625000000000006
40
0.125000000000001
40
0.125000000000001
40
0.250000000000001
40
0.375000000000001
40
0.375000000000001
40
0.437500000000002
40
0.437500000000002
40
0.500000000000002
40
0.500000000000002
40
0.625000000000003
40
0.625000000000003
40
0.750000000000004
40
0.750000000000004
40
0.812500000000004
40
0.843750000000003
40
0.843750000000003
40
0.875000000000003
40
0.875000000000003
40
1
40
1
40
1
40
1
41
1
10
29.5229962812454
20
0.108225773661843
30
0
41
1
10
29.5252734689993
20
0.0763831071131165
30
0
41
1
10
29.5275619467507
20
0.0443950139444951
30
0
41
1
10
29.5321589388834
20
-0.0198787691460325
30
0
41
1
10
29.5344527041819
20
-0.0519586356878108
30
0
41
1
10
29.5412909840991
20
-0.147650157082438
30
0
41
1
10
29.5503155568662
20
-0.27410924696801
30
0
41
1
10
29.5591909658484
20
-0.39835359072552
30
0
41
1
10
29.5658400986122
20
-0.49069216855608
30
0
41
1
10
29.5680556323152
20
-0.52133059612774
30
0
41
1
10
29.5724987471161
20
-0.582318832096178
30
0
41
1
10
29.5747295379629
20
-0.612710162046568
30
0
41
1
10
29.5813873299379
20
-0.702368279409427
30
0
41
1
10
29.5858127972606
20
-0.760471558552069
30
0
41
1
10
29.5947553933446
20
-0.873422962331261
30
0
41
1
10
29.5992547521274
20
-0.928272102954111
30
0
41
1
10
29.606026150862
20
-1.00809080876411
30
0
41
1
10
29.6094178311437
20
-1.04738510468189
30
0
41
1
10
29.6128192133733
20
-1.08574166106339
30
0
41
1
10
29.6150894241304
20
-1.11110171849228
30
0
41
1
10
29.6162272931239
20
-1.12369214814893
30
0
41
1
10
29.621893358426
20
-1.18576876050713
30
0
41
1
10
29.626366863635
20
-1.23283499772811
30
0
41
1
10
29.6308205381788
20
-1.27738834959564
30
0
0
SPLINE
5
1E8
100
AcDbEntity
8
1
62
256
6
ByLayer
370
18
48
1
60
0
100
AcDbSpline
70
4
71
3
72
27
73
23
40
0
40
0
40
0
40
0
40
0.125000000000001
40
0.125000000000001
40
0.187500000000002
40
0.187500000000002
40
0.250000000000003
40
0.250000000000003
40
0.375000000000004
40
0.500000000000004
40
0.500000000000004
40
0.562500000000005
40
0.562500000000005
40
0.593750000000005
40
0.593750000000005
40
0.625000000000005
40
0.750000000000004
40
0.875000000000002
40
0.875000000000002
40
0.937500000000001
40
0.937500000000001
40
1
40
1
40
1
40
1
41
1
10
31.8175626445732
20
1.21908955870441
30
0
41
1
10
31.8219653395975
20
1.17250845988025
30
0
41
1
10
31.8263686369729
20
1.12361290284056
30
0
41
1
10
31.8330653782008
20
1.04673214050067
30
0
41
1
10
31.8353145891164
20
1.02050259207232
30
0
41
1
10
31.8398566778419
20
0.966883730240426
30
0
41
1
10
31.8421292814748
20
0.939715950847869
30
0
41
1
10
31.8489456928119
20
0.857161491395601
30
0
41
1
10
31.8580285503466
20
0.744291640086516
30
0
41
1
10
31.8670815049277
20
0.62593374708743
30
0
41
1
10
31.8738771452993
20
0.535078038739726
30
0
41
1
10
31.8761436135802
20
0.504444220190209
30
0
41
1
10
31.8795498247762
20
0.457960225765675
30
0
41
1
10
31.880688025237
20
0.442353213873162
30
0
41
1
10
31.8829562689839
20
0.411115768128837
30
0
41
1
10
31.8886090911716
20
0.332931533356714
30
0
41
1
10
31.8986457178863
20
0.191398971324816
30
0
41
1
10
31.9075425180427
20
0.0644930325660198
30
0
41
1
10
31.9142793394995
20
-0.0310970881036496
30
0
41
1
10
31.9165340197139
20
-0.0630291634148534
30
0
41
1
10
31.9210574121797
20
-0.12703342394542
30
0
41
1
10
31.9233330045112
20
-0.159202770446143
30
0
41
1
10
31.9255946225795
20
-0.191137441653325
30
0
0
SPLINE
5
1E9
100
AcDbEntity
8
1
62
256
6
ByLayer
370
13
48
1
60
0
100
AcDbSpline
70
4
71
3
72
10
73
6
40
0
40
0
40
0
40
0
40
0.285468945101362
40
0.907930450777824
40
1
40
1
40
1
40
1
41
1
10
28.4772976656894
20
-0.0124544861094478
30
0
41
1
10
28.4688315851626
20
0.0773605624073639
30
0
41
1
10
28.4417957715379
20
0.364301024480426
30
0
41
1
10
28.4116865383992
20
0.664262699862348
30
0
41
1
10
28.3905566141627
20
0.840680573913545
30
0
41
1
10
28.3878395467631
20
0.862758471710151
30
0
0
SPLINE
5
1EA
100
AcDbEntity
8
1
62
256
6
ByLayer
370
18
48
1
60
0
100
AcDbSpline
70
4
71
3
72
25
73
21
40
0
40
0
40
0
40
0
40
0.125
40
0.25
40
0.25
40
0.3125
40
0.3125
40
0.375
40
0.375
40
0.5
40
0.5
40
0.625
40
0.75
40
0.75
40
0.78125
40
0.78125
40
0.812499999999999
40
0.875
40
0.875
40
1
40
1
40
1
40
1
41
1
10
32.0033381977309
20
-0.275930561773606
30
0
41
1
10
31.9987588738735
20
-0.212465692108111
30
0
41
1
10
31.9897311835726
20
-0.0854655869361807
30
0
41
1
10
31.9808841002659
20
0.0416659970463229
30
0
41
1
10
31.9742491268536
20
0.137059462523126
30
0
41
1
10
31.972037141035
20
0.16886473501495
30
0
41
1
10
31.9675964309645
20
0.232489274962063
30
0
41
1
10
31.965364103411
20
0.264359682008973
30
0
41
1
10
31.9586362808357
20
0.359655149515874
30
0
41
1
10
31.9541450882037
20
0.422050333463403
30
0
41
1
10
31.9451002824176
20
0.544646327521434
30
0
41
1
10
31.9360331037109
20
0.665050133010368
30
0
41
1
10
31.9269785030292
20
0.781078906128926
30
0
41
1
10
31.9212824857415
20
0.852180853128715
30
0
41
1
10
31.9201401669412
20
0.866342498729551
30
0
41
1
10
31.9178627800751
20
0.894356664495945
30
0
41
1
10
31.9144524805002
20
0.935971638337463
30
0
41
1
10
31.9110593916477
20
0.976382608964173
30
0
41
1
10
31.9042947055616
20
1.05562491243333
30
0
41
1
10
31.8998146790316
20
1.10635136982683
30
0
41
1
10
31.8953487350249
20
1.15498885405788
30
0
0
SPLINE
5
1EB
100
AcDbEntity
8
1
62
256
6
ByLayer
370
18
48
1
60
0
100
AcDbSpline
70
4
71
3
72
27
73
23
40
0
40
0
40
0
40
0
40
0.0624999999999997
40
0.0624999999999997
40
0.124999999999999
40
0.124999999999999
40
0.249999999999998
40
0.374999999999998
40
0.374999999999998
40
0.437499999999998
40
0.437499999999998
40
0.499999999999998
40
0.499999999999998
40
0.624999999999998
40
0.749999999999998
40
0.749999999999998
40
0.812499999999998
40
0.812499999999998
40
0.843749999999998
40
0.843749999999998
40
0.874999999999998
40
1
40
1
40
1
40
1
41
1
10
28.8483166511354
20
-0.551807750396137
30
0
41
1
10
28.8460447314072
20
-0.521352122542311
30
0
41
1
10
28.8437604520949
20
-0.49043434963636
30
0
41
1
10
28.8392252354364
20
-0.428502948267152
30
0
41
1
10
28.8369703067699
20
-0.397437659687057
30
0
41
1
10
28.830234035824
20
-0.303949239057403
30
0
41
1
10
28.8213301744748
20
-0.178519315067007
30
0
41
1
10
28.8124353164896
20
-0.0515610379094369
30
0
41
1
10
28.8056964627829
20
0.0442382339404617
30
0
41
1
10
28.803435154033
20
0.076318934251475
30
0
41
1
10
28.7988920097926
20
0.140457071147836
30
0
41
1
10
28.7966230752972
20
0.172331962885323
30
0
41
1
10
28.7898059585589
20
0.267385566177353
30
0
41
1
10
28.7806891933753
20
0.392604130312691
30
0
41
1
10
28.7716868640234
20
0.514849816217662
30
0
41
1
10
28.7649690085312
20
0.605400660090567
30
0
41
1
10
28.762734662337
20
0.635394927925773
30
0
41
1
10
28.7593830929935
20
0.680095798279609
30
0
41
1
10
28.7582646449507
20
0.694963452511359
30
0
41
1
10
28.7560387174423
20
0.724430780049488
30
0
41
1
10
28.7504940432393
20
0.797518205131695
30
0
41
1
10
28.7450293828043
20
0.86774613024167
30
0
41
1
10
28.740622805235
20
0.922136817989724
30
0
0
SPLINE
5
1EC
100
AcDbEntity
8
1
62
256
6
ByLayer
370
18
48
1
60
0
100
AcDbSpline
70
4
71
3
72
25
73
21
40
0
40
0
40
0
40
0
40
0.125000000000001
40
0.125000000000001
40
0.250000000000002
40
0.375000000000003
40
0.375000000000003
40
0.500000000000004
40
0.500000000000004
40
0.531250000000005
40
0.531250000000005
40
0.562500000000005
40
0.625000000000005
40
0.625000000000005
40
0.750000000000004
40
0.875000000000002
40
0.875000000000002
40
0.937500000000001
40
0.937500000000001
40
1
40
1
40
1
40
1
41
1
10
28.6626555345729
20
0.994879490216931
30
0
41
1
10
28.6672044897774
20
0.942030337444351
30
0
41
1
10
28.6717613033515
20
0.887092451402509
30
0
41
1
10
28.6808457743787
20
0.773125223408982
30
0
41
1
10
28.6897494804352
20
0.656984447825579
30
0
41
1
10
28.698448444866
20
0.536658721872982
30
0
41
1
10
28.7072048640837
20
0.414255534951764
30
0
41
1
10
28.7116256644828
20
0.352016325551745
30
0
41
1
10
28.7172959887812
20
0.272885054402167
30
0
41
1
10
28.7184375701311
20
0.256968237472137
30
0
41
1
10
28.7207198959569
20
0.22515931117465
30
0
41
1
10
28.7241437063294
20
0.177461526747322
30
0
41
1
10
28.7275639509984
20
0.129809646568532
30
0
41
1
10
28.7343920340816
20
0.03456551127951
30
0
41
1
10
28.7434600338537
20
-0.0922682135139041
30
0
41
1
10
28.7524508066982
20
-0.218787977790896
30
0
41
1
10
28.7592070218497
20
-0.313553917000661
30
0
41
1
10
28.7614686245859
20
-0.345217109883606
30
0
41
1
10
28.7659682582295
20
-0.407909283988118
30
0
41
1
10
28.7682077832906
20
-0.438948284021393
30
0
41
1
10
28.770442615227
20
-0.469685856881341
30
0
0
SPLINE
5
1ED
100
AcDbEntity
8
1
62
256
6
ByLayer
370
18
48
1
60
0
100
AcDbSpline
70
4
71
3
72
24
73
20
40
0
40
0
40
0
40
0
40
0.0710328869031092
40
0.0710328869031092
40
0.203742474488379
40
0.203742474488379
40
0.33645206207365
40
0.33645206207365
40
0.469161649658919
40
0.469161649658919
40
0.60187123724419
40
0.60187123724419
40
0.73458082482946
40
0.73458082482946
40
0.86729041241473
40
0.86729041241473
40
0.933645206207365
40
0.933645206207365
40
1
40
1
40
1
40
1
41
1
10
23.5100943464501
20
1.23500039128942
30
0
41
1
10
23.5319295284684
20
1.2349981635021
30
0
41
1
10
23.5537468110001
20
1.23466642196746
30
0
41
1
10
23.6162671872377
20
1.23277753716698
30
0
41
1
10
23.6569067524412
20
1.23040277578389
30
0
41
1
10
23.7381655811104
20
1.22338599846142
30
0
41
1
10
23.7788251239354
20
1.21875480684568
30
0
41
1
10
23.8600694328908
20
1.20721371424239
30
0
41
1
10
23.9004753463878
20
1.20023816609429
30
0
41
1
10
23.9819585014481
20
1.18420440057329
30
0
41
1
10
24.022817887846
20
1.17509030402556
30
0
41
1
10
24.1046313064815
20
1.15457966861749
30
0
41
1
10
24.1456268066366
20
1.14319755963402
30
0
41
1
10
24.2279166446457
20
1.11819036843192
30
0
41
1
10
24.2691169994015
20
1.10459521554745
30
0
41
1
10
24.3308778743025
20
1.08269042236171
30
0
41
1
10
24.351474449022
20
1.07513731292704
30
0
41
1
10
24.3926561515331
20
1.05950802564868
30
0
41
1
10
24.4131880114053
20
1.05139565369836
30
0
41
1
10
24.4336939452127
20
1.04300115035545
30
0
0
SPLINE
5
1EE
100
AcDbEntity
8
1
62
256
6
ByLayer
370
18
48
1
60
0
100
AcDbSpline
70
4
71
3
72
12
73
8
40
0
40
0
40
0
40
0
40
0.499999999999999
40
0.499999999999999
40
0.75
40
0.75
40
1
40
1
40
1
40
1
41
1
10
24.4336939452126
20
1.04300115035542
30
0
41
1
10
24.473145765265
20
1.02685077952012
30
0
41
1
10
24.5128113199745
20
1.01351438901852
30
0
41
1
10
24.5720230807053
20
0.997829204114566
30
0
41
1
10
24.5917118683977
20
0.993319316449572
30
0
41
1
10
24.630978023924
20
0.985901384014682
30
0
41
1
10
24.6505654262893
20
0.983009530233602
30
0
41
1
10
24.6699999999998
20
0.980924028448527
30
0
0
SPLINE
5
1EF
100
AcDbEntity
8
1
62
256
6
ByLayer
370
18
48
1
60
0
100
AcDbSpline
70
4
71
3
72
26
73
22
40
0
40
0
40
0
40
0
40
0.125
40
0.125
40
0.25
40
0.25
40
0.375
40
0.375
40
0.5
40
0.5
40
0.625
40
0.625
40
0.75
40
0.75
40
0.8125
40
0.8125
40
0.875
40
0.875
40
0.9375
40
0.9375
40
1
40
1
40
1
40
1
41
1
10
35.3413791025179
20
0.790069791108834
30
0
41
1
10
35.3474287172253
20
0.779076851778797
30
0
41
1
10
35.3544412865678
20
0.768538217644817
30
0
41
1
10
35.3699133359471
20
0.74815361153648
30
0
41
1
10
35.378454208524
20
0.738248698606782
30
0
41
1
10
35.3961942676942
20
0.719713733950357
30
0
41
1
10
35.4054509406432
20
0.710996755050871
30
0
41
1
10
35.4246668347871
20
0.694574711694116
30
0
41
1
10
35.4347071444747
20
0.686823704882016
30
0
41
1
10
35.4548041819063
20
0.672844106601872
30
0
41
1
10
35.4649174215001
20
0.666553251479769
30
0
41
1
10
35.4852277587458
20
0.655476247105952
30
0
41
1
10
35.4955402518775
20
0.650654466064367
30
0
41
1
10
35.5103894388104
20
0.645090707878182
30
0
41
1
10
35.5152487410344
20
0.64350428460844
30
0
41
1
10
35.5247538652644
20
0.640937470343005
30
0
41
1
10
35.5294343902507
20
0.639952721662524
30
0
41
1
10
35.5383218954503
20
0.638746739218533
30
0
41
1
10
35.5425322069417
20
0.638519033892635
30
0
41
1
10
35.5504136326416
20
0.638937900378636
30
0
41
1
10
35.5541076239309
20
0.639592850826176
30
0
41
1
10
35.5573899201405
20
0.640768159267651
30
0
0
SPLINE
5
1F0
100
AcDbEntity
8
1
62
256
6
ByLayer
370
18
48
1
60
0
100
AcDbSpline
70
4
71
3
72
8
73
4
40
0
40
0
40
0
40
0
40
1
40
1
40
1
40
1
41
1
10
35.5573899201405
20
0.640768159267736
30
0
41
1
10
35.5597625847365
20
0.641617751306455
30
0
41
1
10
35.5621338651141
20
0.64245111993651
30
0
41
1
10
35.5645037675199
20
0.643267939507354
30
0
0
SPLINE
5
1F1
100
AcDbEntity
8
1
62
256
6
ByLayer
370
18
48
1
60
0
100
AcDbSpline
70
4
71
3
72
16
73
12
40
0
40
0
40
0
40
0
40
0.249999999999992
40
0.249999999999992
40
0.499999999999984
40
0.499999999999984
40
0.62499999999998
40
0.62499999999998
40
0.749999999999976
40
0.749999999999976
40
1
40
1
40
1
40
1
41
1
10
35.5645037675203
20
0.643267939507467
30
0
41
1
10
35.5954085389961
20
0.61695454097287
30
0
41
1
10
35.6264840031256
20
0.590459745264326
30
0
41
1
10
35.688766813886
20
0.536937268457251
30
0
41
1
10
35.7199463245041
20
0.509882159227743
30
0
41
1
10
35.7672231749274
20
0.469249426162037
30
0
41
1
10
35.7830707970527
20
0.455695700311082
30
0
41
1
10
35.8147268648451
20
0.42861960481207
30
0
41
1
10
35.8305532594624
20
0.415082374983257
30
0
41
1
10
35.8780378836773
20
0.374485537991376
30
0
41
1
10
35.9096913618623
20
0.34742851617105
30
0
41
1
10
35.941432337939
20
0.320487661644279
30
0
0
SPLINE
5
1F2
100
AcDbEntity
8
1
62
256
6
ByLayer
370
18
48
1
60
0
100
AcDbSpline
70
4
71
3
72
21
73
17
40
0
40
0
40
0
40
0
40
0.125000000000035
40
0.125000000000035
40
0.187500000000039
40
0.187500000000039
40
0.250000000000042
40
0.250000000000042
40
0.500000000000028
40
0.500000000000028
40
0.625000000000021
40
0.625000000000021
40
0.750000000000014
40
0.875000000000007
40
0.875000000000007
40
1
40
1
40
1
40
1
41
1
10
36.2699999999945
20
0.106522311354354
30
0
41
1
10
36.2552868732635
20
0.10662311415129
30
0
41
1
10
36.240502925335
20
0.108576364104096
30
0
41
1
10
36.2182497178476
20
0.113497986716823
30
0
41
1
10
36.2107943057488
20
0.115483576061479
30
0
41
1
10
36.1960274511297
20
0.120045553385324
30
0
41
1
10
36.1887050106288
20
0.122622276683302
30
0
41
1
10
36.1523688426684
20
0.136895168972302
30
0
41
1
10
36.124180495034
20
0.152734047243825
30
0
41
1
10
36.082677309643
20
0.181721872401283
30
0
41
1
10
36.0689600775191
20
0.192290315318928
30
0
41
1
10
36.0422126165151
20
0.214669397357426
30
0
41
1
10
36.0160215287707
20
0.238383395594894
30
0
41
1
10
35.9907385469622
20
0.264491521214865
30
0
41
1
10
35.9658261696592
20
0.291692603993624
30
0
41
1
10
35.9535666290761
20
0.305864967613786
30
0
41
1
10
35.9414323379381
20
0.320487661646041
30
0
0
SPLINE
5
1F3
100
AcDbEntity
8
1
62
256
6
ByLayer
370
18
48
1
60
0
100
AcDbSpline
70
4
71
3
72
29
73
25
40
0
40
0
40
0
40
0
40
0.0625000000000001
40
0.0625000000000001
40
0.125
40
0.125
40
0.15625
40
0.15625
40
0.1875
40
0.1875
40
0.25
40
0.25
40
0.5
40
0.5
40
0.75
40
0.75
40
0.875
40
0.875
40
0.9375
40
0.9375
40
0.953125
40
0.953125
40
0.96875
40
1
40
1
40
1
40
1
41
1
10
36.27
20
0.947367104264202
30
0
41
1
10
36.27
20
0.922952819542758
30
0
41
1
10
36.27
20
0.89948827794953
30
0
41
1
10
36.27
20
0.854412003133945
30
0
41
1
10
36.27
20
0.832784919565228
30
0
41
1
10
36.27
20
0.801764978065677
30
0
41
1
10
36.27
20
0.791786955911334
30
0
41
1
10
36.27
20
0.772649654181265
30
0
41
1
10
36.27
20
0.763536588693029
30
0
41
1
10
36.27
20
0.736226085648525
30
0
41
1
10
36.27
20
0.718163611821865
30
0
41
1
10
36.27
20
0.628297677814629
30
0
41
1
10
36.27
20
0.558196467427791
30
0
41
1
10
36.27
20
0.421560372091278
30
0
41
1
10
36.27
20
0.354982763996333
30
0
41
1
10
36.27
20
0.258049250945987
30
0
41
1
10
36.27
20
0.226226449374025
30
0
41
1
10
36.27
20
0.179183838784326
30
0
41
1
10
36.27
20
0.163615181360257
30
0
41
1
10
36.27
20
0.144352152590955
30
0
41
1
10
36.27
20
0.14050602443001
30
0
41
1
10
36.27
20
0.133097393940432
30
0
41
1
10
36.27
20
0.122318955699939
30
0
41
1
10
36.27
20
0.112562105700647
30
0
41
1
10
36.27
20
0.106522311348215
30
0
0
SPLINE
5
1F4
100
AcDbEntity
8
1
62
256
6
ByLayer
370
18
48
1
60
0
100
AcDbSpline
70
4
71
3
72
18
73
14
40
0
40
0
40
0
40
0
40
0.124999999999992
40
0.124999999999992
40
0.187499999999987
40
0.187499999999987
40
0.249999999999983
40
0.249999999999983
40
0.499999999999989
40
0.499999999999989
40
0.749999999999994
40
0.749999999999994
40
1
40
1
40
1
40
1
41
1
10
35.8631954881007
20
1.33740010183698
30
0
41
1
10
35.8808167069518
20
1.32158457959275
30
0
41
1
10
35.8985686291492
20
1.30546510688964
30
0
41
1
10
35.9253564323018
20
1.28087171968511
30
0
41
1
10
35.9343299796861
20
1.2725819050581
30
0
41
1
10
35.9522391651591
20
1.25600904539223
30
0
41
1
10
35.9611507524605
20
1.2477604594564
30
0
41
1
10
36.0054787632047
20
1.2066984492007
30
0
41
1
10
36.0402629699832
20
1.17434679268007
30
0
41
1
10
36.1085030951973
20
1.1098247999432
30
0
41
1
10
36.1419551711257
20
1.07766542817339
30
0
41
1
10
36.2073047687101
20
1.01293355730087
30
0
41
1
10
36.2392141393691
20
0.980364971319545
30
0
41
1
10
36.2699999999968
20
0.947367104262241
30
0
0
SPLINE
5
1F5
100
AcDbEntity
8
1
62
256
6
ByLayer
370
18
48
1
60
0
100
AcDbSpline
70
4
71
3
72
10
73
6
40
0
40
0
40
0
40
0
40
0.5
40
0.5
40
1
40
1
40
1
40
1
41
1
10
35.8631954881008
20
1.337400101837
30
0
41
1
10
35.7921920449522
20
1.34762376507194
30
0
41
1
10
35.7218352054051
20
1.35379388848011
30
0
41
1
10
35.5820126661749
20
1.35748455973203
30
0
41
1
10
35.5125400821084
20
1.35499376592131
30
0
41
1
10
35.4430864603925
20
1.34804221403064
30
0
0
SPLINE
5
1F6
100
AcDbEntity
8
1
62
256
6
ByLayer
370
18
48
1
60
0
100
AcDbSpline
70
4
71
3
72
8
73
4
40
0
40
0
40
0
40
0
40
1
40
1
40
1
40
1
41
1
10
35.4430864603918
20
1.3480422140297
30
0
41
1
10
35.4159814510151
20
1.29556106684476
30
0
41
1
10
35.3886944298566
20
1.24246881965317
30
0
41
1
10
35.3611267277553
20
1.18877939073099
30
0
0
SPLINE
5
1F7
100
AcDbEntity
8
1
62
256
6
ByLayer
370
18
48
1
60
0
100
AcDbSpline
70
4
71
3
72
8
73
4
40
0
40
0
40
0
40
0
40
1
40
1
40
1
40
1
41
1
10
29.6308205381798
20
-1.27738834959564
30
0
41
1
10
29.6567566649099
20
-1.29740974440773
30
0
41
1
10
29.6827446133773
20
-1.31698728035261
30
0
41
1
10
29.7088008719255
20
-1.33610450720747
30
0
0
SPLINE
5
1F8
100
AcDbEntity
8
1
62
256
6
ByLayer
370
18
48
1
60
0
100
AcDbSpline
70
4
71
3
72
8
73
4
40
0
40
0
40
0
40
0
40
1
40
1
40
1
40
1
41
1
10
28.770442615227
20
-0.469685856881227
30
0
41
1
10
28.7963658481533
20
-0.49721339367963
30
0
41
1
10
28.822318495357
20
-0.524592445778609
30
0
41
1
10
28.8483166511354
20
-0.551807750396137
30
0
0
SPLINE
5
1F9
100
AcDbEntity
8
1
62
256
6
ByLayer
370
18
48
1
60
0
100
AcDbSpline
70
4
71
3
72
8
73
4
40
0
40
0
40
0
40
0
40
1
40
1
40
1
40
1
41
1
10
28.012035756907
20
0.357515888553166
30
0
41
1
10
27.9655620377043
20
0.406578057725511
30
0
41
1
10
27.9188065850656
20
0.454934378585818
30
0
41
1
10
27.8716531730127
20
0.502475764785828
30
0
0
SPLINE
5
1FA
100
AcDbEntity
8
1
62
256
6
ByLayer
370
18
48
1
60
0
100
AcDbSpline
70
4
71
3
72
16
73
12
40
0
40
0
40
0
40
0
40
0.0581407140639519
40
0.0581407140639519
40
0.372093809375968
40
0.372093809375968
40
0.686046904687984
40
0.686046904687984
40
0.843023452343992
40
0.843023452343992
40
1
40
1
40
1
40
1
41
1
10
24.236473279607
20
-1.23499984306329
30
0
41
1
10
24.2216127248936
20
-1.2350022695465
30
0
41
1
10
24.2067665972275
20
-1.234850378083
30
0
41
1
10
24.1118224373336
20
-1.23289301684213
30
0
41
1
10
24.0320217139003
20
-1.22674741838455
30
0
41
1
10
23.872030073505
20
-1.20576488623635
30
0
41
1
10
23.7919604536191
20
-1.19092386452974
30
0
41
1
10
23.6715451166998
20
-1.16206599055485
30
0
41
1
10
23.6313420989534
20
-1.15134819072415
30
0
41
1
10
23.5506733067738
20
-1.12773681478797
30
0
41
1
10
23.5101124207573
20
-1.11480800112216
30
0
41
1
10
23.4697120064012
20
-1.10093183287236
30
0
0
SPLINE
5
1FB
100
AcDbEntity
8
1
62
256
6
ByLayer
370
18
48
1
60
0
100
AcDbSpline
70
4
71
3
72
28
73
24
40
0
40
0
40
0
40
0
40
0.12499999999998
40
0.12499999999998
40
0.24999999999996
40
0.24999999999996
40
0.37499999999994
40
0.37499999999994
40
0.499999999999921
40
0.499999999999921
40
0.624999999999901
40
0.624999999999901
40
0.687499999999917
40
0.687499999999917
40
0.749999999999934
40
0.749999999999934
40
0.81249999999995
40
0.81249999999995
40
0.874999999999967
40
0.874999999999967
40
0.937499999999983
40
0.937499999999983
40
1
40
1
40
1
40
1
41
1
10
28.1717322645954
20
0.990559481592697
30
0
41
1
10
28.1777324937001
20
0.979015940013198
30
0
41
1
10
28.1846734606666
20
0.968167922896896
30
0
41
1
10
28.1999836153056
20
0.947524272061457
30
0
41
1
10
28.2084302608855
20
0.937681998254192
30
0
41
1
10
28.2260207173135
20
0.919582522730622
30
0
41
1
10
28.2352212525069
20
0.911240342962003
30
0
41
1
10
28.2543539665287
20
0.895875953151261
30
0
41
1
10
28.2643758079387
20
0.888808768314789
30
0
41
1
10
28.28448531488
20
0.876491560258188
30
0
41
1
10
28.2946181351062
20
0.871188404059865
30
0
41
1
10
28.3098995462012
20
0.864638642713544
30
0
41
1
10
28.3150071224131
20
0.862691738449257
30
0
41
1
10
28.3252436557751
20
0.859327760241683
30
0
41
1
10
28.3303630725282
20
0.857917884559868
30
0
41
1
10
28.3403606646986
20
0.855761268791895
30
0
41
1
10
28.3452687889127
20
0.855003207591835
30
0
41
1
10
28.3548709973013
20
0.854215799217485
30
0
41
1
10
28.3596011121933
20
0.854189774354239
30
0
41
1
10
28.3685940078508
20
0.85500968133897
30
0
41
1
10
28.3728514867034
20
0.855846811704993
30
0
41
1
10
28.3808129587125
20
0.858510476965364
30
0
41
1
10
28.3845400218441
20
0.860355724446549
30
0
41
1
10
28.387839546763
20
0.862758471711146
30
0
0
SPLINE
5
1FC
100
AcDbEntity
8
1
62
256
6
ByLayer
370
18
48
1
60
0
100
AcDbSpline
70
4
71
3
72
12
73
8
40
0
40
0
40
0
40
0
40
0.499999999999991
40
0.499999999999991
40
0.749999999999995
40
0.749999999999995
40
1
40
1
40
1
40
1
41
1
10
28.387839546763
20
0.86275847171126
30
0
41
1
10
28.4346668927751
20
0.896858616521541
30
0
41
1
10
28.4810656066277
20
0.924898907664073
30
0
41
1
10
28.5498635507779
20
0.957901251064669
30
0
41
1
10
28.5726521051287
20
0.967372150306318
30
0
41
1
10
28.6178688036254
20
0.983317007504127
30
0
41
1
10
28.6403214775964
20
0.98981573287935
30
0
41
1
10
28.6626555345729
20
0.99487949021696
30
0
0
SPLINE
5
1FD
100
AcDbEntity
8
1
62
256
6
ByLayer
370
18
48
1
60
0
100
AcDbSpline
70
4
71
3
72
8
73
4
40
0
40
0
40
0
40
0
40
1
40
1
40
1
40
1
41
1
10
28.7406228052355
20
0.922136817989724
30
0
41
1
10
28.7146567175941
20
0.946827059600281
30
0
41
1
10
28.6886831674109
20
0.971083920867699
30
0
41
1
10
28.6626555345729
20
0.99487949021696
30
0
0
SPLINE
5
1FE
100
AcDbEntity
8
1
62
256
6
ByLayer
370
18
48
1
60
0
100
AcDbSpline
70
4
71
3
72
12
73
8
40
0
40
0
40
0
40
0
40
0.499999999999993
40
0.499999999999993
40
0.749999999999996
40
0.749999999999996
40
1
40
1
40
1
40
1
41
1
10
28.7406228052352
20
0.922136817989752
30
0
41
1
10
28.7876876359233
20
0.828608499216472
30
0
41
1
10
28.8353159392618
20
0.738051546127053
30
0
41
1
10
28.9083215705467
20
0.607323196815912
30
0
41
1
10
28.9327976613957
20
0.564780012465462
30
0
41
1
10
28.9821196656123
20
0.481740521562813
30
0
41
1
10
29.0069655148313
20
0.441245816200137
30
0
41
1
10
29.032063834847
20
0.401836276721809
30
0
0
SPLINE
5
1FF
100
AcDbEntity
8
1
62
256
6
ByLayer
370
18
48
1
60
0
100
AcDbSpline
70
4
71
3
72
8
73
4
40
0
40
0
40
0
40
0
40
1
40
1
40
1
40
1
41
1
10
29.6007483167452
20
0.0230156395703887
30
0
41
1
10
29.5747960877094
20
0.0514759453435261
30
0
41
1
10
29.5488826319504
20
0.079882683472988
30
0
41
1
10
29.5229962812454
20
0.108225773661928
30
0
0
SPLINE
5
200
100
AcDbEntity
8
1
62
256
6
ByLayer
370
18
48
1
60
0
100
AcDbSpline
70
4
71
3
72
8
73
4
40
0
40
0
40
0
40
0
40
1
40
1
40
1
40
1
41
1
10
30.4614184306007
20
-0.883444760267309
30
0
41
1
10
30.4354454570287
20
-0.858615556701579
30
0
41
1
10
30.4095224547424
20
-0.833481365889128
30
0
41
1
10
30.3836518800535
20
-0.808041168909654
30
0
0
SPLINE
5
201
100
AcDbEntity
8
1
62
256
6
ByLayer
370
18
48
1
60
0
100
AcDbSpline
70
4
71
3
72
8
73
4
40
0
40
0
40
0
40
0
40
1
40
1
40
1
40
1
41
1
10
31.3219436619149
20
-1.54866419505677
30
0
41
1
10
31.295912542423
20
-1.53426110983332
30
0
41
1
10
31.2699385704709
20
-1.51928174472727
30
0
41
1
10
31.2439771575345
20
-1.50375129828416
30
0
0
SPLINE
5
202
100
AcDbEntity
8
1
62
256
6
ByLayer
370
18
48
1
60
0
100
AcDbSpline
70
4
71
3
72
8
73
4
40
0
40
0
40
0
40
0
40
1
40
1
40
1
40
1
41
1
10
32.1821080842894
20
-1.79289238462081
30
0
41
1
10
32.1561663489886
20
-1.79288556070216
30
0
41
1
10
32.1302832136097
20
-1.79220182066109
30
0
41
1
10
32.1044423473855
20
-1.7908440514737
30
0
0
SPLINE
5
203
100
AcDbEntity
8
1
62
256
6
ByLayer
370
18
48
1
60
0
100
AcDbSpline
70
4
71
3
72
8
73
4
40
0
40
0
40
0
40
0
40
1
40
1
40
1
40
1
41
1
10
31.9255946225794
20
-0.191137441653325
30
0
41
1
10
31.9515006571392
20
-0.219475830891298
30
0
41
1
10
31.9774097204365
20
-0.247745231934715
30
0
41
1
10
32.0033381977309
20
-0.275930561773578
30
0
0
SPLINE
5
204
100
AcDbEntity
8
1
62
256
6
ByLayer
370
18
48
1
60
0
100
AcDbSpline
70
4
71
3
72
8
73
4
40
0
40
0
40
0
40
0
40
1
40
1
40
1
40
1
41
1
10
31.0648210763743
20
0.733366815869658
30
0
41
1
10
31.0908051154655
20
0.707279501169239
30
0
41
1
10
31.1167924786017
20
0.680909696666845
30
0
41
1
10
31.1427991965832
20
0.654270240307397
30
0
0
SPLINE
5
205
100
AcDbEntity
8
1
62
256
6
ByLayer
370
18
48
1
60
0
100
AcDbSpline
70
4
71
3
72
8
73
4
40
0
40
0
40
0
40
0
40
1
40
1
40
1
40
1
41
1
10
30.2045389117175
20
1.45763853409406
30
0
41
1
10
30.2305489967449
20
1.44097624960452
30
0
41
1
10
30.2565616473419
20
1.42375475100533
30
0
41
1
10
30.2825933993326
20
1.4059816624374
30
0
0
SPLINE
5
206
100
AcDbEntity
8
1
62
256
6
ByLayer
370
18
48
1
60
0
100
AcDbSpline
70
4
71
3
72
8
73
4
40
0
40
0
40
0
40
0
40
1
40
1
40
1
40
1
41
1
10
29.344004405488
20
1.7850731829659
30
0
41
1
10
29.3699490156282
20
1.78241017707433
30
0
41
1
10
29.39589715568
20
1.77906832877176
30
0
41
1
10
29.4218649736908
20
1.77504767787227
30
0
0
SPLINE
5
207
100
AcDbEntity
8
1
62
256
6
ByLayer
370
18
48
1
60
0
100
AcDbSpline
70
4
71
3
72
10
73
6
40
0
40
0
40
0
40
0
40
0.5
40
0.5
40
1
40
1
40
1
40
1
41
1
10
24.6700000000002
20
0.311515741497857
30
0
41
1
10
24.6333183870063
20
0.340583781797164
30
0
41
1
10
24.5951584328243
20
0.369210270378517
30
0
41
1
10
24.5162607149352
20
0.426350102137945
30
0
41
1
10
24.4754939646339
20
0.45483141574644
30
0
41
1
10
24.4336939452126
20
0.483891725415532
30
0
0
SPLINE
5
208
100
AcDbEntity
8
1
62
256
6
ByLayer
370
18
48
1
60
0
100
AcDbSpline
70
4
71
3
72
24
73
20
40
0
40
0
40
0
40
0
40
0.0480746075531913
40
0.0480746075531913
40
0.238462424097936
40
0.238462424097936
40
0.333656332370309
40
0.333656332370309
40
0.428850240642682
40
0.428850240642682
40
0.524044148915054
40
0.524044148915054
40
0.619238057187427
40
0.619238057187427
40
0.809625873732171
40
0.809625873732171
40
0.904819782004542
40
0.904819782004542
40
1
40
1
40
1
40
1
41
1
10
23.4698619855935
20
1.0350954115475
30
0
41
1
10
23.4613886605241
20
1.02320903024253
30
0
41
1
10
23.4522925410661
20
1.01079106187697
30
0
41
1
10
23.4005918469286
20
0.943578611760614
30
0
41
1
10
23.3412123401466
20
0.87438791688183
30
0
41
1
10
23.2348892656637
20
0.760651290164702
30
0
41
1
10
23.196039059066
20
0.72054202445932
30
0
41
1
10
23.1170676171825
20
0.642321302867373
30
0
41
1
10
23.0767399433781
20
0.604320358433654
30
0
41
1
10
22.9976775348954
20
0.53047906191938
30
0
41
1
10
22.9589518646504
20
0.494959498466756
30
0
41
1
10
22.8831569646881
20
0.426801458720689
30
0
41
1
10
22.8457726913071
20
0.39389607994994
30
0
41
1
10
22.7390774214049
20
0.302174733931707
30
0
41
1
10
22.6742406536237
20
0.249247222665673
30
0
41
1
10
22.5871794076733
20
0.182231776627958
30
0
41
1
10
22.5597692094502
20
0.161756042493209
30
0
41
1
10
22.5095410489511
20
0.126115396280909
30
0
41
1
10
22.4924215461553
20
0.117014472882744
30
0
41
1
10
22.4821374648964
20
0.114959474124191
30
0
0
SPLINE
5
209
100
AcDbEntity
8
1
62
256
6
ByLayer
370
18
48
1
60
0
100
AcDbSpline
70
4
71
3
72
42
73
38
40
0
40
0
40
0
40
0
40
0.062499999999992
40
0.062499999999992
40
0.124999999999984
40
0.124999999999984
40
0.15624999999998
40
0.15624999999998
40
0.187499999999976
40
0.187499999999976
40
0.249999999999968
40
0.249999999999968
40
0.374999999999952
40
0.374999999999952
40
0.406249999999951
40
0.406249999999951
40
0.43749999999995
40
0.43749999999995
40
0.499999999999956
40
0.499999999999956
40
0.562499999999961
40
0.562499999999961
40
0.624999999999967
40
0.624999999999967
40
0.687499999999972
40
0.687499999999972
40
0.749999999999978
40
0.749999999999978
40
0.812499999999983
40
0.812499999999983
40
0.874999999999989
40
0.874999999999989
40
0.937499999999994
40
0.937499999999994
40
0.968749999999997
40
0.968749999999997
40
1
40
1
40
1
40
1
41
1
10
22.4738603126149
20
0.135988972049574
30
0
41
1
10
22.5148684615957
20
0.105283190152221
30
0
41
1
10
22.5557718484667
20
0.0745635735082999
30
0
41
1
10
22.6373540079687
20
0.0130729319966747
30
0
41
1
10
22.6779862590757
20
-0.017760353513637
30
0
41
1
10
22.738993856766
20
-0.0637424599483722
30
0
41
1
10
22.7593720832586
20
-0.0789818939945235
30
0
41
1
10
22.7999787993029
20
-0.109599135366977
30
0
41
1
10
22.8201876713825
20
-0.125002733725637
30
0
41
1
10
22.8809424681779
20
-0.170947563399665
30
0
41
1
10
22.9215505792688
20
-0.201312012848433
30
0
41
1
10
23.0436138509878
20
-0.291715222547964
30
0
41
1
10
23.1252681661498
20
-0.351117984131804
30
0
41
1
10
23.2277369114568
20
-0.424201153095367
30
0
41
1
10
23.2482488569996
20
-0.43876149083016
30
0
41
1
10
23.2893334925534
20
-0.467736970409362
30
0
41
1
10
23.30990766837
20
-0.482152823741387
30
0
41
1
10
23.3714417532292
20
-0.524918058062269
30
0
41
1
10
23.4123287051975
20
-0.552845398500807
30
0
41
1
10
23.4940271577685
20
-0.607331873491489
30
0
41
1
10
23.5348207105813
20
-0.633914937257202
30
0
41
1
10
23.6162671872377
20
-0.685817240599818
30
0
41
1
10
23.6569067524413
20
-0.711149820349164
30
0
41
1
10
23.7381655811104
20
-0.760418816626071
30
0
41
1
10
23.7788251239355
20
-0.784314750191697
30
0
41
1
10
23.8600694328908
20
-0.830767198753364
30
0
41
1
10
23.9004753463878
20
-0.853492457643256
30
0
41
1
10
23.9819585014481
20
-0.896850886441996
30
0
41
1
10
24.0228178878461
20
-0.917704682017359
30
0
41
1
10
24.1046313064815
20
-0.957871722770761
30
0
41
1
10
24.1456268066366
20
-0.977145348541171
30
0
41
1
10
24.2279166446457
20
-1.0139371783506
30
0
41
1
10
24.2691169994015
20
-1.03140550004127
30
0
41
1
10
24.3308778743025
20
-1.05606428821935
30
0
41
1
10
24.3514744490221
20
-1.06402808012933
30
0
41
1
10
24.3926561515331
20
-1.07946463096084
30
0
41
1
10
24.4131880114054
20
-1.08697176854963
30
0
41
1
10
24.4336939452128
20
-1.09423978307942
30
0
0
SPLINE
5
20A
100
AcDbEntity
8
1
62
256
6
ByLayer
370
18
48
1
60
0
100
AcDbSpline
70
4
71
3
72
12
73
8
40
0
40
0
40
0
40
0
40
0.499999999999971
40
0.499999999999971
40
0.749999999999986
40
0.749999999999986
40
1
40
1
40
1
40
1
41
1
10
24.4336939452126
20
-1.09423978307939
30
0
41
1
10
24.4731457652649
20
-1.10822287714674
30
0
41
1
10
24.5128113199745
20
-1.12425927026894
30
0
41
1
10
24.5720230807053
20
-1.15222159540789
30
0
41
1
10
24.5917118683977
20
-1.16219337911031
30
0
41
1
10
24.630978023924
20
-1.18359245226708
30
0
41
1
10
24.650565426291
20
-1.19502072686422
30
0
41
1
10
24.6700000000016
20
-1.20730067161244
30
0
0
SPLINE
5
20B
100
AcDbEntity
8
1
62
256
6
ByLayer
370
18
48
1
60
0
100
AcDbSpline
70
4
71
3
72
8
73
4
40
0
40
0
40
0
40
0
40
1
40
1
40
1
40
1
41
1
10
31.895348735034
20
1.15498885406004
30
0
41
1
10
31.8694254657029
20
1.17683869829705
30
0
41
1
10
31.8434962116819
20
1.19820381484681
30
0
41
1
10
31.8175626445732
20
1.21908955870441
30
0
0
SPLINE
5
20C
100
AcDbEntity
8
1
62
256
6
ByLayer
370
18
48
1
60
0
100
AcDbSpline
70
4
71
3
72
8
73
4
40
0
40
0
40
0
40
0
40
1
40
1
40
1
40
1
41
1
10
32.7561552451959
20
0.30661171526296
30
0
41
1
10
32.7300996666118
20
0.334775254536936
30
0
41
1
10
32.7040655127207
20
0.362787955539886
30
0
41
1
10
32.6780533596453
20
0.390650970801886
30
0
0
SPLINE
5
20D
100
AcDbEntity
8
1
62
256
6
ByLayer
370
18
48
1
60
0
100
AcDbSpline
70
4
71
3
72
14
73
10
40
0
40
0
40
0
40
0
40
0.25
40
0.25
40
0.5
40
0.5
40
0.75
40
0.75
40
1
40
1
40
1
40
1
41
1
10
35.0485814965477
20
-1.38243820948935
30
0
41
1
10
35.0965695952719
20
-1.38729214787207
30
0
41
1
10
35.1444366980319
20
-1.39005357162478
30
0
41
1
10
35.2402741943174
20
-1.39126760077625
30
0
41
1
10
35.2882963774748
20
-1.38968683000991
30
0
41
1
10
35.3846874741531
20
-1.38215998371209
30
0
41
1
10
35.4330247888265
20
-1.37623012547721
30
0
41
1
10
35.5301316530805
20
-1.36010914164359
30
0
41
1
10
35.5789421640308
20
-1.34989787360738
30
0
41
1
10
35.6281271610914
20
-1.33754268607174
30
0
0
SPLINE
5
20E
100
AcDbEntity
8
1
62
256
6
ByLayer
370
18
48
1
60
0
100
AcDbSpline
70
4
71
3
72
22
73
18
40
0
40
0
40
0
40
0
40
0.124999999999992
40
0.124999999999992
40
0.249999999999984
40
0.249999999999984
40
0.499999999999967
40
0.499999999999967
40
0.624999999999959
40
0.624999999999959
40
0.74999999999995
40
0.74999999999995
40
0.812499999999978
40
0.812499999999978
40
0.875000000000007
40
0.875000000000007
40
1
40
1
40
1
40
1
41
1
10
35.6281271610971
20
-1.33754268604682
30
0
41
1
10
35.6331303315751
20
-1.32948049579832
30
0
41
1
10
35.6387949991334
20
-1.32230870635834
30
0
41
1
10
35.6511470065134
20
-1.30932497925167
30
0
41
1
10
35.6578849658184
20
-1.30348932078428
30
0
41
1
10
35.6791384949104
20
-1.28806926126518
30
0
41
1
10
35.6943940454065
20
-1.28062198118857
30
0
41
1
10
35.7186746569538
20
-1.27322240690285
30
0
41
1
10
35.7269885642069
20
-1.27142509559374
30
0
41
1
10
35.7435952205463
20
-1.26930069328355
30
0
41
1
10
35.7519477800239
20
-1.26895238778013
30
0
41
1
10
35.7645336378387
20
-1.26962113318186
30
0
41
1
10
35.7687381097804
20
-1.27004387212656
30
0
41
1
10
35.7771608135432
20
-1.27133006922094
30
0
41
1
10
35.7813960425553
20
-1.27219939493642
30
0
41
1
10
35.7938845580835
20
-1.27549127491395
30
0
41
1
10
35.8019759833143
20
-1.27858398888176
30
0
41
1
10
35.8097600040024
20
-1.28277814022331
30
0
0
SPLINE
5
20F
100
AcDbEntity
8
1
62
256
6
ByLayer
370
18
48
1
60
0
100
AcDbSpline
70
4
71
3
72
8
73
4
40
0
40
0
40
0
40
0
40
1
40
1
40
1
40
1
41
1
10
35.8097600040024
20
-1.28277814022334
30
0
41
1
10
35.8536220451767
20
-1.2674082738744
30
0
41
1
10
35.8974510487857
20
-1.25052521890277
30
0
41
1
10
35.9414323379268
20
-1.23216602665903
30
0
0
SPLINE
5
210
100
AcDbEntity
8
1
62
256
6
ByLayer
370
18
48
1
60
0
100
AcDbSpline
70
4
71
3
72
22
73
18
40
0
40
0
40
0
40
0
40
0.125000000000025
40
0.125000000000025
40
0.187500000000023
40
0.187500000000023
40
0.250000000000021
40
0.250000000000021
40
0.500000000000014
40
0.500000000000014
40
0.62500000000001
40
0.62500000000001
40
0.750000000000007
40
0.750000000000007
40
0.875000000000004
40
0.875000000000004
40
1
40
1
40
1
40
1
41
1
10
36.27
20
-0.870796933418859
30
0
41
1
10
36.2552008258564
20
-0.883735519574486
30
0
41
1
10
36.2404182333366
20
-0.897411870036194
30
0
41
1
10
36.2182604965022
20
-0.918694152640597
30
0
41
1
10
36.2108769721089
20
-0.925918078423933
30
0
41
1
10
36.1961113183277
20
-0.94061039864107
30
0
41
1
10
36.1887094580773
20
-0.948099646389949
30
0
41
1
10
36.1521190060168
20
-0.985695628267791
30
0
41
1
10
36.1239264679106
20
-1.0164884214536
30
0
41
1
10
36.0826136667942
20
-1.06325349998283
30
0
41
1
10
36.0690087137452
20
-1.07894001283452
30
0
41
1
10
36.0420612623375
20
-1.11045080629737
30
0
41
1
10
36.0288866005958
20
-1.1260798374426
30
0
41
1
10
36.0030963349558
20
-1.15697478822915
30
0
41
1
10
35.9904672070035
20
-1.17225672643968
30
0
41
1
10
35.9656442396671
20
-1.20247452682656
30
0
41
1
10
35.9534631082136
20
-1.21740549620267
30
0
41
1
10
35.9414323379302
20
-1.23216602665772
30
0
0
SPLINE
5
211
100
AcDbEntity
8
1
62
256
6
ByLayer
370
18
48
1
60
0
100
AcDbSpline
70
4
71
3
72
19
73
15
40
0
40
0
40
0
40
0
40
0.238856224792525
40
0.238856224792525
40
0.619428112396263
40
0.619428112396263
40
0.809714056198131
40
0.809714056198131
40
0.904857028099066
40
0.904857028099066
40
0.928642771074299
40
0.928642771074299
40
0.952428514049533
40
1
40
1
40
1
40
1
41
1
10
36.27
20
-0.593987933420181
30
0
41
1
10
36.27
20
-0.611811822626038
30
0
41
1
10
36.27
20
-0.630570209009335
30
0
41
1
10
36.27
20
-0.681632191054092
30
0
41
1
10
36.27
20
-0.715387426185089
30
0
41
1
10
36.27
20
-0.769499580966311
30
0
41
1
10
36.27
20
-0.788123512353906
30
0
41
1
10
36.27
20
-0.81688994395779
30
0
41
1
10
36.27
20
-0.826622494757487
30
0
41
1
10
36.27
20
-0.838985681225211
30
0
41
1
10
36.27
20
-0.841464429477952
30
0
41
1
10
36.27
20
-0.846709512350373
30
0
41
1
10
36.27
20
-0.854916494677269
30
0
41
1
10
36.27
20
-0.86416095221395
30
0
41
1
10
36.27
20
-0.870796933418802
30
0
0
SPLINE
5
212
100
AcDbEntity
8
1
62
256
6
ByLayer
370
18
48
1
60
0
100
AcDbSpline
70
4
71
3
72
18
73
14
40
0
40
0
40
0
40
0
40
0.125000000000016
40
0.125000000000016
40
0.187500000000024
40
0.187500000000024
40
0.250000000000032
40
0.250000000000032
40
0.500000000000022
40
0.500000000000022
40
0.750000000000011
40
0.750000000000011
40
1
40
1
40
1
40
1
41
1
10
35.8631954881007
20
-0.470685939457525
30
0
41
1
10
35.8807905727745
20
-0.473216358187699
30
0
41
1
10
35.8985156868563
20
-0.475216217348844
30
0
41
1
10
35.9253596324735
20
-0.477292956702769
30
0
41
1
10
35.9343669798437
20
-0.477783722538305
30
0
41
1
10
35.9523364622819
20
-0.478822089021122
30
0
41
1
10
35.9612747360418
20
-0.479454035730725
30
0
41
1
10
36.0057200298019
20
-0.483175943305895
30
0
41
1
10
36.0405501050791
20
-0.487756765118689
30
0
41
1
10
36.1088149186537
20
-0.498750098929804
30
0
41
1
10
36.1422450346545
20
-0.505185763094232
30
0
41
1
10
36.2074939213398
20
-0.519182896055298
30
0
41
1
10
36.2393241722183
20
-0.526738103544631
30
0
41
1
10
36.27
20
-0.534893660170042
30
0
0
SPLINE
5
213
100
AcDbEntity
8
1
62
256
6
ByLayer
370
18
48
1
60
0
100
AcDbSpline
70
4
71
3
72
8
73
4
40
0
40
0
40
0
40
0
40
1
40
1
40
1
40
1
41
1
10
35.8631954881006
20
-0.470685939457525
30
0
41
1
10
35.8046978910199
20
-0.435224574990826
30
0
41
1
10
35.7466294703454
20
-0.397613951158348
30
0
41
1
10
35.6889041045229
20
-0.357847545701901
30
0
0
SPLINE
5
214
100
AcDbEntity
8
1
62
256
6
ByLayer
370
18
48
1
60
0
100
AcDbSpline
70
4
71
3
72
8
73
4
40
0
40
0
40
0
40
0
40
1
40
1
40
1
40
1
41
1
10
35.6889041045229
20
-0.357847545701901
30
0
41
1
10
35.6753073297217
20
-0.33529291674472
30
0
41
1
10
35.6616600701259
20
-0.313079146460353
30
0
41
1
10
35.647949925382
20
-0.291222869143354
30
0
0
SPLINE
5
215
100
AcDbEntity
8
1
62
256
6
ByLayer
370
18
48
1
60
0
100
AcDbSpline
70
4
71
3
72
28
73
24
40
0
40
0
40
0
40
0
40
0.125000000000018
40
0.125000000000018
40
0.250000000000035
40
0.250000000000035
40
0.375000000000053
40
0.375000000000053
40
0.437500000000037
40
0.437500000000037
40
0.500000000000021
40
0.500000000000021
40
0.62499999999999
40
0.62499999999999
40
0.749999999999959
40
0.749999999999959
40
0.812499999999969
40
0.812499999999969
40
0.87499999999998
40
0.87499999999998
40
0.93749999999999
40
0.93749999999999
40
1
40
1
40
1
40
1
41
1
10
35.647949925382
20
-0.291222869143297
30
0
41
1
10
35.6420923207021
20
-0.281884861800052
30
0
41
1
10
35.6353339215246
20
-0.272535273212043
30
0
41
1
10
35.62042084014
20
-0.253842873491863
30
0
41
1
10
35.6122002066679
20
-0.244446562402288
30
0
41
1
10
35.5950139544807
20
-0.226225665796136
30
0
41
1
10
35.5859985289705
20
-0.217331681687881
30
0
41
1
10
35.5718786638978
20
-0.204284622643598
30
0
41
1
10
35.5670717720607
20
-0.199984821893565
30
0
41
1
10
35.5572544668965
20
-0.191480519352353
30
0
41
1
10
35.552247205893
20
-0.187280145488984
30
0
41
1
10
35.5371790272246
20
-0.175033781326107
30
0
41
1
10
35.5269901637337
20
-0.167264077491751
30
0
41
1
10
35.5063457087825
20
-0.152562672948449
30
0
41
1
10
35.4958058367477
20
-0.145588273931395
30
0
41
1
10
35.4805225908066
20
-0.136366874864677
30
0
41
1
10
35.4754932867021
20
-0.133482093490613
30
0
41
1
10
35.4655976466253
20
-0.128149051312448
30
0
41
1
10
35.4607353792496
20
-0.125706642256517
30
0
41
1
10
35.4515336742752
20
-0.121495074861002
30
0
41
1
10
35.4471545973514
20
-0.11970275955369
30
0
41
1
10
35.438931496526
20
-0.116873666183807
30
0
41
1
10
35.4351523335001
20
-0.115862434093515
30
0
41
1
10
35.4318185872472
20
-0.115339191603368
30
0
0
SPLINE
5
216
100
AcDbEntity
8
1
62
256
6
ByLayer
370
18
48
1
60
0
100
AcDbSpline
70
4
71
3
72
8
73
4
40
0
40
0
40
0
40
0
40
1
40
1
40
1
40
1
41
1
10
35.4318185872462
20
-0.115339191603169
30
0
41
1
10
35.4016581137324
20
-0.110605405626131
30
0
41
1
10
35.3716882313914
20
-0.102982307678275
30
0
41
1
10
35.3418603766107
20
-0.0925753263352078
30
0
0
SPLINE
5
217
100
AcDbEntity
8
1
62
256
6
ByLayer
370
18
48
1
60
0
100
AcDbSpline
70
4
71
3
72
8
73
4
40
0
40
0
40
0
40
0
40
1
40
1
40
1
40
1
41
1
10
33.3597317055319
20
1.60392421944681
30
0
41
1
10
33.3857531175323
20
1.59113261647465
30
0
41
1
10
33.4117476780544
20
1.57774110148756
30
0
41
1
10
33.4377313088823
20
1.56375899619022
30
0
0
SPLINE
5
218
100
AcDbEntity
8
SK1
62
256
6
ByLayer
370
18
48
1
60
0
100
AcDbSpline
70
4
71
3
72
22
73
18
40
0
40
0
40
0
40
0
40
0.124971815866454
40
0.124971815866454
40
0.249943631732909
40
0.249943631732909
40
0.499887263465817
40
0.499887263465817
40
0.624859079332272
40
0.624859079332272
40
0.687344987265499
40
0.687344987265499
40
0.749830895198726
40
0.749830895198726
40
0.999774526931634
40
0.999774526931634
40
1
40
1
40
1
40
1
41
1
10
-18.83
20
1.39499999999998
30
0
41
1
10
-18.8524670303359
20
1.39499999999998
30
0
41
1
10
-18.8743833412067
20
1.39499999999998
30
0
41
1
10
-18.916582707112
20
1.39499999999998
30
0
41
1
10
-18.9368599218999
20
1.39499999999998
30
0
41
1
10
-18.9947798196044
20
1.39499999999998
30
0
41
1
10
-19.0295427423595
20
1.39499999999998
30
0
41
1
10
-19.0736105824591
20
1.39499999999998
30
0
41
1
10
-19.0869459166796
20
1.39499999999998
30
0
41
1
10
-19.1045582062491
20
1.39499999999998
30
0
41
1
10
-19.1100300085944
20
1.39499999999998
30
0
41
1
10
-19.1201099517183
20
1.39499999999998
30
0
41
1
10
-19.1247275998688
20
1.39499999999998
30
0
41
1
10
-19.1453328925716
20
1.39499999999998
30
0
41
1
10
-19.1538654069527
20
1.39499999999998
30
0
41
1
10
-19.1538789976347
20
1.39499999999998
30
0
41
1
10
-19.1538810006468
20
1.39499999999998
30
0
41
1
10
-19.1538790032589
20
1.39499999999998
30
0
0
SPLINE
5
219
100
AcDbEntity
8
SK1
62
256
6
ByLayer
370
18
48
1
60
0
100
AcDbSpline
70
4
71
3
72
22
73
18
40
0
40
0
40
0
40
0
40
0.0002252434895553
40
0.0002252434895553
40
0.250168932617166
40
0.250168932617166
40
0.312654854899069
40
0.312654854899069
40
0.375140777180972
40
0.375140777180972
40
0.500112621744778
40
0.500112621744778
40
0.750056310872389
40
0.750056310872389
40
0.875028155436195
40
0.875028155436195
40
1
40
1
40
1
40
1
41
1
10
-19.1538790032538
20
-1.39500000000004
30
0
41
1
10
-19.1538810006341
20
-1.39500000000004
30
0
41
1
10
-19.1538789976144
20
-1.39500000000004
30
0
41
1
10
-19.1538654069527
20
-1.39500000000004
30
0
41
1
10
-19.1453328925716
20
-1.39500000000004
30
0
41
1
10
-19.1247275998688
20
-1.39500000000004
30
0
41
1
10
-19.1201099517183
20
-1.39500000000004
30
0
41
1
10
-19.1100300085944
20
-1.39500000000004
30
0
41
1
10
-19.1045582062491
20
-1.39500000000004
30
0
41
1
10
-19.0869459166796
20
-1.39500000000004
30
0
41
1
10
-19.0736105824591
20
-1.39500000000004
30
0
41
1
10
-19.0295427423594
20
-1.39500000000004
30
0
41
1
10
-18.9947798196044
20
-1.39500000000004
30
0
41
1
10
-18.9368599218999
20
-1.39500000000004
30
0
41
1
10
-18.916582707112
20
-1.39500000000004
30
0
41
1
10
-18.8743833412067
20
-1.39500000000004
30
0
41
1
10
-18.8524670303359
20
-1.39500000000004
30
0
41
1
10
-18.83
20
-1.39500000000004
30
0
0
SPLINE
5
21A
100
AcDbEntity
8
SK1
62
256
6
ByLayer
370
18
48
1
60
0
100
AcDbSpline
70
4
71
3
72
35
73
31
40
0
40
0
40
0
40
0
40
0.0624999999999999
40
0.0937499999999999
40
0.0937499999999999
40
0.125
40
0.125
40
0.25
40
0.25
40
0.375
40
0.375
40
0.40625
40
0.40625
40
0.4375
40
0.4375
40
0.5
40
0.5
40
0.625
40
0.625
40
0.65625
40
0.65625
40
0.6875
40
0.6875
40
0.75
40
0.75
40
0.875
40
0.875
40
0.9375
40
0.9375
40
1
40
1
40
1
40
1
41
1
10
-18.83
20
-1.00425268453714
30
0
41
1
10
-18.852358066104
20
-0.965984593989248
30
0
41
1
10
-18.8850157168013
20
-0.907935460363205
30
0
41
1
10
-18.9160772244566
20
-0.8487120668552
30
0
41
1
10
-18.9363919256032
20
-0.808940701581577
30
0
41
1
10
-18.9463590341076
20
-0.788897061248917
30
0
41
1
10
-18.9948848746768
20
-0.688358833376412
30
0
41
1
10
-19.0297192141233
20
-0.606591454538545
30
0
41
1
10
-19.088417977261
20
-0.439377991297533
30
0
41
1
10
-19.112275845845
20
-0.353929708672524
30
0
41
1
10
-19.1328624840159
20
-0.244022211095228
30
0
41
1
10
-19.136522429703
20
-0.221841992614316
30
0
41
1
10
-19.1428241875934
20
-0.177349685408103
30
0
41
1
10
-19.1454565540605
20
-0.155117827903752
30
0
41
1
10
-19.1517778230071
20
-0.0884657031933216
30
0
41
1
10
-19.1538872682373
20
-0.0440889837855991
30
0
41
1
10
-19.1538654069527
20
0.0888660908148324
30
0
41
1
10
-19.1453328925716
20
0.177267955944643
30
0
41
1
10
-19.1247275998688
20
0.287496237608536
30
0
41
1
10
-19.1201099517183
20
0.309530457636072
30
0
41
1
10
-19.1100300085944
20
0.353149474168163
30
0
41
1
10
-19.1045582062491
20
0.374790020455663
30
0
41
1
10
-19.0869459166796
20
0.439243356342359
30
0
41
1
10
-19.0736105824591
20
0.481588639408187
30
0
41
1
10
-19.0295427423595
20
0.607035217723677
30
0
41
1
10
-18.9947798196044
20
0.688559535981852
30
0
41
1
10
-18.9368599218999
20
0.808586234220314
30
0
41
1
10
-18.916582707112
20
0.848215374944147
30
0
41
1
10
-18.8743833412067
20
0.926830043876322
30
0
41
1
10
-18.8524670303359
20
0.965798090689844
30
0
41
1
10
-18.83
20
1.00425268453708
30
0
0
SPLINE
5
21B
100
AcDbEntity
8
1
62
256
6
ByLayer
370
18
48
1
60
0
100
AcDbSpline
70
4
71
2
72
6
73
3
40
0
40
0
40
0
40
1
40
1
40
1
41
1
10
32.4826849079182
20
1.75655504750898
30
0
41
1
10
32.3979828338968
20
1.6118266071025
30
0
41
1
10
32.313181528312
20
1.46822023530004
30
0
0
SPLINE
5
21C
100
AcDbEntity
8
1
62
256
6
ByLayer
370
18
48
1
60
0
100
AcDbSpline
70
4
71
2
72
6
73
3
40
0
40
0
40
0
40
1
40
1
40
1
41
1
10
32.2031367550189
20
-1.76763386471313
30
0
41
1
10
32.2574527505044
20
-1.67472875227085
30
0
41
1
10
32.3118162574218
20
-1.58218818031696
30
0
0
SPLINE
5
21D
100
AcDbEntity
8
1
62
256
6
ByLayer
370
18
48
1
60
0
100
AcDbSpline
70
4
71
2
72
6
73
3
40
0
40
0
40
0
40
1
40
1
40
1
41
1
10
32.3663755435705
20
-1.4894264507077
30
0
41
1
10
32.3975981693706
20
-1.4364058526437
30
0
41
1
10
32.4288364533507
20
-1.38350539494124
30
0
0
SPLINE
5
21E
100
AcDbEntity
8
1
62
256
6
ByLayer
370
18
48
1
60
0
100
AcDbSpline
70
4
71
1
72
4
73
2
40
0
40
0
40
1
40
1
41
1
10
31.8294267676345
20
-1.32353329896552
30
0
41
1
10
31.838424762671
20
-1.33894208179566
30
0
0
SPLINE
5
21F
100
AcDbEntity
8
1
62
256
6
ByLayer
370
18
48
1
60
0
100
AcDbSpline
70
4
71
1
72
4
73
2
40
0
40
0
40
1
40
1
41
1
10
35.1288709004993
20
-1.48497640387461
30
0
41
1
10
35.6307075863206
20
-1.33827358364567
30
0
0
SPLINE
5
220
100
AcDbEntity
8
1
62
256
6
ByLayer
370
18
48
1
60
0
100
AcDbSpline
70
4
71
2
72
6
73
3
40
0
40
0
40
0
40
1
40
1
40
1
41
1
10
35.0067571869931
20
-1.32726488050372
30
0
41
1
10
35.0397795770623
20
-1.38374886938402
30
0
41
1
10
35.072765745538
20
-1.4403490623219
30
0
0
SPLINE
5
221
100
AcDbEntity
8
1
62
256
6
ByLayer
370
18
48
1
60
0
100
AcDbSpline
70
4
71
2
72
6
73
3
40
0
40
0
40
0
40
1
40
1
40
1
41
1
10
28.2286622444763
20
-1.77986260576549
30
0
41
1
10
28.3611435829682
20
-1.55219265831357
30
0
41
1
10
28.4942844078379
20
-1.32551219009869
30
0
0
SPLINE
5
222
100
AcDbEntity
8
1
62
256
6
ByLayer
370
18
48
1
60
0
100
AcDbSpline
70
4
71
2
72
6
73
3
40
0
40
0
40
0
40
1
40
1
40
1
41
1
10
26.7717279588389
20
1.49846645000426
30
0
41
1
10
26.7208494837943
20
1.41109428656367
30
0
41
1
10
26.6697841827341
20
1.32386761949488
30
0
0
SPLINE
5
223
100
AcDbEntity
8
1
62
256
6
ByLayer
370
18
48
1
60
0
100
AcDbSpline
70
4
71
2
72
6
73
3
40
0
40
0
40
0
40
1
40
1
40
1
41
1
10
34.2111257641627
20
-1.3240536314409
30
0
41
1
10
34.3047686352431
20
-1.4840363348132
30
0
41
1
10
34.3981917864276
20
-1.64467286625413
30
0
0
SPLINE
5
224
100
AcDbEntity
8
1
62
256
6
ByLayer
370
18
48
1
60
0
100
AcDbSpline
70
4
71
1
72
4
73
2
40
0
40
0
40
1
40
1
41
1
10
34.436482498275
20
-1.68493239863389
30
0
41
1
10
34.6802632479626
20
-1.61375658452383
30
0
0
SPLINE
5
225
100
AcDbEntity
8
1
62
256
6
ByLayer
370
18
48
1
60
0
100
AcDbSpline
70
4
71
2
72
6
73
3
40
0
40
0
40
0
40
1
40
1
40
1
41
1
10
27.2964068597892
20
1.33671846465452
30
0
41
1
10
27.2146939850773
20
1.47489187019238
30
0
41
1
10
27.1330902094974
20
1.61390248068321
30
0
0
SPLINE
5
226
100
AcDbEntity
8
1
62
256
6
ByLayer
370
18
48
1
60
0
100
AcDbSpline
70
4
71
3
72
8
73
4
40
0
40
0
40
0
40
0
40
1
40
1
40
1
40
1
41
1
10
31.7735432249211
20
0.0505807050185467
30
0
41
1
10
31.7654817111765
20
0.0560323630452615
30
0
41
1
10
31.7574303233819
20
0.0615165032285461
30
0
41
1
10
31.749387704717
20
0.0670308885959514
30
0
0
SPLINE
5
227
100
AcDbEntity
8
1
62
256
6
ByLayer
370
18
48
1
60
0
100
AcDbSpline
70
4
71
1
72
4
73
2
40
0
40
0
40
1
40
1
41
1
10
22.4732741092072
20
0.12521606507039
30
0
41
1
10
22.5352786892713
20
0.0911991348083916
30
0
0
SPLINE
5
228
100
AcDbEntity
8
1
62
256
6
ByLayer
370
18
48
1
60
0
100
AcDbSpline
70
4
71
3
72
9
73
5
40
0
40
0
40
0
40
0
40
0.0913346515187508
40
1
40
1
40
1
40
1
41
1
10
35.6580576388621
20
-0.222643723392338
30
0
41
1
10
35.6509368996315
20
-0.218786932678711
30
0
41
1
10
35.5729350457776
20
-0.176457902275075
30
0
41
1
10
35.4943580354735
20
-0.133023197719496
30
0
41
1
10
35.4233268553697
20
-0.09258063956554
30
0
0
SPLINE
5
229
100
AcDbEntity
8
1
62
256
6
ByLayer
370
18
48
1
60
0
100
AcDbSpline
70
4
71
2
72
6
73
3
40
0
40
0
40
0
40
1
40
1
40
1
41
1
10
25.2976058887564
20
-1.36177970378157
30
0
41
1
10
25.3097438532607
20
-1.34114885853168
30
0
41
1
10
25.3218857595148
20
-1.32053623595414
30
0
0
SPLINE
5
22A
100
AcDbEntity
8
1
62
256
6
ByLayer
370
18
48
1
60
0
100
AcDbSpline
70
4
71
2
72
6
73
3
40
0
40
0
40
0
40
1
40
1
40
1
41
1
10
25.8731077116472
20
1.3185918537981
30
0
41
1
10
25.8694669230101
20
1.30817487406253
30
0
41
1
10
25.8594345206583
20
1.30152269579196
30
0
0
SPLINE
5
22B
100
AcDbEntity
8
1
62
256
6
ByLayer
370
18
48
1
60
0
100
AcDbSpline
70
4
71
2
72
6
73
3
40
0
40
0
40
0
40
1
40
1
40
1
41
1
10
25.9519014721055
20
1.45365782808636
30
0
41
1
10
25.9145685732683
20
1.38969227662486
30
0
41
1
10
25.8771846907883
20
1.32581000021571
30
0
0
SPLINE
5
22C
100
AcDbEntity
8
1
62
256
6
ByLayer
370
18
48
1
60
0
100
AcDbSpline
70
4
71
2
72
6
73
3
40
0
40
0
40
0
40
1
40
1
40
1
41
1
10
29.3176448080391
20
1.78117744316808
30
0
41
1
10
29.1850443485916
20
1.55267682003421
30
0
41
1
10
29.0520903590576
20
1.32521005233232
30
0
0
SPLINE
5
22D
100
AcDbEntity
8
1
62
256
6
ByLayer
370
18
48
1
60
0
100
AcDbSpline
70
4
71
2
72
6
73
3
40
0
40
0
40
0
40
1
40
1
40
1
41
1
10
28.4941444347988
20
-1.32573673756664
30
0
41
1
10
28.5128755211718
20
-1.28287739450178
30
0
41
1
10
28.569456853902
20
-1.28776907136677
30
0
0
SPLINE
5
22E
100
AcDbEntity
8
1
62
256
6
ByLayer
370
18
48
1
60
0
100
AcDbSpline
70
4
71
3
72
11
73
7
40
0
40
0
40
0
40
0
40
0.245375417010903
40
0.499996402810597
40
0.754788382227701
40
1
40
1
40
1
40
1
41
1
10
33.0202629311867
20
1.32405023015187
30
0
41
1
10
33.0135251997618
20
1.31167211006328
30
0
41
1
10
32.9938365217731
20
1.2930712167807
30
0
41
1
10
32.9364249489483
20
1.27657189687886
30
0
41
1
10
32.8790726473127
20
1.29840320421414
30
0
41
1
10
32.8592954284064
20
1.32100024403869
30
0
41
1
10
32.8525022094638
20
1.33540156852413
30
0
0
SPLINE
5
22F
100
AcDbEntity
8
1
62
256
6
ByLayer
370
18
48
1
60
0
100
AcDbSpline
70
4
71
2
72
6
73
3
40
0
40
0
40
0
40
1
40
1
40
1
41
1
10
29.6765881873955
20
1.33598975238883
30
0
41
1
10
29.544031539263
20
1.5631538242973
30
0
41
1
10
29.4116917559969
20
1.79089256146707
30
0
0
SPLINE
5
230
100
AcDbEntity
8
1
62
256
6
ByLayer
370
18
48
1
60
0
100
AcDbSpline
70
4
71
3
72
11
73
7
40
0
40
0
40
0
40
0
40
0.249463055585901
40
0.503251140338467
40
0.755313794103483
40
1
40
1
40
1
40
1
41
1
10
31.6707480813623
20
-1.32364171673609
30
0
41
1
10
31.6767608377978
20
-1.31218577102754
30
0
41
1
10
31.6951981897931
20
-1.29497308685504
30
0
41
1
10
31.7512763394248
20
-1.27738260425602
30
0
41
1
10
31.8076390888284
20
-1.29678010568225
30
0
41
1
10
31.8262712632811
20
-1.31594424899904
30
0
41
1
10
31.8324775649922
20
-1.328359756114
30
0
0
SPLINE
5
231
100
AcDbEntity
8
1
62
256
6
ByLayer
370
18
48
1
60
0
100
AcDbSpline
70
4
71
3
72
11
73
7
40
0
40
0
40
0
40
0
40
0.246437335228478
40
0.498159852304643
40
0.750931024255924
40
1
40
1
40
1
40
1
41
1
10
29.8449236922245
20
1.32351588309405
30
0
41
1
10
29.8390941599843
20
1.31240773765452
30
0
41
1
10
29.8211228420035
20
1.29550199349782
30
0
41
1
10
29.7654640506859
20
1.27756223942734
30
0
41
1
10
29.7099893634611
20
1.29557493911969
30
0
41
1
10
29.6920844090821
20
1.31222745780923
30
0
41
1
10
29.6863375180882
20
1.32322373899976
30
0
0
SPLINE
5
232
100
AcDbEntity
8
1
62
256
6
ByLayer
370
18
48
1
60
0
100
AcDbSpline
70
4
71
2
72
6
73
3
40
0
40
0
40
0
40
1
40
1
40
1
41
1
10
26.5121628102433
20
1.32159071996639
30
0
41
1
10
26.4557026732061
20
1.41756851231165
30
0
41
1
10
26.3994145828743
20
1.51380718099389
30
0
0
SPLINE
5
233
100
AcDbEntity
8
1
62
256
6
ByLayer
370
18
48
1
60
0
100
AcDbSpline
70
4
71
3
72
11
73
7
40
0
40
0
40
0
40
0
40
0.247677466626402
40
0.49953863446214
40
0.751482971284002
40
1
40
1
40
1
40
1
41
1
10
34.8468980472272
20
-1.32158978153663
30
0
41
1
10
34.8525375258634
20
-1.31111991749111
30
0
41
1
10
34.8701723506961
20
-1.29526595021576
30
0
41
1
10
34.9253031417342
20
-1.27782236236271
30
0
41
1
10
34.9804372831723
20
-1.29562760897346
30
0
41
1
10
34.9979497817294
20
-1.31140154620425
30
0
41
1
10
35.0034996707232
20
-1.32180335204231
30
0
0
SPLINE
5
234
100
AcDbEntity
8
1
62
256
6
ByLayer
370
18
48
1
60
0
100
AcDbSpline
70
4
71
3
72
11
73
7
40
0
40
0
40
0
40
0
40
0.24814517349289
40
0.501166382082514
40
0.753791394364941
40
1
40
1
40
1
40
1
41
1
10
26.6722173826399
20
1.32777664868382
30
0
41
1
10
26.6662315219758
20
1.31565421114328
30
0
41
1
10
26.6478860642967
20
1.2970539080311
30
0
41
1
10
26.5917813654201
20
1.27750122203884
30
0
41
1
10
26.535647371306
20
1.29481218811233
30
0
41
1
10
26.5171144652123
20
1.31216792292443
30
0
41
1
10
26.5109836203852
20
1.32365683827908
30
0
0
SPLINE
5
235
100
AcDbEntity
8
1
62
256
6
ByLayer
370
18
48
1
60
0
100
AcDbSpline
70
4
71
2
72
6
73
3
40
0
40
0
40
0
40
1
40
1
40
1
41
1
10
27.8603969943254
20
-1.3237862006454
30
0
41
1
10
27.9898699778239
20
-1.5450012650227
30
0
41
1
10
28.1186463915259
20
-1.76676267416101
30
0
0
SPLINE
5
236
100
AcDbEntity
8
1
62
256
6
ByLayer
370
18
48
1
60
0
100
AcDbSpline
70
4
71
2
72
6
73
3
40
0
40
0
40
0
40
1
40
1
40
1
41
1
10
34.6644693255967
20
-1.63274086272409
30
0
41
1
10
34.6695201739418
20
-1.62407192245445
30
0
41
1
10
34.6745714448812
20
-1.61540444410437
30
0
0
SPLINE
5
237
100
AcDbEntity
8
1
62
256
6
ByLayer
370
18
48
1
60
0
100
AcDbSpline
70
4
71
2
72
6
73
3
40
0
40
0
40
0
40
1
40
1
40
1
41
1
10
34.6758974301003
20
-1.61312922307513
30
0
41
1
10
34.7580100990576
20
-1.47223671929817
30
0
41
1
10
34.8402344371418
20
-1.33173052285923
30
0
0
SPLINE
5
238
100
AcDbEntity
8
1
62
256
6
ByLayer
370
18
48
1
60
0
100
AcDbSpline
70
4
71
2
72
6
73
3
40
0
40
0
40
0
40
1
40
1
40
1
41
1
10
33.2876761365533
20
1.7832309721629
30
0
41
1
10
33.1535085095773
20
1.55198701987862
30
0
41
1
10
33.0186831160051
20
1.32124614040873
30
0
0
SPLINE
5
239
100
AcDbEntity
8
1
62
256
6
ByLayer
370
18
48
1
60
0
100
AcDbSpline
70
4
71
3
72
11
73
7
40
0
40
0
40
0
40
0
40
0.245298359153526
40
0.500740727523191
40
0.755651942627851
40
1
40
1
40
1
40
1
41
1
10
27.6911132430267
20
-1.33680748738573
30
0
41
1
10
27.6980521025431
20
-1.32190546829031
30
0
41
1
10
27.7181152468998
20
-1.2984378422594
30
0
41
1
10
27.7757411784352
20
-1.27600259215083
30
0
41
1
10
27.8334752939101
20
-1.29223646950075
30
0
41
1
10
27.85350648445
20
-1.31122969936166
30
0
41
1
10
27.8604397189724
20
-1.3238588230727
30
0
0
SPLINE
5
23A
100
AcDbEntity
8
1
62
256
6
ByLayer
370
18
48
1
60
0
100
AcDbSpline
70
4
71
2
72
6
73
3
40
0
40
0
40
0
40
1
40
1
40
1
41
1
10
33.6551948283216
20
1.32360876286896
30
0
41
1
10
33.5203454622419
20
1.55311480749916
30
0
41
1
10
33.386488749544
20
1.78325476069091
30
0
0
SPLINE
5
23B
100
AcDbEntity
8
1
62
256
6
ByLayer
370
18
48
1
60
0
100
AcDbSpline
70
4
71
2
72
6
73
3
40
0
40
0
40
0
40
1
40
1
40
1
41
1
10
31.4039646723554
20
-1.77974452515176
30
0
41
1
10
31.5372693060098
20
-1.55065550027717
30
0
41
1
10
31.6711968779013
20
-1.32286770507383
30
0
0
SPLINE
5
23C
100
AcDbEntity
8
1
62
256
6
ByLayer
370
18
48
1
60
0
100
AcDbSpline
70
4
71
2
72
6
73
3
40
0
40
0
40
0
40
1
40
1
40
1
41
1
10
33.7270598086071
20
1.2886739407669
30
0
41
1
10
33.6716382672014
20
1.2829498252998
30
0
41
1
10
33.6535622472425
20
1.32628762176876
30
0
0
SPLINE
5
23D
100
AcDbEntity
8
1
62
256
6
ByLayer
370
18
48
1
60
0
100
AcDbSpline
70
4
71
2
72
6
73
3
40
0
40
0
40
0
40
1
40
1
40
1
41
1
10
31.0356693623206
20
-1.32366680410172
30
0
41
1
10
31.1697564052536
20
-1.5528155255046
30
0
41
1
10
31.3031261493774
20
-1.78251053619795
30
0
0
SPLINE
5
23E
100
AcDbEntity
8
1
62
256
6
ByLayer
370
18
48
1
60
0
100
AcDbSpline
70
4
71
2
72
6
73
3
40
0
40
0
40
0
40
1
40
1
40
1
41
1
10
30.9790936244341
20
-1.29031674850543
30
0
41
1
10
31.0235028722918
20
-1.29089861676815
30
0
41
1
10
31.0341957003039
20
-1.32105953451807
30
0
0
SPLINE
5
23F
100
AcDbEntity
8
1
62
256
6
ByLayer
370
18
48
1
60
0
100
AcDbSpline
70
4
71
2
72
6
73
3
40
0
40
0
40
0
40
1
40
1
40
1
41
1
10
30.1127663722704
20
1.78318295506352
30
0
41
1
10
29.9803391491618
20
1.55505031747319
30
0
41
1
10
29.8476142916053
20
1.3278194803834
30
0
0
SPLINE
5
240
100
AcDbEntity
8
1
62
256
6
ByLayer
370
18
48
1
60
0
100
AcDbSpline
70
4
71
2
72
6
73
3
40
0
40
0
40
0
40
1
40
1
40
1
41
1
10
30.5169238502535
20
1.29360489157668
30
0
41
1
10
30.5086161205667
20
1.29619522913612
30
0
41
1
10
30.5029312868816
20
1.29900418771717
30
0
0
SPLINE
5
241
100
AcDbEntity
8
1
62
256
6
ByLayer
370
18
48
1
60
0
100
AcDbSpline
70
4
71
1
72
4
73
2
40
0
40
0
40
1
40
1
41
1
10
30.4917022381537
20
1.30806166811115
30
0
41
1
10
30.4854753082401
20
1.31308425643258
30
0
0
SPLINE
5
242
100
AcDbEntity
8
1
62
256
6
ByLayer
370
18
48
1
60
0
100
AcDbSpline
70
4
71
2
72
6
73
3
40
0
40
0
40
0
40
1
40
1
40
1
41
1
10
30.4800716153802
20
1.32352778340646
30
0
41
1
10
30.3444557937995
20
1.55423115260444
30
0
41
1
10
30.2096264496661
20
1.78583505998901
30
0
0
SPLINE
5
243
100
AcDbEntity
8
1
62
256
6
ByLayer
370
18
48
1
60
0
100
AcDbSpline
70
4
71
1
72
4
73
2
40
0
40
0
40
1
40
1
41
1
10
34.1952196550503
20
-1.29722020231705
30
0
41
1
10
34.1996356635365
20
-1.29949408606862
30
0
0
SPLINE
5
244
100
AcDbEntity
8
1
62
256
6
ByLayer
370
18
48
1
60
0
100
AcDbSpline
70
4
71
2
72
6
73
3
40
0
40
0
40
0
40
1
40
1
40
1
41
1
10
35.6465473087744
20
-1.30992304358631
30
0
41
1
10
35.6503120575752
20
-1.30338617414017
30
0
41
1
10
35.6718735915334
20
-1.29481124076173
30
0
0
LINE
5
81
100
AcDbEntity
8
SK4
62
256
6
ByLayer
370
18
48
0.05
60
0
100
AcDbLine
10
-19.83
20
0
30
0
11
36.27
21
0
31
0
39
0
210
0
220
0
230
1
0
LINE
5
83
100
AcDbEntity
8
80
62
256
6
ByLayer
370
18
48
1
60
0
100
AcDbLine
10
0
20
0
30
0
11
-5
21
0
31
0
39
0
210
0
220
0
230
1
0
LINE
5
84
100
AcDbEntity
8
4
62
256
6
ByLayer
370
18
48
0.05
60
0
100
AcDbLine
10
0
20
0
30
0
11
36.27
21
0
31
0
39
0
210
0
220
0
230
1
0
LINE
5
86
100
AcDbEntity
8
81
62
256
6
ByLayer
370
18
48
1
60
0
100
AcDbLine
10
36.27
20
0
30
0
11
41.27
21
0
31
0
39
0
210
0
220
0
230
1
0
LINE
5
87
100
AcDbEntity
8
1
62
256
6
ByLayer
370
18
48
1
60
0
100
AcDbLine
10
0
20
1.7905
30
0
11
0
21
-1.7905
31
0
39
0
210
0
220
0
230
1
0
LINE
5
88
100
AcDbEntity
8
1
62
256
6
ByLayer
370
13
48
1
60
0
100
AcDbLine
10
31.832402
20
-1.328249
30
0
11
31.829179
21
-1.323107
31
0
39
0
210
0
220
0
230
1
0
LINE
5
89
100
AcDbEntity
8
1
62
256
6
ByLayer
370
18
48
1
60
0
100
AcDbLine
10
24.67
20
-1.283493
30
0
11
24.67
21
-1.207301
31
0
39
0
210
0
220
0
230
1
0
LINE
5
8A
100
AcDbEntity
8
1
62
256
6
ByLayer
370
18
48
1
60
0
100
AcDbLine
10
26.511945
20
1.321981
30
0
11
26.508907
21
1.327014
31
0
39
0
210
0
220
0
230
1
0
LINE
5
8B
100
AcDbEntity
8
1
62
256
6
ByLayer
370
18
48
1
60
0
100
AcDbLine
10
34.844934
20
-1.324962
30
0
11
34.840261
21
-1.331697
31
0
39
0
210
0
220
0
230
1
0
LINE
5
8C
100
AcDbEntity
8
1
62
256
6
ByLayer
370
18
48
1
60
0
100
AcDbLine
10
33.655252
20
1.323511
30
0
11
33.651547
21
1.329288
31
0
39
0
210
0
220
0
230
1
0
LINE
5
8D
100
AcDbEntity
8
1
62
256
6
ByLayer
370
18
48
1
60
0
100
AcDbLine
10
24.67
20
0.980924
30
0
11
24.67
21
0.311516
31
0
39
0
210
0
220
0
230
1
0
LINE
5
8E
100
AcDbEntity
8
1
62
256
6
ByLayer
370
18
48
1
60
0
100
AcDbLine
10
36.27
20
0.95
30
0
11
36.27
21
0.947367
31
0
39
0
210
0
220
0
230
1
0
LINE
5
8F
100
AcDbEntity
8
1
62
256
6
ByLayer
370
18
48
1
60
0
100
AcDbLine
10
32.104442
20
-1.790844
30
0
11
32.110346
21
-1.792894
31
0
39
0
210
0
220
0
230
1
0
LINE
5
90
100
AcDbEntity
8
1
62
256
6
ByLayer
370
18
48
1
60
0
100
AcDbLine
10
35.629785
20
-1.338544
30
0
11
35.628145
21
-1.337567
31
0
39
0
210
0
220
0
230
1
0
LINE
5
91
100
AcDbEntity
8
1
62
256
6
ByLayer
370
13
48
1
60
0
100
AcDbLine
10
24.433694
20
-1.235
30
0
11
24.433694
21
-1.09424
31
0
39
0
210
0
220
0
230
1
0
LINE
5
92
100
AcDbEntity
8
1
62
256
6
ByLayer
370
13
48
1
60
0
100
AcDbLine
10
24.433694
20
0.483892
30
0
11
24.433694
21
1.043001
31
0
39
0
210
0
220
0
230
1
0
LINE
5
93
100
AcDbEntity
8
1
62
256
6
ByLayer
370
13
48
1
60
0
100
AcDbLine
10
19.239991
20
-1.235
30
0
11
19.239991
21
1.235
31
0
39
0
210
0
220
0
230
1
0
LINE
5
94
100
AcDbEntity
8
1
62
256
6
ByLayer
370
18
48
1
60
0
100
AcDbLine
10
36.27
20
0.106522
30
0
11
36.27
21
-0.534894
31
0
39
0
210
0
220
0
230
1
0
LINE
5
95
100
AcDbEntity
8
1
62
256
6
ByLayer
370
13
48
1
60
0
100
AcDbLine
10
19.101072
20
1.247154
30
0
11
19.101072
21
-1.247154
31
0
39
0
210
0
220
0
230
1
0
LINE
5
96
100
AcDbEntity
8
1
62
256
6
ByLayer
370
18
48
1
60
0
100
AcDbLine
10
16.019603
20
1.7905
30
0
11
16.019603
21
-1.7905
31
0
39
0
210
0
220
0
230
1
0
LINE
5
97
100
AcDbEntity
8
1
62
256
6
ByLayer
370
18
48
1
60
0
100
AcDbLine
10
22.471316
20
0.128642
30
0
11
22.473761
21
0.136078
31
0
39
0
210
0
220
0
230
1
0
LINE
5
98
100
AcDbEntity
8
1
62
256
6
ByLayer
370
18
48
1
60
0
100
AcDbLine
10
36.27
20
-0.534894
30
0
11
36.27
21
-0.525379
31
0
39
0
210
0
220
0
230
1
0
LINE
5
99
100
AcDbEntity
8
SK1
62
256
6
ByLayer
370
18
48
1
60
0
100
AcDbLine
10
-19.83
20
0.71888
30
0
11
-19.83
21
-0.71888
31
0
39
0
210
0
220
0
230
1
0
LINE
5
9B
100
AcDbEntity
8
SK1
62
256
6
ByLayer
370
18
48
1
60
0
100
AcDbLine
10
-15
20
1.004253
30
0
11
-15
21
-1.004253
31
0
39
0
210
0
220
0
230
1
0
LINE
5
9C
100
AcDbEntity
8
SK1
62
256
6
ByLayer
370
18
48
1
60
0
100
AcDbLine
10
-14.67612
20
1.71888
30
0
11
-15
21
1.395
31
0
39
0
210
0
220
0
230
1
0
LINE
5
9D
100
AcDbEntity
8
SK1
62
256
6
ByLayer
370
18
48
1
60
0
100
AcDbLine
10
-18.83
20
1.395
30
0
11
-15
21
1.395
31
0
39
0
210
0
220
0
230
1
0
LINE
5
9E
100
AcDbEntity
8
SK1
62
256
6
ByLayer
370
18
48
1
60
0
100
AcDbLine
10
-18.83
20
1.004253
30
0
11
-18.83
21
1.395
31
0
39
0
210
0
220
0
230
1
0
LINE
5
9F
100
AcDbEntity
8
SK1
62
256
6
ByLayer
370
18
48
1
60
0
100
AcDbLine
10
-15
20
1.004253
30
0
11
-18.83
21
1.004253
31
0
39
0
210
0
220
0
230
1
0
LINE
5
A0
100
AcDbEntity
8
SK1
62
256
6
ByLayer
370
18
48
1
60
0
100
AcDbLine
10
-18.83
20
-1.004253
30
0
11
-15
21
-1.004253
31
0
39
0
210
0
220
0
230
1
0
LINE
5
A1
100
AcDbEntity
8
SK1
62
256
6
ByLayer
370
18
48
1
60
0
100
AcDbLine
10
-18.83
20
-1.395
30
0
11
-18.83
21
-1.004253
31
0
39
0
210
0
220
0
230
1
0
LINE
5
A2
100
AcDbEntity
8
SK1
62
256
6
ByLayer
370
18
48
1
60
0
100
AcDbLine
10
-15
20
-1.395
30
0
11
-18.83
21
-1.395
31
0
39
0
210
0
220
0
230
1
0
LINE
5
A3
100
AcDbEntity
8
SK1
62
256
6
ByLayer
370
18
48
1
60
0
100
AcDbLine
10
-15
20
-1.395
30
0
11
-14.67612
21
-1.71888
31
0
39
0
210
0
220
0
230
1
0
LINE
5
A4
100
AcDbEntity
8
SK1
62
256
6
ByLayer
370
18
48
1
60
0
100
AcDbLine
10
0
20
1.7905
30
0
11
0
21
-1.7905
31
0
39
0
210
0
220
0
230
1
0
LINE
5
A5
100
AcDbEntity
8
SK1
62
256
6
ByLayer
370
18
48
1
60
0
100
AcDbLine
10
-14.517
20
1.71888
30
0
11
-14.517
21
-1.71888
31
0
39
0
210
0
220
0
230
1
0
LINE
5
A6
100
AcDbEntity
8
SK1
62
256
6
ByLayer
370
18
48
1
60
0
100
AcDbLine
10
-14.44538
20
-1.7905
30
0
11
-14.44538
21
1.7905
31
0
39
0
210
0
220
0
230
1
0
LINE
5
A7
100
AcDbEntity
8
1
62
256
6
ByLayer
370
18
48
1
60
0
100
AcDbLine
10
16.019603
20
1.7905
30
0
11
0
21
1.7905
31
0
39
0
210
0
220
0
230
1
0
LINE
5
A8
100
AcDbEntity
8
1
62
256
6
ByLayer
370
18
48
1
60
0
100
AcDbLine
10
0
20
-1.7905
30
0
11
16.019603
21
-1.7905
31
0
39
0
210
0
220
0
230
1
0
LINE
5
A9
100
AcDbEntity
8
1
62
256
6
ByLayer
370
18
48
1
60
0
100
AcDbLine
10
24.67
20
-1.283493
30
0
11
25.25897
21
-1.366268
31
0
39
0
210
0
220
0
230
1
0
LINE
5
AA
100
AcDbEntity
8
1
62
256
6
ByLayer
370
18
48
1
60
0
100
AcDbLine
10
26.382433
20
1.52416
30
0
11
25.968095
21
1.465929
31
0
39
0
210
0
220
0
230
1
0
LINE
5
AB
100
AcDbEntity
8
1
62
256
6
ByLayer
370
18
48
1
60
0
100
AcDbLine
10
28.124774
20
-1.76903
30
0
11
28.216889
21
-1.781976
31
0
39
0
210
0
220
0
230
1
0
LINE
5
AC
100
AcDbEntity
8
1
62
256
6
ByLayer
370
18
48
1
60
0
100
AcDbLine
10
34.182265
20
-1.291524
30
0
11
34.18996
21
-1.294512
31
0
39
0
210
0
220
0
230
1
0
LINE
5
AD
100
AcDbEntity
8
1
62
256
6
ByLayer
370
18
48
1
60
0
100
AcDbLine
10
27.025781
20
1.614577
30
0
11
26.830179
21
1.587087
31
0
39
0
210
0
220
0
230
1
0
LINE
5
AE
100
AcDbEntity
8
1
62
256
6
ByLayer
370
18
48
1
60
0
100
AcDbLine
10
36.27
20
0.95
30
0
11
36.17759
21
1.04241
31
0
39
0
210
0
220
0
230
1
0
LINE
5
AF
100
AcDbEntity
8
1
62
256
6
ByLayer
370
18
48
1
60
0
100
AcDbLine
10
32.110435
20
-1.792892
30
0
11
32.182138
21
-1.792892
31
0
39
0
210
0
220
0
230
1
0
LINE
5
B0
100
AcDbEntity
8
1
62
256
6
ByLayer
370
18
48
1
60
0
100
AcDbLine
10
29.40407
20
1.792892
30
0
11
29.332156
21
1.792892
31
0
39
0
210
0
220
0
230
1
0
LINE
5
B1
100
AcDbEntity
8
1
62
256
6
ByLayer
370
18
48
1
60
0
100
AcDbLine
10
33.373167
20
1.792892
30
0
11
33.301067
21
1.792892
31
0
39
0
210
0
220
0
230
1
0
LINE
5
B2
100
AcDbEntity
8
1
62
256
6
ByLayer
370
18
48
1
60
0
100
AcDbLine
10
31.316769
20
-1.792892
30
0
11
31.388646
21
-1.792892
31
0
39
0
210
0
220
0
230
1
0
LINE
5
B3
100
AcDbEntity
8
1
62
256
6
ByLayer
370
18
48
1
60
0
100
AcDbLine
10
30.197854
20
1.792892
30
0
11
30.125992
21
1.792892
31
0
39
0
210
0
220
0
230
1
0
LINE
5
B4
100
AcDbEntity
8
1
62
256
6
ByLayer
370
18
48
1
60
0
100
AcDbLine
10
19.239991
20
-1.235
30
0
11
21.988203
21
-1.235
31
0
39
0
210
0
220
0
230
1
0
LINE
5
B5
100
AcDbEntity
8
1
62
256
6
ByLayer
370
18
48
1
60
0
100
AcDbLine
10
24.236544
20
-1.235
30
0
11
24.433694
21
-1.235
31
0
39
0
210
0
220
0
230
1
0
LINE
5
B6
100
AcDbEntity
8
1
62
256
6
ByLayer
370
18
48
1
60
0
100
AcDbLine
10
23.51025
20
1.235
30
0
11
19.239991
21
1.235
31
0
39
0
210
0
220
0
230
1
0
LINE
5
B7
100
AcDbEntity
8
1
62
256
6
ByLayer
370
18
48
1
60
0
100
AcDbLine
10
19.101072
20
1.247154
30
0
11
16.019603
21
1.7905
31
0
39
0
210
0
220
0
230
1
0
LINE
5
B8
100
AcDbEntity
8
1
62
256
6
ByLayer
370
18
48
1
60
0
100
AcDbLine
10
16.019603
20
-1.7905
30
0
11
19.101072
21
-1.247154
31
0
39
0
210
0
220
0
230
1
0
LINE
5
B9
100
AcDbEntity
8
SK1
62
256
6
ByLayer
370
18
48
1
60
0
100
AcDbLine
10
-19.83
20
-0.71888
30
0
11
-19.15388
21
-1.395
31
0
39
0
210
0
220
0
230
1
0
LINE
5
BA
100
AcDbEntity
8
SK1
62
256
6
ByLayer
370
18
48
1
60
0
100
AcDbLine
10
-19.15388
20
1.395
30
0
11
-19.83
21
0.71888
31
0
39
0
210
0
220
0
230
1
0
LINE
5
BB
100
AcDbEntity
8
SK1
62
256
6
ByLayer
370
18
48
1
60
0
100
AcDbLine
10
-14.517
20
1.71888
30
0
11
-14.67612
21
1.71888
31
0
39
0
210
0
220
0
230
1
0
LINE
5
BC
100
AcDbEntity
8
SK1
62
256
6
ByLayer
370
18
48
1
60
0
100
AcDbLine
10
-14.67612
20
-1.71888
30
0
11
-14.517
21
-1.71888
31
0
39
0
210
0
220
0
230
1
0
LINE
5
BD
100
AcDbEntity
8
SK1
62
256
6
ByLayer
370
18
48
1
60
0
100
AcDbLine
10
0
20
1.7905
30
0
11
-14.44538
21
1.7905
31
0
39
0
210
0
220
0
230
1
0
LINE
5
BE
100
AcDbEntity
8
SK1
62
256
6
ByLayer
370
18
48
1
60
0
100
AcDbLine
10
-14.44538
20
-1.7905
30
0
11
0
21
-1.7905
31
0
39
0
210
0
220
0
230
1
0
LINE
5
BF
100
AcDbEntity
8
SK1
62
256
6
ByLayer
370
18
48
1
60
0
100
AcDbLine
10
-14.517
20
-1.71888
30
0
11
-14.44538
21
-1.7905
31
0
39
0
210
0
220
0
230
1
0
LINE
5
C0
100
AcDbEntity
8
SK1
62
256
6
ByLayer
370
18
48
1
60
0
100
AcDbLine
10
-14.44538
20
1.7905
30
0
11
-14.517
21
1.71888
31
0
39
0
210
0
220
0
230
1
0
LINE
5
C1
100
AcDbEntity
8
SK2
62
256
6
ByLayer
370
18
48
1
60
0
100
AcDbLine
10
8.787111
20
23.823355
30
0
11
8.787111
21
-9.2905
31
0
39
0
210
0
220
0
230
1
0
LINE
5
C3
100
AcDbEntity
8
1
62
256
6
ByLayer
370
18
48
1
60
1
100
AcDbLine
10
8.787111
20
1.7905
30
0
11
8.326328
21
5.290498
31
0
39
0
210
0
220
0
230
1
0
LINE
5
C4
100
AcDbEntity
8
1
62
256
6
ByLayer
370
18
48
1
60
1
100
AcDbLine
10
8.326328
20
5.290498
30
0
11
9.247895
21
5.290502
31
0
39
0
210
0
220
0
230
1
0
LINE
5
C5
100
AcDbEntity
8
1
62
256
6
ByLayer
370
18
48
1
60
1
100
AcDbLine
10
9.247895
20
5.290502
30
0
11
8.787111
21
1.7905
31
0
39
0
210
0
220
0
230
1
0
LINE
5
C6
100
AcDbEntity
8
1
62
256
6
ByLayer
370
18
48
1
60
1
100
AcDbLine
10
8.787111
20
-1.7905
30
0
11
9.247895
21
-5.290498
31
0
39
0
210
0
220
0
230
1
0
LINE
5
C7
100
AcDbEntity
8
1
62
256
6
ByLayer
370
18
48
1
60
1
100
AcDbLine
10
9.247895
20
-5.290498
30
0
11
8.326328
21
-5.290502
31
0
39
0
210
0
220
0
230
1
0
LINE
5
C8
100
AcDbEntity
8
1
62
256
6
ByLayer
370
18
48
1
60
1
100
AcDbLine
10
8.326328
20
-5.290502
30
0
11
8.787111
21
-1.7905
31
0
39
0
210
0
220
0
230
1
0
LINE
5
C9
100
AcDbEntity
8
2
62
256
6
ByLayer
370
18
48
1
60
0
100
AcDbLine
10
36.17
20
-39.292892
30
0
11
-19.83
21
-39.292892
31
0
39
0
210
0
220
0
230
1
0
LINE
5
CB
100
AcDbEntity
8
2
62
256
6
ByLayer
370
18
48
1
60
0
100
AcDbLine
10
-19.83
20
-2.30638
30
0
11
-19.83
21
-41.292892
31
0
39
0
210
0
220
0
230
1
0
LINE
5
CC
100
AcDbEntity
8
2
62
256
6
ByLayer
370
18
48
1
60
0
100
AcDbLine
10
36.17
20
-3.380392
30
0
11
36.17
21
-41.292892
31
0
39
0
210
0
220
0
230
1
0
LINE
5
CD
100
AcDbEntity
8
1
62
256
6
ByLayer
370
18
48
1
60
1
100
AcDbLine
10
-19.83
20
-39.292892
30
0
11
-16.330002
21
-38.832109
31
0
39
0
210
0
220
0
230
1
0
LINE
5
CE
100
AcDbEntity
8
1
62
256
6
ByLayer
370
18
48
1
60
1
100
AcDbLine
10
-16.330002
20
-38.832109
30
0
11
-16.329998
21
-39.753676
31
0
39
0
210
0
220
0
230
1
0
LINE
5
CF
100
AcDbEntity
8
1
62
256
6
ByLayer
370
18
48
1
60
1
100
AcDbLine
10
-16.329998
20
-39.753676
30
0
11
-19.83
21
-39.292892
31
0
39
0
210
0
220
0
230
1
0
LINE
5
D0
100
AcDbEntity
8
1
62
256
6
ByLayer
370
18
48
1
60
1
100
AcDbLine
10
36.17
20
-39.292892
30
0
11
32.670002
21
-39.753676
31
0
39
0
210
0
220
0
230
1
0
LINE
5
D1
100
AcDbEntity
8
1
62
256
6
ByLayer
370
18
48
1
60
1
100
AcDbLine
10
32.670002
20
-39.753676
30
0
11
32.669998
21
-38.832109
31
0
39
0
210
0
220
0
230
1
0
LINE
5
D2
100
AcDbEntity
8
1
62
256
6
ByLayer
370
18
48
1
60
1
100
AcDbLine
10
32.669998
20
-38.832109
30
0
11
36.17
21
-39.292892
31
0
39
0
210
0
220
0
230
1
0
LINE
5
249
100
AcDbEntity
8
1
62
256
6
ByLayer
370
18
48
1
60
1
100
AcDbLine
10
8.787111
20
1.7905
30
0
11
8.326328
21
5.290498
31
0
39
0
210
0
220
0
230
1
0
LINE
5
24A
100
AcDbEntity
8
1
62
256
6
ByLayer
370
18
48
1
60
1
100
AcDbLine
10
8.326328
20
5.290498
30
0
11
9.247895
21
5.290502
31
0
39
0
210
0
220
0
230
1
0
LINE
5
24B
100
AcDbEntity
8
1
62
256
6
ByLayer
370
18
48
1
60
1
100
AcDbLine
10
9.247895
20
5.290502
30
0
11
8.787111
21
1.7905
31
0
39
0
210
0
220
0
230
1
0
LINE
5
24D
100
AcDbEntity
8
1
62
256
6
ByLayer
370
18
48
1
60
1
100
AcDbLine
10
8.787111
20
-1.7905
30
0
11
9.247895
21
-5.290498
31
0
39
0
210
0
220
0
230
1
0
LINE
5
24E
100
AcDbEntity
8
1
62
256
6
ByLayer
370
18
48
1
60
1
100
AcDbLine
10
9.247895
20
-5.290498
30
0
11
8.326328
21
-5.290502
31
0
39
0
210
0
220
0
230
1
0
LINE
5
24F
100
AcDbEntity
8
1
62
256
6
ByLayer
370
18
48
1
60
1
100
AcDbLine
10
8.326328
20
-5.290502
30
0
11
8.787111
21
-1.7905
31
0
39
0
210
0
220
0
230
1
0
LINE
5
252
100
AcDbEntity
8
1
62
256
6
ByLayer
370
18
48
1
60
1
100
AcDbLine
10
-19.83
20
-39.292892
30
0
11
-16.330002
21
-38.832109
31
0
39
0
210
0
220
0
230
1
0
LINE
5
253
100
AcDbEntity
8
1
62
256
6
ByLayer
370
18
48
1
60
1
100
AcDbLine
10
-16.330002
20
-38.832109
30
0
11
-16.329998
21
-39.753676
31
0
39
0
210
0
220
0
230
1
0
LINE
5
254
100
AcDbEntity
8
1
62
256
6
ByLayer
370
18
48
1
60
1
100
AcDbLine
10
-16.329998
20
-39.753676
30
0
11
-19.83
21
-39.292892
31
0
39
0
210
0
220
0
230
1
0
LINE
5
256
100
AcDbEntity
8
1
62
256
6
ByLayer
370
18
48
1
60
1
100
AcDbLine
10
36.17
20
-39.292892
30
0
11
32.670002
21
-39.753676
31
0
39
0
210
0
220
0
230
1
0
LINE
5
257
100
AcDbEntity
8
1
62
256
6
ByLayer
370
18
48
1
60
1
100
AcDbLine
10
32.670002
20
-39.753676
30
0
11
32.669998
21
-38.832109
31
0
39
0
210
0
220
0
230
1
0
LINE
5
258
100
AcDbEntity
8
1
62
256
6
ByLayer
370
18
48
1
60
1
100
AcDbLine
10
32.669998
20
-38.832109
30
0
11
36.17
21
-39.292892
31
0
39
0
210
0
220
0
230
1
0
MTEXT
5
245
100
AcDbEntity
8
SK2
62
256
6
ByLayer
370
18
48
1
60
0
100
AcDbMText
10
7.445997
20
9.448937
30
0
210
0
220
0
230
1
1
%%c
40
3
41
0
44
1.084337
50
90
71
7
72
5
7
iso_b_vert
0
MTEXT
5
248
100
AcDbEntity
8
SK2
62
256
6
ByLayer
370
18
48
1
60
0
100
AcDbMText
10
7.445997
20
15.4255
30
0
210
0
220
0
230
1
1
\W0.7373;3.581
40
3
41
0
44
1.084337
50
90
71
7
72
5
7
iso_b_vert
0
MTEXT
5
251
100
AcDbEntity
8
2
62
256
6
ByLayer
370
18
48
1
60
0
100
AcDbMText
10
6.537172
20
-38.407778
30
0
210
0
220
0
230
1
1
\W0.6740;56
40
3
41
0
44
1.084337
50
0
71
7
72
5
7
iso_b_vert
0
MTEXT
5
25A
100
AcDbEntity
8
SK6
62
256
6
ByLayer
370
18
48
1
60
0
100
AcDbMText
10
-11.029213
20
-82.114886
30
0
210
0
220
0
230
1
1
\W0.7232;T300-MM100AE-6-32   C110
40
3
41
0
44
1.084337
50
0
71
7
72
5
7
iso_b_vert
0
HATCH
5
24C
100
AcDbEntity
8
SK2
62
256
6
ByLayer
370
13
48
1
60
0
100
AcDbHatch
10
0
20
0
30
0
210
0
220
0
230
1
2
ANSI31
70
0
71
0
91
1
92
5
93
3
72
1
10
8.7871114746012
20
1.79050000000001
11
8.32632773304843
21
5.29049830744682
72
1
10
8.32632773304843
20
5.29049830744682
11
9.24789521615398
21
5.29050169255319
72
1
10
9.24789521615398
20
5.29050169255319
11
8.7871114746012
21
1.79050000000001
97
0
75
0
76
1
52
0
41
0.0062
77
0
78
1
53
45
43
0
44
0
45
-0.0139193969876572
46
0.0139193969876572
79
0
47
0
98
1
10
0
20
0
0
HATCH
5
250
100
AcDbEntity
8
SK2
62
256
6
ByLayer
370
13
48
1
60
0
100
AcDbHatch
10
0
20
0
30
0
210
0
220
0
230
1
2
ANSI31
70
0
71
0
91
1
92
5
93
3
72
1
10
8.7871114746012
20
-1.79050000000001
11
9.24789521615398
21
-5.29049830744682
72
1
10
9.24789521615398
20
-5.29049830744682
11
8.32632773304843
21
-5.29050169255319
72
1
10
8.32632773304843
20
-5.29050169255319
11
8.7871114746012
21
-1.79050000000001
97
0
75
0
76
1
52
0
41
0.0062
77
0
78
1
53
45
43
0
44
0
45
-0.0139193969876572
46
0.0139193969876572
79
0
47
0
98
1
10
0
20
0
0
HATCH
5
255
100
AcDbEntity
8
2
62
256
6
ByLayer
370
13
48
1
60
0
100
AcDbHatch
10
0
20
0
30
0
210
0
220
0
230
1
2
ANSI31
70
0
71
0
91
1
92
5
93
3
72
1
10
-19.83
20
-39.2928924362024
11
-16.3300016925532
21
-38.8321086946496
72
1
10
-16.3300016925532
20
-38.8321086946496
11
-16.3299983074468
21
-39.7536761777552
72
1
10
-16.3299983074468
20
-39.7536761777552
11
-19.83
21
-39.2928924362024
97
0
75
0
76
1
52
0
41
0.0062
77
0
78
1
53
45
43
0
44
0
45
-0.0139193969876572
46
0.0139193969876572
79
0
47
0
98
1
10
0
20
0
0
HATCH
5
259
100
AcDbEntity
8
2
62
256
6
ByLayer
370
13
48
1
60
0
100
AcDbHatch
10
0
20
0
30
0
210
0
220
0
230
1
2
ANSI31
70
0
71
0
91
1
92
5
93
3
72
1
10
36.17
20
-39.2928924362024
11
32.6700016925532
21
-39.7536761777552
72
1
10
32.6700016925532
20
-39.7536761777552
11
32.6699983074468
21
-38.8321086946496
72
1
10
32.6699983074468
20
-38.8321086946496
11
36.17
21
-39.2928924362024
97
0
75
0
76
1
52
0
41
0.0062
77
0
78
1
53
45
43
0
44
0
45
-0.0139193969876572
46
0.0139193969876572
79
0
47
0
98
1
10
0
20
0
0
DIMENSION
5
25D
100
AcDbEntity
8
2
62
256
6
ByLayer
370
18
48
1
60
0
100
AcDbDimension
2
_U0
10
54.847108
20
-1.792892
30
0
11
54.847108
21
20.409091
31
0
70
32
71
1
72
1
41
1
210
0
220
0
230
1
3
Standard
100
AcDbAlignedDimension
13
36.17
23
1.792892
33
0
14
36.17
24
-1.792892
34
0
50
90
100
AcDbRotatedDimension
1001
ACAD
1000
DSTYLE
1002
{
1070
   371
1070
    13
1070
   372
1070
    13
1070
     3
1000

1070
   170
1070
     0
1070
   144
1040
1.0
1070
   277
1070
     2
1070
   284
1070
     8
1070
   278
1070
    46
1070
   146
1040
1.166667
1070
   345
1005
16
1070
   347
1005
16
1070
   346
1005
16
1070
   344
1005
0
1070
   343
1005
0
1070
   172
1070
     1
1070
    76
1070
     0
1070
    75
1070
     0
1070
   282
1070
     0
1070
   281
1070
     0
1070
    71
1070
     0
1070
    74
1070
     0
1070
   279
1070
     0
1070
   173
1070
     1
1070
   340
1005
246
1070
   271
1070
     3
1070
   272
1070
     3
1070
    77
1070
     1
1070
    73
1070
     0
1070
   171
1070
     3
1070
   274
1070
     4
1070
   177
1070
     2
1070
   176
1070
     2
1070
   178
1070
     2
1070
    78
1070
     8
1070
    48
1040
-0.1
1070
    41
1040
3.5
1070
   147
1040
1.5
1070
    42
1040
1.5875
1070
    44
1040
2.0
1070
   140
1040
3.0
1002
}
1001
ACAD_DSTYLE_DIM_LINETYPE
1070
   380
1005
16
1001
ACAD_DSTYLE_DIM_EXT1_LINETYPE
1070
   381
1005
16
1001
ACAD_DSTYLE_DIM_EXT2_LINETYPE
1070
   382
1005
16
0
DIMENSION
5
278
100
AcDbEntity
8
SK2
62
256
6
ByLayer
370
18
48
1
60
0
100
AcDbDimension
2
_U1
10
-24.83
20
1.395
30
0
11
-24.83
21
22.165626
31
0
70
32
71
1
72
1
41
1
210
0
220
0
230
1
3
Standard
100
AcDbAlignedDimension
13
-18.83
23
-1.395
33
0
14
-18.83
24
1.395
34
0
50
90
100
AcDbRotatedDimension
1001
ACAD
1000
DSTYLE
1002
{
1070
   371
1070
    13
1070
   372
1070
    13
1070
     3
1000

1070
   170
1070
     0
1070
   144
1040
1.0
1070
   277
1070
     2
1070
   284
1070
     8
1070
   278
1070
    46
1070
   146
1040
1.166667
1070
   345
1005
16
1070
   347
1005
16
1070
   346
1005
16
1070
   344
1005
0
1070
   343
1005
0
1070
   172
1070
     1
1070
    76
1070
     0
1070
    75
1070
     0
1070
   282
1070
     0
1070
   281
1070
     0
1070
    71
1070
     0
1070
    74
1070
     0
1070
   279
1070
     0
1070
   173
1070
     1
1070
   340
1005
246
1070
   271
1070
     3
1070
   272
1070
     3
1070
    77
1070
     1
1070
    73
1070
     0
1070
   171
1070
     3
1070
   274
1070
     4
1070
   177
1070
     2
1070
   176
1070
     2
1070
   178
1070
     2
1070
    78
1070
     8
1070
    48
1040
-0.1
1070
    41
1040
3.5
1070
   147
1040
1.5
1070
    42
1040
1.5875
1070
    44
1040
2.0
1070
   140
1040
3.0
1002
}
1001
ACAD_DSTYLE_DIM_LINETYPE
1070
   380
1005
16
1001
ACAD_DSTYLE_DIM_EXT1_LINETYPE
1070
   381
1005
16
1001
ACAD_DSTYLE_DIM_EXT2_LINETYPE
1070
   382
1005
16
0
DIMENSION
5
292
100
AcDbEntity
8
SK2
62
256
6
ByLayer
370
18
48
1
60
0
100
AcDbDimension
2
_U2
10
34.38
20
10.759785
30
0
11
35.275
21
10.759785
31
0
70
32
71
1
72
1
41
1
210
0
220
0
230
1
3
Standard
100
AcDbAlignedDimension
13
36.17
23
1.792892
33
0
14
34.38
24
0
34
0
50
0
100
AcDbRotatedDimension
1001
ACAD
1000
DSTYLE
1002
{
1070
   371
1070
    13
1070
   372
1070
    13
1070
   170
1070
     0
1070
   144
1040
1.0
1070
   277
1070
     2
1070
   284
1070
     8
1070
   278
1070
    46
1070
   146
1040
1.166667
1070
   345
1005
16
1070
   347
1005
16
1070
   346
1005
16
1070
   344
1005
0
1070
   343
1005
0
1070
   172
1070
     1
1070
    76
1070
     0
1070
    75
1070
     0
1070
   282
1070
     0
1070
   281
1070
     0
1070
    71
1070
     0
1070
    74
1070
     0
1070
   279
1070
     0
1070
   173
1070
     1
1070
   340
1005
246
1070
   271
1070
     3
1070
   272
1070
     3
1070
    77
1070
     1
1070
    73
1070
     1
1070
   171
1070
     3
1070
   274
1070
     4
1070
   177
1070
     2
1070
   176
1070
     2
1070
   178
1070
     2
1070
    78
1070
     8
1070
    48
1040
-0.1
1070
    41
1040
3.5
1070
   147
1040
1.5
1070
    42
1040
1.5875
1070
    44
1040
2.0
1070
   140
1040
3.0
1002
}
1001
ACAD_DSTYLE_DIM_LINETYPE
1070
   380
1005
16
1001
ACAD_DSTYLE_DIM_EXT1_LINETYPE
1070
   381
1005
16
1001
ACAD_DSTYLE_DIM_EXT2_LINETYPE
1070
   382
1005
16
0
DIMENSION
5
2AC
100
AcDbEntity
8
SK2
62
256
6
ByLayer
370
18
48
1
60
0
100
AcDbDimension
2
_U3
10
24.67
20
-8.792892
30
0
11
26.586667
21
-8.792892
31
0
70
32
71
1
72
1
41
1
210
0
220
0
230
1
3
Standard
100
AcDbAlignedDimension
13
36.17
23
-1.792892
33
0
14
24.67
24
-1.792892
34
0
50
0
100
AcDbRotatedDimension
1001
ACAD
1000
DSTYLE
1002
{
1070
   371
1070
    13
1070
   372
1070
    13
1070
   170
1070
     0
1070
   144
1040
1.0
1070
   277
1070
     2
1070
   284
1070
     8
1070
   278
1070
    46
1070
   146
1040
1.166667
1070
   345
1005
16
1070
   347
1005
16
1070
   346
1005
16
1070
   344
1005
0
1070
   343
1005
0
1070
   172
1070
     1
1070
    76
1070
     0
1070
    75
1070
     0
1070
   282
1070
     0
1070
   281
1070
     0
1070
    71
1070
     0
1070
    74
1070
     0
1070
   279
1070
     0
1070
   173
1070
     1
1070
   340
1005
246
1070
   271
1070
     1
1070
   272
1070
     3
1070
    77
1070
     1
1070
    73
1070
     1
1070
   171
1070
     3
1070
   274
1070
     4
1070
   177
1070
     2
1070
   176
1070
     2
1070
   178
1070
     2
1070
    78
1070
     8
1070
    48
1040
-0.1
1070
    41
1040
3.5
1070
   147
1040
1.5
1070
    42
1040
1.5875
1070
    44
1040
2.0
1070
   140
1040
3.0
1002
}
1001
ACAD_DSTYLE_DIM_LINETYPE
1070
   380
1005
16
1001
ACAD_DSTYLE_DIM_EXT1_LINETYPE
1070
   381
1005
16
1001
ACAD_DSTYLE_DIM_EXT2_LINETYPE
1070
   382
1005
16
0
DIMENSION
5
2C5
100
AcDbEntity
8
SK2
62
256
6
ByLayer
370
18
48
1
60
0
100
AcDbDimension
2
_U4
10
19.17
20
-31.292892
30
0
11
27.67
21
-31.292892
31
0
70
32
71
1
72
1
41
1
210
0
220
0
230
1
3
Standard
100
AcDbAlignedDimension
13
36.17
23
-1.792892
33
0
14
19.17
24
-1.235
34
0
50
0
100
AcDbRotatedDimension
1001
ACAD
1000
DSTYLE
1002
{
1070
   371
1070
    13
1070
   372
1070
    13
1070
   170
1070
     0
1070
   144
1040
1.0
1070
   277
1070
     2
1070
   284
1070
     8
1070
   278
1070
    46
1070
   146
1040
1.166667
1070
   345
1005
16
1070
   347
1005
16
1070
   346
1005
16
1070
   344
1005
0
1070
   343
1005
0
1070
   172
1070
     1
1070
    76
1070
     0
1070
    75
1070
     0
1070
   282
1070
     0
1070
   281
1070
     0
1070
    71
1070
     0
1070
    74
1070
     0
1070
   279
1070
     0
1070
   173
1070
     1
1070
   340
1005
246
1070
   271
1070
     1
1070
   272
1070
     3
1070
    77
1070
     1
1070
    73
1070
     1
1070
   171
1070
     3
1070
   274
1070
     4
1070
   177
1070
     2
1070
   176
1070
     2
1070
   178
1070
     2
1070
    78
1070
     8
1070
    48
1040
-0.1
1070
    41
1040
3.5
1070
   147
1040
1.5
1070
    42
1040
1.5875
1070
    44
1040
2.0
1070
   140
1040
3.0
1002
}
1001
ACAD_DSTYLE_DIM_LINETYPE
1070
   380
1005
16
1001
ACAD_DSTYLE_DIM_EXT1_LINETYPE
1070
   381
1005
16
1001
ACAD_DSTYLE_DIM_EXT2_LINETYPE
1070
   382
1005
16
0
DIMENSION
5
2DD
100
AcDbEntity
8
2
62
256
6
ByLayer
370
18
48
1
60
0
100
AcDbDimension
2
_U5
10
21.72
20
-20.292892
30
0
11
28.945
21
-20.292892
31
0
70
32
71
1
72
1
41
1
210
0
220
0
230
1
3
Standard
100
AcDbAlignedDimension
13
36.17
23
-1.792892
33
0
14
21.72
24
0
34
0
50
0
100
AcDbRotatedDimension
1001
ACAD
1000
DSTYLE
1002
{
1070
   371
1070
    13
1070
   372
1070
    13
1070
   170
1070
     0
1070
   144
1040
1.0
1070
   277
1070
     2
1070
   284
1070
     8
1070
   278
1070
    46
1070
   146
1040
1.166667
1070
   345
1005
16
1070
   347
1005
16
1070
   346
1005
16
1070
   344
1005
0
1070
   343
1005
0
1070
   172
1070
     1
1070
    76
1070
     0
1070
    75
1070
     0
1070
   282
1070
     0
1070
   281
1070
     0
1070
    71
1070
     0
1070
    74
1070
     0
1070
   279
1070
     0
1070
   173
1070
     1
1070
   340
1005
246
1070
   271
1070
     1
1070
   272
1070
     3
1070
    77
1070
     1
1070
    73
1070
     1
1070
   171
1070
     3
1070
   274
1070
     4
1070
   177
1070
     2
1070
   176
1070
     2
1070
   178
1070
     2
1070
    78
1070
     8
1070
    48
1040
-0.1
1070
    41
1040
3.5
1070
   147
1040
1.5
1070
    42
1040
1.5875
1070
    44
1040
2.0
1070
   140
1040
3.0
1002
}
1001
ACAD_DSTYLE_DIM_LINETYPE
1070
   380
1005
16
1001
ACAD_DSTYLE_DIM_EXT1_LINETYPE
1070
   381
1005
16
1001
ACAD_DSTYLE_DIM_EXT2_LINETYPE
1070
   382
1005
16
0
ENDSEC
0
SECTION
2
OBJECTS
0
DICTIONARY
5
366
330
0
100
AcDbDictionary
280
0
281
1
3
ACAD_GROUP
350
367
3
ACAD_MLINESTYLE
350
368
0
DICTIONARY
5
367
330
0
100
AcDbDictionary
280
0
281
1
0
DICTIONARY
5
368
330
0
100
AcDbDictionary
280
0
281
1
3
Standard
350
18
0
MLINESTYLE
5
18
330
368
100
AcDbMlineStyle
2
Standard
70
0
3

62
256
51
90
52
90
71
2
49
-0.5
62
256
6
ByLayer
49
0.5
62
256
6
ByLayer
0
RASTERVARIABLES
5
354
330

100
AcDbRasterVariables
90
0
70
1
71
1
72
1
0
ENDSEC
0
EOF
