0
SECTION
2
HEADER
9
$ACADVER
1
AC1015
9
$DWGCODEPAGE
3
ANSI_1252
9
$HANDSEED
5
2fa
9
$ANGBASE
50
0
9
$ANGDIR
70
0
9
$ATTMODE
70
1
9
$AUNITS
70
0
9
$AUPREC
70
0
9
$CECOLOR
62
256
9
$CELTSCALE
40
1
9
$CELTYPE
6
ByLayer
9
$CELWEIGHT
370
18
9
$CLAYER
8
0
9
$CMLJUST
70
0
9
$CMLSCALE
40
1
9
$CMLSTYLE
2
Standard
9
$DIMSTYLE
2
Standard
9
$TEXTSIZE
40
0.2
9
$TEXTSTYLE
7
Standard
9
$LUNITS
70
2
9
$LUPREC
70
4
9
$EXTNAMES
290
1
9
$INSUNITS
70
4
9
$LTSCALE
40
1
9
$LWDISPLAY
290
1
9
$PDMODE
70
0
9
$PDSIZE
40
0
9
$PLINEGEN
70
0
0
ENDSEC
0
SECTION
2
CLASSES
0
CLASS
1
RASTERVARIABLES
2
AcDbRasterVariables
3
ISM
90
0
280
0
281
0
0
ENDSEC
0
SECTION
2
TABLES
0
TABLE
2
VPORT
5
2f0
100
AcDbSymbolTable
0
VPORT
5
1
100
AcDbSymbolTableRecord
100
AcDbViewportTableRecord
2
*Active
70
0
10
0
20
0
11
1
21
1
12
-1
22
1
13
0
23
0
14
0.5
24
0.5
15
10
25
10
16
0
26
0
36
1
17
0
27
0
37
0
0
ENDTAB
0
TABLE
2
LTYPE
5
2f1
100
AcDbSymbolTable
0
LTYPE
5
14
100
AcDbSymbolTableRecord
100
AcDbLinetypeTableRecord
70
0
2
ByBlock
3

72
65
73
0
40
0
0
LTYPE
5
15
100
AcDbSymbolTableRecord
100
AcDbLinetypeTableRecord
70
0
2
ByLayer
3

72
65
73
0
40
0
0
LTYPE
5
16
100
AcDbSymbolTableRecord
100
AcDbLinetypeTableRecord
70
0
2
Continuous
3
Solid line
72
65
73
0
40
0
0
LTYPE
5
6E
100
AcDbSymbolTableRecord
100
AcDbLinetypeTableRecord
70
0
2
CENTER
3
____ _ ____ _ ____ _ ____
72
65
73
4
40
47.5
49
22
74
0
49
-8.5
74
0
49
8.5
74
0
49
-8.5
74
0
0
LTYPE
5
6F
100
AcDbSymbolTableRecord
100
AcDbLinetypeTableRecord
70
0
2
DASHED
3
__ __ __ __ __ __ __ __ __
72
65
73
2
40
25.72
49
12.86
74
0
49
-12.86
74
0
0
ENDTAB
0
TABLE
2
LAYER
5
2f2
100
AcDbSymbolTable
0
LAYER
5
10
100
AcDbSymbolTableRecord
100
AcDbLayerTableRecord
2
0
70
0
62
7
6
Continuous
290
1
370
-3
390
0
0
LAYER
5
71
100
AcDbSymbolTableRecord
100
AcDbLayerTableRecord
2
80
70
0
62
-6
6
Continuous
290
1
370
-3
390
0
0
LAYER
5
73
100
AcDbSymbolTableRecord
100
AcDbLayerTableRecord
2
81
70
0
62
-3
6
Continuous
290
1
370
-3
390
0
0
LAYER
5
75
100
AcDbSymbolTableRecord
100
AcDbLayerTableRecord
2
1
70
0
62
4
6
Continuous
290
1
370
-3
390
0
0
LAYER
5
85
100
AcDbSymbolTableRecord
100
AcDbLayerTableRecord
2
4
70
0
62
-2
6
CENTER
290
1
370
-3
390
0
0
LAYER
5
C8
100
AcDbSymbolTableRecord
100
AcDbLayerTableRecord
2
2
70
0
62
7
6
Continuous
290
1
370
-3
390
0
0
LAYER
5
1E9
100
AcDbSymbolTableRecord
100
AcDbLayerTableRecord
2
Defpoints
70
0
62
7
6
Continuous
290
0
370
-3
390
0
0
LAYER
5
2dc
100
AcDbSymbolTableRecord
100
AcDbLayerTableRecord
2
SK4
70
0
62
2
6
CENTER
290
1
370
-3
390
0
0
LAYER
5
2dd
100
AcDbSymbolTableRecord
100
AcDbLayerTableRecord
2
SK1
70
0
62
4
6
Continuous
290
1
370
-3
390
0
0
LAYER
5
2de
100
AcDbSymbolTableRecord
100
AcDbLayerTableRecord
2
SK2
70
0
62
7
6
Continuous
290
1
370
-3
390
0
0
LAYER
5
2df
100
AcDbSymbolTableRecord
100
AcDbLayerTableRecord
2
SK6
70
0
62
5
6
Continuous
290
1
370
-3
390
0
0
ENDTAB
0
TABLE
2
STYLE
5
2f3
100
AcDbSymbolTable
0
STYLE
5
11
100
AcDbSymbolTableRecord
100
AcDbTextStyleTableRecord
2
Standard
3
txt
70
0
71
0
40
0
41
1
42
0
50
0
0
STYLE
5
1CF
100
AcDbSymbolTableRecord
100
AcDbTextStyleTableRecord
2
iso_b_vert
3
simplex.shx
70
0
71
0
40
0
41
1
42
0
50
0
0
STYLE
5
1D0
100
AcDbSymbolTableRecord
100
AcDbTextStyleTableRecord
2
DWGDirectTextStyle
3
simplex
70
0
71
0
40
0
41
1
42
0
50
0
0
ENDTAB
0
TABLE
2
DIMSTYLE
5
2f4
100
AcDbSymbolTable
100
AcDbDimStyleTable
0
DIMSTYLE
105
27
100
AcDbSymbolTableRecord
100
AcDbDimStyleTableRecord
2
Standard
70
0
3
<>
41
0.18
42
0.0625
44
0.18
140
0.18
147
0.09
73
0
74
0
77
1
271
2
275
0
278
52
280
0
340
11
0
ENDTAB
0
TABLE
2
VIEW
5
2f5
100
AcDbSymbolTable
0
ENDTAB
0
TABLE
2
UCS
5
2f6
100
AcDbSymbolTable
0
ENDTAB
0
TABLE
2
APPID
5
2f7
100
AcDbSymbolTable
0
APPID
5
12
100
AcDbSymbolTableRecord
100
AcDbRegAppTableRecord
2
ACAD
70
0
0
APPID
5
1E5
100
AcDbSymbolTableRecord
100
AcDbRegAppTableRecord
2
ACAD_DSTYLE_DIMBREAK
70
0
0
APPID
5
29B
100
AcDbSymbolTableRecord
100
AcDbRegAppTableRecord
2
ACAD_DSTYLE_DIM_LINETYPE
70
0
0
APPID
5
29C
100
AcDbSymbolTableRecord
100
AcDbRegAppTableRecord
2
ACAD_DSTYLE_DIM_EXT1_LINETYPE
70
0
0
APPID
5
29D
100
AcDbSymbolTableRecord
100
AcDbRegAppTableRecord
2
ACAD_DSTYLE_DIM_EXT2_LINETYPE
70
0
0
APPID
5
2D8
100
AcDbSymbolTableRecord
100
AcDbRegAppTableRecord
2
ACAD_MLEADERVER
70
0
0
ENDTAB
0
TABLE
2
BLOCK_RECORD
5
2f8
100
AcDbSymbolTable
0
BLOCK_RECORD
5
1F
100
AcDbSymbolTableRecord
100
AcDbBlockTableRecord
2
*Model_Space
340
0
70
0
0
BLOCK_RECORD
5
1B
100
AcDbSymbolTableRecord
100
AcDbBlockTableRecord
2
*Paper_Space
340
0
70
0
0
BLOCK_RECORD
5
23
100
AcDbSymbolTableRecord
100
AcDbBlockTableRecord
2
*Paper_Space0
340
0
70
0
0
BLOCK_RECORD
5
1EA
100
AcDbSymbolTableRecord
100
AcDbBlockTableRecord
2
*D1
340
0
70
0
0
BLOCK_RECORD
5
1F8
100
AcDbSymbolTableRecord
100
AcDbBlockTableRecord
2
_U0
340
0
70
0
0
BLOCK_RECORD
5
204
100
AcDbSymbolTableRecord
100
AcDbBlockTableRecord
2
*D3
340
0
70
0
0
BLOCK_RECORD
5
212
100
AcDbSymbolTableRecord
100
AcDbBlockTableRecord
2
_U1
340
0
70
0
0
BLOCK_RECORD
5
21E
100
AcDbSymbolTableRecord
100
AcDbBlockTableRecord
2
*D5
340
0
70
0
0
BLOCK_RECORD
5
22B
100
AcDbSymbolTableRecord
100
AcDbBlockTableRecord
2
_U2
340
0
70
0
0
BLOCK_RECORD
5
238
100
AcDbSymbolTableRecord
100
AcDbBlockTableRecord
2
*D7
340
0
70
0
0
BLOCK_RECORD
5
244
100
AcDbSymbolTableRecord
100
AcDbBlockTableRecord
2
_U3
340
0
70
0
0
BLOCK_RECORD
5
250
100
AcDbSymbolTableRecord
100
AcDbBlockTableRecord
2
*D9
340
0
70
0
0
BLOCK_RECORD
5
25C
100
AcDbSymbolTableRecord
100
AcDbBlockTableRecord
2
_U4
340
0
70
0
0
BLOCK_RECORD
5
268
100
AcDbSymbolTableRecord
100
AcDbBlockTableRecord
2
*D11
340
0
70
0
0
BLOCK_RECORD
5
274
100
AcDbSymbolTableRecord
100
AcDbBlockTableRecord
2
_U5
340
0
70
0
0
ENDTAB
0
ENDSEC
0
SECTION
2
BLOCKS
0
BLOCK
5
20
100
AcDbEntity
8
0
100
AcDbBlockBegin
2
*Model_Space
70
0
10
0
20
0
30
0
3
*Model_Space
0
ENDBLK
5
21
100
AcDbEntity
8
0
100
AcDbBlockEnd
0
BLOCK
5
1C
100
AcDbEntity
8
0
100
AcDbBlockBegin
2
*Paper_Space
70
0
10
0
20
0
30
0
3
*Paper_Space
0
ENDBLK
5
1D
100
AcDbEntity
8
0
100
AcDbBlockEnd
0
BLOCK
5
24
100
AcDbEntity
8
0
100
AcDbBlockBegin
2
*Paper_Space0
70
0
10
0
20
0
30
0
3
*Paper_Space0
0
ENDBLK
5
25
100
AcDbEntity
8
0
100
AcDbBlockEnd
0
BLOCK
5
1EB
100
AcDbEntity
8
0
100
AcDbBlockBegin
2
*D1
70
1
10
0
20
0
30
0
3
*D1
0
LINE
5
1ED
100
AcDbEntity
8
0
62
256
6
ByLayer
370
-2
48
1
60
0
100
AcDbLine
10
84.5875
20
6.076498
30
0
11
104.5
21
6.076498
31
0
39
0
210
0
220
0
230
1
0
LINE
5
1EE
100
AcDbEntity
8
0
62
256
6
ByLayer
370
-2
48
1
60
0
100
AcDbLine
10
84.5875
20
-6.076498
30
0
11
104.5
21
-6.076498
31
0
39
0
210
0
220
0
230
1
0
LINE
5
1EF
100
AcDbEntity
8
0
62
256
6
ByLayer
370
-2
48
1
60
0
100
AcDbLine
10
102.5
20
6.076498
30
0
11
102.5
21
36.50507
31
0
39
0
210
0
220
0
230
1
0
LINE
5
1F0
100
AcDbEntity
8
0
62
256
6
ByLayer
370
-2
48
1
60
0
100
AcDbLine
10
102.5
20
9.576498
30
0
11
102.5
21
13.076498
31
0
39
0
210
0
220
0
230
1
0
LINE
5
1F1
100
AcDbEntity
8
0
62
256
6
ByLayer
370
-2
48
1
60
0
100
AcDbLine
10
102.5
20
-9.576498
30
0
11
102.5
21
-13.076498
31
0
39
0
210
0
220
0
230
1
0
SOLID
5
1F2
100
AcDbEntity
8
0
62
256
6
ByLayer
370
-1
48
1
60
0
100
AcDbTrace
10
101.916667
20
9.576498
30
0
11
103.083333
21
9.576498
31
0
12
102.5
22
6.076498
32
0
13
102.5
23
6.076498
33
0
39
0
210
0
220
0
230
1
0
SOLID
5
1F3
100
AcDbEntity
8
0
62
256
6
ByLayer
370
-1
48
1
60
0
100
AcDbTrace
10
103.083333
20
-9.576498
30
0
11
101.916667
21
-9.576498
31
0
12
102.5
22
-6.076498
32
0
13
102.5
23
-6.076498
33
0
39
0
210
0
220
0
230
1
0
MTEXT
5
1F4
100
AcDbEntity
8
0
62
256
6
ByLayer
370
18
48
1
60
0
100
AcDbMText
10
96.5
20
24.790784
30
0
210
0
220
0
230
1
1
\A1;12.153
40
3
41
0
44
1
50
90
71
5
72
5
7
iso_b_vert
0
POINT
5
1F5
100
AcDbEntity
8
Defpoints
62
0
6
ByLayer
370
-1
48
1
60
0
100
AcDbPoint
10
83
20
6.076498
30
0
39
0
210
0
220
0
230
1
50
360
0
POINT
5
1F6
100
AcDbEntity
8
Defpoints
62
0
6
ByLayer
370
-1
48
1
60
0
100
AcDbPoint
10
83
20
-6.076498
30
0
39
0
210
0
220
0
230
1
50
360
0
POINT
5
1F7
100
AcDbEntity
8
Defpoints
62
0
6
ByLayer
370
-1
48
1
60
0
100
AcDbPoint
10
102.5
20
-6.076498
30
0
39
0
210
0
220
0
230
1
50
360
0
ENDBLK
5
1EC
100
AcDbEntity
8
0
100
AcDbBlockEnd
0
BLOCK
5
1FF
100
AcDbEntity
8
0
100
AcDbBlockBegin
2
_U0
70
0
10
0
20
0
30
0
3
_U0
0
MTEXT
5
1F9
100
AcDbEntity
8
2
62
256
6
ByLayer
370
18
48
1
60
0
100
AcDbMText
10
101.908886
20
16.211498
30
0
210
0
220
0
230
1
1
\W0.6563;M12
40
3
41
0
44
1.084337
50
90
71
7
72
5
7
iso_b_vert
0
LINE
5
1FA
100
AcDbEntity
8
2
62
256
6
ByLayer
370
13
48
1
60
0
100
AcDbLine
10
84.5875
20
6.076498
30
0
11
104.5
21
6.076498
31
0
39
0
210
0
220
0
230
1
0
LINE
5
1FB
100
AcDbEntity
8
2
62
256
6
ByLayer
370
13
48
1
60
0
100
AcDbLine
10
84.5875
20
-6.076498
30
0
11
104.5
21
-6.076498
31
0
39
0
210
0
220
0
230
1
0
LINE
5
1FC
100
AcDbEntity
8
2
62
256
6
ByLayer
370
13
48
1
60
0
100
AcDbLine
10
102.5
20
-6.076498
30
0
11
102.5
21
21.82324
31
0
39
0
210
0
220
0
230
1
0
SOLID
5
1FD
100
AcDbEntity
8
2
62
256
6
ByLayer
370
18
48
1
60
0
100
AcDbTrace
10
102.5
20
6.076498
30
0
11
102.960784
21
2.5765
31
0
12
102.039216
22
2.576497
32
0
13
102.039216
23
2.576497
33
0
39
0
210
0
220
0
230
1
0
SOLID
5
1FE
100
AcDbEntity
8
2
62
256
6
ByLayer
370
18
48
1
60
0
100
AcDbTrace
10
102.5
20
-6.076498
30
0
11
102.039216
21
-2.5765
31
0
12
102.960784
22
-2.576497
32
0
13
102.960784
23
-2.576497
33
0
39
0
210
0
220
0
230
1
0
ENDBLK
5
200
100
AcDbEntity
8
0
100
AcDbBlockEnd
0
BLOCK
5
205
100
AcDbEntity
8
0
100
AcDbBlockBegin
2
*D3
70
1
10
0
20
0
30
0
3
*D3
0
LINE
5
207
100
AcDbEntity
8
0
62
256
6
ByLayer
370
-2
48
1
60
0
100
AcDbLine
10
-27.1875
20
-3.5
30
0
11
-33.8
21
-3.5
31
0
39
0
210
0
220
0
230
1
0
LINE
5
208
100
AcDbEntity
8
0
62
256
6
ByLayer
370
-2
48
1
60
0
100
AcDbLine
10
-27.1875
20
3.5
30
0
11
-33.8
21
3.5
31
0
39
0
210
0
220
0
230
1
0
LINE
5
209
100
AcDbEntity
8
0
62
256
6
ByLayer
370
-2
48
1
60
0
100
AcDbLine
10
-31.8
20
3.5
30
0
11
-31.8
21
21.5
31
0
39
0
210
0
220
0
230
1
0
LINE
5
20A
100
AcDbEntity
8
0
62
256
6
ByLayer
370
-2
48
1
60
0
100
AcDbLine
10
-31.8
20
-7
30
0
11
-31.8
21
-10.5
31
0
39
0
210
0
220
0
230
1
0
LINE
5
20B
100
AcDbEntity
8
0
62
256
6
ByLayer
370
-2
48
1
60
0
100
AcDbLine
10
-31.8
20
7
30
0
11
-31.8
21
10.5
31
0
39
0
210
0
220
0
230
1
0
SOLID
5
20C
100
AcDbEntity
8
0
62
256
6
ByLayer
370
-1
48
1
60
0
100
AcDbTrace
10
-31.216667
20
-7
30
0
11
-32.383333
21
-7
31
0
12
-31.8
22
-3.5
32
0
13
-31.8
23
-3.5
33
0
39
0
210
0
220
0
230
1
0
SOLID
5
20D
100
AcDbEntity
8
0
62
256
6
ByLayer
370
-1
48
1
60
0
100
AcDbTrace
10
-32.383333
20
7
30
0
11
-31.216667
21
7
31
0
12
-31.8
22
3.5
32
0
13
-31.8
23
3.5
33
0
39
0
210
0
220
0
230
1
0
MTEXT
5
20E
100
AcDbEntity
8
0
62
256
6
ByLayer
370
18
48
1
60
0
100
AcDbMText
10
-37.8
20
16
30
0
210
0
220
0
230
1
1
\A1;7
40
3
41
0
44
1
50
90
71
5
72
5
7
iso_b_vert
0
POINT
5
20F
100
AcDbEntity
8
Defpoints
62
0
6
ByLayer
370
-1
48
1
60
0
100
AcDbPoint
10
-25.6
20
-3.5
30
0
39
0
210
0
220
0
230
1
50
360
0
POINT
5
210
100
AcDbEntity
8
Defpoints
62
0
6
ByLayer
370
-1
48
1
60
0
100
AcDbPoint
10
-25.6
20
3.5
30
0
39
0
210
0
220
0
230
1
50
360
0
POINT
5
211
100
AcDbEntity
8
Defpoints
62
0
6
ByLayer
370
-1
48
1
60
0
100
AcDbPoint
10
-31.8
20
3.5
30
0
39
0
210
0
220
0
230
1
50
360
0
ENDBLK
5
206
100
AcDbEntity
8
0
100
AcDbBlockEnd
0
BLOCK
5
219
100
AcDbEntity
8
0
100
AcDbBlockBegin
2
_U1
70
0
10
0
20
0
30
0
3
_U1
0
MTEXT
5
213
100
AcDbEntity
8
SK2
62
256
6
ByLayer
370
18
48
1
60
0
100
AcDbMText
10
-32.391114
20
11.135
30
0
210
0
220
0
230
1
1
\W0.6870;9 x 7
40
3
41
0
44
1.084337
50
90
71
7
72
5
7
iso_b_vert
0
LINE
5
214
100
AcDbEntity
8
SK2
62
256
6
ByLayer
370
13
48
1
60
0
100
AcDbLine
10
-27.1875
20
-3.5
30
0
11
-33.8
21
-3.5
31
0
39
0
210
0
220
0
230
1
0
LINE
5
215
100
AcDbEntity
8
SK2
62
256
6
ByLayer
370
13
48
1
60
0
100
AcDbLine
10
-27.1875
20
3.5
30
0
11
-33.8
21
3.5
31
0
39
0
210
0
220
0
230
1
0
LINE
5
216
100
AcDbEntity
8
SK2
62
256
6
ByLayer
370
13
48
1
60
0
100
AcDbLine
10
-31.8
20
20.441141
30
0
11
-31.8
21
-11
31
0
39
0
210
0
220
0
230
1
0
SOLID
5
217
100
AcDbEntity
8
SK2
62
256
6
ByLayer
370
18
48
1
60
0
100
AcDbTrace
10
-31.8
20
-3.5
30
0
11
-31.339216
21
-6.999998
31
0
12
-32.260784
22
-7.000002
32
0
13
-32.260784
23
-7.000002
33
0
39
0
210
0
220
0
230
1
0
SOLID
5
218
100
AcDbEntity
8
SK2
62
256
6
ByLayer
370
18
48
1
60
0
100
AcDbTrace
10
-31.8
20
3.5
30
0
11
-32.260784
21
6.999998
31
0
12
-31.339216
22
7.000002
32
0
13
-31.339216
23
7.000002
33
0
39
0
210
0
220
0
230
1
0
ENDBLK
5
21A
100
AcDbEntity
8
0
100
AcDbBlockEnd
0
BLOCK
5
21F
100
AcDbEntity
8
0
100
AcDbBlockBegin
2
*D5
70
1
10
0
20
0
30
0
3
*D5
0
LINE
5
221
100
AcDbEntity
8
0
62
256
6
ByLayer
370
-2
48
1
60
0
100
AcDbLine
10
83
20
7.663998
30
0
11
83
21
17.141935
31
0
39
0
210
0
220
0
230
1
0
LINE
5
222
100
AcDbEntity
8
0
62
256
6
ByLayer
370
-2
48
1
60
0
100
AcDbLine
10
79.06
20
1.5875
30
0
11
79.06
21
17.141935
31
0
39
0
210
0
220
0
230
1
0
LINE
5
223
100
AcDbEntity
8
0
62
256
6
ByLayer
370
-2
48
1
60
0
100
AcDbLine
10
86.5
20
15.141935
30
0
11
90
21
15.141935
31
0
39
0
210
0
220
0
230
1
0
LINE
5
224
100
AcDbEntity
8
0
62
256
6
ByLayer
370
-2
48
1
60
0
100
AcDbLine
10
75.56
20
15.141935
30
0
11
72.06
21
15.141935
31
0
39
0
210
0
220
0
230
1
0
SOLID
5
225
100
AcDbEntity
8
0
62
256
6
ByLayer
370
-1
48
1
60
0
100
AcDbTrace
10
86.5
20
15.725269
30
0
11
86.5
21
14.558602
31
0
12
83
22
15.141935
32
0
13
83
23
15.141935
33
0
39
0
210
0
220
0
230
1
0
SOLID
5
226
100
AcDbEntity
8
0
62
256
6
ByLayer
370
-1
48
1
60
0
100
AcDbTrace
10
75.56
20
14.558602
30
0
11
75.56
21
15.725269
31
0
12
79.06
22
15.141935
32
0
13
79.06
23
15.141935
33
0
39
0
210
0
220
0
230
1
0
MTEXT
5
227
100
AcDbEntity
8
0
62
256
6
ByLayer
370
18
48
1
60
0
100
AcDbMText
10
81.03
20
21.141935
30
0
210
0
220
0
230
1
1
\A1;3.94
40
3
41
0
44
1
50
0
71
5
72
5
7
iso_b_vert
0
POINT
5
228
100
AcDbEntity
8
Defpoints
62
0
6
ByLayer
370
-1
48
1
60
0
100
AcDbPoint
10
83
20
6.076498
30
0
39
0
210
0
220
0
230
1
50
360
0
POINT
5
229
100
AcDbEntity
8
Defpoints
62
0
6
ByLayer
370
-1
48
1
60
0
100
AcDbPoint
10
79.06
20
0
30
0
39
0
210
0
220
0
230
1
50
360
0
POINT
5
22A
100
AcDbEntity
8
Defpoints
62
0
6
ByLayer
370
-1
48
1
60
0
100
AcDbPoint
10
79.06
20
15.141935
30
0
39
0
210
0
220
0
230
1
50
360
0
ENDBLK
5
220
100
AcDbEntity
8
0
100
AcDbBlockEnd
0
BLOCK
5
233
100
AcDbEntity
8
0
100
AcDbBlockBegin
2
_U2
70
0
10
0
20
0
30
0
3
_U2
0
MTEXT
5
22C
100
AcDbEntity
8
SK2
62
256
6
ByLayer
370
18
48
1
60
0
100
AcDbMText
10
77.537101
20
15.924569
30
0
210
0
220
0
230
1
1
\W0.6474;'C'
40
3.5
41
0
44
1.084337
50
0
71
7
72
5
7
iso_b_vert
0
MTEXT
5
22D
100
AcDbEntity
8
SK2
62
256
6
ByLayer
370
18
48
1
60
0
100
AcDbMText
10
77.510601
20
23.02705
30
0
210
0
220
0
230
1
1
\W0.7528;3.94
40
3
41
0
44
1.084337
50
0
71
7
72
5
7
iso_b_vert
0
LINE
5
22E
100
AcDbEntity
8
SK2
62
256
6
ByLayer
370
13
48
1
60
0
100
AcDbLine
10
83
20
7.663998
30
0
11
83
21
17.141935
31
0
39
0
210
0
220
0
230
1
0
LINE
5
22F
100
AcDbEntity
8
SK2
62
256
6
ByLayer
370
13
48
1
60
0
100
AcDbLine
10
79.06
20
1.5875
30
0
11
79.06
21
17.141935
31
0
39
0
210
0
220
0
230
1
0
LINE
5
230
100
AcDbEntity
8
SK2
62
256
6
ByLayer
370
13
48
1
60
0
100
AcDbLine
10
90.5
20
15.141935
30
0
11
71.56
21
15.141935
31
0
39
0
210
0
220
0
230
1
0
SOLID
5
231
100
AcDbEntity
8
SK2
62
256
6
ByLayer
370
18
48
1
60
0
100
AcDbTrace
10
83
20
15.141935
30
0
11
86.499998
21
15.602719
31
0
12
86.500002
22
14.681152
32
0
13
86.500002
23
14.681152
33
0
39
0
210
0
220
0
230
1
0
SOLID
5
232
100
AcDbEntity
8
SK2
62
256
6
ByLayer
370
18
48
1
60
0
100
AcDbTrace
10
79.06
20
15.141935
30
0
11
75.560002
21
14.681152
31
0
12
75.559998
22
15.602719
32
0
13
75.559998
23
15.602719
33
0
39
0
210
0
220
0
230
1
0
ENDBLK
5
234
100
AcDbEntity
8
0
100
AcDbBlockEnd
0
BLOCK
5
239
100
AcDbEntity
8
0
100
AcDbBlockBegin
2
*D7
70
1
10
0
20
0
30
0
3
*D7
0
LINE
5
23B
100
AcDbEntity
8
0
62
256
6
ByLayer
370
-2
48
1
60
0
100
AcDbLine
10
83
20
-7.663998
30
0
11
83
21
-15.076498
31
0
39
0
210
0
220
0
230
1
0
LINE
5
23C
100
AcDbEntity
8
0
62
256
6
ByLayer
370
-2
48
1
60
0
100
AcDbLine
10
67
20
-7.663998
30
0
11
67
21
-15.076498
31
0
39
0
210
0
220
0
230
1
0
LINE
5
23D
100
AcDbEntity
8
0
62
256
6
ByLayer
370
-2
48
1
60
0
100
AcDbLine
10
79.5
20
-13.076498
30
0
11
70.5
21
-13.076498
31
0
39
0
210
0
220
0
230
1
0
SOLID
5
23E
100
AcDbEntity
8
0
62
256
6
ByLayer
370
-1
48
1
60
0
100
AcDbTrace
10
79.5
20
-13.659832
30
0
11
79.5
21
-12.493165
31
0
12
83
22
-13.076498
32
0
13
83
23
-13.076498
33
0
39
0
210
0
220
0
230
1
0
SOLID
5
23F
100
AcDbEntity
8
0
62
256
6
ByLayer
370
-1
48
1
60
0
100
AcDbTrace
10
70.5
20
-12.493165
30
0
11
70.5
21
-13.659832
31
0
12
67
22
-13.076498
32
0
13
67
23
-13.076498
33
0
39
0
210
0
220
0
230
1
0
MTEXT
5
240
100
AcDbEntity
8
0
62
256
6
ByLayer
370
18
48
1
60
0
100
AcDbMText
10
75.380952
20
-7.076498
30
0
210
0
220
0
230
1
1
\A1;16
40
3
41
0
44
1
50
0
71
5
72
5
7
iso_b_vert
0
POINT
5
241
100
AcDbEntity
8
Defpoints
62
0
6
ByLayer
370
-1
48
1
60
0
100
AcDbPoint
10
83
20
-6.076498
30
0
39
0
210
0
220
0
230
1
50
360
0
POINT
5
242
100
AcDbEntity
8
Defpoints
62
0
6
ByLayer
370
-1
48
1
60
0
100
AcDbPoint
10
67
20
-6.076498
30
0
39
0
210
0
220
0
230
1
50
360
0
POINT
5
243
100
AcDbEntity
8
Defpoints
62
0
6
ByLayer
370
-1
48
1
60
0
100
AcDbPoint
10
67
20
-13.076498
30
0
39
0
210
0
220
0
230
1
50
360
0
ENDBLK
5
23A
100
AcDbEntity
8
0
100
AcDbBlockEnd
0
BLOCK
5
24B
100
AcDbEntity
8
0
100
AcDbBlockBegin
2
_U3
70
0
10
0
20
0
30
0
3
_U3
0
MTEXT
5
245
100
AcDbEntity
8
SK2
62
256
6
ByLayer
370
18
48
1
60
0
100
AcDbMText
10
74.123067
20
-12.191384
30
0
210
0
220
0
230
1
1
\W0.5321;16
40
3
41
0
44
1.084337
50
0
71
7
72
5
7
iso_b_vert
0
LINE
5
246
100
AcDbEntity
8
SK2
62
256
6
ByLayer
370
13
48
1
60
0
100
AcDbLine
10
83
20
-7.663998
30
0
11
83
21
-15.076498
31
0
39
0
210
0
220
0
230
1
0
LINE
5
247
100
AcDbEntity
8
SK2
62
256
6
ByLayer
370
13
48
1
60
0
100
AcDbLine
10
67
20
-7.663998
30
0
11
67
21
-15.076498
31
0
39
0
210
0
220
0
230
1
0
LINE
5
248
100
AcDbEntity
8
SK2
62
256
6
ByLayer
370
13
48
1
60
0
100
AcDbLine
10
83
20
-13.076498
30
0
11
67
21
-13.076498
31
0
39
0
210
0
220
0
230
1
0
SOLID
5
249
100
AcDbEntity
8
SK2
62
256
6
ByLayer
370
18
48
1
60
0
100
AcDbTrace
10
83
20
-13.076498
30
0
11
79.500002
21
-13.537282
31
0
12
79.499998
22
-12.615715
32
0
13
79.499998
23
-12.615715
33
0
39
0
210
0
220
0
230
1
0
SOLID
5
24A
100
AcDbEntity
8
SK2
62
256
6
ByLayer
370
18
48
1
60
0
100
AcDbTrace
10
67
20
-13.076498
30
0
11
70.499998
21
-12.615715
31
0
12
70.500002
22
-13.537282
32
0
13
70.500002
23
-13.537282
33
0
39
0
210
0
220
0
230
1
0
ENDBLK
5
24C
100
AcDbEntity
8
0
100
AcDbBlockEnd
0
BLOCK
5
251
100
AcDbEntity
8
0
100
AcDbBlockBegin
2
*D9
70
1
10
0
20
0
30
0
3
*D9
0
LINE
5
253
100
AcDbEntity
8
0
62
256
6
ByLayer
370
-2
48
1
60
0
100
AcDbLine
10
83
20
-7.663998
30
0
11
83
21
-37.576498
31
0
39
0
210
0
220
0
230
1
0
LINE
5
254
100
AcDbEntity
8
0
62
256
6
ByLayer
370
-2
48
1
60
0
100
AcDbLine
10
28
20
-5.9375
30
0
11
28
21
-37.576498
31
0
39
0
210
0
220
0
230
1
0
LINE
5
255
100
AcDbEntity
8
0
62
256
6
ByLayer
370
-2
48
1
60
0
100
AcDbLine
10
79.5
20
-35.576498
30
0
11
31.5
21
-35.576498
31
0
39
0
210
0
220
0
230
1
0
SOLID
5
256
100
AcDbEntity
8
0
62
256
6
ByLayer
370
-1
48
1
60
0
100
AcDbTrace
10
79.5
20
-36.159832
30
0
11
79.5
21
-34.993165
31
0
12
83
22
-35.576498
32
0
13
83
23
-35.576498
33
0
39
0
210
0
220
0
230
1
0
SOLID
5
257
100
AcDbEntity
8
0
62
256
6
ByLayer
370
-1
48
1
60
0
100
AcDbTrace
10
31.5
20
-34.993165
30
0
11
31.5
21
-36.159832
31
0
12
28
22
-35.576498
32
0
13
28
23
-35.576498
33
0
39
0
210
0
220
0
230
1
0
MTEXT
5
258
100
AcDbEntity
8
0
62
256
6
ByLayer
370
18
48
1
60
0
100
AcDbMText
10
55.5
20
-29.576498
30
0
210
0
220
0
230
1
1
\A1;55
40
3
41
0
44
1
50
0
71
5
72
5
7
iso_b_vert
0
POINT
5
259
100
AcDbEntity
8
Defpoints
62
0
6
ByLayer
370
-1
48
1
60
0
100
AcDbPoint
10
83
20
-6.076498
30
0
39
0
210
0
220
0
230
1
50
360
0
POINT
5
25A
100
AcDbEntity
8
Defpoints
62
0
6
ByLayer
370
-1
48
1
60
0
100
AcDbPoint
10
28
20
-4.35
30
0
39
0
210
0
220
0
230
1
50
360
0
POINT
5
25B
100
AcDbEntity
8
Defpoints
62
0
6
ByLayer
370
-1
48
1
60
0
100
AcDbPoint
10
28
20
-35.576498
30
0
39
0
210
0
220
0
230
1
50
360
0
ENDBLK
5
252
100
AcDbEntity
8
0
100
AcDbBlockEnd
0
BLOCK
5
263
100
AcDbEntity
8
0
100
AcDbBlockBegin
2
_U4
70
0
10
0
20
0
30
0
3
_U4
0
MTEXT
5
25D
100
AcDbEntity
8
SK2
62
256
6
ByLayer
370
18
48
1
60
0
100
AcDbMText
10
53.867172
20
-34.691384
30
0
210
0
220
0
230
1
1
\W0.6740;55
40
3
41
0
44
1.084337
50
0
71
7
72
5
7
iso_b_vert
0
LINE
5
25E
100
AcDbEntity
8
SK2
62
256
6
ByLayer
370
13
48
1
60
0
100
AcDbLine
10
83
20
-7.663998
30
0
11
83
21
-37.576498
31
0
39
0
210
0
220
0
230
1
0
LINE
5
25F
100
AcDbEntity
8
SK2
62
256
6
ByLayer
370
13
48
1
60
0
100
AcDbLine
10
28
20
-5.9375
30
0
11
28
21
-37.576498
31
0
39
0
210
0
220
0
230
1
0
LINE
5
260
100
AcDbEntity
8
SK2
62
256
6
ByLayer
370
13
48
1
60
0
100
AcDbLine
10
83
20
-35.576498
30
0
11
28
21
-35.576498
31
0
39
0
210
0
220
0
230
1
0
SOLID
5
261
100
AcDbEntity
8
SK2
62
256
6
ByLayer
370
18
48
1
60
0
100
AcDbTrace
10
83
20
-35.576498
30
0
11
79.500002
21
-36.037282
31
0
12
79.499998
22
-35.115715
32
0
13
79.499998
23
-35.115715
33
0
39
0
210
0
220
0
230
1
0
SOLID
5
262
100
AcDbEntity
8
SK2
62
256
6
ByLayer
370
18
48
1
60
0
100
AcDbTrace
10
28
20
-35.576498
30
0
11
31.499998
21
-35.115715
31
0
12
31.500002
22
-36.037282
32
0
13
31.500002
23
-36.037282
33
0
39
0
210
0
220
0
230
1
0
ENDBLK
5
264
100
AcDbEntity
8
0
100
AcDbBlockEnd
0
BLOCK
5
269
100
AcDbEntity
8
0
100
AcDbBlockBegin
2
*D11
70
1
10
0
20
0
30
0
3
*D11
0
LINE
5
26B
100
AcDbEntity
8
0
62
256
6
ByLayer
370
-2
48
1
60
0
100
AcDbLine
10
83
20
-7.663998
30
0
11
83
21
-26.576498
31
0
39
0
210
0
220
0
230
1
0
LINE
5
26C
100
AcDbEntity
8
0
62
256
6
ByLayer
370
-2
48
1
60
0
100
AcDbLine
10
36.25
20
-1.5875
30
0
11
36.25
21
-26.576498
31
0
39
0
210
0
220
0
230
1
0
LINE
5
26D
100
AcDbEntity
8
0
62
256
6
ByLayer
370
-2
48
1
60
0
100
AcDbLine
10
79.5
20
-24.576498
30
0
11
39.75
21
-24.576498
31
0
39
0
210
0
220
0
230
1
0
SOLID
5
26E
100
AcDbEntity
8
0
62
256
6
ByLayer
370
-1
48
1
60
0
100
AcDbTrace
10
79.5
20
-25.159832
30
0
11
79.5
21
-23.993165
31
0
12
83
22
-24.576498
32
0
13
83
23
-24.576498
33
0
39
0
210
0
220
0
230
1
0
SOLID
5
26F
100
AcDbEntity
8
0
62
256
6
ByLayer
370
-1
48
1
60
0
100
AcDbTrace
10
39.75
20
-23.993165
30
0
11
39.75
21
-25.159832
31
0
12
36.25
22
-24.576498
32
0
13
36.25
23
-24.576498
33
0
39
0
210
0
220
0
230
1
0
MTEXT
5
270
100
AcDbEntity
8
0
62
256
6
ByLayer
370
18
48
1
60
0
100
AcDbMText
10
59.625
20
-18.576498
30
0
210
0
220
0
230
1
1
\A1;46.8
40
3
41
0
44
1
50
0
71
5
72
5
7
iso_b_vert
0
POINT
5
271
100
AcDbEntity
8
Defpoints
62
0
6
ByLayer
370
-1
48
1
60
0
100
AcDbPoint
10
83
20
-6.076498
30
0
39
0
210
0
220
0
230
1
50
360
0
POINT
5
272
100
AcDbEntity
8
Defpoints
62
0
6
ByLayer
370
-1
48
1
60
0
100
AcDbPoint
10
36.25
20
0
30
0
39
0
210
0
220
0
230
1
50
360
0
POINT
5
273
100
AcDbEntity
8
Defpoints
62
0
6
ByLayer
370
-1
48
1
60
0
100
AcDbPoint
10
36.25
20
-24.576498
30
0
39
0
210
0
220
0
230
1
50
360
0
ENDBLK
5
26A
100
AcDbEntity
8
0
100
AcDbBlockEnd
0
BLOCK
5
27B
100
AcDbEntity
8
0
100
AcDbBlockBegin
2
_U5
70
0
10
0
20
0
30
0
3
_U5
0
MTEXT
5
275
100
AcDbEntity
8
2
62
256
6
ByLayer
370
18
48
1
60
0
100
AcDbMText
10
56.105601
20
-23.691384
30
0
210
0
220
0
230
1
1
\W0.7640;46.8
40
3
41
0
44
1.084337
50
0
71
7
72
5
7
iso_b_vert
0
LINE
5
276
100
AcDbEntity
8
2
62
256
6
ByLayer
370
13
48
1
60
0
100
AcDbLine
10
83
20
-7.663998
30
0
11
83
21
-26.576498
31
0
39
0
210
0
220
0
230
1
0
LINE
5
277
100
AcDbEntity
8
2
62
256
6
ByLayer
370
13
48
1
60
0
100
AcDbLine
10
36.25
20
-1.5875
30
0
11
36.25
21
-26.576498
31
0
39
0
210
0
220
0
230
1
0
LINE
5
278
100
AcDbEntity
8
2
62
256
6
ByLayer
370
13
48
1
60
0
100
AcDbLine
10
83
20
-24.576498
30
0
11
36.25
21
-24.576498
31
0
39
0
210
0
220
0
230
1
0
SOLID
5
279
100
AcDbEntity
8
2
62
256
6
ByLayer
370
18
48
1
60
0
100
AcDbTrace
10
83
20
-24.576498
30
0
11
79.500002
21
-25.037282
31
0
12
79.499998
22
-24.115715
32
0
13
79.499998
23
-24.115715
33
0
39
0
210
0
220
0
230
1
0
SOLID
5
27A
100
AcDbEntity
8
2
62
256
6
ByLayer
370
18
48
1
60
0
100
AcDbTrace
10
36.25
20
-24.576498
30
0
11
39.749998
21
-24.115715
31
0
12
39.750002
22
-25.037282
32
0
13
39.750002
23
-25.037282
33
0
39
0
210
0
220
0
230
1
0
ENDBLK
5
27C
100
AcDbEntity
8
0
100
AcDbBlockEnd
0
ENDSEC
0
SECTION
2
ENTITIES
0
ARC
5
D1
100
AcDbEntity
8
SK1
62
256
6
ByLayer
370
18
48
1
60
0
100
AcDbCircle
39
0
10
-20.5
20
0
30
0
40
4.3200000000001
210
0
220
0
230
1
100
AcDbArc
50
324.114028
51
35.885972
0
ARC
5
D2
100
AcDbEntity
8
1
62
256
6
ByLayer
370
18
48
1
60
0
100
AcDbCircle
39
0
10
65.63199
20
-5.75
30
0
40
1.4
210
0
220
0
230
1
100
AcDbArc
50
30
51
90
0
ARC
5
D3
100
AcDbEntity
8
1
62
256
6
ByLayer
370
18
48
1
60
0
100
AcDbCircle
39
0
10
28.653835
20
-5.85
30
0
40
1.5
210
0
220
0
230
1
100
AcDbArc
50
90
51
115.841933
0
ARC
5
D4
100
AcDbEntity
8
1
62
256
6
ByLayer
370
18
48
1
60
0
100
AcDbCircle
39
0
10
28.653835
20
5.85
30
0
40
1.5
210
0
220
0
230
1
100
AcDbArc
50
244.158067
51
270
0
POINT
5
70
100
AcDbEntity
8
80
62
256
6
ByLayer
370
18
48
1
60
0
100
AcDbPoint
10
0
20
0
30
0
39
0
210
0
220
0
230
1
50
360
0
POINT
5
72
100
AcDbEntity
8
81
62
256
6
ByLayer
370
18
48
1
60
0
100
AcDbPoint
10
83
20
0
30
0
39
0
210
0
220
0
230
1
50
360
0
POINT
5
74
100
AcDbEntity
8
1
62
256
6
ByLayer
370
18
48
1
60
1
100
AcDbPoint
10
83
20
6.076498
30
0
39
0
210
0
220
0
230
1
50
360
0
POINT
5
76
100
AcDbEntity
8
1
62
256
6
ByLayer
370
18
48
1
60
1
100
AcDbPoint
10
83
20
-6.076498
30
0
39
0
210
0
220
0
230
1
50
360
0
POINT
5
77
100
AcDbEntity
8
1
62
256
6
ByLayer
370
18
48
1
60
1
100
AcDbPoint
10
-25.6
20
-3.5
30
0
39
0
210
0
220
0
230
1
50
360
0
POINT
5
78
100
AcDbEntity
8
1
62
256
6
ByLayer
370
18
48
1
60
1
100
AcDbPoint
10
-25.6
20
3.5
30
0
39
0
210
0
220
0
230
1
50
360
0
POINT
5
79
100
AcDbEntity
8
1
62
256
6
ByLayer
370
18
48
1
60
1
100
AcDbPoint
10
83
20
6.076498
30
0
39
0
210
0
220
0
230
1
50
360
0
POINT
5
7A
100
AcDbEntity
8
1
62
256
6
ByLayer
370
18
48
1
60
1
100
AcDbPoint
10
79.06
20
0
30
0
39
0
210
0
220
0
230
1
50
360
0
POINT
5
7B
100
AcDbEntity
8
1
62
256
6
ByLayer
370
18
48
1
60
1
100
AcDbPoint
10
83
20
-6.076498
30
0
39
0
210
0
220
0
230
1
50
360
0
POINT
5
7C
100
AcDbEntity
8
1
62
256
6
ByLayer
370
18
48
1
60
1
100
AcDbPoint
10
67
20
-6.076498
30
0
39
0
210
0
220
0
230
1
50
360
0
POINT
5
7D
100
AcDbEntity
8
1
62
256
6
ByLayer
370
18
48
1
60
1
100
AcDbPoint
10
83
20
-6.076498
30
0
39
0
210
0
220
0
230
1
50
360
0
POINT
5
7E
100
AcDbEntity
8
1
62
256
6
ByLayer
370
18
48
1
60
1
100
AcDbPoint
10
28
20
-4.35
30
0
39
0
210
0
220
0
230
1
50
360
0
POINT
5
7F
100
AcDbEntity
8
1
62
256
6
ByLayer
370
18
48
1
60
1
100
AcDbPoint
10
83
20
-6.076498
30
0
39
0
210
0
220
0
230
1
50
360
0
POINT
5
80
100
AcDbEntity
8
1
62
256
6
ByLayer
370
18
48
1
60
1
100
AcDbPoint
10
36.25
20
0
30
0
39
0
210
0
220
0
230
1
50
360
0
SPLINE
5
D5
100
AcDbEntity
8
1
62
256
6
ByLayer
370
18
48
1
60
0
100
AcDbSpline
70
4
71
3
72
8
73
4
40
0
40
0
40
0
40
0
40
1
40
1
40
1
40
1
41
1
10
68.3085369676731
20
-5.49929404766903
30
0
41
1
10
68.312455841311
20
-5.5025590498216
30
0
41
1
10
68.3163554094264
20
-5.50446278596357
30
0
41
1
10
68.3202399484381
20
-5.50501405742605
30
0
0
SPLINE
5
D6
100
AcDbEntity
8
1
62
256
6
ByLayer
370
18
48
1
60
0
100
AcDbSpline
70
4
71
3
72
8
73
4
40
0
40
0
40
0
40
0
40
1
40
1
40
1
40
1
41
1
10
68.0753766329793
20
-5.08993746703575
30
0
41
1
10
68.0708998568372
20
-5.08831002277682
30
0
41
1
10
68.0664154835293
20
-5.08472802121551
30
0
41
1
10
68.0619261866381
20
-5.07916643853991
30
0
0
SPLINE
5
D7
100
AcDbEntity
8
1
62
256
6
ByLayer
370
13
48
1
60
0
100
AcDbSpline
70
4
71
3
72
10
73
6
40
0
40
0
40
0
40
0
40
0.008201781406387
40
0.989295036375795
40
1
40
1
40
1
40
1
41
1.04
10
67.6663789876404
20
-5.07268028012091
30
0
41
1.04
10
67.6662028317848
20
-5.07295101509226
30
0
41
1.04
10
67.644952509779
20
-5.10524518249959
30
0
41
1.04
10
67.6231680934619
20
-5.09374918162616
30
0
41
1.04
10
67.6015533506484
20
-5.03562954297347
30
0
41
1.04
10
67.6013200513187
20
-5.0349967943509
30
0
0
SPLINE
5
D8
100
AcDbEntity
8
1
62
256
6
ByLayer
370
13
48
1
60
0
100
AcDbSpline
70
4
71
3
72
9
73
5
40
0
40
0
40
0
40
0
40
0.856053181400084
40
1
40
1
40
1
40
1
41
1
10
70.7236809384121
20
5.08105947629389
30
0
41
1
10
70.7122137874952
20
5.09436409083739
30
0
41
1
10
70.6987533549401
20
5.09492075859157
30
0
41
1
10
70.6852085718892
20
5.07720363516628
30
0
41
1
10
70.6832570131369
20
5.07427389260553
30
0
0
SPLINE
5
D9
100
AcDbEntity
8
1
62
256
6
ByLayer
370
18
48
1
60
0
100
AcDbSpline
70
4
71
3
72
8
73
4
40
0
40
0
40
0
40
0
40
1
40
1
40
1
40
1
41
1
10
70.6832566878292
20
5.07427340423976
30
0
41
1
10
70.6807398791499
20
5.07049503638589
30
0
41
1
10
70.6782200263207
20
5.06608562954889
30
0
41
1
10
70.6756969523379
20
5.0610435246345
30
0
0
SPLINE
5
DA
100
AcDbEntity
8
1
62
256
6
ByLayer
370
13
48
1
60
0
100
AcDbSpline
70
4
71
3
72
8
73
4
40
0
40
0
40
0
40
0
40
1
40
1
40
1
40
1
41
1.04
10
79.915686200399
20
-5.07415994923997
30
0
41
1.04
10
79.8982540951363
20
-5.1003184089473
30
0
41
1.04
10
79.8807654724989
20
-5.0964966998461
30
0
41
1.04
10
79.8631820513426
20
-5.06231056058418
30
0
0
SPLINE
5
DB
100
AcDbEntity
8
1
62
256
6
ByLayer
370
18
48
1
60
0
100
AcDbSpline
70
4
71
3
72
12
73
8
40
0
40
0
40
0
40
0
40
0.227605907751714
40
0.227605907751714
40
0.48507060516781
40
0.48507060516781
40
1
40
1
40
1
40
1
41
1
10
67.4722087215524
20
-5.38582720961224
30
0
41
1
10
67.4685376243435
20
-5.38530141521514
30
0
41
1
10
67.464866054891
20
-5.38311649203078
30
0
41
1
10
67.4570362131182
20
-5.37486708329817
30
0
41
1
10
67.4529028465891
20
-5.36836117165336
30
0
41
1
10
67.440510300492
20
-5.34255722597666
30
0
41
1
10
67.4322208684245
20
-5.31698250035495
30
0
41
1
10
67.4238268214272
20
-5.2831207421182
30
0
0
SPLINE
5
DC
100
AcDbEntity
8
1
62
256
6
ByLayer
370
18
48
1
60
0
100
AcDbSpline
70
4
71
3
72
10
73
6
40
0
40
0
40
0
40
0
40
0.463409637649514
40
0.463409637649514
40
1
40
1
40
1
40
1
41
1
10
71.1768355195205
20
5.90647978457943
30
0
41
1
10
71.1858071850675
20
5.9077500173907
30
0
41
1
10
71.1947558402812
20
5.90130805346752
30
0
41
1
10
71.2140258095816
20
5.87102870266688
30
0
41
1
10
71.2243395923638
20
5.84460437831117
30
0
41
1
10
71.2346665202522
20
5.80787688215418
30
0
0
SPLINE
5
DD
100
AcDbEntity
8
1
62
256
6
ByLayer
370
18
48
1
60
0
100
AcDbSpline
70
4
71
3
72
14
73
10
40
0
40
0
40
0
40
0
40
0.401523855658853
40
0.401523855658853
40
0.803047711317706
40
0.803047711317706
40
0.90342867523242
40
0.90342867523242
40
1
40
1
40
1
40
1
41
1
10
71.5842062787265
20
5.77357654543542
30
0
41
1
10
71.5754770372129
20
5.82294873418715
30
0
41
1
10
71.5667308823561
20
5.86220412519194
30
0
41
1
10
71.5491899353946
20
5.92065889552075
30
0
41
1
10
71.5403961182491
20
5.9398590998268
30
0
41
1
10
71.5293576852146
20
5.95104367285293
30
0
41
1
10
71.5271476204165
20
5.95263820998423
30
0
41
1
10
71.5228059509154
20
5.95449302912138
30
0
41
1
10
71.5206719674188
20
5.95480100060979
30
0
41
1
10
71.5185410289032
20
5.95450221239614
30
0
0
SPLINE
5
DE
100
AcDbEntity
8
1
62
256
6
ByLayer
370
18
48
1
60
0
100
AcDbSpline
70
4
71
3
72
12
73
8
40
0
40
0
40
0
40
0
40
0.0320550800582486
40
0.0320550800582486
40
0.516027540029124
40
0.516027540029124
40
1
40
1
40
1
40
1
41
1
10
79.4709749549023
20
-5.82361205007777
30
0
41
1
10
79.47037422828
20
-5.82363542978743
30
0
41
1
10
79.46977373608
20
-5.82361402694639
30
0
41
1
10
79.460114154335
20
-5.82254763928177
30
0
41
1
10
79.4511558134616
20
-5.81137656212599
30
0
41
1
10
79.4331326578
20
-5.76959292281626
30
0
41
1
10
79.4240089968691
20
-5.73908049281047
30
0
41
1
10
79.4148398402072
20
-5.69867068599041
30
0
0
SPLINE
5
DF
100
AcDbEntity
8
1
62
256
6
ByLayer
370
18
48
1
60
0
100
AcDbSpline
70
4
71
3
72
10
73
6
40
0
40
0
40
0
40
0
40
0.547569163733095
40
0.547569163733095
40
1
40
1
40
1
40
1
41
1
10
79.0003860313034
20
-5.72089313951165
30
0
41
1
10
79.0100883413069
20
-5.77736467726689
30
0
41
1
10
79.0196961409942
20
-5.82357950783677
30
0
41
1
10
79.037327995395
20
-5.88955425901543
30
0
41
1
10
79.0453656356302
20
-5.91256533045569
30
0
41
1
10
79.0535076440388
20
-5.92857200091186
30
0
0
SPLINE
5
E0
100
AcDbEntity
8
1
62
256
6
ByLayer
370
13
48
1
60
0
100
AcDbSpline
70
4
71
3
72
8
73
4
40
0
40
0
40
0
40
0
40
1
40
1
40
1
40
1
41
1.04
10
72.1025823396038
20
4.85779718407803
30
0
41
1.04
10
72.0838894589479
20
4.9603298891429
30
0
41
1.04
10
72.0653776191429
20
5.02842395125271
30
0
41
1.04
10
72.046995976923
20
5.06327649680708
30
0
0
SPLINE
5
E1
100
AcDbEntity
8
1
62
256
6
ByLayer
370
13
48
1
60
0
100
AcDbSpline
70
4
71
3
72
8
73
4
40
0
40
0
40
0
40
0
40
1
40
1
40
1
40
1
41
1
10
78.5526194928599
20
-5.06483624779335
30
0
41
1
10
78.5300343131396
20
-5.02267653043685
30
0
41
1
10
78.5073567294318
20
-4.9301680181203
30
0
41
1
10
78.4844820812969
20
-4.78798601312536
30
0
0
SPLINE
5
E2
100
AcDbEntity
8
1
62
256
6
ByLayer
370
13
48
1
60
0
100
AcDbSpline
70
4
71
3
72
9
73
5
40
0
40
0
40
0
40
0
40
0.163501430750524
40
1
40
1
40
1
40
1
41
1
10
72.5631566738835
20
4.71973473236852
30
0
41
1
10
72.5557578075126
20
4.77065968288551
30
0
41
1
10
72.5107052441485
20
5.05001164999385
30
0
41
1
10
72.4667027528442
20
5.13067966161645
30
0
41
1
10
72.4302182186974
20
5.06901339380707
30
0
0
SPLINE
5
E3
100
AcDbEntity
8
1
62
256
6
ByLayer
370
13
48
1
60
0
100
AcDbSpline
70
4
71
3
72
10
73
6
40
0
40
0
40
0
40
0
40
0.2086059859036
40
0.871303785531751
40
1
40
1
40
1
40
1
41
1.04
10
78.1684094060937
20
-5.06937453537587
30
0
41
1.04
10
78.1584550218888
20
-5.08616491857062
30
0
41
1.04
10
78.1167912748512
20
-5.11620150047224
30
0
41
1.04
10
78.0687495776168
20
-4.95181452503506
30
0
41
1.04
10
78.0301521922139
20
-4.68124482078102
30
0
41
1.04
10
78.0238652910761
20
-4.6336508585378
30
0
0
SPLINE
5
E4
100
AcDbEntity
8
1
62
256
6
ByLayer
370
13
48
1
60
0
100
AcDbSpline
70
4
71
3
72
10
73
6
40
0
40
0
40
0
40
0
40
0.0936548877401323
40
0.906629401589459
40
1
40
1
40
1
40
1
41
1
10
76.8023025527381
20
-5.06410316525105
30
0
41
1
10
76.7973799798079
20
-5.05496186040412
30
0
41
1
10
76.7496589092829
20
-4.94339933402705
30
0
41
1
10
76.6971296228213
20
-4.56864745517297
30
0
41
1
10
76.6501121424569
20
-4.05467069312806
30
0
41
1
10
76.6452738988923
20
-3.99995623427674
30
0
0
SPLINE
5
E5
100
AcDbEntity
8
1
62
256
6
ByLayer
370
13
48
1
60
0
100
AcDbSpline
70
4
71
3
72
10
73
6
40
0
40
0
40
0
40
0
40
0.191884932101702
40
0.812406796871778
40
1
40
1
40
1
40
1
41
1.04
10
76.3900387167437
20
-5.0904350292015
30
0
41
1.04
10
76.3769498067933
20
-5.08810051286405
30
0
41
1.04
10
76.3209061414363
20
-5.00823528066502
30
0
41
1.04
10
76.2520850849623
20
-4.5224437121399
30
0
41
1.04
10
76.1972778316582
20
-3.89120613526437
30
0
41
1.04
10
76.1845832200235
20
-3.73335493408827
30
0
0
SPLINE
5
E6
100
AcDbEntity
8
1
62
256
6
ByLayer
370
13
48
1
60
0
100
AcDbSpline
70
4
71
3
72
10
73
6
40
0
40
0
40
0
40
0
40
0.227844611198184
40
0.531118605287187
40
1
40
1
40
1
40
1
41
1
10
75.0156833298818
20
-4.95137936820316
30
0
41
1
10
74.9996360705912
20
-4.88314573671281
30
0
41
1
10
74.9622663693025
20
-4.6670349265203
30
0
41
1
10
74.8919589168252
20
-4.02098266354488
30
0
41
1
10
74.8384613289302
20
-3.29859022661452
30
0
41
1
10
74.8060492218461
20
-2.80420525703624
30
0
0
SPLINE
5
E7
100
AcDbEntity
8
1
62
256
6
ByLayer
370
18
48
1
60
0
100
AcDbSpline
70
4
71
3
72
11
73
7
40
0
40
0
40
0
40
0
40
0.110143171756754
40
0.491582198868582
40
0.939733026845161
40
1
40
1
40
1
40
1
41
1
10
82.9999999999999
20
0.32290087986047
30
0
41
1
10
82.9999999999999
20
0.215430498721844
30
0
41
1
10
82.9999999999999
20
-0.266463001309006
30
0
41
1
10
83
20
-1.19546142617887
30
0
41
1
10
83
20
-2.01562170505485
30
0
41
1
10
82.9999999999999
20
-2.4378081115949
30
0
41
1
10
82.9999999999999
20
-2.48717047369919
30
0
0
SPLINE
5
E8
100
AcDbEntity
8
1
62
256
6
ByLayer
370
13
48
1
60
0
100
AcDbSpline
70
4
71
3
72
9
73
5
40
0
40
0
40
0
40
0
40
0.497312947418312
40
1
40
1
40
1
40
1
41
1.04
10
67.197348077177
20
0.145455502171944
30
0
41
1.04
10
67.1609219915631
20
0.810167632878653
30
0
41
1.04
10
67.0901008219603
20
2.09705717822846
30
0
41
1.04
10
67.0221395960203
20
3.13700549337665
30
0
41
1.04
10
66.9882918934211
20
3.57723343561094
30
0
0
SPLINE
5
E9
100
AcDbEntity
8
1
62
256
6
ByLayer
370
18
48
1
60
0
100
AcDbSpline
70
4
71
3
72
10
73
6
40
0
40
0
40
0
40
0
40
0.371961771824689
40
0.743135010737527
40
1
40
1
40
1
40
1
41
1
10
82.4000000932893
20
-2.46793751745392
30
0
41
1
10
82.4000001097963
20
-2.09263691460342
30
0
41
1
10
82.4000000472739
20
-1.28733542931488
30
0
41
1
10
82.3999998986193
20
-0.13047033173558
30
0
41
1
10
82.3999998692809
20
0.589323628672304
30
0
41
1
10
82.3999998636208
20
0.877876471653252
30
0
0
SPLINE
5
EA
100
AcDbEntity
8
1
62
256
6
ByLayer
370
18
48
1
60
0
100
AcDbSpline
70
4
71
3
72
28
73
24
40
0
40
0
40
0
40
0
40
0.125
40
0.125
40
0.25
40
0.25
40
0.375
40
0.375
40
0.437500000000001
40
0.437500000000001
40
0.500000000000001
40
0.500000000000001
40
0.625
40
0.625
40
0.75
40
0.75
40
0.8125
40
0.8125
40
0.84375
40
0.84375
40
0.875
40
0.875
40
1
40
1
40
1
40
1
41
1
10
81.5740447884094
20
1.67683370060209
30
0
41
1
10
81.5831364905674
20
1.52261741493177
30
0
41
1
10
81.5921676069058
20
1.36686427981451
30
0
41
1
10
81.6102050653918
20
1.05238909699082
30
0
41
1
10
81.6192110078434
20
0.893666767241115
30
0
41
1
10
81.6372607515989
20
0.573248154733989
30
0
41
1
10
81.6463043078069
20
0.411552152046767
30
0
41
1
10
81.6599276450629
20
0.166692816998392
30
0
41
1
10
81.6644874430576
20
0.0845196404656292
30
0
41
1
10
81.6735350210666
20
-0.0789186752806472
30
0
41
1
10
81.6780323365216
20
-0.16035592821919
30
0
41
1
10
81.691501485589
20
-0.403838891301746
30
0
41
1
10
81.7004668500172
20
-0.565056765687842
30
0
41
1
10
81.7184945817517
20
-0.885325170246887
30
0
41
1
10
81.7275427677103
20
-1.04437714071804
30
0
41
1
10
81.7411483409589
20
-1.28130996938631
30
0
41
1
10
81.7456872431996
20
-1.36001245465189
30
0
41
1
10
81.7525050975846
20
-1.47764656489278
30
0
41
1
10
81.7547797368267
20
-1.51678804639161
30
0
41
1
10
81.7593354660727
20
-1.59492995387922
30
0
41
1
10
81.7616157512632
20
-1.63391621353139
30
0
41
1
10
81.7729936349804
20
-1.8277207014809
30
0
41
1
10
81.7820582212715
20
-1.97977838425808
30
0
41
1
10
81.7911418537978
20
-2.12886585928987
30
0
0
SPLINE
5
EB
100
AcDbEntity
8
1
62
256
6
ByLayer
370
13
48
1
60
0
100
AcDbSpline
70
4
71
3
72
9
73
5
40
0
40
0
40
0
40
0
40
0.4290457167495
40
1
40
1
40
1
40
1
41
1
10
81.7602462103761
20
-2.07091072245751
30
0
41
1
10
81.7297649472295
20
-1.56194107557846
30
0
41
1
10
81.6594444249986
20
-0.300595870373826
30
0
41
1
10
81.5898832258619
20
0.990253760574177
30
0
41
1
10
81.5500406733672
20
1.67792131880972
30
0
0
SPLINE
5
EC
100
AcDbEntity
8
1
62
256
6
ByLayer
370
18
48
1
60
0
100
AcDbSpline
70
4
71
3
72
10
73
6
40
0
40
0
40
0
40
0
40
0.5
40
0.5
40
1
40
1
40
1
40
1
41
1
10
67.05717038195
20
0.21860635870965
30
0
41
1
10
67.0476002887467
20
0.415432312818354
30
0
41
1
10
67.0380732600096
20
0.610764975330511
30
0
41
1
10
67.0190432411218
20
0.998472912562761
30
0
41
1
10
67.0095425016991
20
1.19084847159016
30
0
41
1
10
67
20
1.38170338651207
30
0
0
SPLINE
5
ED
100
AcDbEntity
8
1
62
256
6
ByLayer
370
13
48
1
60
0
100
AcDbSpline
70
4
71
3
72
9
73
5
40
0
40
0
40
0
40
0
40
0.317456856600944
40
1
40
1
40
1
40
1
41
1.04
10
81.2995705375473
20
-1.69016980110082
30
0
41
1.04
10
81.2770988173235
20
-1.30265537682293
30
0
41
1.04
10
81.206772542991
20
-0.0376446896894141
30
0
41
1.04
10
81.1372075427089
20
1.25902750932577
30
0
41
1.04
10
81.0894399880552
20
2.05769289459218
30
0
0
SPLINE
5
EE
100
AcDbEntity
8
1
62
256
6
ByLayer
370
13
48
1
60
0
100
AcDbSpline
70
4
71
3
72
10
73
6
40
0
40
0
40
0
40
0
40
0.115822380182248
40
0.418328345084001
40
1
40
1
40
1
40
1
41
1.04
10
74.5550474592601
20
-4.84033255400526
30
0
41
1.04
10
74.5468759754053
20
-4.79408175474468
30
0
41
1.04
10
74.517372177296
20
-4.60454452921907
30
0
41
1.04
10
74.4468862374144
20
-3.96176067311361
30
0
41
1.04
10
74.3856061421204
20
-3.09775414290166
30
0
41
1.04
10
74.3453236851675
20
-2.45265334879054
30
0
0
SPLINE
5
EF
100
AcDbEntity
8
1
62
256
6
ByLayer
370
13
48
1
60
0
100
AcDbSpline
70
4
71
3
72
10
73
6
40
0
40
0
40
0
40
0
40
0.281284068489357
40
0.73581445043571
40
1
40
1
40
1
40
1
41
1
10
73.176297687937
20
-4.32478297932269
30
0
41
1
10
73.1560716608097
20
-4.12964952107421
30
0
41
1
10
73.1030876573921
20
-3.53002396397051
30
0
41
1
10
73.0323830710713
20
-2.4593128107376
30
0
41
1
10
72.9841266558464
20
-1.62931161051057
30
0
41
1
10
72.9667399035095
20
-1.32236922612026
30
0
0
SPLINE
5
F0
100
AcDbEntity
8
1
62
256
6
ByLayer
370
13
48
1
60
0
100
AcDbSpline
70
4
71
3
72
9
73
5
40
0
40
0
40
0
40
0
40
0.609835738901449
40
1
40
1
40
1
40
1
41
1
10
67.6580552997244
20
-0.264193306452825
30
0
41
1
10
67.6131391452108
20
0.554537007010396
30
0
41
1
10
67.5426646563391
20
1.85475343789523
30
0
41
1
10
67.4749978802116
20
2.91067761743517
30
0
41
1
10
67.4488389474316
20
3.27637933574036
30
0
0
SPLINE
5
F1
100
AcDbEntity
8
1
62
256
6
ByLayer
370
13
48
1
60
0
100
AcDbSpline
70
4
71
3
72
10
73
6
40
0
40
0
40
0
40
0
40
0.289517316046832
40
0.747735019187895
40
1
40
1
40
1
40
1
41
1.04
10
69.0367638813417
20
-1.46759084867859
30
0
41
1.04
10
69.0159780574984
20
-1.10371775695899
30
0
41
1.04
10
68.9628234323014
20
-0.141194480139088
30
0
41
1.04
10
68.8930177178135
20
1.14568029174591
30
0
41
1.04
10
68.8446553225369
20
1.97386192179974
30
0
41
1.04
10
68.8276010103732
20
2.25348615410604
30
0
0
SPLINE
5
F2
100
AcDbEntity
8
1
62
256
6
ByLayer
370
18
48
1
60
0
100
AcDbSpline
70
4
71
3
72
29
73
25
40
0
40
0
40
0
40
0
40
0.125000000000001
40
0.250000000000002
40
0.250000000000002
40
0.312500000000002
40
0.312500000000002
40
0.343750000000002
40
0.343750000000002
40
0.375000000000002
40
0.375000000000002
40
0.500000000000002
40
0.500000000000002
40
0.625000000000001
40
0.625000000000001
40
0.750000000000001
40
0.750000000000001
40
0.781250000000002
40
0.781250000000002
40
0.812500000000002
40
0.812500000000002
40
0.875000000000001
40
0.875000000000001
40
1
40
1
40
1
40
1
41
1
10
67.6390273735678
20
3.38536745599035
30
0
41
1
10
67.6489292178308
20
3.24781115377959
30
0
41
1
10
67.6685985827129
20
2.96321664359428
30
0
41
1
10
67.6882748019978
20
2.66004564768917
30
0
41
1
10
67.7031276330073
20
2.42564444175218
30
0
41
1
10
67.7080943821764
20
2.34633813660889
30
0
41
1
10
67.7155780093929
20
2.22559314918843
30
0
41
1
10
67.718078197976
20
2.18504710076581
30
0
41
1
10
67.7230907219374
20
2.10335328146138
30
0
41
1
10
67.7256057001031
20
2.062159020179
30
0
41
1
10
67.7381446745703
20
1.85574041904093
30
0
41
1
10
67.748097219323
20
1.68854367519086
30
0
41
1
10
67.7678890808128
20
1.35015849746452
30
0
41
1
10
67.7777294912017
20
1.17896980607969
30
0
41
1
10
67.7974033708936
20
0.832620362507726
30
0
41
1
10
67.8072377192015
20
0.657459887558446
30
0
41
1
10
67.8196118796956
20
0.435969583831366
30
0
41
1
10
67.8220908127631
20
0.391544247870371
30
0
41
1
10
67.8270590972278
20
0.302436384367809
30
0
41
1
10
67.8295473890912
20
0.257772832114796
30
0
41
1
10
67.8369922379201
20
0.12409176117626
30
0
41
1
10
67.8419416017915
20
0.0351554304452009
30
0
41
1
10
67.8567705466866
20
-0.231108043573983
30
0
41
1
10
67.866633130691
20
-0.407890851295207
30
0
41
1
10
67.8765102854966
20
-0.583952787966183
30
0
0
SPLINE
5
F3
100
AcDbEntity
8
1
62
256
6
ByLayer
370
18
48
1
60
0
100
AcDbSpline
70
4
71
3
72
27
73
23
40
0
40
0
40
0
40
0
40
0.125
40
0.25
40
0.25
40
0.3125
40
0.3125
40
0.34375
40
0.34375
40
0.375
40
0.375
40
0.5
40
0.5
40
0.625
40
0.625
40
0.75
40
0.75
40
0.8125
40
0.8125
40
0.875
40
0.875
40
1
40
1
40
1
40
1
41
1
10
68.7547358289613
20
-1.46497709757549
30
0
41
1
10
68.7463483585341
20
-1.28895767701093
30
0
41
1
10
68.7297162712122
20
-0.934173484262857
30
0
41
1
10
68.7130780798891
20
-0.573997210589766
30
0
41
1
10
68.7004309782367
20
-0.301823158115212
30
0
41
1
10
68.6961875967831
20
-0.210757557976649
30
0
41
1
10
68.6897898236008
20
-0.073638875452076
30
0
41
1
10
68.6876517434373
20
-0.0278458938665835
30
0
41
1
10
68.6833655602359
20
0.063915566292394
30
0
41
1
10
68.6812194481852
20
0.109841416684759
30
0
41
1
10
68.6705244531314
20
0.338649215051419
30
0
41
1
10
68.6620422346477
20
0.520020107875098
30
0
41
1
10
68.6451956343111
20
0.879507858133167
30
0
41
1
10
68.6368319699329
20
1.05762451098681
30
0
41
1
10
68.620073711289
20
1.41059531672644
30
0
41
1
10
68.6116588033914
20
1.58544825289715
30
0
41
1
10
68.5988886767533
20
1.84520250093911
30
0
41
1
10
68.5946028493486
20
1.93152838567704
30
0
41
1
10
68.5860699678507
20
2.10167789461892
30
0
41
1
10
68.5818147244175
20
2.18567182703131
30
0
41
1
10
68.5690770906209
20
2.43445355569156
30
0
41
1
10
68.5606244553023
20
2.59604910800263
30
0
41
1
10
68.5521799547585
20
2.75340217705099
30
0
0
SPLINE
5
F4
100
AcDbEntity
8
1
62
256
6
ByLayer
370
18
48
1
60
0
100
AcDbSpline
70
4
71
3
72
27
73
23
40
0
40
0
40
0
40
0
40
0.125
40
0.125
40
0.249999999999999
40
0.249999999999999
40
0.374999999999999
40
0.374999999999999
40
0.406249999999999
40
0.406249999999999
40
0.437499999999999
40
0.437499999999999
40
0.499999999999999
40
0.499999999999999
40
0.624999999999999
40
0.749999999999999
40
0.749999999999999
40
0.812499999999999
40
0.812499999999999
40
0.875
40
0.875
40
1
40
1
40
1
40
1
41
1
10
81.1474189434766
20
-1.70797265065619
30
0
41
1
10
81.1387717110099
20
-1.54411309597518
30
0
41
1
10
81.1302115551849
20
-1.37859205834789
30
0
41
1
10
81.1131945671868
20
-1.0442794497516
30
0
41
1
10
81.1047110677752
20
-0.875498191264796
30
0
41
1
10
81.0875333852478
20
-0.534700323882987
30
0
41
1
10
81.0788093956505
20
-0.362687798413617
30
0
41
1
10
81.0677923920395
20
-0.145553241377883
30
0
41
1
10
81.0655897969482
20
-0.102122474618028
30
0
41
1
10
81.0612020560243
20
-0.0154831110383213
30
0
41
1
10
81.059015613
20
0.0277612563613161
30
0
41
1
10
81.0524784766378
20
0.157270727060904
30
0
41
1
10
81.0481481550301
20
0.24331270493812
30
0
41
1
10
81.035205061791
20
0.500564830662142
30
0
41
1
10
81.0180722736416
20
0.841242773657058
30
0
41
1
10
81.0008913162538
20
1.17734310430637
30
0
41
1
10
80.987910631873
20
1.42766453887378
30
0
41
1
10
80.9835682212662
20
1.51081203133938
30
0
41
1
10
80.9748435342266
20
1.67650609201587
30
0
41
1
10
80.97048452012
20
1.75860944271531
30
0
41
1
10
80.9574388309319
20
2.00216787340375
30
0
41
1
10
80.9487848121661
20
2.1611004104951
30
0
41
1
10
80.9401129823198
20
2.31657936532471
30
0
0
SPLINE
5
F5
100
AcDbEntity
8
1
62
256
6
ByLayer
370
18
48
1
60
0
100
AcDbSpline
70
4
71
3
72
29
73
25
40
0
40
0
40
0
40
0
40
0.124999999999999
40
0.124999999999999
40
0.249999999999997
40
0.249999999999997
40
0.312499999999996
40
0.312499999999996
40
0.343749999999997
40
0.343749999999997
40
0.374999999999997
40
0.374999999999997
40
0.499999999999997
40
0.499999999999997
40
0.624999999999998
40
0.624999999999998
40
0.749999999999998
40
0.749999999999998
40
0.781249999999999
40
0.781249999999999
40
0.812499999999999
40
0.874999999999999
40
0.874999999999999
40
1
40
1
40
1
40
1
41
1
10
80.0295439276622
20
3.24949661114081
30
0
41
1
10
80.0390900164785
20
3.09691083187073
30
0
41
1
10
80.0485917074483
20
2.93969392294531
30
0
41
1
10
80.0675158273389
20
2.61599754957814
30
0
41
1
10
80.0769394326803
20
2.4495182660705
30
0
41
1
10
80.0911331577451
20
2.19271368619374
30
0
41
1
10
80.0958742814797
20
2.10592895375393
30
0
41
1
10
80.1030290548294
20
1.97395087778591
30
0
41
1
10
80.1054249900749
20
1.9295942414559
30
0
41
1
10
80.1102124067277
20
1.8406448737482
30
0
41
1
10
80.1126034717663
20
1.79606019157242
30
0
41
1
10
80.1245464470888
20
1.57259491672954
30
0
41
1
10
80.1340598620655
20
1.39209438635189
30
0
41
1
10
80.1530554931568
20
1.02775035445094
30
0
41
1
10
80.1625386606062
20
0.843906524766794
30
0
41
1
10
80.1815458755605
20
0.472852394360558
30
0
41
1
10
80.1910706572305
20
0.285642572603024
30
0
41
1
10
80.2030437249693
20
0.0494258594016515
30
0
41
1
10
80.2054384400575
20
0.0021312385257488
30
0
41
1
10
80.2102131354965
20
-0.0922251424816238
30
0
41
1
10
80.2173608945644
20
-0.233558302844926
30
0
41
1
10
80.2245007992219
20
-0.37429199863621
30
0
41
1
10
80.2388184139223
20
-0.654968451889403
30
0
41
1
10
80.2483828529554
20
-0.841037080346126
30
0
41
1
10
80.2579283301212
20
-1.02605910613113
30
0
0
SPLINE
5
F6
100
AcDbEntity
8
1
62
256
6
ByLayer
370
13
48
1
60
0
100
AcDbSpline
70
4
71
3
72
10
73
6
40
0
40
0
40
0
40
0
40
0.0323957404633494
40
0.597014652345626
40
1
40
1
40
1
40
1
41
1
10
79.9208737139053
20
-0.497878334174544
30
0
41
1
10
79.9184816755705
20
-0.45436367728314
30
0
41
1
10
79.8744606843515
20
0.347368382257372
30
0
41
1
10
79.802913334778
20
1.6699856723063
30
0
41
1
10
79.737404235289
20
2.72069817305444
30
0
41
1
10
79.7107274679857
20
3.10727720223463
30
0
0
SPLINE
5
F7
100
AcDbEntity
8
1
62
256
6
ByLayer
370
13
48
1
60
0
100
AcDbSpline
70
4
71
3
72
10
73
6
40
0
40
0
40
0
40
0
40
0.401338086234191
40
0.862428597772905
40
1
40
1
40
1
40
1
41
1
10
69.4974394733245
20
-1.85489597362837
30
0
41
1
10
69.4685800173392
20
-1.36368396577191
30
0
41
1
10
69.4074934779932
20
-0.259301143327917
30
0
41
1
10
69.338122680999
20
1.0190428579663
30
0
41
1
10
69.2974578306527
20
1.72323096411742
30
0
41
1
10
69.2881527137692
20
1.88125921032852
30
0
0
SPLINE
5
F8
100
AcDbEntity
8
1
62
256
6
ByLayer
370
13
48
1
60
0
100
AcDbSpline
70
4
71
3
72
11
73
7
40
0
40
0
40
0
40
0
40
0.169883171402651
40
0.619428022483562
40
0.93448707121742
40
1
40
1
40
1
40
1
41
1.04
10
72.7156310469365
20
-4.0949328126998
30
0
41
1.04
10
72.7032820090853
20
-3.96096643015393
30
0
41
1.04
10
72.6583054566208
20
-3.42948452002418
30
0
41
1.04
10
72.591500157149
20
-2.42092645918815
30
0
41
1.04
10
72.5353720528708
20
-1.44785732350926
30
0
41
1.04
10
72.5103875038097
20
-1.0002967984751
30
0
41
1.04
10
72.5061086933271
20
-0.923307476934098
30
0
0
SPLINE
5
F9
100
AcDbEntity
8
1
62
256
6
ByLayer
370
13
48
1
60
0
100
AcDbSpline
70
4
71
3
72
11
73
7
40
0
40
0
40
0
40
0
40
0.242588066645369
40
0.549138056235323
40
0.998709243315894
40
1
40
1
40
1
40
1
41
1.04
10
70.8762054730241
20
-2.93100559943776
30
0
41
1.04
10
70.8598848074014
20
-2.68740946323473
30
0
41
1.04
10
70.8226140960378
20
-2.09726061382506
30
0
41
1.04
10
70.7531817083386
20
-0.884167888746829
30
0
41
1.04
10
70.6995387063518
20
0.109235081328325
30
0
41
1.04
10
70.6669716355907
20
0.698636209579051
30
0
41
1.04
10
70.6668783952767
20
0.700323568264347
30
0
0
SPLINE
5
FA
100
AcDbEntity
8
1
62
256
6
ByLayer
370
13
48
1
60
0
100
AcDbSpline
70
4
71
3
72
9
73
5
40
0
40
0
40
0
40
0
40
0.483969883439922
40
1
40
1
40
1
40
1
41
1.04
10
79.4601789984745
20
-0.0887102874442619
30
0
41
1.04
10
79.4244016428054
20
0.564748643734976
30
0
41
1.04
10
79.3523128235948
20
1.88550457702677
30
0
41
1.04
10
79.2842918841808
20
2.95762607832007
30
0
41
1.04
10
79.2501893855573
20
3.419936799375
30
0
0
SPLINE
5
FB
100
AcDbEntity
8
1
62
256
6
ByLayer
370
13
48
1
60
0
100
AcDbSpline
70
4
71
3
72
10
73
6
40
0
40
0
40
0
40
0
40
0.357240691413179
40
0.661244917259914
40
1
40
1
40
1
40
1
41
1
10
71.336890755268
20
-3.25609428553227
30
0
41
1
10
71.3128513927072
20
-2.91851334239485
30
0
41
1
10
71.2678318340033
20
-2.21997932766766
30
0
41
1
10
71.1977275292277
20
-0.993339235743207
30
0
41
1
10
71.1519439825057
20
-0.151887246416948
30
0
41
1
10
71.1274892693755
20
0.294069155010675
30
0
0
SPLINE
5
FC
100
AcDbEntity
8
1
62
256
6
ByLayer
370
18
48
1
60
0
100
AcDbSpline
70
4
71
3
72
8
73
4
40
0
40
0
40
0
40
0
40
1
40
1
40
1
40
1
41
1
10
78.8744378895277
20
0.245913265038354
30
0
41
1
10
78.8675130642061
20
0.395498777561301
30
0
41
1
10
78.8606320752008
20
0.544027063788661
30
0
41
1
10
78.8537977518023
20
0.691524488437921
30
0
0
SPLINE
5
FD
100
AcDbEntity
8
1
62
256
6
ByLayer
370
18
48
1
60
0
100
AcDbSpline
70
4
71
3
72
33
73
29
40
0
40
0
40
0
40
0
40
0.0624999999999999
40
0.0624999999999999
40
0.0937500000000003
40
0.0937500000000003
40
0.125000000000001
40
0.125000000000001
40
0.250000000000001
40
0.250000000000001
40
0.375000000000001
40
0.375000000000001
40
0.437500000000001
40
0.437500000000001
40
0.468750000000001
40
0.468750000000001
40
0.500000000000001
40
0.500000000000001
40
0.625000000000001
40
0.625000000000001
40
0.75
40
0.75
40
0.875
40
0.875
40
0.90625
40
0.90625
40
0.9375
40
1
40
1
40
1
40
1
41
1
10
78.4617262550501
20
4.76132122440822
30
0
41
1
10
78.4665072333989
20
4.69616187908738
30
0
41
1
10
78.4713057344978
20
4.62869496963614
30
0
41
1
10
78.4785451366506
20
4.52396059214527
30
0
41
1
10
78.4809656463314
20
4.48845162275987
30
0
41
1
10
78.485794392297
20
4.41667261145395
30
0
41
1
10
78.4882061928657
20
4.38035155256981
30
0
41
1
10
78.5002578295793
20
4.19661205350147
30
0
41
1
10
78.5098875364328
20
4.04280881575636
30
0
41
1
10
78.5291473647161
20
3.72189095744702
30
0
41
1
10
78.5387643649738
20
3.55477535798221
30
0
41
1
10
78.5531974898782
20
3.29402854825562
30
0
41
1
10
78.5580106469573
20
3.20543078615324
30
0
41
1
10
78.5652435428075
20
3.06996919751376
30
0
41
1
10
78.5676567421561
20
3.02438762316209
30
0
41
1
10
78.5724897260272
20
2.93235933753164
30
0
41
1
10
78.574911011441
20
2.88588254843165
30
0
41
1
10
78.5869692982528
20
2.65268207120624
30
0
41
1
10
78.5965160465847
20
2.4624960690798
30
0
41
1
10
78.6155715756045
20
2.0751054380423
30
0
41
1
10
78.6250815415304
20
1.87790027435557
30
0
41
1
10
78.6442071127346
20
1.47647333004139
30
0
41
1
10
78.6538240430621
20
1.27225224937655
30
0
41
1
10
78.6659650969297
20
1.01244833110184
30
0
41
1
10
78.6684015027815
20
0.960209225948802
30
0
41
1
10
78.6732580133825
20
0.855864676406895
30
0
41
1
10
78.6805273504585
20
0.699357784113687
30
0
41
1
10
78.6877505596333
20
0.542880316420764
30
0
41
1
10
78.6925494968565
20
0.438575040905761
30
0
0
SPLINE
5
FE
100
AcDbEntity
8
1
62
256
6
ByLayer
370
13
48
1
60
0
100
AcDbSpline
70
4
71
3
72
9
73
5
40
0
40
0
40
0
40
0
40
0.678316937876244
40
1
40
1
40
1
40
1
41
1
10
78.0814770656516
20
1.12644028971778
30
0
41
1
10
78.0313767865824
20
2.01862196755201
30
0
41
1
10
77.9609069388442
20
3.18806193422742
30
0
41
1
10
77.8930556506576
20
3.99917699499335
30
0
41
1
10
77.8713966894359
20
4.22030236455936
30
0
0
SPLINE
5
FF
100
AcDbEntity
8
1
62
256
6
ByLayer
370
18
48
1
60
0
100
AcDbSpline
70
4
71
3
72
30
73
26
40
0
40
0
40
0
40
0
40
0.125
40
0.125
40
0.25
40
0.25
40
0.3125
40
0.3125
40
0.343749999999999
40
0.343749999999999
40
0.374999999999999
40
0.374999999999999
40
0.5
40
0.5
40
0.625
40
0.625
40
0.6875
40
0.6875
40
0.71875
40
0.71875
40
0.75
40
0.75
40
0.875
40
0.875
40
1
40
1
40
1
40
1
41
1
10
69.6472424484392
20
1.86608068658879
30
0
41
1
10
69.657434480023
20
1.68559371079093
30
0
41
1
10
69.6676195622132
20
1.50270137991959
30
0
41
1
10
69.6880215531392
20
1.13216796259414
30
0
41
1
10
69.6982132033637
20
0.944524760336748
30
0
41
1
10
69.7135032833241
20
0.659430731887454
30
0
41
1
10
69.7186017949884
20
0.563793501072297
30
0
41
1
10
69.7262664012862
20
0.419410940405669
30
0
41
1
10
69.7288230280942
20
0.371149948768903
30
0
41
1
10
69.7339160978742
20
0.274869934734937
30
0
41
1
10
69.7364561560394
20
0.22678290681722
30
0
41
1
10
69.7491336018697
20
-0.0133897193540236
30
0
41
1
10
69.7591999059812
20
-0.204689907912439
30
0
41
1
10
69.779476989624
20
-0.585639811179391
30
0
41
1
10
69.7896751624577
20
-0.775290004580143
30
0
41
1
10
69.8050182969566
20
-1.0585204607535
30
0
41
1
10
69.8101411618736
20
-1.15272272023645
30
0
41
1
10
69.8178398638983
20
-1.29370940904175
30
0
41
1
10
69.8204085457951
20
-1.34065216081214
30
0
41
1
10
69.8255516375424
20
-1.43443088703933
30
0
41
1
10
69.828129519473
20
-1.48132976265822
30
0
41
1
10
69.8409841984541
20
-1.71461057604574
30
0
41
1
10
69.8511547987625
20
-1.89736665379789
30
0
41
1
10
69.8713870943707
20
-2.25534886745447
30
0
41
1
10
69.8814495746648
20
-2.43057451473135
30
0
41
1
10
69.8915353025697
20
-2.60202256805982
30
0
0
SPLINE
5
100
100
AcDbEntity
8
1
62
256
6
ByLayer
370
18
48
1
60
0
100
AcDbSpline
70
4
71
3
72
30
73
26
40
0
40
0
40
0
40
0
40
0.125000000000001
40
0.125000000000001
40
0.250000000000001
40
0.250000000000001
40
0.312500000000002
40
0.312500000000002
40
0.343750000000002
40
0.343750000000002
40
0.375000000000002
40
0.375000000000002
40
0.500000000000003
40
0.500000000000003
40
0.625000000000003
40
0.625000000000003
40
0.687500000000003
40
0.687500000000003
40
0.718750000000003
40
0.718750000000003
40
0.750000000000003
40
0.750000000000003
40
0.875000000000001
40
0.875000000000001
40
1
40
1
40
1
40
1
41
1
10
70.4524491922539
20
-3.14647675605067
30
0
41
1
10
70.4438866483314
20
-2.98273673934244
30
0
41
1
10
70.435344647274
20
-2.81454992855205
30
0
41
1
10
70.4181590933562
20
-2.46939449665774
30
0
41
1
10
70.4094979534158
20
-2.2924256230767
30
0
41
1
10
70.3964618504015
20
-2.02027382453804
30
0
41
1
10
70.392110348517
20
-1.92843808981874
30
0
41
1
10
70.385571856765
20
-1.78897270627991
30
0
41
1
10
70.3833884575682
20
-1.74215713046266
30
0
41
1
10
70.3790400736263
20
-1.64847117186372
30
0
41
1
10
70.37687238066
20
-1.60154350642287
30
0
41
1
10
70.3660596338712
20
-1.36648647773057
30
0
41
1
10
70.3574843150193
20
-1.17710441119081
30
0
41
1
10
70.3402989393642
20
-0.795735561152895
30
0
41
1
10
70.3317066610045
20
-0.603748232536987
30
0
41
1
10
70.3187717406922
20
-0.31380208171953
30
0
41
1
10
70.3144520220731
20
-0.216825239509887
30
0
41
1
10
70.3079518535497
20
-0.0708608308391376
30
0
41
1
10
70.3057816829855
20
-0.0221227968741005
30
0
41
1
10
70.3014328592774
20
0.0755213943536717
30
0
41
1
10
70.2992528817205
20
0.124457251837185
30
0
41
1
10
70.2883418199108
20
0.369242147905822
30
0
41
1
10
70.2796689806598
20
0.563340094085476
30
0
41
1
10
70.2623348233967
20
0.948159405179865
30
0
41
1
10
70.2536800295037
20
1.13888104055368
30
0
41
1
10
70.2450201195489
20
1.32790617576703
30
0
0
SPLINE
5
101
100
AcDbEntity
8
1
62
256
6
ByLayer
370
18
48
1
60
0
100
AcDbSpline
70
4
71
3
72
12
73
8
40
0
40
0
40
0
40
0
40
0.500000000000008
40
0.500000000000008
40
0.750000000000004
40
0.750000000000004
40
1
40
1
40
1
40
1
41
1
10
72.715631046936
20
-4.09493281269511
30
0
41
1
10
72.6200365998922
20
-4.20057911939296
30
0
41
1
10
72.5250100075886
20
-4.29997647606476
30
0
41
1
10
72.3834747852504
20
-4.43941348917286
30
0
41
1
10
72.3364559665242
20
-4.48428507247803
30
0
41
1
10
72.2428522680037
20
-4.57070409628406
30
0
41
1
10
72.1962456029462
20
-4.61227501833559
30
0
41
1
10
72.1498041598577
20
-4.65224059704928
30
0
0
SPLINE
5
102
100
AcDbEntity
8
1
62
256
6
ByLayer
370
18
48
1
60
0
100
AcDbSpline
70
4
71
3
72
14
73
10
40
0
40
0
40
0
40
0
40
0.25
40
0.25
40
0.499999999999999
40
0.499999999999999
40
0.75
40
0.75
40
1
40
1
40
1
40
1
41
1
10
71.9063146796166
20
-4.45352546213041
30
0
41
1
10
71.85952381368
20
-4.35284100344498
30
0
41
1
10
71.8125818668827
20
-4.25230767043553
30
0
41
1
10
71.7183373687456
20
-4.05157196909383
30
0
41
1
10
71.6710194586712
20
-3.95133744894605
30
0
41
1
10
71.576097450651
20
-3.75151542729245
30
0
41
1
10
71.5284678811523
20
-3.65187400715405
30
0
41
1
10
71.4329068184667
20
-3.45336445732377
30
0
41
1
10
71.3849855973625
20
-3.3545158266023
30
0
41
1
10
71.3368907552681
20
-3.25609428553386
30
0
0
SPLINE
5
103
100
AcDbEntity
8
1
62
256
6
ByLayer
370
18
48
1
60
0
100
AcDbSpline
70
4
71
3
72
32
73
28
40
0
40
0
40
0
40
0
40
0.125000000000071
40
0.125000000000071
40
0.187500000000106
40
0.187500000000106
40
0.250000000000141
40
0.250000000000141
40
0.375000000000172
40
0.375000000000172
40
0.437500000000187
40
0.437500000000187
40
0.500000000000202
40
0.500000000000202
40
0.625000000000188
40
0.625000000000188
40
0.687500000000157
40
0.687500000000157
40
0.750000000000126
40
0.750000000000126
40
0.812500000000094
40
0.812500000000094
40
0.875000000000063
40
0.875000000000063
40
0.937500000000032
40
0.937500000000032
40
1
40
1
40
1
40
1
41
1
10
71.3368907552681
20
-3.25609428553386
30
0
41
1
10
71.324383173311
20
-3.23049870318744
30
0
41
1
10
71.3098781710036
20
-3.20601716089877
30
0
41
1
10
71.2858322816466
20
-3.17057444522459
30
0
41
1
10
71.2774249106861
20
-3.15897590617547
30
0
41
1
10
71.2598792381042
20
-3.13620128769873
30
0
41
1
10
71.2508614454597
20
-3.12518094713707
30
0
41
1
10
71.2231406333431
20
-3.09312279762796
30
0
41
1
10
71.2037775994881
20
-3.07307596191853
30
0
41
1
10
71.1735016339538
20
-3.04488166433771
30
0
41
1
10
71.1632023891912
20
-3.03579943766749
30
0
41
1
10
71.142180876432
20
-3.01828666190141
30
0
41
1
10
71.1315540466746
20
-3.0099380849943
30
0
41
1
10
71.0995681677421
20
-2.98629365325914
30
0
41
1
10
71.0780097258223
20
-2.97229644926494
30
0
41
1
10
71.0453430713281
20
-2.95425056330191
30
0
41
1
10
71.0343988945434
20
-2.94873161221267
30
0
41
1
10
71.0123961221375
20
-2.93882335586733
30
0
41
1
10
71.0013819566256
20
-2.93446239839065
30
0
41
1
10
70.9798022341174
20
-2.92724135840734
30
0
41
1
10
70.9691745752768
20
-2.92435051681764
30
0
41
1
10
70.9483055516113
20
-2.92022896841544
30
0
41
1
10
70.9379886059693
20
-2.91900114178398
30
0
41
1
10
70.9184043533622
20
-2.91859241553777
30
0
41
1
10
70.9090961811908
20
-2.91938765681886
30
0
41
1
10
70.8916192857188
20
-2.92332891663634
30
0
41
1
10
70.8834343858852
20
-2.92650772434291
30
0
41
1
10
70.8762054730286
20
-2.93100559943235
30
0
0
SPLINE
5
104
100
AcDbEntity
8
1
62
256
6
ByLayer
370
18
48
1
60
0
100
AcDbSpline
70
4
71
3
72
10
73
6
40
0
40
0
40
0
40
0
40
0.5
40
0.5
40
1
40
1
40
1
40
1
41
1
10
70.8762054730244
20
-2.9310055994435
30
0
41
1
10
70.8048921962475
20
-2.97537716921997
30
0
41
1
10
70.7338959616526
20
-3.0155053204011
30
0
41
1
10
70.5926054626962
20
-3.0873194724341
30
0
41
1
10
70.5222984476879
20
-3.11901129402676
30
0
41
1
10
70.4524491922659
20
-3.14647675604067
30
0
0
SPLINE
5
105
100
AcDbEntity
8
1
62
256
6
ByLayer
370
18
48
1
60
0
100
AcDbSpline
70
4
71
3
72
8
73
4
40
0
40
0
40
0
40
0
40
1
40
1
40
1
40
1
41
1
10
70.4524491922618
20
-3.14647675605346
30
0
41
1
10
70.2662801242608
20
-2.96859392129221
30
0
41
1
10
70.0794648197132
20
-2.78697494058145
30
0
41
1
10
69.8915353025698
20
-2.60202256805985
30
0
0
SPLINE
5
106
100
AcDbEntity
8
1
62
256
6
ByLayer
370
18
48
1
60
0
100
AcDbSpline
70
4
71
3
72
10
73
6
40
0
40
0
40
0
40
0
40
0.5
40
0.5
40
1
40
1
40
1
40
1
41
1
10
69.8915353025697
20
-2.60202256805982
30
0
41
1
10
69.8264632660182
20
-2.47389430129789
30
0
41
1
10
69.7610716268834
20
-2.34740403232908
30
0
41
1
10
69.629686470434
20
-2.09818490672424
30
0
41
1
10
69.563720147856
20
-1.97550291183762
30
0
41
1
10
69.4974394733245
20
-1.85489597362837
30
0
0
SPLINE
5
107
100
AcDbEntity
8
1
62
256
6
ByLayer
370
18
48
1
60
0
100
AcDbSpline
70
4
71
3
72
32
73
28
40
0
40
0
40
0
40
0
40
0.125000000000026
40
0.125000000000026
40
0.187500000000039
40
0.187500000000039
40
0.250000000000052
40
0.250000000000052
40
0.375000000000079
40
0.375000000000079
40
0.437500000000071
40
0.437500000000071
40
0.500000000000063
40
0.500000000000063
40
0.625000000000048
40
0.625000000000048
40
0.68750000000004
40
0.68750000000004
40
0.750000000000032
40
0.750000000000032
40
0.812500000000024
40
0.812500000000024
40
0.875000000000016
40
0.875000000000016
40
0.937500000000008
40
0.937500000000008
40
1
40
1
40
1
40
1
41
1
10
69.4974394733245
20
-1.85489597362837
30
0
41
1
10
69.4849308412432
20
-1.83213477170685
30
0
41
1
10
69.4704241389459
20
-1.80957903912963
30
0
41
1
10
69.4463751138472
20
-1.77600357007106
30
0
41
1
10
69.4379665479084
20
-1.76485278160061
30
0
41
1
10
69.4204185293886
20
-1.74264304718432
30
0
41
1
10
69.4113995708234
20
-1.73173607262956
30
0
41
1
10
69.383675400553
20
-1.69955362077226
30
0
41
1
10
69.3643103133027
20
-1.67881078136213
30
0
41
1
10
69.334031986368
20
-1.64868431358923
30
0
41
1
10
69.3237320741441
20
-1.63880838395636
30
0
41
1
10
69.3027095443613
20
-1.61939431076965
30
0
41
1
10
69.2920830600072
20
-1.60994667659227
30
0
41
1
10
69.2600978032688
20
-1.58257427310377
30
0
41
1
10
69.2385404155288
20
-1.56551760489697
30
0
41
1
10
69.2058763789192
20
-1.54188842534401
30
0
41
1
10
69.1949332464503
20
-1.53434108002244
30
0
41
1
10
69.1729329024784
20
-1.51998897387966
30
0
41
1
10
69.1619214430944
20
-1.51321972474562
30
0
41
1
10
69.1403461802975
20
-1.5008616550283
30
0
41
1
10
69.1297206603223
20
-1.49523068300388
30
0
41
1
10
69.1088555762396
20
-1.48522870782003
30
0
41
1
10
69.0985405874948
20
-1.48083356458929
30
0
41
1
10
69.0789597993107
20
-1.47378902230713
30
0
41
1
10
69.0696528999296
20
-1.47110921712581
30
0
41
1
10
69.0521775916126
20
-1.46773083442932
30
0
41
1
10
69.0439930068064
20
-1.467048658972
30
0
41
1
10
69.0367638813453
20
-1.46759084867358
30
0
0
SPLINE
5
108
100
AcDbEntity
8
1
62
256
6
ByLayer
370
18
48
1
60
0
100
AcDbSpline
70
4
71
3
72
8
73
4
40
0
40
0
40
0
40
0
40
1
40
1
40
1
40
1
41
1
10
69.0367638813401
20
-1.46759084867855
30
0
41
1
10
68.9421659371594
20
-1.47468576374752
30
0
41
1
10
68.8481261396673
20
-1.47371808207407
30
0
41
1
10
68.7547358289613
20
-1.46497709757549
30
0
0
SPLINE
5
109
100
AcDbEntity
8
1
62
256
6
ByLayer
370
18
48
1
60
0
100
AcDbSpline
70
4
71
3
72
10
73
6
40
0
40
0
40
0
40
0
40
0.5
40
0.5
40
1
40
1
40
1
40
1
41
1
10
68.7547358289613
20
-1.46497709757549
30
0
41
1
10
68.6087640076977
20
-1.31781020549758
30
0
41
1
10
68.4627592763915
20
-1.17064014659638
30
0
41
1
10
68.1701290484744
20
-0.876852776648576
30
0
41
1
10
68.0235392294636
20
-0.730199656407649
30
0
41
1
10
67.876510285487
20
-0.583952787966581
30
0
0
SPLINE
5
10A
100
AcDbEntity
8
1
62
256
6
ByLayer
370
18
48
1
60
0
100
AcDbSpline
70
4
71
3
72
8
73
4
40
0
40
0
40
0
40
0
40
1
40
1
40
1
40
1
41
1
10
67.8765102854924
20
-0.58395278796948
30
0
41
1
10
67.8040552286437
20
-0.473733355252506
30
0
41
1
10
67.7312733001554
20
-0.367112772797697
30
0
41
1
10
67.6580552997244
20
-0.264193306452825
30
0
0
SPLINE
5
10B
100
AcDbEntity
8
1
62
256
6
ByLayer
370
18
48
1
60
0
100
AcDbSpline
70
4
71
3
72
32
73
28
40
0
40
0
40
0
40
0
40
0.125000000000028
40
0.125000000000028
40
0.187500000000042
40
0.187500000000042
40
0.250000000000056
40
0.250000000000056
40
0.375000000000046
40
0.375000000000046
40
0.437500000000042
40
0.437500000000042
40
0.500000000000037
40
0.500000000000037
40
0.625000000000028
40
0.625000000000028
40
0.687500000000023
40
0.687500000000023
40
0.750000000000018
40
0.750000000000018
40
0.812500000000014
40
0.812500000000014
40
0.875000000000009
40
0.875000000000009
40
0.937500000000005
40
0.937500000000005
40
1
40
1
40
1
40
1
41
1
10
67.6580552997225
20
-0.264193306447936
30
0
41
1
10
67.645541879151
20
-0.246603717005627
30
0
41
1
10
67.6310290634805
20
-0.228290409482525
30
0
41
1
10
67.6069701712213
20
-0.200031454742174
30
0
41
1
10
67.598558265014
20
-0.1904742740426
30
0
41
1
10
67.5810030913844
20
-0.171111364730365
30
0
41
1
10
67.571980656392
20
-0.16143859725716
30
0
41
1
10
67.5442465558533
20
-0.132439574888508
30
0
41
1
10
67.5248755095988
20
-0.113133417970943
30
0
41
1
10
67.4945899825473
20
-0.0841733046544562
30
0
41
1
10
67.4842879603003
20
-0.0745196020650667
30
0
41
1
10
67.4632619351597
20
-0.0552017528696922
30
0
41
1
10
67.4526344083283
20
-0.0456270905323493
30
0
41
1
10
67.4206464692978
20
-0.0173437507057201
30
0
41
1
10
67.3990885680271
20
0.0010162685633475
30
0
41
1
10
67.3664260166364
20
0.0277944083674129
30
0
41
1
10
67.3554837556457
20
0.0365923212939663
30
0
41
1
10
67.3334859843028
20
0.0539084123800819
30
0
41
1
10
67.3224770652326
20
0.0623874543196052
30
0
41
1
10
67.3009064978732
20
0.0786065408214824
30
0
41
1
10
67.2902834376648
20
0.086395743818457
30
0
41
1
10
67.2694234551118
20
0.10124339432889
30
0
41
1
10
67.2591111647901
20
0.10835049670726
30
0
41
1
10
67.2395352648431
20
0.121299579548975
30
0
41
1
10
67.230230631503
20
0.127175315768028
30
0
41
1
10
67.212759444089
20
0.137519046942657
30
0
41
1
10
67.2045763379734
20
0.141988866807935
30
0
41
1
10
67.1973480771809
20
0.145455502178294
30
0
0
SPLINE
5
10C
100
AcDbEntity
8
1
62
256
6
ByLayer
370
18
48
1
60
0
100
AcDbSpline
70
4
71
3
72
8
73
4
40
0
40
0
40
0
40
0
40
1
40
1
40
1
40
1
41
1
10
67.1973480771771
20
0.145455502170591
30
0
41
1
10
67.1504781519781
20
0.167934068613107
30
0
41
1
10
67.1037596477838
20
0.192329977487958
30
0
41
1
10
67.05717038195
20
0.218606358709621
30
0
0
SPLINE
5
10D
100
AcDbEntity
8
1
62
256
6
ByLayer
370
18
48
1
60
0
100
AcDbSpline
70
4
71
3
72
8
73
4
40
0
40
0
40
0
40
0
40
1
40
1
40
1
40
1
41
1
10
67.05717038195
20
0.218606358709621
30
0
41
1
10
67.0381296652779
20
0.236893949961626
30
0
41
1
10
67.0190730887387
20
0.255166167457787
30
0
41
1
10
67
20
0.273422355711944
30
0
0
SPLINE
5
10E
100
AcDbEntity
8
1
62
256
6
ByLayer
370
18
48
1
60
0
100
AcDbSpline
70
4
71
3
72
8
73
4
40
0
40
0
40
0
40
0
40
1
40
1
40
1
40
1
41
1
10
67
20
-5.13937805721906
30
0
41
1
10
67.1421470319719
20
-5.19175003699775
30
0
41
1
10
67.2833949148255
20
-5.23966248641025
30
0
41
1
10
67.4238268214271
20
-5.2831207421182
30
0
0
SPLINE
5
10F
100
AcDbEntity
8
1
62
256
6
ByLayer
370
18
48
1
60
0
100
AcDbSpline
70
4
71
3
72
8
73
4
40
0
40
0
40
0
40
0
40
1
40
1
40
1
40
1
41
1
10
67.4238268214272
20
-5.28312074211829
30
0
41
1
10
67.4827015084192
20
-5.20264586801252
30
0
41
1
10
67.5418467646743
20
-5.11994430883453
30
0
41
1
10
67.6013200513187
20
-5.0349967943506
30
0
0
SPLINE
5
110
100
AcDbEntity
8
1
62
256
6
ByLayer
370
18
48
1
60
0
100
AcDbSpline
70
4
71
3
72
32
73
28
40
0
40
0
40
0
40
0
40
0.124999999999993
40
0.124999999999993
40
0.18749999999999
40
0.18749999999999
40
0.249999999999986
40
0.249999999999986
40
0.375000000000019
40
0.375000000000019
40
0.437500000000036
40
0.437500000000036
40
0.500000000000053
40
0.500000000000053
40
0.625000000000041
40
0.625000000000041
40
0.687500000000034
40
0.687500000000034
40
0.750000000000027
40
0.750000000000027
40
0.81250000000002
40
0.81250000000002
40
0.875000000000013
40
0.875000000000013
40
0.937500000000007
40
0.937500000000007
40
1
40
1
40
1
40
1
41
1
10
67.6013200513187
20
-5.0349967943506
30
0
41
1
10
67.6142380087231
20
-5.01654568065516
30
0
41
1
10
67.6292675865294
20
-5.00136673580155
30
0
41
1
10
67.6541503650223
20
-4.98217602645749
30
0
41
1
10
67.6628448097142
20
-4.9763927629941
30
0
41
1
10
67.6809830924217
20
-4.96597724172176
30
0
41
1
10
67.6902932954397
20
-4.96142211427247
30
0
41
1
10
67.7188195492794
20
-4.94954411595461
30
0
41
1
10
67.7386472095017
20
-4.94397262108771
30
0
41
1
10
67.7694785863976
20
-4.93890411089217
30
0
41
1
10
67.7799661360021
20
-4.93776786686877
30
0
41
1
10
67.8011915010323
20
-4.93664436568872
30
0
41
1
10
67.8118428962073
20
-4.93665862498901
30
0
41
1
10
67.8438973323367
20
-4.93841484967299
30
0
41
1
10
67.8653998616737
20
-4.94184234906589
30
0
41
1
10
67.8978066611534
20
-4.95076679493107
30
0
41
1
10
67.9086821744988
20
-4.95439799523251
30
0
41
1
10
67.9302520693247
20
-4.96301337459988
30
0
41
1
10
67.9408840412131
20
-4.96796621027707
30
0
41
1
10
67.9618062923234
20
-4.97927471124396
30
0
41
1
10
67.9720969429013
20
-4.98562879690974
30
0
41
1
10
67.99227801456
20
-4.99994964788604
30
0
41
1
10
68.0022216024133
20
-5.00797472772447
30
0
41
1
10
68.0210767679087
20
-5.02547207307549
30
0
41
1
10
68.0300454209511
20
-5.03497129083792
30
0
41
1
10
68.0469105738252
20
-5.05572452661534
30
0
41
1
10
68.0548475845539
20
-5.06705734741095
30
0
41
1
10
68.0619261866386
20
-5.07916643854054
30
0
0
SPLINE
5
111
100
AcDbEntity
8
1
62
256
6
ByLayer
370
18
48
1
60
0
100
AcDbSpline
70
4
71
3
72
10
73
6
40
0
40
0
40
0
40
0
40
0.5
40
0.5
40
1
40
1
40
1
40
1
41
1
10
68.0619261866386
20
-5.07916643854045
30
0
41
1
10
68.1033360904228
20
-5.15000476121912
30
0
41
1
10
68.1445798475109
20
-5.22043905527335
30
0
41
1
10
68.2267712934201
20
-5.36048619941002
30
0
41
1
10
68.2677153799308
20
-5.43009139736941
30
0
41
1
10
68.3085369676696
20
-5.49929404766252
30
0
0
SPLINE
5
112
100
AcDbEntity
8
1
62
256
6
ByLayer
370
18
48
1
60
0
100
AcDbSpline
70
4
71
3
72
12
73
8
40
0
40
0
40
0
40
0
40
0.250000000000007
40
0.250000000000007
40
0.500000000000013
40
0.500000000000013
40
1
40
1
40
1
40
1
41
1
10
68.3085369676641
20
-5.49929404766778
30
0
41
1
10
68.3759235160668
20
-5.51120366293208
30
0
41
1
10
68.443327274021
20
-5.5220201926094
30
0
41
1
10
68.5780021068062
20
-5.54144188160404
30
0
41
1
10
68.6453055198493
20
-5.55005017244454
30
0
41
1
10
68.8471666909898
20
-5.57255465072015
30
0
41
1
10
68.9816832880256
20
-5.58313544570143
30
0
41
1
10
69.116204390859
20
-5.58921783882201
30
0
0
SPLINE
5
113
100
AcDbEntity
8
1
62
256
6
ByLayer
370
18
48
1
60
0
100
AcDbSpline
70
4
71
3
72
8
73
4
40
0
40
0
40
0
40
0
40
1
40
1
40
1
40
1
41
1
10
69.116204390859
20
-5.58921783882201
30
0
41
1
10
69.2233856991613
20
-5.40293776767783
30
0
41
1
10
69.3313909484188
20
-5.21188505775771
30
0
41
1
10
69.4405514100077
20
-5.01620744265531
30
0
0
SPLINE
5
114
100
AcDbEntity
8
1
62
256
6
ByLayer
370
18
48
1
60
0
100
AcDbSpline
70
4
71
3
72
32
73
28
40
0
40
0
40
0
40
0
40
0.125
40
0.125
40
0.1875
40
0.1875
40
0.25
40
0.25
40
0.374999999999999
40
0.374999999999999
40
0.437499999999999
40
0.437499999999999
40
0.499999999999999
40
0.499999999999999
40
0.625
40
0.625
40
0.6875
40
0.6875
40
0.75
40
0.75
40
0.8125
40
0.8125
40
0.875
40
0.875
40
0.9375
40
0.9375
40
1
40
1
40
1
40
1
41
1
10
69.4405514100077
20
-5.01620744265531
30
0
41
1
10
69.4534770966775
20
-4.9930372626809
30
0
41
1
10
69.468517491881
20
-4.9727613218995
30
0
41
1
10
69.4934203576374
20
-4.94551965237955
30
0
41
1
10
69.5021221709782
20
-4.93698297844139
30
0
41
1
10
69.520276629998
20
-4.92092961133716
30
0
41
1
10
69.5295966141059
20
-4.91353078612553
30
0
41
1
10
69.558148661177
20
-4.89307431004073
30
0
41
1
10
69.5779925712141
20
-4.88171137068275
30
0
41
1
10
69.6088461584775
20
-4.86783772316701
30
0
41
1
10
69.6193426904077
20
-4.86373835859496
30
0
41
1
10
69.6405756361568
20
-4.85668006390591
30
0
41
1
10
69.6512302414735
20
-4.85374487190757
30
0
41
1
10
69.6832924582077
20
-4.84669997710563
30
0
41
1
10
69.704797679051
20
-4.84432256554851
30
0
41
1
10
69.7372048128926
20
-4.84461633914961
30
0
41
1
10
69.7480828998479
20
-4.84537164479408
30
0
41
1
10
69.7696341906175
20
-4.84831561739614
30
0
41
1
10
69.7802564596565
20
-4.85049012289045
30
0
41
1
10
69.8011587258331
20
-4.85636269646119
30
0
41
1
10
69.811439070783
20
-4.86005903432707
30
0
41
1
10
69.8315989002131
20
-4.8691995598094
30
0
41
1
10
69.8415293049047
20
-4.87468772165749
30
0
41
1
10
69.8603559527888
20
-4.88740637609303
30
0
41
1
10
69.8693109331005
20
-4.89465011132293
30
0
41
1
10
69.8861504612155
20
-4.91120475646213
30
0
41
1
10
69.8940751969723
20
-4.92058434722753
30
0
41
1
10
69.9011441165944
20
-4.93098400295398
30
0
0
SPLINE
5
115
100
AcDbEntity
8
1
62
256
6
ByLayer
370
18
48
1
60
0
100
AcDbSpline
70
4
71
3
72
10
73
6
40
0
40
0
40
0
40
0
40
0.5
40
0.5
40
1
40
1
40
1
40
1
41
1
10
69.9011441165944
20
-4.9309840029542
30
0
41
1
10
69.971223236272
20
-5.03408302758695
30
0
41
1
10
70.0408337246178
20
-5.13478161814862
30
0
41
1
10
70.1792994750818
20
-5.33136073208814
30
0
41
1
10
70.248194600896
20
-5.42729379282235
30
0
41
1
10
70.3165716851738
20
-5.52047394042188
30
0
0
SPLINE
5
116
100
AcDbEntity
8
1
62
256
6
ByLayer
370
18
48
1
60
0
100
AcDbSpline
70
4
71
3
72
12
73
8
40
0
40
0
40
0
40
0
40
0.25
40
0.25
40
0.5
40
0.5
40
1
40
1
40
1
40
1
41
1
10
70.3165716851694
20
-5.52047394042836
30
0
41
1
10
70.357819338723
20
-5.51372912559646
30
0
41
1
10
70.3989784915623
20
-5.50653035735053
30
0
41
1
10
70.4812603237843
20
-5.49128760829532
30
0
41
1
10
70.5223685814981
20
-5.48323770738003
30
0
41
1
10
70.6455489506032
20
-5.45778289686618
30
0
41
1
10
70.7275020244189
20
-5.43908390170401
30
0
41
1
10
70.8093671298925
20
-5.41869669163844
30
0
0
SPLINE
5
117
100
AcDbEntity
8
1
62
256
6
ByLayer
370
18
48
1
60
0
100
AcDbSpline
70
4
71
3
72
12
73
8
40
0
40
0
40
0
40
0
40
0.249999999999995
40
0.249999999999995
40
0.49999999999999
40
0.49999999999999
40
1
40
1
40
1
40
1
41
1
10
70.8093671298926
20
-5.41869669163856
30
0
41
1
10
70.8480204976833
20
-5.34202975543417
30
0
41
1
10
70.8868160587722
20
-5.26504998944893
30
0
41
1
10
70.9647254415282
20
-5.1104784767667
30
0
41
1
10
71.0038357968771
20
-5.03289310567206
30
0
41
1
10
71.1214781662517
20
-4.79967275319547
30
0
41
1
10
71.2003932940484
20
-4.64343133746354
30
0
41
1
10
71.2799417846345
20
-4.48648700085914
30
0
0
SPLINE
5
118
100
AcDbEntity
8
1
62
256
6
ByLayer
370
18
48
1
60
0
100
AcDbSpline
70
4
71
3
72
32
73
28
40
0
40
0
40
0
40
0
40
0.124999999999978
40
0.124999999999978
40
0.187499999999985
40
0.187499999999985
40
0.249999999999991
40
0.249999999999991
40
0.374999999999964
40
0.374999999999964
40
0.43749999999995
40
0.43749999999995
40
0.499999999999936
40
0.499999999999936
40
0.624999999999952
40
0.624999999999952
40
0.68749999999996
40
0.68749999999996
40
0.749999999999968
40
0.749999999999968
40
0.812499999999976
40
0.812499999999976
40
0.874999999999984
40
0.874999999999984
40
0.937499999999992
40
0.937499999999992
40
1
40
1
40
1
40
1
41
1
10
71.2799417846345
20
-4.48648700085914
30
0
41
1
10
71.2928703336354
20
-4.46097975953671
30
0
41
1
10
71.3079149025126
20
-4.4376844640646
30
0
41
1
10
71.332825167792
20
-4.40517423772374
30
0
41
1
10
71.3415296593387
20
-4.39475433982727
30
0
41
1
10
71.3596899130752
20
-4.37469592524158
30
0
41
1
10
71.3690136682714
20
-4.36520381389406
30
0
41
1
10
71.3975749362693
20
-4.33823800974127
30
0
41
1
10
71.417424269304
20
-4.32222485886126
30
0
41
1
10
71.4482846606578
20
-4.30092686224415
30
0
41
1
10
71.4587838937354
20
-4.29426945220899
30
0
41
1
10
71.4800184195453
20
-4.28196952880802
30
0
41
1
10
71.4906734973819
20
-4.27637012835444
30
0
41
1
10
71.5227361207387
20
-4.26119825263632
30
0
41
1
10
71.544240258131
20
-4.25322617183352
30
0
41
1
10
71.5766434587072
20
-4.24480759123733
30
0
41
1
10
71.5875208553929
20
-4.24259054336756
30
0
41
1
10
71.6090618460597
20
-4.23953365907897
30
0
41
1
10
71.6196786488094
20
-4.23869363092882
30
0
41
1
10
71.6405694028707
20
-4.23850287414558
30
0
41
1
10
71.6508436938217
20
-4.2391504368849
30
0
41
1
10
71.6709907809371
20
-4.24215070980515
30
0
41
1
10
71.6809138196387
20
-4.24452995014002
30
0
41
1
10
71.6997251849643
20
-4.25115265317302
30
0
41
1
10
71.7086726413212
20
-4.25539276212891
30
0
41
1
10
71.7254977570169
20
-4.26604317088757
30
0
41
1
10
71.7334157038845
20
-4.27250541947808
30
0
41
1
10
71.7404795670778
20
-4.28012832072761
30
0
0
SPLINE
5
119
100
AcDbEntity
8
1
62
256
6
ByLayer
370
18
48
1
60
0
100
AcDbSpline
70
4
71
3
72
8
73
4
40
0
40
0
40
0
40
0
40
1
40
1
40
1
40
1
41
1
10
71.7404795670777
20
-4.28012832072812
30
0
41
1
10
71.7948185570775
20
-4.33876772857565
30
0
41
1
10
71.848877872367
20
-4.39535505805992
30
0
41
1
10
71.9027024119417
20
-4.44991686748995
30
0
0
SPLINE
5
11A
100
AcDbEntity
8
1
62
256
6
ByLayer
370
18
48
1
60
0
100
AcDbSpline
70
4
71
3
72
10
73
6
40
0
40
0
40
0
40
0
40
0.262876849690631
40
0.262876849690631
40
1
40
1
40
1
40
1
41
1
10
71.9307413312608
20
-4.47817781815189
30
0
41
1
10
71.9657088941
20
-4.51321977747642
30
0
41
1
10
72.0005803751837
20
-4.54740625299485
30
0
41
1
10
72.1329152139002
20
-4.67422725871779
30
0
41
1
10
72.2295178144411
20
-4.7607876519555
30
0
41
1
10
72.3253460716208
20
-4.84043657043705
30
0
0
SPLINE
5
11B
100
AcDbEntity
8
1
62
256
6
ByLayer
370
18
48
1
60
0
100
AcDbSpline
70
4
71
3
72
8
73
4
40
0
40
0
40
0
40
0
40
1
40
1
40
1
40
1
41
1
10
72.3253460716208
20
-4.84043657043705
30
0
41
1
10
72.3457642950696
20
-4.82990117025386
30
0
41
1
10
72.3661809007664
20
-4.81925177627028
30
0
41
1
10
72.3865881667606
20
-4.80848138115942
30
0
0
SPLINE
5
11C
100
AcDbEntity
8
1
62
256
6
ByLayer
370
18
48
1
60
0
100
AcDbSpline
70
4
71
3
72
8
73
4
40
0
40
0
40
0
40
0
40
1
40
1
40
1
40
1
41
1
10
72.5128387698095
20
-4.72492035123651
30
0
41
1
10
72.4707393948956
20
-4.75318403134969
30
0
41
1
10
72.4286991058697
20
-4.78106224577334
30
0
41
1
10
72.386588166761
20
-4.80848138115846
30
0
0
SPLINE
5
11D
100
AcDbEntity
8
1
62
256
6
ByLayer
370
18
48
1
60
0
100
AcDbSpline
70
4
71
3
72
12
73
8
40
0
40
0
40
0
40
0
40
0.462133989056021
40
0.462133989056021
40
0.924267978112043
40
0.924267978112043
40
1
40
1
40
1
40
1
41
1
10
72.5128387698095
20
-4.72492035123651
30
0
41
1
10
72.562457636931
20
-4.62165282006677
30
0
41
1
10
72.6122899847177
20
-4.51860565752304
30
0
41
1
10
72.7124425510552
20
-4.31297909402491
30
0
41
1
10
72.7627735759148
20
-4.21037043267461
30
0
41
1
10
72.8216371836994
20
-4.09130305780985
30
0
41
1
10
72.8299301295765
20
-4.07454994869872
30
0
41
1
10
72.8382281557105
20
-4.05780862634418
30
0
0
SPLINE
5
11E
100
AcDbEntity
8
1
62
256
6
ByLayer
370
18
48
1
60
0
100
AcDbSpline
70
4
71
3
72
12
73
8
40
0
40
0
40
0
40
0
40
0.5
40
0.5
40
0.75
40
0.75
40
1
40
1
40
1
40
1
41
1
10
76.3944789298869
20
-5.09059378264175
30
0
41
1
10
76.2954231820336
20
-5.25810868372756
30
0
41
1
10
76.1969905199973
20
-5.42371351162862
30
0
41
1
10
76.0504210234167
20
-5.66845349592714
30
0
41
1
10
76.0017454656532
20
-5.74941983498937
30
0
41
1
10
75.9048470224732
20
-5.90987708367749
30
0
41
1
10
75.8566027148133
20
-5.98940381562934
30
0
41
1
10
75.8085321601337
20
-6.06822972031549
30
0
0
SPLINE
5
11F
100
AcDbEntity
8
1
62
256
6
ByLayer
370
18
48
1
60
0
100
AcDbSpline
70
4
71
3
72
8
73
4
40
0
40
0
40
0
40
0
40
1
40
1
40
1
40
1
41
1
10
75.6267237538061
20
-6.05511614784132
30
0
41
1
10
75.6873183168664
20
-6.06050432309328
30
0
41
1
10
75.747915806512
20
-6.06487617834523
30
0
41
1
10
75.8085321601337
20
-6.06822972031546
30
0
0
SPLINE
5
120
100
AcDbEntity
8
1
62
256
6
ByLayer
370
18
48
1
60
0
100
AcDbSpline
70
4
71
3
72
12
73
8
40
0
40
0
40
0
40
0
40
0.25
40
0.25
40
0.5
40
0.5
40
1
40
1
40
1
40
1
41
1
10
75.6267237538078
20
-6.05511614782702
30
0
41
1
10
75.576538945798
20
-5.96814560931645
30
0
41
1
10
75.5261971859331
20
-5.87987796125054
30
0
41
1
10
75.4251233044504
20
-5.70075124092628
30
0
41
1
10
75.3743699893217
20
-5.60985358235885
30
0
41
1
10
75.2215819201067
20
-5.33358164089293
30
0
41
1
10
75.1190089532111
20
-5.14460794961045
30
0
41
1
10
75.0156833298818
20
-4.95137936820316
30
0
0
SPLINE
5
121
100
AcDbEntity
8
1
62
256
6
ByLayer
370
18
48
1
60
0
100
AcDbSpline
70
4
71
3
72
32
73
28
40
0
40
0
40
0
40
0
40
0.125000000000038
40
0.125000000000038
40
0.187500000000041
40
0.187500000000041
40
0.250000000000043
40
0.250000000000043
40
0.375000000000006
40
0.375000000000006
40
0.437500000000009
40
0.437500000000009
40
0.500000000000013
40
0.500000000000013
40
0.624999999999975
40
0.624999999999975
40
0.687499999999979
40
0.687499999999979
40
0.749999999999983
40
0.749999999999983
40
0.812499999999988
40
0.812499999999988
40
0.874999999999992
40
0.874999999999992
40
0.937499999999996
40
0.937499999999996
40
1
40
1
40
1
40
1
41
1
10
75.0156833298818
20
-4.95137936820316
30
0
41
1
10
75.003190935347
20
-4.92801742179952
30
0
41
1
10
74.9887044551684
20
-4.90715025377622
30
0
41
1
10
74.9646871051532
20
-4.87867635088841
30
0
41
1
10
74.9562897500633
20
-4.86966640041112
30
0
41
1
10
74.9387625380928
20
-4.85256648950661
30
0
41
1
10
74.9297534508113
20
-4.84459364454827
30
0
41
1
10
74.9020566981039
20
-4.82225736199075
30
0
41
1
10
74.8827069863564
20
-4.80945632590041
30
0
41
1
10
74.8524449247707
20
-4.79325383801768
30
0
41
1
10
74.8421492827993
20
-4.78835817196426
30
0
41
1
10
74.8211325252334
20
-4.77961933385467
30
0
41
1
10
74.8105050565808
20
-4.77581829823208
30
0
41
1
10
74.7785173286591
20
-4.7662174393937
30
0
41
1
10
74.7569542186955
20
-4.76214756182654
30
0
41
1
10
74.7242749763828
20
-4.76000504903496
30
0
41
1
10
74.7133256564156
20
-4.75995763784471
30
0
41
1
10
74.691310657789
20
-4.76139276040362
30
0
41
1
10
74.680286604582
20
-4.76288366747997
30
0
41
1
10
74.658690125232
20
-4.76752945814042
30
0
41
1
10
74.6480545272432
20
-4.77068473381226
30
0
41
1
10
74.62717096323
20
-4.77892307694111
30
0
41
1
10
74.6168471059648
20
-4.78405967426693
30
0
41
1
10
74.5972523004273
20
-4.79634435316754
30
0
41
1
10
74.5879405210817
20
-4.80348783299846
30
0
41
1
10
74.5704596629758
20
-4.82012751598009
30
0
41
1
10
74.5622748591852
20
-4.82967735361376
30
0
41
1
10
74.5550474592642
20
-4.84033255399515
30
0
0
SPLINE
5
122
100
AcDbEntity
8
1
62
256
6
ByLayer
370
18
48
1
60
0
100
AcDbSpline
70
4
71
3
72
12
73
8
40
0
40
0
40
0
40
0
40
0.500000000000008
40
0.500000000000008
40
0.750000000000004
40
0.750000000000004
40
1
40
1
40
1
40
1
41
1
10
74.55504745926
20
-4.84033255400524
30
0
41
1
10
74.4560289331765
20
-4.98631343904515
30
0
41
1
10
74.357631295746
20
-5.12768056462795
30
0
41
1
10
74.2111103024909
20
-5.33229836244871
30
0
41
1
10
74.1624497477811
20
-5.39926664736939
30
0
41
1
10
74.0655788980594
20
-5.53055964178404
30
0
41
1
10
74.0173468752006
20
-5.59491481470954
30
0
41
1
10
73.9692862565747
20
-5.65799564806247
30
0
0
SPLINE
5
123
100
AcDbEntity
8
1
62
256
6
ByLayer
370
18
48
1
60
0
100
AcDbSpline
70
4
71
3
72
8
73
4
40
0
40
0
40
0
40
0
40
1
40
1
40
1
40
1
41
1
10
73.7872306341321
20
-5.58471484898683
30
0
41
1
10
73.8479076082101
20
-5.61008335397344
30
0
41
1
10
73.908587501536
20
-5.63451249527685
30
0
41
1
10
73.9692862565747
20
-5.65799564806247
30
0
0
SPLINE
5
124
100
AcDbEntity
8
1
62
256
6
ByLayer
370
18
48
1
60
0
100
AcDbSpline
70
4
71
3
72
12
73
8
40
0
40
0
40
0
40
0
40
0.25
40
0.25
40
0.500000000000001
40
0.500000000000001
40
1
40
1
40
1
40
1
41
1
10
73.7872306341321
20
-5.58471484898683
30
0
41
1
10
73.7370356532462
20
-5.48185491499788
30
0
41
1
10
73.6866858272983
20
-5.37839602180546
30
0
41
1
10
73.5856142535631
20
-5.17029173930806
30
0
41
1
10
73.5348693733716
20
-5.0656039286765
30
0
41
1
10
73.3821184862148
20
-4.75017329523251
30
0
41
1
10
73.2795842961035
20
-4.53803513569778
30
0
41
1
10
73.176297687937
20
-4.32478297932269
30
0
0
SPLINE
5
125
100
AcDbEntity
8
1
62
256
6
ByLayer
370
18
48
1
60
0
100
AcDbSpline
70
4
71
3
72
32
73
28
40
0
40
0
40
0
40
0
40
0.124999999999968
40
0.124999999999968
40
0.18749999999997
40
0.18749999999997
40
0.249999999999972
40
0.249999999999972
40
0.374999999999977
40
0.374999999999977
40
0.437499999999979
40
0.437499999999979
40
0.49999999999998
40
0.49999999999998
40
0.624999999999984
40
0.624999999999984
40
0.687499999999987
40
0.687499999999987
40
0.749999999999989
40
0.749999999999989
40
0.812499999999992
40
0.812499999999992
40
0.874999999999995
40
0.874999999999995
40
0.937499999999997
40
0.937499999999997
40
1
40
1
40
1
40
1
41
1
10
73.176297687937
20
-4.32478297932269
30
0
41
1
10
73.1637992598972
20
-4.2989779231001
30
0
41
1
10
73.1493053587665
20
-4.27507510785529
30
0
41
1
10
73.125276338715
20
-4.24138549665864
30
0
41
1
10
73.1168746908001
20
-4.23052294052383
30
0
41
1
10
73.0993400933279
20
-4.20950605276755
30
0
41
1
10
73.0903274725549
20
-4.19949518695068
30
0
41
1
10
73.0626207872505
20
-4.17082521273369
30
0
41
1
10
73.0432653272961
20
-4.15351200623172
30
0
41
1
10
73.0129968467004
20
-4.13011214454107
30
0
41
1
10
73.0026994512144
20
-4.12274500836793
30
0
41
1
10
72.981680118643
20
-4.10890910606821
30
0
41
1
10
72.9710530623352
20
-4.10250576351143
30
0
41
1
10
72.9390658398988
20
-4.08498460756181
30
0
41
1
10
72.9175043468458
20
-4.07546340730818
30
0
41
1
10
72.8848296700855
20
-4.06482523489538
30
0
41
1
10
72.873882246251
20
-4.06189227115249
30
0
41
1
10
72.8518717754516
20
-4.05742815452078
30
0
41
1
10
72.8408521933418
20
-4.05591602589777
30
0
41
1
10
72.8192627088918
20
-4.05456024335675
30
0
41
1
10
72.8086302544057
20
-4.0547004803189
30
0
41
1
10
72.7877519558126
20
-4.05687229238234
30
0
41
1
10
72.7774304625844
20
-4.05893356605736
30
0
41
1
10
72.7578389215759
20
-4.06519545782956
30
0
41
1
10
72.7485277630327
20
-4.06938114585279
30
0
41
1
10
72.7310462287618
20
-4.08023241652577
30
0
41
1
10
72.7228602026632
20
-4.08694350340716
30
0
41
1
10
72.7156310469404
20
-4.09493281268377
30
0
0
SPLINE
5
126
100
AcDbEntity
8
1
62
256
6
ByLayer
370
18
48
1
60
0
100
AcDbSpline
70
4
71
3
72
12
73
8
40
0
40
0
40
0
40
0
40
0.499999999999993
40
0.499999999999993
40
0.749999999999996
40
0.749999999999996
40
1
40
1
40
1
40
1
41
1
10
74.1928280727731
20
5.08535597246185
30
0
41
1
10
74.2929672666065
20
5.25560905245496
30
0
41
1
10
74.392128513151
20
5.42329089156161
30
0
41
1
10
74.5397859196422
20
5.67077241107333
30
0
41
1
10
74.5887507272952
20
5.75246438173519
30
0
41
1
10
74.6862738458396
20
5.91435308781416
30
0
41
1
10
74.7348315121076
20
5.99454448841175
30
0
41
1
10
74.7831979419449
20
6.07393320593621
30
0
0
SPLINE
5
127
100
AcDbEntity
8
1
62
256
6
ByLayer
370
18
48
1
60
0
100
AcDbSpline
70
4
71
3
72
8
73
4
40
0
40
0
40
0
40
0
40
1
40
1
40
1
40
1
41
1
10
74.9652349850635
20
6.06523799616201
30
0
41
1
10
74.9044087503186
20
6.06916607703045
30
0
41
1
10
74.8437434930831
20
6.07206246506047
30
0
41
1
10
74.7831979419449
20
6.07393320593621
30
0
0
SPLINE
5
128
100
AcDbEntity
8
1
62
256
6
ByLayer
370
18
48
1
60
0
100
AcDbSpline
70
4
71
3
72
10
73
6
40
0
40
0
40
0
40
0
40
0.5
40
0.5
40
1
40
1
40
1
40
1
41
1
10
77.8713966894359
20
4.22030236455947
30
0
41
1
10
77.9715022598177
20
4.32456881370445
30
0
41
1
10
78.0706522695872
20
4.42180542043565
30
0
41
1
10
78.2675811146334
20
4.60239324685043
30
0
41
1
10
78.3650524016103
20
4.68546781735765
30
0
41
1
10
78.4617262550501
20
4.76132122440833
30
0
0
SPLINE
5
129
100
AcDbEntity
8
1
62
256
6
ByLayer
370
18
48
1
60
0
100
AcDbSpline
70
4
71
3
72
8
73
4
40
0
40
0
40
0
40
0
40
1
40
1
40
1
40
1
41
1
10
78.6097772033056
20
4.66186496619244
30
0
41
1
10
78.5604870681269
20
4.6955454590059
30
0
41
1
10
78.5111376479288
20
4.72869805801437
30
0
41
1
10
78.4617262550502
20
4.76132122440822
30
0
0
SPLINE
5
12A
100
AcDbEntity
8
1
62
256
6
ByLayer
370
18
48
1
60
0
100
AcDbSpline
70
4
71
3
72
12
73
8
40
0
40
0
40
0
40
0
40
0.250000000000003
40
0.250000000000003
40
0.500000000000006
40
0.500000000000006
40
1
40
1
40
1
40
1
41
1
10
78.652359337313
20
4.62111034940403
30
0
41
1
10
78.7013140690897
20
4.5196653561934
30
0
41
1
10
78.7504248458787
20
4.41845284263485
30
0
41
1
10
78.8491186505282
20
4.21659967257801
30
0
41
1
10
78.8987410643493
20
4.11594201929626
30
0
41
1
10
79.0483028933176
20
3.81509750574656
30
0
41
1
10
79.1487190524812
20
3.61645741551149
30
0
41
1
10
79.2501893855572
20
3.41993679937789
30
0
0
SPLINE
5
12B
100
AcDbEntity
8
1
62
256
6
ByLayer
370
18
48
1
60
0
100
AcDbSpline
70
4
71
3
72
32
73
28
40
0
40
0
40
0
40
0
40
0.125000000000017
40
0.125000000000017
40
0.187500000000026
40
0.187500000000026
40
0.250000000000034
40
0.250000000000034
40
0.375000000000052
40
0.375000000000052
40
0.437500000000061
40
0.437500000000061
40
0.50000000000007
40
0.50000000000007
40
0.625000000000086
40
0.625000000000086
40
0.687500000000072
40
0.687500000000072
40
0.750000000000058
40
0.750000000000058
40
0.812500000000043
40
0.812500000000043
40
0.875000000000029
40
0.875000000000029
40
0.937500000000014
40
0.937500000000014
40
1
40
1
40
1
40
1
41
1
10
79.2501893855572
20
3.41993679937792
30
0
41
1
10
79.2631461148976
20
3.39484311577732
30
0
41
1
10
79.2782253019096
20
3.37097815439145
30
0
41
1
10
79.303188270723
20
3.33654179960951
30
0
41
1
10
79.3119106062315
20
3.32529593364225
30
0
41
1
10
79.3301066524676
20
3.30324017596044
30
0
41
1
10
79.339447391529
20
3.29259195693891
30
0
41
1
10
79.3680549127236
20
3.26173983668144
30
0
41
1
10
79.3879297282317
20
3.24258010586365
30
0
41
1
10
79.4188190232259
20
3.21577002833609
30
0
41
1
10
79.4293289398207
20
3.20713434993337
30
0
41
1
10
79.4505703787392
20
3.19063563914676
30
0
41
1
10
79.4612276560812
20
3.18282715358333
30
0
41
1
10
79.4932926847895
20
3.16069677085917
30
0
41
1
10
79.5147927269451
20
3.14764947624354
30
0
41
1
10
79.5471814273831
20
3.13086662827067
30
0
41
1
10
79.558055070642
20
3.12571967429835
30
0
41
1
10
79.5795640191536
20
3.11659252466123
30
0
41
1
10
79.5901637926794
20
3.11262123569611
30
0
41
1
10
79.6110188248189
20
3.10595580110967
30
0
41
1
10
79.6212744749918
20
3.10326028985435
30
0
41
1
10
79.6413825569068
20
3.0993267905852
30
0
41
1
10
79.6512843277911
20
3.09809391070812
30
0
41
1
10
79.6700545614916
20
3.09740063962144
30
0
41
1
10
79.6789821884919
20
3.09791927785696
30
0
41
1
10
79.6957702802031
20
3.10097539851583
30
0
41
1
10
79.7036723210925
20
3.1035404338273
30
0
41
1
10
79.7107274679859
20
3.10727720223156
30
0
0
SPLINE
5
12C
100
AcDbEntity
8
1
62
256
6
ByLayer
370
18
48
1
60
0
100
AcDbSpline
70
4
71
3
72
8
73
4
40
0
40
0
40
0
40
0
40
1
40
1
40
1
40
1
41
1
10
79.7107274679847
20
3.10727720223468
30
0
41
1
10
79.8179810388828
20
3.16408420583579
30
0
41
1
10
79.9241707033369
20
3.21143039344884
30
0
41
1
10
80.0295439276622
20
3.24949661114078
30
0
0
SPLINE
5
12D
100
AcDbEntity
8
1
62
256
6
ByLayer
370
18
48
1
60
0
100
AcDbSpline
70
4
71
3
72
14
73
10
40
0
40
0
40
0
40
0
40
0.499999999999999
40
0.499999999999999
40
0.624999999999994
40
0.624999999999994
40
0.749999999999989
40
0.749999999999989
40
1
40
1
40
1
40
1
41
1
10
80.0295439276622
20
3.24949661114081
30
0
41
1
10
80.1789842909563
20
3.09724412332943
30
0
41
1
10
80.329584809916
20
2.94318048352946
30
0
41
1
10
80.5194774503896
20
2.74844908844213
30
0
41
1
10
80.5575378447305
20
2.70939496609543
30
0
41
1
10
80.6338261449965
20
2.63107272220941
30
0
41
1
10
80.6720828800096
20
2.59177472627542
30
0
41
1
10
80.7868799698467
20
2.47379868949693
30
0
41
1
10
80.863391673113
20
2.39509910555259
30
0
41
1
10
80.9401129823199
20
2.31657936532469
30
0
0
SPLINE
5
12E
100
AcDbEntity
8
1
62
256
6
ByLayer
370
18
48
1
60
0
100
AcDbSpline
70
4
71
3
72
8
73
4
40
0
40
0
40
0
40
0
40
1
40
1
40
1
40
1
41
1
10
80.9401129823199
20
2.31657936532469
30
0
41
1
10
80.9896523549214
20
2.22908307092817
30
0
41
1
10
81.0394149373562
20
2.14278080885612
30
0
41
1
10
81.0894399880551
20
2.05769289459218
30
0
0
SPLINE
5
12F
100
AcDbEntity
8
1
62
256
6
ByLayer
370
18
48
1
60
0
100
AcDbSpline
70
4
71
3
72
32
73
28
40
0
40
0
40
0
40
0
40
0.125000000000053
40
0.125000000000053
40
0.187500000000061
40
0.187500000000061
40
0.250000000000069
40
0.250000000000069
40
0.375000000000044
40
0.375000000000044
40
0.437500000000053
40
0.437500000000053
40
0.500000000000063
40
0.500000000000063
40
0.625000000000082
40
0.625000000000082
40
0.687500000000068
40
0.687500000000068
40
0.750000000000055
40
0.750000000000055
40
0.812500000000041
40
0.812500000000041
40
0.875000000000027
40
0.875000000000027
40
0.937500000000014
40
0.937500000000014
40
1
40
1
40
1
40
1
41
1
10
81.0894399880552
20
2.05769289459218
30
0
41
1
10
81.1024080541559
20
2.03563543175847
30
0
41
1
10
81.1174997195263
20
2.01374158550729
30
0
41
1
10
81.1424800598871
20
1.98110662835569
30
0
41
1
10
81.1512079963962
20
1.97026284565752
30
0
41
1
10
81.1694145955191
20
1.94863950740446
30
0
41
1
10
81.178759209212
20
1.93801943502711
30
0
41
1
10
81.2073783293473
20
1.90673859223429
30
0
41
1
10
81.2272588761827
20
1.88661834432082
30
0
41
1
10
81.2581535696316
20
1.85741826003434
30
0
41
1
10
81.2686647263731
20
1.84782263982416
30
0
41
1
10
81.2899077717012
20
1.82908814119213
30
0
41
1
10
81.3005655285241
20
1.8200124180558
30
0
41
1
10
81.3326309041615
20
1.79363383545501
30
0
41
1
10
81.3541297432876
20
1.77716646643461
30
0
41
1
10
81.3865139004549
20
1.75425845687792
30
0
41
1
10
81.3973851908901
20
1.74689026899935
30
0
41
1
10
81.4188913507153
20
1.7329994043223
30
0
41
1
10
81.4294895576371
20
1.72649619318298
30
0
41
1
10
81.4503409942234
20
1.7144392235021
30
0
41
1
10
81.4605946342352
20
1.70888449439514
30
0
41
1
10
81.480698138862
20
1.69885473624149
30
0
41
1
10
81.4905984425166
20
1.69436386518828
30
0
41
1
10
81.5093676969308
20
1.68689264616992
30
0
41
1
10
81.5182947490659
20
1.68387719870984
30
0
41
1
10
81.5350815777771
20
1.67952610474134
30
0
41
1
10
81.5429837162476
20
1.67819192536658
30
0
41
1
10
81.5500406733673
20
1.67792131880916
30
0
0
SPLINE
5
130
100
AcDbEntity
8
1
62
256
6
ByLayer
370
18
48
1
60
0
100
AcDbSpline
70
4
71
3
72
8
73
4
40
0
40
0
40
0
40
0
40
1
40
1
40
1
40
1
41
1
10
81.5500406733673
20
1.67792131880972
30
0
41
1
10
81.5580480660215
20
1.67761426678669
30
0
41
1
10
81.5660493903511
20
1.67725167576987
30
0
41
1
10
81.5740447884095
20
1.67683370060209
30
0
0
SPLINE
5
131
100
AcDbEntity
8
1
62
256
6
ByLayer
370
18
48
1
60
0
100
AcDbSpline
70
4
71
3
72
12
73
8
40
0
40
0
40
0
40
0
40
0.5
40
0.5
40
0.75
40
0.75
40
1
40
1
40
1
40
1
41
1
10
81.5740447884095
20
1.67683370060209
30
0
41
1
10
81.7098022675611
20
1.54193364979667
30
0
41
1
10
81.8463312459757
20
1.40772269983165
30
0
41
1
10
82.0525385212047
20
1.20770087156154
30
0
41
1
10
82.121461257711
20
1.14119406613517
30
0
41
1
10
82.2601012543557
20
1.00893538361475
30
0
41
1
10
82.3298413338368
20
0.943206347822809
30
0
41
1
10
82.3999998636207
20
0.877876471653281
30
0
0
SPLINE
5
132
100
AcDbEntity
8
1
62
256
6
ByLayer
370
18
48
1
60
0
100
AcDbSpline
70
4
71
3
72
14
73
10
40
0
40
0
40
0
40
0
40
0.25
40
0.25
40
0.5
40
0.5
40
0.75
40
0.75
40
1
40
1
40
1
40
1
41
1
10
82.3999998636207
20
0.877876471653252
30
0
41
1
10
82.4475870605546
20
0.824053548289442
30
0
41
1
10
82.4956842845933
20
0.771910095601527
30
0
41
1
10
82.5931082640911
20
0.671212667410828
30
0
41
1
10
82.6424775416751
20
0.622619150090088
30
0
41
1
10
82.7425149960085
20
0.529579758299406
30
0
41
1
10
82.793154516167
20
0.485121546893168
30
0
41
1
10
82.8956234916649
20
0.400400698642727
30
0
41
1
10
82.9474299797781
20
0.360328735017532
30
0
41
1
10
82.9999999999999
20
0.32290087986047
30
0
0
SPLINE
5
133
100
AcDbEntity
8
1
62
256
6
ByLayer
370
18
48
1
60
0
100
AcDbSpline
70
4
71
3
72
53
73
49
40
0
40
0
40
0
40
0
40
0.0312499999999995
40
0.0312499999999995
40
0.0468749999999995
40
0.0468749999999995
40
0.0624999999999995
40
0.0937499999999992
40
0.0937499999999992
40
0.124999999999999
40
0.124999999999999
40
0.140624999999999
40
0.140624999999999
40
0.156249999999999
40
0.187499999999999
40
0.218749999999999
40
0.218749999999999
40
0.249999999999999
40
0.249999999999999
40
0.312499999999999
40
0.312499999999999
40
0.374999999999999
40
0.374999999999999
40
0.437499999999999
40
0.437499999999999
40
0.499999999999998
40
0.499999999999998
40
0.515624999999998
40
0.515624999999998
40
0.531249999999998
40
0.531249999999998
40
0.562499999999998
40
0.562499999999998
40
0.624999999999999
40
0.624999999999999
40
0.749999999999999
40
0.749999999999999
40
0.781249999999999
40
0.781249999999999
40
0.796874999999999
40
0.796874999999999
40
0.812499999999999
40
0.812499999999999
40
0.874999999999999
40
0.874999999999999
40
0.9375
40
0.9375
40
1
40
1
40
1
40
1
41
1
10
83
20
0.322900879860413
30
0
41
1
10
83.0000000000001
20
0.325148609751324
30
0
41
1
10
82.9999999999999
20
0.329830127692134
30
0
41
1
10
83
20
0.340610187124327
30
0
41
1
10
83
20
0.344835343395545
30
0
41
1
10
83
20
0.354536217362295
30
0
41
1
10
83.0000000000001
20
0.370881326802731
30
0
41
1
10
83
20
0.392517471702831
30
0
41
1
10
83
20
0.4259965357939
30
0
41
1
10
83.0000000000001
20
0.445105234889553
30
0
41
1
10
83
20
0.476965413224264
30
0
41
1
10
83
20
0.487925577048003
30
0
41
1
10
82.9999999999999
20
0.510294342557245
30
0
41
1
10
82.9999999999999
20
0.544671501477382
30
0
41
1
10
83.0000000000001
20
0.606077180503945
30
0
41
1
10
83
20
0.659596774690527
30
0
41
1
10
83
20
0.715335737234284
30
0
41
1
10
82.9999999999999
20
0.744344139567204
30
0
41
1
10
82.9999999999999
20
0.834077608962133
30
0
41
1
10
82.9999999999999
20
0.897700490913223
30
0
41
1
10
82.9999999999999
20
1.03230548755121
30
0
41
1
10
83
20
1.10328477019397
30
0
41
1
10
83
20
1.25257148966597
30
0
41
1
10
83
20
1.33089659740605
30
0
41
1
10
83.0000000000001
20
1.49491549852209
30
0
41
1
10
83
20
1.58060184791114
30
0
41
1
10
83
20
1.6924264191569
30
0
41
1
10
83
20
1.71502776619607
30
0
41
1
10
83
20
1.76070882387256
30
0
41
1
10
83
20
1.78379441646868
30
0
41
1
10
83.0000000000001
20
1.85348061423446
30
0
41
1
10
83
20
1.90060382988025
30
0
41
1
10
83
20
2.04392995821658
30
0
41
1
10
82.9999999999999
20
2.14208426994969
30
0
41
1
10
83
20
2.44422274259276
30
0
41
1
10
82.9999999999999
20
2.65588710216707
30
0
41
1
10
83
20
2.9333090075468
30
0
41
1
10
83
20
2.9894562187574
30
0
41
1
10
83
20
3.07460283373507
30
0
41
1
10
83
20
3.10313564318369
30
0
41
1
10
83
20
3.16078508309491
30
0
41
1
10
82.9999999999999
20
3.18998277005224
30
0
41
1
10
83
20
3.33772392881144
30
0
41
1
10
83.0000000000001
20
3.45845968789689
30
0
41
1
10
83
20
3.70473594806282
30
0
41
1
10
83.0000000000001
20
3.83034565094809
30
0
41
1
10
83
20
4.08640825859115
30
0
41
1
10
83.0000000000001
20
4.21322027495481
30
0
41
1
10
83
20
4.33886633142004
30
0
0
SPLINE
5
134
100
AcDbEntity
8
1
62
256
6
ByLayer
370
18
48
1
60
0
100
AcDbSpline
70
4
71
3
72
10
73
6
40
0
40
0
40
0
40
0
40
0.5
40
0.5
40
1
40
1
40
1
40
1
41
1
10
83
20
4.33886633142046
30
0
41
1
10
82.9019449899666
20
4.44086009762808
30
0
41
1
10
82.8028460011122
20
4.54219205328889
30
0
41
1
10
82.6028176274834
20
4.74401812277361
30
0
41
1
10
82.5018775721944
20
4.84451835115249
30
0
41
1
10
82.4000000932894
20
4.94498389065637
30
0
0
SPLINE
5
135
100
AcDbEntity
8
1
62
256
6
ByLayer
370
18
48
1
60
0
100
AcDbSpline
70
4
71
3
72
12
73
8
40
0
40
0
40
0
40
0
40
0.25
40
0.25
40
0.5
40
0.5
40
1
40
1
40
1
40
1
41
1
10
82.4000000932893
20
4.94498389065626
30
0
41
1
10
82.3043700347019
20
4.97563337642646
30
0
41
1
10
82.2093289131151
20
5.00443014587597
30
0
41
1
10
82.0205709645131
20
5.05818708111247
30
0
41
1
10
81.9268089486425
20
5.08316337595727
30
0
41
1
10
81.6471160604725
20
5.15236062603225
30
0
41
1
10
81.4627772885419
20
5.19085458927759
30
0
41
1
10
81.2799971461289
20
5.22156336037631
30
0
0
SPLINE
5
136
100
AcDbEntity
8
1
62
256
6
ByLayer
370
18
48
1
60
0
100
AcDbSpline
70
4
71
3
72
8
73
4
40
0
40
0
40
0
40
0
40
1
40
1
40
1
40
1
41
1
10
81.2799971461289
20
5.22156336037631
30
0
41
1
10
81.2358379798499
20
5.14109258386228
30
0
41
1
10
81.1915467623782
20
5.05973640382291
30
0
41
1
10
81.1470879499525
20
4.97749262986451
30
0
0
SPLINE
5
137
100
AcDbEntity
8
1
62
256
6
ByLayer
370
18
48
1
60
0
100
AcDbSpline
70
4
71
3
72
32
73
28
40
0
40
0
40
0
40
0
40
0.12499999999999
40
0.12499999999999
40
0.187500000000004
40
0.187500000000004
40
0.250000000000017
40
0.250000000000017
40
0.375000000000044
40
0.375000000000044
40
0.437500000000058
40
0.437500000000058
40
0.500000000000071
40
0.500000000000071
40
0.625000000000053
40
0.625000000000053
40
0.687500000000044
40
0.687500000000044
40
0.750000000000035
40
0.750000000000035
40
0.812500000000027
40
0.812500000000027
40
0.875000000000018
40
0.875000000000018
40
0.937500000000009
40
0.937500000000009
40
1
40
1
40
1
40
1
41
1
10
81.1470879499526
20
4.97749262986451
30
0
41
1
10
81.1346092151201
20
4.95440838197635
30
0
41
1
10
81.1201396553337
20
4.93384264956467
30
0
41
1
10
81.0961488715536
20
4.9058497643646
30
0
41
1
10
81.0877605984984
20
4.89700507697984
30
0
41
1
10
81.0702515517114
20
4.88024514601307
30
0
41
1
10
81.0612510495569
20
4.87244431584799
30
0
41
1
10
81.0335778727116
20
4.85063063979584
30
0
41
1
10
81.0142405729814
20
4.83818652862209
30
0
41
1
10
80.9839903474709
20
4.82253692657972
30
0
41
1
10
80.9736975830178
20
4.81782850435798
30
0
41
1
10
80.9526843746997
20
4.809471184172
30
0
41
1
10
80.9420555912606
20
4.80586206938415
30
0
41
1
10
80.9100645734813
20
4.79684114310854
30
0
41
1
10
80.8884961747741
20
4.79316365779951
30
0
41
1
10
80.8558051569938
20
4.79162292413127
30
0
41
1
10
80.8448512967842
20
4.7917782940645
30
0
41
1
10
80.8228258878714
20
4.79362455748273
30
0
41
1
10
80.8117920065349
20
4.79532370195744
30
0
41
1
10
80.7901789551713
20
4.80038251470631
30
0
41
1
10
80.7795353926778
20
4.80374376750322
30
0
41
1
10
80.7586371853724
20
4.81239188769763
30
0
41
1
10
80.7483061419406
20
4.81773399570528
30
0
41
1
10
80.7286981161953
20
4.83041572025667
30
0
41
1
10
80.7193810643448
20
4.83775096204062
30
0
41
1
10
80.7018920222766
20
4.85475756714857
30
0
41
1
10
80.6937043983921
20
4.86448294259353
30
0
41
1
10
80.6864755890406
20
4.87529714098773
30
0
0
SPLINE
5
138
100
AcDbEntity
8
1
62
256
6
ByLayer
370
18
48
1
60
0
100
AcDbSpline
70
4
71
3
72
8
73
4
40
0
40
0
40
0
40
0
40
1
40
1
40
1
40
1
41
1
10
80.6864755890362
20
4.87529714099745
30
0
41
1
10
80.5868629407756
20
5.02431627936525
30
0
41
1
10
80.4878795292354
20
5.16884669412175
30
0
41
1
10
80.3896186932674
20
5.30856846787521
30
0
0
SPLINE
5
139
100
AcDbEntity
8
1
62
256
6
ByLayer
370
18
48
1
60
0
100
AcDbSpline
70
4
71
3
72
8
73
4
40
0
40
0
40
0
40
0
40
1
40
1
40
1
40
1
41
1
10
80.3896186932674
20
5.30856846787523
30
0
41
1
10
80.1741906574082
20
5.31371754601074
30
0
41
1
10
79.9600749857759
20
5.30684842509396
30
0
41
1
10
79.746415459056
20
5.28745090373019
30
0
0
SPLINE
5
13A
100
AcDbEntity
8
1
62
256
6
ByLayer
370
18
48
1
60
0
100
AcDbSpline
70
4
71
3
72
10
73
6
40
0
40
0
40
0
40
0
40
0.5
40
0.5
40
1
40
1
40
1
40
1
41
1
10
79.7464154590561
20
5.28745090373019
30
0
41
1
10
79.6740441773126
20
5.13930653247755
30
0
41
1
10
79.6012272614627
20
4.98975028543842
30
0
41
1
10
79.455014502966
20
4.68899463604782
30
0
41
1
10
79.3815846597503
20
4.53772300468009
30
0
41
1
10
79.3077003435806
20
4.38558982627285
30
0
0
SPLINE
5
13B
100
AcDbEntity
8
1
62
256
6
ByLayer
370
18
48
1
60
0
100
AcDbSpline
70
4
71
3
72
32
73
28
40
0
40
0
40
0
40
0
40
0.125000000000034
40
0.125000000000034
40
0.187500000000048
40
0.187500000000048
40
0.250000000000063
40
0.250000000000063
40
0.375000000000093
40
0.375000000000093
40
0.437500000000085
40
0.437500000000085
40
0.500000000000077
40
0.500000000000077
40
0.625000000000059
40
0.625000000000059
40
0.687500000000049
40
0.687500000000049
40
0.750000000000039
40
0.750000000000039
40
0.812500000000029
40
0.812500000000029
40
0.87500000000002
40
0.87500000000002
40
0.93750000000001
40
0.93750000000001
40
1
40
1
40
1
40
1
41
1
10
79.3077003435782
20
4.38558982626904
30
0
41
1
10
79.2952125813824
20
4.35987661604361
30
0
41
1
10
79.2807322517652
20
4.33611126713853
30
0
41
1
10
79.2567256657392
20
4.30267999733394
30
0
41
1
10
79.248331866123
20
4.29191248049355
30
0
41
1
10
79.2308134171392
20
4.27110247560307
30
0
41
1
10
79.2218085991406
20
4.26120157779431
30
0
41
1
10
79.1941241888794
20
4.23288000383735
30
0
41
1
10
79.1747819669483
20
4.21582344802394
30
0
41
1
10
79.1445290895159
20
4.19284670280067
30
0
41
1
10
79.1342362303654
20
4.18562702361132
30
0
41
1
10
79.113224640274
20
4.17209988915866
30
0
41
1
10
79.102597312742
20
4.16585445105807
30
0
41
1
10
79.0706120325527
20
4.14882471754376
30
0
41
1
10
79.0490497802209
20
4.13965187790191
30
0
41
1
10
79.016370012727
20
4.1295754437291
30
0
41
1
10
79.0054201971318
20
4.12683635083303
30
0
41
1
10
78.9834031128608
20
4.12277622840506
30
0
41
1
10
78.9723723123933
20
4.1214726813341
30
0
41
1
10
78.9507640448795
20
4.12054525755468
30
0
41
1
10
78.9401222456304
20
4.12090581965228
30
0
41
1
10
78.9192258372407
20
4.1235323007206
30
0
41
1
10
78.9088947497442
20
4.12582993993442
30
0
41
1
10
78.889284189474
20
4.13256914568356
30
0
41
1
10
78.8799648758166
20
4.13699603608541
30
0
41
1
10
78.8624700302686
20
4.1483346877381
30
0
41
1
10
78.854279127418
20
4.15529266923897
30
0
41
1
10
78.8470474378021
20
4.16352228773951
30
0
0
SPLINE
5
13C
100
AcDbEntity
8
1
62
256
6
ByLayer
370
18
48
1
60
0
100
AcDbSpline
70
4
71
3
72
8
73
4
40
0
40
0
40
0
40
0
40
1
40
1
40
1
40
1
41
1
10
78.3542298330239
20
4.67399593516421
30
0
41
1
10
78.3231698252832
20
4.70290444293627
30
0
41
1
10
78.2921894151097
20
4.73110695086859
30
0
41
1
10
78.261280082152
20
4.75861227537328
30
0
0
SPLINE
5
13D
100
AcDbEntity
8
1
62
256
6
ByLayer
370
18
48
1
60
0
100
AcDbSpline
70
4
71
3
72
8
73
4
40
0
40
0
40
0
40
0
40
1
40
1
40
1
40
1
41
1
10
78.0794354818085
20
4.6362660516279
30
0
41
1
10
78.1400587895913
20
4.67783984929608
30
0
41
1
10
78.2006683652733
20
4.71862495799598
30
0
41
1
10
78.2612800821504
20
4.75861227538488
30
0
0
SPLINE
5
13E
100
AcDbEntity
8
1
62
256
6
ByLayer
370
18
48
1
60
0
100
AcDbSpline
70
4
71
3
72
10
73
6
40
0
40
0
40
0
40
0
40
0.827899996418622
40
0.827899996418622
40
1
40
1
40
1
40
1
41
1
10
78.0794354818085
20
4.6362660516279
30
0
41
1
10
78.0292290911258
20
4.527919544631
30
0
41
1
10
77.9788644303804
20
4.41969303894976
30
0
41
1
10
77.9177980692035
20
4.28913352536432
30
0
41
1
10
77.90727968639
20
4.26666893875208
30
0
41
1
10
77.8967524869726
20
4.24420998592433
30
0
0
SPLINE
5
13F
100
AcDbEntity
8
1
62
256
6
ByLayer
370
18
48
1
60
0
100
AcDbSpline
70
4
71
3
72
12
73
8
40
0
40
0
40
0
40
0
40
0.50000000000001
40
0.50000000000001
40
0.750000000000005
40
0.750000000000005
40
1
40
1
40
1
40
1
41
1
10
72.1025823396038
20
4.85779718407801
30
0
41
1
10
72.0151233369338
20
5.00993820684687
30
0
41
1
10
71.9281421737888
20
5.16266728825673
30
0
41
1
10
71.7984992755142
20
5.39188971909647
30
0
41
1
10
71.7554049379839
20
5.46835025142025
30
0
41
1
10
71.6695677224239
20
5.62108314865361
30
0
41
1
10
71.626815024088
20
5.69737268398825
30
0
41
1
10
71.5842062787381
20
5.77357654541581
30
0
0
SPLINE
5
140
100
AcDbEntity
8
1
62
256
6
ByLayer
370
18
48
1
60
0
100
AcDbSpline
70
4
71
3
72
8
73
4
40
0
40
0
40
0
40
0
40
1
40
1
40
1
40
1
41
1
10
71.5842062787323
20
5.77357654543621
30
0
41
1
10
71.4675644666568
20
5.78907522471667
30
0
41
1
10
71.3510950644895
20
5.80048605080589
30
0
41
1
10
71.2346665202523
20
5.80787688215418
30
0
0
SPLINE
5
141
100
AcDbEntity
8
1
62
256
6
ByLayer
370
18
48
1
60
0
100
AcDbSpline
70
4
71
3
72
14
73
10
40
0
40
0
40
0
40
0
40
0.25
40
0.25
40
0.5
40
0.5
40
0.75
40
0.75
40
1
40
1
40
1
40
1
41
1
10
71.2346665202522
20
5.80787688215423
30
0
41
1
10
71.1926188228594
20
5.75230109749552
30
0
41
1
10
71.1504419488627
20
5.69545408800917
30
0
41
1
10
71.0657849762022
20
5.57919778722481
30
0
41
1
10
71.0233172156921
20
5.51980469054655
30
0
41
1
10
70.938146985477
20
5.39859668126931
30
0
41
1
10
70.8954200266153
20
5.3367468311969
30
0
41
1
10
70.8097391803892
20
5.21068697701358
30
0
41
1
10
70.7667817282801
20
5.146472731345
30
0
41
1
10
70.7236809384121
20
5.08105947629392
30
0
0
SPLINE
5
142
100
AcDbEntity
8
1
62
256
6
ByLayer
370
18
48
1
60
0
100
AcDbSpline
70
4
71
3
72
32
73
28
40
0
40
0
40
0
40
0
40
0.125000000000099
40
0.125000000000099
40
0.187500000000131
40
0.187500000000131
40
0.250000000000162
40
0.250000000000162
40
0.375000000000225
40
0.375000000000225
40
0.437500000000235
40
0.437500000000235
40
0.500000000000245
40
0.500000000000245
40
0.625000000000219
40
0.625000000000219
40
0.687500000000182
40
0.687500000000182
40
0.750000000000146
40
0.750000000000146
40
0.812500000000109
40
0.812500000000109
40
0.875000000000073
40
0.875000000000073
40
0.937500000000036
40
0.937500000000036
40
1
40
1
40
1
40
1
41
1
10
70.7236809384121
20
5.08105947629389
30
0
41
1
10
70.7111835893915
20
5.06209248563201
30
0
41
1
10
70.6966905870325
20
5.04594877543659
30
0
41
1
10
70.6726617573383
20
5.0249213088585
30
0
41
1
10
70.6642605540136
20
5.01845611716107
30
0
41
1
10
70.6467240675535
20
5.00656042842243
30
0
41
1
10
70.637710381375
20
5.00121180821483
30
0
41
1
10
70.6100000901645
20
4.9868097910059
30
0
41
1
10
70.5906416772501
20
4.97937927941106
30
0
41
1
10
70.5603677682556
20
4.97135957104081
30
0
41
1
10
70.5500683963835
20
4.96921295194741
30
0
41
1
10
70.5290447650031
20
4.96601971910059
30
0
41
1
10
70.51841576177
20
4.9649905445221
30
0
41
1
10
70.4864225849425
20
4.96364374003812
30
0
41
1
10
70.4648571085739
20
4.96502173555615
30
0
41
1
10
70.4321783010428
20
4.97098116210478
30
0
41
1
10
70.4212298263004
20
4.97362264091421
30
0
41
1
10
70.3992183512481
20
4.98041251679285
30
0
41
1
10
70.388200777694
20
4.98455743424557
30
0
41
1
10
70.3666162073932
20
4.99435120858308
30
0
41
1
10
70.3559870535663
20
5.00001573055329
30
0
41
1
10
70.3351174392347
20
5.01312581195259
30
0
41
1
10
70.3248013975792
20
5.02064183645905
30
0
41
1
10
70.3052222612553
20
5.03737804556454
30
0
41
1
10
70.2959181355979
20
5.0466039511598
30
0
41
1
10
70.278451534918
20
5.06707183591772
30
0
41
1
10
70.2702724257761
20
5.07837099748161
30
0
41
1
10
70.2630487652271
20
5.09051510542685
30
0
0
SPLINE
5
143
100
AcDbEntity
8
1
62
256
6
ByLayer
370
18
48
1
60
0
100
AcDbSpline
70
4
71
3
72
10
73
6
40
0
40
0
40
0
40
0
40
0.5
40
0.5
40
1
40
1
40
1
40
1
41
1
10
70.2630487652231
20
5.0905151054346
30
0
41
1
10
70.1997720028371
20
5.19689328138668
30
0
41
1
10
70.1367596431897
20
5.3023803582976
30
0
41
1
10
70.0112551765623
20
5.51139410765222
30
0
41
1
10
69.9487804569885
20
5.61489137675522
30
0
41
1
10
69.8866356868445
20
5.71719092807461
30
0
0
SPLINE
5
144
100
AcDbEntity
8
1
62
256
6
ByLayer
370
18
48
1
60
0
100
AcDbSpline
70
4
71
3
72
8
73
4
40
0
40
0
40
0
40
0
40
1
40
1
40
1
40
1
41
1
10
69.8866356868445
20
5.71719092807461
30
0
41
1
10
69.6663035932177
20
5.67426875418818
30
0
41
1
10
69.4444074216308
20
5.61768704435167
30
0
41
1
10
69.2199934169374
20
5.54726809265489
30
0
0
SPLINE
5
145
100
AcDbEntity
8
1
62
256
6
ByLayer
370
18
48
1
60
0
100
AcDbSpline
70
4
71
3
72
8
73
4
40
0
40
0
40
0
40
0
40
1
40
1
40
1
40
1
41
1
10
69.2199934169423
20
5.5472680926498
30
0
41
1
10
69.1089372152267
20
5.34445478805318
30
0
41
1
10
68.9970478271152
20
5.13614989123062
30
0
41
1
10
68.8842825876429
20
4.92303410946377
30
0
0
SPLINE
5
146
100
AcDbEntity
8
1
62
256
6
ByLayer
370
18
48
1
60
0
100
AcDbSpline
70
4
71
3
72
32
73
28
40
0
40
0
40
0
40
0
40
0.12500000000001
40
0.12500000000001
40
0.187500000000015
40
0.187500000000015
40
0.250000000000019
40
0.250000000000019
40
0.375000000000029
40
0.375000000000029
40
0.437500000000012
40
0.437500000000012
40
0.499999999999996
40
0.499999999999996
40
0.624999999999962
40
0.624999999999962
40
0.687499999999968
40
0.687499999999968
40
0.749999999999974
40
0.749999999999974
40
0.812499999999981
40
0.812499999999981
40
0.874999999999987
40
0.874999999999987
40
0.937499999999994
40
0.937499999999994
40
1
40
1
40
1
40
1
41
1
10
68.8842825876429
20
4.92303410946377
30
0
41
1
10
68.8717773974541
20
4.89940046672348
30
0
41
1
10
68.8572756548575
20
4.87823388502807
30
0
41
1
10
68.8332348769279
20
4.84927680857658
30
0
41
1
10
68.8248294499172
20
4.84009986338941
30
0
41
1
10
68.8072868082469
20
4.82265540609805
30
0
41
1
10
68.7982704169211
20
4.81450729765146
30
0
41
1
10
68.7705533263712
20
4.79163617890904
30
0
41
1
10
68.7511921344035
20
4.77846667203002
30
0
41
1
10
68.7209173956512
20
4.76169088273949
30
0
41
1
10
68.7106183020769
20
4.75660064989279
30
0
41
1
10
68.6895964729362
20
4.7474647567696
30
0
41
1
10
68.678968386385
20
4.74346335251133
30
0
41
1
10
68.6469792742826
20
4.73325709475276
30
0
41
1
10
68.6254178853495
20
4.72877712868512
30
0
41
1
10
68.592745939432
20
4.72600438617505
30
0
41
1
10
68.5817998563228
20
4.72574434443135
30
0
41
1
10
68.5597930838131
20
4.72674756942547
30
0
41
1
10
68.5487756436937
20
4.72801977711447
30
0
41
1
10
68.5271909008329
20
4.73223139898761
30
0
41
1
10
68.5165610915947
20
4.7351700004287
30
0
41
1
10
68.4956886988046
20
4.74297601696071
30
0
41
1
10
68.4853703262289
20
4.74789521979577
30
0
41
1
10
68.4657840934389
20
4.75975982466588
30
0
41
1
10
68.4564757058465
20
4.76669974984443
30
0
41
1
10
68.438999827544
20
4.7829484087608
30
0
41
1
10
68.4308158078009
20
4.79231101065386
30
0
41
1
10
68.4235879403489
20
4.80279665431601
30
0
0
SPLINE
5
147
100
AcDbEntity
8
1
62
256
6
ByLayer
370
18
48
1
60
0
100
AcDbSpline
70
4
71
3
72
10
73
6
40
0
40
0
40
0
40
0
40
0.5
40
0.5
40
1
40
1
40
1
40
1
41
1
10
68.4235879403448
20
4.80279665432596
30
0
41
1
10
68.3842912071357
20
4.85980538398172
30
0
41
1
10
68.3451006274406
20
4.91605560151547
30
0
41
1
10
68.2669070026123
20
5.02704179638476
30
0
41
1
10
68.2278983030245
20
5.08178755998006
30
0
41
1
10
68.1890159678883
20
5.13570785344101
30
0
0
SPLINE
5
148
100
AcDbEntity
8
1
62
256
6
ByLayer
370
18
48
1
60
0
100
AcDbSpline
70
4
71
3
72
8
73
4
40
0
40
0
40
0
40
0
40
1
40
1
40
1
40
1
41
1
10
68.1890159678883
20
5.13570785344098
30
0
41
1
10
67.8633120962648
20
4.97917340387372
30
0
41
1
10
67.5361950910019
20
4.79789176127431
30
0
41
1
10
67.2047700847051
20
4.5931165536536
30
0
0
SPLINE
5
149
100
AcDbEntity
8
1
62
256
6
ByLayer
370
18
48
1
60
0
100
AcDbSpline
70
4
71
3
72
8
73
4
40
0
40
0
40
0
40
0
40
1
40
1
40
1
40
1
41
1
10
67.2047700847117
20
4.59311655364934
30
0
41
1
10
67.1516529774136
20
4.48296427351096
30
0
41
1
10
67.0983677319167
20
4.37252442534938
30
0
41
1
10
67.0448670504722
20
4.26181348360481
30
0
0
SPLINE
5
14A
100
AcDbEntity
8
1
62
256
6
ByLayer
370
18
48
1
60
0
100
AcDbSpline
70
4
71
3
72
20
73
16
40
0
40
0
40
0
40
0
40
0.125
40
0.125
40
0.25
40
0.25
40
0.375
40
0.375
40
0.5
40
0.5
40
0.75
40
0.75
40
0.875
40
0.875
40
1
40
1
40
1
40
1
41
1
10
67.0448670504722
20
4.26181348360481
30
0
41
1
10
67.0377063367613
20
4.24699555349471
30
0
41
1
10
67.0298805152854
20
4.23279520945886
30
0
41
1
10
67.0131213052268
20
4.20541762746828
30
0
41
1
10
67.0041857086406
20
4.19224250618922
30
0
41
1
10
66.9853144966284
20
4.16681415781591
30
0
41
1
10
66.9753226556307
20
4.15450352941318
30
0
41
1
10
66.9547525042775
20
4.13116802476503
30
0
41
1
10
66.944161234188
20
4.12011364165429
30
0
41
1
10
66.9115440412174
20
4.08865307946053
30
0
41
1
10
66.8886871487772
20
4.06992146937759
30
0
41
1
10
66.8527673852157
20
4.04522318537113
30
0
41
1
10
66.8405805386205
20
4.03761508534987
30
0
41
1
10
66.8161586704609
20
4.02389086112231
30
0
41
1
10
66.8038703591245
20
4.0177369298867
30
0
41
1
10
66.7915088289713
20
4.01232411875631
30
0
0
SPLINE
5
14B
100
AcDbEntity
8
1
62
256
6
ByLayer
370
18
48
1
60
0
100
AcDbSpline
70
4
71
3
72
16
73
12
40
0
40
0
40
0
40
0
40
0.175077636730171
40
0.175077636730171
40
0.350155273460341
40
0.350155273460341
40
0.700310546920685
40
0.700310546920685
40
0.875388183650876
40
0.875388183650876
40
1
40
1
40
1
40
1
41
1
10
66.7915088289716
20
4.01232411875606
30
0
41
1
10
66.7752558461319
20
3.98065698694433
30
0
41
1
10
66.7584184672818
20
3.94941804887293
30
0
41
1
10
66.7236131724694
20
3.88775411345046
30
0
41
1
10
66.7056163247424
20
3.85733722589322
30
0
41
1
10
66.6495872426728
20
3.76740614116835
30
0
41
1
10
66.6096451778162
20
3.70917162757587
30
0
41
1
10
66.5460391216863
20
3.62433854018624
30
0
41
1
10
66.5242212289988
20
3.596480908274
30
0
41
1
10
66.485844719385
20
3.54950826872957
30
0
41
1
10
66.4695620639412
20
3.53016596852169
30
0
41
1
10
66.4530424828964
20
3.51110264598969
30
0
0
SPLINE
5
14C
100
AcDbEntity
8
1
62
256
6
ByLayer
370
18
48
1
60
0
100
AcDbSpline
70
4
71
3
72
32
73
28
40
0
40
0
40
0
40
0
40
0.124999999999957
40
0.124999999999957
40
0.187499999999953
40
0.187499999999953
40
0.249999999999949
40
0.249999999999949
40
0.374999999999981
40
0.374999999999981
40
0.437499999999997
40
0.437499999999997
40
0.500000000000014
40
0.500000000000014
40
0.625000000000045
40
0.625000000000045
40
0.687500000000037
40
0.687500000000037
40
0.75000000000003
40
0.75000000000003
40
0.812500000000022
40
0.812500000000022
40
0.875000000000015
40
0.875000000000015
40
0.937500000000007
40
0.937500000000007
40
1
40
1
40
1
40
1
41
1
10
66.9882918934205
20
3.57723343561793
30
0
41
1
10
67.0011968833035
20
3.55186252925819
30
0
41
1
10
67.0162106963543
20
3.52785608654835
30
0
41
1
10
67.0410712621876
20
3.49336116827143
30
0
41
1
10
67.0497584991037
20
3.48212203443003
30
0
41
1
10
67.0678834330352
20
3.46012952733699
30
0
41
1
10
67.0771893427212
20
3.44953649057763
30
0
41
1
10
67.1057021257762
20
3.41890806773475
30
0
41
1
10
67.1255234685958
20
3.39997775661047
30
0
41
1
10
67.1563515573729
20
3.37363369094339
30
0
41
1
10
67.1668394018703
20
3.36517748660521
30
0
41
1
10
67.1880657736243
20
3.3490604782078
30
0
41
1
10
67.1987182361542
20
3.34146236839843
30
0
41
1
10
67.2307777410235
20
3.32002361162128
30
0
41
1
10
67.252286139855
20
3.3075172871834
30
0
41
1
10
67.2847058717943
20
3.291686384082
30
0
41
1
10
67.295587703378
20
3.28688371680073
30
0
41
1
10
67.3171637853874
20
3.27847716795642
30
0
41
1
10
67.3277989107975
20
3.27489110884659
30
0
41
1
10
67.3487273489966
20
3.26905075151529
30
0
41
1
10
67.3590210502452
20
3.26679496409881
30
0
41
1
10
67.3792078818396
20
3.26380589119668
30
0
41
1
10
67.3891525676054
20
3.26308078800835
30
0
41
1
10
67.4080054277729
20
3.26345521587359
30
0
41
1
10
67.4169723336668
20
3.26453575709888
30
0
41
1
10
67.4338327460527
20
3.26878471477613
30
0
41
1
10
67.4417657259346
20
3.27198522359998
30
0
41
1
10
67.4488389474317
20
3.27637933573953
30
0
0
SPLINE
5
14D
100
AcDbEntity
8
1
62
256
6
ByLayer
370
18
48
1
60
0
100
AcDbSpline
70
4
71
3
72
8
73
4
40
0
40
0
40
0
40
0
40
1
40
1
40
1
40
1
41
1
10
67.4488389474316
20
3.27637933574036
30
0
41
1
10
67.5125899722065
20
3.31598351779365
30
0
41
1
10
67.5759631211889
20
3.35229609931216
30
0
41
1
10
67.6390273735651
20
3.38536745598327
30
0
0
SPLINE
5
14E
100
AcDbEntity
8
1
62
256
6
ByLayer
370
18
48
1
60
0
100
AcDbSpline
70
4
71
3
72
14
73
10
40
0
40
0
40
0
40
0
40
0.499999999999988
40
0.499999999999988
40
0.624999999999991
40
0.624999999999991
40
0.749999999999993
40
0.749999999999993
40
1
40
1
40
1
40
1
41
1
10
67.6390273735609
20
3.38536745598958
30
0
41
1
10
67.792887379527
20
3.28871544173779
30
0
41
1
10
67.9458264369516
20
3.18768695473403
30
0
41
1
10
68.1359011278097
20
3.05589867791977
30
0
41
1
10
68.1738601932882
20
3.02926470960699
30
0
41
1
10
68.249664969657
20
2.97543916972853
30
0
41
1
10
68.2874825673807
20
2.94821939085656
30
0
41
1
10
68.4009828967332
20
2.86593578792099
30
0
41
1
10
68.4766056726551
20
2.81014227780341
30
0
41
1
10
68.5521799547585
20
2.75340217705099
30
0
0
SPLINE
5
14F
100
AcDbEntity
8
1
62
256
6
ByLayer
370
18
48
1
60
0
100
AcDbSpline
70
4
71
3
72
8
73
4
40
0
40
0
40
0
40
0
40
1
40
1
40
1
40
1
41
1
10
68.5521799547585
20
2.75340217705099
30
0
41
1
10
68.6432627733237
20
2.5830899193526
30
0
41
1
10
68.7349875656479
20
2.41639651095843
30
0
41
1
10
68.8276010103731
20
2.25348615410644
30
0
0
SPLINE
5
150
100
AcDbEntity
8
1
62
256
6
ByLayer
370
18
48
1
60
0
100
AcDbSpline
70
4
71
3
72
32
73
28
40
0
40
0
40
0
40
0
40
0.125000000000048
40
0.125000000000048
40
0.187500000000056
40
0.187500000000056
40
0.250000000000063
40
0.250000000000063
40
0.375000000000075
40
0.375000000000075
40
0.437500000000081
40
0.437500000000081
40
0.500000000000087
40
0.500000000000087
40
0.6250000000001
40
0.6250000000001
40
0.687500000000084
40
0.687500000000084
40
0.750000000000067
40
0.750000000000067
40
0.81250000000005
40
0.81250000000005
40
0.875000000000034
40
0.875000000000034
40
0.937500000000017
40
0.937500000000017
40
1
40
1
40
1
40
1
41
1
10
68.8276010103731
20
2.25348615410644
30
0
41
1
10
68.8405130143144
20
2.2307734780367
30
0
41
1
10
68.8555349974541
20
2.20839268698236
30
0
41
1
10
68.8804077012394
20
2.17521057286194
30
0
41
1
10
68.8890989991951
20
2.1642158670729
30
0
41
1
10
68.9072319998464
20
2.14234969083375
30
0
41
1
10
68.9165415782135
20
2.13163782816744
30
0
41
1
10
68.9450645995332
20
2.10016035669224
30
0
41
1
10
68.964891644231
20
2.08001412855472
30
0
41
1
10
68.9957263971389
20
2.05092821928144
30
0
41
1
10
69.0062165563422
20
2.04139970788378
30
0
41
1
10
69.0274447555901
20
2.02283296137441
30
0
41
1
10
69.0380978466394
20
2.01386707854948
30
0
41
1
10
69.0701583195712
20
1.98789716652828
30
0
41
1
10
69.0916661639168
20
1.97180678796451
30
0
41
1
10
69.1240825125457
20
1.9496420124687
30
0
41
1
10
69.1349632485833
20
1.94255531380259
30
0
41
1
10
69.1565326200614
20
1.92926818573261
30
0
41
1
10
69.167164157802
20
1.92309934338621
30
0
41
1
10
69.1880848665211
20
1.91178147305575
30
0
41
1
10
69.198374421051
20
1.90663130249845
30
0
41
1
10
69.2185523239503
20
1.8974929727309
30
0
41
1
10
69.2284923601087
20
1.8934919397123
30
0
41
1
10
69.2473366039773
20
1.88707413991671
30
0
41
1
10
69.2562992531295
20
1.88462396181632
30
0
41
1
10
69.2731515012617
20
1.88149628502882
30
0
41
1
10
69.2810811095985
20
1.88082594511556
30
0
41
1
10
69.2881527137692
20
1.88125921032793
30
0
0
SPLINE
5
151
100
AcDbEntity
8
1
62
256
6
ByLayer
370
18
48
1
60
0
100
AcDbSpline
70
4
71
3
72
10
73
6
40
0
40
0
40
0
40
0
40
0.5
40
0.5
40
1
40
1
40
1
40
1
41
1
10
69.2881527137692
20
1.88125921032886
30
0
41
1
10
69.3486033950683
20
1.88496292120394
30
0
41
1
10
69.4087159538954
20
1.88551063435122
30
0
41
1
10
69.5283845734537
20
1.88041909268881
30
0
41
1
10
69.5879819618709
20
1.87477238564034
30
0
41
1
10
69.6472424484392
20
1.86608068658885
30
0
0
SPLINE
5
152
100
AcDbEntity
8
1
62
256
6
ByLayer
370
18
48
1
60
0
100
AcDbSpline
70
4
71
3
72
11
73
7
40
0
40
0
40
0
40
0
40
0.249999999999991
40
0.249999999999991
40
0.499999999999983
40
1
40
1
40
1
40
1
41
1
10
69.6472424484392
20
1.86608068658882
30
0
41
1
10
69.6973728878851
20
1.82253322002444
30
0
41
1
10
69.747523698888
20
1.77857197962413
30
0
41
1
10
69.847829466834
20
1.68985123638697
30
0
41
1
10
69.9978348584839
20
1.55597994483026
30
0
41
1
10
70.1464971748188
20
1.41975673989313
30
0
41
1
10
70.2450201195539
20
1.327906175772
30
0
0
SPLINE
5
153
100
AcDbEntity
8
1
62
256
6
ByLayer
370
18
48
1
60
0
100
AcDbSpline
70
4
71
3
72
10
73
6
40
0
40
0
40
0
40
0
40
0.5
40
0.5
40
1
40
1
40
1
40
1
41
1
10
70.245020119551
20
1.32790617577294
30
0
41
1
10
70.3144689688248
20
1.2170037083815
30
0
41
1
10
70.3843585633948
20
1.108815353702
30
0
41
1
10
70.524941063571
20
0.899491741586417
30
0
41
1
10
70.5956483178054
20
0.798191485870007
30
0
41
1
10
70.6668783952766
20
0.700323568264423
30
0
0
SPLINE
5
154
100
AcDbEntity
8
1
62
256
6
ByLayer
370
18
48
1
60
0
100
AcDbSpline
70
4
71
3
72
32
73
28
40
0
40
0
40
0
40
0
40
0.125000000000005
40
0.125000000000005
40
0.187500000000007
40
0.187500000000007
40
0.25000000000001
40
0.25000000000001
40
0.375000000000014
40
0.375000000000014
40
0.437499999999995
40
0.437499999999995
40
0.499999999999975
40
0.499999999999975
40
0.624999999999981
40
0.624999999999981
40
0.687499999999984
40
0.687499999999984
40
0.749999999999988
40
0.749999999999988
40
0.812499999999991
40
0.812499999999991
40
0.874999999999994
40
0.874999999999994
40
0.937499999999997
40
0.937499999999997
40
1
40
1
40
1
40
1
41
1
10
70.6668783952766
20
0.700323568264366
30
0
41
1
10
70.6797999226882
20
0.682569790296697
30
0
41
1
10
70.6948312175753
20
0.664073950415684
30
0
41
1
10
70.7197152829057
20
0.635550125321686
30
0
41
1
10
70.7284099892914
20
0.625907580892999
30
0
41
1
10
70.7465491426222
20
0.606370087477046
30
0
41
1
10
70.7558603834984
20
0.596618760646265
30
0
41
1
10
70.784389440873
20
0.567461226262338
30
0
41
1
10
70.8042197750905
20
0.548125746255408
30
0
41
1
10
70.8350582576583
20
0.519222557362752
30
0
41
1
10
70.8455492809321
20
0.509580021600328
30
0
41
1
10
70.8667795418444
20
0.490428063741717
30
0
41
1
10
70.8774335917049
20
0.480994507640446
30
0
41
1
10
70.909496467728
20
0.453099682393542
30
0
41
1
10
70.9310053076547
20
0.435038758427169
30
0
41
1
10
70.9634205709171
20
0.4087599810764
30
0
41
1
10
70.9742998336347
20
0.400099113165055
30
0
41
1
10
70.9958693852424
20
0.383256810957249
30
0
41
1
10
71.0065007297042
20
0.375119954583482
30
0
41
1
10
71.0274204551575
20
0.359451355374176
30
0
41
1
10
71.0377092212776
20
0.351918942168965
30
0
41
1
10
71.0578848282977
20
0.337538701755847
30
0
41
1
10
71.0678245340471
20
0.330657370467065
30
0
41
1
10
71.0866699037479
20
0.318077870730377
30
0
41
1
10
71.0956328285507
20
0.312335967502179
30
0
41
1
10
71.1124851241469
20
0.302131487740638
30
0
41
1
10
71.1204154553008
20
0.297649741584166
30
0
41
1
10
71.1274892693756
20
0.294069155009794
30
0
0
SPLINE
5
155
100
AcDbEntity
8
1
62
256
6
ByLayer
370
18
48
1
60
0
100
AcDbSpline
70
4
71
3
72
12
73
8
40
0
40
0
40
0
40
0
40
0.500000000000001
40
0.500000000000001
40
0.75
40
0.75
40
1
40
1
40
1
40
1
41
1
10
71.1274892693755
20
0.294069155010675
30
0
41
1
10
71.2168796136971
20
0.248822013458408
30
0
41
1
10
71.3055320897278
20
0.196959818430628
30
0
41
1
10
71.4376892898872
20
0.109558906630753
30
0
41
1
10
71.4816011677893
20
0.0788215540241026
30
0
41
1
10
71.5690142377609
20
0.0143088746268916
30
0
41
1
10
71.6125384410918
20
-0.0194811676753091
30
0
41
1
10
71.6559034075787
20
-0.0547851582927024
30
0
0
SPLINE
5
156
100
AcDbEntity
8
1
62
256
6
ByLayer
370
18
48
1
60
0
100
AcDbSpline
70
4
71
3
72
14
73
10
40
0
40
0
40
0
40
0
40
0.25
40
0.25
40
0.5
40
0.5
40
0.75
40
0.75
40
1
40
1
40
1
40
1
41
1
10
71.9380757132437
20
-0.344668453481347
30
0
41
1
10
71.9846649812355
20
-0.399916363439246
30
0
41
1
10
72.0314176025485
20
-0.453478948593101
30
0
41
1
10
72.1253206653316
20
-0.557158231973574
30
0
41
1
10
72.1724939041569
20
-0.607298194833561
30
0
41
1
10
72.2672034675932
20
-0.703908796475844
30
0
41
1
10
72.3147273716869
20
-0.750334957944744
30
0
41
1
10
72.4101423528751
20
-0.839525505613636
30
0
41
1
10
72.4580014588201
20
-0.882408712782308
30
0
41
1
10
72.5061086933271
20
-0.923307476934042
30
0
0
SPLINE
5
157
100
AcDbEntity
8
1
62
256
6
ByLayer
370
18
48
1
60
0
100
AcDbSpline
70
4
71
3
72
32
73
28
40
0
40
0
40
0
40
0
40
0.125000000000005
40
0.125000000000005
40
0.187500000000006
40
0.187500000000006
40
0.250000000000007
40
0.250000000000007
40
0.374999999999969
40
0.374999999999969
40
0.437499999999972
40
0.437499999999972
40
0.499999999999975
40
0.499999999999975
40
0.624999999999981
40
0.624999999999981
40
0.687499999999984
40
0.687499999999984
40
0.749999999999987
40
0.749999999999987
40
0.812499999999991
40
0.812499999999991
40
0.874999999999994
40
0.874999999999994
40
0.937499999999997
40
0.937499999999997
40
1
40
1
40
1
40
1
41
1
10
72.5061086933271
20
-0.923307476934099
30
0
41
1
10
72.51903922533
20
-0.93430047589078
30
0
41
1
10
72.5340803801404
20
-0.947036526016433
30
0
41
1
10
72.5589816708226
20
-0.968006442222105
30
0
41
1
10
72.5676825253065
20
-0.975317505950244
30
0
41
1
10
72.5858347979479
20
-0.990541650662038
30
0
41
1
10
72.5951515855254
20
-0.998341887133563
30
0
41
1
10
72.6236993022987
20
-1.02221644296134
30
0
41
1
10
72.6435427389683
20
-1.03877523445405
30
0
41
1
10
72.6743988411739
20
-1.06455886798551
30
0
41
1
10
72.6848963011811
20
-1.07333687032485
30
0
41
1
10
72.706133521708
20
-1.09112683967641
30
0
41
1
10
72.716790477651
20
-1.10006935536129
30
0
41
1
10
72.7488590208857
20
-1.12705658897232
30
0
41
1
10
72.7703672323858
20
-1.14525779409513
30
0
41
1
10
72.8027756378036
20
-1.17298938683209
30
0
41
1
10
72.8136524693097
20
-1.18234879700341
30
0
41
1
10
72.8352084350224
20
-1.20103551861624
30
0
41
1
10
72.8458326298739
20
-1.21031442141788
30
0
41
1
10
72.8667375616661
20
-1.22874397095293
30
0
41
1
10
72.8770186638778
20
-1.23789478251609
30
0
41
1
10
72.8971785141009
20
-1.25605910206707
30
0
41
1
10
72.9071103371593
20
-1.265123007401
30
0
41
1
10
72.9259422385193
20
-1.28259004177954
30
0
41
1
10
72.9348990085015
20
-1.29104273855975
30
0
41
1
10
72.9517404830365
20
-1.30729231295245
30
0
41
1
10
72.9596669606695
20
-1.31513322165401
30
0
41
1
10
72.9667399035095
20
-1.322369226121
30
0
0
SPLINE
5
158
100
AcDbEntity
8
1
62
256
6
ByLayer
370
18
48
1
60
0
100
AcDbSpline
70
4
71
3
72
10
73
6
40
0
40
0
40
0
40
0
40
0.5
40
0.5
40
1
40
1
40
1
40
1
41
1
10
72.9667399035095
20
-1.32236922612023
30
0
41
1
10
73.0667155095026
20
-1.4246496980426
30
0
41
1
10
73.1657591801545
20
-1.53404058205825
30
0
41
1
10
73.3625355873233
20
-1.7663622619547
30
0
41
1
10
73.4599728847874
20
-1.8889507877966
30
0
41
1
10
73.5566614491217
20
-2.01761555422684
30
0
0
SPLINE
5
159
100
AcDbEntity
8
1
62
256
6
ByLayer
370
18
48
1
60
0
100
AcDbSpline
70
4
71
3
72
12
73
8
40
0
40
0
40
0
40
0
40
0.25
40
0.25
40
0.499999999999999
40
0.499999999999999
40
1
40
1
40
1
40
1
41
1
10
73.7388640207664
20
-2.19817156803995
30
0
41
1
10
73.7885760426888
20
-2.22839021108663
30
0
41
1
10
73.8384692821998
20
-2.25640027829752
30
0
41
1
10
73.9386896136043
20
-2.30795763445656
30
0
41
1
10
73.9890291030727
20
-2.33151031186455
30
0
41
1
10
74.1407336319888
20
-2.39533418349615
30
0
41
1
10
74.2425434535326
20
-2.42867475367953
30
0
41
1
10
74.3453236851674
20
-2.45265334879042
30
0
0
SPLINE
5
15A
100
AcDbEntity
8
1
62
256
6
ByLayer
370
18
48
1
60
0
100
AcDbSpline
70
4
71
3
72
32
73
28
40
0
40
0
40
0
40
0
40
0.125000000000031
40
0.125000000000031
40
0.187500000000047
40
0.187500000000047
40
0.250000000000062
40
0.250000000000062
40
0.375000000000052
40
0.375000000000052
40
0.437500000000046
40
0.437500000000046
40
0.500000000000041
40
0.500000000000041
40
0.625000000000031
40
0.625000000000031
40
0.687500000000026
40
0.687500000000026
40
0.750000000000021
40
0.750000000000021
40
0.812500000000016
40
0.812500000000016
40
0.87500000000001
40
0.87500000000001
40
0.937500000000005
40
0.937500000000005
40
1
40
1
40
1
40
1
41
1
10
74.3453236851674
20
-2.45265334879042
30
0
41
1
10
74.358286844647
20
-2.45567764974376
30
0
41
1
10
74.3733697476923
20
-2.46129229408163
30
0
41
1
10
74.3983283962081
20
-2.47251886695472
30
0
41
1
10
74.4070476059076
20
-2.47674287774168
30
0
41
1
10
74.4252325305937
20
-2.48609475473381
30
0
41
1
10
74.4345605136753
20
-2.49115190738471
30
0
41
1
10
74.4631337682322
20
-2.50733579122323
30
0
41
1
10
74.4829794280117
20
-2.5194700204305
30
0
41
1
10
74.513809318239
20
-2.53958793116073
30
0
41
1
10
74.5242933323222
20
-2.54663704939611
30
0
41
1
10
74.5454957332185
20
-2.56131548905998
30
0
41
1
10
74.5561337159001
20
-2.56888804497018
30
0
41
1
10
74.588147725876
20
-2.59230768857876
30
0
41
1
10
74.6096241875826
20
-2.60884294117821
30
0
41
1
10
74.6420128995636
20
-2.63524365109353
30
0
41
1
10
74.6528863299167
20
-2.64435682504009
30
0
41
1
10
74.6744427246447
20
-2.66300479837903
30
0
41
1
10
74.6850695010586
20
-2.6724881686286
30
0
41
1
10
74.705981639859
20
-2.69181448459415
30
0
41
1
10
74.7162673321695
20
-2.70165708371238
30
0
41
1
10
74.7364361864485
20
-2.72176639806668
30
0
41
1
10
74.7463727544102
20
-2.73209531639929
30
0
41
1
10
74.7652162217134
20
-2.75268222547095
30
0
41
1
10
74.7741793000042
20
-2.76299040619787
30
0
41
1
10
74.7910342811685
20
-2.78364054982066
30
0
41
1
10
74.7989683748666
20
-2.79404678835047
30
0
41
1
10
74.8060492218462
20
-2.80420525703693
30
0
0
SPLINE
5
15B
100
AcDbEntity
8
1
62
256
6
ByLayer
370
18
48
1
60
0
100
AcDbSpline
70
4
71
3
72
10
73
6
40
0
40
0
40
0
40
0
40
0.5
40
0.5
40
1
40
1
40
1
40
1
41
1
10
74.8060492218461
20
-2.80420525703627
30
0
41
1
10
74.906100271169
20
-2.94774252800278
30
0
41
1
10
75.0052158796087
20
-3.0964831740477
30
0
41
1
10
75.2021503593439
20
-3.40363784352104
30
0
41
1
10
75.2996701511501
20
-3.56162903029841
30
0
41
1
10
75.3964364791819
20
-3.72370946550475
30
0
0
SPLINE
5
15C
100
AcDbEntity
8
1
62
256
6
ByLayer
370
18
48
1
60
0
100
AcDbSpline
70
4
71
3
72
12
73
8
40
0
40
0
40
0
40
0
40
0.249999999999996
40
0.249999999999996
40
0.499999999999993
40
0.499999999999993
40
1
40
1
40
1
40
1
41
1
10
75.5780822166882
20
-3.87346823193491
30
0
41
1
10
75.6277789710268
20
-3.87087989446758
30
0
41
1
10
75.6776627617302
20
-3.86603374537159
30
0
41
1
10
75.7778743039593
20
-3.85180221631561
30
0
41
1
10
75.8282144027782
20
-3.84241407458822
30
0
41
1
10
75.9799319369562
20
-3.80739201126354
30
0
41
1
10
76.081765223993
20
-3.77497044871498
30
0
41
1
10
76.1845832200235
20
-3.73335493408828
30
0
0
SPLINE
5
15D
100
AcDbEntity
8
1
62
256
6
ByLayer
370
18
48
1
60
0
100
AcDbSpline
70
4
71
3
72
32
73
28
40
0
40
0
40
0
40
0
40
0.124999999999967
40
0.124999999999967
40
0.187499999999968
40
0.187499999999968
40
0.24999999999997
40
0.24999999999997
40
0.374999999999976
40
0.374999999999976
40
0.437499999999978
40
0.437499999999978
40
0.49999999999998
40
0.49999999999998
40
0.624999999999984
40
0.624999999999984
40
0.687499999999987
40
0.687499999999987
40
0.74999999999999
40
0.74999999999999
40
0.812499999999992
40
0.812499999999992
40
0.874999999999995
40
0.874999999999995
40
0.937499999999997
40
0.937499999999997
40
1
40
1
40
1
40
1
41
1
10
76.1845832200235
20
-3.73335493408828
30
0
41
1
10
76.1975555828071
20
-3.72810437899094
30
0
41
1
10
76.2126520284627
20
-3.72601409572968
30
0
41
1
10
76.2376363843291
20
-3.72630740487361
30
0
41
1
10
76.2463651065026
20
-3.72699395393238
30
0
41
1
10
76.2645711630636
20
-3.72947078387793
30
0
41
1
10
76.2739117616313
20
-3.7312427445591
30
0
41
1
10
76.302520660222
20
-3.73799116113648
30
0
41
1
10
76.3223908052294
20
-3.74438359725477
30
0
41
1
10
76.3532689020315
20
-3.75663506448856
30
0
41
1
10
76.3637733961557
20
-3.76118219219111
30
0
41
1
10
76.3850094965626
20
-3.77113972939995
30
0
41
1
10
76.3956651440038
20
-3.77651207124884
30
0
41
1
10
76.427727725455
20
-3.79381050852393
30
0
41
1
10
76.4492290478987
20
-3.8068989672249
30
0
41
1
10
76.4816150081538
20
-3.82918718200841
30
0
41
1
10
76.4924846210017
20
-3.83710431146758
30
0
41
1
10
76.5140008439126
20
-3.85375713969413
30
0
41
1
10
76.5246038367953
20
-3.86245378456826
30
0
41
1
10
76.5454653127198
20
-3.88065709491002
30
0
41
1
10
76.5557241217397
20
-3.89016290495172
30
0
41
1
10
76.5758392507744
20
-3.91010995978294
30
0
41
1
10
76.5857481707706
20
-3.92061778433373
30
0
41
1
10
76.6045398152711
20
-3.94215286665326
30
0
41
1
10
76.6134787430177
20
-3.95322649294883
30
0
41
1
10
76.6302902230339
20
-3.97608786126276
30
0
41
1
10
76.6382056154486
20
-3.98795361470457
30
0
41
1
10
76.6452738988923
20
-3.99995623427719
30
0
0
SPLINE
5
15E
100
AcDbEntity
8
1
62
256
6
ByLayer
370
18
48
1
60
0
100
AcDbSpline
70
4
71
3
72
10
73
6
40
0
40
0
40
0
40
0
40
0.5
40
0.5
40
1
40
1
40
1
40
1
41
1
10
76.6452738988923
20
-3.99995623427674
30
0
41
1
10
76.7453012730441
20
-4.16981225778548
30
0
41
1
10
76.844392455102
20
-4.34240693732764
30
0
41
1
10
77.0412923410395
20
-4.69254572381769
30
0
41
1
10
77.1388011242926
20
-4.86959131137178
30
0
41
1
10
77.2355652593885
20
-5.04831501164674
30
0
0
SPLINE
5
15F
100
AcDbEntity
8
1
62
256
6
ByLayer
370
18
48
1
60
0
100
AcDbSpline
70
4
71
3
72
12
73
8
40
0
40
0
40
0
40
0
40
0.250000000000003
40
0.250000000000003
40
0.500000000000007
40
0.500000000000007
40
1
40
1
40
1
40
1
41
1
10
77.4178298826733
20
-5.15306745268487
30
0
41
1
10
77.4674801004625
20
-5.1180618012034
30
0
41
1
10
77.5173139053408
20
-5.08096937740231
30
0
41
1
10
77.6174280020171
20
-5.00261285048393
30
0
41
1
10
77.667720903838
20
-4.96133794596776
30
0
41
1
10
77.8193106032849
20
-4.83129446172433
30
0
41
1
10
77.9210759935172
20
-4.73652871733978
30
0
41
1
10
78.0238652910762
20
-4.63365085853781
30
0
0
SPLINE
5
160
100
AcDbEntity
8
1
62
256
6
ByLayer
370
18
48
1
60
0
100
AcDbSpline
70
4
71
3
72
32
73
28
40
0
40
0
40
0
40
0
40
0.125000000000031
40
0.125000000000031
40
0.187500000000044
40
0.187500000000044
40
0.250000000000059
40
0.250000000000059
40
0.375000000000087
40
0.375000000000087
40
0.437500000000078
40
0.437500000000078
40
0.50000000000007
40
0.50000000000007
40
0.625000000000052
40
0.625000000000052
40
0.687500000000044
40
0.687500000000044
40
0.750000000000035
40
0.750000000000035
40
0.812500000000026
40
0.812500000000026
40
0.875000000000017
40
0.875000000000017
40
0.937500000000009
40
0.937500000000009
40
1
40
1
40
1
40
1
41
1
10
78.0238652910762
20
-4.63365085853781
30
0
41
1
10
78.0368349223953
20
-4.62067005283865
30
0
41
1
10
78.0519308231492
20
-4.61108949125497
30
0
41
1
10
78.0769199830256
20
-4.6004167419232
30
0
41
1
10
78.0856512567595
20
-4.59749393091803
30
0
41
1
10
78.1038649291996
20
-4.59283813734257
30
0
41
1
10
78.1132122467516
20
-4.59114013835867
30
0
41
1
10
78.1418402334485
20
-4.58775651091906
30
0
41
1
10
78.1617255730706
20
-4.58775282880811
30
0
41
1
10
78.1926247260653
20
-4.59090339247956
30
0
41
1
10
78.2031375264544
20
-4.59249217086219
30
0
41
1
10
78.2243796507539
20
-4.59673752174163
30
0
41
1
10
78.235036493146
20
-4.59937638712645
30
0
41
1
10
78.2670977047877
20
-4.60883159387899
30
0
41
1
10
78.288591773042
20
-4.61716132183588
30
0
41
1
10
78.3209675556305
20
-4.63306477806591
30
0
41
1
10
78.3318361874929
20
-4.6389732796531
30
0
41
1
10
78.3533335825405
20
-4.65192348618603
30
0
41
1
10
78.3639279087879
20
-4.65893763254232
30
0
41
1
10
78.3847730325957
20
-4.67414016567829
30
0
41
1
10
78.3950243156987
20
-4.68232725916275
30
0
41
1
10
78.4151252967945
20
-4.70005279675041
30
0
41
1
10
78.4250246681253
20
-4.70965343298025
30
0
41
1
10
78.4437941490308
20
-4.72990502705389
30
0
41
1
10
78.4527228895288
20
-4.74059611530791
30
0
41
1
10
78.4695159234622
20
-4.76329846646035
30
0
41
1
10
78.4774220997417
20
-4.77539155208751
30
0
41
1
10
78.4844820812969
20
-4.78798601312562
30
0
0
SPLINE
5
161
100
AcDbEntity
8
1
62
256
6
ByLayer
370
18
48
1
60
0
100
AcDbSpline
70
4
71
3
72
12
73
8
40
0
40
0
40
0
40
0
40
0.499999999999992
40
0.499999999999992
40
0.749999999999996
40
0.749999999999996
40
1
40
1
40
1
40
1
41
1
10
78.4844820812968
20
-4.78798601312536
30
0
41
1
10
78.5717897801122
20
-4.94373619497301
30
0
41
1
10
78.6583412730676
20
-5.0994916118832
30
0
41
1
10
78.7873110506309
20
-5.33299127827806
30
0
41
1
10
78.830171786254
20
-5.41080950165124
30
0
41
1
10
78.9155280154018
20
-5.56607940597968
30
0
41
1
10
78.95803485978
20
-5.64356622072702
30
0
41
1
10
79.0003860313034
20
-5.72089313951167
30
0
0
SPLINE
5
162
100
AcDbEntity
8
1
62
256
6
ByLayer
370
18
48
1
60
0
100
AcDbSpline
70
4
71
3
72
8
73
4
40
0
40
0
40
0
40
0
40
1
40
1
40
1
40
1
41
1
10
79.0003860313034
20
-5.72089313951165
30
0
41
1
10
79.1379111761264
20
-5.71982960344798
30
0
41
1
10
79.2759671371006
20
-5.71236739719077
30
0
41
1
10
79.4148398402072
20
-5.69867068599041
30
0
0
SPLINE
5
163
100
AcDbEntity
8
1
62
256
6
ByLayer
370
18
48
1
60
0
100
AcDbSpline
70
4
71
3
72
10
73
6
40
0
40
0
40
0
40
0
40
0.5
40
0.5
40
1
40
1
40
1
40
1
41
1
10
79.4148398402072
20
-5.69867068599041
30
0
41
1
10
79.488578914992
20
-5.59965687990936
30
0
41
1
10
79.5628850496514
20
-5.49689731814806
30
0
41
1
10
79.7123168703653
20
-5.28467314745276
30
0
41
1
10
79.7874684330623
20
-5.17517903718792
30
0
41
1
10
79.8631820513427
20
-5.06231056058417
30
0
0
SPLINE
5
164
100
AcDbEntity
8
1
62
256
6
ByLayer
370
18
48
1
60
0
100
AcDbSpline
70
4
71
3
72
32
73
28
40
0
40
0
40
0
40
0
40
0.124999999999937
40
0.124999999999937
40
0.187499999999923
40
0.187499999999923
40
0.249999999999909
40
0.249999999999909
40
0.374999999999925
40
0.374999999999925
40
0.437499999999932
40
0.437499999999932
40
0.49999999999994
40
0.49999999999994
40
0.624999999999955
40
0.624999999999955
40
0.687499999999962
40
0.687499999999962
40
0.74999999999997
40
0.74999999999997
40
0.812499999999977
40
0.812499999999977
40
0.874999999999985
40
0.874999999999985
40
0.937499999999992
40
0.937499999999992
40
1
40
1
40
1
40
1
41
1
10
79.8631820513427
20
-5.06231056058417
30
0
41
1
10
79.8761520060639
20
-5.04297587464194
30
0
41
1
10
79.8912499002953
20
-5.02693627009009
30
0
41
1
10
79.9162448676523
20
-5.00646748328489
30
0
41
1
10
79.9249785586977
20
-5.00026067663703
30
0
41
1
10
79.9431981940631
20
-4.98900169303619
30
0
41
1
10
79.9525509572899
20
-4.98403253039317
30
0
41
1
10
79.9811916914289
20
-4.9709411308869
30
0
41
1
10
80.0010852817399
20
-4.96459326154147
30
0
41
1
10
80.0319971089426
20
-4.95839042947912
30
0
41
1
10
80.042515023038
20
-4.95687973519748
30
0
41
1
10
80.0637629069631
20
-4.95502189320888
30
0
41
1
10
80.0744222688815
20
-4.95467702252515
30
0
41
1
10
80.1064897642712
20
-4.95537663310719
30
0
41
1
10
80.1279862772536
20
-4.95812711767931
30
0
41
1
10
80.1603627371976
20
-4.96606720957124
30
0
41
1
10
80.1712322555063
20
-4.96937776855782
30
0
41
1
10
80.1927188181293
20
-4.97734142858866
30
0
41
1
10
80.2033071153701
20
-4.98197564290064
30
0
41
1
10
80.2241383803763
20
-4.99266035529348
30
0
41
1
10
80.2343819919596
20
-4.99870941689105
30
0
41
1
10
80.254466182816
20
-5.01243332788033
30
0
41
1
10
80.26435494362
20
-5.0201615545262
30
0
41
1
10
80.2831007504737
20
-5.03708949007856
30
0
41
1
10
80.2920174425876
20
-5.04631728864578
30
0
41
1
10
80.308786765683
20
-5.06655571022762
30
0
41
1
10
80.3166810590986
20
-5.07764444369724
30
0
41
1
10
80.3237311849024
20
-5.08954457289994
30
0
0
SPLINE
5
165
100
AcDbEntity
8
1
62
256
6
ByLayer
370
18
48
1
60
0
100
AcDbSpline
70
4
71
3
72
8
73
4
40
0
40
0
40
0
40
0
40
1
40
1
40
1
40
1
41
1
10
80.3237311849024
20
-5.08954457289991
30
0
41
1
10
80.3977284058984
20
-5.21444681081545
30
0
41
1
10
80.4711894754232
20
-5.33782607326461
30
0
41
1
10
80.5442232571931
20
-5.45964647213026
30
0
0
SPLINE
5
166
100
AcDbEntity
8
1
62
256
6
ByLayer
370
18
48
1
60
0
100
AcDbSpline
70
4
71
3
72
14
73
10
40
0
40
0
40
0
40
0
40
0.125000000000006
40
0.125000000000006
40
0.250000000000013
40
0.250000000000013
40
0.500000000000008
40
0.500000000000008
40
1
40
1
40
1
40
1
41
1
10
80.5442232571931
20
-5.45964647213026
30
0
41
1
10
80.5918913821093
20
-5.44441454806721
30
0
41
1
10
80.6396995572527
20
-5.42851041059899
30
0
41
1
10
80.735540712261
20
-5.39537228432891
30
0
41
1
10
80.7834475716309
20
-5.3781815500129
30
0
41
1
10
80.9272807885994
20
-5.32472649568629
30
0
41
1
10
81.0233927217116
20
-5.28655880438816
30
0
41
1
10
81.3128050180108
20
-5.16469332788981
30
0
41
1
10
81.5070407655262
20
-5.07368107729053
30
0
41
1
10
81.7029709289896
20
-4.97362279206405
30
0
0
SPLINE
5
167
100
AcDbEntity
8
1
62
256
6
ByLayer
370
18
48
1
60
0
100
AcDbSpline
70
4
71
3
72
26
73
22
40
0
40
0
40
0
40
0
40
0.124999999999968
40
0.124999999999968
40
0.249999999999937
40
0.249999999999937
40
0.312499999999921
40
0.312499999999921
40
0.374999999999906
40
0.374999999999906
40
0.499999999999875
40
0.499999999999875
40
0.56249999999989
40
0.56249999999989
40
0.624999999999905
40
0.624999999999905
40
0.749999999999937
40
0.749999999999937
40
0.874999999999968
40
0.874999999999968
40
1
40
1
40
1
40
1
41
1
10
81.7029709289901
20
-4.97362279206581
30
0
41
1
10
81.712272075157
20
-4.9567615147196
30
0
41
1
10
81.7226658576367
20
-4.94136544921358
30
0
41
1
10
81.7451677415322
20
-4.91285235110348
30
0
41
1
10
81.7572827389981
20
-4.89974500676516
30
0
41
1
10
81.7766057709965
20
-4.88161366312224
30
0
41
1
10
81.7832177163252
20
-4.87585092746755
30
0
41
1
10
81.7966133323019
20
-4.86497324834954
30
0
41
1
10
81.8034186602179
20
-4.85983782498886
30
0
41
1
10
81.8241353462722
20
-4.84528705816572
30
0
41
1
10
81.838345043537
20
-4.83672138721676
30
0
41
1
10
81.8602119594135
20
-4.82548612599632
30
0
41
1
10
81.867593685735
20
-4.82201148894814
30
0
41
1
10
81.8825410045542
20
-4.81560641252906
30
0
41
1
10
81.890129206517
20
-4.8126692656088
30
0
41
1
10
81.9129085618965
20
-4.80478133027194
30
0
41
1
10
81.9281641591165
20
-4.80071861919498
30
0
41
1
10
81.9587841600659
20
-4.79499188800244
30
0
41
1
10
81.9741486788122
20
-4.79332616615358
30
0
41
1
10
82.0049664720962
20
-4.7926185695076
30
0
41
1
10
82.0205115946349
20
-4.79360341052256
30
0
41
1
10
82.0356420970637
20
-4.79606620224152
30
0
0
SPLINE
5
168
100
AcDbEntity
8
1
62
256
6
ByLayer
370
18
48
1
60
0
100
AcDbSpline
70
4
71
3
72
10
73
6
40
0
40
0
40
0
40
0
40
0.5
40
0.5
40
1
40
1
40
1
40
1
41
1
10
82.0356420970637
20
-4.79606620224183
30
0
41
1
10
82.0958470671993
20
-4.76258152359935
30
0
41
1
10
82.1562127315732
20
-4.72828067060061
30
0
41
1
10
82.2776256644848
20
-4.65806704894371
30
0
41
1
10
82.3386527852084
20
-4.62215649373036
30
0
41
1
10
82.3999998636207
20
-4.58545942856492
30
0
0
SPLINE
5
169
100
AcDbEntity
8
1
62
256
6
ByLayer
370
18
48
1
60
0
100
AcDbSpline
70
4
71
3
72
14
73
10
40
0
40
0
40
0
40
0
40
0.25
40
0.25
40
0.5
40
0.5
40
0.75
40
0.75
40
1
40
1
40
1
40
1
41
1
10
82.3999998636207
20
-4.58545942856492
30
0
41
1
10
82.4475870605546
20
-4.5261250412789
30
0
41
1
10
82.4956842845933
20
-4.4663281189388
30
0
41
1
10
82.5931082640911
20
-4.34589197721095
30
0
41
1
10
82.6424775416751
20
-4.28520034455744
30
0
41
1
10
82.7425149960085
20
-4.16331495867973
30
0
41
1
10
82.793154516167
20
-4.10214395666353
30
0
41
1
10
82.895623491665
20
-3.97962843035509
30
0
41
1
10
82.9474299797781
20
-3.91837627806078
30
0
41
1
10
82.9999999999999
20
-3.85722759741901
30
0
0
SPLINE
5
16A
100
AcDbEntity
8
1
62
256
6
ByLayer
370
18
48
1
60
0
100
AcDbSpline
70
4
71
3
72
28
73
24
40
0
40
0
40
0
40
0
40
0.177108769852644
40
0.177108769852644
40
0.221385962315805
40
0.221385962315805
40
0.265663154778966
40
0.265663154778966
40
0.354217539705287
40
0.354217539705287
40
0.398494732168447
40
0.398494732168447
40
0.442771924631608
40
0.531326309557928
40
0.531326309557928
40
0.708435079410569
40
0.708435079410569
40
0.75271227187373
40
0.75271227187373
40
0.79698946433689
40
0.885543849263211
40
0.885543849263211
40
1
40
1
40
1
40
1
41
1
10
83
20
-3.85722759741898
30
0
41
1
10
83
20
-3.74965739653342
30
0
41
1
10
82.9999999999999
20
-3.64717815217213
30
0
41
1
10
83
20
-3.52561921347444
30
0
41
1
10
83
20
-3.50170097962902
30
0
41
1
10
83
20
-3.45493478852995
30
0
41
1
10
83
20
-3.4320429521714
30
0
41
1
10
83.0000000000001
20
-3.36482371225031
30
0
41
1
10
82.9999999999999
20
-3.32199820010203
30
0
41
1
10
82.9999999999999
20
-3.26041214346265
30
0
41
1
10
83
20
-3.24016331363867
30
0
41
1
10
82.9999999999999
20
-3.20004019548358
30
0
41
1
10
83.0000000000001
20
-3.14053902713618
30
0
41
1
10
83
20
-3.08307935423659
30
0
41
1
10
82.9999999999999
20
-2.97087727017475
30
0
41
1
10
83
20
-2.89969230637058
30
0
41
1
10
83
20
-2.81531643511684
30
0
41
1
10
83
20
-2.79865770302297
30
0
41
1
10
83
20
-2.76590343679999
30
0
41
1
10
83
20
-2.71760164724176
30
0
41
1
10
83
20
-2.67175739512888
30
0
41
1
10
83
20
-2.60415308188436
30
0
41
1
10
83
20
-2.56782796808747
30
0
41
1
10
83
20
-2.53328059742862
30
0
0
SPLINE
5
16B
100
AcDbEntity
8
1
62
256
6
ByLayer
370
18
48
1
60
0
100
AcDbSpline
70
4
71
3
72
10
73
6
40
0
40
0
40
0
40
0
40
0.500000000000001
40
0.500000000000001
40
1
40
1
40
1
40
1
41
1
10
83
20
-2.48717047371304
30
0
41
1
10
82.9019449899666
20
-2.48313659536203
30
0
41
1
10
82.8028460011122
20
-2.47927150338583
30
0
41
1
10
82.6028176274834
20
-2.47244883551497
30
0
41
1
10
82.5018775721944
20
-2.46954357441476
30
0
41
1
10
82.4000000932894
20
-2.46793751745403
30
0
0
SPLINE
5
16C
100
AcDbEntity
8
1
62
256
6
ByLayer
370
18
48
1
60
0
100
AcDbSpline
70
4
71
3
72
10
73
6
40
0
40
0
40
0
40
0
40
0.5
40
0.5
40
1
40
1
40
1
40
1
41
1
10
82.4000000932893
20
-2.46793751745392
30
0
41
1
10
82.2971090925454
20
-2.41552532957664
30
0
41
1
10
82.1949072477652
20
-2.3611053113693
30
0
41
1
10
81.9920182247363
20
-2.24802586318202
30
0
41
1
10
81.8912794558581
20
-2.18942794749626
30
0
41
1
10
81.7911418537979
20
-2.12886585928987
30
0
0
SPLINE
5
16D
100
AcDbEntity
8
1
62
256
6
ByLayer
370
18
48
1
60
0
100
AcDbSpline
70
4
71
3
72
8
73
4
40
0
40
0
40
0
40
0
40
1
40
1
40
1
40
1
41
1
10
81.7911418537978
20
-2.12886585928987
30
0
41
1
10
81.7808519184375
20
-2.10950367440006
30
0
41
1
10
81.7705534738364
20
-2.09018521690425
30
0
41
1
10
81.7602462103761
20
-2.07091072245754
30
0
0
SPLINE
5
16E
100
AcDbEntity
8
1
62
256
6
ByLayer
370
18
48
1
60
0
100
AcDbSpline
70
4
71
3
72
32
73
28
40
0
40
0
40
0
40
0
40
0.125000000000005
40
0.125000000000005
40
0.187500000000006
40
0.187500000000006
40
0.250000000000008
40
0.250000000000008
40
0.374999999999971
40
0.374999999999971
40
0.437499999999974
40
0.437499999999974
40
0.499999999999978
40
0.499999999999978
40
0.624999999999984
40
0.624999999999984
40
0.687499999999987
40
0.687499999999987
40
0.74999999999999
40
0.74999999999999
40
0.812499999999992
40
0.812499999999992
40
0.874999999999995
40
0.874999999999995
40
0.937499999999997
40
0.937499999999997
40
1
40
1
40
1
40
1
41
1
10
81.7602462103761
20
-2.07091072245754
30
0
41
1
10
81.7477547914691
20
-2.04755187602052
30
0
41
1
10
81.7332703041094
20
-2.02453602462944
30
0
41
1
10
81.7092577467649
20
-1.99042526652559
30
0
41
1
10
81.7008616663177
20
-1.97912223847166
30
0
41
1
10
81.6833402003298
20
-1.95665975312244
30
0
41
1
10
81.6743340459371
20
-1.94565248908165
30
0
41
1
10
81.6466458379584
20
-1.91324185169427
30
0
41
1
10
81.6273011153163
20
-1.89244320771738
30
0
41
1
10
81.5970460354844
20
-1.86237418691584
30
0
41
1
10
81.5867527027336
20
-1.85254113188208
30
0
41
1
10
81.5657409324452
20
-1.83326245579425
30
0
41
1
10
81.5551142482495
20
-1.82390302159877
30
0
41
1
10
81.5231311471449
20
-1.796873597043
30
0
41
1
10
81.5015715300469
20
-1.7801421635229
30
0
41
1
10
81.4688969387279
20
-1.75716953456481
30
0
41
1
10
81.4579490402779
20
-1.74986947106129
30
0
41
1
10
81.4359358779423
20
-1.73607844834149
30
0
41
1
10
81.424907103663
20
-1.72961686350345
30
0
41
1
10
81.403301476106
20
-1.71794100716494
30
0
41
1
10
81.3926603732266
20
-1.71268435551136
30
0
41
1
10
81.3717640376127
20
-1.70350736629598
30
0
41
1
10
81.3614325049994
20
-1.69956639383787
30
0
41
1
10
81.3418197020937
20
-1.69349562555573
30
0
41
1
10
81.3324984908157
20
-1.69133648673815
30
0
41
1
10
81.3149985822406
20
-1.68907811403565
30
0
41
1
10
81.306804856912
20
-1.68899827703251
30
0
41
1
10
81.2995705375518
20
-1.69016980109012
30
0
0
SPLINE
5
16F
100
AcDbEntity
8
1
62
256
6
ByLayer
370
18
48
1
60
0
100
AcDbSpline
70
4
71
3
72
8
73
4
40
0
40
0
40
0
40
0
40
1
40
1
40
1
40
1
41
1
10
81.2995705375473
20
-1.69016980110072
30
0
41
1
10
81.2486869981216
20
-1.69840987008851
30
0
41
1
10
81.1979787030127
20
-1.70433378707267
30
0
41
1
10
81.1474189434766
20
-1.70797265065616
30
0
0
SPLINE
5
170
100
AcDbEntity
8
1
62
256
6
ByLayer
370
18
48
1
60
0
100
AcDbSpline
70
4
71
3
72
10
73
6
40
0
40
0
40
0
40
0
40
0.5
40
0.5
40
1
40
1
40
1
40
1
41
1
10
81.147418943477
20
-1.70797265065616
30
0
41
1
10
80.9975039429314
20
-1.60272937614488
30
0
41
1
10
80.8485299710384
20
-1.49327154371176
30
0
41
1
10
80.5521443464334
20
-1.2659447640234
30
0
41
1
10
80.4047717443349
20
-1.14802339576818
30
0
41
1
10
80.2579283301214
20
-1.02605910613085
30
0
0
SPLINE
5
171
100
AcDbEntity
8
1
62
256
6
ByLayer
370
18
48
1
60
0
100
AcDbSpline
70
4
71
3
72
10
73
6
40
0
40
0
40
0
40
0
40
0.5
40
0.5
40
1
40
1
40
1
40
1
41
1
10
80.2579283301212
20
-1.02605910613113
30
0
41
1
10
80.2021671578744
20
-0.933962269728084
30
0
41
1
10
80.1461988711881
20
-0.84382621370446
30
0
41
1
10
80.0338759237894
20
-0.667734930009971
30
0
41
1
10
79.9775036690221
20
-0.581747360120232
30
0
41
1
10
79.9208737139053
20
-0.497878334174544
30
0
0
SPLINE
5
172
100
AcDbEntity
8
1
62
256
6
ByLayer
370
18
48
1
60
0
100
AcDbSpline
70
4
71
3
72
32
73
28
40
0
40
0
40
0
40
0
40
0.124999999999984
40
0.124999999999984
40
0.187499999999993
40
0.187499999999993
40
0.250000000000002
40
0.250000000000002
40
0.37500000000002
40
0.37500000000002
40
0.437500000000051
40
0.437500000000051
40
0.500000000000081
40
0.500000000000081
40
0.625000000000096
40
0.625000000000096
40
0.68750000000008
40
0.68750000000008
40
0.750000000000064
40
0.750000000000064
40
0.812500000000048
40
0.812500000000048
40
0.875000000000032
40
0.875000000000032
40
0.937500000000016
40
0.937500000000016
40
1
40
1
40
1
40
1
41
1
10
79.9208737139053
20
-0.497878334174516
30
0
41
1
10
79.9083726564692
20
-0.479364254332921
30
0
41
1
10
79.8938760863942
20
-0.46026598619531
30
0
41
1
10
79.8698453289952
20
-0.430985704728983
30
0
41
1
10
79.8614432038613
20
-0.421114465054444
30
0
41
1
10
79.8439098029622
20
-0.401175716559663
30
0
41
1
10
79.8348980939596
20
-0.391243813337837
30
0
41
1
10
79.8071953284989
20
-0.361546633377145
30
0
41
1
10
79.7878438546356
20
-0.341880016868941
30
0
41
1
10
79.757583606325
20
-0.312531796745702
30
0
41
1
10
79.7472893732987
20
-0.302774365194068
30
0
41
1
10
79.7262775671152
20
-0.283302446636952
30
0
41
1
10
79.7156509116999
20
-0.27367329941535
30
0
41
1
10
79.6836701611769
20
-0.245317627333066
30
0
41
1
10
79.6621142426923
20
-0.227020072952968
30
0
41
1
10
79.6294487651964
20
-0.200526580062217
30
0
41
1
10
79.6185045088955
20
-0.191855716113366
30
0
41
1
10
79.5965000822213
20
-0.174868225804147
30
0
41
1
10
79.5854747297938
20
-0.166581717048388
30
0
41
1
10
79.5638768291386
20
-0.150829768358818
30
0
41
1
10
79.5532399170567
20
-0.143313511443523
30
0
41
1
10
79.5323525173342
20
-0.129102271983811
30
0
41
1
10
79.5220253019976
20
-0.122361300807711
30
0
41
1
10
79.5024183619319
20
-0.110230574689098
30
0
41
1
10
79.4930999459037
20
-0.104808734914002
30
0
41
1
10
79.475605245125
20
-0.0954776150114753
30
0
41
1
10
79.4674127627677
20
-0.0915696321303017
30
0
41
1
10
79.4601789984781
20
-0.0887102874395964
30
0
0
SPLINE
5
173
100
AcDbEntity
8
1
62
256
6
ByLayer
370
18
48
1
60
0
100
AcDbSpline
70
4
71
3
72
12
73
8
40
0
40
0
40
0
40
0
40
0.5
40
0.5
40
0.75
40
0.75
40
1
40
1
40
1
40
1
41
1
10
79.4601789984747
20
-0.0887102874481229
30
0
41
1
10
79.3612021369437
20
-0.0495869552286194
30
0
41
1
10
79.2628229292623
20
-0.0018121509319542
30
0
41
1
10
79.116299673403
20
0.0821216032860264
30
0
41
1
10
79.0676339112414
20
0.11214295817922
30
0
41
1
10
78.9707482149284
20
0.176094590394882
30
0
41
1
10
78.92250687699
20
0.210036809850919
30
0
41
1
10
78.8744378895427
20
0.245913265034147
30
0
0
SPLINE
5
174
100
AcDbEntity
8
1
62
256
6
ByLayer
370
18
48
1
60
0
100
AcDbSpline
70
4
71
3
72
8
73
4
40
0
40
0
40
0
40
0
40
1
40
1
40
1
40
1
41
1
10
78.6925494968565
20
0.438575040905761
30
0
41
1
10
78.7531989545888
20
0.374396772567138
30
0
41
1
10
78.8138229237825
20
0.310170986637786
30
0
41
1
10
78.8744378895399
20
0.245913265032186
30
0
0
SPLINE
5
175
100
AcDbEntity
8
1
62
256
6
ByLayer
370
18
48
1
60
0
100
AcDbSpline
70
4
71
3
72
12
73
8
40
0
40
0
40
0
40
0
40
0.250000000000003
40
0.250000000000003
40
0.500000000000006
40
0.500000000000006
40
1
40
1
40
1
40
1
41
1
10
78.6925494968565
20
0.438575040905732
30
0
41
1
10
78.6423708221087
20
0.504237097894048
30
0
41
1
10
78.5920283526839
20
0.567877611306187
30
0
41
1
10
78.4909451911652
20
0.691064532563644
30
0
41
1
10
78.4401916750855
20
0.750626277814888
30
0
41
1
10
78.2873129163966
20
0.922984168097457
30
0
41
1
10
78.1848265878005
20
1.02919460472796
30
0
41
1
10
78.0814770656516
20
1.12644028971778
30
0
0
SPLINE
5
176
100
AcDbEntity
8
1
62
256
6
ByLayer
370
18
48
1
60
0
100
AcDbSpline
70
4
71
3
72
32
73
28
40
0
40
0
40
0
40
0
40
0.124999999999918
40
0.124999999999918
40
0.187499999999878
40
0.187499999999878
40
0.249999999999838
40
0.249999999999838
40
0.374999999999798
40
0.374999999999798
40
0.4374999999998
40
0.4374999999998
40
0.499999999999802
40
0.499999999999802
40
0.624999999999853
40
0.624999999999853
40
0.687499999999877
40
0.687499999999877
40
0.749999999999902
40
0.749999999999902
40
0.812499999999926
40
0.812499999999926
40
0.874999999999951
40
0.874999999999951
40
0.937499999999975
40
0.937499999999975
40
1
40
1
40
1
40
1
41
1
10
72.5631566738834
20
4.71973473236883
30
0
41
1
10
72.5506597085867
20
4.7073602426108
30
0
41
1
10
72.536165234259
20
4.69787965243955
30
0
41
1
10
72.5121309140315
20
4.68691926482322
30
0
41
1
10
72.5037275779889
20
4.68382289195367
30
0
41
1
10
72.4861845629176
20
4.67868660876189
30
0
41
1
10
72.4771672073957
20
4.67668204840888
30
0
41
1
10
72.4494448773695
20
4.67221613456533
30
0
41
1
10
72.4300770236389
20
4.67128257666656
30
0
41
1
10
72.3997895682208
20
4.67283948446135
30
0
41
1
10
72.3894858040584
20
4.67385668319503
30
0
41
1
10
72.3684544019229
20
4.67693500365468
30
0
41
1
10
72.3578245428218
20
4.67898425362867
30
0
41
1
10
72.3258282259141
20
4.68663818885878
30
0
41
1
10
72.3042640635433
20
4.69373577382589
30
0
41
1
10
72.2715928974549
20
4.70781845465103
30
0
41
1
10
72.260647897129
20
4.71309095087165
30
0
41
1
10
72.2386451263628
20
4.72497064801757
30
0
41
1
10
72.2276384827003
20
4.73155908341417
30
0
41
1
10
72.2060720172408
20
4.74592319590752
30
0
41
1
10
72.1954517249215
20
4.75372858131917
30
0
41
1
10
72.1745986976503
20
4.77079020241766
30
0
41
1
10
72.1642912323086
20
4.78012774783033
30
0
41
1
10
72.1447293338609
20
4.80001024499617
30
0
41
1
10
72.1354322970982
20
4.81057284183731
30
0
41
1
10
72.11797673726
20
4.83315964720038
30
0
41
1
10
72.1098025269532
20
4.84523716562222
30
0
41
1
10
72.102582339608
20
4.85779718407278
30
0
0
SPLINE
5
177
100
AcDbEntity
8
1
62
256
6
ByLayer
370
18
48
1
60
0
100
AcDbSpline
70
4
71
3
72
30
73
26
40
0
40
0
40
0
40
0
40
0.125000000000001
40
0.125000000000001
40
0.250000000000003
40
0.250000000000003
40
0.281250000000003
40
0.281250000000003
40
0.312500000000003
40
0.312500000000003
40
0.375000000000003
40
0.375000000000003
40
0.500000000000004
40
0.500000000000004
40
0.625000000000004
40
0.625000000000004
40
0.687500000000004
40
0.687500000000004
40
0.718750000000003
40
0.718750000000003
40
0.750000000000003
40
0.750000000000003
40
0.875000000000001
40
0.875000000000001
40
1
40
1
40
1
40
1
41
1
10
71.6559034075826
20
-0.0547851582861369
30
0
41
1
10
71.6663414407972
20
-0.260317027660079
30
0
41
1
10
71.6767327355936
20
-0.465149584389536
30
0
41
1
10
71.6975393330625
20
-0.873416640099919
30
0
41
1
10
71.7079574110293
20
-1.07685110748449
30
0
41
1
10
71.7210978411161
20
-1.33024140433673
30
0
41
1
10
71.7237306971586
20
-1.3808742546411
30
0
41
1
10
71.7290044842011
20
-1.48204849274364
30
0
41
1
10
71.7316346915893
20
-1.53238417534359
30
0
41
1
10
71.7395006549887
20
-1.68256414624008
30
0
41
1
10
71.7447130497461
20
-1.78161824099109
30
0
41
1
10
71.7602745301027
20
-2.0756406853537
30
0
41
1
10
71.7705373951113
20
-2.26747718828801
30
0
41
1
10
71.7911804685503
20
-2.64289785491715
30
0
41
1
10
71.8015891764693
20
-2.82648249930642
30
0
41
1
10
71.817347162605
20
-3.09555016096846
30
0
41
1
10
71.8226235732723
20
-3.18418576531261
30
0
41
1
10
71.8305749004912
20
-3.31552377711273
30
0
41
1
10
71.8332238254383
20
-3.35890702371853
30
0
41
1
10
71.8385090565088
20
-3.44472833558186
30
0
41
1
10
71.8411469292392
20
-3.48719231694057
30
0
41
1
10
71.8543134778886
20
-3.69729824306103
30
0
41
1
10
71.8647716749575
20
-3.85831585010826
30
0
41
1
10
71.8855886815645
20
-4.16642443433574
30
0
41
1
10
71.8959462445782
20
-4.31351536778146
30
0
41
1
10
71.9063146796166
20
-4.45352546213039
30
0
0
SPLINE
5
178
100
AcDbEntity
8
1
62
256
6
ByLayer
370
18
48
1
60
0
100
AcDbSpline
70
4
71
3
72
8
73
4
40
0
40
0
40
0
40
0
40
1
40
1
40
1
40
1
41
1
10
72.1498041598578
20
-4.65224059704928
30
0
41
1
10
72.0689225450822
20
-4.58737860293581
30
0
41
1
10
71.9877747664106
20
-4.5211354737171
30
0
41
1
10
71.9063146796166
20
-4.45352546213039
30
0
0
SPLINE
5
179
100
AcDbEntity
8
1
62
256
6
ByLayer
370
18
48
1
60
0
100
AcDbSpline
70
4
71
3
72
30
73
26
40
0
40
0
40
0
40
0
40
0.125
40
0.125
40
0.250000000000001
40
0.250000000000001
40
0.281250000000001
40
0.281250000000001
40
0.312500000000001
40
0.312500000000001
40
0.375000000000001
40
0.375000000000001
40
0.500000000000001
40
0.500000000000001
40
0.625000000000001
40
0.625000000000001
40
0.687500000000001
40
0.687500000000001
40
0.718750000000001
40
0.718750000000001
40
0.75
40
0.75
40
0.875
40
0.875
40
1
40
1
40
1
40
1
41
1
10
72.1498041598578
20
-4.65224059704926
30
0
41
1
10
72.1411060950179
20
-4.51995729825083
30
0
41
1
10
72.1324012820967
20
-4.38013685570246
30
0
41
1
10
72.1146836021746
20
-4.08550656159309
30
0
41
1
10
72.1057407499316
20
-3.9307025272949
30
0
41
1
10
72.0945884786394
20
-3.72761380869241
30
0
41
1
10
72.0923587030513
20
-3.68651562480565
30
0
41
1
10
72.0879011056234
20
-3.60334762250409
30
0
41
1
10
72.0856710514441
20
-3.56123388998105
30
0
41
1
10
72.0790199987138
20
-3.43413231073163
30
0
41
1
10
72.0746281491957
20
-3.34819139059525
30
0
41
1
10
72.0615459379357
20
-3.08682011123901
30
0
41
1
10
72.052960648043
20
-2.9078505434197
30
0
41
1
10
72.0356282422046
20
-2.54060911170239
30
0
41
1
10
72.0268470690199
20
-2.35233660015084
30
0
41
1
10
72.0135370070797
20
-2.06284540989972
30
0
41
1
10
72.009077586182
20
-1.96516565821605
30
0
41
1
10
72.0023573204751
20
-1.81683702732752
30
0
41
1
10
72.0001090008034
20
-1.76702524319887
30
0
41
1
10
71.9956199826091
20
-1.66719102355771
30
0
41
1
10
71.9933793487856
20
-1.61717064384069
30
0
41
1
10
71.9821949761995
20
-1.36655710819502
30
0
41
1
10
71.9733048455197
20
-1.16443319396512
30
0
41
1
10
71.9556353914472
20
-0.756972408228506
30
0
41
1
10
71.946862208302
20
-0.551635386731277
30
0
41
1
10
71.9380757132437
20
-0.344668453481347
30
0
0
SPLINE
5
17A
100
AcDbEntity
8
1
62
256
6
ByLayer
370
18
48
1
60
0
100
AcDbSpline
70
4
71
3
72
8
73
4
40
0
40
0
40
0
40
0
40
1
40
1
40
1
40
1
41
1
10
71.6559034075735
20
-0.0547851582865064
30
0
41
1
10
71.7500925943158
20
-0.150840153322065
30
0
41
1
10
71.8441435374361
20
-0.247471654537435
30
0
41
1
10
71.9380757132437
20
-0.344668453481347
30
0
0
SPLINE
5
17B
100
AcDbEntity
8
1
62
256
6
ByLayer
370
18
48
1
60
0
100
AcDbSpline
70
4
71
3
72
30
73
26
40
0
40
0
40
0
40
0
40
0.124999999999999
40
0.124999999999999
40
0.187499999999998
40
0.187499999999998
40
0.218749999999998
40
0.218749999999998
40
0.249999999999998
40
0.249999999999998
40
0.374999999999998
40
0.374999999999998
40
0.499999999999999
40
0.499999999999999
40
0.624999999999999
40
0.624999999999999
40
0.656249999999999
40
0.656249999999999
40
0.687499999999999
40
0.687499999999999
40
0.749999999999999
40
0.749999999999999
40
0.875
40
0.875
40
1
40
1
40
1
40
1
41
1
10
78.8537977518023
20
0.691524488437949
30
0
41
1
10
78.8454929275402
20
0.879537552649424
30
0
41
1
10
78.8372107709102
20
1.06654788670198
30
0
41
1
10
78.8247278971716
20
1.34554203255502
30
0
41
1
10
78.8205568356705
20
1.43828597402913
30
0
41
1
10
78.8142701757164
20
1.57701336384426
30
0
41
1
10
78.8121695794495
20
1.62319103570451
30
0
41
1
10
78.8079553442431
20
1.7154150964343
30
0
41
1
10
78.8058486574677
20
1.76130911667548
30
0
41
1
10
78.795320408695
20
1.98946261089301
30
0
41
1
10
78.7868737661007
20
2.16803434082704
30
0
41
1
10
78.7699316496925
20
2.51737394521985
30
0
41
1
10
78.7614775099835
20
2.68813309996713
30
0
41
1
10
78.7446646049485
20
3.02183466509408
30
0
41
1
10
78.7363075574874
20
3.18477686935111
30
0
41
1
10
78.7258404888016
20
3.38350598524707
30
0
41
1
10
78.723745487297
20
3.42300412772178
30
0
41
1
10
78.7195479007793
20
3.50150249518771
30
0
41
1
10
78.7174438722373
20
3.54052846861458
30
0
41
1
10
78.7111420394891
20
3.65631147530903
30
0
41
1
10
78.7069402237116
20
3.73195217662973
30
0
41
1
10
78.6943187931836
20
3.95428907751628
30
0
41
1
10
78.6859189917755
20
4.09637434217365
30
0
41
1
10
78.6691547614082
20
4.36812200800941
30
0
41
1
10
78.6607622730658
20
4.49779269293589
30
0
41
1
10
78.652359337313
20
4.62111034940403
30
0
0
SPLINE
5
17C
100
AcDbEntity
8
1
62
256
6
ByLayer
370
18
48
1
60
0
100
AcDbSpline
70
4
71
3
72
8
73
4
40
0
40
0
40
0
40
0
40
1
40
1
40
1
40
1
41
1
10
78.6097772033056
20
4.66186496619244
30
0
41
1
10
78.6239722412777
20
4.64830835447844
30
0
41
1
10
78.6381662328529
20
4.63472341795773
30
0
41
1
10
78.652359337313
20
4.62111034940403
30
0
0
SPLINE
5
17D
100
AcDbEntity
8
1
62
256
6
ByLayer
370
18
48
1
60
0
100
AcDbSpline
70
4
71
3
72
21
73
17
40
0
40
0
40
0
40
0
40
0.0340514352975385
40
0.0340514352975385
40
0.227241148238031
40
0.227241148238031
40
0.420430861178523
40
0.420430861178523
40
0.613620574119015
40
0.613620574119015
40
0.661918002354138
40
0.661918002354138
40
0.710215430589261
40
0.806810287059507
40
0.806810287059507
40
1
40
1
40
1
40
1
41
1
10
73.0252640620578
20
6.076498252969
30
0
41
1
10
73.0269640341126
20
6.07649972487206
30
0
41
1
10
73.0286609759856
20
6.07615897509623
30
0
41
1
10
73.0399635478065
20
6.07162014788383
30
0
41
1
10
73.0494766700456
20
6.05686742976317
30
0
41
1
10
73.0684769273064
20
6.00618784177257
30
0
41
1
10
73.0779646681272
20
5.97025954865734
30
0
41
1
10
73.0970802615402
20
5.8771540702038
30
0
41
1
10
73.1067147633878
20
5.81997925454618
30
0
41
1
10
73.1189186372314
20
5.7347513830091
30
0
41
1
10
73.1213592754843
20
5.71706448648965
30
0
41
1
10
73.126228349548
20
5.68049970479322
30
0
41
1
10
73.1335189848946
20
5.62382916820468
30
0
41
1
10
73.1407682158987
20
5.56174904903182
30
0
41
1
10
73.1552155881012
20
5.43048024751678
30
0
41
1
10
73.1647765946458
20
5.33350806505737
30
0
41
1
10
73.1743147323114
20
5.22712358886801
30
0
0
SPLINE
5
17E
100
AcDbEntity
8
1
62
256
6
ByLayer
370
18
48
1
60
0
100
AcDbSpline
70
4
71
3
72
25
73
21
40
0
40
0
40
0
40
0
40
0.0911700151021435
40
0.0911700151021435
40
0.136755022653215
40
0.136755022653215
40
0.182340030204287
40
0.182340030204287
40
0.364680060408574
40
0.364680060408574
40
0.54702009061286
40
0.54702009061286
40
0.729360120817147
40
0.729360120817147
40
0.774945128368218
40
0.774945128368218
40
0.82053013591929
40
0.911700151021433
40
0.911700151021433
40
1
40
1
40
1
40
1
41
1
10
73.3560020918746
20
5.12621354420816
30
0
41
1
10
73.3511617022953
20
5.18227252471598
30
0
41
1
10
73.3463186423774
20
5.23617129262763
30
0
41
1
10
73.3390515298565
20
5.31372807689706
30
0
41
1
10
73.3366286654708
20
5.33903149182564
30
0
41
1
10
73.3317812973467
20
5.38852856009606
30
0
41
1
10
73.3293532544273
20
5.41275601508249
30
0
41
1
10
73.3172628481404
20
5.53053309516505
30
0
41
1
10
73.3077434462132
20
5.6141774864069
30
0
41
1
10
73.2888342491061
20
5.76100367564013
30
0
41
1
10
73.2794442461159
20
5.82418346519611
30
0
41
1
10
73.2604987225375
20
5.93010058855347
30
0
41
1
10
73.2509002528132
20
5.97283925562954
30
0
41
1
10
73.23875393716
20
6.0130914248748
30
0
41
1
10
73.2363147489891
20
6.02049082884278
30
0
41
1
10
73.2314441547938
20
6.03390019951433
30
0
41
1
10
73.2241528759881
20
6.05192827181935
30
0
41
1
10
73.2169078924285
20
6.0637757123697
30
0
41
1
10
73.2074341400527
20
6.07400772704605
30
0
41
1
10
73.2027889205243
20
6.07651371985253
30
0
41
1
10
73.1981520763894
20
6.07650358236845
30
0
0
SPLINE
5
17F
100
AcDbEntity
8
1
62
256
6
ByLayer
370
13
48
1
60
0
100
AcDbSpline
70
4
71
3
72
9
73
5
40
0
40
0
40
0
40
0
40
0.761445889225504
40
1
40
1
40
1
40
1
41
1.04
10
73.9419420766653
20
4.12837580618053
30
0
41
1.04
10
73.9041201343501
20
4.53245374509423
30
0
41
1.04
10
73.8542751191514
20
4.91422791090726
30
0
41
1.04
10
73.8042526104643
20
5.05249571526597
30
0
41
1.04
10
73.7923182061036
20
5.07154715849203
30
0
0
SPLINE
5
180
100
AcDbEntity
8
1
62
256
6
ByLayer
370
18
48
1
60
0
100
AcDbSpline
70
4
71
3
72
23
73
19
40
0
40
0
40
0
40
0
40
0.0268555644966366
40
0.0268555644966366
40
0.0731957757110825
40
0.0731957757110825
40
0.258556620568866
40
0.258556620568866
40
0.44391746542665
40
0.44391746542665
40
0.629278310284433
40
0.629278310284433
40
0.675618521498879
40
0.675618521498879
40
0.721958732713325
40
0.814639155142217
40
0.814639155142217
40
1
40
1
40
1
40
1
41
1
10
77.5732778559233
20
-6.0764982878749
30
0
41
1
10
77.5718925634892
20
-6.0764956103686
30
0
41
1
10
77.5705047248575
20
-6.07626348433965
30
0
41
1
10
77.5667134642216
20
-6.07500166807682
30
0
41
1
10
77.5643018403466
20
-6.0735132752616
30
0
41
1
10
77.5522251488493
20
-6.06261665573595
30
0
41
1
10
77.5425930265326
20
-6.04297523152607
30
0
41
1
10
77.5233666119909
20
-5.98260486406642
30
0
41
1
10
77.5137720364161
20
-5.94187368543021
30
0
41
1
10
77.4945565474276
20
-5.83938520736299
30
0
41
1
10
77.4849352970456
20
-5.77762935163412
30
0
41
1
10
77.4728309813901
20
-5.68690914073346
30
0
41
1
10
77.4704044685092
20
-5.66807437353242
30
0
41
1
10
77.4655514961067
20
-5.62908621465724
30
0
41
1
10
77.4582940745145
20
-5.56880654123677
30
0
41
1
10
77.4511051302523
20
-5.50320349790709
30
0
41
1
10
77.4367947516691
20
-5.36502600940182
30
0
41
1
10
77.4273539679843
20
-5.26363026721623
30
0
41
1
10
77.4178298826733
20
-5.15306745268487
30
0
0
SPLINE
5
181
100
AcDbEntity
8
1
62
256
6
ByLayer
370
18
48
1
60
0
100
AcDbSpline
70
4
71
3
72
26
73
22
40
0
40
0
40
0
40
0
40
0.0876020387710068
40
0.0876020387710068
40
0.13140305815651
40
0.13140305815651
40
0.175204077542013
40
0.175204077542013
40
0.350408155084025
40
0.350408155084025
40
0.525612232626037
40
0.525612232626037
40
0.613214271397043
40
0.613214271397043
40
0.657015290782546
40
0.657015290782546
40
0.700816310168049
40
0.700816310168049
40
0.87602038771006
40
0.87602038771006
40
1
40
1
40
1
40
1
41
1
10
77.2355652593886
20
-5.04831501164679
30
0
41
1
10
77.2404163185913
20
-5.10656549784912
30
0
41
1
10
77.2452918108123
20
-5.16271523470351
30
0
41
1
10
77.2526262714081
20
-5.24372874563454
30
0
41
1
10
77.2550776440784
20
-5.27022845551434
30
0
41
1
10
77.259972351487
20
-5.32199670636899
30
0
41
1
10
77.2624117896605
20
-5.34722559067615
30
0
41
1
10
77.2745682828848
20
-5.4701323799421
30
0
41
1
10
77.2841561412089
20
-5.55812416387394
30
0
41
1
10
77.3031465551338
20
-5.71398333221836
30
0
41
1
10
77.3125495009678
20
-5.781849422075
30
0
41
1
10
77.3267118639205
20
-5.86847139054052
30
0
41
1
10
77.3314436137668
20
-5.89481091265222
30
0
41
1
10
77.3385942023277
20
-5.93046228897188
30
0
41
1
10
77.3409866437622
20
-5.9417027686257
30
0
41
1
10
77.3457964772088
20
-5.96288365035014
30
0
41
1
10
77.3482159411461
20
-5.97283187640443
30
0
41
1
10
77.3603723382393
20
-6.01919545035088
30
0
41
1
10
77.3702373418859
20
-6.04514853975712
30
0
41
1
10
77.386835542011
20
-6.07111599827971
30
0
41
1
10
77.3936337180063
20
-6.07649421054151
30
0
41
1
10
77.4003742005762
20
-6.0765019106021
30
0
0
SPLINE
5
182
100
AcDbEntity
8
1
62
256
6
ByLayer
370
18
48
1
60
0
100
AcDbSpline
70
4
71
3
72
8
73
4
40
0
40
0
40
0
40
0
40
1
40
1
40
1
40
1
41
1
10
38.4527848009748
20
4.35000028898435
30
0
41
1
10
38.6160389892673
20
4.34998067785057
30
0
41
1
10
38.780250232031
20
4.34083912742895
30
0
41
1
10
38.9453595308971
20
4.32252575721299
30
0
0
SPLINE
5
183
100
AcDbEntity
8
1
62
256
6
ByLayer
370
18
48
1
60
0
100
AcDbSpline
70
4
71
3
72
22
73
18
40
0
40
0
40
0
40
0
40
0.302529695243987
40
0.302529695243987
40
0.487167839583599
40
0.487167839583599
40
0.533327375668513
40
0.533327375668513
40
0.579486911753426
40
0.579486911753426
40
0.671805983923253
40
0.671805983923253
40
0.856444128262907
40
0.856444128262907
40
0.948763200432745
40
0.948763200432745
40
1
40
1
40
1
40
1
41
1
10
39.5452744467588
20
-4.34998542718893
30
0
41
1
10
39.3484346186919
20
-4.34988519151116
30
0
41
1
10
39.1501676357048
20
-4.34933832593677
30
0
41
1
10
38.8284876213137
20
-4.34875006907788
30
0
41
1
10
38.706025314545
20
-4.34857885845804
30
0
41
1
10
38.5521153392108
20
-4.34852269231959
30
0
41
1
10
38.5212920698209
20
-4.34851897723428
30
0
41
1
10
38.4595596959392
20
-4.34852735525058
30
0
41
1
10
38.4286248123617
20
-4.34853947685608
30
0
41
1
10
38.3359943691463
20
-4.34859939139457
30
0
41
1
10
38.2744107328507
20
-4.34867113367633
30
0
41
1
10
38.0901967241293
20
-4.34896428469457
30
0
41
1
10
37.9680963158534
20
-4.34927266078645
30
0
41
1
10
37.7861697951535
20
-4.34969029742936
30
0
41
1
10
37.7257370988315
20
-4.34982037515169
30
0
41
1
10
37.63211875732
20
-4.34995258972691
30
0
41
1
10
37.5987752766729
20
-4.34998611042275
30
0
41
1
10
37.5655080419631
20
-4.34999671615645
30
0
0
SPLINE
5
184
100
AcDbEntity
8
1
62
256
6
ByLayer
370
13
48
1
60
0
100
AcDbSpline
70
4
71
3
72
10
73
6
40
0
40
0
40
0
40
0
40
0.048891626474283
40
0.688256974634662
40
1
40
1
40
1
40
1
41
1
10
74.4025857583625
20
3.87605808121055
30
0
41
1
10
74.3993443908171
20
3.91448097526504
30
0
41
1
10
74.3537021449455
20
4.44431306769951
30
0
41
1
10
74.2870981150479
20
4.98002074105503
30
0
41
1
10
74.2234636126894
20
5.09556926400148
30
0
41
1
10
74.2026221779549
20
5.0907588965562
30
0
0
SPLINE
5
185
100
AcDbEntity
8
1
62
256
6
ByLayer
370
18
48
1
60
0
100
AcDbSpline
70
4
71
3
72
9
73
5
40
0
40
0
40
0
40
0
40
0.136452192818627
40
1
40
1
40
1
40
1
41
1
10
74.2026217048271
20
5.09075878734728
30
0
41
1
10
74.2021762085221
20
5.09065594947856
30
0
41
1
10
74.1989114091959
20
5.0897593681434
30
0
41
1
10
74.1956470252678
20
5.08781515190827
30
0
41
1
10
74.1928280727731
20
5.08535597246185
30
0
0
SPLINE
5
186
100
AcDbEntity
8
1
62
256
6
ByLayer
370
18
48
1
60
0
100
AcDbSpline
70
4
71
3
72
33
73
29
40
0
40
0
40
0
40
0
40
0.0625
40
0.0625
40
0.09375
40
0.09375
40
0.125
40
0.125
40
0.25
40
0.25
40
0.375000000000001
40
0.375000000000001
40
0.500000000000001
40
0.500000000000001
40
0.531250000000001
40
0.531250000000001
40
0.562500000000001
40
0.625000000000001
40
0.625000000000001
40
0.750000000000001
40
0.750000000000001
40
0.875
40
0.875
40
0.90625
40
0.90625
40
0.9375
40
0.9375
40
1
40
1
40
1
40
1
41
1
10
74.7831979419449
20
6.07393320593621
30
0
41
1
10
74.7879600484167
20
6.07089968042771
30
0
41
1
10
74.7927245825634
20
6.06517238602225
30
0
41
1
10
74.7998889218859
20
6.0524794311265
30
0
41
1
10
74.802280053449
20
6.04756442670015
30
0
41
1
10
74.8070718554765
20
6.03635178209313
30
0
41
1
10
74.8094757524829
20
6.03004444204024
30
0
41
1
10
74.8214890427219
20
5.99512899878727
30
0
41
1
10
74.8310505860571
20
5.95656336671107
30
0
41
1
10
74.8503362637458
20
5.85889279014691
30
0
41
1
10
74.8600170110309
20
5.79978559507467
30
0
41
1
10
74.8793481660847
20
5.6610761097443
30
0
41
1
10
74.8889980247033
20
5.58147520584976
30
0
41
1
10
74.901060487159
20
5.46878112615329
30
0
41
1
10
74.9034759274831
20
5.44555532560972
30
0
41
1
10
74.9082976515794
20
5.3978825966214
30
0
41
1
10
74.9155024274732
20
5.32468636729047
30
0
41
1
10
74.9226354358851
20
5.24649279140104
30
0
41
1
10
74.9368478606222
20
5.08355965083032
30
0
41
1
10
74.9462473688938
20
4.96622635049701
30
0
41
1
10
74.9652147185612
20
4.71433594863546
30
0
41
1
10
74.9748161421304
20
4.57978047831096
30
0
41
1
10
74.9869216607395
20
4.40059565972683
30
0
41
1
10
74.9893477763674
20
4.36420776771268
30
0
41
1
10
74.994209299667
20
4.2903186828172
30
0
41
1
10
74.9966462872743
20
4.25279280049182
30
0
41
1
10
75.0039606119382
20
4.13868308183319
30
0
41
1
10
75.0088113714084
20
4.06103432195081
30
0
41
1
10
75.0136384840364
20
3.98184429315711
30
0
0
SPLINE
5
187
100
AcDbEntity
8
1
62
256
6
ByLayer
370
13
48
1
60
0
100
AcDbSpline
70
4
71
3
72
10
73
6
40
0
40
0
40
0
40
0
40
0.473244019839875
40
0.936641224179907
40
1
40
1
40
1
40
1
41
1.04
10
75.7813530685554
20
2.97721938117975
30
0
41
1.04
10
75.7471170227056
20
3.48450861373437
30
0
41
1.04
10
75.6802133131941
20
4.3426024234184
30
0
41
1.04
10
75.6107656167336
20
4.84523577184262
30
0
41
1.04
10
75.5757314090054
20
4.98239995321039
30
0
41
1.04
10
75.571539280751
20
4.99710123101088
30
0
0
SPLINE
5
188
100
AcDbEntity
8
1
62
256
6
ByLayer
370
18
48
1
60
0
100
AcDbSpline
70
4
71
3
72
28
73
24
40
0
40
0
40
0
40
0
40
0.125
40
0.125
40
0.25
40
0.25
40
0.3125
40
0.3125
40
0.34375
40
0.34375
40
0.375
40
0.375
40
0.5
40
0.5
40
0.624999999999999
40
0.624999999999999
40
0.687499999999999
40
0.687499999999999
40
0.749999999999999
40
0.749999999999999
40
0.875
40
0.875
40
1
40
1
40
1
40
1
41
1
10
75.1954592209351
20
3.8341375489124
30
0
41
1
10
75.1857864526453
20
3.99695184673726
30
0
41
1
10
75.1762130663286
20
4.15197487519052
30
0
41
1
10
75.1571903926457
20
4.44672758421106
30
0
41
1
10
75.1477422623583
20
4.5864569682895
30
0
41
1
10
75.1334873275368
20
4.7844251552159
30
0
41
1
10
75.128720531237
20
4.84847308032892
30
0
41
1
10
75.1215113327796
20
4.94157709926364
30
0
41
1
10
75.119096551681
20
4.97213875885421
30
0
41
1
10
75.1142473484298
20
5.03216473115475
30
0
41
1
10
75.1118192185732
20
5.0615441320067
30
0
41
1
10
75.0996528212043
20
5.20531109065394
30
0
41
1
10
75.0898660807725
20
5.31033535788981
30
0
41
1
10
75.0704731316557
20
5.50095502592995
30
0
41
1
10
75.0608684625522
20
5.58654903973053
30
0
41
1
10
75.0465886282647
20
5.70029843113653
30
0
41
1
10
75.0418474166468
20
5.7357697833591
30
0
41
1
10
75.0323664202928
20
5.8017510939865
30
0
41
1
10
75.0276253136422
20
5.83227012494294
30
0
41
1
10
75.0133165866541
20
5.91615983260965
30
0
41
1
10
75.0037673830951
20
5.96097266129533
30
0
41
1
10
74.9845530577668
20
6.02916340919236
30
0
41
1
10
74.9749045048907
20
6.05253921900317
30
0
41
1
10
74.965234985056
20
6.06523799616181
30
0
0
SPLINE
5
189
100
AcDbEntity
8
1
62
256
6
ByLayer
370
18
48
1
60
0
100
AcDbSpline
70
4
71
3
72
32
73
28
40
0
40
0
40
0
40
0
40
0.125
40
0.125
40
0.15625
40
0.15625
40
0.1875
40
0.25
40
0.25
40
0.375
40
0.500000000000001
40
0.500000000000001
40
0.53125
40
0.53125
40
0.5625
40
0.5625
40
0.625
40
0.625
40
0.75
40
0.75
40
0.875
40
0.875
40
0.9375
40
0.9375
40
0.96875
40
0.96875
40
1
40
1
40
1
40
1
41
1
10
75.8085321601337
20
-6.06822972031546
30
0
41
1
10
75.7991192111098
20
-6.05734817692979
30
0
41
1
10
75.7898111796101
20
-6.03573520666828
30
0
41
1
10
75.7778099944467
20
-5.9948773768989
30
0
41
1
10
75.7753892413261
20
-5.9859974349225
30
0
41
1
10
75.7705423222033
20
-5.96693065278734
30
0
41
1
10
75.7632598213534
20
-5.93636250858413
30
0
41
1
10
75.7559615077456
20
-5.89996211716016
30
0
41
1
10
75.7413826224177
20
-5.81951307540339
30
0
41
1
10
75.7220019230727
20
-5.69189146108337
30
0
41
1
10
75.702884826163
20
-5.52392140640239
30
0
41
1
10
75.6909480212751
20
-5.40603939051388
30
0
41
1
10
75.6885607410906
20
-5.38181631732121
30
0
41
1
10
75.6837825235811
20
-5.332062793955
30
0
41
1
10
75.6813880504811
20
-5.30649305338827
30
0
41
1
10
75.674223929366
20
-5.22814949641182
30
0
41
1
10
75.6694738100802
20
-5.17375157014877
30
0
41
1
10
75.6552311360093
20
-5.00418796280027
30
0
41
1
10
75.6457081294316
20
-4.8826700914849
30
0
41
1
10
75.6265232648774
20
-4.62298198443901
30
0
41
1
10
75.6168829249112
20
-4.48481104714642
30
0
41
1
10
75.602364780326
20
-4.26488395559804
30
0
41
1
10
75.5975153719475
20
-4.18945901082387
30
0
41
1
10
75.5902234525369
20
-4.07308585284773
30
0
41
1
10
75.5877863571363
20
-4.03369843315943
30
0
41
1
10
75.5829236199833
20
-3.9541325899857
30
0
41
1
10
75.5804995785319
20
-3.91398206836655
30
0
41
1
10
75.5780822166882
20
-3.87346823193488
30
0
0
SPLINE
5
18A
100
AcDbEntity
8
1
62
256
6
ByLayer
370
18
48
1
60
0
100
AcDbSpline
70
4
71
3
72
29
73
25
40
0
40
0
40
0
40
0
40
0.125
40
0.249999999999999
40
0.249999999999999
40
0.312499999999999
40
0.312499999999999
40
0.343749999999999
40
0.343749999999999
40
0.374999999999999
40
0.374999999999999
40
0.5
40
0.5
40
0.625
40
0.625
40
0.6875
40
0.6875
40
0.71875
40
0.71875
40
0.75
40
0.75
40
0.875
40
0.875
40
1
40
1
40
1
40
1
41
1
10
75.396436479182
20
-3.72370946550478
30
0
41
1
10
75.4060619391581
20
-3.88924546655449
30
0
41
1
10
75.4251536450395
20
-4.20551619080851
30
0
41
1
10
75.444166867962
20
-4.49253932976652
30
0
41
1
10
75.4585381120575
20
-4.6966173791659
30
0
41
1
10
75.4633475997076
20
-4.76277482887306
30
0
41
1
10
75.4706125962146
20
-4.85914498938291
30
0
41
1
10
75.4730355079357
20
-4.89068771178668
30
0
41
1
10
75.4778749919475
20
-4.95250731522907
30
0
41
1
10
75.4802925909839
20
-4.98280336592336
30
0
41
1
10
75.4923650741957
20
-5.13124648577013
30
0
41
1
10
75.5019634710692
20
-5.24030707210318
30
0
41
1
10
75.5210833750099
20
-5.43943840460145
30
0
41
1
10
75.5306102183573
20
-5.52950839231542
30
0
41
1
10
75.5450420060046
20
-5.65020681294482
30
0
41
1
10
75.5498719168996
20
-5.68803393796188
30
0
41
1
10
75.5571428669733
20
-5.74110179505212
30
0
41
1
10
75.5595709181304
20
-5.75817861948335
30
0
41
1
10
75.5644360142807
20
-5.7910925785099
30
0
41
1
10
75.5668673346079
20
-5.80688966956796
30
0
41
1
10
75.5789827175313
20
-5.88236852045259
30
0
41
1
10
75.5885756120455
20
-5.93180617559179
30
0
41
1
10
75.6076687543106
20
-6.00942256265148
30
0
41
1
10
75.6171691259677
20
-6.03759969590786
30
0
41
1
10
75.6267237538159
20
-6.05511614784109
30
0
0
SPLINE
5
18B
100
AcDbEntity
8
1
62
256
6
ByLayer
370
18
48
1
60
0
100
AcDbSpline
70
4
71
3
72
19
73
15
40
0
40
0
40
0
40
0
40
0.25
40
0.25
40
0.500000000000001
40
0.500000000000001
40
0.625000000000001
40
0.625000000000001
40
0.65625
40
0.65625
40
0.6875
40
0.75
40
0.75
40
1
40
1
40
1
40
1
41
1
10
67
20
1.38170338651176
30
0
41
1
10
66.9938906493177
20
1.60554930273943
30
0
41
1
10
66.9878584831825
20
1.8222080319668
30
0
41
1
10
66.9757423976278
20
2.2415605600967
30
0
41
1
10
66.9696427229711
20
2.44424060023266
30
0
41
1
10
66.9603744165089
20
2.73759794822774
30
0
41
1
10
66.9572657453273
20
2.83360142479484
30
0
41
1
10
66.9533511365703
20
2.9513157315788
30
0
41
1
10
66.9525664852675
20
2.97475219619531
30
0
41
1
10
66.9510001494722
20
3.02121767183959
30
0
41
1
10
66.9486529341671
20
3.09037004961911
30
0
41
1
10
66.9463120577583
20
3.15789746602545
30
0
41
1
10
66.9385207612194
20
3.37942096402659
30
0
41
1
10
66.9323265711498
20
3.54527244265665
30
0
41
1
10
66.9261294400074
20
3.69990021346266
30
0
0
SPLINE
5
18C
100
AcDbEntity
8
1
62
256
6
ByLayer
370
13
48
1
60
0
100
AcDbSpline
70
4
71
3
72
9
73
5
40
0
40
0
40
0
40
0
40
0.586993515052607
40
1
40
1
40
1
40
1
41
1
10
76.242020797683
20
2.63587035559812
30
0
41
1
10
76.1996897755164
20
3.29776528782159
30
0
41
1
10
76.1286640429021
20
4.24926601180823
30
0
41
1
10
76.059716831133
20
4.76604195095362
30
0
41
1
10
76.0321082675304
20
4.90274378629425
30
0
0
SPLINE
5
18D
100
AcDbEntity
8
1
62
256
6
ByLayer
370
18
48
1
60
0
100
AcDbSpline
70
4
71
3
72
30
73
26
40
0
40
0
40
0
40
0
40
0.124999999999999
40
0.124999999999999
40
0.249999999999998
40
0.249999999999998
40
0.281249999999998
40
0.281249999999998
40
0.312499999999997
40
0.312499999999997
40
0.374999999999997
40
0.374999999999997
40
0.499999999999996
40
0.499999999999996
40
0.624999999999996
40
0.624999999999996
40
0.687499999999996
40
0.687499999999996
40
0.718749999999996
40
0.718749999999996
40
0.749999999999996
40
0.749999999999996
40
0.874999999999998
40
0.874999999999998
40
1
40
1
40
1
40
1
41
1
10
76.622809654321
20
5.70851741599199
30
0
41
1
10
76.6324799416188
20
5.63677226200281
30
0
41
1
10
76.6419991256667
20
5.55518215614237
30
0
41
1
10
76.6609065114179
20
5.3724809443579
30
0
41
1
10
76.6702962997913
20
5.27137044619138
30
0
41
1
10
76.6822370287227
20
5.13249989292751
30
0
41
1
10
76.6846364675707
20
5.10410010557496
30
0
41
1
10
76.6894642224187
20
5.04603555911987
30
0
41
1
10
76.691894978938
20
5.01632687232808
30
0
41
1
10
76.6991855847107
20
4.92573405771472
30
0
41
1
10
76.7040483414
20
4.86333045982562
30
0
41
1
10
76.7186107344504
20
4.67021746993612
30
0
41
1
10
76.7282792303903
20
4.53362120737845
30
0
41
1
10
76.7475041825944
20
4.24498327402731
30
0
41
1
10
76.7570615084929
20
4.09294145867116
30
0
41
1
10
76.7714101467726
20
3.85312231802246
30
0
41
1
10
76.7761962963291
20
3.77121939567206
30
0
41
1
10
76.7834025084679
20
3.64536240748268
30
0
41
1
10
76.7858127102523
20
3.60284552351842
30
0
41
1
10
76.7906246483157
20
3.51719261568584
30
0
41
1
10
76.7930267281951
20
3.47405219899184
30
0
41
1
10
76.8050296062669
20
3.25679874392364
30
0
41
1
10
76.8146429772054
20
3.07804569861364
30
0
41
1
10
76.8339558071115
20
2.7108913959832
30
0
41
1
10
76.8435880932576
20
2.52248696745198
30
0
41
1
10
76.8531685814035
20
2.32922196551948
30
0
0
SPLINE
5
18E
100
AcDbEntity
8
1
62
256
6
ByLayer
370
13
48
1
60
0
100
AcDbSpline
70
4
71
3
72
9
73
5
40
0
40
0
40
0
40
0
40
0.565574849822244
40
1
40
1
40
1
40
1
41
1.04
10
77.6207698675418
20
1.52197077094414
30
0
41
1.04
10
77.579205933724
20
2.24584399568565
30
0
41
1.04
10
77.5083771754374
20
3.38997910213561
30
0
41
1.04
10
77.4402149928926
20
4.17060376674213
30
0
41
1.04
10
77.4108453715339
20
4.43415311880791
30
0
0
SPLINE
5
18F
100
AcDbEntity
8
1
62
256
6
ByLayer
370
18
48
1
60
0
100
AcDbSpline
70
4
71
3
72
34
73
30
40
0
40
0
40
0
40
0
40
0.125
40
0.125
40
0.15625
40
0.15625
40
0.1875
40
0.1875
40
0.25
40
0.25
40
0.374999999999999
40
0.374999999999999
40
0.499999999999998
40
0.499999999999998
40
0.562499999999998
40
0.562499999999998
40
0.593749999999998
40
0.593749999999998
40
0.624999999999998
40
0.624999999999998
40
0.749999999999999
40
0.749999999999999
40
0.875
40
0.875
40
0.9375
40
0.9375
40
0.96875
40
0.96875
40
1
40
1
40
1
40
1
41
1
10
77.0349707806349
20
2.14992464915696
30
0
41
1
10
77.0253473977264
20
2.34501481046968
30
0
41
1
10
77.0157083382042
20
2.53668902585366
30
0
41
1
10
77.0036137121011
20
2.77189101090008
30
0
41
1
10
77.0011924106617
20
2.81871129709521
30
0
41
1
10
76.9963439342007
20
2.91190625091645
30
0
41
1
10
76.9939241994587
20
2.95813751532199
30
0
41
1
10
76.9866908993675
20
3.09546685837628
30
0
41
1
10
76.9818971655604
20
3.18532095456891
30
0
41
1
10
76.9675788708343
20
3.44987962056712
30
0
41
1
10
76.9581206891411
20
3.61959368827061
30
0
41
1
10
76.9391915127853
20
3.94586791838978
30
0
41
1
10
76.9297073769143
20
4.10242781374723
30
0
41
1
10
76.9152936064097
20
4.32720744451981
30
0
41
1
10
76.9104618923163
20
4.40045414274607
30
0
41
1
10
76.9031688582598
20
4.50774890836553
30
0
41
1
10
76.9007353999151
20
4.54300778954823
30
0
41
1
10
76.8958792773721
20
4.61228775547261
30
0
41
1
10
76.8934541329679
20
4.64634544799208
30
0
41
1
10
76.8813415998217
20
4.81375271080077
30
0
41
1
10
76.8716941696072
20
4.93848209116126
30
0
41
1
10
76.8524468017848
20
5.16993644930955
30
0
41
1
10
76.8428477804693
20
5.27666090902261
30
0
41
1
10
76.8284383559445
20
5.42309936087875
30
0
41
1
10
76.823633110455
20
5.46963301645596
30
0
41
1
10
76.8164126733593
20
5.53595466921075
30
0
41
1
10
76.8140037379208
20
5.55748177836458
30
0
41
1
10
76.8091796756738
20
5.59936196125625
30
0
41
1
10
76.8067676090594
20
5.61968661049147
30
0
41
1
10
76.8043651270661
20
5.63931019167802
30
0
0
SPLINE
5
190
100
AcDbEntity
8
1
62
256
6
ByLayer
370
18
48
1
60
0
100
AcDbSpline
70
4
71
3
72
29
73
25
40
0
40
0
40
0
40
0
40
0.125
40
0.125
40
0.249999999999999
40
0.249999999999999
40
0.312499999999999
40
0.312499999999999
40
0.343749999999999
40
0.343749999999999
40
0.374999999999999
40
0.374999999999999
40
0.499999999999999
40
0.625
40
0.625
40
0.6875
40
0.6875
40
0.71875
40
0.71875
40
0.75
40
0.75
40
0.875
40
0.875
40
1
40
1
40
1
40
1
41
1
10
73.9692862565748
20
-5.65799564806247
30
0
41
1
10
73.9597042528235
20
-5.58153028633464
30
0
41
1
10
73.9501221100224
20
-5.49538496995339
30
0
41
1
10
73.9309930880062
20
-5.30402412027877
30
0
41
1
10
73.9214565494672
20
-5.19880832535532
30
0
41
1
10
73.9070786383651
20
-5.02644110140099
30
0
41
1
10
73.902271626761
20
-4.96655672879419
30
0
41
1
10
73.8950062785329
20
-4.87301216507859
30
0
41
1
10
73.8925740613508
20
-4.84118763709458
30
0
41
1
10
73.8877208366999
20
-4.77666545625374
30
0
41
1
10
73.8852964750446
20
-4.74392539548811
30
0
41
1
10
73.8731870010703
20
-4.57785649183322
30
0
41
1
10
73.853895062735
20
-4.29702648757842
30
0
41
1
10
73.8347546308754
20
-3.98665885056673
30
0
41
1
10
73.8203957881199
20
-3.74271444600242
30
0
41
1
10
73.8156083086041
20
-3.6595345749146
30
0
41
1
10
73.8084115529171
20
-3.5319216856698
30
0
41
1
10
73.8060099985167
20
-3.48890996473594
30
0
41
1
10
73.801198737094
20
-3.40192770821937
30
0
41
1
10
73.7987866728714
20
-3.35791283892061
30
0
41
1
10
73.7867660005107
20
-3.13667588508957
30
0
41
1
10
73.7772294566525
20
-2.95513675183119
30
0
41
1
10
73.7580790906577
20
-2.58325717565236
30
0
41
1
10
73.748481358694
20
-2.39291538467873
30
0
41
1
10
73.7388640207664
20
-2.19817156803995
30
0
0
SPLINE
5
191
100
AcDbEntity
8
1
62
256
6
ByLayer
370
18
48
1
60
0
100
AcDbSpline
70
4
71
3
72
32
73
28
40
0
40
0
40
0
40
0
40
0.125000000000001
40
0.125000000000001
40
0.156250000000001
40
0.156250000000001
40
0.187500000000001
40
0.250000000000001
40
0.250000000000001
40
0.375
40
0.375
40
0.5
40
0.5
40
0.53125
40
0.53125
40
0.5625
40
0.5625
40
0.624999999999999
40
0.624999999999999
40
0.749999999999999
40
0.874999999999999
40
0.874999999999999
40
0.937499999999999
40
0.937499999999999
40
0.96875
40
0.96875
40
1
40
1
40
1
40
1
41
1
10
73.5566614491217
20
-2.01761555422684
30
0
41
1
10
73.5661728581056
20
-2.21446614296212
30
0
41
1
10
73.5757539326229
20
-2.40834822564395
30
0
41
1
10
73.5879629154348
20
-2.64685459858603
30
0
41
1
10
73.5904152542527
20
-2.69432507636978
30
0
41
1
10
73.5953112212846
20
-2.78833055153427
30
0
41
1
10
73.6026516465447
20
-2.92813595451608
30
0
41
1
10
73.6099534674645
20
-3.06437527662942
30
0
41
1
10
73.6244702307026
20
-3.33217228153222
30
0
41
1
10
73.6340221657066
20
-3.50447396556226
30
0
41
1
10
73.652966560907
20
-3.83669110445473
30
0
41
1
10
73.6623603564131
20
-3.99660701212031
30
0
41
1
10
73.6742570923877
20
-4.18855075451472
30
0
41
1
10
73.6766448869118
20
-4.22654090968049
30
0
41
1
10
73.6814465835489
20
-4.30171449565765
30
0
41
1
10
73.6838611785004
20
-4.33889394378073
30
0
41
1
10
73.6911102543381
20
-4.44856616734143
30
0
41
1
10
73.6959584968517
20
-4.51941873265292
30
0
41
1
10
73.7104873177427
20
-4.72532350775674
30
0
41
1
10
73.7297977393376
20
-4.98215747869091
30
0
41
1
10
73.7488092501875
20
-5.20410437277562
30
0
41
1
10
73.7631163775075
20
-5.35725251732174
30
0
41
1
10
73.7678958325729
20
-5.40607883119171
30
0
41
1
10
73.7751232116565
20
-5.47591307962335
30
0
41
1
10
73.777543557451
20
-5.49863297386369
30
0
41
1
10
73.7823844231658
20
-5.5426707127553
30
0
41
1
10
73.7848077749945
20
-5.56402259364177
30
0
41
1
10
73.7872306341321
20
-5.58471484898683
30
0
0
SPLINE
5
192
100
AcDbEntity
8
1
62
256
6
ByLayer
370
18
48
1
60
0
100
AcDbSpline
70
4
71
3
72
113
73
109
40
0
40
0
40
0
40
0
40
0.062499999999989
40
0.062499999999989
40
0.124999999999978
40
0.124999999999978
40
0.156249999999972
40
0.156249999999972
40
0.187499999999967
40
0.187499999999967
40
0.203124999999964
40
0.203124999999964
40
0.210937499999965
40
0.210937499999965
40
0.218749999999965
40
0.218749999999965
40
0.234374999999965
40
0.234374999999965
40
0.242187499999966
40
0.242187499999966
40
0.249999999999966
40
0.249999999999966
40
0.312499999999965
40
0.312499999999965
40
0.343749999999964
40
0.343749999999964
40
0.351562499999965
40
0.351562499999965
40
0.359374999999966
40
0.359374999999966
40
0.374999999999963
40
0.374999999999963
40
0.406249999999959
40
0.406249999999959
40
0.421874999999957
40
0.421874999999957
40
0.437499999999955
40
0.437499999999955
40
0.445312499999952
40
0.445312499999952
40
0.45312499999995
40
0.45312499999995
40
0.468749999999944
40
0.468749999999944
40
0.484374999999939
40
0.484374999999939
40
0.492187499999937
40
0.492187499999937
40
0.499999999999936
40
0.499999999999936
40
0.515624999999934
40
0.515624999999934
40
0.531249999999931
40
0.531249999999931
40
0.535156249999931
40
0.535156249999931
40
0.539062499999931
40
0.546874999999934
40
0.546874999999934
40
0.562499999999939
40
0.562499999999939
40
0.56640624999994
40
0.56640624999994
40
0.57031249999994
40
0.578124999999942
40
0.578124999999942
40
0.593749999999946
40
0.593749999999946
40
0.597656249999946
40
0.597656249999946
40
0.601562499999947
40
0.609374999999949
40
0.609374999999949
40
0.624999999999951
40
0.624999999999951
40
0.632812499999953
40
0.632812499999953
40
0.640624999999954
40
0.640624999999954
40
0.656249999999958
40
0.656249999999958
40
0.671874999999963
40
0.671874999999963
40
0.687499999999967
40
0.687499999999967
40
0.695312499999968
40
0.695312499999968
40
0.703124999999969
40
0.703124999999969
40
0.718749999999972
40
0.718749999999972
40
0.734374999999974
40
0.734374999999974
40
0.749999999999977
40
0.749999999999977
40
0.78124999999998
40
0.78124999999998
40
0.812499999999982
40
0.812499999999982
40
0.828124999999984
40
0.828124999999984
40
0.843749999999985
40
0.843749999999985
40
0.874999999999988
40
0.874999999999988
40
0.937499999999994
40
0.937499999999994
40
1
40
1
40
1
40
1
41
1
10
42.2784689967747
20
0.969278477203261
30
0
41
1
10
42.0824440002185
20
1.11374842315081
30
0
41
1
10
41.8829871125549
20
1.24925335724817
30
0
41
1
10
41.4743370395204
20
1.49889214899471
30
0
41
1
10
41.2652148050099
20
1.61315410797445
30
0
41
1
10
40.9422239851212
20
1.76640758918782
30
0
41
1
10
40.832982598495
20
1.81442557898527
30
0
41
1
10
40.6109656850701
20
1.90392149061159
30
0
41
1
10
40.4981872825743
20
1.9453945574202
30
0
41
1
10
40.3260048448025
20
2.00226513407284
30
0
41
1
10
40.2681067180654
20
2.02032967179946
30
0
41
1
10
40.1804356951764
20
2.04599727585267
30
0
41
1
10
40.1510759016927
20
2.05431690999848
30
0
41
1
10
40.0920747209262
20
2.07047181642574
30
0
41
1
10
40.0624654671016
20
2.07829766474265
30
0
41
1
10
39.9735946037152
20
2.10093073374844
30
0
41
1
10
39.9141788979773
20
2.11492670110101
30
0
41
1
10
39.824784207821
20
2.13419834308854
30
0
41
1
10
39.7949399921976
20
2.14033036136527
30
0
41
1
10
39.7351950738267
20
2.15223229320938
30
0
41
1
10
39.7052899960285
20
2.15797528741507
30
0
41
1
10
39.4358484225529
20
2.20779055271623
30
0
41
1
10
39.1942408346966
20
2.23879637557468
30
0
41
1
10
38.828487621313
20
2.26511417491827
30
0
41
1
10
38.7060253145443
20
2.27058938063513
30
0
41
1
10
38.55211533921
20
2.27243433741396
30
0
41
1
10
38.5212920698202
20
2.27255520500611
30
0
41
1
10
38.4595596959384
20
2.27228102233209
30
0
41
1
10
38.428624812361
20
2.27188513375466
30
0
41
1
10
38.3359943691455
20
2.26989941755417
30
0
41
1
10
38.27441073285
20
2.26751379322667
30
0
41
1
10
38.0901967241287
20
2.25699185051343
30
0
41
1
10
37.9680963158527
20
2.24553905280783
30
0
41
1
10
37.7861697951528
20
2.22057438932819
30
0
41
1
10
37.7257370988308
20
2.21091978137645
30
0
41
1
10
37.6053274169162
20
2.18867478346903
30
0
41
1
10
37.5453498974015
20
2.17608812455308
30
0
41
1
10
37.4557792302424
20
2.1546241387662
30
0
41
1
10
37.426042760258
20
2.14704447359401
30
0
41
1
10
37.3670401273281
20
2.13105431503206
30
0
41
1
10
37.3377420554509
20
2.12263483728617
30
0
41
1
10
37.2504923549903
20
2.09601912802322
30
0
41
1
10
37.1931831600319
20
2.07647091501886
30
0
41
1
10
37.0805073586844
20
2.03320894726048
30
0
41
1
10
37.0251370336146
20
2.00950342860639
30
0
41
1
10
36.9437792438392
20
1.97023137178454
30
0
41
1
10
36.9169443257982
20
1.95651849222321
30
0
41
1
10
36.8638993660328
20
1.92771118686804
30
0
41
1
10
36.8376870828749
20
1.9126088063648
30
0
41
1
10
36.7609219809135
20
1.8655315629112
30
0
41
1
10
36.7119496648638
20
1.83165329285211
30
0
41
1
10
36.6190832606425
20
1.7580225998953
30
0
41
1
10
36.5751687918108
20
1.71829306757368
30
0
41
1
10
36.5240073733652
20
1.66421211434488
30
0
41
1
10
36.5139516708686
20
1.65315865031118
30
0
41
1
10
36.4943950921143
20
1.63076843345169
30
0
41
1
10
36.4658371946924
20
1.59669878489254
30
0
41
1
10
36.4396141261434
20
1.56116204480483
30
0
41
1
10
36.3903719483052
20
1.48804722452925
30
0
41
1
10
36.3618106539964
20
1.43658647502005
30
0
41
1
10
36.3318120418566
20
1.36852401321897
30
0
41
1
10
36.3260862567127
20
1.35469338461905
30
0
41
1
10
36.3153129354565
20
1.32689946173375
30
0
41
1
10
36.3001465800427
20
1.284950519463
30
0
41
1
10
36.2878640119885
20
1.24224185390071
30
0
41
1
10
36.2669517229365
20
1.15583718641972
30
0
41
1
10
36.2578665062392
20
1.09692052934628
30
0
41
1
10
36.2522121674836
20
1.02166410692368
30
0
41
1
10
36.2513677805728
20
1.00649944035118
30
0
41
1
10
36.2502447778549
20
0.976207008597044
30
0
41
1
10
36.2494051842788
20
0.930819259671637
30
0
41
1
10
36.2509728595343
20
0.885571667571355
30
0
41
1
10
36.2570257523464
20
0.795234559082644
30
0
41
1
10
36.2649400102607
20
0.735219532377641
30
0
41
1
10
36.2817072354102
20
0.645420051393245
30
0
41
1
10
36.2881152958538
20
0.615524356204645
30
0
41
1
10
36.3024464084464
20
0.555795572050243
30
0
41
1
10
36.3103882313152
20
0.525908312748726
30
0
41
1
10
36.336050101609
20
0.437215955805215
30
0
41
1
10
36.3556488497782
20
0.379104800502489
30
0
41
1
10
36.3988487125668
20
0.264505921771871
30
0
41
1
10
36.4224295217266
20
0.208009368893443
30
0
41
1
10
36.4730184184293
20
0.096399878183945
30
0
41
1
10
36.5002265883439
20
0.0413733945393062
30
0
41
1
10
36.5435312097651
20
-0.0401567561576712
30
0
41
1
10
36.5583825127242
20
-0.0671647797585138
30
0
41
1
10
36.5888653884083
20
-0.120865400766377
30
0
41
1
10
36.6045216999676
20
-0.147598246060312
30
0
41
1
10
36.6523725041203
20
-0.226996239939354
30
0
41
1
10
36.6854373174767
20
-0.27886271146923
30
0
41
1
10
36.7535256898305
20
-0.380785139409085
30
0
41
1
10
36.7885671867455
20
-0.430827199446867
30
0
41
1
10
36.860159453245
20
-0.529473944767744
30
0
41
1
10
36.8967234634869
20
-0.578068201986554
30
0
41
1
10
37.0083472481786
20
-0.721978321756268
30
0
41
1
10
37.0853205065273
20
-0.815437220644156
30
0
41
1
10
37.2430121437186
20
-0.998545075555057
30
0
41
1
10
37.3237394420732
20
-1.08818640326731
30
0
41
1
10
37.4469997520529
20
-1.2203220719594
30
0
41
1
10
37.488469049137
20
-1.26399305682591
30
0
41
1
10
37.5716947720848
20
-1.35024515237191
30
0
41
1
10
37.6134958980412
20
-1.39287478470325
30
0
41
1
10
37.7393753320715
20
-1.51939217971582
30
0
41
1
10
37.8239254495178
20
-1.60191442152336
30
0
41
1
10
38.0789444046795
20
-1.84469089346948
30
0
41
1
10
38.2507398605748
20
-2.00021147740199
30
0
41
1
10
38.5964670549688
20
-2.30031848790804
30
0
41
1
10
38.7704091424022
20
-2.44488433161624
30
0
41
1
10
38.9453595308971
20
-2.58399601981117
30
0
0
SPLINE
5
193
100
AcDbEntity
8
1
62
256
6
ByLayer
370
18
48
1
60
0
100
AcDbSpline
70
4
71
3
72
8
73
4
40
0
40
0
40
0
40
0
40
1
40
1
40
1
40
1
41
1
10
67
20
0.273422355711944
30
0
41
1
10
66.9482620811324
20
0.340005481687911
30
0
41
1
10
66.8964166539405
20
0.404289052320678
30
0
41
1
10
66.8444256421697
20
0.466218031661327
30
0
0
SPLINE
5
194
100
AcDbEntity
8
1
62
256
6
ByLayer
370
18
48
1
60
0
100
AcDbSpline
70
4
71
3
72
25
73
21
40
0
40
0
40
0
40
0
40
0.124999999999984
40
0.124999999999984
40
0.187499999999977
40
0.187499999999977
40
0.249999999999969
40
0.374999999999967
40
0.374999999999967
40
0.437499999999965
40
0.437499999999965
40
0.499999999999964
40
0.499999999999964
40
0.750000000000008
40
0.750000000000008
40
0.81250000000001
40
0.81250000000001
40
0.875000000000012
40
0.875000000000012
40
1
40
1
40
1
40
1
41
1
10
66.8444256421724
20
0.46621803165803
30
0
41
1
10
66.8125778482477
20
0.504153461356964
30
0
41
1
10
66.777847871235
20
0.543045612859856
30
0
41
1
10
66.7219113759263
20
0.602279490743825
30
0
41
1
10
66.7025773297809
20
0.622063378787914
30
0
41
1
10
66.6623593921187
20
0.661276140237021
30
0
41
1
10
66.5998088769894
20
0.719807909885787
30
0
41
1
10
66.5307727747149
20
0.777877210958195
30
0
41
1
10
66.4576277202964
20
0.836202619328162
30
0
41
1
10
66.4326104664246
20
0.85564618343605
30
0
41
1
10
66.3817110104112
20
0.894372440537097
30
0
41
1
10
66.3557809889193
20
0.913693512679828
30
0
41
1
10
66.2239067110681
20
1.01032723228769
30
0
41
1
10
66.1112686237441
20
1.08768517032638
30
0
41
1
10
65.9645074917357
20
1.18866475373778
30
0
41
1
10
65.9348535586043
20
1.20907012518285
30
0
41
1
10
65.8749972341439
20
1.25038437272676
30
0
41
1
10
65.8448287512958
20
1.27127014317748
30
0
41
1
10
65.7541022283579
20
1.33443401651215
30
0
41
1
10
65.6931699049842
20
1.37733047075662
30
0
41
1
10
65.6319900768742
20
1.42128309534527
30
0
0
SPLINE
5
195
100
AcDbEntity
8
1
62
256
6
ByLayer
370
18
48
1
60
0
100
AcDbSpline
70
4
71
3
72
58
73
54
40
0
40
0
40
0
40
0
40
0.0651996762092183
40
0.0651996762092183
40
0.130399352418437
40
0.130399352418437
40
0.146699271470741
40
0.146699271470741
40
0.162999190523046
40
0.162999190523046
40
0.195599028627652
40
0.195599028627652
40
0.260798704836866
40
0.260798704836866
40
0.277098623889167
40
0.277098623889167
40
0.293398542941469
40
0.293398542941469
40
0.32599838104607
40
0.32599838104607
40
0.391198057255271
40
0.391198057255271
40
0.456397733464473
40
0.456397733464473
40
0.488997571569075
40
0.488997571569075
40
0.521597409673677
40
0.521597409673677
40
0.554197247778279
40
0.554197247778279
40
0.570497166830581
40
0.570497166830581
40
0.586797085882883
40
0.586797085882883
40
0.651996762092094
40
0.651996762092094
40
0.684596600196698
40
0.684596600196698
40
0.717196438301302
40
0.717196438301302
40
0.782396114510511
40
0.782396114510511
40
0.84759579071972
40
0.84759579071972
40
0.863895709772022
40
0.863895709772022
40
0.880195628824324
40
0.880195628824324
40
0.912795466928928
40
0.912795466928928
40
0.977995143138139
40
0.977995143138139
40
1
40
1
40
1
40
1
41
1
10
65.6319900768742
20
1.42128309534525
30
0
41
1
10
65.3864317680176
20
1.59769634293392
30
0
41
1
10
65.1426900224345
20
1.7693016594267
30
0
41
1
10
64.6568425626034
20
2.10075054505805
30
0
41
1
10
64.4147950241428
20
2.26065578077379
30
0
41
1
10
64.1117896515197
20
2.45166766593388
30
0
41
1
10
64.0511575311172
20
2.48941820514548
30
0
41
1
10
63.9299457311046
20
2.56414219543956
30
0
41
1
10
63.8693531903792
20
2.6011011895468
30
0
41
1
10
63.6875972271862
20
2.71074438954665
30
0
41
1
10
63.5664517017072
20
2.7821903495711
30
0
41
1
10
63.2027261871747
20
2.99114966814793
30
0
41
1
10
62.959869135859
20
3.12329221140035
30
0
41
1
10
62.6545393839875
20
3.27805423276487
30
0
41
1
10
62.5933838652644
20
3.30848460492899
30
0
41
1
10
62.4708566526746
20
3.36826206176244
30
0
41
1
10
62.4094298910047
20
3.39763368568899
30
0
41
1
10
62.2255123521022
20
3.48373204239383
30
0
41
1
10
62.1031806821947
20
3.538515335959
30
0
41
1
10
61.7368703266967
20
3.69508516175438
30
0
41
1
10
61.4940864547317
20
3.78947508485979
30
0
41
1
10
61.0096234168113
20
3.95727770422141
30
0
41
1
10
60.7679502189176
20
4.03068790915279
30
0
41
1
10
60.4048035994031
20
4.12429397592055
30
0
41
1
10
60.283668309794
20
4.15275297927889
30
0
41
1
10
60.0408407302189
20
4.20402315400844
30
0
41
1
10
59.91909010455
20
4.22682193214487
30
0
41
1
10
59.6752385070221
20
4.26682010733251
30
0
41
1
10
59.5531321612641
20
4.28401084206308
30
0
41
1
10
59.3695349580361
20
4.30545544578772
30
0
41
1
10
59.3082634858266
20
4.31188013212969
30
0
41
1
10
59.1855435904695
20
4.32325992812071
30
0
41
1
10
59.1242582335057
20
4.32819941971445
30
0
41
1
10
58.8184042305256
20
4.34913628723061
30
0
41
1
10
58.5752642879989
20
4.35387127649858
30
0
41
1
10
58.2113049878001
20
4.34338533044516
30
0
41
1
10
58.0901021470068
20
4.33696068932323
30
0
41
1
10
57.8476703686175
20
4.31835070703704
30
0
41
1
10
57.7264158098762
20
4.30617686734655
30
0
41
1
10
57.363021539798
20
4.26097515611502
30
0
41
1
10
57.1210333860558
20
4.21927948975767
30
0
41
1
10
56.6357138555343
20
4.11293204012225
30
0
41
1
10
56.392357856698
20
4.04828689243703
30
0
41
1
10
56.0860176939506
20
3.9533980470737
30
0
41
1
10
56.0245752009117
20
3.93369434240549
30
0
41
1
10
55.9018626409157
20
3.89303341104153
30
0
41
1
10
55.840578455892
20
3.87207686564378
30
0
41
1
10
55.6569270278618
20
3.80735993724264
30
0
41
1
10
55.5348292046019
20
3.76171080243481
30
0
41
1
10
55.1695633614938
20
3.61730391019319
30
0
41
1
10
54.92726526425
20
3.51118496782175
30
0
41
1
10
54.603595905869
20
3.35712094143088
30
0
41
1
10
54.5219560021199
20
3.31721214999567
30
0
41
1
10
54.4403106091826
20
3.27630636504071
30
0
0
SPLINE
5
196
100
AcDbEntity
8
1
62
256
6
ByLayer
370
18
48
1
60
0
100
AcDbSpline
70
4
71
3
72
109
73
105
40
0
40
0
40
0
40
0
40
0.0184049204113299
40
0.0184049204113299
40
0.0456714503999126
40
0.0456714503999126
40
0.0729379803884954
40
0.0729379803884954
40
0.0797546128856402
40
0.0797546128856402
40
0.086571245382785
40
0.086571245382785
40
0.100204510377073
40
0.100204510377073
40
0.127471040365647
40
0.127471040365647
40
0.182004100342795
40
0.182004100342795
40
0.20927063033137
40
0.20927063033137
40
0.222903895325657
40
0.222903895325657
40
0.2297205278228
40
0.2297205278228
40
0.236537160319942
40
0.236537160319942
40
0.263803690308517
40
0.263803690308517
40
0.277436955302804
40
0.277436955302804
40
0.291070220297092
40
0.291070220297092
40
0.345603280274247
40
0.345603280274247
40
0.359236545268537
40
0.359236545268537
40
0.372869810262827
40
0.372869810262827
40
0.400136340251404
40
0.400136340251404
40
0.427402870239982
40
0.427402870239982
40
0.45466940022856
40
0.45466940022856
40
0.481935930217137
40
0.481935930217137
40
0.488752562714281
40
0.488752562714281
40
0.495569195211424
40
0.495569195211424
40
0.509202460205711
40
0.509202460205711
40
0.56373552018286
40
0.56373552018286
40
0.591002050171435
40
0.591002050171435
40
0.61826858016001
40
0.61826858016001
40
0.631901845154298
40
0.631901845154298
40
0.645535110148585
40
0.645535110148585
40
0.67280164013716
40
0.67280164013716
40
0.700068170125735
40
0.700068170125735
40
0.70688480262288
40
0.70688480262288
40
0.713701435120024
40
0.713701435120024
40
0.727334700114311
40
0.740967965108597
40
0.740967965108597
40
0.754601230102884
40
0.754601230102884
40
0.761417862600027
40
0.761417862600027
40
0.768234495097171
40
0.768234495097171
40
0.781867760091456
40
0.781867760091456
40
0.809134290080026
40
0.809134290080026
40
0.836400820068596
40
0.836400820068596
40
0.863667350057166
40
0.863667350057166
40
0.890933880045737
40
0.890933880045737
40
0.897750512542879
40
0.897750512542879
40
0.904567145040021
40
0.904567145040021
40
0.911383777537163
40
0.911383777537163
40
0.918200410034305
40
0.918200410034305
40
0.931833675028587
40
0.931833675028587
40
0.94546694002287
40
0.94546694002287
40
0.972733470011435
40
0.972733470011435
40
1
40
1
40
1
40
1
41
1
10
50.3310594428609
20
4.35000044955967
30
0
41
1
10
50.4245977304979
20
4.34999222153789
30
0
41
1
10
50.518234466491
20
4.34826455941663
30
0
41
1
10
50.7508739275988
20
4.33970810436344
30
0
41
1
10
50.8900102671509
20
4.33082693691668
30
0
41
1
10
51.1686886264948
20
4.30537867683484
30
0
41
1
10
51.3082236743896
20
4.28880465878169
30
0
41
1
10
51.4830673147378
20
4.26316386674586
30
0
41
1
10
51.5180787481216
20
4.25778741504422
30
0
41
1
10
51.5880332441313
20
4.24654583663107
30
0
41
1
10
51.6229419945229
20
4.24067998264957
30
0
41
1
10
51.7275575701051
20
4.22237528479042
30
0
41
1
10
51.797266799021
20
4.20926596441345
30
0
41
1
10
52.0063789901419
20
4.16731267133014
30
0
41
1
10
52.1456189363706
20
4.13579623435964
30
0
41
1
10
52.5627362323353
20
4.03083920638107
30
0
41
1
10
52.8400097677196
20
3.9470239685904
30
0
41
1
10
53.2550636169272
20
3.80086801761308
30
0
41
1
10
53.3932200601145
20
3.74869665598635
30
0
41
1
10
53.6004297459727
20
3.66536435295041
30
0
41
1
10
53.6694715179886
20
3.63672424821289
30
0
41
1
10
53.7730192649122
20
3.59247449487313
30
0
41
1
10
53.8075561435146
20
3.57752696283365
30
0
41
1
10
53.8767607627284
20
3.54730753069151
30
0
41
1
10
53.9114128332873
20
3.53202402052457
30
0
41
1
10
54.0847901471836
20
3.45463842941268
30
0
41
1
10
54.2239207650503
20
3.38967618278826
30
0
41
1
10
54.4332904114289
20
3.28765393932787
30
0
41
1
10
54.5031961305728
20
3.25288572579984
30
0
41
1
10
54.6432516145616
20
3.18182680358734
30
0
41
1
10
54.713447566562
20
3.14551171496893
30
0
41
1
10
55.0645476120952
20
2.96036643062132
30
0
41
1
10
55.3431728226778
20
2.80210851883771
30
0
41
1
10
55.689363879811
20
2.59249292582763
30
0
41
1
10
55.7584675417537
20
2.54994560771587
30
0
41
1
10
55.8966649927044
20
2.4638857576573
30
0
41
1
10
55.9657663413228
20
2.42038241433354
30
0
41
1
10
56.1731416689868
20
2.28853736297489
30
0
41
1
10
56.3114661510408
20
2.19883976811232
30
0
41
1
10
56.5882703996433
20
2.01589101395507
30
0
41
1
10
56.72677501225
20
1.9226674470454
30
0
41
1
10
57.0041790032582
20
1.73295186127658
30
0
41
1
10
57.143062002468
20
1.63644258149117
30
0
41
1
10
57.4210574364258
20
1.4398994654278
30
0
41
1
10
57.5601965812094
20
1.3398959536558
30
0
41
1
10
57.7344971720401
20
1.21292252619543
30
0
41
1
10
57.7693692024704
20
1.18742041005686
30
0
41
1
10
57.8390738298042
20
1.13611395590584
30
0
41
1
10
57.8739157677507
20
1.11032156581348
30
0
41
1
10
57.9786444478692
20
1.03283754128057
30
0
41
1
10
58.0487426450983
20
0.981005332150858
30
0
41
1
10
58.3984246484511
20
0.721862894018102
30
0
41
1
10
58.6769639959084
20
0.513599753429446
30
0
41
1
10
59.0935461763556
20
0.20052478346679
30
0
41
1
10
59.2321960637521
20
0.096044934773829
30
0
41
1
10
59.50903375789
20
-0.113211933926266
30
0
41
1
10
59.6471989199967
20
-0.218019161246986
30
0
41
1
10
59.8541984038693
20
-0.375317500905282
30
0
41
1
10
59.9231254562275
20
-0.427806721930097
30
0
41
1
10
60.06110075152
20
-0.532541346609548
30
0
41
1
10
60.1302040401119
20
-0.5847133956307
30
0
41
1
10
60.3378683357317
20
-0.740634791894593
30
0
41
1
10
60.4767340195814
20
-0.843855897919042
30
0
41
1
10
60.7552228994592
20
-1.04896242805032
30
0
41
1
10
60.8948783673739
20
-1.15080492168582
30
0
41
1
10
61.0699853747881
20
-1.27718492915625
30
0
41
1
10
61.1050334283177
20
-1.3024150696898
30
0
41
1
10
61.1751825612171
20
-1.35278386772518
30
0
41
1
10
61.2103045134689
20
-1.37793755957119
30
0
41
1
10
61.3155806720748
20
-1.45314120710876
30
0
41
1
10
61.4556418708297
20
-1.55267369941092
30
0
41
1
10
61.5951288334252
20
-1.65068908541755
30
0
41
1
10
61.7343416543044
20
-1.74793260939433
30
0
41
1
10
61.8038103338041
20
-1.79616857174489
30
0
41
1
10
61.907924015369
20
-1.86780243951444
30
0
41
1
10
61.9426192182596
20
-1.89155393660309
30
0
41
1
10
62.0119068038178
20
-1.93890653171755
30
0
41
1
10
62.0464842920596
20
-1.96252526721702
30
0
41
1
10
62.1501754126579
20
-2.03301668335681
30
0
41
1
10
62.2193160296394
20
-2.0794435337493
30
0
41
1
10
62.4268374842054
20
-2.216976690601
30
0
41
1
10
62.5652768198655
20
-2.30638759835421
30
0
41
1
10
62.8422358736035
20
-2.4808476682841
30
0
41
1
10
62.980770640179
20
-2.5658789399958
30
0
41
1
10
63.2579561653561
20
-2.73154358764853
30
0
41
1
10
63.3966199958678
20
-2.81216280983188
30
0
41
1
10
63.6741329001907
20
-2.96887712457655
30
0
41
1
10
63.8129843836084
20
-3.0449710798444
30
0
41
1
10
63.9866259457618
20
-3.13722098810894
30
0
41
1
10
64.021357010768
20
-3.1555284293274
30
0
41
1
10
64.0908195548413
20
-3.19185996772066
30
0
41
1
10
64.1255365000923
20
-3.20989735600045
30
0
41
1
10
64.1950630635024
20
-3.24560059883558
30
0
41
1
10
64.229905845635
20
-3.26323613342458
30
0
41
1
10
64.2997777058625
20
-3.29805389538643
30
0
41
1
10
64.3347769606864
20
-3.31526341430364
30
0
41
1
10
64.4398474509891
20
-3.36639892802174
30
0
41
1
10
64.5100412015502
20
-3.39979724745791
30
0
41
1
10
64.6502773694224
20
-3.46493805286857
30
0
41
1
10
64.7203789735233
20
-3.49670968285184
30
0
41
1
10
64.930692983204
20
-3.58959536883074
30
0
41
1
10
65.0709138024827
20
-3.64828451922972
30
0
41
1
10
65.3514205357478
20
-3.7591823981542
30
0
41
1
10
65.4917056413864
20
-3.81139323068385
30
0
41
1
10
65.6319900768742
20
-3.86034375101468
30
0
0
SPLINE
5
197
100
AcDbEntity
8
1
62
256
6
ByLayer
370
18
48
1
60
0
100
AcDbSpline
70
4
71
3
72
33
73
29
40
0
40
0
40
0
40
0
40
0.125000000000023
40
0.125000000000023
40
0.250000000000045
40
0.250000000000045
40
0.375000000000068
40
0.375000000000068
40
0.50000000000009
40
0.50000000000009
40
0.531250000000088
40
0.531250000000088
40
0.562500000000085
40
0.62500000000008
40
0.62500000000008
40
0.750000000000053
40
0.750000000000053
40
0.81250000000004
40
0.81250000000004
40
0.843750000000033
40
0.843750000000033
40
0.875000000000027
40
0.875000000000027
40
0.90625000000002
40
0.90625000000002
40
0.937500000000013
40
0.937500000000013
40
1
40
1
40
1
40
1
41
1
10
65.6319900768742
20
-3.86034375101471
30
0
41
1
10
65.6899402466846
20
-3.88056474670546
30
0
41
1
10
65.7473600493867
20
-3.90332425641535
30
0
41
1
10
65.8609900855433
20
-3.95382019000056
30
0
41
1
10
65.9172097040963
20
-3.98155252876978
30
0
41
1
10
66.0282888255832
20
-4.0420884763187
30
0
41
1
10
66.0831404895247
20
-4.0748920218723
30
0
41
1
10
66.1913316103046
20
-4.14587625666306
30
0
41
1
10
66.2446669380791
20
-4.18404684164889
30
0
41
1
10
66.310436227593
20
-4.23551972247355
30
0
41
1
10
66.3235614779904
20
-4.24601676225871
30
0
41
1
10
66.3496046948824
20
-4.26730845545319
30
0
41
1
10
66.3883823460769
20
-4.2997103839368
30
0
41
1
10
66.4262855415178
20
-4.33353546615646
30
0
41
1
10
66.5008828889247
20
-4.4031945782595
30
0
41
1
10
66.5490062191211
20
-4.45229315822959
30
0
41
1
10
66.6185405157424
20
-4.53064968856796
30
0
41
1
10
66.641276439432
20
-4.55755757896844
30
0
41
1
10
66.6746711960063
20
-4.59924725892239
30
0
41
1
10
66.6857013434546
20
-4.61338881937007
30
0
41
1
10
66.7073758239735
20
-4.6419595902027
30
0
41
1
10
66.718031488489
20
-4.65640190944478
30
0
41
1
10
66.7389714299649
20
-4.6856114653942
30
0
41
1
10
66.7492562922287
20
-4.7003786493683
30
0
41
1
10
66.7694477434545
20
-4.73025114901293
30
0
41
1
10
66.7793516128843
20
-4.74535685613992
30
0
41
1
10
66.8083958306208
20
-4.79119975613207
30
0
41
1
10
66.8268769578117
20
-4.82246037801028
30
0
41
1
10
66.8444256421724
20
-4.85446984262941
30
0
0
SPLINE
5
198
100
AcDbEntity
8
1
62
256
6
ByLayer
370
18
48
1
60
0
100
AcDbSpline
70
4
71
3
72
8
73
4
40
0
40
0
40
0
40
0
40
1
40
1
40
1
40
1
41
1
10
66.8444256421697
20
-4.85446984262438
30
0
41
1
10
66.8965108765874
20
-4.94947528200706
30
0
41
1
10
66.9483552899932
20
-5.04445125200871
30
0
41
1
10
67.0000000000001
20
-5.13937805721906
30
0
0
SPLINE
5
199
100
AcDbEntity
8
1
62
256
6
ByLayer
370
18
48
1
60
0
100
AcDbSpline
70
4
71
3
72
115
73
111
40
0
40
0
40
0
40
0
40
0.0167723017084632
40
0.0167723017084632
40
0.0250263958966282
40
0.0250263958966282
40
0.0332804900847933
40
0.0332804900847933
40
0.0497886784611235
40
0.0497886784611235
40
0.0828050552137838
40
0.0828050552137838
40
0.0910591494019495
40
0.0910591494019495
40
0.0993132435901152
40
0.0993132435901152
40
0.115821431966447
40
0.115821431966447
40
0.148837808719109
40
0.148837808719109
40
0.181854185471772
40
0.181854185471772
40
0.198362373848104
40
0.198362373848104
40
0.214870562224436
40
0.214870562224436
40
0.231378750600768
40
0.231378750600768
40
0.239632844788933
40
0.239632844788933
40
0.247886938977099
40
0.247886938977099
40
0.280903315729757
40
0.280903315729757
40
0.297411504106086
40
0.297411504106086
40
0.313919692482415
40
0.313919692482415
40
0.346936069235071
40
0.346936069235071
40
0.379952445987728
40
0.379952445987728
40
0.388206540175892
40
0.388206540175892
40
0.396460634364056
40
0.396460634364056
40
0.412968822740386
40
0.412968822740386
40
0.445985199493044
40
0.445985199493044
40
0.479001576245702
40
0.479001576245702
40
0.487255670433866
40
0.487255670433866
40
0.495509764622031
40
0.495509764622031
40
0.512017952998362
40
0.512017952998362
40
0.528526141374693
40
0.528526141374693
40
0.536780235562857
40
0.536780235562857
40
0.545034329751022
40
0.545034329751022
40
0.578050706503679
40
0.578050706503679
40
0.594558894880008
40
0.594558894880008
40
0.611067083256337
40
0.611067083256337
40
0.644083460008995
40
0.644083460008995
40
0.660591648385323
40
0.668845742573487
40
0.668845742573487
40
0.677099836761652
40
0.677099836761652
40
0.685353930949816
40
0.685353930949816
40
0.69360802513798
40
0.69360802513798
40
0.710116213514309
40
0.710116213514309
40
0.743132590266968
40
0.743132590266968
40
0.759640778643298
40
0.759640778643298
40
0.776148967019628
40
0.776148967019628
40
0.809165343772288
40
0.809165343772288
40
0.817419437960453
40
0.817419437960453
40
0.825673532148618
40
0.825673532148618
40
0.84218172052495
40
0.858689908901282
40
0.858689908901282
40
0.875198097277614
40
0.875198097277614
40
0.908214474030277
40
0.908214474030277
40
0.94123085078294
40
0.94123085078294
40
0.957739039159271
40
0.957739039159271
40
0.965993133347436
40
0.965993133347436
40
0.974247227535601
40
1
40
1
40
1
40
1
41
1
10
64.5416999220895
20
-4.34999598147508
30
0
41
1
10
64.4185811666485
20
-4.34998942123252
30
0
41
1
10
64.295531979659
20
-4.34695973123701
30
0
41
1
10
64.1117896515197
20
-4.33797948903177
30
0
41
1
10
64.0511575311172
20
-4.33429690966361
30
0
41
1
10
63.9299457311046
20
-4.32547974083389
30
0
41
1
10
63.8693531903793
20
-4.3203459105151
30
0
41
1
10
63.6875972271861
20
-4.30276270700526
30
0
41
1
10
63.5664517017072
20
-4.2881314364802
30
0
41
1
10
63.2027261871747
20
-4.23549610613458
30
0
41
1
10
62.9598691358589
20
-4.18874011571424
30
0
41
1
10
62.6545393839875
20
-4.11577257388836
30
0
41
1
10
62.5933838652644
20
-4.10045412085702
30
0
41
1
10
62.4708566526745
20
-4.06837369023896
30
0
41
1
10
62.4094298910047
20
-4.05159528813516
30
0
41
1
10
62.2255123521023
20
-3.99931877363329
30
0
41
1
10
62.1031806821947
20
-3.96185160692608
30
0
41
1
10
61.7368703266967
20
-3.84185431889875
30
0
41
1
10
61.4940864547317
20
-3.75142083857614
30
0
41
1
10
61.0096234168113
20
-3.5510029336842
30
0
41
1
10
60.7679502189176
20
-3.44100886903433
30
0
41
1
10
60.4048035994031
20
-3.26251951499256
30
0
41
1
10
60.283668309794
20
-3.20075600794118
30
0
41
1
10
60.0408407302189
20
-3.07303643342115
30
0
41
1
10
59.9190901045501
20
-3.00714277381505
30
0
41
1
10
59.6752385070221
20
-2.87094575277772
30
0
41
1
10
59.5531321612641
20
-2.80064162762903
30
0
41
1
10
59.3695349580361
20
-2.6919745441266
30
0
41
1
10
59.3082634858266
20
-2.65521641193095
30
0
41
1
10
59.1855435904694
20
-2.58064937931681
30
0
41
1
10
59.1242582335057
20
-2.5429394581966
30
0
41
1
10
58.8184042305256
20
-2.35253063084815
30
0
41
1
10
58.5752642879989
20
-2.194070175734
30
0
41
1
10
58.2113049878001
20
-1.94916372023059
30
0
41
1
10
58.0901021470068
20
-1.86633591116029
30
0
41
1
10
57.8476703686175
20
-1.69863474453632
30
0
41
1
10
57.7264158098762
20
-1.61379547507619
30
0
41
1
10
57.363021539798
20
-1.35571776797912
30
0
41
1
10
57.1210333860558
20
-1.17917849684073
30
0
41
1
10
56.6357138555343
20
-0.819396814794175
30
0
41
1
10
56.3923578566981
20
-0.636185570781464
30
0
41
1
10
56.0860176939506
20
-0.404603512894028
30
0
41
1
10
56.0245752009117
20
-0.358109348918163
30
0
41
1
10
55.9018626409157
20
-0.265231806748574
30
0
41
1
10
55.8405784558919
20
-0.218845107661394
30
0
41
1
10
55.6569270278618
20
-0.0798564696303288
30
0
41
1
10
55.5348292046019
20
0.0126681721474711
30
0
41
1
10
55.1695633614938
20
0.289880839736725
30
0
41
1
10
54.92726526425
20
0.473990831913312
30
0
41
1
10
54.4432735123972
20
0.838421360235486
30
0
41
1
10
54.2015724298541
20
1.01873085597234
30
0
41
1
10
53.898544255578
20
1.24008682277966
30
0
41
1
10
53.8378888480677
20
1.28415054436189
30
0
41
1
10
53.7164318889051
20
1.37180369073428
30
0
41
1
10
53.6556232619287
20
1.41538429907078
30
0
41
1
10
53.4731295465552
20
1.54560666302905
30
0
41
1
10
53.3513332055384
20
1.63167304051802
30
0
41
1
10
53.1072536052801
20
1.80201166769433
30
0
41
1
10
52.9849782446997
20
1.88629374479746
30
0
41
1
10
52.8010240406936
20
2.01113357565774
30
0
41
1
10
52.7396706248313
20
2.05244461856464
30
0
41
1
10
52.6172722259253
20
2.13415272513441
30
0
41
1
10
52.5561682243561
20
2.17458993663919
30
0
41
1
10
52.2510459336087
20
2.37461973244567
30
0
41
1
10
52.0082493500282
20
2.52776740947044
30
0
41
1
10
51.6443047029757
20
2.74563856925454
30
0
41
1
10
51.5229676503705
20
2.81622789140317
30
0
41
1
10
51.2806124134475
20
2.95373555056861
30
0
41
1
10
51.1595599848327
20
3.02061386773235
30
0
41
1
10
50.7964193806618
20
3.21524098448123
30
0
41
1
10
50.5543653827237
20
3.33699358758611
30
0
41
1
10
50.1898396155254
20
3.50610122821999
30
0
41
1
10
50.0072107774321
20
3.58727243141576
30
0
41
1
10
49.8237459362918
20
3.66309618301557
30
0
41
1
10
49.701220553482
20
3.71242922888709
30
0
41
1
10
49.6397973436709
20
3.73650934254658
30
0
41
1
10
49.5169580555187
20
3.78332100378773
30
0
41
1
10
49.4555948057073
20
3.80601594826152
30
0
41
1
10
49.3331009589727
20
3.85007979200378
30
0
41
1
10
49.2719637075078
20
3.87144317671269
30
0
41
1
10
49.08882354021
20
3.93350108094487
30
0
41
1
10
48.9670894389233
20
3.97216182632678
30
0
41
1
10
48.6026252571805
20
4.07988672784634
30
0
41
1
10
48.3606537219355
20
4.14069730056664
30
0
41
1
10
47.9977282399908
20
4.21491370791318
30
0
41
1
10
47.8767615386048
20
4.23682155114312
30
0
41
1
10
47.6345788928376
20
4.27490584978401
30
0
41
1
10
47.5133325308786
20
4.29107574395721
30
0
41
1
10
47.1489326888589
20
4.3309384673106
30
0
41
1
10
46.9056548704437
20
4.34608798120402
30
0
41
1
10
46.6001106654355
20
4.3501486446431
30
0
41
1
10
46.5389273293142
20
4.35021659127477
30
0
41
1
10
46.4163794401939
20
4.34884892883971
30
0
41
1
10
46.3549918223841
20
4.34741069224398
30
0
41
1
10
46.1713075274328
20
4.34085805372837
30
0
41
1
10
45.9271555876809
20
4.3261531978211
30
0
41
1
10
45.6839862105617
20
4.29976880139137
30
0
41
1
10
45.4410073782854
20
4.2676986276584
30
0
41
1
10
45.3195451868422
20
4.2488442813262
30
0
41
1
10
44.9556490123337
20
4.18380373683559
30
0
41
1
10
44.7137957658877
20
4.12907797335833
30
0
41
1
10
44.229641310222
20
3.99746323730301
30
0
41
1
10
43.9873446362138
20
3.92057029564211
30
0
41
1
10
43.6220464020632
20
3.78920404024572
30
0
41
1
10
43.4999763878308
20
3.74274237184559
30
0
41
1
10
43.3162094388022
20
3.66914081720736
30
0
41
1
10
43.2548191893781
20
3.64397083959642
30
0
41
1
10
43.1318758452232
20
3.59228968622983
30
0
41
1
10
42.8790762206306
20
3.48340218468385
30
0
41
1
10
42.6280842767843
20
3.36465237682273
30
0
41
1
10
42.4385888840562
20
3.26953007790871
30
0
0
SPLINE
5
19A
100
AcDbEntity
8
1
62
256
6
ByLayer
370
18
48
1
60
0
100
AcDbSpline
70
4
71
3
72
146
73
142
40
0
40
0
40
0
40
0
40
0.0096857930492964
40
0.0096857930492964
40
0.0193715860985928
40
0.0193715860985928
40
0.0290573791478892
40
0.0290573791478892
40
0.0387431721971855
40
0.0387431721971855
40
0.0774863443943711
40
0.0774863443943711
40
0.0871721374436669
40
0.0871721374436669
40
0.0968579304929626
40
0.0968579304929626
40
0.106543723542258
40
0.106543723542258
40
0.116229516591554
40
0.116229516591554
40
0.12591530964085
40
0.12591530964085
40
0.135601102690146
40
0.135601102690146
40
0.154972688788737
40
0.154972688788737
40
0.174344274887329
40
0.174344274887329
40
0.19371586098592
40
0.19371586098592
40
0.203401654035216
40
0.203401654035216
40
0.208244550559863
40
0.208244550559863
40
0.213087447084511
40
0.213087447084511
40
0.2324590331831
40
0.2324590331831
40
0.271202205380279
40
0.271202205380279
40
0.280887998429575
40
0.280887998429575
40
0.29057379147887
40
0.29057379147887
40
0.30994537757746
40
0.30994537757746
40
0.32931696367605
40
0.32931696367605
40
0.348688549774639
40
0.348688549774639
40
0.368060135873229
40
0.368060135873229
40
0.377745928922525
40
0.377745928922525
40
0.38743172197182
40
0.38743172197182
40
0.392274618496468
40
0.392274618496468
40
0.397117515021116
40
0.397117515021116
40
0.406803308070411
40
0.406803308070411
40
0.426174894169003
40
0.426174894169003
40
0.4358606872183
40
0.4358606872183
40
0.445546480267597
40
0.445546480267597
40
0.46491806636619
40
0.46491806636619
40
0.484289652464784
40
0.484289652464784
40
0.489132548989431
40
0.489132548989431
40
0.493975445514079
40
0.493975445514079
40
0.503661238563375
40
0.503661238563375
40
0.523032824661968
40
0.523032824661968
40
0.542404410760562
40
0.542404410760562
40
0.561775996859155
40
0.561775996859155
40
0.581147582957748
40
0.581147582957748
40
0.585990479482397
40
0.585990479482397
40
0.590833376007046
40
0.590833376007046
40
0.600519169056344
40
0.600519169056344
40
0.619890755154941
40
0.619890755154941
40
0.658633927352135
40
0.658633927352135
40
0.678005513450733
40
0.678005513450733
40
0.687691306500032
40
0.687691306500032
40
0.692534203024682
40
0.692534203024682
40
0.697377099549332
40
0.697377099549332
40
0.716748685647933
40
0.716748685647933
40
0.726434478697233
40
0.726434478697233
40
0.736120271746533
40
0.736120271746533
40
0.774863443943737
40
0.774863443943737
40
0.784549236993037
40
0.784549236993037
40
0.794235030042337
40
0.794235030042337
40
0.813606616140938
40
0.813606616140938
40
0.832978202239539
40
0.832978202239539
40
0.852349788338141
40
0.852349788338141
40
0.871721374436742
40
0.871721374436742
40
0.876564270961392
40
0.876564270961392
40
0.881407167486042
40
0.881407167486042
40
0.89109296053534
40
0.89109296053534
40
0.929836132732535
40
0.929836132732535
40
0.949207718831133
40
0.949207718831133
40
0.96857930492973
40
0.96857930492973
40
0.97826509797903
40
0.97826509797903
40
0.987950891028329
40
0.987950891028329
40
1
40
1
40
1
40
1
41
1
10
38.9454400011223
20
4.32252668485725
30
0
41
1
10
39.0150929696269
20
4.31657817837805
30
0
41
1
10
39.0845222720405
20
4.309655595821
30
0
41
1
10
39.2231622901988
20
4.29389777102009
30
0
41
1
10
39.2926082884238
20
4.28511523191114
30
0
41
1
10
39.4313400696993
20
4.26569079113119
30
0
41
1
10
39.5006480432289
20
4.25505003850964
30
0
41
1
10
39.6392909029135
20
4.23197062207836
30
0
41
1
10
39.7086167353411
20
4.2195304987267
30
0
41
1
10
40.0552277847839
20
4.15286249897724
30
0
41
1
10
40.332340859026
20
4.08526007842258
30
0
41
1
10
40.6784972026883
20
3.98284306174767
30
0
41
1
10
40.7477162294549
20
3.96145940108346
30
0
41
1
10
40.8861201951227
20
3.91686596688564
30
0
41
1
10
40.9552912440079
20
3.89364584552294
30
0
41
1
10
41.0938759928102
20
3.84552830919014
30
0
41
1
10
41.1631752302974
20
3.82056209399838
30
0
41
1
10
41.301864748485
20
3.76884012879557
30
0
41
1
10
41.3713305538634
20
3.74213407379907
30
0
41
1
10
41.5106314461897
20
3.68712354439435
30
0
41
1
10
41.5804457121139
20
3.65880552803188
30
0
41
1
10
41.7203710541714
20
3.60051916072354
30
0
41
1
10
41.7905206870515
20
3.57052841477128
30
0
41
1
10
42.0011164921865
20
3.47816769972346
30
0
41
1
10
42.1410618500809
20
3.41372185289316
30
0
41
1
10
42.4201647146854
20
3.27928476922881
30
0
41
1
10
42.5593182779642
20
3.20929076923682
30
0
41
1
10
42.8368545725565
20
3.06380595604656
30
0
41
1
10
42.975257991416
20
2.98833255340747
30
0
41
1
10
43.1824723995661
20
2.87116594209806
30
0
41
1
10
43.2514649638453
20
2.83143727606736
30
0
41
1
10
43.3548221819257
20
2.77081380487945
30
0
41
1
10
43.3892674435016
20
2.75044904240497
30
0
41
1
10
43.4582774380288
20
2.7095467439004
30
0
41
1
10
43.4928296743622
20
2.68899673498049
30
0
41
1
10
43.6656068034357
20
2.58552660093673
30
0
41
1
10
43.8039324045671
20
2.50049842748893
30
0
41
1
10
44.2196737019681
20
2.23917282445447
30
0
41
1
10
44.4978834056919
20
2.05670960516028
30
0
41
1
10
44.847232055823
20
1.81835865867654
30
0
41
1
10
44.9171801986258
20
1.77017120208055
30
0
41
1
10
45.0572357847947
20
1.672745822347
30
0
41
1
10
45.1273735005499
20
1.62348544865958
30
0
41
1
10
45.3369830198648
20
1.47483198721261
30
0
41
1
10
45.4758534734233
20
1.37415907228396
30
0
41
1
10
45.7537706969123
20
1.17217033032671
30
0
41
1
10
45.8926726495527
20
1.07066977611791
30
0
41
1
10
46.1702745564102
20
0.866563219437666
30
0
41
1
10
46.3089594918611
20
0.763937269649404
30
0
41
1
10
46.5861116840686
20
0.557565769618179
30
0
41
1
10
46.7245888633854
20
0.453833414392307
30
0
41
1
10
46.932136408666
20
0.297384287822297
30
0
41
1
10
47.0012897366042
20
0.245091176487193
30
0
41
1
10
47.1395276221366
20
0.140202125981403
30
0
41
1
10
47.2086172754898
20
0.0876127986761901
30
0
41
1
10
47.3123773170726
20
0.0087382538004874
30
0
41
1
10
47.3469870131072
20
-0.0175487896162281
30
0
41
1
10
47.4161544992734
20
-0.0702461062027737
30
0
41
1
10
47.4507025358547
20
-0.0966696238622831
30
0
41
1
10
47.5544320087849
20
-0.175905811266404
30
0
41
1
10
47.6237443532015
20
-0.228622355943827
30
0
41
1
10
47.8321438865641
20
-0.38646813939036
30
0
41
1
10
47.9716598900047
20
-0.491338454707176
30
0
41
1
10
48.1816745187922
20
-0.648289124696362
30
0
41
1
10
48.2518532732981
20
-0.70056538438547
30
0
41
1
10
48.3923098160965
20
-0.8048269580122
30
0
41
1
10
48.4624169026961
20
-0.856685810832204
30
0
41
1
10
48.6723830900096
20
-1.01144828197354
30
0
41
1
10
48.8118776049055
20
-1.11355210812005
30
0
41
1
10
49.0899455634551
20
-1.31558704527396
30
0
41
1
10
49.2285759074379
20
-1.41544331685768
30
0
41
1
10
49.4014358909902
20
-1.53871434966743
30
0
41
1
10
49.4359806460084
20
-1.56329841709916
30
0
41
1
10
49.5049981797095
20
-1.61234720340053
30
0
41
1
10
49.5394589516488
20
-1.63682666528317
30
0
41
1
10
49.6428974551632
20
-1.70988083572658
30
0
41
1
10
49.7120304678377
20
-1.757950996586
30
0
41
1
10
49.9193397417775
20
-1.90103486640439
30
0
41
1
10
50.0575757741678
20
-1.9947331606657
30
0
41
1
10
50.3344555323815
20
-2.17835170853459
30
0
41
1
10
50.4730955436289
20
-2.2682780874344
30
0
41
1
10
50.7508739275987
20
-2.44424809132118
30
0
41
1
10
50.8900102671509
20
-2.53029548296962
30
0
41
1
10
51.1686886264948
20
-2.69855671191397
30
0
41
1
10
51.3082236743896
20
-2.7807756246855
30
0
41
1
10
51.4830673147378
20
-2.88090188193996
30
0
41
1
10
51.5180787481216
20
-2.90080206729462
30
0
41
1
10
51.5880332441313
20
-2.94030664632916
30
0
41
1
10
51.6229419945229
20
-2.95991321374464
30
0
41
1
10
51.7275575701051
20
-3.01819819621713
30
0
41
1
10
51.797266799021
20
-3.05622862354986
30
0
41
1
10
52.0063789901419
20
-3.16781534638685
30
0
41
1
10
52.1456189363706
20
-3.2390155152824
30
0
41
1
10
52.5627362323353
20
-3.44339781948435
30
0
41
1
10
52.8400097677195
20
-3.56739522787674
30
0
41
1
10
53.2550636169272
20
-3.73486473717284
30
0
41
1
10
53.3932200601145
20
-3.78762317744562
30
0
41
1
10
53.6004297459727
20
-3.86191251664488
30
0
41
1
10
53.6694715179886
20
-3.88588289555972
30
0
41
1
10
53.7730192649123
20
-3.92061778035694
30
0
41
1
10
53.8075561435146
20
-3.93197848584302
30
0
41
1
10
53.8767607627283
20
-3.95421605397073
30
0
41
1
10
53.9114128332873
20
-3.96510233262058
30
0
41
1
10
54.0847901471836
20
-4.01844908979214
30
0
41
1
10
54.2239207650503
20
-4.05762636190437
30
0
41
1
10
54.4332904114289
20
-4.11110363661109
30
0
41
1
10
54.5031961305728
20
-4.12804554939092
30
0
41
1
10
54.6432516145616
20
-4.16014457159392
30
0
41
1
10
54.713447566562
20
-4.17531104451064
30
0
41
1
10
55.0645476120952
20
-4.24652942641532
30
0
41
1
10
55.3431728226778
20
-4.2883232230115
30
0
41
1
10
55.6893638798109
20
-4.32167072382364
30
0
41
1
10
55.7584675417537
20
-4.32739598870361
30
0
41
1
10
55.8966649927044
20
-4.33692347152575
30
0
41
1
10
55.9657663413228
20
-4.34072655687936
30
0
41
1
10
56.1731416689868
20
-4.34927756630319
30
0
41
1
10
56.3114661510407
20
-4.351173712785
30
0
41
1
10
56.5882703996433
20
-4.34743839840854
30
0
41
1
10
56.72677501225
20
-4.34180453064025
30
0
41
1
10
57.0041790032582
20
-4.32302462067486
30
0
41
1
10
57.1430620024679
20
-4.30988203770326
30
0
41
1
10
57.4210574364257
20
-4.27595453597681
30
0
41
1
10
57.5601965812094
20
-4.25516836472258
30
0
41
1
10
57.7344971720402
20
-4.22433571201543
30
0
41
1
10
57.7693692024704
20
-4.21792474785036
30
0
41
1
10
57.8390738298042
20
-4.20458558150654
30
0
41
1
10
57.8739157677507
20
-4.19765964876822
30
0
41
1
10
57.9786444478692
20
-4.17619251361043
30
0
41
1
10
58.0487426450983
20
-4.16095323293715
30
0
41
1
10
58.398424648451
20
-4.080452361401
30
0
41
1
10
58.6769639959084
20
-4.0020461619394
30
0
41
1
10
59.0935461763556
20
-3.86455856434904
30
0
41
1
10
59.2321960637521
20
-3.81540443525282
30
0
41
1
10
59.5090337578901
20
-3.71041841010629
30
0
41
1
10
59.6471989199967
20
-3.65456837333218
30
0
41
1
10
59.8541984038693
20
-3.56577979313789
30
0
41
1
10
59.9231254562275
20
-3.53532231620036
30
0
41
1
10
60.0611007515201
20
-3.47288122350636
30
0
41
1
10
60.130204040112
20
-3.44094318192768
30
0
41
1
10
60.2855368075847
20
-3.36768428215166
30
0
41
1
10
60.3718117250397
20
-3.32596112205619
30
0
41
1
10
60.4582396207507
20
-3.28311799568007
30
0
0
SPLINE
5
19B
100
AcDbEntity
8
1
62
256
6
ByLayer
370
18
48
1
60
0
100
AcDbSpline
70
4
71
3
72
12
73
8
40
0
40
0
40
0
40
0
40
0.0943226760653912
40
0.0943226760653912
40
0.396215117376932
40
0.396215117376932
40
1
40
1
40
1
40
1
41
1
10
75.0679237553434
20
5.88920552839133
30
0
41
1
10
75.0835239935578
20
5.86229054450166
30
0
41
1
10
75.0991458532644
20
5.83526164438149
30
0
41
1
10
75.1648629825783
20
5.72124563574994
30
0
41
1
10
75.2151813805118
20
5.6331844639362
30
0
41
1
10
75.3668611537325
20
5.36567158447176
30
0
41
1
10
75.4686921024353
20
5.18334111198192
30
0
41
1
10
75.571539280751
20
4.9971012310109
30
0
0
SPLINE
5
19C
100
AcDbEntity
8
1
62
256
6
ByLayer
370
18
48
1
60
0
100
AcDbSpline
70
4
71
3
72
32
73
28
40
0
40
0
40
0
40
0
40
0.124999999999963
40
0.124999999999963
40
0.187499999999926
40
0.187499999999926
40
0.24999999999989
40
0.24999999999989
40
0.374999999999817
40
0.374999999999817
40
0.437499999999803
40
0.437499999999803
40
0.499999999999789
40
0.499999999999789
40
0.624999999999807
40
0.624999999999807
40
0.687499999999839
40
0.687499999999839
40
0.749999999999871
40
0.749999999999871
40
0.812499999999903
40
0.812499999999903
40
0.874999999999936
40
0.874999999999936
40
0.937499999999968
40
0.937499999999968
40
1
40
1
40
1
40
1
41
1
10
75.571539280751
20
4.99710123101087
30
0
41
1
10
75.5844861517975
20
4.97365650688593
30
0
41
1
10
75.5995541080182
20
4.9530834223053
30
0
41
1
10
75.6245002361445
20
4.9253647688584
30
0
41
1
10
75.6332168921359
20
4.91666385103036
30
0
41
1
10
75.6514012999147
20
4.90027138295386
30
0
41
1
10
75.6607363862857
20
4.89270007377397
30
0
41
1
10
75.6893284897347
20
4.87172148058909
30
0
41
1
10
75.7091944910944
20
4.86000184804746
30
0
41
1
10
75.7400715769642
20
4.84557410935017
30
0
41
1
10
75.7505761248994
20
4.84128582318902
30
0
41
1
10
75.7718143387089
20
4.83384704621318
30
0
41
1
10
75.7824703112939
20
4.8307200753971
30
0
41
1
10
75.8145324271927
20
4.82309389693702
30
0
41
1
10
75.8360318475568
20
4.8203210486534
30
0
41
1
10
75.868422155199
20
4.82000427056499
30
0
41
1
10
75.8792952290081
20
4.82055266572542
30
0
41
1
10
75.9008177768656
20
4.82307720566746
30
0
41
1
10
75.9114247808124
20
4.82504066359365
30
0
41
1
10
75.932295293139
20
4.83048784077386
30
0
41
1
10
75.9425591498108
20
4.83396986373739
30
0
41
1
10
75.962684833084
20
4.84267688731617
30
0
41
1
10
75.9725969278925
20
4.84794430903915
30
0
41
1
10
75.991388578677
20
4.86022722920234
30
0
41
1
10
76.000326845623
20
4.86725495483859
30
0
41
1
10
76.0171355247361
20
4.88338041894357
30
0
41
1
10
76.0250470598405
20
4.89254609231273
30
0
41
1
10
76.0321082675304
20
4.90274378629405
30
0
0
SPLINE
5
19D
100
AcDbEntity
8
1
62
256
6
ByLayer
370
18
48
1
60
0
100
AcDbSpline
70
4
71
3
72
12
73
8
40
0
40
0
40
0
40
0
40
0.5
40
0.5
40
0.75
40
0.75
40
1
40
1
40
1
40
1
41
1
10
76.0321082675304
20
4.90274378629425
30
0
41
1
10
76.1322941247856
20
5.04743075181168
30
0
41
1
10
76.2315150356095
20
5.18700807912455
30
0
41
1
10
76.3793009900071
20
5.38874429239488
30
0
41
1
10
76.4283300498371
20
5.45466144604225
30
0
41
1
10
76.5259054811498
20
5.58369436501843
30
0
41
1
10
76.5744557825907
20
5.64679636400882
30
0
41
1
10
76.622809654321
20
5.70851741599202
30
0
0
SPLINE
5
19E
100
AcDbEntity
8
1
62
256
6
ByLayer
370
18
48
1
60
0
100
AcDbSpline
70
4
71
3
72
8
73
4
40
0
40
0
40
0
40
0
40
1
40
1
40
1
40
1
41
1
10
76.8043651270737
20
5.63931019167794
30
0
41
1
10
76.7437626925425
20
5.66333348767222
30
0
41
1
10
76.6832778180065
20
5.68641396816227
30
0
41
1
10
76.622809654321
20
5.70851741599199
30
0
0
SPLINE
5
19F
100
AcDbEntity
8
1
62
256
6
ByLayer
370
18
48
1
60
0
100
AcDbSpline
70
4
71
3
72
12
73
8
40
0
40
0
40
0
40
0
40
0.250000000000003
40
0.250000000000003
40
0.500000000000007
40
0.500000000000007
40
1
40
1
40
1
40
1
41
1
10
76.8043651270734
20
5.63931019166594
30
0
41
1
10
76.8539881996184
20
5.54050416897303
30
0
41
1
10
76.9038155903792
20
5.44122201466638
30
0
41
1
10
77.0039529390023
20
5.24173705618799
30
0
41
1
10
77.054276073782
20
5.14150796312308
30
0
41
1
10
77.2059975358803
20
4.83965223810986
30
0
41
1
10
77.3078890924961
20
4.63736088989236
30
0
41
1
10
77.4108453715339
20
4.43415311880793
30
0
0
SPLINE
5
1A0
100
AcDbEntity
8
1
62
256
6
ByLayer
370
18
48
1
60
0
100
AcDbSpline
70
4
71
3
72
32
73
28
40
0
40
0
40
0
40
0
40
0.124999999999982
40
0.124999999999982
40
0.187499999999973
40
0.187499999999973
40
0.249999999999964
40
0.249999999999964
40
0.374999999999945
40
0.374999999999945
40
0.437499999999936
40
0.437499999999936
40
0.499999999999928
40
0.499999999999928
40
0.62499999999991
40
0.62499999999991
40
0.687499999999925
40
0.687499999999925
40
0.74999999999994
40
0.74999999999994
40
0.812499999999955
40
0.812499999999955
40
0.87499999999997
40
0.87499999999997
40
0.937499999999985
40
0.937499999999985
40
1
40
1
40
1
40
1
41
1
10
77.4108453715339
20
4.4341531188079
30
0
41
1
10
77.4238019047343
20
4.40858043633304
30
0
41
1
10
77.438881839563
20
4.38517513699884
30
0
41
1
10
77.4638476020932
20
4.35244587378779
30
0
41
1
10
77.4725711279758
20
4.34194379935676
30
0
41
1
10
77.4907699674408
20
4.32170330311129
30
0
41
1
10
77.5001126415344
20
4.31211305201208
30
0
41
1
10
77.5287253851931
20
4.28483626356521
30
0
41
1
10
77.548603669431
20
4.26859188420158
30
0
41
1
10
77.5794971596006
20
4.24690728937324
30
0
41
1
10
77.5900084331128
20
4.24011273130418
30
0
41
1
10
77.6112515183748
20
4.22753318322981
30
0
41
1
10
77.6219094038373
20
4.22178826189815
30
0
41
1
10
77.6539756383655
20
4.20616143720093
30
0
41
1
10
77.6754756451806
20
4.19786171689552
30
0
41
1
10
77.707863431373
20
4.18890672035067
30
0
41
1
10
77.7187367904086
20
4.18650244731717
30
0
41
1
10
77.7402432598425
20
4.18305967294751
30
0
41
1
10
77.750841852379
20
4.18201913414825
30
0
41
1
10
77.771694826262
20
4.181410486201
30
0
41
1
10
77.7819495884139
20
4.18184077474876
30
0
41
1
10
77.8020563845573
20
4.18438593065463
30
0
41
1
10
77.8119572624493
20
4.18652562409901
30
0
41
1
10
77.8307256914923
20
4.19265612681846
30
0
41
1
10
77.839652788697
20
4.19664275179017
30
0
41
1
10
77.8564405070431
20
4.20676694268209
30
0
41
1
10
77.8643423587708
20
4.21295482129301
30
0
41
1
10
77.8713966894359
20
4.22030236455902
30
0
0
SPLINE
5
1A1
100
AcDbEntity
8
1
62
256
6
ByLayer
370
18
48
1
60
0
100
AcDbSpline
70
4
71
3
72
54
73
50
40
0
40
0
40
0
40
0
40
0.0058583821565621
40
0.0058583821565621
40
0.0768684977168043
40
0.0768684977168043
40
0.112373555496927
40
0.112373555496927
40
0.147878613277049
40
0.147878613277049
40
0.218888728837296
40
0.218888728837296
40
0.254393786617421
40
0.272146315507484
40
0.272146315507484
40
0.289898844397546
40
0.289898844397546
40
0.307651373287609
40
0.307651373287609
40
0.325403902177671
40
0.360908959957793
40
0.360908959957793
40
0.431919075518038
40
0.431919075518038
40
0.467424133298161
40
0.467424133298161
40
0.502929191078283
40
0.502929191078283
40
0.57393930663853
40
0.57393930663853
40
0.591691835528592
40
0.591691835528592
40
0.609444364418653
40
0.609444364418653
40
0.644949422198774
40
0.680454479978896
40
0.680454479978896
40
0.715959537759017
40
0.715959537759017
40
0.786969653319261
40
0.786969653319261
40
0.857979768879506
40
0.857979768879506
40
0.893484826659628
40
0.893484826659628
40
0.911237355549691
40
0.911237355549691
40
0.928989884439753
40
1
40
1
40
1
40
1
41
1
10
52.5555850207322
20
-4.34999999351638
30
0
41
1
10
52.5354288984124
20
-4.35000060863345
30
0
41
1
10
52.5152820010999
20
-4.34991995446458
30
0
41
1
10
52.2510459336087
20
-4.34779811679036
30
0
41
1
10
52.0082493500281
20
-4.33391474774712
30
0
41
1
10
51.6443047029757
20
-4.29588822853736
30
0
41
1
10
51.5229676503706
20
-4.28036908929315
30
0
41
1
10
51.2806124134475
20
-4.24359670763502
30
0
41
1
10
51.1595599848327
20
-4.22234432225218
30
0
41
1
10
50.7964193806618
20
-4.15005154471987
30
0
41
1
10
50.5543653827238
20
-4.09046261973614
30
0
41
1
10
50.1898396155254
20
-3.98435912298723
30
0
41
1
10
50.007210777432
20
-3.92713208848264
30
0
41
1
10
49.8237459362918
20
-3.86373705284328
30
0
41
1
10
49.701220553482
20
-3.82011357428587
30
0
41
1
10
49.6397973436708
20
-3.7975999202547
30
0
41
1
10
49.5169580555187
20
-3.75132748194551
30
0
41
1
10
49.4555948057072
20
-3.72760952107208
30
0
41
1
10
49.3331009589727
20
-3.67893642952933
30
0
41
1
10
49.1496905908533
20
-3.60408177388504
30
0
41
1
10
48.9670894389233
20
-3.52384743060983
30
0
41
1
10
48.6026252571805
20
-3.35652241140124
30
0
41
1
10
48.3606537219355
20
-3.23580897734726
30
0
41
1
10
47.9977282399908
20
-3.0423981194497
30
0
41
1
10
47.8767615386049
20
-2.97586893708626
30
0
41
1
10
47.6345788928376
20
-2.83895996158751
30
0
41
1
10
47.5133325308786
20
-2.76861169985477
30
0
41
1
10
47.1489326888589
20
-2.55209708488559
30
0
41
1
10
46.9056548704437
20
-2.39989611048881
30
0
41
1
10
46.6001106654354
20
-2.20060454178665
30
0
41
1
10
46.5389273293142
20
-2.16029650199837
30
0
41
1
10
46.4163794401939
20
-2.07880841932393
30
0
41
1
10
46.3549918223841
20
-2.03761194014081
30
0
41
1
10
46.1713075274328
20
-1.9133038438253
30
0
41
1
10
45.9271555876809
20
-1.74529788317099
30
0
41
1
10
45.6839862105616
20
-1.57347804390474
30
0
41
1
10
45.4410073782854
20
-1.40015018283285
30
0
41
1
10
45.3195451868422
20
-1.31281998539751
30
0
41
1
10
44.9556490123336
20
-1.04833101153704
30
0
41
1
10
44.7137957658877
20
-0.868550474913349
30
0
41
1
10
44.2296413102219
20
-0.504553599592583
30
0
41
1
10
43.9873446362138
20
-0.320330875158248
30
0
41
1
10
43.6220464020633
20
-0.0426417868236797
30
0
41
1
10
43.4999763878308
20
0.0501534528937668
30
0
41
1
10
43.3162094388023
20
0.189422506069974
30
0
41
1
10
43.2548191893781
20
0.235830750897151
30
0
41
1
10
43.1318758452232
20
0.328729531972272
30
0
41
1
10
42.8250801716554
20
0.560441410174889
30
0
41
1
10
42.5209468615519
20
0.789304983302316
30
0
41
1
10
42.2783737655922
20
0.969346440520781
30
0
0
SPLINE
5
1A2
100
AcDbEntity
8
1
62
256
6
ByLayer
370
18
48
1
60
0
100
AcDbSpline
70
4
71
3
72
38
73
34
40
0
40
0
40
0
40
0
40
0.042290067780564
40
0.042290067780564
40
0.14465211201587
40
0.14465211201587
40
0.195833134133524
40
0.195833134133524
40
0.247014156251179
40
0.247014156251179
40
0.349376200486484
40
0.349376200486484
40
0.451738244721791
40
0.451738244721791
40
0.502919266839445
40
0.502919266839445
40
0.554100288957099
40
0.554100288957099
40
0.605281311074753
40
0.605281311074753
40
0.656462333192407
40
0.656462333192407
40
0.707643355310061
40
0.707643355310061
40
0.758824377427715
40
0.758824377427715
40
0.861186421663024
40
0.861186421663024
40
0.912367443780678
40
0.912367443780678
40
0.963548465898332
40
0.963548465898332
40
1
40
1
40
1
40
1
41
1
10
42.2784579285367
20
0.969283539703611
30
0
41
1
10
42.2443034999164
20
0.984904908050311
30
0
41
1
10
42.2075464899285
20
0.996875646444238
30
0
41
1
10
42.07272383111
20
1.02506200975481
30
0
41
1
10
41.9600115933859
20
1.02270350097393
30
0
41
1
10
41.7732166121631
20
0.981366179343297
30
0
41
1
10
41.7078132191819
20
0.961405103700656
30
0
41
1
10
41.5700665873903
20
0.907812955530176
30
0
41
1
10
41.4969202204704
20
0.873688270025156
30
0
41
1
10
41.2720627286304
20
0.750509687063129
30
0
41
1
10
41.1168863425963
20
0.648983196869921
30
0
41
1
10
40.7980185964183
20
0.409663556861744
30
0
41
1
10
40.6396712253249
20
0.274853335658946
30
0
41
1
10
40.4038475086625
20
0.0489699556284222
30
0
41
1
10
40.3249062377759
20
-0.0310538380339835
30
0
41
1
10
40.1721587959873
20
-0.195086903966228
30
0
41
1
10
40.0980646855002
20
-0.279303548755337
30
0
41
1
10
39.9543800604761
20
-0.452083376962776
30
0
41
1
10
39.8847864964594
20
-0.540643617248293
30
0
41
1
10
39.750230673767
20
-0.722233892133232
30
0
41
1
10
39.6860811927323
20
-0.814248990330981
30
0
41
1
10
39.5660068567294
20
-0.997190296184129
30
0
41
1
10
39.5096789361846
20
-1.08865144348417
30
0
41
1
10
39.4039813175112
20
-1.2715559063636
30
0
41
1
10
39.3544095000997
20
-1.36345220819825
30
0
41
1
10
39.2187765041755
20
-1.63258580923429
30
0
41
1
10
39.144649579784
20
-1.80512569668227
30
0
41
1
10
39.0525458658274
20
-2.05587393291597
30
0
41
1
10
39.0258530357364
20
-2.13838977257331
30
0
41
1
10
38.9849936890884
20
-2.29457804323556
30
0
41
1
10
38.97011016621
20
-2.36849703568942
30
0
41
1
10
38.9527385313088
20
-2.48895497280248
30
0
41
1
10
38.9479112077739
20
-2.53733836041414
30
0
41
1
10
38.9453596086254
20
-2.58399459853021
30
0
0
SPLINE
5
1A3
100
AcDbEntity
8
1
62
256
6
ByLayer
370
18
48
1
60
0
100
AcDbSpline
70
4
71
3
72
72
73
68
40
0
40
0
40
0
40
0
40
0.0219336725419342
40
0.0219336725419342
40
0.0438673450838684
40
0.0438673450838684
40
0.0658010176258026
40
0.0658010176258026
40
0.0877346901677368
40
0.0877346901677368
40
0.175469380335474
40
0.175469380335474
40
0.197403052877406
40
0.197403052877406
40
0.219336725419339
40
0.219336725419339
40
0.241270397961272
40
0.241270397961272
40
0.263204070503205
40
0.263204070503205
40
0.285137743045138
40
0.285137743045138
40
0.307071415587071
40
0.307071415587071
40
0.350938760670936
40
0.350938760670936
40
0.394806105754802
40
0.394806105754802
40
0.438673450838667
40
0.438673450838667
40
0.460607123380602
40
0.460607123380602
40
0.471573959651569
40
0.471573959651569
40
0.482540795922536
40
0.482540795922536
40
0.526408141006404
40
0.526408141006404
40
0.614142831174138
40
0.614142831174138
40
0.636076503716071
40
0.636076503716071
40
0.658010176258004
40
0.658010176258004
40
0.701877521341867
40
0.701877521341867
40
0.74574486642573
40
0.74574486642573
40
0.789612211509593
40
0.789612211509593
40
0.833479556593456
40
0.833479556593456
40
0.855413229135388
40
0.855413229135388
40
0.877346901677321
40
0.877346901677321
40
0.888313737948288
40
0.888313737948288
40
0.899280574219254
40
0.899280574219254
40
0.921214246761184
40
0.921214246761184
40
0.965081591845044
40
0.965081591845044
40
0.987015264386974
40
0.987015264386974
40
1
40
1
40
1
40
1
41
1
10
38.9454400011224
20
-2.58398936956999
30
0
41
1
10
39.0150929696269
20
-2.6266343407344
30
0
41
1
10
39.0845222720405
20
-2.66877144827231
30
0
41
1
10
39.2231622901988
20
-2.75177782059194
30
0
41
1
10
39.2926082884238
20
-2.79240077186853
30
0
41
1
10
39.4313400696993
20
-2.87235002448853
30
0
41
1
10
39.5006480432289
20
-2.91165002595639
30
0
41
1
10
39.6392909029135
20
-2.98877316567487
30
0
41
1
10
39.7086167353412
20
-3.02660623866433
30
0
41
1
10
40.055227784784
20
-3.21220620486187
30
0
41
1
10
40.332340859026
20
-3.34944358980994
30
0
41
1
10
40.6784972026883
20
-3.50689243197098
30
0
41
1
10
40.7477162294549
20
-3.53767424932016
30
0
41
1
10
40.8861201951227
20
-3.59781320654088
30
0
41
1
10
40.9552912440079
20
-3.6271790762591
30
0
41
1
10
41.0938759928102
20
-3.68426615509884
30
0
41
1
10
41.1631752302974
20
-3.71207253208169
30
0
41
1
10
41.3018647484851
20
-3.76613647607459
30
0
41
1
10
41.3713305538633
20
-3.79234130012915
30
0
41
1
10
41.5106314461897
20
-3.84301428239692
30
0
41
1
10
41.5804457121139
20
-3.86749710811355
30
0
41
1
10
41.7203710541714
20
-3.91477330799683
30
0
41
1
10
41.7905206870515
20
-3.93758256720582
30
0
41
1
10
42.0011164921866
20
-4.00338371065624
30
0
41
1
10
42.141061850081
20
-4.04353694739262
30
0
41
1
10
42.4201647146855
20
-4.11651461492471
30
0
41
1
10
42.5593182779642
20
-4.14934200028628
30
0
41
1
10
42.8368545725565
20
-4.20771334026742
30
0
41
1
10
42.975257991416
20
-4.23324641769392
30
0
41
1
10
43.1824723995661
20
-4.26599822348507
30
0
41
1
10
43.2514649638453
20
-4.27599475938598
30
0
41
1
10
43.3548221819257
20
-4.28960020061538
30
0
41
1
10
43.3892674435016
20
-4.29389974604297
30
0
41
1
10
43.4582774380289
20
-4.30200255394666
30
0
41
1
10
43.4928296743622
20
-4.30580928521499
30
0
41
1
10
43.6656068034357
20
-4.32367125992411
30
0
41
1
10
43.8039324045672
20
-4.33419591838447
30
0
41
1
10
44.2196737019681
20
-4.35444963383844
30
0
41
1
10
44.4978834056919
20
-4.35292293062446
30
0
41
1
10
44.8472320558231
20
-4.33177228369101
30
0
41
1
10
44.9171801986258
20
-4.32657591776626
30
0
41
1
10
45.0572357847947
20
-4.31422084114263
30
0
41
1
10
45.1273735005499
20
-4.30705603407728
30
0
41
1
10
45.3369830198649
20
-4.2826950371151
30
0
41
1
10
45.4758534734233
20
-4.26255247466386
30
0
41
1
10
45.7537706969124
20
-4.21510075325111
30
0
41
1
10
45.8926726495528
20
-4.18777836125545
30
0
41
1
10
46.1702745564102
20
-4.12609825721887
30
0
41
1
10
46.3089594918611
20
-4.09173263782222
30
0
41
1
10
46.5861116840686
20
-4.01601305986097
30
0
41
1
10
46.7245888633854
20
-3.97466446021218
30
0
41
1
10
46.9321364086661
20
-3.90736210655479
30
0
41
1
10
47.0012897366042
20
-3.88404656675502
30
0
41
1
10
47.1395276221366
20
-3.8356288344776
30
0
41
1
10
47.2086172754898
20
-3.81052803278709
30
0
41
1
10
47.3123773170727
20
-3.77164084508439
30
0
41
1
10
47.3469870131073
20
-3.75847457119636
30
0
41
1
10
47.4161544992734
20
-3.73166534755202
30
0
41
1
10
47.4507025358547
20
-3.7180148604771
30
0
41
1
10
47.5544320087849
20
-3.67645439527169
30
0
41
1
10
47.6237443532015
20
-3.64796989248868
30
0
41
1
10
47.8321438865641
20
-3.56019059858121
30
0
41
1
10
47.9716598900047
20
-3.49855073659947
30
0
41
1
10
48.1816745187923
20
-3.40127594675775
30
0
41
1
10
48.2518532732981
20
-3.36803443115699
30
0
41
1
10
48.3636566860667
20
-3.31391134914193
30
0
41
1
10
48.4051893565168
20
-3.29354973074649
30
0
41
1
10
48.446680142642
20
-3.27295437805125
30
0
0
SPLINE
5
1A4
100
AcDbEntity
8
1
62
256
6
ByLayer
370
18
48
1
60
0
100
AcDbSpline
70
4
71
3
72
30
73
26
40
0
40
0
40
0
40
0
40
0.10451587056701
40
0.10451587056701
40
0.232442174771728
40
0.232442174771728
40
0.360368478976446
40
0.360368478976446
40
0.488294783181163
40
0.488294783181163
40
0.520276359232341
40
0.520276359232341
40
0.552257935283517
40
0.552257935283517
40
0.584239511334695
40
0.584239511334695
40
0.616221087385872
40
0.616221087385872
40
0.680184239488226
40
0.680184239488226
40
0.744147391590581
40
0.744147391590581
40
0.87207369579529
40
0.87207369579529
40
1
40
1
40
1
40
1
41
1
10
62.3644513375704
20
4.35000042796054
30
0
41
1
10
62.4775074537936
20
4.34999245081016
30
0
41
1
10
62.5906184866486
20
4.34745122084959
30
0
41
1
10
62.8422358736036
20
4.33624460701586
30
0
41
1
10
62.980770640179
20
4.32633426504381
30
0
41
1
10
63.2579561653561
20
4.29903876959207
30
0
41
1
10
63.3966199958679
20
4.28165543110998
30
0
41
1
10
63.6741329001908
20
4.23933369572757
30
0
41
1
10
63.8129843836084
20
4.21439821388625
30
0
41
1
10
63.9866259457619
20
4.17835831668131
30
0
41
1
10
64.0213570107681
20
4.17090601944815
30
0
41
1
10
64.0908195548414
20
4.15550546248713
30
0
41
1
10
64.1255365000923
20
4.14755089683624
30
0
41
1
10
64.1950630635025
20
4.1311791354197
30
0
41
1
10
64.2299058456351
20
4.12277634341751
30
0
41
1
10
64.2997777058626
20
4.10555549094431
30
0
41
1
10
64.3347769606866
20
4.09672452287094
30
0
41
1
10
64.4398474509892
20
4.06951529945499
30
0
41
1
10
64.5100412015502
20
4.05043413226096
30
0
41
1
10
64.6502773694226
20
4.0105463708355
30
0
41
1
10
64.7203789735234
20
3.98972522625695
30
0
41
1
10
64.9306929832041
20
3.92467548431179
30
0
41
1
10
65.0709138024828
20
3.87786409937289
30
0
41
1
10
65.3514205357479
20
3.77739759544454
30
0
41
1
10
65.4917056413864
20
3.72374361543896
30
0
41
1
10
65.6319900768742
20
3.66660056480077
30
0
0
SPLINE
5
1A5
100
AcDbEntity
8
1
62
256
6
ByLayer
370
18
48
1
60
0
100
AcDbSpline
70
4
71
3
72
33
73
29
40
0
40
0
40
0
40
0
40
0.125000000000023
40
0.125000000000023
40
0.250000000000046
40
0.250000000000046
40
0.37500000000007
40
0.37500000000007
40
0.500000000000093
40
0.500000000000093
40
0.531250000000086
40
0.531250000000086
40
0.562500000000078
40
0.625000000000065
40
0.625000000000065
40
0.750000000000053
40
0.750000000000053
40
0.81250000000004
40
0.81250000000004
40
0.843750000000034
40
0.843750000000034
40
0.875000000000027
40
0.875000000000027
40
0.90625000000002
40
0.90625000000002
40
0.937500000000014
40
0.937500000000014
40
1
40
1
40
1
40
1
41
1
10
65.6319900768742
20
3.66660056480077
30
0
41
1
10
65.6899402466846
20
3.64299531253988
30
0
41
1
10
65.7473600493867
20
3.62192029930136
30
0
41
1
10
65.8609900855433
20
3.58448832580942
30
0
41
1
10
65.9172097040963
20
3.5681394885678
30
0
41
1
10
66.0282888255832
20
3.54006690717117
30
0
41
1
10
66.0831404895247
20
3.52833187631097
30
0
41
1
10
66.1913316103046
20
3.50966573424358
30
0
41
1
10
66.2446669380791
20
3.50271563228631
30
0
41
1
10
66.3104362275931
20
3.49761191704795
30
0
41
1
10
66.3235614779905
20
3.49677280371191
30
0
41
1
10
66.3496046948825
20
3.49548419905113
30
0
41
1
10
66.3883823460769
20
3.49413208562299
30
0
41
1
10
66.4262855415179
20
3.49457062760754
30
0
41
1
10
66.5008828889248
20
3.49802409728372
30
0
41
1
10
66.5490062191212
20
3.50372157789909
30
0
41
1
10
66.6185405157424
20
3.51865793838633
30
0
41
1
10
66.641276439432
20
3.52471140541144
30
0
41
1
10
66.6746711960064
20
3.53566728038797
30
0
41
1
10
66.6857013434547
20
3.53964005886692
30
0
41
1
10
66.7073758239735
20
3.54820923137464
30
0
41
1
10
66.7180314884891
20
3.55280773011776
30
0
41
1
10
66.738971429965
20
3.5626738497304
30
0
41
1
10
66.7492562922287
20
3.56794357744246
30
0
41
1
10
66.7694477434545
20
3.57921404668957
30
0
41
1
10
66.7793516128844
20
3.58520600693649
30
0
41
1
10
66.8083958306209
20
3.6039844091296
30
0
41
1
10
66.8268769578116
20
3.61759167355206
30
0
41
1
10
66.8444256421723
20
3.63241827261473
30
0
0
SPLINE
5
1A6
100
AcDbEntity
8
1
62
256
6
ByLayer
370
18
48
1
60
0
100
AcDbSpline
70
4
71
3
72
8
73
4
40
0
40
0
40
0
40
0
40
1
40
1
40
1
40
1
41
1
10
66.8444256421697
20
3.63241827261217
30
0
41
1
10
66.8717244374412
20
3.65548258239554
30
0
41
1
10
66.8989570279537
20
3.67797515700568
30
0
41
1
10
66.9261294400051
20
3.69990021346746
30
0
0
SPLINE
5
1A7
100
AcDbEntity
8
1
62
256
6
ByLayer
370
18
48
1
60
0
100
AcDbSpline
70
4
71
3
72
8
73
4
40
0
40
0
40
0
40
0
40
1
40
1
40
1
40
1
41
1
10
66.9261294400154
20
3.69990021345276
30
0
41
1
10
66.9468109674968
20
3.65893860147386
30
0
41
1
10
66.9675308557724
20
3.61804914697279
30
0
41
1
10
66.9882918934205
20
3.57723343561793
30
0
0
SPLINE
5
1A8
100
AcDbEntity
8
1
62
256
6
ByLayer
370
18
48
1
60
0
100
AcDbSpline
70
4
71
3
72
8
73
4
40
0
40
0
40
0
40
0
40
1
40
1
40
1
40
1
41
1
10
73.7388640207664
20
-2.19817156803995
30
0
41
1
10
73.6781157320159
20
-2.13831979796214
30
0
41
1
10
73.6173838236411
20
-2.07813221603524
30
0
41
1
10
73.5566614491217
20
-2.01761555422681
30
0
0
SPLINE
5
1A9
100
AcDbEntity
8
1
62
256
6
ByLayer
370
18
48
1
60
0
100
AcDbSpline
70
4
71
3
72
8
73
4
40
0
40
0
40
0
40
0
40
1
40
1
40
1
40
1
41
1
10
75.5780822166882
20
-3.87346823193488
30
0
41
1
10
75.5175079181952
20
-3.8241728319984
30
0
41
1
10
75.4569617313021
20
-3.77425127552598
30
0
41
1
10
75.3964364791819
20
-3.72370946550478
30
0
0
SPLINE
5
1AA
100
AcDbEntity
8
1
62
256
6
ByLayer
370
18
48
1
60
0
100
AcDbSpline
70
4
71
3
72
8
73
4
40
0
40
0
40
0
40
0
40
1
40
1
40
1
40
1
41
1
10
77.4178298826733
20
-5.15306745268487
30
0
41
1
10
77.3570374429093
20
-5.11900666429875
30
0
41
1
10
77.2962858025114
20
-5.08408751723655
30
0
41
1
10
77.2355652593882
20
-5.04831501164682
30
0
0
SPLINE
5
1AB
100
AcDbEntity
8
1
62
256
6
ByLayer
370
18
48
1
60
0
100
AcDbSpline
70
4
71
3
72
32
73
28
40
0
40
0
40
0
40
0
40
0.124999999999917
40
0.124999999999917
40
0.187499999999894
40
0.187499999999894
40
0.249999999999871
40
0.249999999999871
40
0.374999999999825
40
0.374999999999825
40
0.437499999999824
40
0.437499999999824
40
0.499999999999823
40
0.499999999999823
40
0.624999999999867
40
0.624999999999867
40
0.68749999999989
40
0.68749999999989
40
0.749999999999912
40
0.749999999999912
40
0.812499999999934
40
0.812499999999934
40
0.874999999999956
40
0.874999999999956
40
0.937499999999978
40
0.937499999999978
40
1
40
1
40
1
40
1
41
1
10
78.0814770656506
20
1.12644028972017
30
0
41
1
10
78.0689752965218
20
1.13820370262468
30
0
41
1
10
78.0544772031971
20
1.15142051764767
30
0
41
1
10
78.0304425471056
20
1.17286193434433
30
0
41
1
10
78.0220389385714
20
1.18028759586346
30
0
41
1
10
78.0045015716327
20
1.1956557429574
30
0
41
1
10
77.9954877210761
20
1.20349326290812
30
0
41
1
10
77.9677780552631
20
1.22743089967497
30
0
41
1
10
77.9484215962412
20
1.2439496870941
30
0
41
1
10
77.9181533826139
20
1.26957060938312
30
0
41
1
10
77.9078563928156
20
1.27825310167614
30
0
41
1
10
77.8868388395626
20
1.29592448828913
30
0
41
1
10
77.8762114459228
20
1.30483500966005
30
0
41
1
10
77.8442260179345
20
1.33160879061108
30
0
41
1
10
77.8226671167658
20
1.34959532436156
30
0
41
1
10
77.7899978462352
20
1.37689102345271
30
0
41
1
10
77.779052444541
20
1.38604279817375
30
0
41
1
10
77.7570461410726
20
1.40448302736897
30
0
41
1
10
77.7460248016897
20
1.4137387250135
30
0
41
1
10
77.7244329469807
20
1.43194133275844
30
0
41
1
10
77.7137991437692
20
1.44094122339393
30
0
41
1
10
77.6929176982969
20
1.45871829681067
30
0
41
1
10
77.6825939500736
20
1.46756162657945
30
0
41
1
10
77.6629954047614
20
1.48449349661763
30
0
41
1
10
77.6536806060515
20
1.49261513668932
30
0
41
1
10
77.6361917900051
20
1.5080494607088
30
0
41
1
10
77.6280019838784
20
1.51537855089907
30
0
41
1
10
77.6207698675461
20
1.52197077094942
30
0
0
SPLINE
5
1AC
100
AcDbEntity
8
1
62
256
6
ByLayer
370
18
48
1
60
0
100
AcDbSpline
70
4
71
3
72
12
73
8
40
0
40
0
40
0
40
0
40
0.499999999999991
40
0.499999999999991
40
0.749999999999996
40
0.749999999999996
40
1
40
1
40
1
40
1
41
1
10
77.6207698675418
20
1.52197077094411
30
0
41
1
10
77.5217763670457
20
1.61220534528383
30
0
41
1
10
77.4233873635337
20
1.71011223549047
30
0
41
1
10
77.2768528919658
20
1.86749169100963
30
0
41
1
10
77.2281839860123
20
1.92170208422968
30
0
41
1
10
77.1312907610177
20
2.03336541203314
30
0
41
1
10
77.0830451494957
20
2.09084090318893
30
0
41
1
10
77.0349707806494
20
2.14992464914951
30
0
0
SPLINE
5
1AD
100
AcDbEntity
8
1
62
256
6
ByLayer
370
18
48
1
60
0
100
AcDbSpline
70
4
71
3
72
8
73
4
40
0
40
0
40
0
40
0
40
1
40
1
40
1
40
1
41
1
10
76.8531685814035
20
2.32922196551948
30
0
41
1
10
76.9137886521904
20
2.2698177074007
30
0
41
1
10
76.9743840786698
20
2.2100470800714
30
0
41
1
10
77.0349707806468
20
2.14992464915574
30
0
0
SPLINE
5
1AE
100
AcDbEntity
8
1
62
256
6
ByLayer
370
18
48
1
60
0
100
AcDbSpline
70
4
71
3
72
12
73
8
40
0
40
0
40
0
40
0
40
0.249999999999997
40
0.249999999999997
40
0.499999999999995
40
0.499999999999995
40
1
40
1
40
1
40
1
41
1
10
76.8531685814035
20
2.32922196551945
30
0
41
1
10
76.8029968013099
20
2.36430407702625
30
0
41
1
10
76.7526619651819
20
2.39707004779925
30
0
41
1
10
76.6515850317495
20
2.45788421680749
30
0
41
1
10
76.6008288992339
20
2.48593610531782
30
0
41
1
10
76.447921165087
20
2.56283960045744
30
0
41
1
10
76.3453932548169
20
2.60436957195699
30
0
41
1
10
76.242020797683
20
2.63587035559812
30
0
0
SPLINE
5
1AF
100
AcDbEntity
8
1
62
256
6
ByLayer
370
18
48
1
60
0
100
AcDbSpline
70
4
71
3
72
32
73
28
40
0
40
0
40
0
40
0
40
0.124999999999992
40
0.124999999999992
40
0.187499999999986
40
0.187499999999986
40
0.24999999999998
40
0.24999999999998
40
0.37499999999993
40
0.37499999999993
40
0.437499999999905
40
0.437499999999905
40
0.499999999999879
40
0.499999999999879
40
0.624999999999875
40
0.624999999999875
40
0.687499999999896
40
0.687499999999896
40
0.749999999999917
40
0.749999999999917
40
0.812499999999938
40
0.812499999999938
40
0.874999999999958
40
0.874999999999958
40
0.937499999999979
40
0.937499999999979
40
1
40
1
40
1
40
1
41
1
10
76.242020797683
20
2.63587035559812
30
0
41
1
10
76.2295186797588
20
2.63968013745591
30
0
41
1
10
76.2150193643654
20
2.64566300239238
30
0
41
1
10
76.1909819443715
20
2.65707006782299
30
0
41
1
10
76.1825775220186
20
2.66128957139907
30
0
41
1
10
76.1650372350164
20
2.67051280267012
30
0
41
1
10
76.1560219147877
20
2.67545300836088
30
0
41
1
10
76.128307945568
20
2.69117861927091
30
0
41
1
10
76.1089487596223
20
2.70285667199244
30
0
41
1
10
76.0786775625905
20
2.72212453425041
30
0
41
1
10
76.0683797247798
20
2.72884223090352
30
0
41
1
10
76.0473607592838
20
2.74290189040571
30
0
41
1
10
76.0367333154251
20
2.75018215618687
30
0
41
1
10
76.0047477505429
20
2.77263265648233
30
0
41
1
10
75.9831895059129
20
2.78846635563215
30
0
41
1
10
75.9505228727813
20
2.81376846597615
30
0
41
1
10
75.939578632502
20
2.8224636461824
30
0
41
1
10
75.9175754351695
20
2.84046715136469
30
0
41
1
10
75.9065576450253
20
2.84974571170099
30
0
41
1
10
75.88497274015
20
2.86853528457615
30
0
41
1
10
75.8743426628999
20
2.87809646548362
30
0
41
1
10
75.8534690829371
20
2.89761596020202
30
0
41
1
10
75.8431496289982
20
2.90765402733376
30
0
41
1
10
75.8235599022745
20
2.92764807962737
30
0
41
1
10
75.8142494350029
20
2.93763417226543
30
0
41
1
10
75.7967687790214
20
2.95758147911022
30
0
41
1
10
75.7885825415991
20
2.96757555814395
30
0
41
1
10
75.7813530685597
20
2.97721938118158
30
0
0
SPLINE
5
1B0
100
AcDbEntity
8
1
62
256
6
ByLayer
370
18
48
1
60
0
100
AcDbSpline
70
4
71
3
72
12
73
8
40
0
40
0
40
0
40
0
40
0.5
40
0.5
40
0.75
40
0.75
40
1
40
1
40
1
40
1
41
1
10
75.7813530685555
20
2.97721938117976
30
0
41
1
10
75.6823370320201
20
3.1093027472935
30
0
41
1
10
75.5839299854355
20
3.24728819370296
30
0
41
1
10
75.4373728976033
20
3.46197247953268
30
0
41
1
10
75.3886972659943
20
3.53481525183653
30
0
41
1
10
75.2917912247589
20
3.68275562788236
30
0
41
1
10
75.2435395473322
20
3.75788410029216
30
0
41
1
10
75.1954592209475
20
3.83413754889745
30
0
0
SPLINE
5
1B1
100
AcDbEntity
8
1
62
256
6
ByLayer
370
18
48
1
60
0
100
AcDbSpline
70
4
71
3
72
8
73
4
40
0
40
0
40
0
40
0
40
1
40
1
40
1
40
1
41
1
10
75.0136384840364
20
3.98184429315711
30
0
41
1
10
75.0742649258994
20
3.93325347252886
30
0
41
1
10
75.1348663427592
20
3.88401355940982
30
0
41
1
10
75.1954592209453
20
3.83413754890901
30
0
0
SPLINE
5
1B2
100
AcDbEntity
8
1
62
256
6
ByLayer
370
18
48
1
60
0
100
AcDbSpline
70
4
71
3
72
12
73
8
40
0
40
0
40
0
40
0
40
0.25
40
0.25
40
0.5
40
0.5
40
1
40
1
40
1
40
1
41
1
10
75.0136384840364
20
3.98184429315705
30
0
41
1
10
74.9634620136979
20
3.98276864830569
30
0
41
1
10
74.9131274585949
20
3.9813078679199
30
0
41
1
10
74.8120650977772
20
3.97354390626984
30
0
41
1
10
74.7613241349702
20
3.96723845376036
30
0
41
1
10
74.6084688192416
20
3.94091200436264
30
0
41
1
10
74.5059649263067
20
3.91349835892694
30
0
41
1
10
74.4025857583626
20
3.87605808121055
30
0
0
SPLINE
5
1B3
100
AcDbEntity
8
1
62
256
6
ByLayer
370
18
48
1
60
0
100
AcDbSpline
70
4
71
3
72
32
73
28
40
0
40
0
40
0
40
0
40
0.124999999999998
40
0.124999999999998
40
0.187499999999998
40
0.187499999999998
40
0.249999999999998
40
0.249999999999998
40
0.374999999999999
40
0.374999999999999
40
0.437499999999999
40
0.437499999999999
40
0.500000000000001
40
0.500000000000001
40
0.625
40
0.625
40
0.6875
40
0.6875
40
0.75
40
0.75
40
0.8125
40
0.8125
40
0.875
40
0.875
40
0.9375
40
0.9375
40
1
40
1
40
1
40
1
41
1
10
74.4025857583625
20
3.87605808121057
30
0
41
1
10
74.3900843004653
20
3.87153049538415
30
0
41
1
10
74.3755846541996
20
3.8696728001178
30
0
41
1
10
74.3515447989622
20
3.86988713244088
30
0
41
1
10
74.3431395666937
20
3.87047192272126
30
0
41
1
10
74.3255958293692
20
3.87261232292971
30
0
41
1
10
74.316578667345
20
3.87415279294169
30
0
41
1
10
74.2888590242358
20
3.88006685251372
30
0
41
1
10
74.2694958077287
20
3.88571602056797
30
0
41
1
10
74.2392192914101
20
3.8966690891474
30
0
41
1
10
74.2289198159588
20
3.9007378714318
30
0
41
1
10
74.2078978562986
20
3.90975362267201
30
0
41
1
10
74.197269947898
20
3.91466187637002
30
0
41
1
10
74.1652824620476
20
3.93050108661964
30
0
41
1
10
74.1437236211211
20
3.9425675567488
30
0
41
1
10
74.1110576212467
20
3.96329479067828
30
0
41
1
10
74.1001138558424
20
3.9706460681378
30
0
41
1
10
74.0781123303865
20
3.98637499379396
30
0
41
1
10
74.0670981745882
20
3.99472835379709
30
0
41
1
10
74.0455196256883
20
4.01218397443242
30
0
41
1
10
74.0348928848062
20
4.02132848647776
30
0
41
1
10
74.0140262555179
20
4.0405927712161
30
0
41
1
10
74.0037107373091
20
4.0507975742637
30
0
41
1
10
73.98412985283
20
4.07180377412632
30
0
41
1
10
73.9748236600331
20
4.08262971157248
30
0
41
1
10
73.9573509997705
20
4.10504157404782
30
0
41
1
10
73.9491685749464
20
4.11667309250265
30
0
41
1
10
73.9419420766695
20
4.12837580617864
30
0
0
SPLINE
5
1B4
100
AcDbEntity
8
1
62
256
6
ByLayer
370
18
48
1
60
0
100
AcDbSpline
70
4
71
3
72
12
73
8
40
0
40
0
40
0
40
0
40
0.5
40
0.5
40
0.75
40
0.75
40
1
40
1
40
1
40
1
41
1
10
73.9419420766647
20
4.12837580618123
30
0
41
1
10
73.8429154178799
20
4.28874125424605
30
0
41
1
10
73.7445004505911
20
4.45261900615216
30
0
41
1
10
73.5979328450074
20
4.70254238679456
30
0
41
1
10
73.5492539709307
20
4.78653151348436
30
0
41
1
10
73.4523413518568
20
4.9555503315944
30
0
41
1
10
73.4040862803676
20
5.04061624114806
30
0
41
1
10
73.3560020918881
20
5.12621354418974
30
0
0
SPLINE
5
1B5
100
AcDbEntity
8
1
62
256
6
ByLayer
370
18
48
1
60
0
100
AcDbSpline
70
4
71
3
72
8
73
4
40
0
40
0
40
0
40
0
40
1
40
1
40
1
40
1
41
1
10
73.1743147323114
20
5.22712358886801
30
0
41
1
10
73.2348967321293
20
5.19434737338412
30
0
41
1
10
73.2954537020752
20
5.16070749959849
30
0
41
1
10
73.3560020918856
20
5.12621354420799
30
0
0
SPLINE
5
1B6
100
AcDbEntity
8
1
62
256
6
ByLayer
370
18
48
1
60
0
100
AcDbSpline
70
4
71
3
72
12
73
8
40
0
40
0
40
0
40
0
40
0.25
40
0.25
40
0.5
40
0.5
40
1
40
1
40
1
40
1
41
1
10
73.1743147323114
20
5.22712358886798
30
0
41
1
10
73.1241267633122
20
5.19375097986912
30
0
41
1
10
73.0737812172623
20
5.15816578037035
30
0
41
1
10
72.9726988098699
20
5.08252574601084
30
0
41
1
10
72.9219490778393
20
5.04246021418697
30
0
41
1
10
72.7690727163254
20
4.91552185844733
30
0
41
1
10
72.6665752606844
20
4.82213977333453
30
0
41
1
10
72.5631566738834
20
4.71973473236883
30
0
0
SPLINE
5
1B7
100
AcDbEntity
8
1
62
256
6
ByLayer
370
18
48
1
60
0
100
AcDbSpline
70
4
71
3
72
31
73
27
40
0
40
0
40
0
40
0
40
0.124999999999998
40
0.249999999999997
40
0.249999999999997
40
0.312499999999996
40
0.312499999999996
40
0.343749999999996
40
0.343749999999996
40
0.374999999999996
40
0.374999999999996
40
0.499999999999996
40
0.499999999999996
40
0.624999999999997
40
0.624999999999997
40
0.687499999999997
40
0.687499999999997
40
0.749999999999998
40
0.749999999999998
40
0.781249999999998
40
0.781249999999998
40
0.812499999999998
40
0.812499999999998
40
0.874999999999999
40
0.874999999999999
40
1
40
1
40
1
40
1
41
1
10
78.8537977518023
20
0.691524488437977
30
0
41
1
10
78.8432273010974
20
0.882654930967931
30
0
41
1
10
78.8224685159445
20
1.26104569082182
30
0
41
1
10
78.8027566302081
20
1.6318231214606
30
0
41
1
10
78.7880921985846
20
1.90700168378703
30
0
41
1
10
78.7832200020803
20
1.99824278707021
30
0
41
1
10
78.7758640412226
20
2.13436129003847
30
0
41
1
10
78.773403840319
20
2.17961019884493
30
0
41
1
10
78.7684517310607
20
2.26985674711523
30
0
41
1
10
78.7659593847795
20
2.31485471235629
30
0
41
1
10
78.7534468576433
20
2.53799787507398
30
0
41
1
10
78.7432093729311
20
2.71159922640018
30
0
41
1
10
78.7223067125154
20
3.04927235868075
30
0
41
1
10
78.7116424229581
20
3.21334370487068
30
0
41
1
10
78.6957755265855
20
3.4523459517971
30
0
41
1
10
78.6905125128354
20
3.53082741999563
30
0
41
1
10
78.6801664339623
20
3.68540320401013
30
0
41
1
10
78.6751105798611
20
3.76149868853435
30
0
41
1
10
78.667640858751
20
3.87382215284333
30
0
41
1
10
78.6651658170783
20
3.91095970733053
30
0
41
1
10
78.6602230364137
20
3.98462031458482
30
0
41
1
10
78.657752926916
20
4.02117747639341
30
0
41
1
10
78.6503518435887
20
4.12951765424168
30
0
41
1
10
78.6454227284201
20
4.20005181750855
30
0
41
1
10
78.630489488656
20
4.4066128418317
30
0
41
1
10
78.6203133553526
20
4.53760863609011
30
0
41
1
10
78.6097772033056
20
4.66186496619244
30
0
0
SPLINE
5
1B8
100
AcDbEntity
8
SK1
62
256
6
ByLayer
370
18
48
1
60
0
100
AcDbSpline
70
4
71
3
72
25
73
21
40
0
40
0
40
0
40
0
40
0.0625056648172943
40
0.0625056648172943
40
0.125011329634589
40
0.125011329634589
40
0.250022659269177
40
0.250022659269177
40
0.500045318538355
40
0.500045318538355
40
0.625056648172944
40
0.625056648172944
40
0.687562312990239
40
0.718815145398886
40
0.718815145398886
40
0.750067977807533
40
0.750067977807533
40
0.875079307442122
40
0.875079307442122
40
1
40
1
40
1
40
1
41
1
10
-25.6
20
3.49999999999997
30
0
41
1
10
-25.6283912504771
20
3.49999999999997
30
0
41
1
10
-25.6564118314841
20
3.49999999999997
30
0
41
1
10
-25.7116377394306
20
3.49999999999997
30
0
41
1
10
-25.7388670583176
20
3.49999999999997
30
0
41
1
10
-25.8189906594332
20
3.49999999999997
30
0
41
1
10
-25.8703259431386
20
3.49999999999997
30
0
41
1
10
-26.0169645194637
20
3.49999999999997
30
0
41
1
10
-26.104981197625
20
3.49999999999997
30
0
41
1
10
-26.2165657316218
20
3.49999999999997
30
0
41
1
10
-26.2503339875396
20
3.49999999999997
30
0
41
1
10
-26.2949367233174
20
3.49999999999997
30
0
41
1
10
-26.3157237676438
20
3.49999999999997
30
0
41
1
10
-26.3340524870825
20
3.49999999999997
30
0
41
1
10
-26.34570356453
20
3.49999999999997
30
0
41
1
10
-26.3512513335316
20
3.49999999999997
30
0
41
1
10
-26.3774102497551
20
3.49999999999997
30
0
41
1
10
-26.3933144104498
20
3.49999999999997
30
0
41
1
10
-26.4145946424085
20
3.49999999999997
30
0
41
1
10
-26.4199769792704
20
3.49999999999997
30
0
41
1
10
-26.4200000000082
20
3.49999999999997
30
0
0
SPLINE
5
1B9
100
AcDbEntity
8
SK1
62
256
6
ByLayer
370
18
48
1
60
0
100
AcDbSpline
70
4
71
3
72
25
73
21
40
0
40
0
40
0
40
0
40
0.124920626326415
40
0.124920626326415
40
0.249931965422642
40
0.249931965422642
40
0.281184800196698
40
0.281184800196698
40
0.312437634970755
40
0.374943304518868
40
0.374943304518868
40
0.499954643615095
40
0.499954643615095
40
0.749977321807547
40
0.749977321807547
40
0.874988660903774
40
0.874988660903774
40
0.937494330451887
40
0.937494330451887
40
1
40
1
40
1
40
1
41
1
10
-26.4199999999664
20
-3.50000000000003
30
0
41
1
10
-26.4199769727484
20
-3.50000000000003
30
0
41
1
10
-26.4145946359643
20
-3.50000000000003
30
0
41
1
10
-26.3933144104498
20
-3.50000000000003
30
0
41
1
10
-26.3774102497551
20
-3.50000000000003
30
0
41
1
10
-26.3512513335316
20
-3.50000000000003
30
0
41
1
10
-26.34570356453
20
-3.50000000000003
30
0
41
1
10
-26.3340524870825
20
-3.50000000000003
30
0
41
1
10
-26.3157237676438
20
-3.50000000000003
30
0
41
1
10
-26.2949367233175
20
-3.50000000000003
30
0
41
1
10
-26.2503339875396
20
-3.50000000000003
30
0
41
1
10
-26.2165657316218
20
-3.50000000000003
30
0
41
1
10
-26.104981197625
20
-3.50000000000003
30
0
41
1
10
-26.0169645194637
20
-3.50000000000003
30
0
41
1
10
-25.8703259431386
20
-3.50000000000003
30
0
41
1
10
-25.8189906594333
20
-3.50000000000003
30
0
41
1
10
-25.7388670583177
20
-3.50000000000003
30
0
41
1
10
-25.7116377394306
20
-3.50000000000003
30
0
41
1
10
-25.6564118314841
20
-3.50000000000003
30
0
41
1
10
-25.6283912504772
20
-3.50000000000003
30
0
41
1
10
-25.6
20
-3.50000000000003
30
0
0
SPLINE
5
1BA
100
AcDbEntity
8
SK1
62
256
6
ByLayer
370
18
48
1
60
0
100
AcDbSpline
70
4
71
3
72
42
73
38
40
0
40
0
40
0
40
0
40
0.0625
40
0.0625
40
0.0937500000000001
40
0.0937500000000001
40
0.125
40
0.125
40
0.25
40
0.25
40
0.375
40
0.375
40
0.390625
40
0.390625
40
0.40625
40
0.40625
40
0.4375
40
0.4375
40
0.5
40
0.5625
40
0.5625
40
0.625
40
0.625
40
0.640625
40
0.640625
40
0.65625
40
0.6875
40
0.6875
40
0.75
40
0.75
40
0.875
40
0.875
40
0.9375
40
0.9375
40
0.96875
40
0.96875
40
1
40
1
40
1
40
1
41
1
10
-25.6
20
-2.5322717073806
30
0
41
1
10
-25.6565583720233
20
-2.43578436503554
30
0
41
1
10
-25.7116439195181
20
-2.33820475716084
30
0
41
1
10
-25.7915967853719
20
-2.18985119337413
30
0
41
1
10
-25.8178006931364
20
-2.14006846927998
30
0
41
1
10
-25.8692210011127
20
-2.03977067284566
30
0
41
1
10
-25.8944274264223
20
-1.9892708441449
30
0
41
1
10
-26.0171592864999
20
-1.73596911681412
30
0
41
1
10
-26.1053306622981
20
-1.52990483419961
30
0
41
1
10
-26.2540117985661
20
-1.10832131566494
30
0
41
1
10
-26.314506645306
20
-0.892796982116977
30
0
41
1
10
-26.3615059681628
20
-0.64313453219745
30
0
41
1
10
-26.3664345906926
20
-0.615293931063547
30
0
41
1
10
-26.3756842001613
20
-0.559405034267684
30
0
41
1
10
-26.3800074791542
20
-0.531334955523477
30
0
41
1
10
-26.3919767973441
20
-0.447243633545071
30
0
41
1
10
-26.3986454591635
20
-0.391210696629002
30
0
41
1
10
-26.4146633786763
20
-0.223196900384096
30
0
41
1
10
-26.4253669159011
20
0.0005943875169123
30
0
41
1
10
-26.414602359619
20
0.223928035215863
30
0
41
1
10
-26.3933144104498
20
0.447037353369808
30
0
41
1
10
-26.3774102497551
20
0.558479879870447
30
0
41
1
10
-26.3512513335316
20
0.697649193201698
30
0
41
1
10
-26.34570356453
20
0.725484569075519
30
0
41
1
10
-26.3340524870825
20
0.780866452571985
30
0
41
1
10
-26.3157237676438
20
0.863610658520457
30
0
41
1
10
-26.2949367233175
20
0.945406795114565
30
0
41
1
10
-26.2503339875396
20
1.10783105038186
30
0
41
1
10
-26.2165657316219
20
1.21455849585826
30
0
41
1
10
-26.1049811976251
20
1.53077637201858
30
0
41
1
10
-26.0169645194637
20
1.73633295052204
30
0
41
1
10
-25.8703259431386
20
2.03903200195631
30
0
41
1
10
-25.8189906594333
20
2.13898460624907
30
0
41
1
10
-25.7388670583177
20
2.28771000338978
30
0
41
1
10
-25.7116377394306
20
2.33708225013294
30
0
41
1
10
-25.6564118314841
20
2.43512311771093
30
0
41
1
10
-25.6283912504772
20
2.48383685668742
30
0
41
1
10
-25.6
20
2.53227170738052
30
0
0
SPLINE
5
1BB
100
AcDbEntity
8
1
62
256
6
ByLayer
370
18
48
1
60
0
100
AcDbSpline
70
4
71
1
72
4
73
2
40
0
40
0
40
1
40
1
41
1
10
75.0693951023532
20
5.88672492033876
30
0
41
1
10
74.9666139674671
20
6.06396754571358
30
0
0
SPLINE
5
1BC
100
AcDbEntity
8
1
62
256
6
ByLayer
370
18
48
1
60
0
100
AcDbSpline
70
4
71
1
72
4
73
2
40
0
40
0
40
1
40
1
41
1
10
80.5360579560025
20
-5.46341209687978
30
0
41
1
10
80.6490704093843
20
-5.4251357662751
30
0
0
SPLINE
5
1BD
100
AcDbEntity
8
1
62
256
6
ByLayer
370
18
48
1
60
0
100
AcDbSpline
70
4
71
2
72
6
73
3
40
0
40
0
40
0
40
1
40
1
40
1
41
1
10
70.6754736550351
20
5.06059565284951
30
0
41
1
10
70.5979535387102
20
4.92592368402757
30
0
41
1
10
70.4627690083589
20
4.98552537006177
30
0
0
SPLINE
5
1BE
100
AcDbEntity
8
1
62
256
6
ByLayer
370
18
48
1
60
0
100
AcDbSpline
70
4
71
1
72
4
73
2
40
0
40
0
40
1
40
1
41
1
10
82.9999999999999
20
4.34651926565891
30
0
41
1
10
82.5930797834467
20
4.7533288267206
30
0
0
SPLINE
5
1BF
100
AcDbEntity
8
1
62
256
6
ByLayer
370
18
48
1
60
0
100
AcDbSpline
70
4
71
3
72
11
73
7
40
0
40
0
40
0
40
0
40
0.241718163127658
40
0.499842828689346
40
0.75797352766679
40
1
40
1
40
1
40
1
41
1
10
67.6667001093916
20
-5.07218338898716
30
0
41
1
10
67.6854825068255
20
-5.03880741709071
30
0
41
1
10
67.7363575264527
20
-4.98714751104498
30
0
41
1
10
67.8707327661564
20
-4.94698772642727
30
0
41
1
10
68.0051678024864
20
-4.99556501874577
30
0
41
1
10
68.0559621811354
20
-5.05326703295287
30
0
41
1
10
68.0746916667968
20
-5.08967322944758
30
0
0
SPLINE
5
1C0
100
AcDbEntity
8
1
62
256
6
ByLayer
370
18
48
1
60
0
100
AcDbSpline
70
4
71
2
72
6
73
3
40
0
40
0
40
0
40
1
40
1
40
1
41
1
10
67.499773415333
20
-5.35947951493989
30
0
41
1
10
67.583094838915
20
-5.2160120099299
30
0
41
1
10
67.6665030922164
20
-5.0724890416262
30
0
0
SPLINE
5
1C1
100
AcDbEntity
8
1
62
256
6
ByLayer
370
18
48
1
60
0
100
AcDbSpline
70
4
71
2
72
6
73
3
40
0
40
0
40
0
40
1
40
1
40
1
41
1
10
71.1654343673824
20
5.90589312858307
30
0
41
1
10
70.9245140689032
20
5.49008925402148
30
0
41
1
10
70.6832680849673
20
5.07429050995106
30
0
0
SPLINE
5
1C2
100
AcDbEntity
8
1
62
256
6
ByLayer
370
18
48
1
60
0
100
AcDbSpline
70
4
71
2
72
6
73
3
40
0
40
0
40
0
40
1
40
1
40
1
41
1
10
79.4966515715412
20
-5.79608827541949
30
0
41
1
10
79.7060589547764
20
-5.4350685405077
30
0
41
1
10
79.9158080107554
20
-5.07397667238013
30
0
0
SPLINE
5
1C3
100
AcDbEntity
8
1
62
256
6
ByLayer
370
18
48
1
60
0
100
AcDbSpline
70
4
71
2
72
6
73
3
40
0
40
0
40
0
40
1
40
1
40
1
41
1
10
72.0433919091423
20
5.06968711058255
30
0
41
1
10
71.7886266386186
20
5.50827307081929
30
0
41
1
10
71.5340392737753
20
5.94738971608555
30
0
0
SPLINE
5
1C4
100
AcDbEntity
8
1
62
256
6
ByLayer
370
18
48
1
60
0
100
AcDbSpline
70
4
71
1
72
4
73
2
40
0
40
0
40
1
40
1
41
1
10
79.0871285684119
20
-5.95360711928842
30
0
41
1
10
79.471218934936
20
-5.82352841841396
30
0
0
SPLINE
5
1C5
100
AcDbEntity
8
1
62
256
6
ByLayer
370
18
48
1
60
0
100
AcDbSpline
70
4
71
2
72
6
73
3
40
0
40
0
40
0
40
1
40
1
40
1
41
1
10
78.5525333373273
20
-5.06467517802199
30
0
41
1
10
78.8071820998134
20
-5.50335748993538
30
0
41
1
10
79.0616066587932
20
-5.94255572665901
30
0
0
SPLINE
5
1C6
100
AcDbEntity
8
1
62
256
6
ByLayer
370
18
48
1
60
0
100
AcDbSpline
70
4
71
3
72
11
73
7
40
0
40
0
40
0
40
0
40
0.271273493289454
40
0.53277104964112
40
0.77620542512757
40
1
40
1
40
1
40
1
41
1
10
72.4296748902268
20
5.0680854715236
30
0
41
1
10
72.4072485052562
20
5.03063944888279
30
0
41
1
10
72.3512222171815
20
4.97887985957161
30
0
41
1
10
72.2014101867769
20
4.95285386135035
30
0
41
1
10
72.0917158557226
20
5.00734493537817
30
0
41
1
10
72.0571583578528
20
5.04211154424434
30
0
41
1
10
72.0474451483769
20
5.06241827746712
30
0
0
SPLINE
5
1C7
100
AcDbEntity
8
1
62
256
6
ByLayer
370
18
48
1
60
0
100
AcDbSpline
70
4
71
3
72
11
73
7
40
0
40
0
40
0
40
0
40
0.246872882391438
40
0.499986660417989
40
0.753049490213379
40
1
40
1
40
1
40
1
41
1
10
78.1691477506215
20
-5.06811148124717
30
0
41
1
10
78.1850759365025
20
-5.03845932990797
30
0
41
1
10
78.2308587489661
20
-4.99325896800238
30
0
41
1
10
78.3619284686911
20
-4.9504398829298
30
0
41
1
10
78.493054662591
20
-4.99358987950117
30
0
41
1
10
78.5387841892799
20
-5.03886519755937
30
0
41
1
10
78.5546785185929
20
-5.06854075657017
30
0
0
SPLINE
5
1C8
100
AcDbEntity
8
1
62
256
6
ByLayer
370
18
48
1
60
0
100
AcDbSpline
70
4
71
2
72
6
73
3
40
0
40
0
40
0
40
1
40
1
40
1
41
1
10
73.0028762330226
20
6.05623050725106
30
0
41
1
10
72.714705667224
20
5.55861384559799
30
0
41
1
10
72.426137852394
20
5.06157622392328
30
0
0
SPLINE
5
1C9
100
AcDbEntity
8
1
62
256
6
ByLayer
370
18
48
1
60
0
100
AcDbSpline
70
4
71
2
72
6
73
3
40
0
40
0
40
0
40
1
40
1
40
1
41
1
10
77.5941273335668
20
-6.0588913763311
30
0
41
1
10
77.8820923420938
20
-5.56207355987161
30
0
41
1
10
78.1703544360286
20
-5.06597123958406
30
0
0
SPLINE
5
1CA
100
AcDbEntity
8
1
62
256
6
ByLayer
370
18
48
1
60
0
100
AcDbSpline
70
4
71
2
72
6
73
3
40
0
40
0
40
0
40
1
40
1
40
1
41
1
10
73.7940879940841
20
5.06861982253506
30
0
41
1
10
73.505057046714
20
5.5661701856979
30
0
41
1
10
73.2165161816122
20
6.06404574698311
30
0
0
SPLINE
5
1CB
100
AcDbEntity
8
1
62
256
6
ByLayer
370
18
48
1
60
0
100
AcDbSpline
70
4
71
3
72
13
73
9
40
0
40
0
40
0
40
0
40
0.240305197201326
40
0.368462828407189
40
0.499417600094259
40
0.630461205269259
40
0.758870407105493
40
1
40
1
40
1
40
1
41
1
10
74.2024113980771
20
5.09070879148777
30
0
41
1
10
74.184245228025
20
5.05471670407377
30
0
41
1
10
74.1454015382792
20
5.01072122903975
30
0
41
1
10
74.0662328337668
20
4.97017829577428
30
0
41
1
10
73.9976516621191
20
4.95787013568861
30
0
41
1
10
73.9290734046035
20
4.96524940263132
30
0
41
1
10
73.8498958523529
20
4.99934141142501
30
0
41
1
10
73.8110667578915
20
5.03810625885458
30
0
41
1
10
73.7929406479537
20
5.07054089074896
30
0
0
SPLINE
5
1CC
100
AcDbEntity
8
1
62
256
6
ByLayer
370
18
48
1
60
0
100
AcDbSpline
70
4
71
2
72
6
73
3
40
0
40
0
40
0
40
1
40
1
40
1
41
1
10
76.8050634030918
20
-5.06898189893755
30
0
41
1
10
77.0951278548563
20
-5.56867205427813
30
0
41
1
10
77.3847750422884
20
-6.06845742335253
30
0
0
SPLINE
5
1CD
100
AcDbEntity
8
1
62
256
6
ByLayer
370
18
48
1
60
0
100
AcDbSpline
70
4
71
3
72
13
73
9
40
0
40
0
40
0
40
0
40
0.239690125928907
40
0.368300460071238
40
0.499885809163008
40
0.631469573355202
40
0.760089766083723
40
1
40
1
40
1
40
1
41
1
10
76.3902419336439
20
-5.09046994861663
30
0
41
1
10
76.4087829416496
20
-5.0534781378947
30
0
41
1
10
76.4480233370668
20
-5.00808757429283
30
0
41
1
10
76.5273613185372
20
-4.96642084384476
30
0
41
1
10
76.5961584147759
20
-4.9532318189905
30
0
41
1
10
76.6649557974781
20
-4.95983208844194
30
0
41
1
10
76.7443126481956
20
-4.99291399413764
30
0
41
1
10
76.7835161176393
20
-5.0313272536481
30
0
41
1
10
76.8020140179875
20
-5.06356463650016
30
0
0
LINE
5
81
100
AcDbEntity
8
SK4
62
256
6
ByLayer
370
18
48
0.05
60
0
100
AcDbLine
10
-27
20
0
30
0
11
83
21
0
31
0
39
0
210
0
220
0
230
1
0
LINE
5
83
100
AcDbEntity
8
80
62
256
6
ByLayer
370
18
48
1
60
0
100
AcDbLine
10
0
20
0
30
0
11
-5
21
0
31
0
39
0
210
0
220
0
230
1
0
LINE
5
84
100
AcDbEntity
8
4
62
256
6
ByLayer
370
18
48
0.05
60
0
100
AcDbLine
10
0
20
0
30
0
11
83
21
0
31
0
39
0
210
0
220
0
230
1
0
LINE
5
86
100
AcDbEntity
8
81
62
256
6
ByLayer
370
18
48
1
60
0
100
AcDbLine
10
83
20
0
30
0
11
88
21
0
31
0
39
0
210
0
220
0
230
1
0
LINE
5
87
100
AcDbEntity
8
1
62
256
6
ByLayer
370
18
48
1
60
0
100
AcDbLine
10
0
20
4.5
30
0
11
0
21
-4.5
31
0
39
0
210
0
220
0
230
1
0
LINE
5
88
100
AcDbEntity
8
1
62
256
6
ByLayer
370
18
48
1
60
0
100
AcDbLine
10
80.544223
20
-5.459646
30
0
11
80.549684
21
-5.458798
31
0
39
0
210
0
220
0
230
1
0
LINE
5
89
100
AcDbEntity
8
1
62
256
6
ByLayer
370
18
48
1
60
0
100
AcDbLine
10
83
20
4.346519
30
0
11
83
21
4.338866
31
0
39
0
210
0
220
0
230
1
0
LINE
5
8A
100
AcDbEntity
8
1
62
256
6
ByLayer
370
18
48
1
60
0
100
AcDbLine
10
80.332285
20
-5.091311
30
0
11
80.323731
21
-5.089545
31
0
39
0
210
0
220
0
230
1
0
LINE
5
8B
100
AcDbEntity
8
1
62
256
6
ByLayer
370
18
48
1
60
0
100
AcDbLine
10
79.919841
20
-5.067356
30
0
11
79.915686
21
-5.07416
31
0
39
0
210
0
220
0
230
1
0
LINE
5
8C
100
AcDbEntity
8
1
62
256
6
ByLayer
370
18
48
1
60
0
100
AcDbLine
10
67
20
-5.319463
30
0
11
67
21
-5.139378
31
0
39
0
210
0
220
0
230
1
0
LINE
5
8D
100
AcDbEntity
8
1
62
256
6
ByLayer
370
18
48
1
60
0
100
AcDbLine
10
72.046996
20
5.063276
30
0
11
72.043292
21
5.069852
31
0
39
0
210
0
220
0
230
1
0
LINE
5
8E
100
AcDbEntity
8
1
62
256
6
ByLayer
370
18
48
1
60
0
100
AcDbLine
10
78.555753
20
-5.070363
30
0
11
78.55262
21
-5.064836
31
0
39
0
210
0
220
0
230
1
0
LINE
5
8F
100
AcDbEntity
8
1
62
256
6
ByLayer
370
18
48
1
60
0
100
AcDbLine
10
72.430218
20
5.069014
30
0
11
72.426248
21
5.061792
31
0
39
0
210
0
220
0
230
1
0
LINE
5
90
100
AcDbEntity
8
1
62
256
6
ByLayer
370
18
48
1
60
0
100
AcDbLine
10
78.170362
20
-5.065957
30
0
11
78.168409
21
-5.069375
31
0
39
0
210
0
220
0
230
1
0
LINE
5
91
100
AcDbEntity
8
1
62
256
6
ByLayer
370
18
48
1
60
0
100
AcDbLine
10
76.80506
20
-5.068976
30
0
11
76.802303
21
-5.064104
31
0
39
0
210
0
220
0
230
1
0
LINE
5
92
100
AcDbEntity
8
1
62
256
6
ByLayer
370
18
48
1
60
0
100
AcDbLine
10
76.394479
20
-5.090594
30
0
11
76.390039
21
-5.090435
31
0
39
0
210
0
220
0
230
1
0
LINE
5
93
100
AcDbEntity
8
1
62
256
6
ByLayer
370
18
48
1
60
0
100
AcDbLine
10
67
20
1.381703
30
0
11
67
21
0.273422
31
0
39
0
210
0
220
0
230
1
0
LINE
5
94
100
AcDbEntity
8
1
62
256
6
ByLayer
370
13
48
1
60
0
100
AcDbLine
10
66.844426
20
-5.05
30
0
11
66.844426
21
-4.85447
31
0
39
0
210
0
220
0
230
1
0
LINE
5
95
100
AcDbEntity
8
1
62
256
6
ByLayer
370
13
48
1
60
0
100
AcDbLine
10
65.63199
20
-4.35
30
0
11
65.63199
21
-3.860344
31
0
39
0
210
0
220
0
230
1
0
LINE
5
96
100
AcDbEntity
8
1
62
256
6
ByLayer
370
13
48
1
60
0
100
AcDbLine
10
28.653835
20
-4.35
30
0
11
28.653835
21
4.35
31
0
39
0
210
0
220
0
230
1
0
LINE
5
97
100
AcDbEntity
8
1
62
256
6
ByLayer
370
18
48
1
60
0
100
AcDbLine
10
28
20
4.5
30
0
11
28
21
-4.5
31
0
39
0
210
0
220
0
230
1
0
LINE
5
98
100
AcDbEntity
8
1
62
256
6
ByLayer
370
13
48
1
60
0
100
AcDbLine
10
65.63199
20
1.421283
30
0
11
65.63199
21
3.666601
31
0
39
0
210
0
220
0
230
1
0
LINE
5
99
100
AcDbEntity
8
1
62
256
6
ByLayer
370
13
48
1
60
0
100
AcDbLine
10
66.844426
20
3.632418
30
0
11
66.844426
21
0.466218
31
0
39
0
210
0
220
0
230
1
0
LINE
5
9A
100
AcDbEntity
8
SK1
62
256
6
ByLayer
370
18
48
1
60
0
100
AcDbLine
10
-27
20
2.92
30
0
11
-27
21
-2.92
31
0
39
0
210
0
220
0
230
1
0
LINE
5
9C
100
AcDbEntity
8
SK1
62
256
6
ByLayer
370
18
48
1
60
0
100
AcDbLine
10
-17
20
2.532272
30
0
11
-17
21
-2.532272
31
0
39
0
210
0
220
0
230
1
0
LINE
5
9D
100
AcDbEntity
8
SK1
62
256
6
ByLayer
370
18
48
1
60
0
100
AcDbLine
10
-17
20
3.5
30
0
11
-16.18
21
4.32
31
0
39
0
210
0
220
0
230
1
0
LINE
5
9E
100
AcDbEntity
8
SK1
62
256
6
ByLayer
370
18
48
1
60
0
100
AcDbLine
10
-25.6
20
3.5
30
0
11
-17
21
3.5
31
0
39
0
210
0
220
0
230
1
0
LINE
5
9F
100
AcDbEntity
8
SK1
62
256
6
ByLayer
370
18
48
1
60
0
100
AcDbLine
10
-25.6
20
2.532272
30
0
11
-25.6
21
3.5
31
0
39
0
210
0
220
0
230
1
0
LINE
5
A0
100
AcDbEntity
8
SK1
62
256
6
ByLayer
370
18
48
1
60
0
100
AcDbLine
10
-17
20
2.532272
30
0
11
-25.6
21
2.532272
31
0
39
0
210
0
220
0
230
1
0
LINE
5
A1
100
AcDbEntity
8
SK1
62
256
6
ByLayer
370
18
48
1
60
0
100
AcDbLine
10
-25.6
20
-2.532272
30
0
11
-17
21
-2.532272
31
0
39
0
210
0
220
0
230
1
0
LINE
5
A2
100
AcDbEntity
8
SK1
62
256
6
ByLayer
370
18
48
1
60
0
100
AcDbLine
10
-25.6
20
-3.5
30
0
11
-25.6
21
-2.532272
31
0
39
0
210
0
220
0
230
1
0
LINE
5
A3
100
AcDbEntity
8
SK1
62
256
6
ByLayer
370
18
48
1
60
0
100
AcDbLine
10
-17
20
-3.5
30
0
11
-25.6
21
-3.5
31
0
39
0
210
0
220
0
230
1
0
LINE
5
A4
100
AcDbEntity
8
SK1
62
256
6
ByLayer
370
18
48
1
60
0
100
AcDbLine
10
-17
20
-3.5
30
0
11
-16.18
21
-4.32
31
0
39
0
210
0
220
0
230
1
0
LINE
5
A5
100
AcDbEntity
8
SK1
62
256
6
ByLayer
370
18
48
1
60
0
100
AcDbLine
10
0
20
4.5
30
0
11
0
21
-4.5
31
0
39
0
210
0
220
0
230
1
0
LINE
5
A6
100
AcDbEntity
8
SK1
62
256
6
ByLayer
370
18
48
1
60
0
100
AcDbLine
10
-15
20
4.32
30
0
11
-15
21
-4.32
31
0
39
0
210
0
220
0
230
1
0
LINE
5
A7
100
AcDbEntity
8
SK1
62
256
6
ByLayer
370
18
48
1
60
0
100
AcDbLine
10
-14.82
20
-4.5
30
0
11
-14.82
21
4.5
31
0
39
0
210
0
220
0
230
1
0
LINE
5
A8
100
AcDbEntity
8
1
62
256
6
ByLayer
370
18
48
1
60
0
100
AcDbLine
10
68.31878
20
-5.504805
30
0
11
68.529225
21
-5.534381
31
0
39
0
210
0
220
0
230
1
0
LINE
5
A9
100
AcDbEntity
8
1
62
256
6
ByLayer
370
18
48
1
60
0
100
AcDbLine
10
71.518251
20
5.954462
30
0
11
71.175419
21
5.90628
31
0
39
0
210
0
220
0
230
1
0
LINE
5
AA
100
AcDbEntity
8
1
62
256
6
ByLayer
370
18
48
1
60
0
100
AcDbLine
10
28
20
4.5
30
0
11
0
21
4.5
31
0
39
0
210
0
220
0
230
1
0
LINE
5
AB
100
AcDbEntity
8
1
62
256
6
ByLayer
370
18
48
1
60
0
100
AcDbLine
10
0
20
-4.5
30
0
11
28
21
-4.5
31
0
39
0
210
0
220
0
230
1
0
LINE
5
AC
100
AcDbEntity
8
1
62
256
6
ByLayer
370
18
48
1
60
0
100
AcDbLine
10
67
20
-5.319463
30
0
11
67.47032
21
-5.385562
31
0
39
0
210
0
220
0
230
1
0
LINE
5
AD
100
AcDbEntity
8
1
62
256
6
ByLayer
370
18
48
1
60
0
100
AcDbLine
10
66.844426
20
-5.05
30
0
11
67
21
-5.319463
31
0
39
0
210
0
220
0
230
1
0
LINE
5
AE
100
AcDbEntity
8
1
62
256
6
ByLayer
370
18
48
1
60
0
100
AcDbLine
10
73.198195
20
6.076498
30
0
11
73.025267
21
6.076498
31
0
39
0
210
0
220
0
230
1
0
LINE
5
AF
100
AcDbEntity
8
1
62
256
6
ByLayer
370
18
48
1
60
0
100
AcDbLine
10
77.400367
20
-6.076498
30
0
11
77.573271
21
-6.076498
31
0
39
0
210
0
220
0
230
1
0
LINE
5
B0
100
AcDbEntity
8
1
62
256
6
ByLayer
370
18
48
1
60
0
100
AcDbLine
10
28.653835
20
-4.35
30
0
11
37.567049
21
-4.35
31
0
39
0
210
0
220
0
230
1
0
LINE
5
B1
100
AcDbEntity
8
1
62
256
6
ByLayer
370
18
48
1
60
0
100
AcDbLine
10
39.542955
20
-4.35
30
0
11
44.314352
21
-4.35
31
0
39
0
210
0
220
0
230
1
0
LINE
5
B2
100
AcDbEntity
8
1
62
256
6
ByLayer
370
18
48
1
60
0
100
AcDbLine
10
52.555427
20
-4.35
30
0
11
56.347123
21
-4.35
31
0
39
0
210
0
220
0
230
1
0
LINE
5
B3
100
AcDbEntity
8
1
62
256
6
ByLayer
370
18
48
1
60
0
100
AcDbLine
10
64.541542
20
-4.35
30
0
11
65.63199
21
-4.35
31
0
39
0
210
0
220
0
230
1
0
LINE
5
B4
100
AcDbEntity
8
1
62
256
6
ByLayer
370
18
48
1
60
0
100
AcDbLine
10
62.365386
20
4.35
30
0
11
58.54891
21
4.35
31
0
39
0
210
0
220
0
230
1
0
LINE
5
B5
100
AcDbEntity
8
1
62
256
6
ByLayer
370
18
48
1
60
0
100
AcDbLine
10
50.331043
20
4.35
30
0
11
46.561527
21
4.35
31
0
39
0
210
0
220
0
230
1
0
LINE
5
B6
100
AcDbEntity
8
1
62
256
6
ByLayer
370
18
48
1
60
0
100
AcDbLine
10
38.454032
20
4.35
30
0
11
28.653835
21
4.35
31
0
39
0
210
0
220
0
230
1
0
LINE
5
B7
100
AcDbEntity
8
SK1
62
256
6
ByLayer
370
18
48
1
60
0
100
AcDbLine
10
-27
20
-2.92
30
0
11
-26.42
21
-3.5
31
0
39
0
210
0
220
0
230
1
0
LINE
5
B8
100
AcDbEntity
8
SK1
62
256
6
ByLayer
370
18
48
1
60
0
100
AcDbLine
10
-26.42
20
3.5
30
0
11
-27
21
2.92
31
0
39
0
210
0
220
0
230
1
0
LINE
5
B9
100
AcDbEntity
8
SK1
62
256
6
ByLayer
370
18
48
1
60
0
100
AcDbLine
10
-15
20
4.32
30
0
11
-16.18
21
4.32
31
0
39
0
210
0
220
0
230
1
0
LINE
5
BA
100
AcDbEntity
8
SK1
62
256
6
ByLayer
370
18
48
1
60
0
100
AcDbLine
10
-16.18
20
-4.32
30
0
11
-15
21
-4.32
31
0
39
0
210
0
220
0
230
1
0
LINE
5
BB
100
AcDbEntity
8
SK1
62
256
6
ByLayer
370
18
48
1
60
0
100
AcDbLine
10
0
20
4.5
30
0
11
-14.82
21
4.5
31
0
39
0
210
0
220
0
230
1
0
LINE
5
BC
100
AcDbEntity
8
SK1
62
256
6
ByLayer
370
18
48
1
60
0
100
AcDbLine
10
-14.82
20
-4.5
30
0
11
0
21
-4.5
31
0
39
0
210
0
220
0
230
1
0
LINE
5
BD
100
AcDbEntity
8
SK1
62
256
6
ByLayer
370
18
48
1
60
0
100
AcDbLine
10
-15
20
-4.32
30
0
11
-14.82
21
-4.5
31
0
39
0
210
0
220
0
230
1
0
LINE
5
BE
100
AcDbEntity
8
SK1
62
256
6
ByLayer
370
18
48
1
60
0
100
AcDbLine
10
-14.82
20
4.5
30
0
11
-15
21
4.32
31
0
39
0
210
0
220
0
230
1
0
LINE
5
BF
100
AcDbEntity
8
SK2
62
256
6
ByLayer
370
18
48
1
60
0
100
AcDbLine
10
14.59
20
-4.5
30
0
11
14.59
21
19.341828
31
0
39
0
210
0
220
0
230
1
0
LINE
5
C1
100
AcDbEntity
8
1
62
256
6
ByLayer
370
18
48
1
60
1
100
AcDbLine
10
14.59
20
4.5
30
0
11
15.050784
21
1.000002
31
0
39
0
210
0
220
0
230
1
0
LINE
5
C2
100
AcDbEntity
8
1
62
256
6
ByLayer
370
18
48
1
60
1
100
AcDbLine
10
15.050784
20
1.000002
30
0
11
14.129216
21
0.999998
31
0
39
0
210
0
220
0
230
1
0
LINE
5
C3
100
AcDbEntity
8
1
62
256
6
ByLayer
370
18
48
1
60
1
100
AcDbLine
10
14.129216
20
0.999998
30
0
11
14.59
21
4.5
31
0
39
0
210
0
220
0
230
1
0
LINE
5
C4
100
AcDbEntity
8
1
62
256
6
ByLayer
370
18
48
1
60
1
100
AcDbLine
10
14.59
20
-4.5
30
0
11
14.129216
21
-1.000002
31
0
39
0
210
0
220
0
230
1
0
LINE
5
C5
100
AcDbEntity
8
1
62
256
6
ByLayer
370
18
48
1
60
1
100
AcDbLine
10
14.129216
20
-1.000002
30
0
11
15.050784
21
-0.999998
31
0
39
0
210
0
220
0
230
1
0
LINE
5
C6
100
AcDbEntity
8
1
62
256
6
ByLayer
370
18
48
1
60
1
100
AcDbLine
10
15.050784
20
-0.999998
30
0
11
14.59
21
-4.5
31
0
39
0
210
0
220
0
230
1
0
LINE
5
C7
100
AcDbEntity
8
2
62
256
6
ByLayer
370
18
48
1
60
0
100
AcDbLine
10
83
20
-43.576498
30
0
11
-27
21
-43.576498
31
0
39
0
210
0
220
0
230
1
0
LINE
5
C9
100
AcDbEntity
8
2
62
256
6
ByLayer
370
18
48
1
60
0
100
AcDbLine
10
-27
20
-4.5075
30
0
11
-27
21
-45.576498
31
0
39
0
210
0
220
0
230
1
0
LINE
5
CA
100
AcDbEntity
8
2
62
256
6
ByLayer
370
18
48
1
60
0
100
AcDbLine
10
83
20
-7.663998
30
0
11
83
21
-45.576498
31
0
39
0
210
0
220
0
230
1
0
LINE
5
CB
100
AcDbEntity
8
1
62
256
6
ByLayer
370
18
48
1
60
1
100
AcDbLine
10
-27
20
-43.576498
30
0
11
-23.500002
21
-43.115715
31
0
39
0
210
0
220
0
230
1
0
LINE
5
CC
100
AcDbEntity
8
1
62
256
6
ByLayer
370
18
48
1
60
1
100
AcDbLine
10
-23.500002
20
-43.115715
30
0
11
-23.499998
21
-44.037282
31
0
39
0
210
0
220
0
230
1
0
LINE
5
CD
100
AcDbEntity
8
1
62
256
6
ByLayer
370
18
48
1
60
1
100
AcDbLine
10
-23.499998
20
-44.037282
30
0
11
-27
21
-43.576498
31
0
39
0
210
0
220
0
230
1
0
LINE
5
CE
100
AcDbEntity
8
1
62
256
6
ByLayer
370
18
48
1
60
1
100
AcDbLine
10
83
20
-43.576498
30
0
11
79.500002
21
-44.037282
31
0
39
0
210
0
220
0
230
1
0
LINE
5
CF
100
AcDbEntity
8
1
62
256
6
ByLayer
370
18
48
1
60
1
100
AcDbLine
10
79.500002
20
-44.037282
30
0
11
79.499998
21
-43.115715
31
0
39
0
210
0
220
0
230
1
0
LINE
5
D0
100
AcDbEntity
8
1
62
256
6
ByLayer
370
18
48
1
60
1
100
AcDbLine
10
79.499998
20
-43.115715
30
0
11
83
21
-43.576498
31
0
39
0
210
0
220
0
230
1
0
LINE
5
1D2
100
AcDbEntity
8
1
62
256
6
ByLayer
370
18
48
1
60
1
100
AcDbLine
10
14.59
20
4.5
30
0
11
15.050784
21
1.000002
31
0
39
0
210
0
220
0
230
1
0
LINE
5
1D3
100
AcDbEntity
8
1
62
256
6
ByLayer
370
18
48
1
60
1
100
AcDbLine
10
15.050784
20
1.000002
30
0
11
14.129216
21
0.999998
31
0
39
0
210
0
220
0
230
1
0
LINE
5
1D4
100
AcDbEntity
8
1
62
256
6
ByLayer
370
18
48
1
60
1
100
AcDbLine
10
14.129216
20
0.999998
30
0
11
14.59
21
4.5
31
0
39
0
210
0
220
0
230
1
0
LINE
5
1D6
100
AcDbEntity
8
1
62
256
6
ByLayer
370
18
48
1
60
1
100
AcDbLine
10
14.59
20
-4.5
30
0
11
14.129216
21
-1.000002
31
0
39
0
210
0
220
0
230
1
0
LINE
5
1D7
100
AcDbEntity
8
1
62
256
6
ByLayer
370
18
48
1
60
1
100
AcDbLine
10
14.129216
20
-1.000002
30
0
11
15.050784
21
-0.999998
31
0
39
0
210
0
220
0
230
1
0
LINE
5
1D8
100
AcDbEntity
8
1
62
256
6
ByLayer
370
18
48
1
60
1
100
AcDbLine
10
15.050784
20
-0.999998
30
0
11
14.59
21
-4.5
31
0
39
0
210
0
220
0
230
1
0
LINE
5
1DB
100
AcDbEntity
8
1
62
256
6
ByLayer
370
18
48
1
60
1
100
AcDbLine
10
-27
20
-43.576498
30
0
11
-23.500002
21
-43.115715
31
0
39
0
210
0
220
0
230
1
0
LINE
5
1DC
100
AcDbEntity
8
1
62
256
6
ByLayer
370
18
48
1
60
1
100
AcDbLine
10
-23.500002
20
-43.115715
30
0
11
-23.499998
21
-44.037282
31
0
39
0
210
0
220
0
230
1
0
LINE
5
1DD
100
AcDbEntity
8
1
62
256
6
ByLayer
370
18
48
1
60
1
100
AcDbLine
10
-23.499998
20
-44.037282
30
0
11
-27
21
-43.576498
31
0
39
0
210
0
220
0
230
1
0
LINE
5
1DF
100
AcDbEntity
8
1
62
256
6
ByLayer
370
18
48
1
60
1
100
AcDbLine
10
83
20
-43.576498
30
0
11
79.500002
21
-44.037282
31
0
39
0
210
0
220
0
230
1
0
LINE
5
1E0
100
AcDbEntity
8
1
62
256
6
ByLayer
370
18
48
1
60
1
100
AcDbLine
10
79.500002
20
-44.037282
30
0
11
79.499998
21
-43.115715
31
0
39
0
210
0
220
0
230
1
0
LINE
5
1E1
100
AcDbEntity
8
1
62
256
6
ByLayer
370
18
48
1
60
1
100
AcDbLine
10
79.499998
20
-43.115715
30
0
11
83
21
-43.576498
31
0
39
0
210
0
220
0
230
1
0
MTEXT
5
1CE
100
AcDbEntity
8
SK2
62
256
6
ByLayer
370
18
48
1
60
0
100
AcDbMText
10
13.248886
20
12.158438
30
0
210
0
220
0
230
1
1
%%c
40
3
41
0
44
1.084337
50
90
71
7
72
5
7
iso_b_vert
0
MTEXT
5
1D1
100
AcDbEntity
8
SK2
62
256
6
ByLayer
370
18
48
1
60
0
100
AcDbMText
10
13.248886
20
18.135
30
0
210
0
220
0
230
1
1
\W0.5742;9
40
3
41
0
44
1.084337
50
90
71
7
72
5
7
iso_b_vert
0
MTEXT
5
1DA
100
AcDbEntity
8
2
62
256
6
ByLayer
370
18
48
1
60
0
100
AcDbMText
10
25.996143
20
-42.691384
30
0
210
0
220
0
230
1
1
\W0.5296;110
40
3
41
0
44
1.084337
50
0
71
7
72
5
7
iso_b_vert
0
MTEXT
5
1E3
100
AcDbEntity
8
SK6
62
256
6
ByLayer
370
18
48
1
60
0
100
AcDbMText
10
11.433554
20
-82.114886
30
0
210
0
220
0
230
1
1
\W0.7132;T300-MM101DA-M12    B110
40
3
41
0
44
1.084337
50
0
71
7
72
5
7
iso_b_vert
0
HATCH
5
1D5
100
AcDbEntity
8
SK2
62
256
6
ByLayer
370
13
48
1
60
0
100
AcDbHatch
10
0
20
0
30
0
210
0
220
0
230
1
2
ANSI31
70
0
71
0
91
1
92
5
93
3
72
1
10
14.59
20
4.50000000000006
11
15.0507837415528
21
1.00000169255324
72
1
10
15.0507837415528
20
1.00000169255324
11
14.1292162584473
21
0.999998307446873
72
1
10
14.1292162584473
20
0.999998307446873
11
14.59
21
4.50000000000006
97
0
75
0
76
1
52
0
41
0.0062
77
0
78
1
53
45
43
0
44
0
45
-0.0139193969876572
46
0.0139193969876572
79
0
47
0
98
1
10
0
20
0
0
HATCH
5
1D9
100
AcDbEntity
8
SK2
62
256
6
ByLayer
370
13
48
1
60
0
100
AcDbHatch
10
0
20
0
30
0
210
0
220
0
230
1
2
ANSI31
70
0
71
0
91
1
92
5
93
3
72
1
10
14.59
20
-4.49999999999997
11
14.1292162584473
21
-1.00000169255315
72
1
10
14.1292162584473
20
-1.00000169255315
11
15.0507837415528
21
-0.999998307446788
72
1
10
15.0507837415528
20
-0.999998307446788
11
14.59
21
-4.49999999999997
97
0
75
0
76
1
52
0
41
0.0062
77
0
78
1
53
45
43
0
44
0
45
-0.0139193969876572
46
0.0139193969876572
79
0
47
0
98
1
10
0
20
0
0
HATCH
5
1DE
100
AcDbEntity
8
2
62
256
6
ByLayer
370
13
48
1
60
0
100
AcDbHatch
10
0
20
0
30
0
210
0
220
0
230
1
2
ANSI31
70
0
71
0
91
1
92
5
93
3
72
1
10
-27
20
-43.5764982892659
11
-23.5000016925532
21
-43.1157145477132
72
1
10
-23.5000016925532
20
-43.1157145477132
11
-23.4999983074468
21
-44.0372820308187
72
1
10
-23.4999983074468
20
-44.0372820308187
11
-27
21
-43.5764982892659
97
0
75
0
76
1
52
0
41
0.0062
77
0
78
1
53
45
43
0
44
0
45
-0.0139193969876572
46
0.0139193969876572
79
0
47
0
98
1
10
0
20
0
0
HATCH
5
1E2
100
AcDbEntity
8
2
62
256
6
ByLayer
370
13
48
1
60
0
100
AcDbHatch
10
0
20
0
30
0
210
0
220
0
230
1
2
ANSI31
70
0
71
0
91
1
92
5
93
3
72
1
10
83.0000000000001
20
-43.5764982892659
11
79.5000016925533
21
-44.0372820308187
72
1
10
79.5000016925533
20
-44.0372820308187
11
79.4999983074468
21
-43.1157145477132
72
1
10
79.4999983074468
20
-43.1157145477132
11
83.0000000000001
21
-43.5764982892659
97
0
75
0
76
1
52
0
41
0.0062
77
0
78
1
53
45
43
0
44
0
45
-0.0139193969876572
46
0.0139193969876572
79
0
47
0
98
1
10
0
20
0
0
DIMENSION
5
1E6
100
AcDbEntity
8
2
62
256
6
ByLayer
370
18
48
1
60
0
100
AcDbDimension
2
_U0
10
102.5
20
-6.076498
30
0
11
102.5
21
24.790784
31
0
70
32
71
1
72
1
41
1
210
0
220
0
230
1
3
Standard
100
AcDbAlignedDimension
13
83
23
6.076498
33
0
14
83
24
-6.076498
34
0
50
90
100
AcDbRotatedDimension
1001
ACAD
1000
DSTYLE
1002
{
1070
   371
1070
    13
1070
   372
1070
    13
1070
     3
1000

1070
   170
1070
     0
1070
   144
1040
1.0
1070
   277
1070
     2
1070
   284
1070
     8
1070
   278
1070
    46
1070
   146
1040
1.166667
1070
   345
1005
16
1070
   347
1005
16
1070
   346
1005
16
1070
   344
1005
0
1070
   343
1005
0
1070
   172
1070
     1
1070
    76
1070
     0
1070
    75
1070
     0
1070
   282
1070
     0
1070
   281
1070
     0
1070
    71
1070
     0
1070
    74
1070
     0
1070
   279
1070
     0
1070
   173
1070
     1
1070
   340
1005
1CF
1070
   271
1070
     3
1070
   272
1070
     3
1070
    77
1070
     1
1070
    73
1070
     0
1070
   171
1070
     3
1070
   274
1070
     4
1070
   177
1070
     2
1070
   176
1070
     2
1070
   178
1070
     2
1070
    78
1070
     8
1070
    48
1040
-0.1
1070
    41
1040
3.5
1070
   147
1040
1.5
1070
    42
1040
1.5875
1070
    44
1040
2.0
1070
   140
1040
3.0
1002
}
1001
ACAD_DSTYLE_DIM_LINETYPE
1070
   380
1005
16
1001
ACAD_DSTYLE_DIM_EXT1_LINETYPE
1070
   381
1005
16
1001
ACAD_DSTYLE_DIM_EXT2_LINETYPE
1070
   382
1005
16
0
DIMENSION
5
201
100
AcDbEntity
8
SK2
62
256
6
ByLayer
370
18
48
1
60
0
100
AcDbDimension
2
_U1
10
-31.8
20
3.5
30
0
11
-31.8
21
16
31
0
70
32
71
1
72
1
41
1
210
0
220
0
230
1
3
Standard
100
AcDbAlignedDimension
13
-25.6
23
-3.5
33
0
14
-25.6
24
3.5
34
0
50
90
100
AcDbRotatedDimension
1001
ACAD
1000
DSTYLE
1002
{
1070
   371
1070
    13
1070
   372
1070
    13
1070
     3
1000

1070
   170
1070
     0
1070
   144
1040
1.0
1070
   277
1070
     2
1070
   284
1070
     8
1070
   278
1070
    46
1070
   146
1040
1.166667
1070
   345
1005
16
1070
   347
1005
16
1070
   346
1005
16
1070
   344
1005
0
1070
   343
1005
0
1070
   172
1070
     1
1070
    76
1070
     0
1070
    75
1070
     0
1070
   282
1070
     0
1070
   281
1070
     0
1070
    71
1070
     0
1070
    74
1070
     0
1070
   279
1070
     0
1070
   173
1070
     1
1070
   340
1005
1CF
1070
   271
1070
     3
1070
   272
1070
     3
1070
    77
1070
     1
1070
    73
1070
     0
1070
   171
1070
     3
1070
   274
1070
     4
1070
   177
1070
     2
1070
   176
1070
     2
1070
   178
1070
     2
1070
    78
1070
     8
1070
    48
1040
-0.1
1070
    41
1040
3.5
1070
   147
1040
1.5
1070
    42
1040
1.5875
1070
    44
1040
2.0
1070
   140
1040
3.0
1002
}
1001
ACAD_DSTYLE_DIM_LINETYPE
1070
   380
1005
16
1001
ACAD_DSTYLE_DIM_EXT1_LINETYPE
1070
   381
1005
16
1001
ACAD_DSTYLE_DIM_EXT2_LINETYPE
1070
   382
1005
16
0
DIMENSION
5
21B
100
AcDbEntity
8
SK2
62
256
6
ByLayer
370
18
48
1
60
0
100
AcDbDimension
2
_U2
10
79.06
20
15.141935
30
0
11
81.03
21
15.141935
31
0
70
32
71
1
72
1
41
1
210
0
220
0
230
1
3
Standard
100
AcDbAlignedDimension
13
83
23
6.076498
33
0
14
79.06
24
0
34
0
50
0
100
AcDbRotatedDimension
1001
ACAD
1000
DSTYLE
1002
{
1070
   371
1070
    13
1070
   372
1070
    13
1070
   170
1070
     0
1070
   144
1040
1.0
1070
   277
1070
     2
1070
   284
1070
     8
1070
   278
1070
    46
1070
   146
1040
1.166667
1070
   345
1005
16
1070
   347
1005
16
1070
   346
1005
16
1070
   344
1005
0
1070
   343
1005
0
1070
   172
1070
     1
1070
    76
1070
     0
1070
    75
1070
     0
1070
   282
1070
     0
1070
   281
1070
     0
1070
    71
1070
     0
1070
    74
1070
     0
1070
   279
1070
     0
1070
   173
1070
     1
1070
   340
1005
1CF
1070
   271
1070
     3
1070
   272
1070
     3
1070
    77
1070
     1
1070
    73
1070
     1
1070
   171
1070
     3
1070
   274
1070
     4
1070
   177
1070
     2
1070
   176
1070
     2
1070
   178
1070
     2
1070
    78
1070
     8
1070
    48
1040
-0.1
1070
    41
1040
3.5
1070
   147
1040
1.5
1070
    42
1040
1.5875
1070
    44
1040
2.0
1070
   140
1040
3.0
1002
}
1001
ACAD_DSTYLE_DIM_LINETYPE
1070
   380
1005
16
1001
ACAD_DSTYLE_DIM_EXT1_LINETYPE
1070
   381
1005
16
1001
ACAD_DSTYLE_DIM_EXT2_LINETYPE
1070
   382
1005
16
0
DIMENSION
5
235
100
AcDbEntity
8
SK2
62
256
6
ByLayer
370
18
48
1
60
0
100
AcDbDimension
2
_U3
10
67
20
-13.076498
30
0
11
75.380952
21
-13.076498
31
0
70
32
71
1
72
1
41
1
210
0
220
0
230
1
3
Standard
100
AcDbAlignedDimension
13
83
23
-6.076498
33
0
14
67
24
-6.076498
34
0
50
0
100
AcDbRotatedDimension
1001
ACAD
1000
DSTYLE
1002
{
1070
   371
1070
    13
1070
   372
1070
    13
1070
   170
1070
     0
1070
   144
1040
1.0
1070
   277
1070
     2
1070
   284
1070
     8
1070
   278
1070
    46
1070
   146
1040
1.166667
1070
   345
1005
16
1070
   347
1005
16
1070
   346
1005
16
1070
   344
1005
0
1070
   343
1005
0
1070
   172
1070
     1
1070
    76
1070
     0
1070
    75
1070
     0
1070
   282
1070
     0
1070
   281
1070
     0
1070
    71
1070
     0
1070
    74
1070
     0
1070
   279
1070
     0
1070
   173
1070
     1
1070
   340
1005
1CF
1070
   271
1070
     1
1070
   272
1070
     3
1070
    77
1070
     1
1070
    73
1070
     1
1070
   171
1070
     3
1070
   274
1070
     4
1070
   177
1070
     2
1070
   176
1070
     2
1070
   178
1070
     2
1070
    78
1070
     8
1070
    48
1040
-0.1
1070
    41
1040
3.5
1070
   147
1040
1.5
1070
    42
1040
1.5875
1070
    44
1040
2.0
1070
   140
1040
3.0
1002
}
1001
ACAD_DSTYLE_DIM_LINETYPE
1070
   380
1005
16
1001
ACAD_DSTYLE_DIM_EXT1_LINETYPE
1070
   381
1005
16
1001
ACAD_DSTYLE_DIM_EXT2_LINETYPE
1070
   382
1005
16
0
DIMENSION
5
24D
100
AcDbEntity
8
SK2
62
256
6
ByLayer
370
18
48
1
60
0
100
AcDbDimension
2
_U4
10
28
20
-35.576498
30
0
11
55.5
21
-35.576498
31
0
70
32
71
1
72
1
41
1
210
0
220
0
230
1
3
Standard
100
AcDbAlignedDimension
13
83
23
-6.076498
33
0
14
28
24
-4.35
34
0
50
0
100
AcDbRotatedDimension
1001
ACAD
1000
DSTYLE
1002
{
1070
   371
1070
    13
1070
   372
1070
    13
1070
   170
1070
     0
1070
   144
1040
1.0
1070
   277
1070
     2
1070
   284
1070
     8
1070
   278
1070
    46
1070
   146
1040
1.166667
1070
   345
1005
16
1070
   347
1005
16
1070
   346
1005
16
1070
   344
1005
0
1070
   343
1005
0
1070
   172
1070
     1
1070
    76
1070
     0
1070
    75
1070
     0
1070
   282
1070
     0
1070
   281
1070
     0
1070
    71
1070
     0
1070
    74
1070
     0
1070
   279
1070
     0
1070
   173
1070
     1
1070
   340
1005
1CF
1070
   271
1070
     1
1070
   272
1070
     3
1070
    77
1070
     1
1070
    73
1070
     1
1070
   171
1070
     3
1070
   274
1070
     4
1070
   177
1070
     2
1070
   176
1070
     2
1070
   178
1070
     2
1070
    78
1070
     8
1070
    48
1040
-0.1
1070
    41
1040
3.5
1070
   147
1040
1.5
1070
    42
1040
1.5875
1070
    44
1040
2.0
1070
   140
1040
3.0
1002
}
1001
ACAD_DSTYLE_DIM_LINETYPE
1070
   380
1005
16
1001
ACAD_DSTYLE_DIM_EXT1_LINETYPE
1070
   381
1005
16
1001
ACAD_DSTYLE_DIM_EXT2_LINETYPE
1070
   382
1005
16
0
DIMENSION
5
265
100
AcDbEntity
8
2
62
256
6
ByLayer
370
18
48
1
60
0
100
AcDbDimension
2
_U5
10
36.25
20
-24.576498
30
0
11
59.625
21
-24.576498
31
0
70
32
71
1
72
1
41
1
210
0
220
0
230
1
3
Standard
100
AcDbAlignedDimension
13
83
23
-6.076498
33
0
14
36.25
24
0
34
0
50
0
100
AcDbRotatedDimension
1001
ACAD
1000
DSTYLE
1002
{
1070
   371
1070
    13
1070
   372
1070
    13
1070
   170
1070
     0
1070
   144
1040
1.0
1070
   277
1070
     2
1070
   284
1070
     8
1070
   278
1070
    46
1070
   146
1040
1.166667
1070
   345
1005
16
1070
   347
1005
16
1070
   346
1005
16
1070
   344
1005
0
1070
   343
1005
0
1070
   172
1070
     1
1070
    76
1070
     0
1070
    75
1070
     0
1070
   282
1070
     0
1070
   281
1070
     0
1070
    71
1070
     0
1070
    74
1070
     0
1070
   279
1070
     0
1070
   173
1070
     1
1070
   340
1005
1CF
1070
   271
1070
     1
1070
   272
1070
     3
1070
    77
1070
     1
1070
    73
1070
     1
1070
   171
1070
     3
1070
   274
1070
     4
1070
   177
1070
     2
1070
   176
1070
     2
1070
   178
1070
     2
1070
    78
1070
     8
1070
    48
1040
-0.1
1070
    41
1040
3.5
1070
   147
1040
1.5
1070
    42
1040
1.5875
1070
    44
1040
2.0
1070
   140
1040
3.0
1002
}
1001
ACAD_DSTYLE_DIM_LINETYPE
1070
   380
1005
16
1001
ACAD_DSTYLE_DIM_EXT1_LINETYPE
1070
   381
1005
16
1001
ACAD_DSTYLE_DIM_EXT2_LINETYPE
1070
   382
1005
16
0
ENDSEC
0
SECTION
2
OBJECTS
0
DICTIONARY
5
2ed
330
0
100
AcDbDictionary
280
0
281
1
3
ACAD_GROUP
350
2ee
3
ACAD_MLINESTYLE
350
2ef
0
DICTIONARY
5
2ee
330
0
100
AcDbDictionary
280
0
281
1
0
DICTIONARY
5
2ef
330
0
100
AcDbDictionary
280
0
281
1
3
Standard
350
18
0
MLINESTYLE
5
18
330
2ef
100
AcDbMlineStyle
2
Standard
70
0
3

62
256
51
90
52
90
71
2
49
-0.5
62
256
6
ByLayer
49
0.5
62
256
6
ByLayer
0
RASTERVARIABLES
5
2db
330

100
AcDbRasterVariables
90
0
70
1
71
1
72
1
0
ENDSEC
0
EOF
