  0
SECTION
  2
HEADER
  9
$ACADVER
  1
AC1015
  9
$ACADMAINTVER
 70
     6
  9
$DWGCODEPAGE
  3
ANSI_1252
  9
$INSBASE
 10
0.0
 20
0.0
 30
0.0
  9
$EXTMIN
 10
1.000000000000000E+20
 20
1.000000000000000E+20
 30
1.000000000000000E+20
  9
$EXTMAX
 10
-1.000000000000000E+20
 20
-1.000000000000000E+20
 30
-1.000000000000000E+20
  9
$LIMMIN
 10
-170.0
 20
-170.0
  9
$LIMMAX
 10
519.0
 20
260.0
  9
$ORTHOMODE
 70
     0
  9
$REGENMODE
 70
     1
  9
$FILLMODE
 70
     1
  9
$QTEXTMODE
 70
     0
  9
$MIRRTEXT
 70
     0
  9
$LTSCALE
 40
1.0
  9
$ATTMODE
 70
     1
  9
$TEXTSIZE
 40
3.5
  9
$TRACEWID
 40
1.0
  9
$TEXTSTYLE
  7
SIMPLEX
  9
$CLAYER
  8
1
  9
$CELTYPE
  6
BYLAYER
  9
$CECOLOR
 62
   256
  9
$CELTSCALE
 40
1.0
  9
$DISPSILH
 70
     0
  9
$DIMSCALE
 40
1.0
  9
$DIMASZ
 40
2.5
  9
$DIMEXO
 40
0.0
  9
$DIMDLI
 40
3.75
  9
$DIMRND
 40
0.0
  9
$DIMDLE
 40
0.0
  9
$DIMEXE
 40
1.25
  9
$DIMTP
 40
0.0
  9
$DIMTM
 40
0.0
  9
$DIMTXT
 40
3.5
  9
$DIMCEN
 40
0.0
  9
$DIMTSZ
 40
0.0
  9
$DIMTOL
 70
     0
  9
$DIMLIM
 70
     0
  9
$DIMTIH
 70
     0
  9
$DIMTOH
 70
     0
  9
$DIMSE1
 70
     0
  9
$DIMSE2
 70
     0
  9
$DIMTAD
 70
     1
  9
$DIMZIN
 70
     8
  9
$DIMBLK
  1

  9
$DIMASO
 70
     1
  9
$DIMSHO
 70
     1
  9
$DIMPOST
  1

  9
$DIMAPOST
  1

  9
$DIMALT
 70
     0
  9
$DIMALTD
 70
     3
  9
$DIMALTF
 40
0.039370078
  9
$DIMLFAC
 40
1.0
  9
$DIMTOFL
 70
     0
  9
$DIMTVP
 40
0.0
  9
$DIMTIX
 70
     0
  9
$DIMSOXD
 70
     0
  9
$DIMSAH
 70
     0
  9
$DIMBLK1
  1

  9
$DIMBLK2
  1

  9
$DIMSTYLE
  2
STANDARD
  9
$DIMCLRD
 70
     0
  9
$DIMCLRE
 70
     0
  9
$DIMCLRT
 70
     0
  9
$DIMTFAC
 40
1.0
  9
$DIMGAP
 40
0.625
  9
$DIMJUST
 70
     0
  9
$DIMSD1
 70
     0
  9
$DIMSD2
 70
     0
  9
$DIMTOLJ
 70
     0
  9
$DIMTZIN
 70
     8
  9
$DIMALTZ
 70
     0
  9
$DIMALTTZ
 70
     0
  9
$DIMUPT
 70
     0
  9
$DIMDEC
 70
     2
  9
$DIMTDEC
 70
     2
  9
$DIMALTU
 70
     2
  9
$DIMALTTD
 70
     3
  9
$DIMTXSTY
  7
SIMPLEX
  9
$DIMAUNIT
 70
     0
  9
$DIMADEC
 70
     2
  9
$DIMALTRND
 40
0.0
  9
$DIMAZIN
 70
     2
  9
$DIMDSEP
 70
    46
  9
$DIMATFIT
 70
     3
  9
$DIMFRAC
 70
     0
  9
$DIMLDRBLK
  1

  9
$DIMLUNIT
 70
     2
  9
$DIMLWD
 70
    -2
  9
$DIMLWE
 70
    -2
  9
$DIMTMOVE
 70
     0
  9
$LUNITS
 70
     2
  9
$LUPREC
 70
     4
  9
$SKETCHINC
 40
1.0
  9
$FILLETRAD
 40
0.0
  9
$AUNITS
 70
     0
  9
$AUPREC
 70
     0
  9
$MENU
  1
c:\tdm21\cad\caduti13\tdm13
  9
$ELEVATION
 40
0.0
  9
$PELEVATION
 40
0.0
  9
$THICKNESS
 40
0.0
  9
$LIMCHECK
 70
     0
  9
$CHAMFERA
 40
0.0
  9
$CHAMFERB
 40
0.0
  9
$CHAMFERC
 40
0.0
  9
$CHAMFERD
 40
0.0
  9
$SKPOLY
 70
     0
  9
$TDCREATE
 40
2454957.593642639
  9
$TDUCREATE
 40
2454957.510309306
  9
$TDUPDATE
 40
2456860.758616007
  9
$TDUUPDATE
 40
2456860.675282673
  9
$TDINDWG
 40
0.0009643519
  9
$TDUSRTIMER
 40
0.0009475231
  9
$USRTIMER
 70
     1
  9
$ANGBASE
 50
0.0
  9
$ANGDIR
 70
     0
  9
$PDMODE
 70
     1
  9
$PDSIZE
 40
0.0
  9
$PLINEWID
 40
0.0
  9
$SPLFRAME
 70
     0
  9
$SPLINETYPE
 70
     6
  9
$SPLINESEGS
 70
     8
  9
$HANDSEED
  5
6F6
  9
$SURFTAB1
 70
     6
  9
$SURFTAB2
 70
     6
  9
$SURFTYPE
 70
     6
  9
$SURFU
 70
     6
  9
$SURFV
 70
     6
  9
$UCSBASE
  2

  9
$UCSNAME
  2

  9
$UCSORG
 10
0.0
 20
0.0
 30
0.0
  9
$UCSXDIR
 10
1.0
 20
0.0
 30
0.0
  9
$UCSYDIR
 10
0.0
 20
1.0
 30
0.0
  9
$UCSORTHOREF
  2

  9
$UCSORTHOVIEW
 70
     0
  9
$UCSORGTOP
 10
0.0
 20
0.0
 30
0.0
  9
$UCSORGBOTTOM
 10
0.0
 20
0.0
 30
0.0
  9
$UCSORGLEFT
 10
0.0
 20
0.0
 30
0.0
  9
$UCSORGRIGHT
 10
0.0
 20
0.0
 30
0.0
  9
$UCSORGFRONT
 10
0.0
 20
0.0
 30
0.0
  9
$UCSORGBACK
 10
0.0
 20
0.0
 30
0.0
  9
$PUCSBASE
  2

  9
$PUCSNAME
  2

  9
$PUCSORG
 10
0.0
 20
0.0
 30
0.0
  9
$PUCSXDIR
 10
1.0
 20
0.0
 30
0.0
  9
$PUCSYDIR
 10
0.0
 20
1.0
 30
0.0
  9
$PUCSORTHOREF
  2

  9
$PUCSORTHOVIEW
 70
     0
  9
$PUCSORGTOP
 10
0.0
 20
0.0
 30
0.0
  9
$PUCSORGBOTTOM
 10
0.0
 20
0.0
 30
0.0
  9
$PUCSORGLEFT
 10
0.0
 20
0.0
 30
0.0
  9
$PUCSORGRIGHT
 10
0.0
 20
0.0
 30
0.0
  9
$PUCSORGFRONT
 10
0.0
 20
0.0
 30
0.0
  9
$PUCSORGBACK
 10
0.0
 20
0.0
 30
0.0
  9
$USERI1
 70
     0
  9
$USERI2
 70
     0
  9
$USERI3
 70
     0
  9
$USERI4
 70
     0
  9
$USERI5
 70
     0
  9
$USERR1
 40
0.0
  9
$USERR2
 40
0.0
  9
$USERR3
 40
0.0
  9
$USERR4
 40
0.0
  9
$USERR5
 40
0.0
  9
$WORLDVIEW
 70
     1
  9
$SHADEDGE
 70
     3
  9
$SHADEDIF
 70
    70
  9
$TILEMODE
 70
     1
  9
$MAXACTVP
 70
    64
  9
$PINSBASE
 10
0.0
 20
0.0
 30
0.0
  9
$PLIMCHECK
 70
     0
  9
$PEXTMIN
 10
0.0
 20
0.0
 30
0.0
  9
$PEXTMAX
 10
0.0
 20
0.0
 30
0.0
  9
$PLIMMIN
 10
0.0
 20
0.0
  9
$PLIMMAX
 10
12.0
 20
9.0
  9
$UNITMODE
 70
     0
  9
$VISRETAIN
 70
     0
  9
$PLINEGEN
 70
     0
  9
$PSLTSCALE
 70
     1
  9
$TREEDEPTH
 70
  3020
  9
$CMLSTYLE
  2
STANDARD
  9
$CMLJUST
 70
     0
  9
$CMLSCALE
 40
20.0
  9
$PROXYGRAPHICS
 70
     1
  9
$MEASUREMENT
 70
     1
  9
$CELWEIGHT
370
    -1
  9
$ENDCAPS
280
     0
  9
$JOINSTYLE
280
     0
  9
$LWDISPLAY
290
     0
  9
$INSUNITS
 70
     4
  9
$HYPERLINKBASE
  1

  9
$STYLESHEET
  1
MONOCHROME.CTB
  9
$XEDIT
290
     1
  9
$CEPSNTYPE
380
     0
  9
$PSTYLEMODE
290
     1
  9
$FINGERPRINTGUID
  2
{46B44192-1510-48B1-B61B-CBE2ADA013A7}
  9
$VERSIONGUID
  2
{6160D478-9A74-4C97-9D8A-D4A65CE74B12}
  9
$EXTNAMES
290
     1
  9
$PSVPSCALE
 40
0.0
  9
$OLESTARTUP
290
     0
  0
ENDSEC
  0
SECTION
  2
CLASSES
  0
CLASS
  1
ACDBDICTIONARYWDFLT
  2
AcDbDictionaryWithDefault
  3
ObjectDBX Classes
 90
        0
280
     0
281
     0
  0
CLASS
  1
ACDBPLACEHOLDER
  2
AcDbPlaceHolder
  3
ObjectDBX Classes
 90
        0
280
     0
281
     0
  0
CLASS
  1
LAYOUT
  2
AcDbLayout
  3
ObjectDBX Classes
 90
        0
280
     0
281
     0
  0
CLASS
  1
DICTIONARYVAR
  2
AcDbDictionaryVar
  3
ObjectDBX Classes
 90
        0
280
     0
281
     0
  0
CLASS
  1
TABLESTYLE
  2
AcDbTableStyle
  3
ObjectDBX Classes
 90
     4095
280
     0
281
     0
  0
CLASS
  1
SCALE
  2
AcDbScale
  3
ObjectDBX Classes
 90
     1153
280
     0
281
     0
  0
CLASS
  1
MATERIAL
  2
AcDbMaterial
  3
ObjectDBX Classes
 90
     1153
280
     0
281
     0
  0
CLASS
  1
VISUALSTYLE
  2
AcDbVisualStyle
  3
ObjectDBX Classes
 90
     4095
280
     0
281
     0
  0
ENDSEC
  0
SECTION
  2
TABLES
  0
TABLE
  2
VPORT
  5
8
330
0
100
AcDbSymbolTable
 70
     1
  0
VPORT
  5
39A
330
8
100
AcDbSymbolTableRecord
100
AcDbViewportTableRecord
  2
*Active
 70
     0
 10
0.0
 20
0.0
 11
1.0
 21
1.0
 12
218.9201881351169
 22
109.7549380673833
 13
0.0
 23
0.0
 14
5.0
 24
5.0
 15
5.0
 25
5.0
 16
0.0
 26
0.0
 36
1.0
 17
0.0
 27
0.0
 37
0.0
 40
564.6711112651689
 41
1.066073697585768
 42
50.0
 43
0.0
 44
0.0
 50
0.0
 51
0.0
 71
     0
 72
  2000
 73
     1
 74
     1
 75
     0
 76
     0
 77
     0
 78
     0
281
     0
 65
     1
110
0.0
120
0.0
130
0.0
111
1.0
121
0.0
131
0.0
112
0.0
122
1.0
132
0.0
 79
     0
146
0.0
  0
ENDTAB
  0
TABLE
  2
LTYPE
  5
5
330
0
100
AcDbSymbolTable
 70
     3
  0
LTYPE
  5
12
330
5
100
AcDbSymbolTableRecord
100
AcDbLinetypeTableRecord
  2
BYBLOCK
 70
     0
  3

 72
    65
 73
     0
 40
0.0
  0
LTYPE
  5
13
330
5
100
AcDbSymbolTableRecord
100
AcDbLinetypeTableRecord
  2
BYLAYER
 70
     0
  3

 72
    65
 73
     0
 40
0.0
  0
LTYPE
  5
14
330
5
100
AcDbSymbolTableRecord
100
AcDbLinetypeTableRecord
  2
CONTINUOUS
 70
     0
  3
Solid line
 72
    65
 73
     0
 40
0.0
  0
LTYPE
  5
20
330
5
100
AcDbSymbolTableRecord
100
AcDbLinetypeTableRecord
  2
HIDDEN
 70
     0
  3
Hidden __ __ __ __ __ __ __ __ __ __ __ __ __ _
 72
    65
 73
     2
 40
9.524999999999997
 49
6.349999999999998
 74
     0
 49
-3.174999999999998
 74
     0
  0
LTYPE
  5
351
330
5
100
AcDbSymbolTableRecord
100
AcDbLinetypeTableRecord
  2
CENTER
 70
     0
  3
Dash dot __ . __ . __ . __ . __ . __ . __ . __
 72
    65
 73
     4
 40
25.4
 49
12.7
 74
     0
 49
-6.349999999999998
 74
     0
 49
0.0
 74
     0
 49
-6.349999999999998
 74
     0
  0
ENDTAB
  0
TABLE
  2
LAYER
  5
2
330
0
100
AcDbSymbolTable
 70
    16
  0
LAYER
  5
F
330
2
100
AcDbSymbolTableRecord
100
AcDbLayerTableRecord
  2
0
 70
     0
 62
     7
  6
CONTINUOUS
370
    -3
390
300
  0
LAYER
  5
23
330
2
100
AcDbSymbolTableRecord
100
AcDbLayerTableRecord
  2
1
 70
     0
 62
     4
  6
CONTINUOUS
370
    -3
390
300
  0
LAYER
  5
24
330
2
100
AcDbSymbolTableRecord
100
AcDbLayerTableRecord
  2
SK1
 70
     0
 62
     4
  6
CONTINUOUS
370
    -3
390
300
  0
LAYER
  5
25
330
2
100
AcDbSymbolTableRecord
100
AcDbLayerTableRecord
  2
2
 70
     0
 62
     7
  6
CONTINUOUS
370
    -3
390
300
  0
LAYER
  5
26
330
2
100
AcDbSymbolTableRecord
100
AcDbLayerTableRecord
  2
2L
 70
     0
 62
     7
  6
CONTINUOUS
370
    -3
390
300
  0
LAYER
  5
27
330
2
100
AcDbSymbolTableRecord
100
AcDbLayerTableRecord
  2
SK2
 70
     0
 62
     7
  6
CONTINUOUS
370
    -3
390
300
  0
LAYER
  5
28
330
2
100
AcDbSymbolTableRecord
100
AcDbLayerTableRecord
  2
3
 70
     0
 62
     1
  6
HIDDEN
370
    -3
390
300
  0
LAYER
  5
29
330
2
100
AcDbSymbolTableRecord
100
AcDbLayerTableRecord
  2
SK3
 70
     0
 62
     1
  6
HIDDEN
370
    -3
390
300
  0
LAYER
  5
2A
330
2
100
AcDbSymbolTableRecord
100
AcDbLayerTableRecord
  2
4
 70
     0
 62
     2
  6
CENTER
370
    -3
390
300
  0
LAYER
  5
2B
330
2
100
AcDbSymbolTableRecord
100
AcDbLayerTableRecord
  2
SK4
 70
     0
 62
     2
  6
CENTER
370
    -3
390
300
  0
LAYER
  5
2C
330
2
100
AcDbSymbolTableRecord
100
AcDbLayerTableRecord
  2
5
 70
     0
 62
    -7
  6
CONTINUOUS
370
    -3
390
300
  0
LAYER
  5
2D
330
2
100
AcDbSymbolTableRecord
100
AcDbLayerTableRecord
  2
6
 70
     0
 62
     5
  6
CONTINUOUS
370
    -3
390
300
  0
LAYER
  5
2E
330
2
100
AcDbSymbolTableRecord
100
AcDbLayerTableRecord
  2
SK6
 70
     0
 62
     5
  6
CONTINUOUS
370
    -3
390
300
  0
LAYER
  5
2F
330
2
100
AcDbSymbolTableRecord
100
AcDbLayerTableRecord
  2
DEFPOINTS
 70
     0
 62
     7
  6
CONTINUOUS
290
     0
370
    -3
390
300
  0
LAYER
  5
375
330
2
100
AcDbSymbolTableRecord
100
AcDbLayerTableRecord
  2
CUT
 70
     0
 62
     1
  6
CONTINUOUS
370
    -3
390
300
  0
LAYER
  5
376
330
2
100
AcDbSymbolTableRecord
100
AcDbLayerTableRecord
  2
NOCUT
 70
     0
 62
     7
  6
CONTINUOUS
370
    -3
390
300
  0
ENDTAB
  0
TABLE
  2
STYLE
  5
3
330
0
100
AcDbSymbolTable
 70
     4
  0
STYLE
  5
10
330
3
100
AcDbSymbolTableRecord
100
AcDbTextStyleTableRecord
  2
STANDARD
 70
     0
 40
0.0
 41
1.0
 50
0.0
 71
     0
 42
5.0
  3
txt
  4

  0
STYLE
  5
1D
330
3
100
AcDbSymbolTableRecord
100
AcDbTextStyleTableRecord
  2
TXT
 70
     0
 40
8.0
 41
1.0
 50
0.0
 71
     0
 42
8.0
  3
txt
  4

  0
STYLE
  5
1E
330
3
100
AcDbSymbolTableRecord
100
AcDbTextStyleTableRecord
  2
SIMPLEX
 70
     0
 40
0.0
 41
1.0
 50
0.0
 71
     0
 42
3.5
  3
simplex
  4

  0
STYLE
  5
34C
330
3
100
AcDbSymbolTableRecord
100
AcDbTextStyleTableRecord
  2

 70
     1
 40
0.0
 41
1.0
 50
0.0
 71
     0
 42
2.5
  3
ltypeshp.shx
  4

  0
ENDTAB
  0
TABLE
  2
VIEW
  5
6
330
0
100
AcDbSymbolTable
 70
     0
  0
ENDTAB
  0
TABLE
  2
UCS
  5
7
330
0
100
AcDbSymbolTable
 70
     0
  0
ENDTAB
  0
TABLE
  2
APPID
  5
9
330
0
100
AcDbSymbolTable
 70
     1
  0
APPID
  5
11
330
9
100
AcDbSymbolTableRecord
100
AcDbRegAppTableRecord
  2
ACAD
 70
     0
  0
ENDTAB
  0
TABLE
  2
DIMSTYLE
  5
A
330
0
100
AcDbSymbolTable
 70
     1
100
AcDbDimStyleTable
  0
DIMSTYLE
105
3F
102
{ACAD_REACTORS
330
687
330
695
330
6A2
330
6B0
330
6BE
102
}
330
A
100
AcDbSymbolTableRecord
100
AcDbDimStyleTableRecord
  2
STANDARD
 70
     0
 41
2.5
 42
0.0
 43
3.75
 44
1.25
 73
     0
 74
     0
 77
     1
 78
     8
 79
     2
140
3.5
141
0.0
143
0.039370078
147
0.625
171
     3
178
     0
179
     2
271
     2
272
     2
274
     3
283
     0
284
     8
340
1E
  0
ENDTAB
  0
TABLE
  2
BLOCK_RECORD
  5
1
330
0
100
AcDbSymbolTable
 70
     5
  0
BLOCK_RECORD
  5
18
330
1
100
AcDbSymbolTableRecord
100
AcDbBlockTableRecord
  2
*MODEL_SPACE
340
303
  0
BLOCK_RECORD
  5
338
330
1
100
AcDbSymbolTableRecord
100
AcDbBlockTableRecord
  2
*Paper_Space
340
33B
  0
BLOCK_RECORD
  5
688
330
1
100
AcDbSymbolTableRecord
100
AcDbBlockTableRecord
  2
*D0
340
0
  0
BLOCK_RECORD
  5
696
330
1
100
AcDbSymbolTableRecord
100
AcDbBlockTableRecord
  2
*D1
340
0
  0
BLOCK_RECORD
  5
6A3
330
1
100
AcDbSymbolTableRecord
100
AcDbBlockTableRecord
  2
*D2
340
0
  0
BLOCK_RECORD
  5
6B1
330
1
100
AcDbSymbolTableRecord
100
AcDbBlockTableRecord
  2
*D3
340
0
  0
BLOCK_RECORD
  5
6BF
330
1
100
AcDbSymbolTableRecord
100
AcDbBlockTableRecord
  2
*D4
340
0
  0
ENDTAB
  0
ENDSEC
  0
SECTION
  2
BLOCKS
  0
BLOCK
  5
32
330
18
100
AcDbEntity
  8
0
100
AcDbBlockBegin
  2
*MODEL_SPACE
 70
     0
 10
0.0
 20
0.0
 30
0.0
  3
*MODEL_SPACE
  1

  0
ENDBLK
  5
33
330
18
100
AcDbEntity
  8
0
100
AcDbBlockEnd
  0
BLOCK
  5
339
330
338
100
AcDbEntity
 67
     1
  8
0
100
AcDbBlockBegin
  2
*Paper_Space
 70
     0
 10
0.0
 20
0.0
 30
0.0
  3
*Paper_Space
  1

  0
ENDBLK
  5
33A
330
338
100
AcDbEntity
 67
     1
  8
0
100
AcDbBlockEnd
  0
BLOCK
  5
689
330
688
100
AcDbEntity
  8
0
100
AcDbBlockBegin
  2
*D0
 70
     1
 10
0.0
 20
0.0
 30
0.0
  3
*D0
  1

  0
LINE
  5
68B
330
688
100
AcDbEntity
  8
2
 62
     0
370
    -2
100
AcDbLine
 10
20.0
 20
0.8
 30
0.0
 11
36.25
 21
0.8000000000000568
 31
0.0
  0
LINE
  5
68C
330
688
100
AcDbEntity
  8
2
 62
     0
370
    -2
100
AcDbLine
 10
20.0
 20
-0.8
 30
0.0
 11
36.25000000000001
 21
-0.7999999999999433
 31
0.0
  0
LINE
  5
68D
330
688
100
AcDbEntity
  8
2
 62
     0
370
    -2
100
AcDbLine
 10
35.00000000000002
 20
-3.299999999999947
 30
0.0
 11
35.00000000000009
 21
-17.45549999999995
 31
0.0
  0
LINE
  5
68E
330
688
100
AcDbEntity
  8
2
 62
     0
370
    -2
100
AcDbLine
 10
34.99999999999999
 20
3.300000000000052
 30
0.0
 11
34.99999999999997
 21
5.800000000000052
 31
0.0
  0
SOLID
  5
68F
330
688
100
AcDbEntity
  8
2
 62
     0
100
AcDbTrace
 10
34.58333333333332
 20
3.30000000000005
 30
0.0
 11
35.41666666666665
 21
3.300000000000054
 31
0.0
 12
35.0
 22
0.8000000000000524
 32
0.0
 13
35.0
 23
0.8000000000000524
 33
0.0
  0
SOLID
  5
690
330
688
100
AcDbEntity
  8
2
 62
     0
100
AcDbTrace
 10
35.41666666666669
 20
-3.299999999999946
 30
0.0
 11
34.58333333333336
 21
-3.299999999999949
 31
0.0
 12
35.00000000000001
 22
-0.7999999999999476
 32
0.0
 13
35.00000000000001
 23
-0.7999999999999476
 33
0.0
  0
MTEXT
  5
691
330
688
100
AcDbEntity
  8
2
 62
     0
100
AcDbMText
 10
32.60225000000005
 20
-11.62774999999996
 30
0.0
 40
3.5
 41
0.0
 71
     5
 72
     1
  1
M1.6
  7
SIMPLEX
 11
-4.440892098500626E-15
 21
1.0
 31
0.0
 73
     1
 44
1.0
  0
POINT
  5
692
330
688
100
AcDbEntity
  8
DEFPOINTS
 62
     0
100
AcDbPoint
 10
20.0
 20
0.8
 30
0.0
  0
POINT
  5
693
330
688
100
AcDbEntity
  8
DEFPOINTS
 62
     0
100
AcDbPoint
 10
20.0
 20
-0.8
 30
0.0
  0
POINT
  5
694
330
688
100
AcDbEntity
  8
DEFPOINTS
 62
     0
100
AcDbPoint
 10
35.00000000000001
 20
-0.7999999999999476
 30
0.0
  0
ENDBLK
  5
68A
330
688
100
AcDbEntity
  8
0
100
AcDbBlockEnd
  0
BLOCK
  5
697
330
696
100
AcDbEntity
  8
0
100
AcDbBlockBegin
  2
*D1
 70
     1
 10
0.0
 20
0.0
 30
0.0
  3
*D1
  1

  0
LINE
  5
699
330
696
100
AcDbEntity
  8
2
 62
     0
370
    -2
100
AcDbLine
 10
0.0
 20
0.0
 30
0.0
 11
0.0
 21
76.25
 31
0.0
  0
LINE
  5
69A
330
696
100
AcDbEntity
  8
2
 62
     0
370
    -2
100
AcDbLine
 10
20.0
 20
0.0
 30
0.0
 11
20.0
 21
76.25
 31
0.0
  0
LINE
  5
69B
330
696
100
AcDbEntity
  8
2
 62
     0
370
    -2
100
AcDbLine
 10
2.5
 20
75.0
 30
0.0
 11
17.5
 21
75.0
 31
0.0
  0
SOLID
  5
69C
330
696
100
AcDbEntity
  8
2
 62
     0
100
AcDbTrace
 10
2.5
 20
75.41666666666667
 30
0.0
 11
2.5
 21
74.58333333333333
 31
0.0
 12
0.0
 22
75.0
 32
0.0
 13
0.0
 23
75.0
 33
0.0
  0
SOLID
  5
69D
330
696
100
AcDbEntity
  8
2
 62
     0
100
AcDbTrace
 10
17.5
 20
74.58333333333333
 30
0.0
 11
17.5
 21
75.41666666666667
 31
0.0
 12
20.0
 22
75.0
 32
0.0
 13
20.0
 23
75.0
 33
0.0
  0
MTEXT
  5
69E
330
696
100
AcDbEntity
  8
2
 62
     0
100
AcDbMText
 10
10.0
 20
77.39075
 30
0.0
 40
3.5
 41
0.0
 71
     5
 72
     1
  1
20
  7
SIMPLEX
 73
     1
 44
1.0
  0
POINT
  5
69F
330
696
100
AcDbEntity
  8
DEFPOINTS
 62
     0
100
AcDbPoint
 10
0.0
 20
0.0
 30
0.0
  0
POINT
  5
6A0
330
696
100
AcDbEntity
  8
DEFPOINTS
 62
     0
100
AcDbPoint
 10
20.0
 20
0.0
 30
0.0
  0
POINT
  5
6A1
330
696
100
AcDbEntity
  8
DEFPOINTS
 62
     0
100
AcDbPoint
 10
20.0
 20
75.0
 30
0.0
  0
ENDBLK
  5
698
330
696
100
AcDbEntity
  8
0
100
AcDbBlockEnd
  0
BLOCK
  5
6A4
330
6A3
100
AcDbEntity
  8
0
100
AcDbBlockBegin
  2
*D2
 70
     1
 10
0.0
 20
0.0
 30
0.0
  3
*D2
  1

  0
LINE
  5
6A6
330
6A3
100
AcDbEntity
  8
SK2
 62
     0
370
    -2
100
AcDbLine
 10
-15.62
 20
1.25
 30
0.0
 11
-36.87000000000638
 21
1.249999999891553
 31
0.0
  0
LINE
  5
6A7
330
6A3
100
AcDbEntity
  8
SK2
 62
     0
370
    -2
100
AcDbLine
 10
-15.62
 20
-1.25
 30
0.0
 11
-36.86999999999362
 21
-1.250000000108447
 31
0.0
  0
LINE
  5
6A8
330
6A3
100
AcDbEntity
  8
SK2
 62
     0
370
    -2
100
AcDbLine
 10
-35.61999999998086
 20
-3.750000000102068
 30
0.0
 11
-35.61999999990608
 21
-18.39900000010207
 31
0.0
  0
LINE
  5
6A9
330
6A3
100
AcDbEntity
  8
SK2
 62
     0
370
    -2
100
AcDbLine
 10
-35.62000000001914
 20
3.749999999897932
 30
0.0
 11
-35.6200000000319
 21
6.249999999897932
 31
0.0
  0
SOLID
  5
6AA
330
6A3
100
AcDbEntity
  8
SK2
 62
     0
100
AcDbTrace
 10
-36.0366666666858
 20
3.749999999895805
 30
0.0
 11
-35.20333333335248
 21
3.749999999900059
 31
0.0
 12
-35.62000000000638
 22
1.249999999897932
 32
0.0
 13
-35.62000000000638
 23
1.249999999897932
 33
0.0
  0
SOLID
  5
6AB
330
6A3
100
AcDbEntity
  8
SK2
 62
     0
100
AcDbTrace
 10
-35.20333333331419
 20
-3.750000000099941
 30
0.0
 11
-36.03666666664752
 21
-3.750000000104195
 31
0.0
 12
-35.61999999999362
 22
-1.250000000102068
 32
0.0
 13
-35.61999999999362
 23
-1.250000000102068
 33
0.0
  0
MTEXT
  5
6AC
330
6A3
100
AcDbEntity
  8
SK2
 62
     0
100
AcDbMText
 10
-38.01774999993709
 20
-12.32450000011431
 30
0.0
 40
3.5
 41
0.0
 71
     5
 72
     1
  1
%%c2.5
  7
SIMPLEX
 11
-5.104539013700560E-12
 21
1.0
 31
0.0
 73
     1
 44
1.0
  0
POINT
  5
6AD
330
6A3
100
AcDbEntity
  8
DEFPOINTS
 62
     0
100
AcDbPoint
 10
-15.62
 20
1.25
 30
0.0
  0
POINT
  5
6AE
330
6A3
100
AcDbEntity
  8
DEFPOINTS
 62
     0
100
AcDbPoint
 10
-15.62
 20
-1.25
 30
0.0
  0
POINT
  5
6AF
330
6A3
100
AcDbEntity
  8
DEFPOINTS
 62
     0
100
AcDbPoint
 10
-35.61999999999362
 20
-1.250000000102068
 30
0.0
  0
ENDBLK
  5
6A5
330
6A3
100
AcDbEntity
  8
0
100
AcDbBlockEnd
  0
BLOCK
  5
6B2
330
6B1
100
AcDbEntity
  8
0
100
AcDbBlockBegin
  2
*D3
 70
     1
 10
0.0
 20
0.0
 30
0.0
  3
*D3
  1

  0
LINE
  5
6B4
330
6B1
100
AcDbEntity
  8
2
 62
     0
370
    -2
100
AcDbLine
 10
14.0
 20
1.25
 30
0.0
 11
14.0
 21
61.25
 31
0.0
  0
LINE
  5
6B5
330
6B1
100
AcDbEntity
  8
2
 62
     0
370
    -2
100
AcDbLine
 10
20.0
 20
0.8
 30
0.0
 11
20.0
 21
61.25
 31
0.0
  0
LINE
  5
6B6
330
6B1
100
AcDbEntity
  8
2
 62
     0
370
    -2
100
AcDbLine
 10
11.5
 20
60.0
 30
0.0
 11
9.0
 21
60.0
 31
0.0
  0
LINE
  5
6B7
330
6B1
100
AcDbEntity
  8
2
 62
     0
370
    -2
100
AcDbLine
 10
22.5
 20
60.0
 30
0.0
 11
25.0
 21
60.0
 31
0.0
  0
SOLID
  5
6B8
330
6B1
100
AcDbEntity
  8
2
 62
     0
100
AcDbTrace
 10
11.5
 20
59.58333333333334
 30
0.0
 11
11.5
 21
60.41666666666666
 31
0.0
 12
14.0
 22
60.0
 32
0.0
 13
14.0
 23
60.0
 33
0.0
  0
SOLID
  5
6B9
330
6B1
100
AcDbEntity
  8
2
 62
     0
100
AcDbTrace
 10
22.5
 20
60.41666666666666
 30
0.0
 11
22.5
 21
59.58333333333334
 31
0.0
 12
20.0
 22
60.0
 32
0.0
 13
20.0
 23
60.0
 33
0.0
  0
MTEXT
  5
6BA
330
6B1
100
AcDbEntity
  8
2
 62
     0
100
AcDbMText
 10
17.0
 20
62.39075
 30
0.0
 40
3.5
 41
0.0
 71
     5
 72
     1
  1
6
  7
SIMPLEX
 73
     1
 44
1.0
  0
POINT
  5
6BB
330
6B1
100
AcDbEntity
  8
DEFPOINTS
 62
     0
100
AcDbPoint
 10
14.0
 20
1.25
 30
0.0
  0
POINT
  5
6BC
330
6B1
100
AcDbEntity
  8
DEFPOINTS
 62
     0
100
AcDbPoint
 10
20.0
 20
0.8
 30
0.0
  0
POINT
  5
6BD
330
6B1
100
AcDbEntity
  8
DEFPOINTS
 62
     0
100
AcDbPoint
 10
20.0
 20
60.0
 30
0.0
  0
ENDBLK
  5
6B3
330
6B1
100
AcDbEntity
  8
0
100
AcDbBlockEnd
  0
BLOCK
  5
6C0
330
6BF
100
AcDbEntity
  8
0
100
AcDbBlockBegin
  2
*D4
 70
     1
 10
0.0
 20
0.0
 30
0.0
  3
*D4
  1

  0
LINE
  5
6C2
330
6BF
100
AcDbEntity
  8
SK2
 62
     0
370
    -2
100
AcDbLine
 10
-20.62
 20
0.8
 30
0.0
 11
-20.62
 21
91.25
 31
0.0
  0
LINE
  5
6C3
330
6BF
100
AcDbEntity
  8
SK2
 62
     0
370
    -2
100
AcDbLine
 10
20.0
 20
0.8
 30
0.0
 11
20.0
 21
91.25
 31
0.0
  0
LINE
  5
6C4
330
6BF
100
AcDbEntity
  8
SK2
 62
     0
370
    -2
100
AcDbLine
 10
-18.12
 20
90.0
 30
0.0
 11
17.5
 21
90.0
 31
0.0
  0
SOLID
  5
6C5
330
6BF
100
AcDbEntity
  8
SK2
 62
     0
100
AcDbTrace
 10
-18.12
 20
90.41666666666667
 30
0.0
 11
-18.12
 21
89.58333333333333
 31
0.0
 12
-20.62
 22
90.0
 32
0.0
 13
-20.62
 23
90.0
 33
0.0
  0
SOLID
  5
6C6
330
6BF
100
AcDbEntity
  8
SK2
 62
     0
100
AcDbTrace
 10
17.5
 20
89.58333333333333
 30
0.0
 11
17.5
 21
90.41666666666667
 31
0.0
 12
20.0
 22
90.0
 32
0.0
 13
20.0
 23
90.0
 33
0.0
  0
MTEXT
  5
6C7
330
6BF
100
AcDbEntity
  8
SK2
 62
     0
100
AcDbMText
 10
-0.3099999999999987
 20
92.438
 30
0.0
 40
3.5
 41
0.0
 71
     5
 72
     1
  1
40.62
  7
SIMPLEX
 73
     1
 44
1.0
  0
POINT
  5
6C8
330
6BF
100
AcDbEntity
  8
DEFPOINTS
 62
     0
100
AcDbPoint
 10
-20.62
 20
0.8
 30
0.0
  0
POINT
  5
6C9
330
6BF
100
AcDbEntity
  8
DEFPOINTS
 62
     0
100
AcDbPoint
 10
20.0
 20
0.8
 30
0.0
  0
POINT
  5
6CA
330
6BF
100
AcDbEntity
  8
DEFPOINTS
 62
     0
100
AcDbPoint
 10
20.0
 20
90.0
 30
0.0
  0
ENDBLK
  5
6C1
330
6BF
100
AcDbEntity
  8
0
100
AcDbBlockEnd
  0
ENDSEC
  0
SECTION
  2
ENTITIES
  0
LINE
  5
3D6
330
18
100
AcDbEntity
  8
SK4
100
AcDbLine
 10
-22.62
 20
0.0
 30
0.0
 11
14.0
 21
0.0
 31
0.0
  0
LINE
  5
3D7
330
18
100
AcDbEntity
  8
4
100
AcDbLine
 10
12.0
 20
0.0
 30
0.0
 11
22.0
 21
0.0
 31
0.0
  0
LINE
  5
3D8
330
18
100
AcDbEntity
  8
SK4
100
AcDbLine
 10
12.0
 20
0.0
 30
0.0
 11
22.0
 21
0.0
 31
0.0
  0
LINE
  5
3D9
330
18
100
AcDbEntity
  8
1
100
AcDbLine
 10
12.40865680887893
 20
1.25
 30
0.0
 11
12.42397724811365
 21
1.249722568802935
 31
0.0
  0
LINE
  5
3DA
330
18
100
AcDbEntity
  8
1
100
AcDbLine
 10
12.42397724811365
 20
1.249722568802935
 30
0.0
 11
12.43930067723318
 21
1.248890763407231
 31
0.0
  0
LINE
  5
3DB
330
18
100
AcDbEntity
  8
1
100
AcDbLine
 10
12.43930067723318
 20
1.248890763407231
 30
0.0
 11
12.45462454247682
 21
1.247505316106129
 31
0.0
  0
LINE
  5
3DC
330
18
100
AcDbEntity
  8
1
100
AcDbLine
 10
12.45462454247682
 20
1.247505316106129
 30
0.0
 11
12.4699462900839
 21
1.245566959192866
 31
0.0
  0
LINE
  5
3DD
330
18
100
AcDbEntity
  8
1
100
AcDbLine
 10
12.4699462900839
 20
1.245566959192866
 30
0.0
 11
12.48526576247775
 21
1.243076122648493
 31
0.0
  0
LINE
  5
3DE
330
18
100
AcDbEntity
  8
1
100
AcDbLine
 10
12.48526576247775
 20
1.243076122648493
 30
0.0
 11
12.51591243692489
 21
1.23644024760978
 31
0.0
  0
LINE
  5
3DF
330
18
100
AcDbEntity
  8
1
100
AcDbLine
 10
12.51591243692489
 20
1.23644024760978
 30
0.0
 11
12.54655469643336
 21
1.227612911496247
 31
0.0
  0
LINE
  5
3E0
330
18
100
AcDbEntity
  8
1
100
AcDbLine
 10
12.54655469643336
 20
1.227612911496247
 30
0.0
 11
12.57720016140373
 21
1.216605925909958
 31
0.0
  0
LINE
  5
3E1
330
18
100
AcDbEntity
  8
1
100
AcDbLine
 10
12.57720016140373
 20
1.216605925909958
 30
0.0
 11
12.60784410971205
 21
1.203442358841199
 31
0.0
  0
LINE
  5
3E2
330
18
100
AcDbEntity
  8
1
100
AcDbLine
 10
12.60784410971205
 20
1.203442358841199
 30
0.0
 11
12.63848783613705
 21
1.188143044291083
 31
0.0
  0
LINE
  5
3E3
330
18
100
AcDbEntity
  8
1
100
AcDbLine
 10
12.63848783613705
 20
1.188143044291083
 30
0.0
 11
12.66913340581291
 21
1.170736018534442
 31
0.0
  0
LINE
  5
3E4
330
18
100
AcDbEntity
  8
1
100
AcDbLine
 10
12.66913340581291
 20
1.170736018534442
 30
0.0
 11
12.69977554599457
 21
1.151253428243514
 31
0.0
  0
LINE
  5
3E5
330
18
100
AcDbEntity
  8
1
100
AcDbLine
 10
12.69977554599457
 20
1.151253428243514
 30
0.0
 11
12.73042217057174
 21
1.129726275460175
 31
0.0
  0
LINE
  5
3E6
330
18
100
AcDbEntity
  8
1
100
AcDbLine
 10
12.73042217057174
 20
1.129726275460175
 30
0.0
 11
12.76106336606248
 21
1.106198611578079
 31
0.0
  0
LINE
  5
3E7
330
18
100
AcDbEntity
  8
1
100
AcDbLine
 10
12.76106336606248
 20
1.106198611578079
 30
0.0
 11
12.79171052122051
 21
1.080704162938143
 31
0.0
  0
LINE
  5
3E8
330
18
100
AcDbEntity
  8
1
100
AcDbLine
 10
12.79171052122051
 20
1.080704162938143
 30
0.0
 11
12.85299855101117
 21
1.024017466214085
 31
0.0
  0
LINE
  5
3E9
330
18
100
AcDbEntity
  8
1
100
AcDbLine
 10
12.85299855101117
 20
1.024017466214085
 30
0.0
 11
12.91428634409412
 21
0.9600682642454532
 31
0.0
  0
LINE
  5
3EA
330
18
100
AcDbEntity
  8
1
100
AcDbLine
 10
12.91428634409412
 20
0.9600682642454532
 30
0.0
 11
12.97557398285327
 21
0.8893100888062041
 31
0.0
  0
LINE
  5
3EB
330
18
100
AcDbEntity
  8
1
100
AcDbLine
 10
12.97557398285327
 20
0.8893100888062041
 30
0.0
 11
13.03686154947462
 21
0.8122447188863902
 31
0.0
  0
LINE
  5
3EC
330
18
100
AcDbEntity
  8
1
100
AcDbLine
 10
13.03686154947462
 20
0.8122447188863902
 30
0.0
 11
13.159436801385
 21
0.64141914912512
 31
0.0
  0
LINE
  5
3ED
330
18
100
AcDbEntity
  8
1
100
AcDbLine
 10
13.159436801385
 20
0.64141914912512
 30
0.0
 11
13.38926991478684
 21
0.276352226627516
 31
0.0
  0
ARC
  5
3EE
330
18
100
AcDbEntity
  8
1
100
AcDbCircle
 10
13.73640677289035
 20
0.8087345815198521
 30
0.0
 40
0.4412784465277103
100
AcDbArc
 50
71.69811282392988
 51
89.85244694535635
  0
LINE
  5
3EF
330
18
100
AcDbEntity
  8
1
100
AcDbLine
 10
13.88192834037191
 20
-0.2603763067596054
 30
0.0
 11
13.875
 21
-0.260979379271123
 31
0.0
  0
ARC
  5
3F0
330
18
100
AcDbEntity
  8
1
100
AcDbCircle
 10
13.94326260875589
 20
-0.949239636385611
 30
0.0
 40
0.691618494842806
100
AcDbArc
 50
85.29538038848771
 51
95.08802275363641
  0
LINE
  5
3F1
330
18
100
AcDbEntity
  8
1
100
AcDbLine
 10
11.00000000000001
 20
0.4466901949615691
 30
0.0
 11
11.0
 21
-1.016463847519543
 31
0.0
  0
ARC
  5
3F2
330
18
100
AcDbEntity
  8
1
100
AcDbCircle
 10
37.57565459769698
 20
13.8223338924597
 30
0.0
 40
27.03580955143756
100
AcDbArc
 50
208.7604548669079
 51
209.3060161084569
  0
LINE
  5
3F3
330
18
100
AcDbEntity
  8
1
100
AcDbLine
 10
11.45195137089511
 20
1.25
 30
0.0
 11
11.46833335848866
 21
1.249682247691908
 31
0.0
  0
LINE
  5
3F4
330
18
100
AcDbEntity
  8
1
100
AcDbLine
 10
11.46833335848866
 20
1.249682247691908
 30
0.0
 11
11.48472171931289
 21
1.248729889131781
 31
0.0
  0
LINE
  5
3F5
330
18
100
AcDbEntity
  8
1
100
AcDbLine
 10
11.48472171931289
 20
1.248729889131781
 30
0.0
 11
11.50111334975615
 21
1.24714427186584
 31
0.0
  0
LINE
  5
3F6
330
18
100
AcDbEntity
  8
1
100
AcDbLine
 10
11.50111334975615
 20
1.24714427186584
 30
0.0
 11
11.51750514620679
 21
1.244926743440304
 31
0.0
  0
LINE
  5
3F7
330
18
100
AcDbEntity
  8
1
100
AcDbLine
 10
11.51750514620679
 20
1.244926743440304
 30
0.0
 11
11.53389400505315
 21
1.242078651401396
 31
0.0
  0
LINE
  5
3F8
330
18
100
AcDbEntity
  8
1
100
AcDbLine
 10
11.53389400505315
 20
1.242078651401396
 30
0.0
 11
11.55027682268357
 21
1.238601343295337
 31
0.0
  0
LINE
  5
3F9
330
18
100
AcDbEntity
  8
1
100
AcDbLine
 10
11.55027682268357
 20
1.238601343295337
 30
0.0
 11
11.56665674553843
 21
1.234495510745471
 31
0.0
  0
LINE
  5
3FA
330
18
100
AcDbEntity
  8
1
100
AcDbLine
 10
11.56665674553843
 20
1.234495510745471
 30
0.0
 11
11.58304011334391
 21
1.229762832986838
 31
0.0
  0
LINE
  5
3FB
330
18
100
AcDbEntity
  8
1
100
AcDbLine
 10
11.58304011334391
 20
1.229762832986838
 30
0.0
 11
11.61580503907367
 21
1.218431180311226
 31
0.0
  0
LINE
  5
3FC
330
18
100
AcDbEntity
  8
1
100
AcDbLine
 10
11.61580503907367
 20
1.218431180311226
 30
0.0
 11
11.64856798885033
 21
1.204628507719685
 31
0.0
  0
LINE
  5
3FD
330
18
100
AcDbEntity
  8
1
100
AcDbLine
 10
11.64856798885033
 20
1.204628507719685
 30
0.0
 11
11.68133316623706
 21
1.188383106199089
 31
0.0
  0
LINE
  5
3FE
330
18
100
AcDbEntity
  8
1
100
AcDbLine
 10
11.68133316623706
 20
1.188383106199089
 30
0.0
 11
11.71409584722705
 21
1.169728254429596
 31
0.0
  0
LINE
  5
3FF
330
18
100
AcDbEntity
  8
1
100
AcDbLine
 10
11.71409584722705
 20
1.169728254429596
 30
0.0
 11
11.74686123610936
 21
1.148700750374226
 31
0.0
  0
LINE
  5
400
330
18
100
AcDbEntity
  8
1
100
AcDbLine
 10
11.74686123610936
 20
1.148700750374226
 30
0.0
 11
11.77962368045374
 21
1.125345015852266
 31
0.0
  0
LINE
  5
401
330
18
100
AcDbEntity
  8
1
100
AcDbLine
 10
11.77962368045374
 20
1.125345015852266
 30
0.0
 11
11.81238926234698
 21
1.099705842761728
 31
0.0
  0
LINE
  5
402
330
18
100
AcDbEntity
  8
1
100
AcDbLine
 10
11.81238926234698
 20
1.099705842761728
 30
0.0
 11
11.8451514941403
 21
1.071838614836526
 31
0.0
  0
LINE
  5
403
330
18
100
AcDbEntity
  8
1
100
AcDbLine
 10
11.8451514941403
 20
1.071838614836526
 30
0.0
 11
11.87791725139916
 21
1.041795607020564
 31
0.0
  0
LINE
  5
404
330
18
100
AcDbEntity
  8
1
100
AcDbLine
 10
11.87791725139916
 20
1.041795607020564
 30
0.0
 11
11.94344520457877
 21
0.975439539511743
 31
0.0
  0
LINE
  5
405
330
18
100
AcDbEntity
  8
1
100
AcDbLine
 10
11.94344520457877
 20
0.975439539511743
 30
0.0
 11
12.00897311956786
 21
0.9011756028064646
 31
0.0
  0
LINE
  5
406
330
18
100
AcDbEntity
  8
1
100
AcDbLine
 10
12.00897311956786
 20
0.9011756028064646
 30
0.0
 11
12.07450099202173
 21
0.8196058646842133
 31
0.0
  0
LINE
  5
407
330
18
100
AcDbEntity
  8
1
100
AcDbLine
 10
12.07450099202173
 20
0.8196058646842133
 30
0.0
 11
12.20555660248136
 21
0.6372480257369153
 31
0.0
  0
LINE
  5
408
330
18
100
AcDbEntity
  8
1
100
AcDbLine
 10
12.20555660248136
 20
0.6372480257369153
 30
0.0
 11
12.33661209368027
 21
0.4342676169938973
 31
0.0
  0
LINE
  5
409
330
18
100
AcDbEntity
  8
1
100
AcDbLine
 10
12.33661209368027
 20
0.4342676169938973
 30
0.0
 11
12.50042866059774
 21
0.1615999434605111
 31
0.0
  0
LINE
  5
40A
330
18
100
AcDbEntity
  8
1
100
AcDbLine
 10
11.45195137089511
 20
1.25
 30
0.0
 11
-0.0000000000000027
 21
1.25
 31
0.0
  0
LINE
  5
40B
330
18
100
AcDbEntity
  8
1
100
AcDbLine
 10
13.73754316033281
 20
1.25
 30
0.0
 11
12.40865680887893
 21
1.25
 31
0.0
  0
LINE
  5
40C
330
18
100
AcDbEntity
  8
1
100
AcDbLine
 10
11.0
 20
-1.016463847519546
 30
0.0
 11
11.05651078391588
 21
-1.069851025592197
 31
0.0
  0
LINE
  5
40D
330
18
100
AcDbEntity
  8
1
100
AcDbLine
 10
11.05651078391588
 20
-1.069851025592197
 30
0.0
 11
11.11301128142629
 21
-1.116783094794487
 31
0.0
  0
LINE
  5
40E
330
18
100
AcDbEntity
  8
1
100
AcDbLine
 10
11.11301128142629
 20
-1.116783094794487
 30
0.0
 11
11.14125944000407
 21
-1.137737816357145
 31
0.0
  0
LINE
  5
40F
330
18
100
AcDbEntity
  8
1
100
AcDbLine
 10
11.14125944000407
 20
-1.137737816357145
 30
0.0
 11
11.16950279493286
 21
-1.156974979439908
 31
0.0
  0
LINE
  5
410
330
18
100
AcDbEntity
  8
1
100
AcDbLine
 10
11.16950279493286
 20
-1.156974979439908
 30
0.0
 11
11.19774911258508
 21
-1.17446966338251
 31
0.0
  0
LINE
  5
411
330
18
100
AcDbEntity
  8
1
100
AcDbLine
 10
11.19774911258508
 20
-1.17446966338251
 30
0.0
 11
11.22599537087825
 21
-1.190195117538246
 31
0.0
  0
LINE
  5
412
330
18
100
AcDbEntity
  8
1
100
AcDbLine
 10
11.22599537087825
 20
-1.190195117538246
 30
0.0
 11
11.25423866708251
 21
-1.204124456933227
 31
0.0
  0
LINE
  5
413
330
18
100
AcDbEntity
  8
1
100
AcDbLine
 10
11.25423866708251
 20
-1.204124456933227
 30
0.0
 11
11.28248669364493
 21
-1.216241811056307
 31
0.0
  0
LINE
  5
414
330
18
100
AcDbEntity
  8
1
100
AcDbLine
 10
11.28248669364493
 20
-1.216241811056307
 30
0.0
 11
11.31072883411124
 21
-1.226523629382499
 31
0.0
  0
LINE
  5
415
330
18
100
AcDbEntity
  8
1
100
AcDbLine
 10
11.31072883411124
 20
-1.226523629382499
 30
0.0
 11
11.33897688139572
 21
-1.234958778755129
 31
0.0
  0
LINE
  5
416
330
18
100
AcDbEntity
  8
1
100
AcDbLine
 10
11.33897688139572
 20
-1.234958778755129
 30
0.0
 11
11.3672200737338
 21
-1.241531990797936
 31
0.0
  0
LINE
  5
417
330
18
100
AcDbEntity
  8
1
100
AcDbLine
 10
11.3672200737338
 20
-1.241531990797936
 30
0.0
 11
11.39546645524827
 21
-1.246233907160788
 31
0.0
  0
LINE
  5
418
330
18
100
AcDbEntity
  8
1
100
AcDbLine
 10
11.39546645524827
 20
-1.246233907160788
 30
0.0
 11
11.42371255487049
 21
-1.24905847086253
 31
0.0
  0
LINE
  5
419
330
18
100
AcDbEntity
  8
1
100
AcDbLine
 10
11.42371255487049
 20
-1.24905847086253
 30
0.0
 11
11.45195137090653
 21
-1.249999999835664
 31
0.0
  0
LINE
  5
41A
330
18
100
AcDbEntity
  8
1
100
AcDbLine
 10
11.0
 20
0.4466901949615664
 30
0.0
 11
11.10367810566317
 21
0.2763519237753597
 31
0.0
  0
LINE
  5
41B
330
18
100
AcDbEntity
  8
1
100
AcDbLine
 10
13.875
 20
1.22775548959826
 30
0.0
 11
13.875
 21
-0.5377590959534478
 31
0.0
  0
LINE
  5
41C
330
18
100
AcDbEntity
  8
1
100
AcDbLine
 10
13.875
 20
-0.8140825991275116
 30
0.0
 11
13.875
 21
-1.227755489598261
 31
0.0
  0
ARC
  5
41D
330
18
100
AcDbEntity
  8
1
100
AcDbCircle
 10
37.57565459716857
 20
-13.82233389216757
 30
0.0
 40
27.03580955083377
100
AcDbArc
 50
150.6939838915349
 51
151.239545133096
  0
LINE
  5
41E
330
18
100
AcDbEntity
  8
1
100
AcDbLine
 10
14.0
 20
-0.4753815769696874
 30
0.0
 11
14.0
 21
-0.2598100697975536
 31
0.0
  0
LINE
  5
41F
330
18
100
AcDbEntity
  8
1
100
AcDbLine
 10
14.0
 20
-0.2598100697975536
 30
0.0
 11
14.0
 21
0.5890383379782121
 31
0.0
  0
LINE
  5
420
330
18
100
AcDbEntity
  8
1
100
AcDbLine
 10
14.0
 20
-0.5890383376506676
 30
0.0
 11
14.0
 21
-0.4753815769696874
 31
0.0
  0
LINE
  5
421
330
18
100
AcDbEntity
  8
1
100
AcDbLine
 10
11.10367810566317
 20
0.2763519237753597
 30
0.0
 11
11.42991664999663
 21
-0.2794895694343422
 31
0.0
  0
LINE
  5
422
330
18
100
AcDbEntity
  8
1
100
AcDbLine
 10
11.42991664999663
 20
-0.2794895694343422
 30
0.0
 11
11.59304340502806
 21
-0.5433905547023781
 31
0.0
  0
LINE
  5
423
330
18
100
AcDbEntity
  8
1
100
AcDbLine
 10
11.59304340502806
 20
-0.5433905547023781
 30
0.0
 11
11.75616427855594
 21
-0.7800787218324995
 31
0.0
  0
LINE
  5
424
330
18
100
AcDbEntity
  8
1
100
AcDbLine
 10
11.75616427855594
 20
-0.7800787218324995
 30
0.0
 11
11.83772787609376
 21
-0.884452711832524
 31
0.0
  0
LINE
  5
425
330
18
100
AcDbEntity
  8
1
100
AcDbLine
 10
11.83772787609376
 20
-0.884452711832524
 30
0.0
 11
11.91929115488194
 21
-0.9777217419376936
 31
0.0
  0
LINE
  5
426
330
18
100
AcDbEntity
  8
1
100
AcDbLine
 10
11.91929115488194
 20
-0.9777217419376936
 30
0.0
 11
11.96006948680372
 21
-1.019816632477582
 31
0.0
  0
LINE
  5
427
330
18
100
AcDbEntity
  8
1
100
AcDbLine
 10
11.96006948680372
 20
-1.019816632477582
 30
0.0
 11
12.00085144255832
 21
-1.058712263413139
 31
0.0
  0
LINE
  5
428
330
18
100
AcDbEntity
  8
1
100
AcDbLine
 10
12.00085144255832
 20
-1.058712263413139
 30
0.0
 11
12.04163318094201
 21
-1.094281084505668
 31
0.0
  0
LINE
  5
429
330
18
100
AcDbEntity
  8
1
100
AcDbLine
 10
12.04163318094201
 20
-1.094281084505668
 30
0.0
 11
12.08241156984927
 21
-1.126410417834532
 31
0.0
  0
LINE
  5
42A
330
18
100
AcDbEntity
  8
1
100
AcDbLine
 10
12.08241156984927
 20
-1.126410417834532
 30
0.0
 11
12.12319551320748
 21
-1.155005504381821
 31
0.0
  0
LINE
  5
42B
330
18
100
AcDbEntity
  8
1
100
AcDbLine
 10
12.12319551320748
 20
-1.155005504381821
 30
0.0
 11
12.16397466788993
 21
-1.179968621295916
 31
0.0
  0
LINE
  5
42C
330
18
100
AcDbEntity
  8
1
100
AcDbLine
 10
12.16397466788993
 20
-1.179968621295916
 30
0.0
 11
12.1843669310463
 21
-1.191066661078728
 31
0.0
  0
LINE
  5
42D
330
18
100
AcDbEntity
  8
1
100
AcDbLine
 10
12.1843669310463
 20
-1.191066661078728
 30
0.0
 11
12.20475461763314
 21
-1.201226712016658
 31
0.0
  0
LINE
  5
42E
330
18
100
AcDbEntity
  8
1
100
AcDbLine
 10
12.20475461763314
 20
-1.201226712016658
 30
0.0
 11
12.22514539022628
 21
-1.210444208700175
 31
0.0
  0
LINE
  5
42F
330
18
100
AcDbEntity
  8
1
100
AcDbLine
 10
12.22514539022628
 20
-1.210444208700175
 30
0.0
 11
12.24553805618145
 21
-1.218712198790697
 31
0.0
  0
LINE
  5
430
330
18
100
AcDbEntity
  8
1
100
AcDbLine
 10
12.24553805618145
 20
-1.218712198790697
 30
0.0
 11
12.26592668563925
 21
-1.226021594365653
 31
0.0
  0
LINE
  5
431
330
18
100
AcDbEntity
  8
1
100
AcDbLine
 10
12.26592668563925
 20
-1.226021594365653
 30
0.0
 11
12.28631619408624
 21
-1.232367641917472
 31
0.0
  0
LINE
  5
432
330
18
100
AcDbEntity
  8
1
100
AcDbLine
 10
12.28631619408624
 20
-1.232367641917472
 30
0.0
 11
12.30670895795008
 21
-1.237746957689271
 31
0.0
  0
LINE
  5
433
330
18
100
AcDbEntity
  8
1
100
AcDbLine
 10
12.30670895795008
 20
-1.237746957689271
 30
0.0
 11
12.32709897174592
 21
-1.242153788060457
 31
0.0
  0
LINE
  5
434
330
18
100
AcDbEntity
  8
1
100
AcDbLine
 10
12.32709897174592
 20
-1.242153788060457
 30
0.0
 11
12.34748714968903
 21
-1.245583987637364
 31
0.0
  0
LINE
  5
435
330
18
100
AcDbEntity
  8
1
100
AcDbLine
 10
12.34748714968903
 20
-1.245583987637364
 30
0.0
 11
12.36787970249055
 21
-1.2480365678935
 31
0.0
  0
LINE
  5
436
330
18
100
AcDbEntity
  8
1
100
AcDbLine
 10
12.36787970249055
 20
-1.2480365678935
 30
0.0
 11
12.38827084147019
 21
-1.249509206241714
 31
0.0
  0
LINE
  5
437
330
18
100
AcDbEntity
  8
1
100
AcDbLine
 10
12.38827084147019
 20
-1.249509206241714
 30
0.0
 11
12.40865680887917
 21
-1.249999999992674
 31
0.0
  0
LINE
  5
438
330
18
100
AcDbEntity
  8
1
100
AcDbLine
 10
11.45195137090653
 20
-1.249999999835664
 30
0.0
 11
11.46689694369657
 21
-1.249735817307156
 31
0.0
  0
LINE
  5
439
330
18
100
AcDbEntity
  8
1
100
AcDbLine
 10
11.46689694369657
 20
-1.249735817307156
 30
0.0
 11
11.48184837267432
 21
-1.248943000743555
 31
0.0
  0
LINE
  5
43A
330
18
100
AcDbEntity
  8
1
100
AcDbLine
 10
11.48184837267432
 20
-1.248943000743555
 30
0.0
 11
11.4968036243649
 21
-1.24762257279372
 31
0.0
  0
LINE
  5
43B
330
18
100
AcDbEntity
  8
1
100
AcDbLine
 10
11.4968036243649
 20
-1.24762257279372
 30
0.0
 11
11.52671616407726
 21
-1.243403312308969
 31
0.0
  0
LINE
  5
43C
330
18
100
AcDbEntity
  8
1
100
AcDbLine
 10
11.52671616407726
 20
-1.243403312308969
 30
0.0
 11
11.55661570474431
 21
-1.237086894144126
 31
0.0
  0
LINE
  5
43D
330
18
100
AcDbEntity
  8
1
100
AcDbLine
 10
11.55661570474431
 20
-1.237086894144126
 30
0.0
 11
11.58651043320468
 21
-1.228680300233378
 31
0.0
  0
LINE
  5
43E
330
18
100
AcDbEntity
  8
1
100
AcDbLine
 10
11.58651043320468
 20
-1.228680300233378
 30
0.0
 11
11.61640699770357
 21
-1.218199742502677
 31
0.0
  0
LINE
  5
43F
330
18
100
AcDbEntity
  8
1
100
AcDbLine
 10
11.61640699770357
 20
-1.218199742502677
 30
0.0
 11
11.64629964914888
 21
-1.205663225596433
 31
0.0
  0
LINE
  5
440
330
18
100
AcDbEntity
  8
1
100
AcDbLine
 10
11.64629964914888
 20
-1.205663225596433
 30
0.0
 11
11.67619740576672
 21
-1.191089543411678
 31
0.0
  0
LINE
  5
441
330
18
100
AcDbEntity
  8
1
100
AcDbLine
 10
11.67619740576672
 20
-1.191089543411678
 30
0.0
 11
11.70608914696493
 21
-1.1745078218331
 31
0.0
  0
LINE
  5
442
330
18
100
AcDbEntity
  8
1
100
AcDbLine
 10
11.70608914696493
 20
-1.1745078218331
 30
0.0
 11
11.73598716344818
 21
-1.155939588290586
 31
0.0
  0
LINE
  5
443
330
18
100
AcDbEntity
  8
1
100
AcDbLine
 10
11.73598716344818
 20
-1.155939588290586
 30
0.0
 11
11.76587909996666
 21
-1.135424093761072
 31
0.0
  0
LINE
  5
444
330
18
100
AcDbEntity
  8
1
100
AcDbLine
 10
11.76587909996666
 20
-1.135424093761072
 30
0.0
 11
11.79577649717556
 21
-1.112987288114773
 31
0.0
  0
LINE
  5
445
330
18
100
AcDbEntity
  8
1
100
AcDbLine
 10
11.79577649717556
 20
-1.112987288114773
 30
0.0
 11
11.825669689117
 21
-1.088675470616327
 31
0.0
  0
LINE
  5
446
330
18
100
AcDbEntity
  8
1
100
AcDbLine
 10
11.825669689117
 20
-1.088675470616327
 30
0.0
 11
11.85556560121947
 21
-1.062522577043431
 31
0.0
  0
LINE
  5
447
330
18
100
AcDbEntity
  8
1
100
AcDbLine
 10
11.85556560121947
 20
-1.062522577043431
 30
0.0
 11
11.88546097286085
 21
-1.034577184726827
 31
0.0
  0
LINE
  5
448
330
18
100
AcDbEntity
  8
1
100
AcDbLine
 10
11.88546097286085
 20
-1.034577184726827
 30
0.0
 11
11.93030393851285
 21
-0.9893986951381333
 31
0.0
  0
LINE
  5
449
330
18
100
AcDbEntity
  8
1
100
AcDbLine
 10
-0.0000000000000027
 20
-1.25
 30
0.0
 11
11.45195137090653
 21
-1.25
 31
0.0
  0
ARC
  5
44A
330
18
100
AcDbEntity
  8
1
100
AcDbCircle
 10
13.73640300789246
 20
-0.8087059150385406
 30
0.0
 40
0.4413071759096332
100
AcDbArc
 50
270.1480323040166
 51
288.3011826327166
  0
LINE
  5
44B
330
18
100
AcDbEntity
  8
1
100
AcDbLine
 10
12.40865680887917
 20
-1.25
 30
0.0
 11
13.73754316037722
 21
-1.25
 31
0.0
  0
LINE
  5
44C
330
18
100
AcDbEntity
  8
1
100
AcDbLine
 10
12.50042866059774
 20
0.1615999434605111
 30
0.0
 11
12.80973047401442
 21
-0.3640212517006515
 31
0.0
  0
LINE
  5
44D
330
18
100
AcDbEntity
  8
1
100
AcDbLine
 10
12.80973047401442
 20
-0.3640212517006515
 30
0.0
 11
12.96436564362127
 21
-0.6080909298986735
 31
0.0
  0
LINE
  5
44E
330
18
100
AcDbEntity
  8
1
100
AcDbLine
 10
12.96436564362127
 20
-0.6080909298986735
 30
0.0
 11
13.04168331166631
 21
-0.7205063884674853
 31
0.0
  0
LINE
  5
44F
330
18
100
AcDbEntity
  8
1
100
AcDbLine
 10
13.04168331166631
 20
-0.7205063884674853
 30
0.0
 11
13.11900260518239
 21
-0.8247939182301656
 31
0.0
  0
LINE
  5
450
330
18
100
AcDbEntity
  8
1
100
AcDbLine
 10
13.11900260518239
 20
-0.8247939182301656
 30
0.0
 11
13.19632254706938
 21
-0.9197752075715191
 31
0.0
  0
LINE
  5
451
330
18
100
AcDbEntity
  8
1
100
AcDbLine
 10
13.19632254706938
 20
-0.9197752075715191
 30
0.0
 11
13.2736421293926
 21
-1.004377263200044
 31
0.0
  0
LINE
  5
452
330
18
100
AcDbEntity
  8
1
100
AcDbLine
 10
13.2736421293926
 20
-1.004377263200044
 30
0.0
 11
13.31229849774902
 21
-1.04247958336559
 31
0.0
  0
LINE
  5
453
330
18
100
AcDbEntity
  8
1
100
AcDbLine
 10
13.31229849774902
 20
-1.04247958336559
 30
0.0
 11
13.35096034471553
 21
-1.077644581426874
 31
0.0
  0
LINE
  5
454
330
18
100
AcDbEntity
  8
1
100
AcDbLine
 10
13.35096034471553
 20
-1.077644581426874
 30
0.0
 11
13.38961816938754
 21
-1.109763105394723
 31
0.0
  0
LINE
  5
455
330
18
100
AcDbEntity
  8
1
100
AcDbLine
 10
13.38961816938754
 20
-1.109763105394723
 30
0.0
 11
13.42827661641538
 21
-1.1387503534853
 31
0.0
  0
LINE
  5
456
330
18
100
AcDbEntity
  8
1
100
AcDbLine
 10
13.42827661641538
 20
-1.1387503534853
 30
0.0
 11
13.4669379265187
 21
-1.164524011803113
 31
0.0
  0
LINE
  5
457
330
18
100
AcDbEntity
  8
1
100
AcDbLine
 10
13.4669379265187
 20
-1.164524011803113
 30
0.0
 11
13.50559435798871
 21
-1.187007794120533
 31
0.0
  0
LINE
  5
458
330
18
100
AcDbEntity
  8
1
100
AcDbLine
 10
13.50559435798871
 20
-1.187007794120533
 30
0.0
 11
13.52492584805186
 21
-1.196998191556686
 31
0.0
  0
LINE
  5
459
330
18
100
AcDbEntity
  8
1
100
AcDbLine
 10
13.52492584805186
 20
-1.196998191556686
 30
0.0
 11
13.54425671195936
 21
-1.206143806805569
 31
0.0
  0
LINE
  5
45A
330
18
100
AcDbEntity
  8
1
100
AcDbLine
 10
13.54425671195936
 20
-1.206143806805569
 30
0.0
 11
13.56358337017008
 21
-1.214435951756727
 31
0.0
  0
LINE
  5
45B
330
18
100
AcDbEntity
  8
1
100
AcDbLine
 10
13.56358337017008
 20
-1.214435951756727
 30
0.0
 11
13.58291365255875
 21
-1.221871962304616
 31
0.0
  0
LINE
  5
45C
330
18
100
AcDbEntity
  8
1
100
AcDbLine
 10
13.58291365255875
 20
-1.221871962304616
 30
0.0
 11
13.60224537567309
 21
-1.228446433732617
 31
0.0
  0
LINE
  5
45D
330
18
100
AcDbEntity
  8
1
100
AcDbLine
 10
13.60224537567309
 20
-1.228446433732617
 30
0.0
 11
13.62157342603989
 21
-1.234152815518898
 31
0.0
  0
LINE
  5
45E
330
18
100
AcDbEntity
  8
1
100
AcDbLine
 10
13.62157342603989
 20
-1.234152815518898
 30
0.0
 11
13.64090167985457
 21
-1.238987501982804
 31
0.0
  0
LINE
  5
45F
330
18
100
AcDbEntity
  8
1
100
AcDbLine
 10
13.64090167985457
 20
-1.238987501982804
 30
0.0
 11
13.66023342186388
 21
-1.242948636486192
 31
0.0
  0
LINE
  5
460
330
18
100
AcDbEntity
  8
1
100
AcDbLine
 10
13.66023342186388
 20
-1.242948636486192
 30
0.0
 11
13.67956354554766
 21
-1.246032536228055
 31
0.0
  0
LINE
  5
461
330
18
100
AcDbEntity
  8
1
100
AcDbLine
 10
13.67956354554766
 20
-1.246032536228055
 30
0.0
 11
13.69888970112717
 21
-1.248236099696107
 31
0.0
  0
LINE
  5
462
330
18
100
AcDbEntity
  8
1
100
AcDbLine
 10
13.69888970112717
 20
-1.248236099696107
 30
0.0
 11
13.71821742512719
 21
-1.249558937943285
 31
0.0
  0
LINE
  5
463
330
18
100
AcDbEntity
  8
1
100
AcDbLine
 10
13.71821742512719
 20
-1.249558937943285
 30
0.0
 11
13.73754316037722
 21
-1.249999999163827
 31
0.0
  0
LINE
  5
464
330
18
100
AcDbEntity
  8
1
100
AcDbLine
 10
13.38926991478684
 20
0.276352226627516
 30
0.0
 11
13.875
 21
-0.5377590959534491
 31
0.0
  0
LINE
  5
465
330
18
100
AcDbEntity
  8
1
100
AcDbLine
 10
11.93030397175882
 20
0.989398730048097
 30
0.0
 11
11.99009926048471
 21
1.048775394943853
 31
0.0
  0
LINE
  5
466
330
18
100
AcDbEntity
  8
1
100
AcDbLine
 10
11.99009926048471
 20
1.048775394943853
 30
0.0
 11
12.04989390607769
 21
1.101070861694809
 31
0.0
  0
LINE
  5
467
330
18
100
AcDbEntity
  8
1
100
AcDbLine
 10
12.04989390607769
 20
1.101070861694809
 30
0.0
 11
12.07978808791515
 21
1.124448906549875
 31
0.0
  0
LINE
  5
468
330
18
100
AcDbEntity
  8
1
100
AcDbLine
 10
12.07978808791515
 20
1.124448906549875
 30
0.0
 11
12.10968812359442
 21
1.145932450403233
 31
0.0
  0
LINE
  5
469
330
18
100
AcDbEntity
  8
1
100
AcDbLine
 10
12.10968812359442
 20
1.145932450403233
 30
0.0
 11
12.13958310231095
 21
1.165478105547
 31
0.0
  0
LINE
  5
46A
330
18
100
AcDbEntity
  8
1
100
AcDbLine
 10
12.13958310231095
 20
1.165478105547
 30
0.0
 11
12.16948207992254
 21
1.183057593018443
 31
0.0
  0
LINE
  5
46B
330
18
100
AcDbEntity
  8
1
100
AcDbLine
 10
12.16948207992254
 20
1.183057593018443
 30
0.0
 11
12.19937876134557
 21
1.19863905728342
 31
0.0
  0
LINE
  5
46C
330
18
100
AcDbEntity
  8
1
100
AcDbLine
 10
12.19937876134557
 20
1.19863905728342
 30
0.0
 11
12.22927592693241
 21
1.212195852546835
 31
0.0
  0
LINE
  5
46D
330
18
100
AcDbEntity
  8
1
100
AcDbLine
 10
12.22927592693241
 20
1.212195852546835
 30
0.0
 11
12.25917456095325
 21
1.223707371981301
 31
0.0
  0
LINE
  5
46E
330
18
100
AcDbEntity
  8
1
100
AcDbLine
 10
12.25917456095325
 20
1.223707371981301
 30
0.0
 11
12.28906981697
 21
1.233150606451439
 31
0.0
  0
LINE
  5
46F
330
18
100
AcDbEntity
  8
1
100
AcDbLine
 10
12.28906981697
 20
1.233150606451439
 30
0.0
 11
12.31896966269697
 21
1.240513613111587
 31
0.0
  0
LINE
  5
470
330
18
100
AcDbEntity
  8
1
100
AcDbLine
 10
12.31896966269697
 20
1.240513613111587
 30
0.0
 11
12.34886390246052
 21
1.245780376473714
 31
0.0
  0
LINE
  5
471
330
18
100
AcDbEntity
  8
1
100
AcDbLine
 10
12.34886390246052
 20
1.245780376473714
 30
0.0
 11
12.37876420285129
 21
1.248944685639005
 31
0.0
  0
LINE
  5
472
330
18
100
AcDbEntity
  8
1
100
AcDbLine
 10
12.37876420285129
 20
1.248944685639005
 30
0.0
 11
12.39371180847013
 21
1.249736260085212
 31
0.0
  0
LINE
  5
473
330
18
100
AcDbEntity
  8
1
100
AcDbLine
 10
12.39371180847013
 20
1.249736260085212
 30
0.0
 11
12.40865680887893
 21
1.25
 31
0.0
  0
LINE
  5
474
330
18
100
AcDbEntity
  8
1
 62
     1
100
AcDbLine
 10
15.61345298923241
 20
0.8
 30
0.0
 11
15.63654701076758
 21
0.8
 31
0.0
  0
LINE
  5
475
330
18
100
AcDbEntity
  8
1
 62
     1
100
AcDbLine
 10
15.96345298923242
 20
0.8
 30
0.0
 11
15.98654701076759
 21
0.8
 31
0.0
  0
LINE
  5
476
330
18
100
AcDbEntity
  8
1
 62
     1
100
AcDbLine
 10
19.41508528443863
 20
-0.7162247169119308
 30
0.0
 11
19.38804774761126
 21
-0.6693943512500767
 31
0.0
  0
LINE
  5
477
330
18
100
AcDbEntity
  8
1
 62
     1
100
AcDbLine
 10
19.65
 20
-0.51689125
 30
0.0
 11
19.54821662216537
 21
-0.693185149578474
 31
0.0
  0
LINE
  5
478
330
18
100
AcDbEntity
  8
1
 62
     1
100
AcDbLine
 10
17.36345298923241
 20
-0.8000000000000023
 30
0.0
 11
17.2
 21
-0.51689125
 31
0.0
  0
LINE
  5
479
330
18
100
AcDbEntity
  8
1
 62
     1
100
AcDbLine
 10
17.71345298923242
 20
-0.8000000000000026
 30
0.0
 11
17.55
 21
-0.51689125
 31
0.0
  0
LINE
  5
47A
330
18
100
AcDbEntity
  8
1
 62
     1
100
AcDbLine
 10
18.06345298923242
 20
-0.8000000000000026
 30
0.0
 11
17.9
 21
-0.51689125
 31
0.0
  0
LINE
  5
47B
330
18
100
AcDbEntity
  8
1
 62
     1
100
AcDbLine
 10
15.61345298923241
 20
-0.7999999999999993
 30
0.0
 11
15.45
 21
-0.51689125
 31
0.0
  0
LINE
  5
47C
330
18
100
AcDbEntity
  8
1
 62
     1
100
AcDbLine
 10
14.91345298923241
 20
-0.7999999999999996
 30
0.0
 11
14.81916212225285
 21
-0.636683503848045
 31
0.0
  0
ARC
  5
47D
330
18
100
AcDbEntity
  8
1
 62
     1
100
AcDbCircle
 10
18.56847111544168
 20
-1.445500578228508
 30
0.0
 40
2.343978489840056
100
AcDbArc
 50
54.27663123590647
 51
60.20043794815723
  0
LINE
  5
47E
330
18
100
AcDbEntity
  8
1
 62
     1
100
AcDbLine
 10
19.73329149790693
 20
0.6611562889496903
 30
0.0
 11
19.9370690749207
 21
0.625890758783602
 31
0.0
  0
ARC
  5
47F
330
18
100
AcDbEntity
  8
1
 62
     1
100
AcDbCircle
 10
19.20548590537231
 20
-0.2312144408155502
 30
0.0
 40
0.9696202764470779
100
AcDbArc
 50
69.3005078933225
 51
77.51557139750213
  0
LINE
  5
480
330
18
100
AcDbEntity
  8
1
 62
     1
100
AcDbLine
 10
19.41508528443863
 20
0.71622471691193
 30
0.0
 11
19.54821662216537
 21
0.6931851495784909
 31
0.0
  0
LINE
  5
481
330
18
100
AcDbEntity
  8
1
 62
     1
100
AcDbLine
 10
19.15936416941002
 20
0.7284770568967245
 30
0.0
 11
19.09687907097033
 21
0.7182437222293437
 31
0.0
  0
ARC
  5
482
330
18
100
AcDbEntity
  8
1
 62
     1
100
AcDbCircle
 10
19.65233847723085
 20
0.18660038470451
 30
0.0
 40
0.2303425611780328
100
AcDbArc
 50
243.1290461554104
 51
269.4180283085297
  0
LINE
  5
483
330
18
100
AcDbEntity
  8
1
 62
     1
100
AcDbLine
 10
19.54821662216537
 20
-0.018893128475604
 30
0.0
 11
19.54821662216537
 21
-0.6931851495784908
 31
0.0
  0
ARC
  5
484
330
18
100
AcDbEntity
  8
1
 62
     1
100
AcDbCircle
 10
132.4558372398073
 20
63.50043681807938
 30
0.0
 40
130.0081271377985
100
AcDbArc
 50
209.4977535551971
 51
209.5763902387412
  0
LINE
  5
485
330
18
100
AcDbEntity
  8
1
 62
     1
100
AcDbLine
 10
19.3
 20
-0.5141989672653319
 30
0.0
 11
19.3
 21
0.1996658429412935
 31
0.0
  0
ARC
  5
486
330
18
100
AcDbEntity
  8
1
 62
     1
100
AcDbCircle
 10
11.44012832460497
 20
4.500570630850701
 30
0.0
 40
9.323567261196676
100
AcDbArc
 50
325.8860972810832
 51
327.4612360875449
  0
ARC
  5
487
330
18
100
AcDbEntity
  8
1
 62
     1
100
AcDbCircle
 10
19.83269996190538
 20
0.8198050447480669
 30
0.0
 40
0.8179553395727375
100
AcDbArc
 50
214.6025089337011
 51
229.3374008242465
  0
ARC
  5
488
330
18
100
AcDbEntity
  8
1
 62
     1
100
AcDbCircle
 10
16.8353159222023
 20
-1.690435592604084
 30
0.0
 40
2.461187986730317
100
AcDbArc
 50
23.26171173901935
 51
30.76754102047875
  0
LINE
  5
489
330
18
100
AcDbEntity
  8
1
 62
     1
100
AcDbLine
 10
19.09687907097033
 20
0.4155027351874672
 30
0.0
 11
19.09687907097033
 21
-0.7182437222293457
 31
0.0
  0
ARC
  5
48A
330
18
100
AcDbEntity
  8
1
 62
     1
100
AcDbCircle
 10
19.04604764324612
 20
0.2223912297435198
 30
0.0
 40
0.1997874356742865
100
AcDbArc
 50
75.25293803592757
 51
118.7279417503741
  0
LINE
  5
48B
330
18
100
AcDbEntity
  8
1
 62
     1
100
AcDbLine
 10
18.95
 20
-0.4314540556347065
 30
0.0
 11
18.95000000000001
 21
0.3976229103132843
 31
0.0
  0
LINE
  5
48C
330
18
100
AcDbEntity
  8
1
 62
     1
100
AcDbLine
 10
19.9370690749207
 20
-0.3195817450644778
 30
0.0
 11
19.9370690749207
 21
-0.6258907587836019
 31
0.0
  0
LINE
  5
48D
330
18
100
AcDbEntity
  8
1
 62
     1
100
AcDbLine
 10
20.0
 20
-0.51689125
 30
0.0
 11
19.9370690749207
 21
-0.6258907587836033
 31
0.0
  0
ARC
  5
48E
330
18
100
AcDbEntity
  8
1
 62
     1
100
AcDbCircle
 10
18.33655076238977
 20
-0.9592841065790987
 30
0.0
 40
1.601135543950675
100
AcDbArc
 50
29.27213695530797
 51
34.88214903830699
  0
LINE
  5
48F
330
18
100
AcDbEntity
  8
1
 62
     1
100
AcDbLine
 10
19.65
 20
-0.51689125
 30
0.0
 11
19.65000000000001
 21
-0.5167784901520883
 31
0.0
  0
LINE
  5
490
330
18
100
AcDbEntity
  8
1
 62
     1
100
AcDbLine
 10
19.65000000000001
 20
-0.5167784901520883
 30
0.0
 11
19.65000000000001
 21
-0.4805932699495781
 31
0.0
  0
LINE
  5
491
330
18
100
AcDbEntity
  8
1
 62
     1
100
AcDbLine
 10
19.65000000000001
 20
-0.4805932699495781
 30
0.0
 11
19.65
 21
-0.043617459141442
 31
0.0
  0
LINE
  5
492
330
18
100
AcDbEntity
  8
1
 62
     1
100
AcDbLine
 10
19.73329149790693
 20
-0.6611562889496867
 30
0.0
 11
19.65
 21
-0.51689125
 31
0.0
  0
LINE
  5
493
330
18
100
AcDbEntity
  8
1
 62
     1
100
AcDbLine
 10
19.73329149790693
 20
-0.1763626584063207
 30
0.0
 11
19.73329149790693
 21
-0.6611562889496901
 31
0.0
  0
LINE
  5
494
330
18
100
AcDbEntity
  8
1
 62
     1
100
AcDbLine
 10
18.78654701076759
 20
-0.6678443773931233
 30
0.0
 11
18.76345298923241
 21
-0.6814864470257025
 31
0.0
  0
LINE
  5
495
330
18
100
AcDbEntity
  8
1
 62
     1
100
AcDbLine
 10
18.08654701076759
 20
-0.7431844559648833
 30
0.0
 11
18.08654701076759
 21
-0.8
 31
0.0
  0
LINE
  5
496
330
18
100
AcDbEntity
  8
1
 62
     1
100
AcDbLine
 10
17.36345298923241
 20
-0.1571642104729836
 30
0.0
 11
17.36345298923241
 21
-0.8
 31
0.0
  0
LINE
  5
497
330
18
100
AcDbEntity
  8
1
 62
     1
100
AcDbLine
 10
16.66345298923241
 20
0.5536964473380896
 30
0.0
 11
16.66345298923241
 21
-0.6758568395921588
 31
0.0
  0
LINE
  5
498
330
18
100
AcDbEntity
  8
1
 62
     1
100
AcDbLine
 10
16.33654701076759
 20
-0.4228401302434582
 30
0.0
 11
16.31345298923241
 21
-0.4010732274574461
 31
0.0
  0
LINE
  5
499
330
18
100
AcDbEntity
  8
1
 62
     1
100
AcDbLine
 10
15.26345298923242
 20
0.8
 30
0.0
 11
15.2865470107676
 21
0.8
 31
0.0
  0
LINE
  5
49A
330
18
100
AcDbEntity
  8
1
 62
     1
100
AcDbLine
 10
14.91345298923241
 20
0.8
 30
0.0
 11
14.9365470107676
 21
0.8
 31
0.0
  0
ARC
  5
49B
330
18
100
AcDbEntity
  8
1
 62
     1
100
AcDbCircle
 10
9.459174817595091
 20
4.593172431707343
 30
0.0
 40
8.453859707616202
100
AcDbArc
 50
330.9582010749207
 51
333.3208726078956
  0
ARC
  5
49C
330
18
100
AcDbEntity
  8
1
 62
     1
100
AcDbCircle
 10
-32.20021158505152
 20
-39.59129776458528
 30
0.0
 40
63.34365133861915
100
AcDbArc
 50
39.25344187043184
 51
39.48692408666442
  0
ARC
  5
49D
330
18
100
AcDbEntity
  8
1
 62
     1
100
AcDbCircle
 10
36.55248690962861
 20
10.78563759907805
 30
0.0
 40
20.68773025953499
100
AcDbArc
 50
208.8739452106614
 51
209.797202642745
  0
LINE
  5
49E
330
18
100
AcDbEntity
  8
1
 62
     1
100
AcDbLine
 10
18.4365470107676
 20
0.79584732003005
 30
0.0
 11
18.4365470107676
 21
-0.2377853018526404
 31
0.0
  0
ARC
  5
49F
330
18
100
AcDbEntity
  8
1
 62
     1
100
AcDbCircle
 10
17.38164844070607
 20
-0.7345648959619477
 30
0.0
 40
1.125356478180421
100
AcDbArc
 50
46.73054238398304
 51
51.21635908320976
  0
LINE
  5
4A0
330
18
100
AcDbEntity
  8
1
 62
     1
100
AcDbLine
 10
18.15302111896856
 20
0.0848706325752551
 30
0.0
 11
18.15345114739285
 21
0.0844695189781745
 31
0.0
  0
LINE
  5
4A1
330
18
100
AcDbEntity
  8
1
 62
     1
100
AcDbLine
 10
18.08654701076759
 20
0.8
 30
0.0
 11
18.08654701076759
 21
0.7998484263772757
 31
0.0
  0
LINE
  5
4A2
330
18
100
AcDbEntity
  8
1
 62
     1
100
AcDbLine
 10
18.08654701076759
 20
0.7998484263772757
 30
0.0
 11
18.08654701076759
 21
0.7514595968440433
 31
0.0
  0
LINE
  5
4A3
330
18
100
AcDbEntity
  8
1
 62
     1
100
AcDbLine
 10
18.08654701076759
 20
0.7514595968440433
 30
0.0
 11
18.08654701076759
 21
0.1426648895375003
 31
0.0
  0
ARC
  5
4A4
330
18
100
AcDbEntity
  8
1
 62
     1
100
AcDbCircle
 10
18.20662712884092
 20
-0.1385754653941717
 30
0.0
 40
0.1327327707435468
100
AcDbArc
 50
49.31164257841442
 51
70.92449404228634
  0
LINE
  5
4A5
330
18
100
AcDbEntity
  8
1
 62
     1
100
AcDbLine
 10
18.41345298923242
 20
0.7980300649533112
 30
0.0
 11
18.41345298923242
 21
0.4482432221355392
 31
0.0
  0
LINE
  5
4A6
330
18
100
AcDbEntity
  8
1
 62
     1
100
AcDbLine
 10
18.41345298923242
 20
0.4482432221355392
 30
0.0
 11
18.41345298923241
 21
-0.2134227680294313
 31
0.0
  0
LINE
  5
4A7
330
18
100
AcDbEntity
  8
1
 62
     1
100
AcDbLine
 10
18.25
 20
-0.0131486989400977
 30
0.0
 11
18.25
 21
0.51689125
 31
0.0
  0
ARC
  5
4A8
330
18
100
AcDbEntity
  8
1
 62
     1
100
AcDbCircle
 10
22.16420634635213
 20
-4.570275813334405
 30
0.0
 40
5.239988308161903
100
AcDbArc
 50
127.8328906417986
 51
130.1357752907017
  0
ARC
  5
4A9
330
18
100
AcDbEntity
  8
1
 62
     1
100
AcDbCircle
 10
21.31549355810977
 20
2.00947918388705
 30
0.0
 40
2.862736148776154
100
AcDbArc
 50
207.9464572944929
 51
214.2706656846997
  0
LINE
  5
4AA
330
18
100
AcDbEntity
  8
1
 62
     1
100
AcDbLine
 10
18.78654701076759
 20
0.6678443773931195
 30
0.0
 11
18.78654701076759
 21
-0.5642558468639387
 31
0.0
  0
LINE
  5
4AB
330
18
100
AcDbEntity
  8
1
 62
     1
100
AcDbLine
 10
17.2
 20
0.5108538210929117
 30
0.0
 11
17.24496559932529
 21
0.5836577340957165
 31
0.0
  0
LINE
  5
4AC
330
18
100
AcDbEntity
  8
1
 62
     1
100
AcDbLine
 10
17.24496559932529
 20
0.5836577340957165
 30
0.0
 11
17.28729123191562
 21
0.6466691538745639
 31
0.0
  0
LINE
  5
4AD
330
18
100
AcDbEntity
  8
1
 62
     1
100
AcDbLine
 10
17.28729123191562
 20
0.6466691538745639
 30
0.0
 11
17.3073783757541
 21
0.6739432926707637
 31
0.0
  0
LINE
  5
4AE
330
18
100
AcDbEntity
  8
1
 62
     1
100
AcDbLine
 10
17.3073783757541
 20
0.6739432926707637
 30
0.0
 11
17.32675532594375
 21
0.6982297568325572
 31
0.0
  0
LINE
  5
4AF
330
18
100
AcDbEntity
  8
1
 62
     1
100
AcDbLine
 10
17.32675532594375
 20
0.6982297568325572
 30
0.0
 11
17.34544092185625
 21
0.7194602102960272
 31
0.0
  0
LINE
  5
4B0
330
18
100
AcDbEntity
  8
1
 62
     1
100
AcDbLine
 10
17.34544092185625
 20
0.7194602102960272
 30
0.0
 11
17.36345298923241
 21
0.7375947922923111
 31
0.0
  0
LINE
  5
4B1
330
18
100
AcDbEntity
  8
1
 62
     1
100
AcDbLine
 10
17.36345298923241
 20
0.8
 30
0.0
 11
17.36345298923241
 21
0.7999864616602685
 31
0.0
  0
LINE
  5
4B2
330
18
100
AcDbEntity
  8
1
 62
     1
100
AcDbLine
 10
17.36345298923241
 20
0.7999864616602685
 30
0.0
 11
17.36345298923242
 21
0.7959423686982517
 31
0.0
  0
LINE
  5
4B3
330
18
100
AcDbEntity
  8
1
 62
     1
100
AcDbLine
 10
17.36345298923242
 20
0.7959423686982517
 30
0.0
 11
17.36345298923242
 21
0.7375947922923107
 31
0.0
  0
LINE
  5
4B4
330
18
100
AcDbEntity
  8
1
 62
     1
100
AcDbLine
 10
17.20000000000001
 20
0.5108538210929117
 30
0.0
 11
17.2
 21
0.51689125
 31
0.0
  0
LINE
  5
4B5
330
18
100
AcDbEntity
  8
1
 62
     1
100
AcDbLine
 10
17.03654701076759
 20
0.7989294153345964
 30
0.0
 11
17.09985348547954
 21
0.6903500323734242
 31
0.0
  0
ARC
  5
4B6
330
18
100
AcDbEntity
  8
1
 62
     1
100
AcDbCircle
 10
11.925723149819
 20
-2.344605449689311
 30
0.0
 40
6.265580085097339
100
AcDbArc
 50
26.14696800828899
 51
29.36001666419322
  0
LINE
  5
4B7
330
18
100
AcDbEntity
  8
1
 62
     1
100
AcDbLine
 10
17.38654701076759
 20
0.8
 30
0.0
 11
17.38654701076759
 21
0.7999843391915772
 31
0.0
  0
LINE
  5
4B8
330
18
100
AcDbEntity
  8
1
 62
     1
100
AcDbLine
 10
17.38654701076759
 20
0.7999843391915772
 30
0.0
 11
17.38654701076759
 21
0.7952941708515455
 31
0.0
  0
LINE
  5
4B9
330
18
100
AcDbEntity
  8
1
 62
     1
100
AcDbLine
 10
17.38654701076759
 20
0.7952941708515455
 30
0.0
 11
17.38654701076758
 21
0.7273919228134413
 31
0.0
  0
LINE
  5
4BA
330
18
100
AcDbEntity
  8
1
 62
     1
100
AcDbLine
 10
17.55
 20
0.416418629121327
 30
0.0
 11
17.57277066145492
 21
0.4425561645568865
 31
0.0
  0
LINE
  5
4BB
330
18
100
AcDbEntity
  8
1
 62
     1
100
AcDbLine
 10
17.57277066145492
 20
0.4425561645568865
 30
0.0
 11
17.58394852671972
 21
0.4540332597303114
 31
0.0
  0
LINE
  5
4BC
330
18
100
AcDbEntity
  8
1
 62
     1
100
AcDbLine
 10
17.58394852671972
 20
0.4540332597303114
 30
0.0
 11
17.59496348912773
 21
0.4644454622602065
 31
0.0
  0
LINE
  5
4BD
330
18
100
AcDbEntity
  8
1
 62
     1
100
AcDbLine
 10
17.59496348912773
 20
0.4644454622602065
 30
0.0
 11
17.60581065952537
 21
0.4738023554668881
 31
0.0
  0
LINE
  5
4BE
330
18
100
AcDbEntity
  8
1
 62
     1
100
AcDbLine
 10
17.60581065952537
 20
0.4738023554668881
 30
0.0
 11
17.61648320109803
 21
0.4821102351541108
 31
0.0
  0
LINE
  5
4BF
330
18
100
AcDbEntity
  8
1
 62
     1
100
AcDbLine
 10
17.61648320109803
 20
0.4821102351541108
 30
0.0
 11
17.62698156111006
 21
0.4893831331844386
 31
0.0
  0
LINE
  5
4C0
330
18
100
AcDbEntity
  8
1
 62
     1
100
AcDbLine
 10
17.62698156111006
 20
0.4893831331844386
 30
0.0
 11
17.63729314697138
 21
0.495625485951989
 31
0.0
  0
LINE
  5
4C1
330
18
100
AcDbEntity
  8
1
 62
     1
100
AcDbLine
 10
17.63729314697138
 20
0.495625485951989
 30
0.0
 11
17.64238249861844
 21
0.4983666104583398
 31
0.0
  0
LINE
  5
4C2
330
18
100
AcDbEntity
  8
1
 62
     1
100
AcDbLine
 10
17.64238249861844
 20
0.4983666104583398
 30
0.0
 11
17.64742790150411
 21
0.5008572566272492
 31
0.0
  0
LINE
  5
4C3
330
18
100
AcDbEntity
  8
1
 62
     1
100
AcDbLine
 10
17.64742790150411
 20
0.5008572566272492
 30
0.0
 11
17.65242819622456
 21
0.5030987651886659
 31
0.0
  0
LINE
  5
4C4
330
18
100
AcDbEntity
  8
1
 62
     1
100
AcDbLine
 10
17.65242819622456
 20
0.5030987651886659
 30
0.0
 11
17.65738222337594
 21
0.5050924768725389
 31
0.0
  0
LINE
  5
4C5
330
18
100
AcDbEntity
  8
1
 62
     1
100
AcDbLine
 10
17.65738222337594
 20
0.5050924768725389
 30
0.0
 11
17.66229022747218
 21
0.5068402923338647
 31
0.0
  0
LINE
  5
4C6
330
18
100
AcDbEntity
  8
1
 62
     1
100
AcDbLine
 10
17.66229022747218
 20
0.5068402923338647
 30
0.0
 11
17.66715576894026
 21
0.5083456436493486
 31
0.0
  0
LINE
  5
4C7
330
18
100
AcDbEntity
  8
1
 62
     1
100
AcDbLine
 10
17.66715576894026
 20
0.5083456436493486
 30
0.0
 11
17.67197842824928
 21
0.509610608673547
 31
0.0
  0
LINE
  5
4C8
330
18
100
AcDbEntity
  8
1
 62
     1
100
AcDbLine
 10
17.67197842824928
 20
0.509610608673547
 30
0.0
 11
17.67675744813144
 21
0.5106371388064137
 31
0.0
  0
LINE
  5
4C9
330
18
100
AcDbEntity
  8
1
 62
     1
100
AcDbLine
 10
17.67675744813144
 20
0.5106371388064137
 30
0.0
 11
17.68149207131898
 21
0.5114271854479031
 31
0.0
  0
LINE
  5
4CA
330
18
100
AcDbEntity
  8
1
 62
     1
100
AcDbLine
 10
17.68149207131898
 20
0.5114271854479031
 30
0.0
 11
17.68618241318418
 21
0.5119828347623352
 31
0.0
  0
LINE
  5
4CB
330
18
100
AcDbEntity
  8
1
 62
     1
100
AcDbLine
 10
17.68618241318418
 20
0.5119828347623352
 30
0.0
 11
17.69083165144999
 21
0.5123067905113591
 31
0.0
  0
LINE
  5
4CC
330
18
100
AcDbEntity
  8
1
 62
     1
100
AcDbLine
 10
17.69083165144999
 20
0.5123067905113591
 30
0.0
 11
17.69543970709389
 21
0.5124014457894792
 31
0.0
  0
LINE
  5
4CD
330
18
100
AcDbEntity
  8
1
 62
     1
100
AcDbLine
 10
17.69543970709389
 20
0.5124014457894792
 30
0.0
 11
17.70000605557445
 21
0.5122691350242746
 31
0.0
  0
LINE
  5
4CE
330
18
100
AcDbEntity
  8
1
 62
     1
100
AcDbLine
 10
17.70000605557445
 20
0.5122691350242746
 30
0.0
 11
17.70453017235024
 21
0.5119121926433245
 31
0.0
  0
LINE
  5
4CF
330
18
100
AcDbEntity
  8
1
 62
     1
100
AcDbLine
 10
17.70453017235024
 20
0.5119121926433245
 30
0.0
 11
17.70901190281434
 21
0.5113329571521994
 31
0.0
  0
LINE
  5
4D0
330
18
100
AcDbEntity
  8
1
 62
     1
100
AcDbLine
 10
17.70901190281434
 20
0.5113329571521994
 30
0.0
 11
17.71345298923241
 21
0.5105338494482752
 31
0.0
  0
LINE
  5
4D1
330
18
100
AcDbEntity
  8
1
 62
     1
100
AcDbLine
 10
17.71345298923242
 20
0.8
 30
0.0
 11
17.71345298923242
 21
0.7999392408816923
 31
0.0
  0
LINE
  5
4D2
330
18
100
AcDbEntity
  8
1
 62
     1
100
AcDbLine
 10
17.71345298923242
 20
0.7999392408816923
 30
0.0
 11
17.71345298923242
 21
0.7811377080545783
 31
0.0
  0
LINE
  5
4D3
330
18
100
AcDbEntity
  8
1
 62
     1
100
AcDbLine
 10
17.71345298923242
 20
0.7811377080545783
 30
0.0
 11
17.71345298923241
 21
0.5105338494482602
 31
0.0
  0
LINE
  5
4D4
330
18
100
AcDbEntity
  8
1
 62
     1
100
AcDbLine
 10
17.55
 20
0.4164186291213269
 30
0.0
 11
17.55
 21
0.51689125
 31
0.0
  0
ARC
  5
4D5
330
18
100
AcDbEntity
  8
1
 62
     1
100
AcDbCircle
 10
14.75025813140948
 20
-1.546138395587327
 30
0.0
 40
3.614797194031189
100
AcDbArc
 50
29.38345672784394
 51
34.29684463660337
  0
LINE
  5
4D6
330
18
100
AcDbEntity
  8
1
 62
     1
100
AcDbLine
 10
17.9
 20
0.2274519447715889
 30
0.0
 11
17.9
 21
0.5168912475570213
 31
0.0
  0
LINE
  5
4D7
330
18
100
AcDbEntity
  8
1
 62
     1
100
AcDbLine
 10
17.73654701076759
 20
0.8
 30
0.0
 11
17.73654701076759
 21
0.7999349598160016
 31
0.0
  0
LINE
  5
4D8
330
18
100
AcDbEntity
  8
1
 62
     1
100
AcDbLine
 10
17.73654701076759
 20
0.7999349598160016
 30
0.0
 11
17.73654701076759
 21
0.7797665047530792
 31
0.0
  0
LINE
  5
4D9
330
18
100
AcDbEntity
  8
1
 62
     1
100
AcDbLine
 10
17.73654701076759
 20
0.7797665047530792
 30
0.0
 11
17.73654701076758
 21
0.4907287813850602
 31
0.0
  0
LINE
  5
4DA
330
18
100
AcDbEntity
  8
1
 62
     1
100
AcDbLine
 10
17.9
 20
0.2274519447715889
 30
0.0
 11
17.90478448830483
 21
0.2297648757098285
 31
0.0
  0
LINE
  5
4DB
330
18
100
AcDbEntity
  8
1
 62
     1
100
AcDbLine
 10
17.90478448830483
 20
0.2297648757098285
 30
0.0
 11
17.90955144797547
 21
0.2318311352534182
 31
0.0
  0
LINE
  5
4DC
330
18
100
AcDbEntity
  8
1
 62
     1
100
AcDbLine
 10
17.90955144797547
 20
0.2318311352534182
 30
0.0
 11
17.91429741056528
 21
0.2336534553297279
 31
0.0
  0
LINE
  5
4DD
330
18
100
AcDbEntity
  8
1
 62
     1
100
AcDbLine
 10
17.91429741056528
 20
0.2336534553297279
 30
0.0
 11
17.91901890762758
 21
0.2352345678661275
 31
0.0
  0
LINE
  5
4DE
330
18
100
AcDbEntity
  8
1
 62
     1
100
AcDbLine
 10
17.91901890762758
 20
0.2352345678661275
 30
0.0
 11
17.92371538889598
 21
0.2365781530284244
 31
0.0
  0
LINE
  5
4DF
330
18
100
AcDbEntity
  8
1
 62
     1
100
AcDbLine
 10
17.92371538889598
 20
0.2365781530284244
 30
0.0
 11
17.9283877201936
 21
0.2376883997268289
 31
0.0
  0
LINE
  5
4E0
330
18
100
AcDbEntity
  8
1
 62
     1
100
AcDbLine
 10
17.9283877201936
 20
0.2376883997268289
 30
0.0
 11
17.93303353569801
 21
0.2385684754489805
 31
0.0
  0
LINE
  5
4E1
330
18
100
AcDbEntity
  8
1
 62
     1
100
AcDbLine
 10
17.93303353569801
 20
0.2385684754489805
 30
0.0
 11
17.93765045914157
 21
0.2392215443317621
 31
0.0
  0
LINE
  5
4E2
330
18
100
AcDbEntity
  8
1
 62
     1
100
AcDbLine
 10
17.93765045914157
 20
0.2392215443317621
 30
0.0
 11
17.94223823669276
 21
0.239651051687759
 31
0.0
  0
LINE
  5
4E3
330
18
100
AcDbEntity
  8
1
 62
     1
100
AcDbLine
 10
17.94223823669276
 20
0.239651051687759
 30
0.0
 11
17.94679818209519
 21
0.2398607199803681
 31
0.0
  0
LINE
  5
4E4
330
18
100
AcDbEntity
  8
1
 62
     1
100
AcDbLine
 10
17.94679818209519
 20
0.2398607199803681
 30
0.0
 11
17.95132867571995
 21
0.239853930661639
 31
0.0
  0
LINE
  5
4E5
330
18
100
AcDbEntity
  8
1
 62
     1
100
AcDbLine
 10
17.95132867571995
 20
0.239853930661639
 30
0.0
 11
17.95582806364502
 21
0.2396340608994941
 31
0.0
  0
LINE
  5
4E6
330
18
100
AcDbEntity
  8
1
 62
     1
100
AcDbLine
 10
17.95582806364502
 20
0.2396340608994941
 30
0.0
 11
17.9602965324087
 21
0.2392042856412178
 31
0.0
  0
LINE
  5
4E7
330
18
100
AcDbEntity
  8
1
 62
     1
100
AcDbLine
 10
17.9602965324087
 20
0.2392042856412178
 30
0.0
 11
17.96473618809157
 21
0.2385676522186408
 31
0.0
  0
LINE
  5
4E8
330
18
100
AcDbEntity
  8
1
 62
     1
100
AcDbLine
 10
17.96473618809157
 20
0.2385676522186408
 30
0.0
 11
17.9691460247016
 21
0.2377276153266111
 31
0.0
  0
LINE
  5
4E9
330
18
100
AcDbEntity
  8
1
 62
     1
100
AcDbLine
 10
17.9691460247016
 20
0.2377276153266111
 30
0.0
 11
17.97352496037588
 21
0.2366876387274132
 31
0.0
  0
LINE
  5
4EA
330
18
100
AcDbEntity
  8
1
 62
     1
100
AcDbLine
 10
17.97352496037588
 20
0.2366876387274132
 30
0.0
 11
17.97787191325152
 21
0.2354511861833317
 31
0.0
  0
LINE
  5
4EB
330
18
100
AcDbEntity
  8
1
 62
     1
100
AcDbLine
 10
17.97787191325152
 20
0.2354511861833317
 30
0.0
 11
17.9821858014656
 21
0.2340217214566506
 31
0.0
  0
LINE
  5
4EC
330
18
100
AcDbEntity
  8
1
 62
     1
100
AcDbLine
 10
17.9821858014656
 20
0.2340217214566506
 30
0.0
 11
17.98646694873385
 21
0.2324022360818785
 31
0.0
  0
LINE
  5
4ED
330
18
100
AcDbEntity
  8
1
 62
     1
100
AcDbLine
 10
17.98646694873385
 20
0.2324022360818785
 30
0.0
 11
17.99071828098748
 21
0.2305948959167
 31
0.0
  0
LINE
  5
4EE
330
18
100
AcDbEntity
  8
1
 62
     1
100
AcDbLine
 10
17.99071828098748
 20
0.2305948959167
 30
0.0
 11
17.99493933396572
 21
0.2286030544783129
 31
0.0
  0
LINE
  5
4EF
330
18
100
AcDbEntity
  8
1
 62
     1
100
AcDbLine
 10
17.99493933396572
 20
0.2286030544783129
 30
0.0
 11
17.99912943604792
 21
0.2264301362381707
 31
0.0
  0
LINE
  5
4F0
330
18
100
AcDbEntity
  8
1
 62
     1
100
AcDbLine
 10
17.99912943604792
 20
0.2264301362381707
 30
0.0
 11
18.00328791561343
 21
0.2240795656677271
 31
0.0
  0
LINE
  5
4F1
330
18
100
AcDbEntity
  8
1
 62
     1
100
AcDbLine
 10
18.00328791561343
 20
0.2240795656677271
 30
0.0
 11
18.01150814613919
 21
0.2188586471255969
 31
0.0
  0
LINE
  5
4F2
330
18
100
AcDbEntity
  8
1
 62
     1
100
AcDbLine
 10
18.01150814613919
 20
0.2188586471255969
 30
0.0
 11
18.01960759258819
 21
0.2129596351468939
 31
0.0
  0
LINE
  5
4F3
330
18
100
AcDbEntity
  8
1
 62
     1
100
AcDbLine
 10
18.01960759258819
 20
0.2129596351468939
 30
0.0
 11
18.02758676157003
 21
0.2064064457146828
 31
0.0
  0
LINE
  5
4F4
330
18
100
AcDbEntity
  8
1
 62
     1
100
AcDbLine
 10
18.02758676157003
 20
0.2064064457146828
 30
0.0
 11
18.03349009482375
 21
0.2010781646744147
 31
0.0
  0
LINE
  5
4F5
330
18
100
AcDbEntity
  8
1
 62
     1
100
AcDbLine
 10
18.03349009482375
 20
0.2010781646744147
 30
0.0
 11
18.0393264876603
 21
0.19540411125415
 31
0.0
  0
LINE
  5
4F6
330
18
100
AcDbEntity
  8
1
 62
     1
100
AcDbLine
 10
18.06345298923242
 20
0.8
 30
0.0
 11
18.06345298923242
 21
0.7998555982882343
 31
0.0
  0
LINE
  5
4F7
330
18
100
AcDbEntity
  8
1
 62
     1
100
AcDbLine
 10
18.06345298923242
 20
0.7998555982882343
 30
0.0
 11
18.06345298923242
 21
0.7538382407930795
 31
0.0
  0
LINE
  5
4F8
330
18
100
AcDbEntity
  8
1
 62
     1
100
AcDbLine
 10
18.06345298923242
 20
0.7538382407930795
 30
0.0
 11
18.06345298923242
 21
0.1675763854753983
 31
0.0
  0
LINE
  5
4F9
330
18
100
AcDbEntity
  8
1
 62
     1
100
AcDbLine
 10
18.6
 20
-0.2507644809973486
 30
0.0
 11
18.61144941163424
 21
-0.2638680142018182
 31
0.0
  0
LINE
  5
4FA
330
18
100
AcDbEntity
  8
1
 62
     1
100
AcDbLine
 10
18.61144941163424
 20
-0.2638680142018182
 30
0.0
 11
18.62277175630954
 21
-0.2780856197175422
 31
0.0
  0
LINE
  5
4FB
330
18
100
AcDbEntity
  8
1
 62
     1
100
AcDbLine
 10
18.62277175630954
 20
-0.2780856197175422
 30
0.0
 11
18.63395014405859
 21
-0.2933139251259856
 31
0.0
  0
LINE
  5
4FC
330
18
100
AcDbEntity
  8
1
 62
     1
100
AcDbLine
 10
18.63395014405859
 20
-0.2933139251259856
 30
0.0
 11
18.655813267334
 21
-0.3263944912349042
 31
0.0
  0
LINE
  5
4FD
330
18
100
AcDbEntity
  8
1
 62
     1
100
AcDbLine
 10
18.655813267334
 20
-0.3263944912349042
 30
0.0
 11
18.67697576495069
 21
-0.3623945732826377
 31
0.0
  0
LINE
  5
4FE
330
18
100
AcDbEntity
  8
1
 62
     1
100
AcDbLine
 10
18.67697576495069
 20
-0.3623945732826377
 30
0.0
 11
18.69742689455295
 21
-0.4007196185213025
 31
0.0
  0
LINE
  5
4FF
330
18
100
AcDbEntity
  8
1
 62
     1
100
AcDbLine
 10
18.69742689455295
 20
-0.4007196185213025
 30
0.0
 11
18.71715636232793
 21
-0.4408171748938263
 31
0.0
  0
LINE
  5
500
330
18
100
AcDbEntity
  8
1
 62
     1
100
AcDbLine
 10
18.71715636232793
 20
-0.4408171748938263
 30
0.0
 11
18.76345298923241
 21
-0.5459726655658209
 31
0.0
  0
LINE
  5
501
330
18
100
AcDbEntity
  8
1
 62
     1
100
AcDbLine
 10
18.76345298923242
 20
0.6814864470256988
 30
0.0
 11
18.76345298923242
 21
-0.545972665565817
 31
0.0
  0
ARC
  5
502
330
18
100
AcDbEntity
  8
1
 62
     1
100
AcDbCircle
 10
19.24551052152735
 20
0.0738371163624326
 30
0.0
 40
0.7763077010255397
100
AcDbArc
 50
128.4255070717101
 51
146.2400667993971
  0
LINE
  5
503
330
18
100
AcDbEntity
  8
1
 62
     1
100
AcDbLine
 10
18.6
 20
-0.2507644809973482
 30
0.0
 11
18.6
 21
0.505315350168322
 31
0.0
  0
ARC
  5
504
330
18
100
AcDbEntity
  8
1
 62
     1
100
AcDbCircle
 10
7.282136493783085
 20
-4.275516921753546
 30
0.0
 40
9.088571851995843
100
AcDbArc
 50
23.55659793726364
 51
26.01244780059274
  0
LINE
  5
505
330
18
100
AcDbEntity
  8
1
 62
     1
100
AcDbLine
 10
15.61345298923241
 20
-0.6431674085099851
 30
0.0
 11
15.61345298923241
 21
-0.8
 31
0.0
  0
LINE
  5
506
330
18
100
AcDbEntity
  8
1
 62
     1
100
AcDbLine
 10
15.28654701076759
 20
-0.3726724892173091
 30
0.0
 11
15.29643023963805
 21
-0.3709678645074946
 31
0.0
  0
LINE
  5
507
330
18
100
AcDbEntity
  8
1
 62
     1
100
AcDbLine
 10
15.29643023963805
 20
-0.3709678645074946
 30
0.0
 11
15.3063660320565
 21
-0.3688081875990948
 31
0.0
  0
LINE
  5
508
330
18
100
AcDbEntity
  8
1
 62
     1
100
AcDbLine
 10
15.3063660320565
 20
-0.3688081875990948
 30
0.0
 11
15.31635115883537
 21
-0.3661909818891946
 31
0.0
  0
LINE
  5
509
330
18
100
AcDbEntity
  8
1
 62
     1
100
AcDbLine
 10
15.31635115883537
 20
-0.3661909818891946
 30
0.0
 11
15.32638239078713
 21
-0.3631137707748794
 31
0.0
  0
LINE
  5
50A
330
18
100
AcDbEntity
  8
1
 62
     1
100
AcDbLine
 10
15.32638239078713
 20
-0.3631137707748794
 30
0.0
 11
15.33646051115522
 21
-0.3595728488706784
 31
0.0
  0
LINE
  5
50B
330
18
100
AcDbEntity
  8
1
 62
     1
100
AcDbLine
 10
15.33646051115522
 20
-0.3595728488706784
 30
0.0
 11
15.34658828048477
 21
-0.3555647839089172
 31
0.0
  0
LINE
  5
50C
330
18
100
AcDbEntity
  8
1
 62
     1
100
AcDbLine
 10
15.34658828048477
 20
-0.3555647839089172
 30
0.0
 11
15.35676163660184
 21
-0.3510888597098619
 31
0.0
  0
LINE
  5
50D
330
18
100
AcDbEntity
  8
1
 62
     1
100
AcDbLine
 10
15.35676163660184
 20
-0.3510888597098619
 30
0.0
 11
15.36697642304109
 21
-0.3461443933061485
 31
0.0
  0
LINE
  5
50E
330
18
100
AcDbEntity
  8
1
 62
     1
100
AcDbLine
 10
15.36697642304109
 20
-0.3461443933061485
 30
0.0
 11
15.38752743892037
 21
-0.334841795322387
 31
0.0
  0
LINE
  5
50F
330
18
100
AcDbEntity
  8
1
 62
     1
100
AcDbLine
 10
15.38752743892037
 20
-0.334841795322387
 30
0.0
 11
15.40822966501919
 21
-0.3216484358581647
 31
0.0
  0
LINE
  5
510
330
18
100
AcDbEntity
  8
1
 62
     1
100
AcDbLine
 10
15.40822966501919
 20
-0.3216484358581647
 30
0.0
 11
15.42906357173164
 21
-0.3065616222576202
 31
0.0
  0
LINE
  5
511
330
18
100
AcDbEntity
  8
1
 62
     1
100
AcDbLine
 10
15.42906357173164
 20
-0.3065616222576202
 30
0.0
 11
15.45
 21
-0.2895868420392417
 31
0.0
  0
LINE
  5
512
330
18
100
AcDbEntity
  8
1
 62
     1
100
AcDbLine
 10
15.2865470107676
 20
-0.3726724892173159
 30
0.0
 11
15.2865470107676
 21
-0.8
 31
0.0
  0
LINE
  5
513
330
18
100
AcDbEntity
  8
1
 62
     1
100
AcDbLine
 10
15.45
 20
-0.51689125
 30
0.0
 11
15.2865470107676
 21
-0.799999999999987
 31
0.0
  0
LINE
  5
514
330
18
100
AcDbEntity
  8
1
 62
     1
100
AcDbLine
 10
15.45
 20
-0.51689125
 30
0.0
 11
15.45
 21
-0.5168431811915605
 31
0.0
  0
LINE
  5
515
330
18
100
AcDbEntity
  8
1
 62
     1
100
AcDbLine
 10
15.45
 20
-0.5168431811915605
 30
0.0
 11
15.45
 21
-0.5018738374311055
 31
0.0
  0
LINE
  5
516
330
18
100
AcDbEntity
  8
1
 62
     1
100
AcDbLine
 10
15.45
 20
-0.5018738374311055
 30
0.0
 11
15.45
 21
-0.2895868420392415
 31
0.0
  0
ARC
  5
517
330
18
100
AcDbEntity
  8
1
 62
     1
100
AcDbCircle
 10
14.63934142776028
 20
0.3088317271285986
 30
0.0
 40
1.388981034863472
100
AcDbArc
 50
315.8877081924023
 51
326.6564906360804
  0
LINE
  5
518
330
18
100
AcDbEntity
  8
1
 62
     1
100
AcDbLine
 10
15.63654701076758
 20
-0.65794263360997
 30
0.0
 11
15.63654701076758
 21
-0.8
 31
0.0
  0
LINE
  5
519
330
18
100
AcDbEntity
  8
1
 62
     1
100
AcDbLine
 10
15.8
 20
-0.51689125
 30
0.0
 11
15.63654701076758
 21
-0.8000000000000056
 31
0.0
  0
LINE
  5
51A
330
18
100
AcDbEntity
  8
1
 62
     1
100
AcDbLine
 10
15.8
 20
-0.51689125
 30
0.0
 11
15.8
 21
-0.5168780040286379
 31
0.0
  0
LINE
  5
51B
330
18
100
AcDbEntity
  8
1
 62
     1
100
AcDbLine
 10
15.8
 20
-0.5168780040286379
 30
0.0
 11
15.8
 21
-0.5128903537531094
 31
0.0
  0
LINE
  5
51C
330
18
100
AcDbEntity
  8
1
 62
     1
100
AcDbLine
 10
15.8
 20
-0.5128903537531094
 30
0.0
 11
15.8
 21
-0.4548407705384948
 31
0.0
  0
ARC
  5
51D
330
18
100
AcDbEntity
  8
1
 62
     1
100
AcDbCircle
 10
25.58421270937564
 20
4.099305577349362
 30
0.0
 40
10.79214980972043
100
AcDbArc
 50
204.9600302102797
 51
206.9413187281932
  0
LINE
  5
51E
330
18
100
AcDbEntity
  8
1
 62
     1
100
AcDbLine
 10
15.96345298923242
 20
-0.8000000000000026
 30
0.0
 11
15.8
 21
-0.51689125
 31
0.0
  0
LINE
  5
51F
330
18
100
AcDbEntity
  8
1
 62
     1
100
AcDbLine
 10
15.96345298923242
 20
-0.7903113066106354
 30
0.0
 11
15.96345298923242
 21
-0.8
 31
0.0
  0
ARC
  5
520
330
18
100
AcDbEntity
  8
1
 62
     1
100
AcDbCircle
 10
6.453310011666048
 20
5.011663845976738
 30
0.0
 40
11.16186354184589
100
AcDbArc
 50
328.6595704783551
 51
330.3106542729898
  0
LINE
  5
521
330
18
100
AcDbEntity
  8
1
 62
     1
100
AcDbLine
 10
15.98654701076759
 20
-0.793852759427996
 30
0.0
 11
15.98654701076759
 21
-0.8
 31
0.0
  0
LINE
  5
522
330
18
100
AcDbEntity
  8
1
 62
     1
100
AcDbLine
 10
16.15
 20
-0.51689125
 30
0.0
 11
15.98654701076759
 21
-0.8000000000000025
 31
0.0
  0
LINE
  5
523
330
18
100
AcDbEntity
  8
1
 62
     1
100
AcDbLine
 10
16.15
 20
-0.51689125
 30
0.0
 11
16.15
 21
-0.516891249999995
 31
0.0
  0
LINE
  5
524
330
18
100
AcDbEntity
  8
1
 62
     1
100
AcDbLine
 10
16.15
 20
-0.516891249999995
 30
0.0
 11
16.15
 21
-0.5168912499985552
 31
0.0
  0
LINE
  5
525
330
18
100
AcDbEntity
  8
1
 62
     1
100
AcDbLine
 10
16.15
 20
-0.5168912499985552
 30
0.0
 11
16.15
 21
-0.5168912496274153
 31
0.0
  0
LINE
  5
526
330
18
100
AcDbEntity
  8
1
 62
     1
100
AcDbLine
 10
16.15
 20
-0.5168912496274153
 30
0.0
 11
16.15
 21
-0.5168911545521357
 31
0.0
  0
LINE
  5
527
330
18
100
AcDbEntity
  8
1
 62
     1
100
AcDbLine
 10
16.15
 20
-0.5168911545521357
 30
0.0
 11
16.15
 21
-0.5168843407133307
 31
0.0
  0
LINE
  5
528
330
18
100
AcDbEntity
  8
1
 62
     1
100
AcDbLine
 10
16.15
 20
-0.5168843407133307
 30
0.0
 11
16.15
 21
-0.5168409720871093
 31
0.0
  0
LINE
  5
529
330
18
100
AcDbEntity
  8
1
 62
     1
100
AcDbLine
 10
16.15
 20
-0.5168409720871092
 30
0.0
 11
16.15567968492224
 21
-0.526728748269562
 31
0.0
  0
LINE
  5
52A
330
18
100
AcDbEntity
  8
1
 62
     1
100
AcDbLine
 10
16.15567968492224
 20
-0.5267287482695616
 30
0.0
 11
16.15
 21
-0.51689125
 31
0.0
  0
ARC
  5
52B
330
18
100
AcDbEntity
  8
1
 62
     1
100
AcDbCircle
 10
17.61139888748134
 20
0.2934760998072217
 30
0.0
 40
1.670813058325194
100
AcDbArc
 50
209.39848335171
 51
219.0124314261222
  0
ARC
  5
52C
330
18
100
AcDbEntity
  8
1
 62
     1
100
AcDbCircle
 10
20.9812309126819
 20
-3.190894779504271
 30
0.0
 40
5.247179953287801
100
AcDbArc
 50
148.6556720322637
 51
152.2726271274724
  0
ARC
  5
52D
330
18
100
AcDbEntity
  8
1
 62
     1
100
AcDbCircle
 10
13.7124364573623
 20
1.904777220956043
 30
0.0
 40
3.196636214967089
100
AcDbArc
 50
334.6077340068987
 51
337.3912174312911
  0
ARC
  5
52E
330
18
100
AcDbEntity
  8
1
 62
     1
100
AcDbCircle
 10
16.77955763416881
 20
-0.1819199751058977
 30
0.0
 40
0.3953376591426653
100
AcDbArc
 50
225.0036050595703
 51
243.0122949582042
  0
ARC
  5
52F
330
18
100
AcDbEntity
  8
1
 62
     1
100
AcDbCircle
 10
15.09798167192844
 20
0.1997045126062682
 30
0.0
 40
0.2588581656360911
100
AcDbArc
 50
231.4387300535104
 51
270.4476969710751
  0
LINE
  5
530
330
18
100
AcDbEntity
  8
1
 62
     1
100
AcDbLine
 10
15.1
 20
-0.51689125
 30
0.0
 11
14.9365470107676
 21
-0.7999999999999873
 31
0.0
  0
LINE
  5
531
330
18
100
AcDbEntity
  8
1
 62
     1
100
AcDbLine
 10
15.1
 20
-0.51689125
 30
0.0
 11
15.1
 21
-0.516783207681895
 31
0.0
  0
LINE
  5
532
330
18
100
AcDbEntity
  8
1
 62
     1
100
AcDbLine
 10
15.1
 20
-0.516783207681895
 30
0.0
 11
15.1
 21
-0.482166464875091
 31
0.0
  0
LINE
  5
533
330
18
100
AcDbEntity
  8
1
 62
     1
100
AcDbLine
 10
15.1
 20
-0.482166464875091
 30
0.0
 11
15.1
 21
-0.0585936982906618
 31
0.0
  0
ARC
  5
534
330
18
100
AcDbEntity
  8
1
 62
     1
100
AcDbCircle
 10
13.26032276408544
 20
-1.278391996142023
 30
0.0
 40
2.20740924892422
100
AcDbArc
 50
24.86591996032804
 51
33.54637477456402
  0
LINE
  5
535
330
18
100
AcDbEntity
  8
1
 62
     1
100
AcDbLine
 10
15.26345298923242
 20
-0.8000000000000026
 30
0.0
 11
15.1
 21
-0.51689125
 31
0.0
  0
LINE
  5
536
330
18
100
AcDbEntity
  8
1
 62
     1
100
AcDbLine
 10
15.26345298923242
 20
-0.3500177083680228
 30
0.0
 11
15.26345298923242
 21
-0.8
 31
0.0
  0
LINE
  5
537
330
18
100
AcDbEntity
  8
1
 62
     1
100
AcDbLine
 10
14.91345298923241
 20
0.0225898012000944
 30
0.0
 11
14.91345298923241
 21
-0.8
 31
0.0
  0
ARC
  5
538
330
18
100
AcDbEntity
  8
1
 62
     1
100
AcDbCircle
 10
14.58879443433604
 20
-0.0939904800986762
 30
0.0
 40
0.3228251975173693
100
AcDbArc
 50
52.34446911232437
 51
60.04216824635215
  0
ARC
  5
539
330
18
100
AcDbEntity
  8
1
 62
     1
100
AcDbCircle
 10
4.738450505745385
 20
5.766554704385179
 30
0.0
 40
11.81955242997189
100
AcDbArc
 50
326.4289057908097
 51
327.8924584695684
  0
LINE
  5
53A
330
18
100
AcDbEntity
  8
1
 62
     1
100
AcDbLine
 10
14.75
 20
-0.5155149171644267
 30
0.0
 11
14.75
 21
-0.2667731457883393
 31
0.0
  0
LINE
  5
53B
330
18
100
AcDbEntity
  8
1
 62
     1
100
AcDbLine
 10
14.75
 20
-0.2667731457883393
 30
0.0
 11
14.75
 21
0.1857009288081993
 31
0.0
  0
ARC
  5
53C
330
18
100
AcDbEntity
  8
1
 62
     1
100
AcDbCircle
 10
15.28139573469767
 20
0.8236609112956179
 30
0.0
 40
0.8309623748857884
100
AcDbArc
 50
213.2726663168874
 51
230.2070239221808
  0
LINE
  5
53D
330
18
100
AcDbEntity
  8
1
 62
     1
100
AcDbLine
 10
14.5865470107676
 20
0.3677049816911739
 30
0.0
 11
14.5865470107676
 21
-0.7693458253836949
 31
0.0
  0
ARC
  5
53E
330
18
100
AcDbEntity
  8
1
 62
     1
100
AcDbCircle
 10
11.86060079082689
 20
-1.922889242816627
 30
0.0
 40
2.941020479360302
100
AcDbArc
 50
23.24382942788091
 51
30.29034490256546
  0
ARC
  5
53F
330
18
100
AcDbEntity
  8
1
 62
     1
100
AcDbCircle
 10
14.48390231026797
 20
0.2128602767388572
 30
0.0
 40
0.1940554544957989
100
AcDbArc
 50
65.82424665333282
 51
115.6176708522192
  0
ARC
  5
540
330
18
100
AcDbEntity
  8
1
 62
     1
100
AcDbCircle
 10
18.53904625647099
 20
-5.422304465515525
 30
0.0
 40
6.477280777256067
100
AcDbArc
 50
129.715588385325
 51
131.6249254410091
  0
LINE
  5
541
330
18
100
AcDbEntity
  8
1
 62
     1
100
AcDbLine
 10
14.4
 20
-0.4395581444136772
 30
0.0
 11
14.4
 21
0.3878393944426998
 31
0.0
  0
ARC
  5
542
330
18
100
AcDbEntity
  8
1
 62
     1
100
AcDbCircle
 10
16.59203327040969
 20
1.910238097275431
 30
0.0
 40
2.669138782706106
100
AcDbArc
 50
208.0580913945353
 51
214.7805359271648
  0
LINE
  5
543
330
18
100
AcDbEntity
  8
1
 62
     1
100
AcDbLine
 10
14.2365470107676
 20
0.6547388104133973
 30
0.0
 11
14.23654701076759
 21
-0.5805270662560895
 31
0.0
  0
LINE
  5
544
330
18
100
AcDbEntity
  8
1
 62
     1
100
AcDbLine
 10
14.05
 20
-0.2638170310164415
 30
0.0
 11
14.06144940880557
 21
-0.2773631276789017
 31
0.0
  0
LINE
  5
545
330
18
100
AcDbEntity
  8
1
 62
     1
100
AcDbLine
 10
14.06144940880557
 20
-0.2773631276789017
 30
0.0
 11
14.07277175389184
 21
-0.2919958132138966
 31
0.0
  0
LINE
  5
546
330
18
100
AcDbEntity
  8
1
 62
     1
100
AcDbLine
 10
14.07277175389184
 20
-0.2919958132138966
 30
0.0
 11
14.09496561006817
 21
-0.3241021246031698
 31
0.0
  0
LINE
  5
547
330
18
100
AcDbEntity
  8
1
 62
     1
100
AcDbLine
 10
14.09496561006817
 20
-0.3241021246031698
 30
0.0
 11
14.11648412564775
 21
-0.3593597681877251
 31
0.0
  0
LINE
  5
548
330
18
100
AcDbEntity
  8
1
 62
     1
100
AcDbLine
 10
14.11648412564775
 20
-0.3593597681877251
 30
0.0
 11
14.13729124880938
 21
-0.3971119980946964
 31
0.0
  0
LINE
  5
549
330
18
100
AcDbEntity
  8
1
 62
     1
100
AcDbLine
 10
14.13729124880938
 20
-0.3971119980946964
 30
0.0
 11
14.17675532054485
 21
-0.4779002036961561
 31
0.0
  0
LINE
  5
54A
330
18
100
AcDbEntity
  8
1
 62
     1
100
AcDbLine
 10
14.17675532054485
 20
-0.4779002036961561
 30
0.0
 11
14.21345298923242
 21
-0.5627646739955361
 31
0.0
  0
LINE
  5
54B
330
18
100
AcDbEntity
  8
1
 62
     1
100
AcDbLine
 10
14.21345298923242
 20
0.6689986378604478
 30
0.0
 11
14.21345298923241
 21
-0.5627646739955344
 31
0.0
  0
ARC
  5
54C
330
18
100
AcDbEntity
  8
1
 62
     1
100
AcDbCircle
 10
14.62655365515761
 20
0.1048635416662544
 30
0.0
 40
0.6999175017836607
100
AcDbArc
 50
126.2142955635268
 51
145.4449371094731
  0
LINE
  5
54D
330
18
100
AcDbEntity
  8
1
 62
     1
100
AcDbLine
 10
14.05
 20
-0.2638170310164431
 30
0.0
 11
14.05
 21
0.5019342392551142
 31
0.0
  0
LINE
  5
54E
330
18
100
AcDbEntity
  8
1
 62
     1
100
AcDbLine
 10
19.65
 20
0.4802152488150883
 30
0.0
 11
19.65
 21
0.51689125
 31
0.0
  0
ARC
  5
54F
330
18
100
AcDbEntity
  8
1
 62
     1
100
AcDbCircle
 10
20.38932706226206
 20
-0.0010669818581064
 30
0.0
 40
0.8821456074958522
100
AcDbArc
 50
138.0581050133736
 51
146.9369441839631
  0
LINE
  5
550
330
18
100
AcDbEntity
  8
1
 62
     1
100
AcDbLine
 10
19.73329149790693
 20
0.6611562889496901
 30
0.0
 11
19.73329149790693
 21
0.6611407142493224
 31
0.0
  0
LINE
  5
551
330
18
100
AcDbEntity
  8
1
 62
     1
100
AcDbLine
 10
19.73329149790693
 20
0.6611407142493224
 30
0.0
 11
19.73329149790693
 21
0.6564599240939051
 31
0.0
  0
LINE
  5
552
330
18
100
AcDbEntity
  8
1
 62
     1
100
AcDbLine
 10
19.73329149790693
 20
0.6564599240939051
 30
0.0
 11
19.73329149790693
 21
0.5884265128138897
 31
0.0
  0
LINE
  5
553
330
18
100
AcDbEntity
  8
1
 62
     1
100
AcDbLine
 10
19.9370690749207
 20
0.6258907587836019
 30
0.0
 11
19.9370690749207
 21
0.6258554975537884
 31
0.0
  0
LINE
  5
554
330
18
100
AcDbEntity
  8
1
 62
     1
100
AcDbLine
 10
19.9370690749207
 20
0.6258554975537884
 30
0.0
 11
19.9370690749207
 21
0.6150382810263845
 31
0.0
  0
LINE
  5
555
330
18
100
AcDbEntity
  8
1
 62
     1
100
AcDbLine
 10
19.9370690749207
 20
0.6150382810263845
 30
0.0
 11
19.9370690749207
 21
0.4574666968204357
 31
0.0
  0
LINE
  5
556
330
18
100
AcDbEntity
  8
1
 62
     1
100
AcDbLine
 10
19.9370690749207
 20
0.4574666968204383
 30
0.0
 11
20.0
 21
0.3372175929358489
 31
0.0
  0
ARC
  5
557
330
18
100
AcDbEntity
  8
1
 62
     1
100
AcDbCircle
 10
16.83531592220136
 20
1.690435592604602
 30
0.0
 40
2.461187986731383
100
AcDbArc
 50
329.232458979522
 51
336.7382882609782
  0
ARC
  5
558
330
18
100
AcDbEntity
  8
1
 62
     1
100
AcDbCircle
 10
11.44012832458554
 20
-4.500570630863439
 30
0.0
 40
9.323567261219912
100
AcDbArc
 50
32.53876391245689
 51
34.11390271891472
  0
ARC
  5
559
330
18
100
AcDbEntity
  8
1
 62
     1
100
AcDbCircle
 10
132.706607432926
 20
-63.64237534161752
 30
0.0
 40
130.296280238559
100
AcDbArc
 50
150.4237567995626
 51
150.5022186759904
  0
LINE
  5
55A
330
18
100
AcDbEntity
  8
1
 62
     1
100
AcDbLine
 10
19.38804672952071
 20
0.6693925750039791
 30
0.0
 11
19.38804773598344
 21
0.6693943182468679
 31
0.0
  0
LINE
  5
55B
330
18
100
AcDbEntity
  8
1
 62
     1
100
AcDbLine
 10
19.41508528443863
 20
0.71622471691193
 30
0.0
 11
19.41508528443863
 21
0.7162245299546499
 31
0.0
  0
LINE
  5
55C
330
18
100
AcDbEntity
  8
1
 62
     1
100
AcDbLine
 10
19.41508528443863
 20
0.7162245299546499
 30
0.0
 11
19.41508528443863
 21
0.716170428646624
 31
0.0
  0
LINE
  5
55D
330
18
100
AcDbEntity
  8
1
 62
     1
100
AcDbLine
 10
19.41508528443863
 20
0.716170428646624
 30
0.0
 11
19.41508528443863
 21
0.7154447192451635
 31
0.0
  0
LINE
  5
55E
330
18
100
AcDbEntity
  8
1
 62
     1
100
AcDbLine
 10
19.54821662216537
 20
0.6931851495784908
 30
0.0
 11
19.54821662216537
 21
0.6931812250890637
 31
0.0
  0
LINE
  5
55F
330
18
100
AcDbEntity
  8
1
 62
     1
100
AcDbLine
 10
19.54821662216537
 20
0.6931812250890637
 30
0.0
 11
19.54821662216537
 21
0.6920262155988899
 31
0.0
  0
LINE
  5
560
330
18
100
AcDbEntity
  8
1
 62
     1
100
AcDbLine
 10
19.54821662216537
 20
0.6920262155988899
 30
0.0
 11
19.54821662216537
 21
0.6758203999021831
 31
0.0
  0
ARC
  5
561
330
18
100
AcDbEntity
  8
1
 62
     1
100
AcDbCircle
 10
14.20518409095036
 20
-2.230975804451158
 30
0.0
 40
6.082543030831919
100
AcDbArc
 50
26.47054505424038
 51
28.54773399649387
  0
LINE
  5
562
330
18
100
AcDbEntity
  8
1
 62
     1
100
AcDbLine
 10
20.0
 20
0.3372175929358482
 30
0.0
 11
20.0
 21
0.5168912485413094
 31
0.0
  0
LINE
  5
563
330
18
100
AcDbEntity
  8
1
 62
     1
100
AcDbLine
 10
20.0
 20
-0.51689125
 30
0.0
 11
20.0
 21
-0.5168403587106218
 31
0.0
  0
LINE
  5
564
330
18
100
AcDbEntity
  8
1
 62
     1
100
AcDbLine
 10
20.0
 20
-0.5168403587106218
 30
0.0
 11
20.0
 21
-0.5009626196792207
 31
0.0
  0
LINE
  5
565
330
18
100
AcDbEntity
  8
1
 62
     1
100
AcDbLine
 10
20.0
 20
-0.5009626196792207
 30
0.0
 11
20.0
 21
-0.2769991988076095
 31
0.0
  0
ARC
  5
566
330
18
100
AcDbEntity
  8
1
 62
     1
100
AcDbCircle
 10
21.01960665047531
 20
1.435431273421984
 30
0.0
 40
2.062047767830742
100
AcDbArc
 50
231.4078830607885
 51
238.3326373960724
  0
LINE
  5
567
330
18
100
AcDbEntity
  8
1
 62
     1
100
AcDbLine
 10
19.54821662216536
 20
-0.0188931284756042
 30
0.0
 11
19.41508528443863
 21
0.1056346844992503
 31
0.0
  0
LINE
  5
568
330
18
100
AcDbEntity
  8
1
 62
     1
100
AcDbLine
 10
19.41508528443863
 20
0.1056346844992529
 30
0.0
 11
19.41508528443863
 21
-0.71622471691193
 31
0.0
  0
LINE
  5
569
330
18
100
AcDbEntity
  8
1
 62
     1
100
AcDbLine
 10
19.15936416941001
 20
-0.7284770568967249
 30
0.0
 11
19.09687907097033
 21
-0.7182437222293436
 31
0.0
  0
LINE
  5
56A
330
18
100
AcDbEntity
  8
1
 62
     1
100
AcDbLine
 10
19.15936416941001
 20
0.3552582772124413
 30
0.0
 11
19.15936416941001
 21
-0.7284770568967243
 31
0.0
  0
LINE
  5
56B
330
18
100
AcDbEntity
  8
1
 62
     1
100
AcDbLine
 10
19.15936416941002
 20
0.3552582772124177
 30
0.0
 11
19.09687907097033
 21
0.4155027351874028
 31
0.0
  0
LINE
  5
56C
330
18
100
AcDbEntity
  8
1
 62
     1
100
AcDbLine
 10
18.78654701076759
 20
-0.5642558468639387
 30
0.0
 11
18.76345298923241
 21
-0.5459726655658154
 31
0.0
  0
LINE
  5
56D
330
18
100
AcDbEntity
  8
1
 62
     1
100
AcDbLine
 10
18.78654701076759
 20
0.6678443773931197
 30
0.0
 11
18.76345298923242
 21
0.6814864470256947
 31
0.0
  0
LINE
  5
56E
330
18
100
AcDbEntity
  8
1
 62
     1
100
AcDbLine
 10
18.06345298923242
 20
0.8
 30
0.0
 11
18.08654701076759
 21
0.8
 31
0.0
  0
LINE
  5
56F
330
18
100
AcDbEntity
  8
1
 62
     1
100
AcDbLine
 10
17.71345298923242
 20
0.8
 30
0.0
 11
17.73654701076759
 21
0.8
 31
0.0
  0
LINE
  5
570
330
18
100
AcDbEntity
  8
1
 62
     1
100
AcDbLine
 10
17.36345298923241
 20
0.8
 30
0.0
 11
17.38654701076759
 21
0.8
 31
0.0
  0
LINE
  5
571
330
18
100
AcDbEntity
  8
1
 62
     1
100
AcDbLine
 10
14.9365470107676
 20
-0.0028017952319828
 30
0.0
 11
14.9365470107676
 21
-0.8
 31
0.0
  0
LINE
  5
572
330
18
100
AcDbEntity
  8
1
 62
     1
100
AcDbLine
 10
14.9365470107676
 20
-0.0028017952317061
 30
0.0
 11
14.91345298923242
 21
0.0225898012000847
 31
0.0
  0
LINE
  5
573
330
18
100
AcDbEntity
  8
1
 62
     1
100
AcDbLine
 10
14.56345298923242
 20
0.3900690941792966
 30
0.0
 11
14.56345298923241
 21
-0.7619970988072726
 31
0.0
  0
ARC
  5
574
330
18
100
AcDbEntity
  8
1
 62
     1
100
AcDbCircle
 10
19.24551052152763
 20
-0.0738371163621676
 30
0.0
 40
0.7763077010259221
100
AcDbArc
 50
213.7599332006077
 51
231.5744929282859
  0
ARC
  5
575
330
18
100
AcDbEntity
  8
1
 62
     1
100
AcDbCircle
 10
-29.40581437447003
 20
-22.33809587968534
 30
0.0
 40
52.15439824284853
100
AcDbArc
 50
24.47170157989716
 51
24.90130546190848
  0
LINE
  5
576
330
18
100
AcDbEntity
  8
1
 62
     1
100
AcDbLine
 10
18.06345298923242
 20
-0.7334123704633814
 30
0.0
 11
18.06345298923242
 21
-0.8
 31
0.0
  0
ARC
  5
577
330
18
100
AcDbEntity
  8
1
 62
     1
100
AcDbCircle
 10
17.42277928771063
 20
-0.0034395050035337
 30
0.0
 40
0.6060616340358308
100
AcDbArc
 50
301.1863238893676
 51
321.8606526212322
  0
LINE
  5
578
330
18
100
AcDbEntity
  8
1
 62
     1
100
AcDbLine
 10
17.73654701076759
 20
-0.5218107951482335
 30
0.0
 11
17.73654701076759
 21
-0.8
 31
0.0
  0
LINE
  5
579
330
18
100
AcDbEntity
  8
1
 62
     1
100
AcDbLine
 10
17.9
 20
-0.51689125
 30
0.0
 11
17.73654701076759
 21
-0.8000000000000025
 31
0.0
  0
LINE
  5
57A
330
18
100
AcDbEntity
  8
1
 62
     1
100
AcDbLine
 10
17.9
 20
-0.51689125
 30
0.0
 11
17.9
 21
-0.516862204447593
 31
0.0
  0
LINE
  5
57B
330
18
100
AcDbEntity
  8
1
 62
     1
100
AcDbLine
 10
17.9
 20
-0.516862204447593
 30
0.0
 11
17.9
 21
-0.5079524268478309
 31
0.0
  0
LINE
  5
57C
330
18
100
AcDbEntity
  8
1
 62
     1
100
AcDbLine
 10
17.9
 20
-0.5079524268478309
 30
0.0
 11
17.9
 21
-0.3781578442953638
 31
0.0
  0
LINE
  5
57D
330
18
100
AcDbEntity
  8
1
 62
     1
100
AcDbLine
 10
17.03654701076759
 20
0.1991611793675068
 30
0.0
 11
17.07161235122663
 21
0.1616000245018219
 31
0.0
  0
LINE
  5
57E
330
18
100
AcDbEntity
  8
1
 62
     1
100
AcDbLine
 10
17.0365470107676
 20
0.1991611793675117
 30
0.0
 11
17.0365470107676
 21
-0.7989294153345847
 31
0.0
  0
LINE
  5
57F
330
18
100
AcDbEntity
  8
1
 62
     1
100
AcDbLine
 10
17.03654701076759
 20
-0.798929415334596
 30
0.0
 11
17.09985342756855
 21
-0.6903501207798914
 31
0.0
  0
LINE
  5
580
330
18
100
AcDbEntity
  8
1
 62
     1
100
AcDbLine
 10
17.2
 20
-0.51689125
 30
0.0
 11
17.09985342756855
 21
-0.6903501207798918
 31
0.0
  0
LINE
  5
581
330
18
100
AcDbEntity
  8
1
 62
     1
100
AcDbLine
 10
17.2
 20
-0.51689125
 30
0.0
 11
17.2
 21
-0.5167377711027779
 31
0.0
  0
LINE
  5
582
330
18
100
AcDbEntity
  8
1
 62
     1
100
AcDbLine
 10
17.2
 20
-0.5167377711027779
 30
0.0
 11
17.2
 21
-0.5035633036090951
 31
0.0
  0
LINE
  5
583
330
18
100
AcDbEntity
  8
1
 62
     1
100
AcDbLine
 10
17.2
 20
-0.5035633036090951
 30
0.0
 11
17.20000000000001
 21
0.0728951338379018
 31
0.0
  0
ARC
  5
584
330
18
100
AcDbEntity
  8
1
 62
     1
100
AcDbCircle
 10
16.42257539043637
 20
-0.6486692384310097
 30
0.0
 40
1.060813829667158
100
AcDbArc
 50
27.5821155464128
 51
42.86584453021234
  0
ARC
  5
585
330
18
100
AcDbEntity
  8
1
 62
     1
100
AcDbCircle
 10
21.67671142473434
 20
-2.214688265269633
 30
0.0
 40
3.278058412379743
100
AcDbArc
 50
147.8561121146895
 51
151.8438805435372
  0
LINE
  5
586
330
18
100
AcDbEntity
  8
1
 62
     1
100
AcDbLine
 10
18.90120806252844
 20
0.4706542708889521
 30
0.0
 11
18.95
 21
0.4314540556347067
 31
0.0
  0
LINE
  5
587
330
18
100
AcDbEntity
  8
1
 62
     1
100
AcDbLine
 10
16.85
 20
0.3014162926379242
 30
0.0
 11
16.86038123725524
 21
0.3008030692881181
 31
0.0
  0
LINE
  5
588
330
18
100
AcDbEntity
  8
1
 62
     1
100
AcDbLine
 10
16.86038123725524
 20
0.3008030692881181
 30
0.0
 11
16.87075455108794
 21
0.2995958536703324
 31
0.0
  0
LINE
  5
589
330
18
100
AcDbEntity
  8
1
 62
     1
100
AcDbLine
 10
16.87075455108794
 20
0.2995958536703324
 30
0.0
 11
16.88111358957497
 21
0.2978000376707118
 31
0.0
  0
LINE
  5
58A
330
18
100
AcDbEntity
  8
1
 62
     1
100
AcDbLine
 10
16.88111358957497
 20
0.2978000376707118
 30
0.0
 11
16.89145290661383
 21
0.2954208311253778
 31
0.0
  0
LINE
  5
58B
330
18
100
AcDbEntity
  8
1
 62
     1
100
AcDbLine
 10
16.89145290661383
 20
0.2954208311253778
 30
0.0
 11
16.90177451481706
 21
0.2924625979602527
 31
0.0
  0
LINE
  5
58C
330
18
100
AcDbEntity
  8
1
 62
     1
100
AcDbLine
 10
16.90177451481706
 20
0.2924625979602527
 30
0.0
 11
16.91207514440572
 21
0.2889319633520444
 31
0.0
  0
LINE
  5
58D
330
18
100
AcDbEntity
  8
1
 62
     1
100
AcDbLine
 10
16.91207514440572
 20
0.2889319633520444
 30
0.0
 11
16.922349752918
 21
0.2848360221228348
 31
0.0
  0
LINE
  5
58E
330
18
100
AcDbEntity
  8
1
 62
     1
100
AcDbLine
 10
16.922349752918
 20
0.2848360221228348
 30
0.0
 11
16.93259673154003
 21
0.2801805896869478
 31
0.0
  0
LINE
  5
58F
330
18
100
AcDbEntity
  8
1
 62
     1
100
AcDbLine
 10
16.93259673154003
 20
0.2801805896869478
 30
0.0
 11
16.94281801763445
 21
0.2749711438886964
 31
0.0
  0
LINE
  5
590
330
18
100
AcDbEntity
  8
1
 62
     1
100
AcDbLine
 10
16.94281801763445
 20
0.2749711438886964
 30
0.0
 11
16.95300959877264
 21
0.2692161580178117
 31
0.0
  0
LINE
  5
591
330
18
100
AcDbEntity
  8
1
 62
     1
100
AcDbLine
 10
16.95300959877264
 20
0.2692161580178117
 30
0.0
 11
16.96316758066349
 21
0.2629240071623755
 31
0.0
  0
LINE
  5
592
330
18
100
AcDbEntity
  8
1
 62
     1
100
AcDbLine
 10
16.96316758066349
 20
0.2629240071623755
 30
0.0
 11
16.97329427123164
 21
0.2560996898693495
 31
0.0
  0
LINE
  5
593
330
18
100
AcDbEntity
  8
1
 62
     1
100
AcDbLine
 10
16.97329427123164
 20
0.2560996898693495
 30
0.0
 11
16.98338875612127
 21
0.2487511803989688
 31
0.0
  0
LINE
  5
594
330
18
100
AcDbEntity
  8
1
 62
     1
100
AcDbLine
 10
16.98338875612127
 20
0.2487511803989688
 30
0.0
 11
16.9934475201395
 21
0.240888187643409
 31
0.0
  0
LINE
  5
595
330
18
100
AcDbEntity
  8
1
 62
     1
100
AcDbLine
 10
16.9934475201395
 20
0.240888187643409
 30
0.0
 11
17.01345298923242
 21
0.2236517367478564
 31
0.0
  0
LINE
  5
596
330
18
100
AcDbEntity
  8
1
 62
     1
100
AcDbLine
 10
16.85
 20
-0.489319779613158
 30
0.0
 11
16.85
 21
0.3014162926379241
 31
0.0
  0
ARC
  5
597
330
18
100
AcDbEntity
  8
1
 62
     1
100
AcDbCircle
 10
9.459174817570826
 20
-4.593172431720282
 30
0.0
 40
8.453859707643698
100
AcDbArc
 50
26.67912739210878
 51
29.04179892507618
  0
LINE
  5
598
330
18
100
AcDbEntity
  8
1
 62
     1
100
AcDbLine
 10
17.01345298923242
 20
0.2236517367478244
 30
0.0
 11
17.01345298923242
 21
-0.7972138239233678
 31
0.0
  0
ARC
  5
599
330
18
100
AcDbEntity
  8
1
 62
     1
100
AcDbCircle
 10
18.04597053336918
 20
1.308403075584808
 30
0.0
 40
1.563899587145384
100
AcDbArc
 50
209.6335031419723
 51
220.096806561815
  0
LINE
  5
59A
330
18
100
AcDbEntity
  8
1
 62
     1
100
AcDbLine
 10
16.68654701076759
 20
0.5350912446308936
 30
0.0
 11
16.68654701076759
 21
-0.6891014262327216
 31
0.0
  0
ARC
  5
59B
330
18
100
AcDbEntity
  8
1
 62
     1
100
AcDbCircle
 10
-32.20021158659419
 20
39.59129776585156
 30
0.0
 40
63.34365134061498
100
AcDbArc
 50
320.513075913339
 51
320.7465581295642
  0
ARC
  5
59C
330
18
100
AcDbEntity
  8
1
 62
     1
100
AcDbCircle
 10
36.55248690956133
 20
-10.78563759904033
 30
0.0
 40
20.68773025945786
100
AcDbArc
 50
150.202797357253
 51
151.1260547893401
  0
ARC
  5
59D
330
18
100
AcDbEntity
  8
1
 62
     1
100
AcDbCircle
 10
15.61993932585499
 20
1.077001145745667
 30
0.0
 40
3.0655304897315
100
AcDbArc
 50
323.5752440526967
 51
329.0801446935994
  0
LINE
  5
59E
330
18
100
AcDbEntity
  8
1
 62
     1
100
AcDbLine
 10
18.25
 20
-0.51689125
 30
0.0
 11
18.08654701076759
 21
-0.8000000000000022
 31
0.0
  0
LINE
  5
59F
330
18
100
AcDbEntity
  8
1
 62
     1
100
AcDbLine
 10
18.25
 20
-0.51689125
 30
0.0
 11
18.25
 21
-0.5168870978722782
 31
0.0
  0
LINE
  5
5A0
330
18
100
AcDbEntity
  8
1
 62
     1
100
AcDbLine
 10
18.25
 20
-0.5168870978722782
 30
0.0
 11
18.25
 21
-0.51566022523118
 31
0.0
  0
LINE
  5
5A1
330
18
100
AcDbEntity
  8
1
 62
     1
100
AcDbLine
 10
18.25
 20
-0.51566022523118
 30
0.0
 11
18.25
 21
-0.4982958353457468
 31
0.0
  0
LINE
  5
5A2
330
18
100
AcDbEntity
  8
1
 62
     1
100
AcDbLine
 10
18.37575023488705
 20
-0.7346969443361198
 30
0.0
 11
18.25
 21
-0.51689125
 31
0.0
  0
ARC
  5
5A3
330
18
100
AcDbEntity
  8
1
 62
     1
100
AcDbCircle
 10
17.45568228117641
 20
0.0244606457879089
 30
0.0
 40
0.2177500528706678
100
AcDbArc
 50
251.4847758904304
 51
295.6251500996542
  0
LINE
  5
5A4
330
18
100
AcDbEntity
  8
1
 62
     1
100
AcDbLine
 10
17.38654701076759
 20
-0.1819805869359463
 30
0.0
 11
17.38654701076759
 21
-0.8
 31
0.0
  0
LINE
  5
5A5
330
18
100
AcDbEntity
  8
1
 62
     1
100
AcDbLine
 10
17.55
 20
-0.51689125
 30
0.0
 11
17.38654701076759
 21
-0.8000000000000025
 31
0.0
  0
LINE
  5
5A6
330
18
100
AcDbEntity
  8
1
 62
     1
100
AcDbLine
 10
17.55
 20
-0.51689125
 30
0.0
 11
17.55
 21
-0.5168151924286947
 31
0.0
  0
LINE
  5
5A7
330
18
100
AcDbEntity
  8
1
 62
     1
100
AcDbLine
 10
17.55
 20
-0.5168151924286947
 30
0.0
 11
17.55
 21
-0.492756121272595
 31
0.0
  0
LINE
  5
5A8
330
18
100
AcDbEntity
  8
1
 62
     1
100
AcDbLine
 10
17.55
 20
-0.492756121272595
 30
0.0
 11
17.55
 21
-0.1721740686351542
 31
0.0
  0
ARC
  5
5A9
330
18
100
AcDbEntity
  8
1
 62
     1
100
AcDbCircle
 10
13.98844391243761
 20
-2.137588458454419
 30
0.0
 40
4.067912125893235
100
AcDbArc
 50
23.70156676511949
 51
28.89173585491855
  0
LINE
  5
5AA
330
18
100
AcDbEntity
  8
1
 62
     1
100
AcDbLine
 10
17.71345298923242
 20
-0.5023023041671085
 30
0.0
 11
17.71345298923242
 21
-0.8
 31
0.0
  0
ARC
  5
5AB
330
18
100
AcDbEntity
  8
1
 62
     1
100
AcDbCircle
 10
20.98123091268896
 20
3.190894779508208
 30
0.0
 40
5.247179953295878
100
AcDbArc
 50
207.7273728725297
 51
211.344327967733
  0
LINE
  5
5AC
330
18
100
AcDbEntity
  8
1
 62
     1
100
AcDbLine
 10
16.33654701076759
 20
0.7495498871074596
 30
0.0
 11
16.33654701076759
 21
-0.4228401302434581
 31
0.0
  0
ARC
  5
5AD
330
18
100
AcDbEntity
  8
1
 62
     1
100
AcDbCircle
 10
17.00271485998956
 20
-1.843319155302748
 30
0.0
 40
1.568996253277898
100
AcDbArc
 50
108.683528827866
 51
115.1253601515202
  0
ARC
  5
5AE
330
18
100
AcDbEntity
  8
1
 62
     1
100
AcDbCircle
 10
16.73437035530572
 20
0.2404096452959288
 30
0.0
 40
0.3220306336632016
100
AcDbArc
 50
102.754836542026
 51
136.6684620059051
  0
LINE
  5
5AF
330
18
100
AcDbEntity
  8
1
 62
     1
100
AcDbLine
 10
16.5
 20
-0.3567049620982112
 30
0.0
 11
16.5
 21
0.4615127911101069
 31
0.0
  0
LINE
  5
5B0
330
18
100
AcDbEntity
  8
1
 62
     1
100
AcDbLine
 10
16.5
 20
-0.3567049620982111
 30
0.0
 11
16.52277066438464
 21
-0.3906742987087631
 31
0.0
  0
LINE
  5
5B1
330
18
100
AcDbEntity
  8
1
 62
     1
100
AcDbLine
 10
16.52277066438464
 20
-0.3906742987087631
 30
0.0
 11
16.54496349296094
 21
-0.4276013532678936
 31
0.0
  0
LINE
  5
5B2
330
18
100
AcDbEntity
  8
1
 62
     1
100
AcDbLine
 10
16.54496349296094
 20
-0.4276013532678936
 30
0.0
 11
16.58729314904188
 21
-0.5073974652841349
 31
0.0
  0
LINE
  5
5B3
330
18
100
AcDbEntity
  8
1
 62
     1
100
AcDbLine
 10
16.58729314904188
 20
-0.5073974652841349
 30
0.0
 11
16.62675743180706
 21
-0.5913001337665897
 31
0.0
  0
LINE
  5
5B4
330
18
100
AcDbEntity
  8
1
 62
     1
100
AcDbLine
 10
16.62675743180706
 20
-0.5913001337665897
 30
0.0
 11
16.66345298923241
 21
-0.6758568395921538
 31
0.0
  0
LINE
  5
5B5
330
18
100
AcDbEntity
  8
1
 62
     1
100
AcDbLine
 10
15.45
 20
0.3256698004255124
 30
0.0
 11
15.45
 21
0.51689125
 31
0.0
  0
LINE
  5
5B6
330
18
100
AcDbEntity
  8
1
 62
     1
100
AcDbLine
 10
15.45
 20
0.3256698004255264
 30
0.0
 11
15.46144886182435
 21
0.3350554246362131
 31
0.0
  0
LINE
  5
5B7
330
18
100
AcDbEntity
  8
1
 62
     1
100
AcDbLine
 10
15.46144886182435
 20
0.3350554246362131
 30
0.0
 11
15.47277067080118
 21
0.343165290334111
 31
0.0
  0
LINE
  5
5B8
330
18
100
AcDbEntity
  8
1
 62
     1
100
AcDbLine
 10
15.47277067080118
 20
0.343165290334111
 30
0.0
 11
15.47837867975494
 21
0.3467500007844357
 31
0.0
  0
LINE
  5
5B9
330
18
100
AcDbEntity
  8
1
 62
     1
100
AcDbLine
 10
15.47837867975494
 20
0.3467500007844357
 30
0.0
 11
15.483948537471
 21
0.3500255500916175
 31
0.0
  0
LINE
  5
5BA
330
18
100
AcDbEntity
  8
1
 62
     1
100
AcDbLine
 10
15.483948537471
 20
0.3500255500916175
 30
0.0
 11
15.48947635168815
 21
0.3529939309683584
 31
0.0
  0
LINE
  5
5BB
330
18
100
AcDbEntity
  8
1
 62
     1
100
AcDbLine
 10
15.48947635168815
 20
0.3529939309683584
 30
0.0
 11
15.49496349873315
 21
0.3556600078480092
 31
0.0
  0
LINE
  5
5BC
330
18
100
AcDbEntity
  8
1
 62
     1
100
AcDbLine
 10
15.49496349873315
 20
0.3556600078480092
 30
0.0
 11
15.50040922250557
 21
0.3580276434774686
 31
0.0
  0
LINE
  5
5BD
330
18
100
AcDbEntity
  8
1
 62
     1
100
AcDbLine
 10
15.50040922250557
 20
0.3580276434774686
 30
0.0
 11
15.505810667847
 21
0.3600995989928845
 31
0.0
  0
LINE
  5
5BE
330
18
100
AcDbEntity
  8
1
 62
     1
100
AcDbLine
 10
15.505810667847
 20
0.3600995989928845
 30
0.0
 11
15.5111678099225
 21
0.3618795487318621
 31
0.0
  0
LINE
  5
5BF
330
18
100
AcDbEntity
  8
1
 62
     1
100
AcDbLine
 10
15.5111678099225
 20
0.3618795487318621
 30
0.0
 11
15.51648321365135
 21
0.363372207882901
 31
0.0
  0
LINE
  5
5C0
330
18
100
AcDbEntity
  8
1
 62
     1
100
AcDbLine
 10
15.51648321365135
 20
0.363372207882901
 30
0.0
 11
15.52175509117533
 21
0.364581039109336
 31
0.0
  0
LINE
  5
5C1
330
18
100
AcDbEntity
  8
1
 62
     1
100
AcDbLine
 10
15.52175509117533
 20
0.364581039109336
 30
0.0
 11
15.52698157496947
 21
0.365509480649682
 31
0.0
  0
LINE
  5
5C2
330
18
100
AcDbEntity
  8
1
 62
     1
100
AcDbLine
 10
15.52698157496947
 20
0.365509480649682
 30
0.0
 11
15.5321607975088
 21
0.3661609707424538
 31
0.0
  0
LINE
  5
5C3
330
18
100
AcDbEntity
  8
1
 62
     1
100
AcDbLine
 10
15.5321607975088
 20
0.3661609707424538
 30
0.0
 11
15.53729316049396
 21
0.3665392258864965
 31
0.0
  0
LINE
  5
5C4
330
18
100
AcDbEntity
  8
1
 62
     1
100
AcDbLine
 10
15.53729316049396
 20
0.3665392258864965
 30
0.0
 11
15.54238251273895
 21
0.3666485652927788
 31
0.0
  0
LINE
  5
5C5
330
18
100
AcDbEntity
  8
1
 62
     1
100
AcDbLine
 10
15.54238251273895
 20
0.3666485652927788
 30
0.0
 11
15.54742791295711
 21
0.3664928858869241
 31
0.0
  0
LINE
  5
5C6
330
18
100
AcDbEntity
  8
1
 62
     1
100
AcDbLine
 10
15.54742791295711
 20
0.3664928858869241
 30
0.0
 11
15.55242820189608
 21
0.3660760611942315
 31
0.0
  0
LINE
  5
5C7
330
18
100
AcDbEntity
  8
1
 62
     1
100
AcDbLine
 10
15.55242820189608
 20
0.3660760611942315
 30
0.0
 11
15.55738222030354
 21
0.3654019647400004
 31
0.0
  0
LINE
  5
5C8
330
18
100
AcDbEntity
  8
1
 62
     1
100
AcDbLine
 10
15.55738222030354
 20
0.3654019647400004
 30
0.0
 11
15.56229022380574
 21
0.3644742595936979
 31
0.0
  0
LINE
  5
5C9
330
18
100
AcDbEntity
  8
1
 62
     1
100
AcDbLine
 10
15.56229022380574
 20
0.3644742595936979
 30
0.0
 11
15.5671557680588
 21
0.363296231556653
 31
0.0
  0
LINE
  5
5CA
330
18
100
AcDbEntity
  8
1
 62
     1
100
AcDbLine
 10
15.5671557680588
 20
0.363296231556653
 30
0.0
 11
15.57197842810492
 21
0.3618718845862817
 31
0.0
  0
LINE
  5
5CB
330
18
100
AcDbEntity
  8
1
 62
     1
100
AcDbLine
 10
15.57197842810492
 20
0.3618718845862817
 30
0.0
 11
15.57675744648904
 21
0.3602052764964759
 31
0.0
  0
LINE
  5
5CC
330
18
100
AcDbEntity
  8
1
 62
     1
100
AcDbLine
 10
15.57675744648904
 20
0.3602052764964759
 30
0.0
 11
15.58149206575614
 21
0.358300465101128
 31
0.0
  0
LINE
  5
5CD
330
18
100
AcDbEntity
  8
1
 62
     1
100
AcDbLine
 10
15.58149206575614
 20
0.358300465101128
 30
0.0
 11
15.58618241446011
 21
0.356161130069266
 31
0.0
  0
LINE
  5
5CE
330
18
100
AcDbEntity
  8
1
 62
     1
100
AcDbLine
 10
15.58618241446011
 20
0.356161130069266
 30
0.0
 11
15.59083166451532
 21
0.3537897127947353
 31
0.0
  0
LINE
  5
5CF
330
18
100
AcDbEntity
  8
1
 62
     1
100
AcDbLine
 10
15.59083166451532
 20
0.3537897127947353
 30
0.0
 11
15.59543972600697
 21
0.3511901266519156
 31
0.0
  0
LINE
  5
5D0
330
18
100
AcDbEntity
  8
1
 62
     1
100
AcDbLine
 10
15.59543972600697
 20
0.3511901266519156
 30
0.0
 11
15.60000607339299
 21
0.3483664750697014
 31
0.0
  0
LINE
  5
5D1
330
18
100
AcDbEntity
  8
1
 62
     1
100
AcDbLine
 10
15.60000607339299
 20
0.3483664750697014
 30
0.0
 11
15.6045301811313
 21
0.3453228614769868
 31
0.0
  0
LINE
  5
5D2
330
18
100
AcDbEntity
  8
1
 62
     1
100
AcDbLine
 10
15.6045301811313
 20
0.3453228614769868
 30
0.0
 11
15.60901190478658
 21
0.342063156968975
 31
0.0
  0
LINE
  5
5D3
330
18
100
AcDbEntity
  8
1
 62
     1
100
AcDbLine
 10
15.60901190478658
 20
0.342063156968975
 30
0.0
 11
15.61345298923241
 21
0.338590098479925
 31
0.0
  0
LINE
  5
5D4
330
18
100
AcDbEntity
  8
1
 62
     1
100
AcDbLine
 10
15.61345298923241
 20
0.8
 30
0.0
 11
15.61345298923241
 21
0.7999002272588893
 31
0.0
  0
LINE
  5
5D5
330
18
100
AcDbEntity
  8
1
 62
     1
100
AcDbLine
 10
15.61345298923241
 20
0.7999002272588893
 30
0.0
 11
15.61345298923241
 21
0.7685225737092969
 31
0.0
  0
LINE
  5
5D6
330
18
100
AcDbEntity
  8
1
 62
     1
100
AcDbLine
 10
15.61345298923241
 20
0.7685225737092969
 30
0.0
 11
15.61345298923241
 21
0.338590098479919
 31
0.0
  0
LINE
  5
5D7
330
18
100
AcDbEntity
  8
1
 62
     1
100
AcDbLine
 10
15.2865470107676
 20
0.8
 30
0.0
 11
15.2865470107676
 21
0.7999622056996681
 31
0.0
  0
LINE
  5
5D8
330
18
100
AcDbEntity
  8
1
 62
     1
100
AcDbLine
 10
15.2865470107676
 20
0.7999622056996681
 30
0.0
 11
15.2865470107676
 21
0.7884223888849284
 31
0.0
  0
LINE
  5
5D9
330
18
100
AcDbEntity
  8
1
 62
     1
100
AcDbLine
 10
15.2865470107676
 20
0.7884223888849284
 30
0.0
 11
15.2865470107676
 21
0.6198178031046451
 31
0.0
  0
ARC
  5
5DA
330
18
100
AcDbEntity
  8
1
 62
     1
100
AcDbCircle
 10
11.12367136612889
 20
-1.887537855654481
 30
0.0
 40
4.859657069277981
100
AcDbArc
 50
27.09279398616751
 51
31.06111761685491
  0
LINE
  5
5DB
330
18
100
AcDbEntity
  8
1
 62
     1
100
AcDbLine
 10
15.63654701076758
 20
0.8
 30
0.0
 11
15.63654701076758
 21
0.7998945829000624
 31
0.0
  0
LINE
  5
5DC
330
18
100
AcDbEntity
  8
1
 62
     1
100
AcDbLine
 10
15.63654701076758
 20
0.7998945829000624
 30
0.0
 11
15.63654701076758
 21
0.766678215023512
 31
0.0
  0
LINE
  5
5DD
330
18
100
AcDbEntity
  8
1
 62
     1
100
AcDbLine
 10
15.63654701076758
 20
0.766678215023512
 30
0.0
 11
15.63654701076758
 21
0.3154153871840107
 31
0.0
  0
ARC
  5
5DE
330
18
100
AcDbEntity
  8
1
 62
     1
100
AcDbCircle
 10
13.85073201901539
 20
-1.227074999098005
 30
0.0
 40
2.359765059874274
100
AcDbArc
 50
34.30680649936364
 51
40.81867860298411
  0
LINE
  5
5DF
330
18
100
AcDbEntity
  8
1
 62
     1
100
AcDbLine
 10
15.8
 20
0.1029648100125847
 30
0.0
 11
15.8
 21
0.51689125
 31
0.0
  0
ARC
  5
5E0
330
18
100
AcDbEntity
  8
1
 62
     1
100
AcDbCircle
 10
15.8024658373362
 20
-0.0116016361993724
 30
0.0
 40
0.1147186888387429
100
AcDbArc
 50
41.71726987137228
 51
91.23299855087758
  0
LINE
  5
5E1
330
18
100
AcDbEntity
  8
1
 62
     1
100
AcDbLine
 10
15.96345298923242
 20
0.8
 30
0.0
 11
15.96345298923241
 21
0.7997904926575664
 31
0.0
  0
LINE
  5
5E2
330
18
100
AcDbEntity
  8
1
 62
     1
100
AcDbLine
 10
15.96345298923241
 20
0.7997904926575664
 30
0.0
 11
15.96345298923242
 21
0.7818711194970789
 31
0.0
  0
LINE
  5
5E3
330
18
100
AcDbEntity
  8
1
 62
     1
100
AcDbLine
 10
15.96345298923242
 20
0.7818711194970789
 30
0.0
 11
15.96345298923242
 21
-0.0352416810988843
 31
0.0
  0
LINE
  5
5E4
330
18
100
AcDbEntity
  8
1
 62
     1
100
AcDbLine
 10
15.98654701076759
 20
0.8
 30
0.0
 11
15.98654701076759
 21
0.799781445918718
 31
0.0
  0
LINE
  5
5E5
330
18
100
AcDbEntity
  8
1
 62
     1
100
AcDbLine
 10
15.98654701076759
 20
0.799781445918718
 30
0.0
 11
15.98654701076759
 21
0.7810659389237937
 31
0.0
  0
LINE
  5
5E6
330
18
100
AcDbEntity
  8
1
 62
     1
100
AcDbLine
 10
15.98654701076759
 20
0.7810659389237937
 30
0.0
 11
15.98654701076758
 21
-0.0605895342250404
 31
0.0
  0
LINE
  5
5E7
330
18
100
AcDbEntity
  8
1
 62
     1
100
AcDbLine
 10
16.15
 20
-0.1431143081442585
 30
0.0
 11
16.15
 21
0.51689125
 31
0.0
  0
LINE
  5
5E8
330
18
100
AcDbEntity
  8
1
 62
     1
100
AcDbLine
 10
16.15
 20
-0.1431143081439623
 30
0.0
 11
16.15573781710577
 21
-0.1476058121076243
 31
0.0
  0
LINE
  5
5E9
330
18
100
AcDbEntity
  8
1
 62
     1
100
AcDbLine
 10
16.15573781710577
 20
-0.1476058121076243
 30
0.0
 11
16.16144940994013
 21
-0.1524359319404656
 31
0.0
  0
LINE
  5
5EA
330
18
100
AcDbEntity
  8
1
 62
     1
100
AcDbLine
 10
16.16144940994013
 20
-0.1524359319404656
 30
0.0
 11
16.17277175296753
 21
-0.1630509980310297
 31
0.0
  0
LINE
  5
5EB
330
18
100
AcDbEntity
  8
1
 62
     1
100
AcDbLine
 10
16.17277175296753
 20
-0.1630509980310297
 30
0.0
 11
16.18395013943869
 21
-0.1748617643256363
 31
0.0
  0
LINE
  5
5EC
330
18
100
AcDbEntity
  8
1
 62
     1
100
AcDbLine
 10
16.18395013943869
 20
-0.1748617643256363
 30
0.0
 11
16.19496560426974
 21
-0.1877676045372524
 31
0.0
  0
LINE
  5
5ED
330
18
100
AcDbEntity
  8
1
 62
     1
100
AcDbLine
 10
16.19496560426974
 20
-0.1877676045372524
 30
0.0
 11
16.20581326139368
 21
-0.2016847146300952
 31
0.0
  0
LINE
  5
5EE
330
18
100
AcDbEntity
  8
1
 62
     1
100
AcDbLine
 10
16.20581326139368
 20
-0.2016847146300952
 30
0.0
 11
16.21648412470565
 21
-0.21652661168797
 31
0.0
  0
LINE
  5
5EF
330
18
100
AcDbEntity
  8
1
 62
     1
100
AcDbLine
 10
16.21648412470565
 20
-0.21652661168797
 30
0.0
 11
16.23729124357809
 21
-0.24868994358334
 31
0.0
  0
LINE
  5
5F0
330
18
100
AcDbEntity
  8
1
 62
     1
100
AcDbLine
 10
16.23729124357809
 20
-0.24868994358334
 30
0.0
 11
16.25737838771103
 21
-0.2836936173080365
 31
0.0
  0
LINE
  5
5F1
330
18
100
AcDbEntity
  8
1
 62
     1
100
AcDbLine
 10
16.25737838771103
 20
-0.2836936173080365
 30
0.0
 11
16.27675534556754
 21
-0.3210437211343621
 31
0.0
  0
LINE
  5
5F2
330
18
100
AcDbEntity
  8
1
 62
     1
100
AcDbLine
 10
16.27675534556754
 20
-0.3210437211343621
 30
0.0
 11
16.31345298923242
 21
-0.401073227457451
 31
0.0
  0
LINE
  5
5F3
330
18
100
AcDbEntity
  8
1
 62
     1
100
AcDbLine
 10
16.31345298923242
 20
0.7580461296432427
 30
0.0
 11
16.31345298923242
 21
-0.4010732274574561
 31
0.0
  0
LINE
  5
5F4
330
18
100
AcDbEntity
  8
1
 62
     1
100
AcDbLine
 10
14.9365470107676
 20
0.8
 30
0.0
 11
14.9365470107676
 21
0.7999962517859495
 31
0.0
  0
LINE
  5
5F5
330
18
100
AcDbEntity
  8
1
 62
     1
100
AcDbLine
 10
14.9365470107676
 20
0.7999962517859495
 30
0.0
 11
14.9365470107676
 21
0.7988952119366243
 31
0.0
  0
LINE
  5
5F6
330
18
100
AcDbEntity
  8
1
 62
     1
100
AcDbLine
 10
14.9365470107676
 20
0.7988952119366243
 30
0.0
 11
14.9365470107676
 21
0.7835149009155159
 31
0.0
  0
LINE
  5
5F7
330
18
100
AcDbEntity
  8
1
 62
     1
100
AcDbLine
 10
15.1
 20
0.4744443213201413
 30
0.0
 11
15.1
 21
0.5168912485740352
 31
0.0
  0
LINE
  5
5F8
330
18
100
AcDbEntity
  8
1
 62
     1
100
AcDbLine
 10
15.1
 20
0.4744443213201465
 30
0.0
 11
15.12277175190921
 21
0.5068413575541869
 31
0.0
  0
LINE
  5
5F9
330
18
100
AcDbEntity
  8
1
 62
     1
100
AcDbLine
 10
15.12277175190921
 20
0.5068413575541869
 30
0.0
 11
15.14496560916199
 21
0.5358880565816717
 31
0.0
  0
LINE
  5
5FA
330
18
100
AcDbEntity
  8
1
 62
     1
100
AcDbLine
 10
15.14496560916199
 20
0.5358880565816717
 30
0.0
 11
15.16648412937422
 21
0.5614320840320197
 31
0.0
  0
LINE
  5
5FB
330
18
100
AcDbEntity
  8
1
 62
     1
100
AcDbLine
 10
15.16648412937422
 20
0.5614320840320197
 30
0.0
 11
15.18729124864338
 21
0.5834003097771808
 31
0.0
  0
LINE
  5
5FC
330
18
100
AcDbEntity
  8
1
 62
     1
100
AcDbLine
 10
15.18729124864338
 20
0.5834003097771808
 30
0.0
 11
15.19742689612813
 21
0.5930370543419097
 31
0.0
  0
LINE
  5
5FD
330
18
100
AcDbEntity
  8
1
 62
     1
100
AcDbLine
 10
15.19742689612813
 20
0.5930370543419097
 30
0.0
 11
15.20737839907771
 21
0.6017692341678144
 31
0.0
  0
LINE
  5
5FE
330
18
100
AcDbEntity
  8
1
 62
     1
100
AcDbLine
 10
15.20737839907771
 20
0.6017692341678144
 30
0.0
 11
15.21715636981272
 21
0.6096084477912255
 31
0.0
  0
LINE
  5
5FF
330
18
100
AcDbEntity
  8
1
 62
     1
100
AcDbLine
 10
15.21715636981272
 20
0.6096084477912255
 30
0.0
 11
15.22675534589444
 21
0.6165535143524705
 31
0.0
  0
LINE
  5
600
330
18
100
AcDbEntity
  8
1
 62
     1
100
AcDbLine
 10
15.22675534589444
 20
0.6165535143524705
 30
0.0
 11
15.23618252298937
 21
0.6226131317714945
 31
0.0
  0
LINE
  5
601
330
18
100
AcDbEntity
  8
1
 62
     1
100
AcDbLine
 10
15.23618252298937
 20
0.6226131317714945
 30
0.0
 11
15.24544092386679
 21
0.6277958688836194
 31
0.0
  0
LINE
  5
602
330
18
100
AcDbEntity
  8
1
 62
     1
100
AcDbLine
 10
15.24544092386679
 20
0.6277958688836194
 30
0.0
 11
15.2500054400842
 21
0.6300595529781329
 31
0.0
  0
LINE
  5
603
330
18
100
AcDbEntity
  8
1
 62
     1
100
AcDbLine
 10
15.2500054400842
 20
0.6300595529781329
 30
0.0
 11
15.25452865348054
 21
0.6321069401095236
 31
0.0
  0
LINE
  5
604
330
18
100
AcDbEntity
  8
1
 62
     1
100
AcDbLine
 10
15.25452865348054
 20
0.6321069401095236
 30
0.0
 11
15.25901131971032
 21
0.6339395576828204
 31
0.0
  0
LINE
  5
605
330
18
100
AcDbEntity
  8
1
 62
     1
100
AcDbLine
 10
15.25901131971032
 20
0.6339395576828204
 30
0.0
 11
15.26345298923242
 21
0.6355582835666349
 31
0.0
  0
LINE
  5
606
330
18
100
AcDbEntity
  8
1
 62
     1
100
AcDbLine
 10
15.26345298923242
 20
0.8
 30
0.0
 11
15.26345298923241
 21
0.7999654492907459
 31
0.0
  0
LINE
  5
607
330
18
100
AcDbEntity
  8
1
 62
     1
100
AcDbLine
 10
15.26345298923241
 20
0.7999654492907459
 30
0.0
 11
15.26345298923241
 21
0.7894401086440357
 31
0.0
  0
LINE
  5
608
330
18
100
AcDbEntity
  8
1
 62
     1
100
AcDbLine
 10
15.26345298923241
 20
0.7894401086440357
 30
0.0
 11
15.26345298923241
 21
0.6355582835666328
 31
0.0
  0
ARC
  5
609
330
18
100
AcDbEntity
  8
1
 62
     1
100
AcDbCircle
 10
14.62655365515761
 20
-0.1048635416662685
 30
0.0
 40
0.6999175017836529
100
AcDbArc
 50
214.5550628905259
 51
233.7857044364724
  0
ARC
  5
60A
330
18
100
AcDbEntity
  8
1
 62
     1
100
AcDbCircle
 10
17.15476205374615
 20
-2.230619290922865
 30
0.0
 40
3.316524127465402
100
AcDbArc
 50
148.6699021450323
 51
151.6302794276853
  0
LINE
  5
60B
330
18
100
AcDbEntity
  8
1
 62
     1
100
AcDbLine
 10
14.32186599715654
 20
0.5061525711503322
 30
0.0
 11
14.4
 21
0.4395581444136828
 31
0.0
  0
ARC
  5
60C
330
18
100
AcDbEntity
  8
1
 62
     1
100
AcDbCircle
 10
11.86060079082482
 20
1.922889242817713
 30
0.0
 40
2.941020479362642
100
AcDbArc
 50
329.7096550974366
 51
336.7561705721155
  0
ARC
  5
60D
330
18
100
AcDbEntity
  8
1
 62
     1
100
AcDbCircle
 10
4.738450505715365
 20
-5.766554704404466
 30
0.0
 40
11.81955243000757
100
AcDbArc
 50
32.10754153043342
 51
33.57109420918773
  0
ARC
  5
60E
330
18
100
AcDbEntity
  8
1
 62
     1
100
AcDbCircle
 10
79.18485959050047
 20
-36.15590964511599
 30
0.0
 40
74.13935168208525
100
AcDbArc
 50
150.2469362643223
 51
150.3547573483977
  0
LINE
  5
60F
330
18
100
AcDbEntity
  8
1
 62
     1
100
AcDbLine
 10
14.91345298923241
 20
0.8
 30
0.0
 11
14.91345298923241
 21
0.7999973022064422
 31
0.0
  0
LINE
  5
610
330
18
100
AcDbEntity
  8
1
 62
     1
100
AcDbLine
 10
14.91345298923241
 20
0.7999973022064422
 30
0.0
 11
14.91345298923241
 21
0.7992071350157511
 31
0.0
  0
LINE
  5
611
330
18
100
AcDbEntity
  8
1
 62
     1
100
AcDbLine
 10
14.91345298923241
 20
0.7992071350157511
 30
0.0
 11
14.91345298923241
 21
0.788248041828376
 31
0.0
  0
LINE
  5
612
330
18
100
AcDbEntity
  8
1
 62
     1
100
AcDbLine
 10
14.0
 20
-0.4753815769696874
 30
0.0
 11
14.0
 21
-0.2598100697975536
 31
0.0
  0
ARC
  5
613
330
18
100
AcDbEntity
  8
1
 62
     1
100
AcDbCircle
 10
18.45030192399262
 20
-1.079801507972313
 30
0.0
 40
0.8421882621970443
100
AcDbArc
 50
79.76447205725597
 51
90.93588268048885
  0
LINE
  5
614
330
18
100
AcDbEntity
  8
1
 62
     1
100
AcDbLine
 10
18.43654701076759
 20
-0.2377853018526391
 30
0.0
 11
18.41345298923241
 21
-0.2134227680294202
 31
0.0
  0
LINE
  5
615
330
18
100
AcDbEntity
  8
1
 62
     1
100
AcDbLine
 10
18.08654701076759
 20
0.1426648895374971
 30
0.0
 11
18.06345298923242
 21
0.1675763854753934
 31
0.0
  0
LINE
  5
616
330
18
100
AcDbEntity
  8
1
 62
     1
100
AcDbLine
 10
17.73654701076759
 20
0.4907287813850604
 30
0.0
 11
17.71345298923241
 21
0.5105338494482671
 31
0.0
  0
LINE
  5
617
330
18
100
AcDbEntity
  8
1
 62
     1
100
AcDbLine
 10
17.38654701076759
 20
0.7273919228134418
 30
0.0
 11
17.36345298923241
 21
0.7375947922923094
 31
0.0
  0
LINE
  5
618
330
18
100
AcDbEntity
  8
1
 62
     1
100
AcDbLine
 10
17.03654701076759
 20
0.7989294153345856
 30
0.0
 11
17.01345298923242
 21
0.7972138239233701
 31
0.0
  0
LINE
  5
619
330
18
100
AcDbEntity
  8
1
 62
     1
100
AcDbLine
 10
16.68654701076759
 20
0.6891014262326862
 30
0.0
 11
16.66345298923241
 21
0.6758568395921513
 31
0.0
  0
ARC
  5
61A
330
18
100
AcDbEntity
  8
1
 62
     1
100
AcDbCircle
 10
79.18506728424097
 20
36.15602834168905
 30
0.0
 40
74.13959090061196
100
AcDbArc
 50
209.6452429827821
 51
209.7530637203562
  0
LINE
  5
61B
330
18
100
AcDbEntity
  8
1
 62
     1
100
AcDbLine
 10
14.5865470107676
 20
-0.7693458253836957
 30
0.0
 11
14.56345298923241
 21
-0.7619970988072743
 31
0.0
  0
LINE
  5
61C
330
18
100
AcDbEntity
  8
1
 62
     1
100
AcDbLine
 10
14.23654701076759
 20
-0.5805270662560922
 30
0.0
 11
14.21345298923241
 21
-0.5627646739955343
 31
0.0
  0
LINE
  5
61D
330
18
100
AcDbEntity
  8
1
 62
     1
100
AcDbLine
 10
14.23654701076759
 20
-0.6547388104134019
 30
0.0
 11
14.21345298923241
 21
-0.668998637860448
 31
0.0
  0
LINE
  5
61E
330
18
100
AcDbEntity
  8
1
 62
     1
100
AcDbLine
 10
16.33654701076759
 20
0.7495498871074596
 30
0.0
 11
16.31345298923241
 21
0.7580461296432466
 31
0.0
  0
LINE
  5
61F
330
18
100
AcDbEntity
  8
1
 62
     1
100
AcDbLine
 10
16.68654701076759
 20
0.5350912446308923
 30
0.0
 11
16.66345298923241
 21
0.5536964473380925
 31
0.0
  0
LINE
  5
620
330
18
100
AcDbEntity
  8
1
 62
     1
100
AcDbLine
 10
17.0365470107676
 20
0.1991611793675093
 30
0.0
 11
17.01345298923242
 21
0.2236517367478244
 31
0.0
  0
LINE
  5
621
330
18
100
AcDbEntity
  8
1
 62
     1
100
AcDbLine
 10
17.38654701076759
 20
-0.1819805869359455
 30
0.0
 11
17.36345298923241
 21
-0.1571642104729833
 31
0.0
  0
LINE
  5
622
330
18
100
AcDbEntity
  8
1
 62
     1
100
AcDbLine
 10
17.73654701076759
 20
-0.5218107951482345
 30
0.0
 11
17.71345298923242
 21
-0.5023023041671106
 31
0.0
  0
LINE
  5
623
330
18
100
AcDbEntity
  8
1
 62
     1
100
AcDbLine
 10
18.08654701076758
 20
-0.7431844547415329
 30
0.0
 11
18.06345298923242
 21
-0.7334123704633815
 31
0.0
  0
ARC
  5
624
330
18
100
AcDbEntity
  8
1
 62
     1
100
AcDbCircle
 10
22.3310776460797
 20
1.51880831903702
 30
0.0
 40
4.552334378321438
100
AcDbArc
 50
206.3012406068026
 51
209.6718625835099
  0
LINE
  5
625
330
18
100
AcDbEntity
  8
1
 62
     1
100
AcDbLine
 10
18.37575023488705
 20
-0.7346969443361182
 30
0.0
 11
18.41345298923241
 21
-0.7980300649533164
 31
0.0
  0
LINE
  5
626
330
18
100
AcDbEntity
  8
1
 62
     1
100
AcDbLine
 10
18.43654701076753
 20
-0.7958473104655603
 30
0.0
 11
18.41345298923241
 21
-0.7980300649533134
 31
0.0
  0
LINE
  5
627
330
18
100
AcDbEntity
  8
1
 62
     1
100
AcDbLine
 10
20.0
 20
-0.247342262816018
 30
0.0
 11
20.0
 21
0.3372175929358481
 31
0.0
  0
LINE
  5
628
330
18
100
AcDbEntity
  8
1
 62
     1
100
AcDbLine
 10
17.03654701076759
 20
-0.7989294153345854
 30
0.0
 11
17.01345298923242
 21
-0.7972138239233697
 31
0.0
  0
LINE
  5
629
330
18
100
AcDbEntity
  8
1
 62
     1
100
AcDbLine
 10
16.68654701076758
 20
-0.6891014262327176
 30
0.0
 11
16.66345298923241
 21
-0.6758568395921546
 31
0.0
  0
ARC
  5
62A
330
18
100
AcDbEntity
  8
1
 62
     1
100
AcDbCircle
 10
15.64697724244225
 20
-0.933531106889867
 30
0.0
 40
0.9367114991933716
100
AcDbArc
 50
57.52724704226171
 51
68.74422154858196
  0
LINE
  5
62B
330
18
100
AcDbEntity
  8
1
 62
     1
100
AcDbLine
 10
15.98654701076759
 20
-0.0605895342250189
 30
0.0
 11
15.96345298923242
 21
-0.0352416810988891
 31
0.0
  0
LINE
  5
62C
330
18
100
AcDbEntity
  8
1
 62
     1
100
AcDbLine
 10
15.63654701076759
 20
0.3154153871840107
 30
0.0
 11
15.61345298923241
 21
0.3385900984799224
 31
0.0
  0
LINE
  5
62D
330
18
100
AcDbEntity
  8
1
 62
     1
100
AcDbLine
 10
15.28654701076759
 20
0.6198178031046526
 30
0.0
 11
15.26345298923242
 21
0.6355582835666328
 31
0.0
  0
ARC
  5
62E
330
18
100
AcDbEntity
  8
1
 62
     1
100
AcDbCircle
 10
8.426217065829768
 20
-2.862377683187862
 30
0.0
 40
7.461666526036842
100
AcDbArc
 50
26.56457409484607
 51
29.24954866108008
  0
LINE
  5
62F
330
18
100
AcDbEntity
  8
1
 62
     1
100
AcDbLine
 10
14.93654701076759
 20
0.7835149009155181
 30
0.0
 11
14.91345298923241
 21
0.7882480418283766
 31
0.0
  0
LINE
  5
630
330
18
100
AcDbEntity
  8
1
 62
     1
100
AcDbLine
 10
14.58654701076759
 20
0.7693458253836855
 30
0.0
 11
14.56345298923241
 21
0.7619970988072773
 31
0.0
  0
LINE
  5
631
330
18
100
AcDbEntity
  8
1
 62
     1
100
AcDbLine
 10
14.23654701076759
 20
0.654738810413403
 30
0.0
 11
14.21345298923241
 21
0.668998637860448
 31
0.0
  0
LINE
  5
632
330
18
100
AcDbEntity
  8
1
 62
     1
100
AcDbLine
 10
14.58654701076759
 20
0.3677049816911762
 30
0.0
 11
14.56345298923241
 21
0.3900690941792966
 31
0.0
  0
LINE
  5
633
330
18
100
AcDbEntity
  8
1
 62
     1
100
AcDbLine
 10
15.28654701076759
 20
-0.3726724892173146
 30
0.0
 11
15.26345298923242
 21
-0.3500177083680229
 31
0.0
  0
LINE
  5
634
330
18
100
AcDbEntity
  8
1
 62
     1
100
AcDbLine
 10
15.63654701076759
 20
-0.6579426336099684
 30
0.0
 11
15.61345298923241
 21
-0.6431674085099837
 31
0.0
  0
LINE
  5
635
330
18
100
AcDbEntity
  8
1
 62
     1
100
AcDbLine
 10
15.98654701076759
 20
-0.7938527593556365
 30
0.0
 11
15.96345298923242
 21
-0.7903113066106355
 31
0.0
  0
LINE
  5
636
330
18
100
AcDbEntity
  8
1
 62
     1
100
AcDbLine
 10
16.33654701076759
 20
-0.7495498871074613
 30
0.0
 11
16.31345298923242
 21
-0.7580461296432427
 31
0.0
  0
LINE
  5
637
330
18
100
AcDbEntity
  8
1
 62
     1
100
AcDbLine
 10
18.43654701076752
 20
0.7958473104655606
 30
0.0
 11
18.41345298923241
 21
0.7980300649533126
 31
0.0
  0
ARC
  5
638
330
18
100
AcDbEntity
  8
1
 62
     1
100
AcDbCircle
 10
19.15294671603272
 20
-0.0828023170472373
 30
0.0
 40
0.3184638978901755
100
AcDbArc
 50
50.11306335998108
 51
62.49845723870414
  0
ARC
  5
639
330
18
100
AcDbEntity
  8
1
 62
     1
100
AcDbCircle
 10
19.74085948374003
 20
0.0376773395676493
 30
0.0
 40
0.4076014085941881
100
AcDbArc
 50
298.7759481389721
 51
309.4719316541711
  0
LINE
  5
63A
330
18
100
AcDbEntity
  8
1
 62
     1
100
AcDbLine
 10
20.0
 20
-0.2473422628160199
 30
0.0
 11
20.0
 21
-0.2769991988075763
 31
0.0
  0
LINE
  5
63B
330
18
100
AcDbEntity
  8
1
 62
     1
100
AcDbLine
 10
14.0
 20
-0.2598100697972226
 30
0.0
 11
14.05
 21
-0.2638170310164415
 31
0.0
  0
LINE
  5
63C
330
18
100
AcDbEntity
  8
1
 62
     1
100
AcDbLine
 10
14.00000000015866
 20
0.5890383377441659
 30
0.0
 11
14.05
 21
0.5019342392551152
 31
0.0
  0
LINE
  5
63D
330
18
100
AcDbEntity
  8
1
 62
     1
100
AcDbLine
 10
14.00000000015866
 20
-0.5890383377441628
 30
0.0
 11
14.05
 21
-0.5019342392551149
 31
0.0
  0
LINE
  5
63E
330
18
100
AcDbEntity
  8
1
 62
     1
100
AcDbLine
 10
14.0
 20
-0.5890383376506676
 30
0.0
 11
14.0
 21
-0.4753815769696874
 31
0.0
  0
LINE
  5
63F
330
18
100
AcDbEntity
  8
1
 62
     1
100
AcDbLine
 10
14.0
 20
-0.2598100697975536
 30
0.0
 11
14.0
 21
0.5890383379782121
 31
0.0
  0
LINE
  5
640
330
18
100
AcDbEntity
  8
1
 62
     1
100
AcDbLine
 10
18.06345298923242
 20
-0.8
 30
0.0
 11
18.08654701076759
 21
-0.8
 31
0.0
  0
LINE
  5
641
330
18
100
AcDbEntity
  8
1
 62
     1
100
AcDbLine
 10
17.71345298923242
 20
-0.8
 30
0.0
 11
17.73654701076759
 21
-0.8
 31
0.0
  0
LINE
  5
642
330
18
100
AcDbEntity
  8
1
 62
     1
100
AcDbLine
 10
17.36345298923241
 20
-0.8
 30
0.0
 11
17.38654701076759
 21
-0.8
 31
0.0
  0
LINE
  5
643
330
18
100
AcDbEntity
  8
1
 62
     1
100
AcDbLine
 10
18.25
 20
0.51689125
 30
0.0
 11
18.08654701076759
 21
0.8000000000000022
 31
0.0
  0
LINE
  5
644
330
18
100
AcDbEntity
  8
1
 62
     1
100
AcDbLine
 10
18.37575023338502
 20
0.7346969403379244
 30
0.0
 11
18.41345298923241
 21
0.7980300649533167
 31
0.0
  0
LINE
  5
645
330
18
100
AcDbEntity
  8
1
 62
     1
100
AcDbLine
 10
18.37575023278027
 20
0.7346969406870789
 30
0.0
 11
18.25
 21
0.51689125
 31
0.0
  0
LINE
  5
646
330
18
100
AcDbEntity
  8
1
 62
     1
100
AcDbLine
 10
17.36345298923241
 20
0.8000000000000023
 30
0.0
 11
17.2
 21
0.51689125
 31
0.0
  0
ARC
  5
647
330
18
100
AcDbEntity
  8
1
 62
     1
100
AcDbCircle
 10
11.73594174330445
 20
-2.422748327474225
 30
0.0
 40
6.201836954494041
100
AcDbArc
 50
28.23093820817088
 51
30.12995247847364
  0
LINE
  5
648
330
18
100
AcDbEntity
  8
1
 62
     1
100
AcDbLine
 10
17.2
 20
0.51689125
 30
0.0
 11
17.09985348032744
 21
0.6903500293988597
 31
0.0
  0
LINE
  5
649
330
18
100
AcDbEntity
  8
1
 62
     1
100
AcDbLine
 10
17.55
 20
0.5168912500000001
 30
0.0
 11
17.38654701076759
 21
0.8000000000000025
 31
0.0
  0
LINE
  5
64A
330
18
100
AcDbEntity
  8
1
 62
     1
100
AcDbLine
 10
17.71345298923242
 20
0.8000000000000027
 30
0.0
 11
17.55
 21
0.51689125
 31
0.0
  0
LINE
  5
64B
330
18
100
AcDbEntity
  8
1
 62
     1
100
AcDbLine
 10
17.90000000000001
 20
0.51689125
 30
0.0
 11
17.73654701076759
 21
0.8000000000000025
 31
0.0
  0
LINE
  5
64C
330
18
100
AcDbEntity
  8
1
 62
     1
100
AcDbLine
 10
18.06345298923242
 20
0.8000000000000027
 30
0.0
 11
17.9
 21
0.51689125
 31
0.0
  0
LINE
  5
64D
330
18
100
AcDbEntity
  8
1
 62
     1
100
AcDbLine
 10
19.73329149790693
 20
0.6611562889496894
 30
0.0
 11
19.65
 21
0.51689125
 31
0.0
  0
LINE
  5
64E
330
18
100
AcDbEntity
  8
1
 62
     1
100
AcDbLine
 10
20.0
 20
0.51689125
 30
0.0
 11
19.9370690749207
 21
0.6258907587836033
 31
0.0
  0
LINE
  5
64F
330
18
100
AcDbEntity
  8
1
 62
     1
100
AcDbLine
 10
19.38804773598344
 20
0.6693943182468679
 30
0.0
 11
19.41508528443863
 21
0.7154447192451647
 31
0.0
  0
LINE
  5
650
330
18
100
AcDbEntity
  8
1
 62
     1
100
AcDbLine
 10
19.41508528443863
 20
0.7162247169119308
 30
0.0
 11
19.38804773041349
 21
0.6693943214626858
 31
0.0
  0
LINE
  5
651
330
18
100
AcDbEntity
  8
1
 62
     1
100
AcDbLine
 10
19.65
 20
0.5168912499999999
 30
0.0
 11
19.54821662216536
 21
0.6931851495784885
 31
0.0
  0
LINE
  5
652
330
18
100
AcDbEntity
  8
1
 62
     1
100
AcDbLine
 10
19.73329149790693
 20
-0.66115628894969
 30
0.0
 11
19.9370690749207
 21
-0.6258907587836019
 31
0.0
  0
LINE
  5
653
330
18
100
AcDbEntity
  8
1
 62
     1
100
AcDbLine
 10
19.41508528443863
 20
-0.71622471691193
 30
0.0
 11
19.54821662216537
 21
-0.6931851495784908
 31
0.0
  0
LINE
  5
654
330
18
100
AcDbEntity
  8
1
 62
     1
100
AcDbLine
 10
15.96345298923242
 20
-0.8
 30
0.0
 11
15.98654701076759
 21
-0.8
 31
0.0
  0
LINE
  5
655
330
18
100
AcDbEntity
  8
1
 62
     1
100
AcDbLine
 10
15.61345298923241
 20
-0.7999999999999999
 30
0.0
 11
15.63654701076758
 21
-0.8
 31
0.0
  0
LINE
  5
656
330
18
100
AcDbEntity
  8
1
 62
     1
100
AcDbLine
 10
15.26345298923242
 20
-0.8
 30
0.0
 11
15.2865470107676
 21
-0.8000000000000002
 31
0.0
  0
LINE
  5
657
330
18
100
AcDbEntity
  8
1
 62
     1
100
AcDbLine
 10
14.91345298923241
 20
-0.8
 30
0.0
 11
14.9365470107676
 21
-0.8
 31
0.0
  0
LINE
  5
658
330
18
100
AcDbEntity
  8
1
 62
     1
100
AcDbLine
 10
15.61345298923241
 20
0.7999999999999999
 30
0.0
 11
15.45
 21
0.51689125
 31
0.0
  0
LINE
  5
659
330
18
100
AcDbEntity
  8
1
 62
     1
100
AcDbLine
 10
15.45
 20
0.51689125
 30
0.0
 11
15.28654701076759
 21
0.7999999999999989
 31
0.0
  0
LINE
  5
65A
330
18
100
AcDbEntity
  8
1
 62
     1
100
AcDbLine
 10
15.8
 20
0.51689125
 30
0.0
 11
15.63654701076758
 21
0.8000000000000056
 31
0.0
  0
LINE
  5
65B
330
18
100
AcDbEntity
  8
1
 62
     1
100
AcDbLine
 10
15.96345298923242
 20
0.8000000000000027
 30
0.0
 11
15.8
 21
0.51689125
 31
0.0
  0
LINE
  5
65C
330
18
100
AcDbEntity
  8
1
 62
     1
100
AcDbLine
 10
16.15
 20
0.51689125
 30
0.0
 11
15.98654701076759
 21
0.8000000000000025
 31
0.0
  0
ARC
  5
65D
330
18
100
AcDbEntity
  8
1
 62
     1
100
AcDbCircle
 10
17.61136605310838
 20
-0.2934542200200477
 30
0.0
 40
1.670773695271314
100
AcDbArc
 50
140.9874427564327
 51
150.6016178476746
  0
LINE
  5
65E
330
18
100
AcDbEntity
  8
1
 62
     1
100
AcDbLine
 10
16.15567968159395
 20
0.5267287425048053
 30
0.0
 11
16.15
 21
0.51689125
 31
0.0
  0
LINE
  5
65F
330
18
100
AcDbEntity
  8
1
 62
     1
100
AcDbLine
 10
15.1
 20
0.51689125
 30
0.0
 11
14.93654701076759
 21
0.7999999999999989
 31
0.0
  0
LINE
  5
660
330
18
100
AcDbEntity
  8
1
 62
     1
100
AcDbLine
 10
15.26345298923242
 20
0.8000000000000027
 30
0.0
 11
15.1
 21
0.51689125
 31
0.0
  0
ARC
  5
661
330
18
100
AcDbEntity
  8
1
 62
     1
100
AcDbCircle
 10
16.7346986850977
 20
-0.446629636104427
 30
0.0
 40
2.200610381413325
100
AcDbArc
 50
145.8611539523825
 51
150.5100908227792
  0
LINE
  5
662
330
18
100
AcDbEntity
  8
1
 62
     1
100
AcDbLine
 10
14.91345298923241
 20
0.7999999999999999
 30
0.0
 11
14.81916212135163
 21
0.6366835022871016
 31
0.0
  0
LINE
  5
663
330
18
100
AcDbEntity
  8
1
 62
     1
100
AcDbLine
 10
18.29322711627984
 20
-0.0378522991813868
 30
0.0
 11
18.30150768819549
 21
-0.0449486832317119
 31
0.0
  0
LINE
  5
664
330
18
100
AcDbEntity
  8
1
 62
     1
100
AcDbLine
 10
18.30150768819549
 20
-0.0449486832317119
 30
0.0
 11
18.30968570825187
 21
-0.0526905272752531
 31
0.0
  0
LINE
  5
665
330
18
100
AcDbEntity
  8
1
 62
     1
100
AcDbLine
 10
18.30968570825187
 20
-0.0526905272752531
 30
0.0
 11
18.31776310507973
 21
-0.061049732374017
 31
0.0
  0
LINE
  5
666
330
18
100
AcDbEntity
  8
1
 62
     1
100
AcDbLine
 10
18.31776310507973
 20
-0.061049732374017
 30
0.0
 11
18.32573566551978
 21
-0.0699924600647889
 31
0.0
  0
LINE
  5
667
330
18
100
AcDbEntity
  8
1
 62
     1
100
AcDbLine
 10
18.32573566551978
 20
-0.0699924600647889
 30
0.0
 11
18.34137527187232
 21
-0.0895267278696851
 31
0.0
  0
LINE
  5
668
330
18
100
AcDbEntity
  8
1
 62
     1
100
AcDbLine
 10
18.34137527187232
 20
-0.0895267278696851
 30
0.0
 11
18.35659452365684
 21
-0.1110602125972705
 31
0.0
  0
LINE
  5
669
330
18
100
AcDbEntity
  8
1
 62
     1
100
AcDbLine
 10
18.35659452365684
 20
-0.1110602125972705
 30
0.0
 11
18.37140661297557
 21
-0.1344022589281919
 31
0.0
  0
LINE
  5
66A
330
18
100
AcDbEntity
  8
1
 62
     1
100
AcDbLine
 10
18.37140661297557
 20
-0.1344022589281919
 30
0.0
 11
18.38581142550484
 21
-0.1593529478065293
 31
0.0
  0
LINE
  5
66B
330
18
100
AcDbEntity
  8
1
 62
     1
100
AcDbLine
 10
18.38581142550484
 20
-0.1593529478065293
 30
0.0
 11
18.41345298923242
 21
-0.2134227680294296
 31
0.0
  0
ARC
  5
66C
330
18
100
AcDbEntity
  8
1
 62
     1
100
AcDbCircle
 10
16.9365945083761
 20
-1.215733541874402
 30
0.0
 40
1.780805723236062
100
AcDbArc
 50
42.47794978071092
 51
46.89651998941822
  0
ARC
  5
66D
330
18
100
AcDbEntity
  8
1
 62
     1
100
AcDbCircle
 10
17.83601866211756
 20
-0.005059381522151
 30
0.0
 40
0.2855192440298362
100
AcDbArc
 50
37.20059405436965
 51
44.59639142248628
  0
LINE
  5
66E
330
18
100
AcDbEntity
  8
1
 62
     1
100
AcDbLine
 10
18.15345103230339
 20
0.0844693956427428
 30
0.0
 11
18.1530211189706
 21
0.0848706325733538
 31
0.0
  0
ARC
  5
66F
330
18
100
AcDbEntity
  8
1
 62
     1
100
AcDbCircle
 10
17.35955796215212
 20
0.4388495431273809
 30
0.0
 40
0.3996433204575384
100
AcDbArc
 50
223.9158296512326
 51
246.4425562878267
  0
ARC
  5
670
330
18
100
AcDbEntity
  8
1
 62
     1
100
AcDbCircle
 10
15.6186195881961
 20
-0.2122439475987609
 30
0.0
 40
0.3872503836119474
100
AcDbArc
 50
27.17133512252559
 51
45.77913540914663
  0
ARC
  5
671
330
18
100
AcDbEntity
  8
1
 62
     1
100
AcDbCircle
 10
19.03204568324795
 20
-0.2320898650723833
 30
0.0
 40
0.5106157686569661
100
AcDbArc
 50
41.40250090487336
 51
50.44583742061586
  0
ARC
  5
672
330
18
100
AcDbEntity
  8
1
 62
     1
100
AcDbCircle
 10
14.40356318542602
 20
-0.3144329206981731
 30
0.0
 40
0.6107281758127827
100
AcDbArc
 50
33.46357440492481
 51
51.22069083470453
  0
LINE
  5
673
330
18
100
AcDbEntity
  8
SK1
100
AcDbLine
 10
-15.62
 20
-1.049999999999905
 30
0.0
 11
-15.62
 21
-1.25
 31
0.0
  0
LINE
  5
674
330
18
100
AcDbEntity
  8
SK1
100
AcDbLine
 10
-20.495
 20
1.05
 30
0.0
 11
-15.62
 21
1.05
 31
0.0
  0
LINE
  5
675
330
18
100
AcDbEntity
  8
SK1
100
AcDbLine
 10
-20.495
 20
1.049999999999905
 30
0.0
 11
-20.495
 21
0.6782329983125269
 31
0.0
  0
ARC
  5
676
330
18
100
AcDbEntity
  8
SK1
100
AcDbCircle
 10
-18.79873312031258
 20
-0.2617812441009973
 30
0.0
 40
1.939139678600631
100
AcDbArc
 50
151.0062492250177
 51
159.922765175373
  0
LINE
  5
677
330
18
100
AcDbEntity
  8
SK1
100
AcDbLine
 10
-20.62
 20
1.05
 30
0.0
 11
-20.495
 21
1.05
 31
0.0
  0
LINE
  5
678
330
18
100
AcDbEntity
  8
SK1
100
AcDbLine
 10
-15.62
 20
1.25
 30
0.0
 11
-15.62
 21
1.249957708264052
 31
0.0
  0
LINE
  5
679
330
18
100
AcDbEntity
  8
SK1
100
AcDbLine
 10
-15.62
 20
1.249957708264052
 30
0.0
 11
-15.62
 21
1.237149268026273
 31
0.0
  0
LINE
  5
67A
330
18
100
AcDbEntity
  8
SK1
100
AcDbLine
 10
-15.62
 20
1.237149268026273
 30
0.0
 11
-15.62
 21
1.049999999999905
 31
0.0
  0
LINE
  5
67B
330
18
100
AcDbEntity
  8
SK1
100
AcDbLine
 10
-20.495
 20
-0.6782329983125264
 30
0.0
 11
-15.62
 21
-0.6782329983125264
 31
0.0
  0
LINE
  5
67C
330
18
100
AcDbEntity
  8
SK1
100
AcDbLine
 10
-20.495
 20
-0.6782329983126734
 30
0.0
 11
-20.495
 21
-1.049999999999905
 31
0.0
  0
LINE
  5
67D
330
18
100
AcDbEntity
  8
SK1
100
AcDbLine
 10
-20.495
 20
-1.05
 30
0.0
 11
-15.62
 21
-1.05
 31
0.0
  0
LINE
  5
67E
330
18
100
AcDbEntity
  8
SK1
100
AcDbLine
 10
-20.62
 20
1.05
 30
0.0
 11
-20.62
 21
0.4038873605350875
 31
0.0
  0
LINE
  5
67F
330
18
100
AcDbEntity
  8
SK1
100
AcDbLine
 10
-20.62
 20
-0.4038873605350875
 30
0.0
 11
-20.62
 21
-1.05
 31
0.0
  0
ARC
  5
680
330
18
100
AcDbEntity
  8
SK1
100
AcDbCircle
 10
-18.79873312031541
 20
0.2617812440997702
 30
0.0
 40
1.939139678597555
100
AcDbArc
 50
200.0772348246214
 51
208.9937507749911
  0
LINE
  5
681
330
18
100
AcDbEntity
  8
SK1
100
AcDbLine
 10
-20.62
 20
-1.05
 30
0.0
 11
-20.495
 21
-1.05
 31
0.0
  0
LINE
  5
682
330
18
100
AcDbEntity
  8
SK1
100
AcDbLine
 10
-15.62
 20
0.6782329983123466
 30
0.0
 11
-15.62
 21
-0.6782329983123463
 31
0.0
  0
LINE
  5
683
330
18
100
AcDbEntity
  8
SK1
100
AcDbLine
 10
-20.62
 20
0.4038873605350879
 30
0.0
 11
-20.62
 21
-0.4038873605350874
 31
0.0
  0
LINE
  5
684
330
18
100
AcDbEntity
  8
SK1
100
AcDbLine
 10
-20.495
 20
0.6782329983125267
 30
0.0
 11
-15.62
 21
0.6782329983125267
 31
0.0
  0
LINE
  5
685
330
18
100
AcDbEntity
  8
SK1
100
AcDbLine
 10
0.0000000000000018
 20
1.25
 30
0.0
 11
-15.62
 21
1.25
 31
0.0
  0
LINE
  5
686
330
18
100
AcDbEntity
  8
SK1
100
AcDbLine
 10
-15.62
 20
-1.25
 30
0.0
 11
0.0000000000000009
 21
-1.25
 31
0.0
  0
DIMENSION
  5
687
330
18
100
AcDbEntity
  8
2
100
AcDbDimension
  2
*D0
 10
35.00000000000001
 20
-0.7999999999999476
 30
0.0
 11
32.60225000000005
 21
-11.62774999999996
 31
0.0
 70
    32
  1
M1.6
 71
     5
 42
1.6
  3
STANDARD
100
AcDbAlignedDimension
 13
20.0
 23
0.8
 33
0.0
 14
20.0
 24
-0.8
 34
0.0
 50
90.0000000000002
100
AcDbRotatedDimension
  0
DIMENSION
  5
695
330
18
100
AcDbEntity
  8
2
100
AcDbDimension
  2
*D1
 10
20.0
 20
75.0
 30
0.0
 11
10.0
 21
77.39075
 31
0.0
 70
    32
  1
<>
 71
     5
 42
20.0
  3
STANDARD
100
AcDbAlignedDimension
 13
0.0
 23
0.0
 33
0.0
 14
20.0
 24
0.0
 34
0.0
100
AcDbRotatedDimension
  0
DIMENSION
  5
6A2
330
18
100
AcDbEntity
  8
SK2
100
AcDbDimension
  2
*D2
 10
-35.61999999999362
 20
-1.250000000102068
 30
0.0
 11
-38.01774999993709
 21
-12.32450000011431
 31
0.0
 70
    32
  1
%%c<>
 71
     5
 42
2.5
  3
STANDARD
100
AcDbAlignedDimension
 13
-15.62
 23
1.25
 33
0.0
 14
-15.62
 24
-1.25
 34
0.0
 50
90.0000000002924
100
AcDbRotatedDimension
  0
DIMENSION
  5
6B0
330
18
100
AcDbEntity
  8
2
100
AcDbDimension
  2
*D3
 10
20.0
 20
60.0
 30
0.0
 11
17.0
 21
62.39075
 31
0.0
 70
    32
  1
<>
 71
     5
 42
6.000000000000001
  3
STANDARD
100
AcDbAlignedDimension
 13
14.0
 23
1.25
 33
0.0
 14
20.0
 24
0.8
 34
0.0
100
AcDbRotatedDimension
  0
DIMENSION
  5
6BE
330
18
100
AcDbEntity
  8
SK2
100
AcDbDimension
  2
*D4
 10
20.0
 20
90.0
 30
0.0
 11
-0.3099999999999987
 21
92.438
 31
0.0
 70
    32
  1
<>
 71
     5
 42
40.62
  3
STANDARD
100
AcDbAlignedDimension
 13
-20.62
 23
0.8
 33
0.0
 14
20.0
 24
0.8
 34
0.0
100
AcDbRotatedDimension
  0
ENDSEC
  0
SECTION
  2
OBJECTS
  0
DICTIONARY
  5
C
330
0
100
AcDbDictionary
281
     1
  3
ACAD_COLOR
350
387
  3
ACAD_GROUP
350
D
  3
ACAD_LAYOUT
350
301
  3
ACAD_MATERIAL
350
386
  3
ACAD_MLEADERSTYLE
350
6CB
  3
ACAD_MLINESTYLE
350
E
  3
ACAD_PLOTSETTINGS
350
302
  3
ACAD_PLOTSTYLENAME
350
2FF
  3
ACAD_SCALELIST
350
3A0
  3
ACAD_TABLESTYLE
350
388
  3
ACAD_VISUALSTYLE
350
3C5
  3
ACDBHEADERROUNDTRIPXREC
350
6CC
  3
AcDbVariableDictionary
350
357
  0
DICTIONARY
  5
387
102
{ACAD_REACTORS
330
C
102
}
330
C
100
AcDbDictionary
281
     1
  0
DICTIONARY
  5
D
102
{ACAD_REACTORS
330
C
102
}
330
C
100
AcDbDictionary
281
     1
  0
DICTIONARY
  5
301
102
{ACAD_REACTORS
330
C
102
}
330
C
100
AcDbDictionary
281
     1
  3
Layout1
350
33B
  3
Model
350
303
  0
DICTIONARY
  5
386
102
{ACAD_REACTORS
330
C
102
}
330
C
100
AcDbDictionary
281
     1
  3
ByBlock
350
3C3
  3
ByLayer
350
3C2
  3
Global
350
3C4
  0
DICTIONARY
  5
6CB
102
{ACAD_REACTORS
330
C
102
}
330
C
100
AcDbDictionary
281
     1
  0
DICTIONARY
  5
E
102
{ACAD_REACTORS
330
C
102
}
330
C
100
AcDbDictionary
281
     1
  3
STANDARD
350
1B
  0
DICTIONARY
  5
302
102
{ACAD_REACTORS
330
C
102
}
330
C
100
AcDbDictionary
281
     1
  0
ACDBDICTIONARYWDFLT
  5
2FF
102
{ACAD_REACTORS
330
C
102
}
330
C
100
AcDbDictionary
281
     1
  3
Normal
350
300
100
AcDbDictionaryWithDefault
340
300
  0
DICTIONARY
  5
3A0
102
{ACAD_REACTORS
330
C
102
}
330
C
100
AcDbDictionary
281
     1
  3
A0
350
3A1
  3
A1
350
3A2
  3
A2
350
3A3
  3
A3
350
3A4
  3
A4
350
3A5
  3
A5
350
3A6
  3
A6
350
3A7
  3
A7
350
3A8
  3
A8
350
3A9
  3
A9
350
3AA
  3
B0
350
3AB
  3
B1
350
3AC
  3
B2
350
3AD
  3
B3
350
3AE
  3
B4
350
3AF
  3
B5
350
3B0
  3
B6
350
3B1
  3
B7
350
3B2
  3
B8
350
3B3
  3
B9
350
3B4
  3
C0
350
3B5
  3
C1
350
3B6
  3
C2
350
3B7
  3
C3
350
3B8
  3
C4
350
3B9
  3
C5
350
3BA
  3
C6
350
3BB
  3
C7
350
3BC
  3
C8
350
3BD
  3
C9
350
3BE
  3
D0
350
3BF
  3
D1
350
3C0
  3
D2
350
3C1
  0
DICTIONARY
  5
388
102
{ACAD_REACTORS
330
C
102
}
330
C
100
AcDbDictionary
281
     1
  3
Standard
350
389
  0
DICTIONARY
  5
3C5
102
{ACAD_REACTORS
330
C
102
}
330
C
100
AcDbDictionary
281
     1
  3
2dWireframe
350
3CA
  3
3D Hidden
350
3CC
  3
3dWireframe
350
3CB
  3
Basic
350
3CD
  3
Brighten
350
3D1
  3
ColorChange
350
3D5
  3
Conceptual
350
3CF
  3
Dim
350
3D0
  3
Facepattern
350
3D4
  3
Flat
350
3C6
  3
FlatWithEdges
350
3C7
  3
Gouraud
350
3C8
  3
GouraudWithEdges
350
3C9
  3
Linepattern
350
3D3
  3
Realistic
350
3CE
  3
Thicken
350
3D2
  0
DICTIONARY
  5
6CC
102
{ACAD_REACTORS
330
C
102
}
330
C
100
AcDbDictionary
281
     1
  3
COLORDICT
350
6CD
  3
MATERIALDICT
350
6CE
  0
DICTIONARY
  5
357
102
{ACAD_REACTORS
330
C
102
}
330
C
100
AcDbDictionary
281
     1
  3
CANNOSCALE
350
6CF
  3
CTABLESTYLE
350
38D
  3
DIMASSOC
350
359
  3
HIDETEXT
350
358
  3
PROJECTNAME
350
38E
  0
LAYOUT
  5
33B
102
{ACAD_REACTORS
330
301
102
}
330
301
100
AcDbPlotSettings
  1

  2
Lexmark Optra PS2
  4

  6

 40
0.0
 41
0.0
 42
0.0
 43
0.0
 44
0.0
 45
0.0
 46
0.0
 47
0.0
 48
0.0
 49
0.0
140
0.0
141
0.0
142
1.0
143
1.0
 70
   688
 72
     0
 73
     0
 74
     5
  7
monochrome.ctb
 75
    16
147
1.0
148
0.0
149
0.0
100
AcDbLayout
  1
Layout1
 70
     1
 71
     1
 10
0.0
 20
0.0
 11
12.0
 21
9.0
 12
0.0
 22
0.0
 32
0.0
 14
0.0
 24
0.0
 34
0.0
 15
0.0
 25
0.0
 35
0.0
146
0.0
 13
0.0
 23
0.0
 33
0.0
 16
1.0
 26
0.0
 36
0.0
 17
0.0
 27
1.0
 37
0.0
 76
     0
330
338
  0
LAYOUT
  5
303
102
{ACAD_REACTORS
330
301
102
}
330
301
100
AcDbPlotSettings
  1

  2
Lexmark Optra Rx
  4
A4
  6

 40
6.805083274841307
 41
5.535083293914794
 42
6.974411010742187
 43
7.14373779296875
 44
209.9733276367186
 45
296.9259948730469
 46
0.0
 47
0.0
 48
0.0
 49
0.0
140
0.0
141
0.0
142
1.0
143
2.976565420630886
 70
 11952
 72
     1
 73
     1
 74
     0
  7
monochrome.ctb
 75
     0
147
0.335957675604539
148
204.1199660668592
149
172.3933209647495
100
AcDbLayout
  1
Model
 70
     1
 71
     0
 10
0.0
 20
0.0
 11
12.0
 21
9.0
 12
0.0
 22
0.0
 32
0.0
 14
0.0
 24
0.0
 34
0.0
 15
0.0
 25
0.0
 35
0.0
146
0.0
 13
0.0
 23
0.0
 33
0.0
 16
1.0
 26
0.0
 36
0.0
 17
0.0
 27
1.0
 37
0.0
 76
     0
330
18
331
39A
  0
MATERIAL
  5
3C3
102
{ACAD_REACTORS
330
386
102
}
102
{ACAD_XDICTIONARY
360
6D2
102
}
330
386
100
AcDbMaterial
  1
ByBlock
  0
MATERIAL
  5
3C2
102
{ACAD_REACTORS
330
386
102
}
102
{ACAD_XDICTIONARY
360
6D0
102
}
330
386
100
AcDbMaterial
  1
ByLayer
  0
MATERIAL
  5
3C4
102
{ACAD_REACTORS
330
386
102
}
102
{ACAD_XDICTIONARY
360
6D4
102
}
330
386
100
AcDbMaterial
  1
Global
  0
MLINESTYLE
  5
1B
102
{ACAD_REACTORS
330
E
102
}
330
E
100
AcDbMlineStyle
  2
STANDARD
 70
     0
  3

 62
     0
 51
90.0
 52
90.0
 71
     2
 49
0.5
 62
   256
  6
BYLAYER
 49
-0.5
 62
   256
  6
BYLAYER
  0
ACDBPLACEHOLDER
  5
300
102
{ACAD_REACTORS
330
2FF
102
}
330
2FF
  0
SCALE
  5
3A1
102
{ACAD_REACTORS
330
3A0
102
}
330
3A0
100
AcDbScale
 70
     0
300
1:1
140
1.0
141
1.0
290
     1
  0
SCALE
  5
3A2
102
{ACAD_REACTORS
330
3A0
102
}
330
3A0
100
AcDbScale
 70
     0
300
1:2
140
1.0
141
2.0
290
     0
  0
SCALE
  5
3A3
102
{ACAD_REACTORS
330
3A0
102
}
330
3A0
100
AcDbScale
 70
     0
300
1:4
140
1.0
141
4.0
290
     0
  0
SCALE
  5
3A4
102
{ACAD_REACTORS
330
3A0
102
}
330
3A0
100
AcDbScale
 70
     0
300
1:5
140
1.0
141
5.0
290
     0
  0
SCALE
  5
3A5
102
{ACAD_REACTORS
330
3A0
102
}
330
3A0
100
AcDbScale
 70
     0
300
1:8
140
1.0
141
8.0
290
     0
  0
SCALE
  5
3A6
102
{ACAD_REACTORS
330
3A0
102
}
330
3A0
100
AcDbScale
 70
     0
300
1:10
140
1.0
141
10.0
290
     0
  0
SCALE
  5
3A7
102
{ACAD_REACTORS
330
3A0
102
}
330
3A0
100
AcDbScale
 70
     0
300
1:16
140
1.0
141
16.0
290
     0
  0
SCALE
  5
3A8
102
{ACAD_REACTORS
330
3A0
102
}
330
3A0
100
AcDbScale
 70
     0
300
1:20
140
1.0
141
20.0
290
     0
  0
SCALE
  5
3A9
102
{ACAD_REACTORS
330
3A0
102
}
330
3A0
100
AcDbScale
 70
     0
300
1:30
140
1.0
141
30.0
290
     0
  0
SCALE
  5
3AA
102
{ACAD_REACTORS
330
3A0
102
}
330
3A0
100
AcDbScale
 70
     0
300
1:40
140
1.0
141
40.0
290
     0
  0
SCALE
  5
3AB
102
{ACAD_REACTORS
330
3A0
102
}
330
3A0
100
AcDbScale
 70
     0
300
1:50
140
1.0
141
50.0
290
     0
  0
SCALE
  5
3AC
102
{ACAD_REACTORS
330
3A0
102
}
330
3A0
100
AcDbScale
 70
     0
300
1:100
140
1.0
141
100.0
290
     0
  0
SCALE
  5
3AD
102
{ACAD_REACTORS
330
3A0
102
}
330
3A0
100
AcDbScale
 70
     0
300
2:1
140
2.0
141
1.0
290
     0
  0
SCALE
  5
3AE
102
{ACAD_REACTORS
330
3A0
102
}
330
3A0
100
AcDbScale
 70
     0
300
4:1
140
4.0
141
1.0
290
     0
  0
SCALE
  5
3AF
102
{ACAD_REACTORS
330
3A0
102
}
330
3A0
100
AcDbScale
 70
     0
300
8:1
140
8.0
141
1.0
290
     0
  0
SCALE
  5
3B0
102
{ACAD_REACTORS
330
3A0
102
}
330
3A0
100
AcDbScale
 70
     0
300
10:1
140
10.0
141
1.0
290
     0
  0
SCALE
  5
3B1
102
{ACAD_REACTORS
330
3A0
102
}
330
3A0
100
AcDbScale
 70
     0
300
100:1
140
100.0
141
1.0
290
     0
  0
SCALE
  5
3B2
102
{ACAD_REACTORS
330
3A0
102
}
330
3A0
100
AcDbScale
 70
     0
300
1/128" = 1'-0"
140
0.0078125
141
12.0
290
     0
  0
SCALE
  5
3B3
102
{ACAD_REACTORS
330
3A0
102
}
330
3A0
100
AcDbScale
 70
     0
300
1/64" = 1'-0"
140
0.015625
141
12.0
290
     0
  0
SCALE
  5
3B4
102
{ACAD_REACTORS
330
3A0
102
}
330
3A0
100
AcDbScale
 70
     0
300
1/32" = 1'-0"
140
0.03125
141
12.0
290
     0
  0
SCALE
  5
3B5
102
{ACAD_REACTORS
330
3A0
102
}
330
3A0
100
AcDbScale
 70
     0
300
1/16" = 1'-0"
140
0.0625
141
12.0
290
     0
  0
SCALE
  5
3B6
102
{ACAD_REACTORS
330
3A0
102
}
330
3A0
100
AcDbScale
 70
     0
300
3/32" = 1'-0"
140
0.09375
141
12.0
290
     0
  0
SCALE
  5
3B7
102
{ACAD_REACTORS
330
3A0
102
}
330
3A0
100
AcDbScale
 70
     0
300
1/8" = 1'-0"
140
0.125
141
12.0
290
     0
  0
SCALE
  5
3B8
102
{ACAD_REACTORS
330
3A0
102
}
330
3A0
100
AcDbScale
 70
     0
300
3/16" = 1'-0"
140
0.1875
141
12.0
290
     0
  0
SCALE
  5
3B9
102
{ACAD_REACTORS
330
3A0
102
}
330
3A0
100
AcDbScale
 70
     0
300
1/4" = 1'-0"
140
0.25
141
12.0
290
     0
  0
SCALE
  5
3BA
102
{ACAD_REACTORS
330
3A0
102
}
330
3A0
100
AcDbScale
 70
     0
300
3/8" = 1'-0"
140
0.375
141
12.0
290
     0
  0
SCALE
  5
3BB
102
{ACAD_REACTORS
330
3A0
102
}
330
3A0
100
AcDbScale
 70
     0
300
1/2" = 1'-0"
140
0.5
141
12.0
290
     0
  0
SCALE
  5
3BC
102
{ACAD_REACTORS
330
3A0
102
}
330
3A0
100
AcDbScale
 70
     0
300
3/4" = 1'-0"
140
0.75
141
12.0
290
     0
  0
SCALE
  5
3BD
102
{ACAD_REACTORS
330
3A0
102
}
330
3A0
100
AcDbScale
 70
     0
300
1" = 1'-0"
140
1.0
141
12.0
290
     0
  0
SCALE
  5
3BE
102
{ACAD_REACTORS
330
3A0
102
}
330
3A0
100
AcDbScale
 70
     0
300
1-1/2" = 1'-0"
140
1.5
141
12.0
290
     0
  0
SCALE
  5
3BF
102
{ACAD_REACTORS
330
3A0
102
}
330
3A0
100
AcDbScale
 70
     0
300
3" = 1'-0"
140
3.0
141
12.0
290
     0
  0
SCALE
  5
3C0
102
{ACAD_REACTORS
330
3A0
102
}
330
3A0
100
AcDbScale
 70
     0
300
6" = 1'-0"
140
6.0
141
12.0
290
     0
  0
SCALE
  5
3C1
102
{ACAD_REACTORS
330
3A0
102
}
330
3A0
100
AcDbScale
 70
     0
300
1'-0" = 1'-0"
140
12.0
141
12.0
290
     0
  0
TABLESTYLE
  5
389
102
{ACAD_REACTORS
330
388
102
}
330
388
100
AcDbTableStyle
  3
Standard
 70
     0
 71
     0
 40
1.5
 41
1.5
280
     0
281
     0
  7
STANDARD
140
4.5
170
     2
 62
     0
 63
   257
283
     0
274
    -2
284
     1
 64
     0
275
    -2
285
     1
 65
     0
276
    -2
286
     1
 66
     0
277
    -2
287
     1
 67
     0
278
    -2
288
     1
 68
     0
279
    -2
289
     1
 69
     0
  7
STANDARD
140
6.0
170
     5
 62
     0
 63
   257
283
     0
274
    -2
284
     1
 64
     0
275
    -2
285
     1
 65
     0
276
    -2
286
     1
 66
     0
277
    -2
287
     1
 67
     0
278
    -2
288
     1
 68
     0
279
    -2
289
     1
 69
     0
  7
STANDARD
140
4.5
170
     5
 62
     0
 63
   257
283
     0
274
    -2
284
     1
 64
     0
275
    -2
285
     1
 65
     0
276
    -2
286
     1
 66
     0
277
    -2
287
     1
 67
     0
278
    -2
288
     1
 68
     0
279
    -2
289
     1
 69
     0
  0
VISUALSTYLE
  5
3CA
102
{ACAD_REACTORS
330
3C5
102
}
102
{ACAD_XDICTIONARY
360
6DE
102
}
330
3C5
100
AcDbVisualStyle
  2
2dWireframe
 70
     4
 71
     0
 72
     2
 73
     0
 90
        0
 40
-0.6
 41
-30.0
 62
     5
 63
     7
 74
     1
 91
        4
 64
     7
 65
   257
 75
     1
175
     1
 42
1.0
 92
        0
 66
   257
 43
1.0
 76
     1
 77
     6
 78
     2
 67
     7
 79
     5
170
     0
171
     0
290
     0
174
     0
 93
        1
 44
0.0
173
     0
291
     0
 45
0.0
1001
ACAD
1000
AcDbSavedByObjectVersion
1070
     0
  0
VISUALSTYLE
  5
3CC
102
{ACAD_REACTORS
330
3C5
102
}
102
{ACAD_XDICTIONARY
360
6E2
102
}
330
3C5
100
AcDbVisualStyle
  2
3D Hidden
 70
     6
 71
     1
 72
     2
 73
     2
 90
        0
 40
-0.6
 41
-30.0
 62
     5
 63
     7
 74
     2
 91
        2
 64
     7
 65
   257
 75
     2
175
     1
 42
40.0
 92
        0
 66
   257
 43
1.0
 76
     1
 77
     6
 78
     2
 67
     7
 79
     3
170
     0
171
     0
290
     0
174
     0
 93
        1
 44
0.0
173
     0
291
     0
 45
0.0
1001
ACAD
1000
AcDbSavedByObjectVersion
1070
     0
  0
VISUALSTYLE
  5
3CB
102
{ACAD_REACTORS
330
3C5
102
}
102
{ACAD_XDICTIONARY
360
6E0
102
}
330
3C5
100
AcDbVisualStyle
  2
3dWireframe
 70
     5
 71
     0
 72
     2
 73
     0
 90
        0
 40
-0.6
 41
-30.0
 62
     5
 63
     7
 74
     1
 91
        4
 64
     7
 65
   257
 75
     1
175
     1
 42
1.0
 92
        0
 66
   257
 43
1.0
 76
     1
 77
     6
 78
     2
 67
     7
 79
     5
170
     0
171
     0
290
     0
174
     0
 93
        1
 44
0.0
173
     0
291
     0
 45
0.0
1001
ACAD
1000
AcDbSavedByObjectVersion
1070
     0
  0
VISUALSTYLE
  5
3CD
102
{ACAD_REACTORS
330
3C5
102
}
102
{ACAD_XDICTIONARY
360
6E4
102
}
330
3C5
100
AcDbVisualStyle
  2
Basic
 70
     7
 71
     1
 72
     0
 73
     1
 90
        0
 40
-0.6
 41
-30.0
 62
     5
 63
     7
 74
     0
 91
        4
 64
     7
 65
   257
 75
     1
175
     1
 42
1.0
 92
        8
 66
     7
 43
1.0
 76
     1
 77
     6
 78
     2
 67
     7
 79
     5
170
     0
171
     0
290
     0
174
     0
 93
        1
 44
0.0
173
     0
291
     1
 45
0.0
1001
ACAD
1000
AcDbSavedByObjectVersion
1070
     0
  0
VISUALSTYLE
  5
3D1
102
{ACAD_REACTORS
330
3C5
102
}
102
{ACAD_XDICTIONARY
360
6EC
102
}
330
3C5
100
AcDbVisualStyle
  2
Brighten
 70
    12
 71
     2
 72
     2
 73
     0
 90
        0
 40
-0.6
 41
-30.0
 62
     5
 63
     7
 74
     1
 91
        4
 64
     7
 65
   257
 75
     1
175
     1
 42
1.0
 92
        8
 66
     7
 43
1.0
 76
     1
 77
     6
 78
     2
 67
     7
 79
     5
170
     0
171
     0
290
     0
174
     0
 93
        1
 44
50.0
173
     0
291
     1
 45
0.0
1001
ACAD
1000
AcDbSavedByObjectVersion
1070
     0
  0
VISUALSTYLE
  5
3D5
102
{ACAD_REACTORS
330
3C5
102
}
102
{ACAD_XDICTIONARY
360
6F4
102
}
330
3C5
100
AcDbVisualStyle
  2
ColorChange
 70
    16
 71
     2
 72
     2
 73
     3
 90
        0
 40
-0.6
 41
-30.0
 62
     5
 63
     8
 74
     1
 91
        4
 64
     7
 65
   257
 75
     1
175
     1
 42
1.0
 92
        8
 66
     8
 43
1.0
 76
     1
 77
     6
 78
     2
 67
     7
 79
     5
170
     0
171
     0
290
     0
174
     0
 93
        1
 44
0.0
173
     0
291
     1
 45
0.0
1001
ACAD
1000
AcDbSavedByObjectVersion
1070
     0
  0
VISUALSTYLE
  5
3CF
102
{ACAD_REACTORS
330
3C5
102
}
102
{ACAD_XDICTIONARY
360
6E8
102
}
330
3C5
100
AcDbVisualStyle
  2
Conceptual
 70
     9
 71
     3
 72
     2
 73
     0
 90
        0
 40
-0.6
 41
-30.0
 62
     5
 63
     7
 74
     2
 91
        2
 64
     7
 65
   257
 75
     1
175
     1
 42
40.0
 92
        8
 66
     7
 43
1.0
 76
     1
 77
     6
 78
     2
 67
     7
 79
     3
170
     0
171
     0
290
     0
174
     0
 93
        1
 44
0.0
173
     0
291
     0
 45
0.0
1001
ACAD
1000
AcDbSavedByObjectVersion
1070
     0
  0
VISUALSTYLE
  5
3D0
102
{ACAD_REACTORS
330
3C5
102
}
102
{ACAD_XDICTIONARY
360
6EA
102
}
330
3C5
100
AcDbVisualStyle
  2
Dim
 70
    11
 71
     2
 72
     2
 73
     0
 90
        0
 40
-0.6
 41
-30.0
 62
     5
 63
     7
 74
     1
 91
        4
 64
     7
 65
   257
 75
     1
175
     1
 42
1.0
 92
        8
 66
     7
 43
1.0
 76
     1
 77
     6
 78
     2
 67
     7
 79
     5
170
     0
171
     0
290
     0
174
     0
 93
        1
 44
-50.0
173
     0
291
     1
 45
0.0
1001
ACAD
1000
AcDbSavedByObjectVersion
1070
     0
  0
VISUALSTYLE
  5
3D4
102
{ACAD_REACTORS
330
3C5
102
}
102
{ACAD_XDICTIONARY
360
6F2
102
}
330
3C5
100
AcDbVisualStyle
  2
Facepattern
 70
    15
 71
     2
 72
     2
 73
     0
 90
        0
 40
-0.6
 41
-30.0
 62
     5
 63
     7
 74
     1
 91
        4
 64
     7
 65
   257
 75
     1
175
     1
 42
1.0
 92
        8
 66
     7
 43
1.0
 76
     1
 77
     6
 78
     2
 67
     7
 79
     5
170
     0
171
     0
290
     0
174
     0
 93
        1
 44
0.0
173
     0
291
     1
 45
0.0
1001
ACAD
1000
AcDbSavedByObjectVersion
1070
     0
  0
VISUALSTYLE
  5
3C6
102
{ACAD_REACTORS
330
3C5
102
}
102
{ACAD_XDICTIONARY
360
6D6
102
}
330
3C5
100
AcDbVisualStyle
  2
Flat
 70
     0
 71
     2
 72
     1
 73
     1
 90
        2
 40
-0.6
 41
30.0
 62
     5
 63
     7
 74
     0
 91
        4
 64
     7
 65
   257
 75
     1
175
     1
 42
1.0
 92
        8
 66
     7
 43
1.0
 76
     1
 77
     6
 78
     2
 67
     7
 79
     5
170
     0
171
     0
290
     0
174
     0
 93
       13
 44
0.0
173
     0
291
     1
 45
0.0
1001
ACAD
1000
AcDbSavedByObjectVersion
1070
     0
  0
VISUALSTYLE
  5
3C7
102
{ACAD_REACTORS
330
3C5
102
}
102
{ACAD_XDICTIONARY
360
6D8
102
}
330
3C5
100
AcDbVisualStyle
  2
FlatWithEdges
 70
     1
 71
     2
 72
     1
 73
     1
 90
        2
 40
-0.6
 41
30.0
 62
     5
 63
     7
 74
     1
 91
        4
 64
     7
 65
   257
 75
     1
175
     1
 42
1.0
 92
        0
 66
   257
 43
1.0
 76
     1
 77
     6
 78
     2
 67
     7
 79
     5
170
     0
171
     0
290
     0
174
     0
 93
       13
 44
0.0
173
     0
291
     1
 45
0.0
1001
ACAD
1000
AcDbSavedByObjectVersion
1070
     0
  0
VISUALSTYLE
  5
3C8
102
{ACAD_REACTORS
330
3C5
102
}
102
{ACAD_XDICTIONARY
360
6DA
102
}
330
3C5
100
AcDbVisualStyle
  2
Gouraud
 70
     2
 71
     2
 72
     2
 73
     1
 90
        2
 40
-0.6
 41
30.0
 62
     5
 63
     7
 74
     0
 91
        4
 64
     7
 65
   257
 75
     1
175
     1
 42
1.0
 92
        0
 66
     7
 43
1.0
 76
     1
 77
     6
 78
     2
 67
     7
 79
     5
170
     0
171
     0
290
     0
174
     0
 93
       13
 44
0.0
173
     0
291
     1
 45
0.0
1001
ACAD
1000
AcDbSavedByObjectVersion
1070
     0
  0
VISUALSTYLE
  5
3C9
102
{ACAD_REACTORS
330
3C5
102
}
102
{ACAD_XDICTIONARY
360
6DC
102
}
330
3C5
100
AcDbVisualStyle
  2
GouraudWithEdges
 70
     3
 71
     2
 72
     2
 73
     1
 90
        2
 40
-0.6
 41
30.0
 62
     5
 63
     7
 74
     1
 91
        4
 64
     7
 65
   257
 75
     1
175
     1
 42
1.0
 92
        0
 66
   257
 43
1.0
 76
     1
 77
     6
 78
     2
 67
     7
 79
     5
170
     0
171
     0
290
     0
174
     0
 93
       13
 44
0.0
173
     0
291
     1
 45
0.0
1001
ACAD
1000
AcDbSavedByObjectVersion
1070
     0
  0
VISUALSTYLE
  5
3D3
102
{ACAD_REACTORS
330
3C5
102
}
102
{ACAD_XDICTIONARY
360
6F0
102
}
330
3C5
100
AcDbVisualStyle
  2
Linepattern
 70
    14
 71
     2
 72
     2
 73
     0
 90
        0
 40
-0.6
 41
-30.0
 62
     5
 63
     7
 74
     1
 91
        4
 64
     7
 65
   257
 75
     7
175
     7
 42
1.0
 92
        8
 66
     7
 43
1.0
 76
     1
 77
     6
 78
     2
 67
     7
 79
     5
170
     0
171
     0
290
     0
174
     0
 93
        1
 44
0.0
173
     0
291
     1
 45
0.0
1001
ACAD
1000
AcDbSavedByObjectVersion
1070
     0
  0
VISUALSTYLE
  5
3CE
102
{ACAD_REACTORS
330
3C5
102
}
102
{ACAD_XDICTIONARY
360
6E6
102
}
330
3C5
100
AcDbVisualStyle
  2
Realistic
 70
     8
 71
     2
 72
     2
 73
     0
 90
        0
 40
-0.6
 41
-30.0
 62
     5
 63
     7
 74
     1
 91
        0
 64
     7
 65
   257
 75
     1
175
     1
 42
1.0
 92
        8
 66
     8
 43
1.0
 76
     1
 77
     6
 78
     2
 67
     7
 79
     5
170
     0
171
     0
290
     0
174
     0
 93
       13
 44
0.0
173
     0
291
     0
 45
0.0
1001
ACAD
1000
AcDbSavedByObjectVersion
1070
     0
  0
VISUALSTYLE
  5
3D2
102
{ACAD_REACTORS
330
3C5
102
}
102
{ACAD_XDICTIONARY
360
6EE
102
}
330
3C5
100
AcDbVisualStyle
  2
Thicken
 70
    13
 71
     2
 72
     2
 73
     0
 90
        0
 40
-0.6
 41
-30.0
 62
     5
 63
     7
 74
     1
 91
        4
 64
     7
 65
   257
 75
     1
175
     1
 42
1.0
 92
       12
 66
     7
 43
1.0
 76
     1
 77
     6
 78
     2
 67
     7
 79
     5
170
     0
171
     0
290
     0
174
     0
 93
        1
 44
0.0
173
     0
291
     1
 45
0.0
1001
ACAD
1000
AcDbSavedByObjectVersion
1070
     0
  0
XRECORD
  5
6CD
102
{ACAD_REACTORS
330
6CC
102
}
330
6CC
100
AcDbXrecord
280
     1
340
387
  0
XRECORD
  5
6CE
102
{ACAD_REACTORS
330
6CC
102
}
330
6CC
100
AcDbXrecord
280
     1
340
386
  0
DICTIONARYVAR
  5
6CF
102
{ACAD_REACTORS
330
357
102
}
330
357
100
DictionaryVariables
280
     0
  1
1:1
  0
DICTIONARYVAR
  5
38D
102
{ACAD_REACTORS
330
357
102
}
330
357
100
DictionaryVariables
280
     0
  1
Standard
  0
DICTIONARYVAR
  5
359
102
{ACAD_REACTORS
330
357
102
}
330
357
100
DictionaryVariables
280
     0
  1
2
  0
DICTIONARYVAR
  5
358
102
{ACAD_REACTORS
330
357
102
}
330
357
100
DictionaryVariables
280
     0
  1
1
  0
DICTIONARYVAR
  5
38E
102
{ACAD_REACTORS
330
357
102
}
330
357
100
DictionaryVariables
280
     0
  1

  0
DICTIONARY
  5
6D2
330
3C3
100
AcDbDictionary
280
     1
281
     1
  3
ACAD_XREC_ROUNDTRIP
360
6D3
  0
DICTIONARY
  5
6D0
330
3C2
100
AcDbDictionary
280
     1
281
     1
  3
ACAD_XREC_ROUNDTRIP
360
6D1
  0
DICTIONARY
  5
6D4
330
3C4
100
AcDbDictionary
280
     1
281
     1
  3
ACAD_XREC_ROUNDTRIP
360
6D5
  0
DICTIONARY
  5
6DE
330
3CA
100
AcDbDictionary
280
     1
281
     1
  3
ACAD_XREC_ROUNDTRIP
360
6DF
  0
DICTIONARY
  5
6E2
330
3CC
100
AcDbDictionary
280
     1
281
     1
  3
ACAD_XREC_ROUNDTRIP
360
6E3
  0
DICTIONARY
  5
6E0
330
3CB
100
AcDbDictionary
280
     1
281
     1
  3
ACAD_XREC_ROUNDTRIP
360
6E1
  0
DICTIONARY
  5
6E4
330
3CD
100
AcDbDictionary
280
     1
281
     1
  3
ACAD_XREC_ROUNDTRIP
360
6E5
  0
DICTIONARY
  5
6EC
330
3D1
100
AcDbDictionary
280
     1
281
     1
  3
ACAD_XREC_ROUNDTRIP
360
6ED
  0
DICTIONARY
  5
6F4
330
3D5
100
AcDbDictionary
280
     1
281
     1
  3
ACAD_XREC_ROUNDTRIP
360
6F5
  0
DICTIONARY
  5
6E8
330
3CF
100
AcDbDictionary
280
     1
281
     1
  3
ACAD_XREC_ROUNDTRIP
360
6E9
  0
DICTIONARY
  5
6EA
330
3D0
100
AcDbDictionary
280
     1
281
     1
  3
ACAD_XREC_ROUNDTRIP
360
6EB
  0
DICTIONARY
  5
6F2
330
3D4
100
AcDbDictionary
280
     1
281
     1
  3
ACAD_XREC_ROUNDTRIP
360
6F3
  0
DICTIONARY
  5
6D6
330
3C6
100
AcDbDictionary
280
     1
281
     1
  3
ACAD_XREC_ROUNDTRIP
360
6D7
  0
DICTIONARY
  5
6D8
330
3C7
100
AcDbDictionary
280
     1
281
     1
  3
ACAD_XREC_ROUNDTRIP
360
6D9
  0
DICTIONARY
  5
6DA
330
3C8
100
AcDbDictionary
280
     1
281
     1
  3
ACAD_XREC_ROUNDTRIP
360
6DB
  0
DICTIONARY
  5
6DC
330
3C9
100
AcDbDictionary
280
     1
281
     1
  3
ACAD_XREC_ROUNDTRIP
360
6DD
  0
DICTIONARY
  5
6F0
330
3D3
100
AcDbDictionary
280
     1
281
     1
  3
ACAD_XREC_ROUNDTRIP
360
6F1
  0
DICTIONARY
  5
6E6
330
3CE
100
AcDbDictionary
280
     1
281
     1
  3
ACAD_XREC_ROUNDTRIP
360
6E7
  0
DICTIONARY
  5
6EE
330
3D2
100
AcDbDictionary
280
     1
281
     1
  3
ACAD_XREC_ROUNDTRIP
360
6EF
  0
XRECORD
  5
6D3
102
{ACAD_REACTORS
330
6D2
102
}
330
6D2
100
AcDbXrecord
280
     1
102
MATERIAL
148
0.0
149
0.0
149
0.0
 93
        0
 94
      127
282
     0
 72
     1
 77
     1
171
     1
175
     1
179
     1
273
     0
  0
XRECORD
  5
6D1
102
{ACAD_REACTORS
330
6D0
102
}
330
6D0
100
AcDbXrecord
280
     1
102
MATERIAL
148
0.0
149
0.0
149
0.0
 93
        0
 94
      127
282
     0
 72
     1
 77
     1
171
     1
175
     1
179
     1
273
     0
  0
XRECORD
  5
6D5
102
{ACAD_REACTORS
330
6D4
102
}
330
6D4
100
AcDbXrecord
280
     1
102
MATERIAL
148
0.0
149
0.0
149
0.0
 93
        0
 94
      127
282
     0
 72
     1
 77
     1
171
     1
175
     1
179
     1
273
     0
  0
XRECORD
  5
6DF
102
{ACAD_REACTORS
330
6DE
102
}
330
6DE
100
AcDbXrecord
280
     1
102
RTVSPropertyOp0
 70
     1
102
RTVSPropertyOp1
 70
     1
102
RTVSPropertyOp2
 70
     1
102
RTVSPropertyOp3
 70
     1
102
RTVSPropertyOp4
 70
     1
102
RTVSPropertyOp5
 70
     1
102
RTVSPropertyOp6
 70
     1
102
RTVSPropertyOp7
 70
     1
102
RTVSPropertyOp8
 70
     1
102
RTVSPropertyOp9
 70
     1
102
RTVSPropertyOp10
 70
     1
102
RTVSPropertyOp11
 70
     1
102
RTVSPropertyOp12
 70
     1
102
RTVSPropertyOp13
 70
     1
102
RTVSPropertyOp14
 70
     1
102
RTVSPropertyOp15
 70
     1
102
RTVSPropertyOp16
 70
     1
102
RTVSPropertyOp17
 70
     1
102
RTVSPropertyOp18
 70
     1
102
RTVSPropertyOp19
 70
     1
102
RTVSPropertyOp20
 70
     1
102
RTVSPropertyOp21
 70
     1
102
RTVSPropertyOp22
 70
     1
102
RTVSPropertyOp23
 70
     1
102
RTVSPropertyOp24
 70
     1
102
RTVSPropertyOp25
 70
     1
102
RTVSPropertyOp26
 70
     1
102
RTVSPropertyOp27
 70
     1
102
RTVSPropertyOp28
 70
     1
102
RTVSPropertyOp29
 70
     1
102
RTVSPropertyOp30
 70
     1
102
RTVSPropertyOp31
 70
     1
102
RTVSPropertyOp32
 70
     1
  0
XRECORD
  5
6E3
102
{ACAD_REACTORS
330
6E2
102
}
330
6E2
100
AcDbXrecord
280
     1
102
RTVSPropertyOp0
 70
     1
102
RTVSPropertyOp1
 70
     1
102
RTVSPropertyOp2
 70
     1
102
RTVSPropertyOp3
 70
     1
102
RTVSPropertyOp4
 70
     1
102
RTVSPropertyOp5
 70
     1
102
RTVSPropertyOp6
 70
     1
102
RTVSPropertyOp7
 70
     1
102
RTVSPropertyOp8
 70
     1
102
RTVSPropertyOp9
 70
     1
102
RTVSPropertyOp10
 70
     1
102
RTVSPropertyOp11
 70
     1
102
RTVSPropertyOp12
 70
     1
102
RTVSPropertyOp13
 70
     1
102
RTVSPropertyOp14
 70
     1
102
RTVSPropertyOp15
 70
     1
102
RTVSPropertyOp16
 70
     1
102
RTVSPropertyOp17
 70
     1
102
RTVSPropertyOp18
 70
     1
102
RTVSPropertyOp19
 70
     1
102
RTVSPropertyOp20
 70
     1
102
RTVSPropertyOp21
 70
     1
102
RTVSPropertyOp22
 70
     1
102
RTVSPropertyOp23
 70
     1
102
RTVSPropertyOp24
 70
     1
102
RTVSPropertyOp25
 70
     1
102
RTVSPropertyOp26
 70
     1
102
RTVSPropertyOp27
 70
     1
102
RTVSPropertyOp28
 70
     1
102
RTVSPropertyOp29
 70
     1
102
RTVSPropertyOp30
 70
     1
102
RTVSPropertyOp31
 70
     1
102
RTVSPropertyOp32
 70
     1
  0
XRECORD
  5
6E1
102
{ACAD_REACTORS
330
6E0
102
}
330
6E0
100
AcDbXrecord
280
     1
102
RTVSPropertyOp0
 70
     1
102
RTVSPropertyOp1
 70
     1
102
RTVSPropertyOp2
 70
     1
102
RTVSPropertyOp3
 70
     1
102
RTVSPropertyOp4
 70
     1
102
RTVSPropertyOp5
 70
     1
102
RTVSPropertyOp6
 70
     1
102
RTVSPropertyOp7
 70
     1
102
RTVSPropertyOp8
 70
     1
102
RTVSPropertyOp9
 70
     1
102
RTVSPropertyOp10
 70
     1
102
RTVSPropertyOp11
 70
     1
102
RTVSPropertyOp12
 70
     1
102
RTVSPropertyOp13
 70
     1
102
RTVSPropertyOp14
 70
     1
102
RTVSPropertyOp15
 70
     1
102
RTVSPropertyOp16
 70
     1
102
RTVSPropertyOp17
 70
     1
102
RTVSPropertyOp18
 70
     1
102
RTVSPropertyOp19
 70
     1
102
RTVSPropertyOp20
 70
     1
102
RTVSPropertyOp21
 70
     1
102
RTVSPropertyOp22
 70
     1
102
RTVSPropertyOp23
 70
     1
102
RTVSPropertyOp24
 70
     1
102
RTVSPropertyOp25
 70
     1
102
RTVSPropertyOp26
 70
     1
102
RTVSPropertyOp27
 70
     1
102
RTVSPropertyOp28
 70
     1
102
RTVSPropertyOp29
 70
     1
102
RTVSPropertyOp30
 70
     1
102
RTVSPropertyOp31
 70
     1
102
RTVSPropertyOp32
 70
     1
  0
XRECORD
  5
6E5
102
{ACAD_REACTORS
330
6E4
102
}
330
6E4
100
AcDbXrecord
280
     1
102
RTVSPropertyOp0
 70
     1
102
RTVSPropertyOp1
 70
     1
102
RTVSPropertyOp2
 70
     1
102
RTVSPropertyOp3
 70
     1
102
RTVSPropertyOp4
 70
     1
102
RTVSPropertyOp5
 70
     1
102
RTVSPropertyOp6
 70
     1
102
RTVSPropertyOp7
 70
     1
102
RTVSPropertyOp8
 70
     1
102
RTVSPropertyOp9
 70
     1
102
RTVSPropertyOp10
 70
     1
102
RTVSPropertyOp11
 70
     1
102
RTVSPropertyOp12
 70
     1
102
RTVSPropertyOp13
 70
     1
102
RTVSPropertyOp14
 70
     1
102
RTVSPropertyOp15
 70
     1
102
RTVSPropertyOp16
 70
     1
102
RTVSPropertyOp17
 70
     1
102
RTVSPropertyOp18
 70
     1
102
RTVSPropertyOp19
 70
     1
102
RTVSPropertyOp20
 70
     1
102
RTVSPropertyOp21
 70
     1
102
RTVSPropertyOp22
 70
     1
102
RTVSPropertyOp23
 70
     1
102
RTVSPropertyOp24
 70
     1
102
RTVSPropertyOp25
 70
     1
102
RTVSPropertyOp26
 70
     1
102
RTVSPropertyOp27
 70
     1
102
RTVSPropertyOp28
 70
     1
102
RTVSPropertyOp29
 70
     1
102
RTVSPropertyOp30
 70
     1
102
RTVSPropertyOp31
 70
     1
102
RTVSPropertyOp32
 70
     1
  0
XRECORD
  5
6ED
102
{ACAD_REACTORS
330
6EC
102
}
330
6EC
100
AcDbXrecord
280
     1
102
RTVSPropertyOp0
 70
     1
102
RTVSPropertyOp1
 70
     1
102
RTVSPropertyOp2
 70
     1
102
RTVSPropertyOp3
 70
     1
102
RTVSPropertyOp4
 70
     1
102
RTVSPropertyOp5
 70
     1
102
RTVSPropertyOp6
 70
     1
102
RTVSPropertyOp7
 70
     1
102
RTVSPropertyOp8
 70
     1
102
RTVSPropertyOp9
 70
     1
102
RTVSPropertyOp10
 70
     1
102
RTVSPropertyOp11
 70
     1
102
RTVSPropertyOp12
 70
     1
102
RTVSPropertyOp13
 70
     1
102
RTVSPropertyOp14
 70
     1
102
RTVSPropertyOp15
 70
     1
102
RTVSPropertyOp16
 70
     1
102
RTVSPropertyOp17
 70
     1
102
RTVSPropertyOp18
 70
     1
102
RTVSPropertyOp19
 70
     1
102
RTVSPropertyOp20
 70
     1
102
RTVSPropertyOp21
 70
     1
102
RTVSPropertyOp22
 70
     1
102
RTVSPropertyOp23
 70
     1
102
RTVSPropertyOp24
 70
     1
102
RTVSPropertyOp25
 70
     1
102
RTVSPropertyOp26
 70
     1
102
RTVSPropertyOp27
 70
     1
102
RTVSPropertyOp28
 70
     1
102
RTVSPropertyOp29
 70
     1
102
RTVSPropertyOp30
 70
     1
102
RTVSPropertyOp31
 70
     1
102
RTVSPropertyOp32
 70
     1
  0
XRECORD
  5
6F5
102
{ACAD_REACTORS
330
6F4
102
}
330
6F4
100
AcDbXrecord
280
     1
102
RTVSPropertyOp0
 70
     1
102
RTVSPropertyOp1
 70
     1
102
RTVSPropertyOp2
 70
     1
102
RTVSPropertyOp3
 70
     1
102
RTVSPropertyOp4
 70
     1
102
RTVSPropertyOp5
 70
     1
102
RTVSPropertyOp6
 70
     1
102
RTVSPropertyOp7
 70
     1
102
RTVSPropertyOp8
 70
     1
102
RTVSPropertyOp9
 70
     1
102
RTVSPropertyOp10
 70
     1
102
RTVSPropertyOp11
 70
     1
102
RTVSPropertyOp12
 70
     1
102
RTVSPropertyOp13
 70
     1
102
RTVSPropertyOp14
 70
     1
102
RTVSPropertyOp15
 70
     1
102
RTVSPropertyOp16
 70
     1
102
RTVSPropertyOp17
 70
     1
102
RTVSPropertyOp18
 70
     1
102
RTVSPropertyOp19
 70
     1
102
RTVSPropertyOp20
 70
     1
102
RTVSPropertyOp21
 70
     1
102
RTVSPropertyOp22
 70
     1
102
RTVSPropertyOp23
 70
     1
102
RTVSPropertyOp24
 70
     1
102
RTVSPropertyOp25
 70
     1
102
RTVSPropertyOp26
 70
     1
102
RTVSPropertyOp27
 70
     1
102
RTVSPropertyOp28
 70
     1
102
RTVSPropertyOp29
 70
     1
102
RTVSPropertyOp30
 70
     1
102
RTVSPropertyOp31
 70
     1
102
RTVSPropertyOp32
 70
     1
  0
XRECORD
  5
6E9
102
{ACAD_REACTORS
330
6E8
102
}
330
6E8
100
AcDbXrecord
280
     1
102
RTVSPropertyOp0
 70
     1
102
RTVSPropertyOp1
 70
     1
102
RTVSPropertyOp2
 70
     1
102
RTVSPropertyOp3
 70
     1
102
RTVSPropertyOp4
 70
     1
102
RTVSPropertyOp5
 70
     1
102
RTVSPropertyOp6
 70
     1
102
RTVSPropertyOp7
 70
     1
102
RTVSPropertyOp8
 70
     1
102
RTVSPropertyOp9
 70
     1
102
RTVSPropertyOp10
 70
     1
102
RTVSPropertyOp11
 70
     1
102
RTVSPropertyOp12
 70
     1
102
RTVSPropertyOp13
 70
     1
102
RTVSPropertyOp14
 70
     1
102
RTVSPropertyOp15
 70
     1
102
RTVSPropertyOp16
 70
     1
102
RTVSPropertyOp17
 70
     1
102
RTVSPropertyOp18
 70
     1
102
RTVSPropertyOp19
 70
     1
102
RTVSPropertyOp20
 70
     1
102
RTVSPropertyOp21
 70
     1
102
RTVSPropertyOp22
 70
     1
102
RTVSPropertyOp23
 70
     1
102
RTVSPropertyOp24
 70
     1
102
RTVSPropertyOp25
 70
     1
102
RTVSPropertyOp26
 70
     1
102
RTVSPropertyOp27
 70
     1
102
RTVSPropertyOp28
 70
     1
102
RTVSPropertyOp29
 70
     1
102
RTVSPropertyOp30
 70
     1
102
RTVSPropertyOp31
 70
     1
102
RTVSPropertyOp32
 70
     1
  0
XRECORD
  5
6EB
102
{ACAD_REACTORS
330
6EA
102
}
330
6EA
100
AcDbXrecord
280
     1
102
RTVSPropertyOp0
 70
     1
102
RTVSPropertyOp1
 70
     1
102
RTVSPropertyOp2
 70
     1
102
RTVSPropertyOp3
 70
     1
102
RTVSPropertyOp4
 70
     1
102
RTVSPropertyOp5
 70
     1
102
RTVSPropertyOp6
 70
     1
102
RTVSPropertyOp7
 70
     1
102
RTVSPropertyOp8
 70
     1
102
RTVSPropertyOp9
 70
     1
102
RTVSPropertyOp10
 70
     1
102
RTVSPropertyOp11
 70
     1
102
RTVSPropertyOp12
 70
     1
102
RTVSPropertyOp13
 70
     1
102
RTVSPropertyOp14
 70
     1
102
RTVSPropertyOp15
 70
     1
102
RTVSPropertyOp16
 70
     1
102
RTVSPropertyOp17
 70
     1
102
RTVSPropertyOp18
 70
     1
102
RTVSPropertyOp19
 70
     1
102
RTVSPropertyOp20
 70
     1
102
RTVSPropertyOp21
 70
     1
102
RTVSPropertyOp22
 70
     1
102
RTVSPropertyOp23
 70
     1
102
RTVSPropertyOp24
 70
     1
102
RTVSPropertyOp25
 70
     1
102
RTVSPropertyOp26
 70
     1
102
RTVSPropertyOp27
 70
     1
102
RTVSPropertyOp28
 70
     1
102
RTVSPropertyOp29
 70
     1
102
RTVSPropertyOp30
 70
     1
102
RTVSPropertyOp31
 70
     1
102
RTVSPropertyOp32
 70
     1
  0
XRECORD
  5
6F3
102
{ACAD_REACTORS
330
6F2
102
}
330
6F2
100
AcDbXrecord
280
     1
102
RTVSPropertyOp0
 70
     1
102
RTVSPropertyOp1
 70
     1
102
RTVSPropertyOp2
 70
     1
102
RTVSPropertyOp3
 70
     1
102
RTVSPropertyOp4
 70
     1
102
RTVSPropertyOp5
 70
     1
102
RTVSPropertyOp6
 70
     1
102
RTVSPropertyOp7
 70
     1
102
RTVSPropertyOp8
 70
     1
102
RTVSPropertyOp9
 70
     1
102
RTVSPropertyOp10
 70
     1
102
RTVSPropertyOp11
 70
     1
102
RTVSPropertyOp12
 70
     1
102
RTVSPropertyOp13
 70
     1
102
RTVSPropertyOp14
 70
     1
102
RTVSPropertyOp15
 70
     1
102
RTVSPropertyOp16
 70
     1
102
RTVSPropertyOp17
 70
     1
102
RTVSPropertyOp18
 70
     1
102
RTVSPropertyOp19
 70
     1
102
RTVSPropertyOp20
 70
     1
102
RTVSPropertyOp21
 70
     1
102
RTVSPropertyOp22
 70
     1
102
RTVSPropertyOp23
 70
     1
102
RTVSPropertyOp24
 70
     1
102
RTVSPropertyOp25
 70
     1
102
RTVSPropertyOp26
 70
     1
102
RTVSPropertyOp27
 70
     1
102
RTVSPropertyOp28
 70
     1
102
RTVSPropertyOp29
 70
     1
102
RTVSPropertyOp30
 70
     1
102
RTVSPropertyOp31
 70
     1
102
RTVSPropertyOp32
 70
     1
  0
XRECORD
  5
6D7
102
{ACAD_REACTORS
330
6D6
102
}
330
6D6
100
AcDbXrecord
280
     1
102
RTVSPropertyOp0
 70
     1
102
RTVSPropertyOp1
 70
     1
102
RTVSPropertyOp2
 70
     1
102
RTVSPropertyOp3
 70
     1
102
RTVSPropertyOp4
 70
     1
102
RTVSPropertyOp5
 70
     1
102
RTVSPropertyOp6
 70
     1
102
RTVSPropertyOp7
 70
     1
102
RTVSPropertyOp8
 70
     1
102
RTVSPropertyOp9
 70
     1
102
RTVSPropertyOp10
 70
     1
102
RTVSPropertyOp11
 70
     1
102
RTVSPropertyOp12
 70
     1
102
RTVSPropertyOp13
 70
     1
102
RTVSPropertyOp14
 70
     1
102
RTVSPropertyOp15
 70
     1
102
RTVSPropertyOp16
 70
     1
102
RTVSPropertyOp17
 70
     1
102
RTVSPropertyOp18
 70
     1
102
RTVSPropertyOp19
 70
     1
102
RTVSPropertyOp20
 70
     1
102
RTVSPropertyOp21
 70
     1
102
RTVSPropertyOp22
 70
     1
102
RTVSPropertyOp23
 70
     1
102
RTVSPropertyOp24
 70
     1
102
RTVSPropertyOp25
 70
     1
102
RTVSPropertyOp26
 70
     1
102
RTVSPropertyOp27
 70
     1
102
RTVSPropertyOp28
 70
     1
102
RTVSPropertyOp29
 70
     1
102
RTVSPropertyOp30
 70
     1
102
RTVSPropertyOp31
 70
     1
102
RTVSPropertyOp32
 70
     1
  0
XRECORD
  5
6D9
102
{ACAD_REACTORS
330
6D8
102
}
330
6D8
100
AcDbXrecord
280
     1
102
RTVSPropertyOp0
 70
     1
102
RTVSPropertyOp1
 70
     1
102
RTVSPropertyOp2
 70
     1
102
RTVSPropertyOp3
 70
     1
102
RTVSPropertyOp4
 70
     1
102
RTVSPropertyOp5
 70
     1
102
RTVSPropertyOp6
 70
     1
102
RTVSPropertyOp7
 70
     1
102
RTVSPropertyOp8
 70
     1
102
RTVSPropertyOp9
 70
     1
102
RTVSPropertyOp10
 70
     1
102
RTVSPropertyOp11
 70
     1
102
RTVSPropertyOp12
 70
     1
102
RTVSPropertyOp13
 70
     1
102
RTVSPropertyOp14
 70
     1
102
RTVSPropertyOp15
 70
     1
102
RTVSPropertyOp16
 70
     1
102
RTVSPropertyOp17
 70
     1
102
RTVSPropertyOp18
 70
     1
102
RTVSPropertyOp19
 70
     1
102
RTVSPropertyOp20
 70
     1
102
RTVSPropertyOp21
 70
     1
102
RTVSPropertyOp22
 70
     1
102
RTVSPropertyOp23
 70
     1
102
RTVSPropertyOp24
 70
     1
102
RTVSPropertyOp25
 70
     1
102
RTVSPropertyOp26
 70
     1
102
RTVSPropertyOp27
 70
     1
102
RTVSPropertyOp28
 70
     1
102
RTVSPropertyOp29
 70
     1
102
RTVSPropertyOp30
 70
     1
102
RTVSPropertyOp31
 70
     1
102
RTVSPropertyOp32
 70
     1
  0
XRECORD
  5
6DB
102
{ACAD_REACTORS
330
6DA
102
}
330
6DA
100
AcDbXrecord
280
     1
102
RTVSPropertyOp0
 70
     1
102
RTVSPropertyOp1
 70
     1
102
RTVSPropertyOp2
 70
     1
102
RTVSPropertyOp3
 70
     1
102
RTVSPropertyOp4
 70
     1
102
RTVSPropertyOp5
 70
     1
102
RTVSPropertyOp6
 70
     1
102
RTVSPropertyOp7
 70
     1
102
RTVSPropertyOp8
 70
     1
102
RTVSPropertyOp9
 70
     1
102
RTVSPropertyOp10
 70
     1
102
RTVSPropertyOp11
 70
     1
102
RTVSPropertyOp12
 70
     1
102
RTVSPropertyOp13
 70
     1
102
RTVSPropertyOp14
 70
     1
102
RTVSPropertyOp15
 70
     1
102
RTVSPropertyOp16
 70
     1
102
RTVSPropertyOp17
 70
     1
102
RTVSPropertyOp18
 70
     1
102
RTVSPropertyOp19
 70
     1
102
RTVSPropertyOp20
 70
     1
102
RTVSPropertyOp21
 70
     1
102
RTVSPropertyOp22
 70
     1
102
RTVSPropertyOp23
 70
     1
102
RTVSPropertyOp24
 70
     1
102
RTVSPropertyOp25
 70
     1
102
RTVSPropertyOp26
 70
     1
102
RTVSPropertyOp27
 70
     1
102
RTVSPropertyOp28
 70
     1
102
RTVSPropertyOp29
 70
     1
102
RTVSPropertyOp30
 70
     1
102
RTVSPropertyOp31
 70
     1
102
RTVSPropertyOp32
 70
     1
  0
XRECORD
  5
6DD
102
{ACAD_REACTORS
330
6DC
102
}
330
6DC
100
AcDbXrecord
280
     1
102
RTVSPropertyOp0
 70
     1
102
RTVSPropertyOp1
 70
     1
102
RTVSPropertyOp2
 70
     1
102
RTVSPropertyOp3
 70
     1
102
RTVSPropertyOp4
 70
     1
102
RTVSPropertyOp5
 70
     1
102
RTVSPropertyOp6
 70
     1
102
RTVSPropertyOp7
 70
     1
102
RTVSPropertyOp8
 70
     1
102
RTVSPropertyOp9
 70
     1
102
RTVSPropertyOp10
 70
     1
102
RTVSPropertyOp11
 70
     1
102
RTVSPropertyOp12
 70
     1
102
RTVSPropertyOp13
 70
     1
102
RTVSPropertyOp14
 70
     1
102
RTVSPropertyOp15
 70
     1
102
RTVSPropertyOp16
 70
     1
102
RTVSPropertyOp17
 70
     1
102
RTVSPropertyOp18
 70
     1
102
RTVSPropertyOp19
 70
     1
102
RTVSPropertyOp20
 70
     1
102
RTVSPropertyOp21
 70
     1
102
RTVSPropertyOp22
 70
     1
102
RTVSPropertyOp23
 70
     1
102
RTVSPropertyOp24
 70
     1
102
RTVSPropertyOp25
 70
     1
102
RTVSPropertyOp26
 70
     1
102
RTVSPropertyOp27
 70
     1
102
RTVSPropertyOp28
 70
     1
102
RTVSPropertyOp29
 70
     1
102
RTVSPropertyOp30
 70
     1
102
RTVSPropertyOp31
 70
     1
102
RTVSPropertyOp32
 70
     1
  0
XRECORD
  5
6F1
102
{ACAD_REACTORS
330
6F0
102
}
330
6F0
100
AcDbXrecord
280
     1
102
RTVSPropertyOp0
 70
     1
102
RTVSPropertyOp1
 70
     1
102
RTVSPropertyOp2
 70
     1
102
RTVSPropertyOp3
 70
     1
102
RTVSPropertyOp4
 70
     1
102
RTVSPropertyOp5
 70
     1
102
RTVSPropertyOp6
 70
     1
102
RTVSPropertyOp7
 70
     1
102
RTVSPropertyOp8
 70
     1
102
RTVSPropertyOp9
 70
     1
102
RTVSPropertyOp10
 70
     1
102
RTVSPropertyOp11
 70
     1
102
RTVSPropertyOp12
 70
     1
102
RTVSPropertyOp13
 70
     1
102
RTVSPropertyOp14
 70
     1
102
RTVSPropertyOp15
 70
     1
102
RTVSPropertyOp16
 70
     1
102
RTVSPropertyOp17
 70
     1
102
RTVSPropertyOp18
 70
     1
102
RTVSPropertyOp19
 70
     1
102
RTVSPropertyOp20
 70
     1
102
RTVSPropertyOp21
 70
     1
102
RTVSPropertyOp22
 70
     1
102
RTVSPropertyOp23
 70
     1
102
RTVSPropertyOp24
 70
     1
102
RTVSPropertyOp25
 70
     1
102
RTVSPropertyOp26
 70
     1
102
RTVSPropertyOp27
 70
     1
102
RTVSPropertyOp28
 70
     1
102
RTVSPropertyOp29
 70
     1
102
RTVSPropertyOp30
 70
     1
102
RTVSPropertyOp31
 70
     1
102
RTVSPropertyOp32
 70
     1
  0
XRECORD
  5
6E7
102
{ACAD_REACTORS
330
6E6
102
}
330
6E6
100
AcDbXrecord
280
     1
102
RTVSPropertyOp0
 70
     1
102
RTVSPropertyOp1
 70
     1
102
RTVSPropertyOp2
 70
     1
102
RTVSPropertyOp3
 70
     1
102
RTVSPropertyOp4
 70
     1
102
RTVSPropertyOp5
 70
     1
102
RTVSPropertyOp6
 70
     1
102
RTVSPropertyOp7
 70
     1
102
RTVSPropertyOp8
 70
     1
102
RTVSPropertyOp9
 70
     1
102
RTVSPropertyOp10
 70
     1
102
RTVSPropertyOp11
 70
     1
102
RTVSPropertyOp12
 70
     1
102
RTVSPropertyOp13
 70
     1
102
RTVSPropertyOp14
 70
     1
102
RTVSPropertyOp15
 70
     1
102
RTVSPropertyOp16
 70
     1
102
RTVSPropertyOp17
 70
     1
102
RTVSPropertyOp18
 70
     1
102
RTVSPropertyOp19
 70
     1
102
RTVSPropertyOp20
 70
     1
102
RTVSPropertyOp21
 70
     1
102
RTVSPropertyOp22
 70
     1
102
RTVSPropertyOp23
 70
     1
102
RTVSPropertyOp24
 70
     1
102
RTVSPropertyOp25
 70
     1
102
RTVSPropertyOp26
 70
     1
102
RTVSPropertyOp27
 70
     1
102
RTVSPropertyOp28
 70
     1
102
RTVSPropertyOp29
 70
     1
102
RTVSPropertyOp30
 70
     1
102
RTVSPropertyOp31
 70
     1
102
RTVSPropertyOp32
 70
     1
  0
XRECORD
  5
6EF
102
{ACAD_REACTORS
330
6EE
102
}
330
6EE
100
AcDbXrecord
280
     1
102
RTVSPropertyOp0
 70
     1
102
RTVSPropertyOp1
 70
     1
102
RTVSPropertyOp2
 70
     1
102
RTVSPropertyOp3
 70
     1
102
RTVSPropertyOp4
 70
     1
102
RTVSPropertyOp5
 70
     1
102
RTVSPropertyOp6
 70
     1
102
RTVSPropertyOp7
 70
     1
102
RTVSPropertyOp8
 70
     1
102
RTVSPropertyOp9
 70
     1
102
RTVSPropertyOp10
 70
     1
102
RTVSPropertyOp11
 70
     1
102
RTVSPropertyOp12
 70
     1
102
RTVSPropertyOp13
 70
     1
102
RTVSPropertyOp14
 70
     1
102
RTVSPropertyOp15
 70
     1
102
RTVSPropertyOp16
 70
     1
102
RTVSPropertyOp17
 70
     1
102
RTVSPropertyOp18
 70
     1
102
RTVSPropertyOp19
 70
     1
102
RTVSPropertyOp20
 70
     1
102
RTVSPropertyOp21
 70
     1
102
RTVSPropertyOp22
 70
     1
102
RTVSPropertyOp23
 70
     1
102
RTVSPropertyOp24
 70
     1
102
RTVSPropertyOp25
 70
     1
102
RTVSPropertyOp26
 70
     1
102
RTVSPropertyOp27
 70
     1
102
RTVSPropertyOp28
 70
     1
102
RTVSPropertyOp29
 70
     1
102
RTVSPropertyOp30
 70
     1
102
RTVSPropertyOp31
 70
     1
102
RTVSPropertyOp32
 70
     1
  0
ENDSEC
  0
EOF
