0
SECTION
2
HEADER
9
$ACADVER
1
AC1015
9
$DWGCODEPAGE
3
ANSI_1252
9
$HANDSEED
5
316
9
$ANGBASE
50
0
9
$ANGDIR
70
0
9
$ATTMODE
70
1
9
$AUNITS
70
0
9
$AUPREC
70
0
9
$CECOLOR
62
256
9
$CELTSCALE
40
1
9
$CELTYPE
6
ByLayer
9
$CELWEIGHT
370
18
9
$CLAYER
8
0
9
$CMLJUST
70
0
9
$CMLSCALE
40
1
9
$CMLSTYLE
2
Standard
9
$DIMSTYLE
2
Standard
9
$TEXTSIZE
40
0.2
9
$TEXTSTYLE
7
Standard
9
$LUNITS
70
2
9
$LUPREC
70
4
9
$EXTNAMES
290
1
9
$INSUNITS
70
4
9
$LTSCALE
40
1
9
$LWDISPLAY
290
1
9
$PDMODE
70
0
9
$PDSIZE
40
0
9
$PLINEGEN
70
0
0
ENDSEC
0
SECTION
2
CLASSES
0
CLASS
1
RASTERVARIABLES
2
AcDbRasterVariables
3
ISM
90
0
280
0
281
0
0
ENDSEC
0
SECTION
2
TABLES
0
TABLE
2
VPORT
5
30c
100
AcDbSymbolTable
0
VPORT
5
1
100
AcDbSymbolTableRecord
100
AcDbViewportTableRecord
2
*Active
70
0
10
0
20
0
11
1
21
1
12
-1
22
1
13
0
23
0
14
0.5
24
0.5
15
10
25
10
16
0
26
0
36
1
17
0
27
0
37
0
0
ENDTAB
0
TABLE
2
LTYPE
5
30d
100
AcDbSymbolTable
0
LTYPE
5
14
100
AcDbSymbolTableRecord
100
AcDbLinetypeTableRecord
70
0
2
ByBlock
3

72
65
73
0
40
0
0
LTYPE
5
15
100
AcDbSymbolTableRecord
100
AcDbLinetypeTableRecord
70
0
2
ByLayer
3

72
65
73
0
40
0
0
LTYPE
5
16
100
AcDbSymbolTableRecord
100
AcDbLinetypeTableRecord
70
0
2
Continuous
3
Solid line
72
65
73
0
40
0
0
LTYPE
5
6E
100
AcDbSymbolTableRecord
100
AcDbLinetypeTableRecord
70
0
2
CENTER
3
____ _ ____ _ ____ _ ____
72
65
73
4
40
47.5
49
22
74
0
49
-8.5
74
0
49
8.5
74
0
49
-8.5
74
0
0
LTYPE
5
6F
100
AcDbSymbolTableRecord
100
AcDbLinetypeTableRecord
70
0
2
DASHED
3
__ __ __ __ __ __ __ __ __
72
65
73
2
40
25.72
49
12.86
74
0
49
-12.86
74
0
0
ENDTAB
0
TABLE
2
LAYER
5
30e
100
AcDbSymbolTable
0
LAYER
5
10
100
AcDbSymbolTableRecord
100
AcDbLayerTableRecord
2
0
70
0
62
7
6
Continuous
290
1
370
-3
390
0
0
LAYER
5
71
100
AcDbSymbolTableRecord
100
AcDbLayerTableRecord
2
80
70
0
62
-6
6
Continuous
290
1
370
-3
390
0
0
LAYER
5
73
100
AcDbSymbolTableRecord
100
AcDbLayerTableRecord
2
81
70
0
62
-3
6
Continuous
290
1
370
-3
390
0
0
LAYER
5
75
100
AcDbSymbolTableRecord
100
AcDbLayerTableRecord
2
1
70
0
62
4
6
Continuous
290
1
370
-3
390
0
0
LAYER
5
83
100
AcDbSymbolTableRecord
100
AcDbLayerTableRecord
2
4
70
0
62
-2
6
CENTER
290
1
370
-3
390
0
0
LAYER
5
C6
100
AcDbSymbolTableRecord
100
AcDbLayerTableRecord
2
2
70
0
62
7
6
Continuous
290
1
370
-3
390
0
0
LAYER
5
203
100
AcDbSymbolTableRecord
100
AcDbLayerTableRecord
2
Defpoints
70
0
62
7
6
Continuous
290
0
370
-3
390
0
0
LAYER
5
2f8
100
AcDbSymbolTableRecord
100
AcDbLayerTableRecord
2
SK4
70
0
62
2
6
CENTER
290
1
370
-3
390
0
0
LAYER
5
2f9
100
AcDbSymbolTableRecord
100
AcDbLayerTableRecord
2
SK1
70
0
62
4
6
Continuous
290
1
370
-3
390
0
0
LAYER
5
2fa
100
AcDbSymbolTableRecord
100
AcDbLayerTableRecord
2
SK2
70
0
62
7
6
Continuous
290
1
370
-3
390
0
0
LAYER
5
2fb
100
AcDbSymbolTableRecord
100
AcDbLayerTableRecord
2
SK6
70
0
62
5
6
Continuous
290
1
370
-3
390
0
0
ENDTAB
0
TABLE
2
STYLE
5
30f
100
AcDbSymbolTable
0
STYLE
5
11
100
AcDbSymbolTableRecord
100
AcDbTextStyleTableRecord
2
Standard
3
txt
70
0
71
0
40
0
41
1
42
0
50
0
0
STYLE
5
1E9
100
AcDbSymbolTableRecord
100
AcDbTextStyleTableRecord
2
iso_b_vert
3
simplex.shx
70
0
71
0
40
0
41
1
42
0
50
0
0
STYLE
5
1EA
100
AcDbSymbolTableRecord
100
AcDbTextStyleTableRecord
2
DWGDirectTextStyle
3
simplex
70
0
71
0
40
0
41
1
42
0
50
0
0
ENDTAB
0
TABLE
2
DIMSTYLE
5
310
100
AcDbSymbolTable
100
AcDbDimStyleTable
0
DIMSTYLE
105
27
100
AcDbSymbolTableRecord
100
AcDbDimStyleTableRecord
2
Standard
70
0
3
<>
41
0.18
42
0.0625
44
0.18
140
0.18
147
0.09
73
0
74
0
77
1
271
2
275
0
278
52
280
0
340
11
0
ENDTAB
0
TABLE
2
VIEW
5
311
100
AcDbSymbolTable
0
ENDTAB
0
TABLE
2
UCS
5
312
100
AcDbSymbolTable
0
ENDTAB
0
TABLE
2
APPID
5
313
100
AcDbSymbolTable
0
APPID
5
12
100
AcDbSymbolTableRecord
100
AcDbRegAppTableRecord
2
ACAD
70
0
0
APPID
5
1FF
100
AcDbSymbolTableRecord
100
AcDbRegAppTableRecord
2
ACAD_DSTYLE_DIMBREAK
70
0
0
APPID
5
2B7
100
AcDbSymbolTableRecord
100
AcDbRegAppTableRecord
2
ACAD_DSTYLE_DIM_LINETYPE
70
0
0
APPID
5
2B8
100
AcDbSymbolTableRecord
100
AcDbRegAppTableRecord
2
ACAD_DSTYLE_DIM_EXT1_LINETYPE
70
0
0
APPID
5
2B9
100
AcDbSymbolTableRecord
100
AcDbRegAppTableRecord
2
ACAD_DSTYLE_DIM_EXT2_LINETYPE
70
0
0
APPID
5
2F4
100
AcDbSymbolTableRecord
100
AcDbRegAppTableRecord
2
ACAD_MLEADERVER
70
0
0
ENDTAB
0
TABLE
2
BLOCK_RECORD
5
314
100
AcDbSymbolTable
0
BLOCK_RECORD
5
1F
100
AcDbSymbolTableRecord
100
AcDbBlockTableRecord
2
*Model_Space
340
0
70
0
0
BLOCK_RECORD
5
1B
100
AcDbSymbolTableRecord
100
AcDbBlockTableRecord
2
*Paper_Space
340
0
70
0
0
BLOCK_RECORD
5
23
100
AcDbSymbolTableRecord
100
AcDbBlockTableRecord
2
*Paper_Space0
340
0
70
0
0
BLOCK_RECORD
5
204
100
AcDbSymbolTableRecord
100
AcDbBlockTableRecord
2
*D1
340
0
70
0
0
BLOCK_RECORD
5
212
100
AcDbSymbolTableRecord
100
AcDbBlockTableRecord
2
_U0
340
0
70
0
0
BLOCK_RECORD
5
21E
100
AcDbSymbolTableRecord
100
AcDbBlockTableRecord
2
*D3
340
0
70
0
0
BLOCK_RECORD
5
22C
100
AcDbSymbolTableRecord
100
AcDbBlockTableRecord
2
_U1
340
0
70
0
0
BLOCK_RECORD
5
238
100
AcDbSymbolTableRecord
100
AcDbBlockTableRecord
2
*D5
340
0
70
0
0
BLOCK_RECORD
5
245
100
AcDbSymbolTableRecord
100
AcDbBlockTableRecord
2
_U2
340
0
70
0
0
BLOCK_RECORD
5
252
100
AcDbSymbolTableRecord
100
AcDbBlockTableRecord
2
*D7
340
0
70
0
0
BLOCK_RECORD
5
25F
100
AcDbSymbolTableRecord
100
AcDbBlockTableRecord
2
_U3
340
0
70
0
0
BLOCK_RECORD
5
26B
100
AcDbSymbolTableRecord
100
AcDbBlockTableRecord
2
*D9
340
0
70
0
0
BLOCK_RECORD
5
277
100
AcDbSymbolTableRecord
100
AcDbBlockTableRecord
2
_U4
340
0
70
0
0
BLOCK_RECORD
5
283
100
AcDbSymbolTableRecord
100
AcDbBlockTableRecord
2
*D11
340
0
70
0
0
BLOCK_RECORD
5
290
100
AcDbSymbolTableRecord
100
AcDbBlockTableRecord
2
_U5
340
0
70
0
0
ENDTAB
0
ENDSEC
0
SECTION
2
BLOCKS
0
BLOCK
5
20
100
AcDbEntity
8
0
100
AcDbBlockBegin
2
*Model_Space
70
0
10
0
20
0
30
0
3
*Model_Space
0
ENDBLK
5
21
100
AcDbEntity
8
0
100
AcDbBlockEnd
0
BLOCK
5
1C
100
AcDbEntity
8
0
100
AcDbBlockBegin
2
*Paper_Space
70
0
10
0
20
0
30
0
3
*Paper_Space
0
ENDBLK
5
1D
100
AcDbEntity
8
0
100
AcDbBlockEnd
0
BLOCK
5
24
100
AcDbEntity
8
0
100
AcDbBlockBegin
2
*Paper_Space0
70
0
10
0
20
0
30
0
3
*Paper_Space0
0
ENDBLK
5
25
100
AcDbEntity
8
0
100
AcDbBlockEnd
0
BLOCK
5
205
100
AcDbEntity
8
0
100
AcDbBlockBegin
2
*D1
70
1
10
0
20
0
30
0
3
*D1
0
LINE
5
207
100
AcDbEntity
8
0
62
256
6
ByLayer
370
-2
48
1
60
0
100
AcDbLine
10
32.5575
20
1.786848
30
0
11
51.653152
21
1.786848
31
0
39
0
210
0
220
0
230
1
0
LINE
5
208
100
AcDbEntity
8
0
62
256
6
ByLayer
370
-2
48
1
60
0
100
AcDbLine
10
32.5575
20
-1.786848
30
0
11
51.653152
21
-1.786848
31
0
39
0
210
0
220
0
230
1
0
LINE
5
209
100
AcDbEntity
8
0
62
256
6
ByLayer
370
-2
48
1
60
0
100
AcDbLine
10
49.653152
20
1.786848
30
0
11
49.653152
21
30.974475
31
0
39
0
210
0
220
0
230
1
0
LINE
5
20A
100
AcDbEntity
8
0
62
256
6
ByLayer
370
-2
48
1
60
0
100
AcDbLine
10
49.653152
20
5.286848
30
0
11
49.653152
21
8.786848
31
0
39
0
210
0
220
0
230
1
0
LINE
5
20B
100
AcDbEntity
8
0
62
256
6
ByLayer
370
-2
48
1
60
0
100
AcDbLine
10
49.653152
20
-5.286848
30
0
11
49.653152
21
-8.786848
31
0
39
0
210
0
220
0
230
1
0
SOLID
5
20C
100
AcDbEntity
8
0
62
256
6
ByLayer
370
-1
48
1
60
0
100
AcDbTrace
10
49.069819
20
5.286848
30
0
11
50.236486
21
5.286848
31
0
12
49.653152
22
1.786848
32
0
13
49.653152
23
1.786848
33
0
39
0
210
0
220
0
230
1
0
SOLID
5
20D
100
AcDbEntity
8
0
62
256
6
ByLayer
370
-1
48
1
60
0
100
AcDbTrace
10
50.236486
20
-5.286848
30
0
11
49.069819
21
-5.286848
31
0
12
49.653152
22
-1.786848
32
0
13
49.653152
23
-1.786848
33
0
39
0
210
0
220
0
230
1
0
MTEXT
5
20E
100
AcDbEntity
8
0
62
256
6
ByLayer
370
18
48
1
60
0
100
AcDbMText
10
43.653152
20
20.403046
30
0
210
0
220
0
230
1
1
\A1;3.574
40
3
41
0
44
1
50
90
71
5
72
5
7
iso_b_vert
0
POINT
5
20F
100
AcDbEntity
8
Defpoints
62
0
6
ByLayer
370
-1
48
1
60
0
100
AcDbPoint
10
30.97
20
1.786848
30
0
39
0
210
0
220
0
230
1
50
360
0
POINT
5
210
100
AcDbEntity
8
Defpoints
62
0
6
ByLayer
370
-1
48
1
60
0
100
AcDbPoint
10
30.97
20
-1.786848
30
0
39
0
210
0
220
0
230
1
50
360
0
POINT
5
211
100
AcDbEntity
8
Defpoints
62
0
6
ByLayer
370
-1
48
1
60
0
100
AcDbPoint
10
49.653152
20
-1.786848
30
0
39
0
210
0
220
0
230
1
50
360
0
ENDBLK
5
206
100
AcDbEntity
8
0
100
AcDbBlockEnd
0
BLOCK
5
219
100
AcDbEntity
8
0
100
AcDbBlockBegin
2
_U0
70
0
10
0
20
0
30
0
3
_U0
0
MTEXT
5
213
100
AcDbEntity
8
2
62
256
6
ByLayer
370
18
48
1
60
0
100
AcDbMText
10
49.062038
20
11.921848
30
0
210
0
220
0
230
1
1
\W0.7126;UNC 6-32
40
3
41
0
44
1.084337
50
90
71
7
72
5
7
iso_b_vert
0
LINE
5
214
100
AcDbEntity
8
2
62
256
6
ByLayer
370
13
48
1
60
0
100
AcDbLine
10
32.5575
20
1.786848
30
0
11
51.653152
21
1.786848
31
0
39
0
210
0
220
0
230
1
0
LINE
5
215
100
AcDbEntity
8
2
62
256
6
ByLayer
370
13
48
1
60
0
100
AcDbLine
10
32.5575
20
-1.786848
30
0
11
51.653152
21
-1.786848
31
0
39
0
210
0
220
0
230
1
0
LINE
5
216
100
AcDbEntity
8
2
62
256
6
ByLayer
370
13
48
1
60
0
100
AcDbLine
10
49.653152
20
-9.286848
30
0
11
49.653152
21
29.019245
31
0
39
0
210
0
220
0
230
1
0
SOLID
5
217
100
AcDbEntity
8
2
62
256
6
ByLayer
370
18
48
1
60
0
100
AcDbTrace
10
49.653152
20
1.786848
30
0
11
49.192369
21
5.286846
31
0
12
50.113936
22
5.286849
32
0
13
50.113936
23
5.286849
33
0
39
0
210
0
220
0
230
1
0
SOLID
5
218
100
AcDbEntity
8
2
62
256
6
ByLayer
370
18
48
1
60
0
100
AcDbTrace
10
49.653152
20
-1.786848
30
0
11
50.113936
21
-5.286846
31
0
12
49.192369
22
-5.286849
32
0
13
49.192369
23
-5.286849
33
0
39
0
210
0
220
0
230
1
0
ENDBLK
5
21A
100
AcDbEntity
8
0
100
AcDbBlockEnd
0
BLOCK
5
21F
100
AcDbEntity
8
0
100
AcDbBlockBegin
2
*D3
70
1
10
0
20
0
30
0
3
*D3
0
LINE
5
221
100
AcDbEntity
8
0
62
256
6
ByLayer
370
-2
48
1
60
0
100
AcDbLine
10
-20.4175
20
-1.395
30
0
11
-26.83
21
-1.395
31
0
39
0
210
0
220
0
230
1
0
LINE
5
222
100
AcDbEntity
8
0
62
256
6
ByLayer
370
-2
48
1
60
0
100
AcDbLine
10
-20.4175
20
1.395
30
0
11
-26.83
21
1.395
31
0
39
0
210
0
220
0
230
1
0
LINE
5
223
100
AcDbEntity
8
0
62
256
6
ByLayer
370
-2
48
1
60
0
100
AcDbLine
10
-24.83
20
1.395
30
0
11
-24.83
21
31.165626
31
0
39
0
210
0
220
0
230
1
0
LINE
5
224
100
AcDbEntity
8
0
62
256
6
ByLayer
370
-2
48
1
60
0
100
AcDbLine
10
-24.83
20
-4.895
30
0
11
-24.83
21
-8.395
31
0
39
0
210
0
220
0
230
1
0
LINE
5
225
100
AcDbEntity
8
0
62
256
6
ByLayer
370
-2
48
1
60
0
100
AcDbLine
10
-24.83
20
4.895
30
0
11
-24.83
21
8.395
31
0
39
0
210
0
220
0
230
1
0
SOLID
5
226
100
AcDbEntity
8
0
62
256
6
ByLayer
370
-1
48
1
60
0
100
AcDbTrace
10
-24.246667
20
-4.895
30
0
11
-25.413333
21
-4.895
31
0
12
-24.83
22
-1.395
32
0
13
-24.83
23
-1.395
33
0
39
0
210
0
220
0
230
1
0
SOLID
5
227
100
AcDbEntity
8
0
62
256
6
ByLayer
370
-1
48
1
60
0
100
AcDbTrace
10
-25.413333
20
4.895
30
0
11
-24.246667
21
4.895
31
0
12
-24.83
22
1.395
32
0
13
-24.83
23
1.395
33
0
39
0
210
0
220
0
230
1
0
MTEXT
5
228
100
AcDbEntity
8
0
62
256
6
ByLayer
370
18
48
1
60
0
100
AcDbMText
10
-30.83
20
22.165626
30
0
210
0
220
0
230
1
1
\A1;2.79
40
3
41
0
44
1
50
90
71
5
72
5
7
iso_b_vert
0
POINT
5
229
100
AcDbEntity
8
Defpoints
62
0
6
ByLayer
370
-1
48
1
60
0
100
AcDbPoint
10
-18.83
20
-1.395
30
0
39
0
210
0
220
0
230
1
50
360
0
POINT
5
22A
100
AcDbEntity
8
Defpoints
62
0
6
ByLayer
370
-1
48
1
60
0
100
AcDbPoint
10
-18.83
20
1.395
30
0
39
0
210
0
220
0
230
1
50
360
0
POINT
5
22B
100
AcDbEntity
8
Defpoints
62
0
6
ByLayer
370
-1
48
1
60
0
100
AcDbPoint
10
-24.83
20
1.395
30
0
39
0
210
0
220
0
230
1
50
360
0
ENDBLK
5
220
100
AcDbEntity
8
0
100
AcDbBlockEnd
0
BLOCK
5
233
100
AcDbEntity
8
0
100
AcDbBlockBegin
2
_U1
70
0
10
0
20
0
30
0
3
_U1
0
MTEXT
5
22D
100
AcDbEntity
8
SK2
62
256
6
ByLayer
370
18
48
1
60
0
100
AcDbMText
10
-25.421114
20
11.135
30
0
210
0
220
0
230
1
1
\W0.7265;3.581 x 2.79
40
3
41
0
44
1.084337
50
90
71
7
72
5
7
iso_b_vert
0
LINE
5
22E
100
AcDbEntity
8
SK2
62
256
6
ByLayer
370
13
48
1
60
0
100
AcDbLine
10
-20.4175
20
-1.395
30
0
11
-26.83
21
-1.395
31
0
39
0
210
0
220
0
230
1
0
LINE
5
22F
100
AcDbEntity
8
SK2
62
256
6
ByLayer
370
13
48
1
60
0
100
AcDbLine
10
-20.4175
20
1.395
30
0
11
-26.83
21
1.395
31
0
39
0
210
0
220
0
230
1
0
LINE
5
230
100
AcDbEntity
8
SK2
62
256
6
ByLayer
370
13
48
1
60
0
100
AcDbLine
10
-24.83
20
33.331253
30
0
11
-24.83
21
-8.895
31
0
39
0
210
0
220
0
230
1
0
SOLID
5
231
100
AcDbEntity
8
SK2
62
256
6
ByLayer
370
18
48
1
60
0
100
AcDbTrace
10
-24.83
20
-1.395
30
0
11
-24.369216
21
-4.894998
31
0
12
-25.290784
22
-4.895002
32
0
13
-25.290784
23
-4.895002
33
0
39
0
210
0
220
0
230
1
0
SOLID
5
232
100
AcDbEntity
8
SK2
62
256
6
ByLayer
370
18
48
1
60
0
100
AcDbTrace
10
-24.83
20
1.395
30
0
11
-25.290784
21
4.894998
31
0
12
-24.369216
22
4.895002
32
0
13
-24.369216
23
4.895002
33
0
39
0
210
0
220
0
230
1
0
ENDBLK
5
234
100
AcDbEntity
8
0
100
AcDbBlockEnd
0
BLOCK
5
239
100
AcDbEntity
8
0
100
AcDbBlockBegin
2
*D5
70
1
10
0
20
0
30
0
3
*D5
0
LINE
5
23B
100
AcDbEntity
8
0
62
256
6
ByLayer
370
-2
48
1
60
0
100
AcDbLine
10
30.97
20
3.374348
30
0
11
30.97
21
12.792403
31
0
39
0
210
0
220
0
230
1
0
LINE
5
23C
100
AcDbEntity
8
0
62
256
6
ByLayer
370
-2
48
1
60
0
100
AcDbLine
10
29.18
20
1.5875
30
0
11
29.18
21
12.792403
31
0
39
0
210
0
220
0
230
1
0
LINE
5
23D
100
AcDbEntity
8
0
62
256
6
ByLayer
370
-2
48
1
60
0
100
AcDbLine
10
34.47
20
10.792403
30
0
11
37.97
21
10.792403
31
0
39
0
210
0
220
0
230
1
0
LINE
5
23E
100
AcDbEntity
8
0
62
256
6
ByLayer
370
-2
48
1
60
0
100
AcDbLine
10
25.68
20
10.792403
30
0
11
22.18
21
10.792403
31
0
39
0
210
0
220
0
230
1
0
SOLID
5
23F
100
AcDbEntity
8
0
62
256
6
ByLayer
370
-1
48
1
60
0
100
AcDbTrace
10
34.47
20
11.375737
30
0
11
34.47
21
10.20907
31
0
12
30.97
22
10.792403
32
0
13
30.97
23
10.792403
33
0
39
0
210
0
220
0
230
1
0
SOLID
5
240
100
AcDbEntity
8
0
62
256
6
ByLayer
370
-1
48
1
60
0
100
AcDbTrace
10
25.68
20
10.20907
30
0
11
25.68
21
11.375737
31
0
12
29.18
22
10.792403
32
0
13
29.18
23
10.792403
33
0
39
0
210
0
220
0
230
1
0
MTEXT
5
241
100
AcDbEntity
8
0
62
256
6
ByLayer
370
18
48
1
60
0
100
AcDbMText
10
30.075
20
16.792403
30
0
210
0
220
0
230
1
1
\A1;1.79
40
3
41
0
44
1
50
0
71
5
72
5
7
iso_b_vert
0
POINT
5
242
100
AcDbEntity
8
Defpoints
62
0
6
ByLayer
370
-1
48
1
60
0
100
AcDbPoint
10
30.97
20
1.786848
30
0
39
0
210
0
220
0
230
1
50
360
0
POINT
5
243
100
AcDbEntity
8
Defpoints
62
0
6
ByLayer
370
-1
48
1
60
0
100
AcDbPoint
10
29.18
20
0
30
0
39
0
210
0
220
0
230
1
50
360
0
POINT
5
244
100
AcDbEntity
8
Defpoints
62
0
6
ByLayer
370
-1
48
1
60
0
100
AcDbPoint
10
29.18
20
10.792403
30
0
39
0
210
0
220
0
230
1
50
360
0
ENDBLK
5
23A
100
AcDbEntity
8
0
100
AcDbBlockEnd
0
BLOCK
5
24D
100
AcDbEntity
8
0
100
AcDbBlockBegin
2
_U2
70
0
10
0
20
0
30
0
3
_U2
0
MTEXT
5
246
100
AcDbEntity
8
SK2
62
256
6
ByLayer
370
18
48
1
60
0
100
AcDbMText
10
27.114986
20
11.575037
30
0
210
0
220
0
230
1
1
\W0.6474;'C'
40
3.5
41
0
44
1.084337
50
0
71
7
72
5
7
iso_b_vert
0
MTEXT
5
247
100
AcDbEntity
8
SK2
62
256
6
ByLayer
370
18
48
1
60
0
100
AcDbMText
10
27.088486
20
18.677518
30
0
210
0
220
0
230
1
1
\W0.6662;1.79
40
3
41
0
44
1.084337
50
0
71
7
72
5
7
iso_b_vert
0
LINE
5
248
100
AcDbEntity
8
SK2
62
256
6
ByLayer
370
13
48
1
60
0
100
AcDbLine
10
30.97
20
3.374348
30
0
11
30.97
21
12.792403
31
0
39
0
210
0
220
0
230
1
0
LINE
5
249
100
AcDbEntity
8
SK2
62
256
6
ByLayer
370
13
48
1
60
0
100
AcDbLine
10
29.18
20
1.5875
30
0
11
29.18
21
12.792403
31
0
39
0
210
0
220
0
230
1
0
LINE
5
24A
100
AcDbEntity
8
SK2
62
256
6
ByLayer
370
13
48
1
60
0
100
AcDbLine
10
38.47
20
10.792403
30
0
11
21.68
21
10.792403
31
0
39
0
210
0
220
0
230
1
0
SOLID
5
24B
100
AcDbEntity
8
SK2
62
256
6
ByLayer
370
18
48
1
60
0
100
AcDbTrace
10
30.97
20
10.792403
30
0
11
34.469998
21
11.253187
31
0
12
34.470002
22
10.33162
32
0
13
34.470002
23
10.33162
33
0
39
0
210
0
220
0
230
1
0
SOLID
5
24C
100
AcDbEntity
8
SK2
62
256
6
ByLayer
370
18
48
1
60
0
100
AcDbTrace
10
29.18
20
10.792403
30
0
11
25.680002
21
10.33162
31
0
12
25.679998
22
11.253187
32
0
13
25.679998
23
11.253187
33
0
39
0
210
0
220
0
230
1
0
ENDBLK
5
24E
100
AcDbEntity
8
0
100
AcDbBlockEnd
0
BLOCK
5
253
100
AcDbEntity
8
0
100
AcDbBlockBegin
2
*D7
70
1
10
0
20
0
30
0
3
*D7
0
LINE
5
255
100
AcDbEntity
8
0
62
256
6
ByLayer
370
-2
48
1
60
0
100
AcDbLine
10
30.97
20
-3.374348
30
0
11
30.97
21
-10.786848
31
0
39
0
210
0
220
0
230
1
0
LINE
5
256
100
AcDbEntity
8
0
62
256
6
ByLayer
370
-2
48
1
60
0
100
AcDbLine
10
22.97
20
-3.374348
30
0
11
22.97
21
-10.786848
31
0
39
0
210
0
220
0
230
1
0
LINE
5
257
100
AcDbEntity
8
0
62
256
6
ByLayer
370
-2
48
1
60
0
100
AcDbLine
10
34.47
20
-8.786848
30
0
11
37.97
21
-8.786848
31
0
39
0
210
0
220
0
230
1
0
LINE
5
258
100
AcDbEntity
8
0
62
256
6
ByLayer
370
-2
48
1
60
0
100
AcDbLine
10
19.47
20
-8.786848
30
0
11
15.97
21
-8.786848
31
0
39
0
210
0
220
0
230
1
0
SOLID
5
259
100
AcDbEntity
8
0
62
256
6
ByLayer
370
-1
48
1
60
0
100
AcDbTrace
10
34.47
20
-8.203514
30
0
11
34.47
21
-9.370181
31
0
12
30.97
22
-8.786848
32
0
13
30.97
23
-8.786848
33
0
39
0
210
0
220
0
230
1
0
SOLID
5
25A
100
AcDbEntity
8
0
62
256
6
ByLayer
370
-1
48
1
60
0
100
AcDbTrace
10
19.47
20
-9.370181
30
0
11
19.47
21
-8.203514
31
0
12
22.97
22
-8.786848
32
0
13
22.97
23
-8.786848
33
0
39
0
210
0
220
0
230
1
0
MTEXT
5
25B
100
AcDbEntity
8
0
62
256
6
ByLayer
370
18
48
1
60
0
100
AcDbMText
10
23.784371
20
-2.786848
30
0
210
0
220
0
230
1
1
\A1;8
40
3
41
0
44
1
50
0
71
5
72
5
7
iso_b_vert
0
POINT
5
25C
100
AcDbEntity
8
Defpoints
62
0
6
ByLayer
370
-1
48
1
60
0
100
AcDbPoint
10
30.97
20
-1.786848
30
0
39
0
210
0
220
0
230
1
50
360
0
POINT
5
25D
100
AcDbEntity
8
Defpoints
62
0
6
ByLayer
370
-1
48
1
60
0
100
AcDbPoint
10
22.97
20
-1.786848
30
0
39
0
210
0
220
0
230
1
50
360
0
POINT
5
25E
100
AcDbEntity
8
Defpoints
62
0
6
ByLayer
370
-1
48
1
60
0
100
AcDbPoint
10
22.97
20
-8.786848
30
0
39
0
210
0
220
0
230
1
50
360
0
ENDBLK
5
254
100
AcDbEntity
8
0
100
AcDbBlockEnd
0
BLOCK
5
266
100
AcDbEntity
8
0
100
AcDbBlockBegin
2
_U3
70
0
10
0
20
0
30
0
3
_U3
0
MTEXT
5
260
100
AcDbEntity
8
SK2
62
256
6
ByLayer
370
18
48
1
60
0
100
AcDbMText
10
23.272457
20
-7.901733
30
0
210
0
220
0
230
1
1
\W0.5404;8
40
3
41
0
44
1.084337
50
0
71
7
72
5
7
iso_b_vert
0
LINE
5
261
100
AcDbEntity
8
SK2
62
256
6
ByLayer
370
13
48
1
60
0
100
AcDbLine
10
30.97
20
-3.374348
30
0
11
30.97
21
-10.786848
31
0
39
0
210
0
220
0
230
1
0
LINE
5
262
100
AcDbEntity
8
SK2
62
256
6
ByLayer
370
13
48
1
60
0
100
AcDbLine
10
22.97
20
-3.374348
30
0
11
22.97
21
-10.786848
31
0
39
0
210
0
220
0
230
1
0
LINE
5
263
100
AcDbEntity
8
SK2
62
256
6
ByLayer
370
13
48
1
60
0
100
AcDbLine
10
30.97
20
-8.786848
30
0
11
22.97
21
-8.786848
31
0
39
0
210
0
220
0
230
1
0
SOLID
5
264
100
AcDbEntity
8
SK2
62
256
6
ByLayer
370
18
48
1
60
0
100
AcDbTrace
10
30.97
20
-8.786848
30
0
11
27.470002
21
-9.247631
31
0
12
27.469998
22
-8.326064
32
0
13
27.469998
23
-8.326064
33
0
39
0
210
0
220
0
230
1
0
SOLID
5
265
100
AcDbEntity
8
SK2
62
256
6
ByLayer
370
18
48
1
60
0
100
AcDbTrace
10
22.97
20
-8.786848
30
0
11
26.469998
21
-8.326064
31
0
12
26.470002
22
-9.247631
32
0
13
26.470002
23
-9.247631
33
0
39
0
210
0
220
0
230
1
0
ENDBLK
5
267
100
AcDbEntity
8
0
100
AcDbBlockEnd
0
BLOCK
5
26C
100
AcDbEntity
8
0
100
AcDbBlockBegin
2
*D9
70
1
10
0
20
0
30
0
3
*D9
0
LINE
5
26E
100
AcDbEntity
8
0
62
256
6
ByLayer
370
-2
48
1
60
0
100
AcDbLine
10
30.97
20
-3.374348
30
0
11
30.97
21
-33.286848
31
0
39
0
210
0
220
0
230
1
0
LINE
5
26F
100
AcDbEntity
8
0
62
256
6
ByLayer
370
-2
48
1
60
0
100
AcDbLine
10
14.97
20
-2.8225
30
0
11
14.97
21
-33.286848
31
0
39
0
210
0
220
0
230
1
0
LINE
5
270
100
AcDbEntity
8
0
62
256
6
ByLayer
370
-2
48
1
60
0
100
AcDbLine
10
27.47
20
-31.286848
30
0
11
18.47
21
-31.286848
31
0
39
0
210
0
220
0
230
1
0
SOLID
5
271
100
AcDbEntity
8
0
62
256
6
ByLayer
370
-1
48
1
60
0
100
AcDbTrace
10
27.47
20
-31.870181
30
0
11
27.47
21
-30.703514
31
0
12
30.97
22
-31.286848
32
0
13
30.97
23
-31.286848
33
0
39
0
210
0
220
0
230
1
0
SOLID
5
272
100
AcDbEntity
8
0
62
256
6
ByLayer
370
-1
48
1
60
0
100
AcDbTrace
10
18.47
20
-30.703514
30
0
11
18.47
21
-31.870181
31
0
12
14.97
22
-31.286848
32
0
13
14.97
23
-31.286848
33
0
39
0
210
0
220
0
230
1
0
MTEXT
5
273
100
AcDbEntity
8
0
62
256
6
ByLayer
370
18
48
1
60
0
100
AcDbMText
10
22.97
20
-25.286848
30
0
210
0
220
0
230
1
1
\A1;16
40
3
41
0
44
1
50
0
71
5
72
5
7
iso_b_vert
0
POINT
5
274
100
AcDbEntity
8
Defpoints
62
0
6
ByLayer
370
-1
48
1
60
0
100
AcDbPoint
10
30.97
20
-1.786848
30
0
39
0
210
0
220
0
230
1
50
360
0
POINT
5
275
100
AcDbEntity
8
Defpoints
62
0
6
ByLayer
370
-1
48
1
60
0
100
AcDbPoint
10
14.97
20
-1.235
30
0
39
0
210
0
220
0
230
1
50
360
0
POINT
5
276
100
AcDbEntity
8
Defpoints
62
0
6
ByLayer
370
-1
48
1
60
0
100
AcDbPoint
10
14.97
20
-31.286848
30
0
39
0
210
0
220
0
230
1
50
360
0
ENDBLK
5
26D
100
AcDbEntity
8
0
100
AcDbBlockEnd
0
BLOCK
5
27E
100
AcDbEntity
8
0
100
AcDbBlockBegin
2
_U4
70
0
10
0
20
0
30
0
3
_U4
0
MTEXT
5
278
100
AcDbEntity
8
SK2
62
256
6
ByLayer
370
18
48
1
60
0
100
AcDbMText
10
21.712115
20
-30.401733
30
0
210
0
220
0
230
1
1
\W0.5321;16
40
3
41
0
44
1.084337
50
0
71
7
72
5
7
iso_b_vert
0
LINE
5
279
100
AcDbEntity
8
SK2
62
256
6
ByLayer
370
13
48
1
60
0
100
AcDbLine
10
30.97
20
-3.374348
30
0
11
30.97
21
-33.286848
31
0
39
0
210
0
220
0
230
1
0
LINE
5
27A
100
AcDbEntity
8
SK2
62
256
6
ByLayer
370
13
48
1
60
0
100
AcDbLine
10
14.97
20
-2.8225
30
0
11
14.97
21
-33.286848
31
0
39
0
210
0
220
0
230
1
0
LINE
5
27B
100
AcDbEntity
8
SK2
62
256
6
ByLayer
370
13
48
1
60
0
100
AcDbLine
10
30.97
20
-31.286848
30
0
11
14.97
21
-31.286848
31
0
39
0
210
0
220
0
230
1
0
SOLID
5
27C
100
AcDbEntity
8
SK2
62
256
6
ByLayer
370
18
48
1
60
0
100
AcDbTrace
10
30.97
20
-31.286848
30
0
11
27.470002
21
-31.747631
31
0
12
27.469998
22
-30.826064
32
0
13
27.469998
23
-30.826064
33
0
39
0
210
0
220
0
230
1
0
SOLID
5
27D
100
AcDbEntity
8
SK2
62
256
6
ByLayer
370
18
48
1
60
0
100
AcDbTrace
10
14.97
20
-31.286848
30
0
11
18.469998
21
-30.826064
31
0
12
18.470002
22
-31.747631
32
0
13
18.470002
23
-31.747631
33
0
39
0
210
0
220
0
230
1
0
ENDBLK
5
27F
100
AcDbEntity
8
0
100
AcDbBlockEnd
0
BLOCK
5
284
100
AcDbEntity
8
0
100
AcDbBlockBegin
2
*D11
70
1
10
0
20
0
30
0
3
*D11
0
LINE
5
286
100
AcDbEntity
8
0
62
256
6
ByLayer
370
-2
48
1
60
0
100
AcDbLine
10
30.97
20
-3.374348
30
0
11
30.97
21
-22.286848
31
0
39
0
210
0
220
0
230
1
0
LINE
5
287
100
AcDbEntity
8
0
62
256
6
ByLayer
370
-2
48
1
60
0
100
AcDbLine
10
16.47
20
-1.5875
30
0
11
16.47
21
-22.286848
31
0
39
0
210
0
220
0
230
1
0
LINE
5
288
100
AcDbEntity
8
0
62
256
6
ByLayer
370
-2
48
1
60
0
100
AcDbLine
10
34.47
20
-20.286848
30
0
11
37.97
21
-20.286848
31
0
39
0
210
0
220
0
230
1
0
LINE
5
289
100
AcDbEntity
8
0
62
256
6
ByLayer
370
-2
48
1
60
0
100
AcDbLine
10
12.97
20
-20.286848
30
0
11
9.47
21
-20.286848
31
0
39
0
210
0
220
0
230
1
0
SOLID
5
28A
100
AcDbEntity
8
0
62
256
6
ByLayer
370
-1
48
1
60
0
100
AcDbTrace
10
34.47
20
-19.703514
30
0
11
34.47
21
-20.870181
31
0
12
30.97
22
-20.286848
32
0
13
30.97
23
-20.286848
33
0
39
0
210
0
220
0
230
1
0
SOLID
5
28B
100
AcDbEntity
8
0
62
256
6
ByLayer
370
-1
48
1
60
0
100
AcDbTrace
10
12.97
20
-20.870181
30
0
11
12.97
21
-19.703514
31
0
12
16.47
22
-20.286848
32
0
13
16.47
23
-20.286848
33
0
39
0
210
0
220
0
230
1
0
MTEXT
5
28C
100
AcDbEntity
8
0
62
256
6
ByLayer
370
18
48
1
60
0
100
AcDbMText
10
23.72
20
-14.286848
30
0
210
0
220
0
230
1
1
\A1;14.5
40
3
41
0
44
1
50
0
71
5
72
5
7
iso_b_vert
0
POINT
5
28D
100
AcDbEntity
8
Defpoints
62
0
6
ByLayer
370
-1
48
1
60
0
100
AcDbPoint
10
30.97
20
-1.786848
30
0
39
0
210
0
220
0
230
1
50
360
0
POINT
5
28E
100
AcDbEntity
8
Defpoints
62
0
6
ByLayer
370
-1
48
1
60
0
100
AcDbPoint
10
16.47
20
0
30
0
39
0
210
0
220
0
230
1
50
360
0
POINT
5
28F
100
AcDbEntity
8
Defpoints
62
0
6
ByLayer
370
-1
48
1
60
0
100
AcDbPoint
10
16.47
20
-20.286848
30
0
39
0
210
0
220
0
230
1
50
360
0
ENDBLK
5
285
100
AcDbEntity
8
0
100
AcDbBlockEnd
0
BLOCK
5
297
100
AcDbEntity
8
0
100
AcDbBlockBegin
2
_U5
70
0
10
0
20
0
30
0
3
_U5
0
MTEXT
5
291
100
AcDbEntity
8
2
62
256
6
ByLayer
370
18
48
1
60
0
100
AcDbMText
10
20.575544
20
-19.401733
30
0
210
0
220
0
230
1
1
\W0.6856;14.5
40
3
41
0
44
1.084337
50
0
71
7
72
5
7
iso_b_vert
0
LINE
5
292
100
AcDbEntity
8
2
62
256
6
ByLayer
370
13
48
1
60
0
100
AcDbLine
10
30.97
20
-3.374348
30
0
11
30.97
21
-22.286848
31
0
39
0
210
0
220
0
230
1
0
LINE
5
293
100
AcDbEntity
8
2
62
256
6
ByLayer
370
13
48
1
60
0
100
AcDbLine
10
16.47
20
-1.5875
30
0
11
16.47
21
-22.286848
31
0
39
0
210
0
220
0
230
1
0
LINE
5
294
100
AcDbEntity
8
2
62
256
6
ByLayer
370
13
48
1
60
0
100
AcDbLine
10
30.97
20
-20.286848
30
0
11
16.47
21
-20.286848
31
0
39
0
210
0
220
0
230
1
0
SOLID
5
295
100
AcDbEntity
8
2
62
256
6
ByLayer
370
18
48
1
60
0
100
AcDbTrace
10
30.97
20
-20.286848
30
0
11
27.470002
21
-20.747631
31
0
12
27.469998
22
-19.826064
32
0
13
27.469998
23
-19.826064
33
0
39
0
210
0
220
0
230
1
0
SOLID
5
296
100
AcDbEntity
8
2
62
256
6
ByLayer
370
18
48
1
60
0
100
AcDbTrace
10
16.47
20
-20.286848
30
0
11
19.969998
21
-19.826064
31
0
12
19.970002
22
-20.747631
32
0
13
19.970002
23
-20.747631
33
0
39
0
210
0
220
0
230
1
0
ENDBLK
5
298
100
AcDbEntity
8
0
100
AcDbBlockEnd
0
ENDSEC
0
SECTION
2
ENTITIES
0
ARC
5
CF
100
AcDbEntity
8
SK1
62
256
6
ByLayer
370
18
48
1
60
0
100
AcDbCircle
39
0
10
-16.395
20
0
30
0
40
1.71888000000012
210
0
220
0
230
1
100
AcDbArc
50
324.250098
51
35.749902
0
ARC
5
D0
100
AcDbEntity
8
1
62
256
6
ByLayer
370
18
48
1
60
0
100
AcDbCircle
39
0
10
15.184359
20
-2.035
30
0
40
0.8
210
0
220
0
230
1
100
AcDbArc
50
90
51
120
0
ARC
5
D1
100
AcDbEntity
8
1
62
256
6
ByLayer
370
18
48
1
60
0
100
AcDbCircle
39
0
10
15.184359
20
2.035
30
0
40
0.8
210
0
220
0
230
1
100
AcDbArc
50
240
51
270
0
ELLIPSE
5
D2
100
AcDbEntity
8
1
62
256
6
ByLayer
370
18
48
1
60
0
100
AcDbEllipse
10
22.958697
20
0
30
0
11
21.3300986193651
21
1.76623107096612
31
0
210
0
220
0
230
1
40
0.012689
41
1.54371683241714
42
1.56921571166525
0
POINT
5
70
100
AcDbEntity
8
80
62
256
6
ByLayer
370
18
48
1
60
0
100
AcDbPoint
10
0
20
0
30
0
39
0
210
0
220
0
230
1
50
360
0
POINT
5
72
100
AcDbEntity
8
81
62
256
6
ByLayer
370
18
48
1
60
0
100
AcDbPoint
10
31.07
20
0
30
0
39
0
210
0
220
0
230
1
50
360
0
POINT
5
74
100
AcDbEntity
8
1
62
256
6
ByLayer
370
18
48
1
60
1
100
AcDbPoint
10
30.97
20
1.786848
30
0
39
0
210
0
220
0
230
1
50
360
0
POINT
5
76
100
AcDbEntity
8
1
62
256
6
ByLayer
370
18
48
1
60
1
100
AcDbPoint
10
30.97
20
-1.786848
30
0
39
0
210
0
220
0
230
1
50
360
0
POINT
5
77
100
AcDbEntity
8
1
62
256
6
ByLayer
370
18
48
1
60
1
100
AcDbPoint
10
-18.83
20
-1.395
30
0
39
0
210
0
220
0
230
1
50
360
0
POINT
5
78
100
AcDbEntity
8
1
62
256
6
ByLayer
370
18
48
1
60
1
100
AcDbPoint
10
-18.83
20
1.395
30
0
39
0
210
0
220
0
230
1
50
360
0
POINT
5
79
100
AcDbEntity
8
1
62
256
6
ByLayer
370
18
48
1
60
1
100
AcDbPoint
10
30.97
20
1.786848
30
0
39
0
210
0
220
0
230
1
50
360
0
POINT
5
7A
100
AcDbEntity
8
1
62
256
6
ByLayer
370
18
48
1
60
1
100
AcDbPoint
10
29.18
20
0
30
0
39
0
210
0
220
0
230
1
50
360
0
POINT
5
7B
100
AcDbEntity
8
1
62
256
6
ByLayer
370
18
48
1
60
1
100
AcDbPoint
10
30.97
20
-1.786848
30
0
39
0
210
0
220
0
230
1
50
360
0
POINT
5
7C
100
AcDbEntity
8
1
62
256
6
ByLayer
370
18
48
1
60
1
100
AcDbPoint
10
22.97
20
-1.786848
30
0
39
0
210
0
220
0
230
1
50
360
0
POINT
5
7D
100
AcDbEntity
8
1
62
256
6
ByLayer
370
18
48
1
60
1
100
AcDbPoint
10
30.97
20
-1.786848
30
0
39
0
210
0
220
0
230
1
50
360
0
POINT
5
7E
100
AcDbEntity
8
1
62
256
6
ByLayer
370
18
48
1
60
1
100
AcDbPoint
10
14.97
20
-1.235
30
0
39
0
210
0
220
0
230
1
50
360
0
POINT
5
7F
100
AcDbEntity
8
1
62
256
6
ByLayer
370
18
48
1
60
1
100
AcDbPoint
10
30.97
20
-1.786848
30
0
39
0
210
0
220
0
230
1
50
360
0
POINT
5
80
100
AcDbEntity
8
1
62
256
6
ByLayer
370
18
48
1
60
1
100
AcDbPoint
10
16.47
20
0
30
0
39
0
210
0
220
0
230
1
50
360
0
SPLINE
5
D3
100
AcDbEntity
8
1
62
256
6
ByLayer
370
18
48
1
60
0
100
AcDbSpline
70
4
71
3
72
10
73
6
40
0
40
0
40
0
40
0
40
0.265788285665624
40
0.265788285665624
40
1
40
1
40
1
40
1
41
1
10
27.2792180252153
20
1.74405015741644
30
0
41
1
10
27.2808535516154
20
1.74905926689127
30
0
41
1
10
27.2824921298482
20
1.75362154834511
30
0
41
1
10
27.2886611038506
20
1.76912808018193
30
0
41
1
10
27.293194987119
20
1.77715632564261
30
0
41
1
10
27.2977104153038
20
1.78186529934249
30
0
0
SPLINE
5
D4
100
AcDbEntity
8
1
62
256
6
ByLayer
370
18
48
1
60
0
100
AcDbSpline
70
4
71
3
72
9
73
5
40
0
40
0
40
0
40
0
40
0.379510670598103
40
1
40
1
40
1
40
1
41
1
10
27.0045579826346
20
-1.76257538920231
30
0
41
1
10
27.0018052239878
20
-1.76895924614647
30
0
41
1
10
26.9945902782143
20
-1.78241677587135
30
0
41
1
10
26.9874457385677
20
-1.7871936149057
30
0
41
1
10
26.9830128035561
20
-1.78681571688395
30
0
0
SPLINE
5
D5
100
AcDbEntity
8
1
62
256
6
ByLayer
370
13
48
1
60
0
100
AcDbSpline
70
4
71
3
72
9
73
5
40
0
40
0
40
0
40
0
40
0.10530997826394
40
1
40
1
40
1
40
1
41
1
10
26.6743908078427
20
-1.32495696983477
30
0
41
1
10
26.6729399601118
20
-1.32743705720597
30
0
41
1
10
26.6591408935533
20
-1.34849209006782
30
0
41
1
10
26.6451209248486
20
-1.34542291739487
30
0
41
1
10
26.6326441910478
20
-1.3235978079841
30
0
0
SPLINE
5
D6
100
AcDbEntity
8
1
62
256
6
ByLayer
370
18
48
1
60
0
100
AcDbSpline
70
4
71
3
72
8
73
4
40
0
40
0
40
0
40
0
40
1
40
1
40
1
40
1
41
1
10
29.8760824665425
20
-1.42524303466567
30
0
41
1
10
29.8845974604322
20
-1.45017760615335
30
0
41
1
10
29.8929571899101
20
-1.46963382378317
30
0
41
1
10
29.9011647062796
20
-1.48348228735088
30
0
0
SPLINE
5
D7
100
AcDbEntity
8
1
62
256
6
ByLayer
370
13
48
1
60
0
100
AcDbSpline
70
4
71
3
72
9
73
5
40
0
40
0
40
0
40
0
40
0.176902546832636
40
1
40
1
40
1
40
1
41
1.04
10
24.4903295218783
20
1.31089084966637
30
0
41
1.04
10
24.4898610794253
20
1.31195195955187
30
0
41
1.04
10
24.4872125326855
20
1.317799190175
30
0
41
1.04
10
24.4845612207189
20
1.32278958966188
30
0
41
1.04
10
24.4823779673182
20
1.32631411747719
30
0
0
SPLINE
5
D8
100
AcDbEntity
8
1
62
256
6
ByLayer
370
18
48
1
60
0
100
AcDbSpline
70
4
71
3
72
8
73
4
40
0
40
0
40
0
40
0
40
1
40
1
40
1
40
1
41
1.04
10
24.4823783919818
20
1.32631343191561
30
0
41
1.04
10
24.4788953683552
20
1.33193636038249
30
0
41
1.04
10
24.4754098878625
20
1.336075351014
30
0
41
1.04
10
24.4719256378072
20
1.33871999621317
30
0
0
SPLINE
5
D9
100
AcDbEntity
8
1
62
256
6
ByLayer
370
13
48
1
60
0
100
AcDbSpline
70
4
71
3
72
8
73
4
40
0
40
0
40
0
40
0
40
1
40
1
40
1
40
1
41
1
10
29.8096193493348
20
-1.32670616703308
30
0
41
1
10
29.8023440502199
20
-1.31477587425175
30
0
41
1
10
29.7951606925988
20
-1.29644124387829
30
0
41
1
10
29.788064035322
20
-1.27243953156235
30
0
0
SPLINE
5
DA
100
AcDbEntity
8
1
62
256
6
ByLayer
370
13
48
1
60
0
100
AcDbSpline
70
4
71
3
72
8
73
4
40
0
40
0
40
0
40
0
40
1
40
1
40
1
40
1
41
1.04
10
23.2920057137
20
-1.32604830605441
30
0
41
1.04
10
23.2794251093888
20
-1.34708837026856
30
0
41
1.04
10
23.2666591498705
20
-1.34858545611741
30
0
41
1.04
10
23.2535016978071
20
-1.32775891203169
30
0
0
SPLINE
5
DB
100
AcDbEntity
8
1
62
256
6
ByLayer
370
13
48
1
60
0
100
AcDbSpline
70
4
71
3
72
9
73
5
40
0
40
0
40
0
40
0
40
0.507183108332721
40
1
40
1
40
1
40
1
41
1
10
27.8700488718972
20
1.31513663648335
30
0
41
1
10
27.8622671034265
20
1.33179970061212
30
0
41
1
10
27.8467614680935
20
1.35035500746966
30
0
41
1
10
27.8309463301358
20
1.33732830650896
30
0
41
1
10
27.8231173534323
20
1.32332231122669
30
0
0
SPLINE
5
DC
100
AcDbEntity
8
1
62
256
6
ByLayer
370
18
48
1
60
0
100
AcDbSpline
70
4
71
3
72
9
73
5
40
0
40
0
40
0
40
0
40
0.17686539506365
40
1
40
1
40
1
40
1
41
1.04
10
29.6425909492835
20
-1.32587385869031
30
0
41
1.04
10
29.6421819924959
20
-1.32656612982189
30
0
41
1.04
10
29.6398713530664
20
-1.33035605210944
30
0
41
1.04
10
29.637570015754
20
-1.33344167126474
30
0
41
1.04
10
29.6356819257385
20
-1.33551568826003
30
0
0
SPLINE
5
DD
100
AcDbEntity
8
1
62
256
6
ByLayer
370
13
48
1
60
0
100
AcDbSpline
70
4
71
3
72
9
73
5
40
0
40
0
40
0
40
0
40
0.835862663965041
40
1
40
1
40
1
40
1
41
1.04
10
29.6356819257385
20
-1.33551568826006
30
0
41
1.04
10
29.6149644678577
20
-1.35827326834951
30
0
41
1.04
10
29.5910747487588
20
-1.31839536574953
30
0
41
1.04
10
29.5681013721625
20
-1.21967522818938
30
0
41
1.04
10
29.5643523355415
20
-1.20198852940352
30
0
0
SPLINE
5
DE
100
AcDbEntity
8
1
62
256
6
ByLayer
370
13
48
1
60
0
100
AcDbSpline
70
4
71
3
72
9
73
5
40
0
40
0
40
0
40
0
40
0.7361243980333
40
1
40
1
40
1
40
1
41
1.04
10
28.5069703749094
20
1.11251465028225
30
0
41
1.04
10
28.4930659910425
20
1.19518876687879
30
0
41
1.04
10
28.4741867284055
20
1.28016620245331
30
0
41
1.04
10
28.4551601164724
20
1.32082428632493
30
0
41
1.04
10
28.4501282045453
20
1.32842038553374
30
0
0
SPLINE
5
DF
100
AcDbEntity
8
1
62
256
6
ByLayer
370
13
48
1
60
0
100
AcDbSpline
70
4
71
3
72
10
73
6
40
0
40
0
40
0
40
0
40
0.04737459104569
40
0.841630702695837
40
1
40
1
40
1
40
1
41
1.04
10
26.468050937363
20
-1.32467234534677
30
0
41
1.04
10
26.4671252085651
20
-1.32625450925484
30
0
41
1.04
10
26.4506620902077
20
-1.35246026717327
30
0
41
1.04
10
26.4307279693009
20
-1.34297783907543
30
0
41
1.04
10
26.4120330248881
20
-1.29050806461143
30
0
41
1.04
10
26.4089320736629
20
-1.28063284777975
30
0
0
SPLINE
5
E0
100
AcDbEntity
8
1
62
256
6
ByLayer
370
13
48
1
60
0
100
AcDbSpline
70
4
71
3
72
9
73
5
40
0
40
0
40
0
40
0
40
0.214743894063515
40
1
40
1
40
1
40
1
41
1
10
25.8378845144138
20
-1.32188887560213
30
0
41
1
10
25.8328641086114
20
-1.3126400967524
30
0
41
1
10
25.809769216646
20
-1.25580852145066
30
0
41
1
10
25.7883107546168
20
-1.14110289004898
30
0
41
1
10
25.7721153334322
20
-1.0300794963608
30
0
0
SPLINE
5
E1
100
AcDbEntity
8
1
62
256
6
ByLayer
370
13
48
1
60
0
100
AcDbSpline
70
4
71
3
72
9
73
5
40
0
40
0
40
0
40
0
40
0.324180031845578
40
1
40
1
40
1
40
1
41
1
10
24.7140645179746
20
1.25952399895738
30
0
41
1
10
24.7073010715931
20
1.28439074211738
30
0
41
1
10
24.6863274423966
20
1.34439184551988
30
0
41
1
10
24.6651794800712
20
1.35019787528449
30
0
41
1
10
24.6510591886384
20
1.32881585021065
30
0
0
SPLINE
5
E2
100
AcDbEntity
8
1
62
256
6
ByLayer
370
13
48
1
60
0
100
AcDbSpline
70
4
71
3
72
9
73
5
40
0
40
0
40
0
40
0
40
0.206971367470473
40
1
40
1
40
1
40
1
41
1.04
10
25.3510066879541
20
0.985715151792595
30
0
41
1.04
10
25.3459789244732
20
1.02192891459067
30
0
41
1.04
10
25.321610516863
20
1.18622304357702
30
0
41
1.04
10
25.2968861658421
20
1.29154450657419
30
0
41
1.04
10
25.2767474238627
20
1.32555141188292
30
0
0
SPLINE
5
E3
100
AcDbEntity
8
1
62
256
6
ByLayer
370
18
48
1
60
0
100
AcDbSpline
70
4
71
3
72
8
73
4
40
0
40
0
40
0
40
0
40
1
40
1
40
1
40
1
41
1
10
29.0176741657666
20
-1.32973347172734
30
0
41
1
10
29.0129562401044
20
-1.32277654108731
30
0
41
1
10
29.0082234689216
20
-1.31300865916188
30
0
41
1
10
29.0034777445542
20
-1.30047368940123
30
0
0
SPLINE
5
E4
100
AcDbEntity
8
1
62
256
6
ByLayer
370
13
48
1
60
0
100
AcDbSpline
70
4
71
3
72
9
73
5
40
0
40
0
40
0
40
0
40
0.368464132692966
40
1
40
1
40
1
40
1
41
1
10
29.0034777573117
20
-1.30047372309741
30
0
41
1
10
28.9942910214233
20
-1.27620863674778
30
0
41
1
10
28.9692267765487
20
-1.18221259383935
30
0
41
1
10
28.9439061166224
20
-1.01418540052782
30
0
41
1
10
28.9275754180866
20
-0.883660053177636
30
0
0
SPLINE
5
E5
100
AcDbEntity
8
1
62
256
6
ByLayer
370
18
48
1
60
0
100
AcDbSpline
70
4
71
3
72
22
73
18
40
0
40
0
40
0
40
0
40
0.0313796436715448
40
0.0313796436715448
40
0.112098006698916
40
0.112098006698916
40
0.192816369726288
40
0.192816369726288
40
0.354253095781031
40
0.354253095781031
40
0.515689821835775
40
0.515689821835775
40
0.596408184863146
40
0.596408184863146
40
0.677126547890517
40
0.677126547890517
40
1
40
1
40
1
40
1
41
1
10
29.4485009019063
20
-1.64721217473044
30
0
41
1
10
29.4479951463784
20
-1.64691208690832
30
0
41
1
10
29.4474912059956
20
-1.64650931619775
30
0
41
1
10
29.4456980220834
20
-1.64470239268908
30
0
41
1
10
29.4444214875396
20
-1.64271275625819
30
0
41
1
10
29.4419040217297
20
-1.63731779226279
30
0
41
1
10
29.4406684065119
20
-1.6339201950307
30
0
41
1
10
29.4370600907162
20
-1.62172161023273
30
0
41
1
10
29.4347813625778
20
-1.61088919953792
30
0
41
1
10
29.4304227017541
20
-1.58398600928766
30
0
41
1
10
29.428326676316
20
-1.5679418953415
30
0
41
1
10
29.4251682004836
20
-1.54011137889515
30
0
41
1
10
29.4241132983964
20
-1.53020496114968
30
0
41
1
10
29.4219785558269
20
-1.50912813905941
30
0
41
1
10
29.4208955754271
20
-1.49793317344981
30
0
41
1
10
29.4154081158231
20
-1.43903254763464
30
0
41
1
10
29.4108198972522
20
-1.38328101666119
30
0
41
1
10
29.4061978395635
20
-1.31873003285352
30
0
0
SPLINE
5
E6
100
AcDbEntity
8
1
62
256
6
ByLayer
370
18
48
1
60
0
100
AcDbSpline
70
4
71
3
72
21
73
17
40
0
40
0
40
0
40
0
40
0.167189469548067
40
0.167189469548067
40
0.334378939096134
40
0.334378939096134
40
0.417973673870167
40
0.417973673870167
40
0.501568408644199
40
0.501568408644199
40
0.668757878192264
40
0.83594734774033
40
0.83594734774033
40
0.919542082514362
40
0.919542082514362
40
1
40
1
40
1
40
1
41
1
10
29.1145578653262
20
-1.17750597047376
30
0
41
1
10
29.1205635463608
20
-1.22086977861591
30
0
41
1
10
29.1265291942848
20
-1.26187401047588
30
0
41
1
10
29.138436896605
20
-1.33920703176307
30
0
41
1
10
29.1443815976687
20
-1.37554004012492
30
0
41
1
10
29.1533287826777
20
-1.42642367913072
30
0
41
1
10
29.1563236684573
20
-1.44282413335372
30
0
41
1
10
29.1622985986117
20
-1.4741470872315
30
0
41
1
10
29.1652767128265
20
-1.4890589402284
30
0
41
1
10
29.1742112198296
20
-1.53161213539656
30
0
41
1
10
29.1861196099579
20
-1.5825524836186
30
0
41
1
10
29.1980722457406
20
-1.62213805112285
30
0
41
1
10
29.2070344929769
20
-1.64740449995642
30
0
41
1
10
29.2100211625632
20
-1.65508686266455
30
0
41
1
10
29.2158733348742
20
-1.66864878274376
30
0
41
1
10
29.2187162102716
20
-1.67453189200489
30
0
41
1
10
29.2215296356304
20
-1.67964491972896
30
0
0
SPLINE
5
E7
100
AcDbEntity
8
1
62
256
6
ByLayer
370
13
48
1
60
0
100
AcDbSpline
70
4
71
3
72
9
73
5
40
0
40
0
40
0
40
0
40
0.676577972822684
40
1
40
1
40
1
40
1
41
1
10
28.7307680124246
20
0.998867683113417
30
0
41
1
10
28.7104865988696
20
1.14279797048479
30
0
41
1
10
28.680655704903
20
1.29740635025382
30
0
41
1
10
28.6504550448469
20
1.34027393874356
30
0
41
1
10
28.6406415322671
20
1.34214926430198
30
0
0
SPLINE
5
E8
100
AcDbEntity
8
1
62
256
6
ByLayer
370
18
48
1
60
0
100
AcDbSpline
70
4
71
3
72
24
73
20
40
0
40
0
40
0
40
0
40
0.125000000000001
40
0.125000000000001
40
0.250000000000001
40
0.250000000000001
40
0.312500000000001
40
0.312500000000001
40
0.375000000000002
40
0.375000000000002
40
0.500000000000001
40
0.500000000000001
40
0.625
40
0.625
40
0.6875
40
0.6875
40
0.75
40
0.75
40
1
40
1
40
1
40
1
41
1
10
28.8611204200807
20
1.69422505290274
30
0
41
1
10
28.8670676598902
20
1.68976596167821
30
0
41
1
10
28.8730221694754
20
1.68201121640576
30
0
41
1
10
28.8850299559052
20
1.65987466022662
30
0
41
1
10
28.8910930126733
20
1.64548893145465
30
0
41
1
10
28.9002677811477
20
1.61875099110674
30
0
41
1
10
28.9033456788964
20
1.60895431768407
30
0
41
1
10
28.9094590579305
20
1.58787078357491
30
0
41
1
10
28.9125028472314
20
1.57656278554182
30
0
41
1
10
28.9215986404294
20
1.54038004987365
30
0
41
1
10
28.9276046754825
20
1.51323765587057
30
0
41
1
10
28.9395882783972
20
1.45304435414647
30
0
41
1
10
28.945578384116
20
1.42001360136848
30
0
41
1
10
28.9546524240103
20
1.36602797309911
30
0
41
1
10
28.9576996569335
20
1.34723698089707
30
0
41
1
10
28.963789030046
20
1.30840710595138
30
0
41
1
10
28.9668266492249
20
1.28840129507395
30
0
41
1
10
28.9819885768345
20
1.18544296034204
30
0
41
1
10
28.9940259391673
20
1.09374187531878
30
0
41
1
10
29.0057045540074
20
0.992141534231365
30
0
0
SPLINE
5
E9
100
AcDbEntity
8
1
62
256
6
ByLayer
370
18
48
1
60
0
100
AcDbSpline
70
4
71
3
72
22
73
18
40
0
40
0
40
0
40
0
40
0.250000000000001
40
0.250000000000001
40
0.312500000000001
40
0.312500000000001
40
0.375000000000001
40
0.375000000000001
40
0.500000000000001
40
0.500000000000001
40
0.625000000000001
40
0.625000000000001
40
0.687500000000001
40
0.687500000000001
40
0.750000000000001
40
0.750000000000001
40
1
40
1
40
1
40
1
41
1
10
29.1287915049002
20
0.870394045331182
30
0
41
1
10
29.1237082098447
20
0.965654581351032
30
0
41
1
10
29.1189760299654
20
1.0539541018839
30
0
41
1
10
29.1134566884982
20
1.15535677862738
30
0
41
1
10
29.1123641749296
20
1.17523761975144
30
0
41
1
10
29.1102024287877
20
1.2137212086644
30
0
41
1
10
29.1091313701795
20
1.23235899695175
30
0
41
1
10
29.1059129198235
20
1.28652125665164
30
0
41
1
10
29.1037582330318
20
1.32030269795348
30
0
41
1
10
29.0992991014776
20
1.38332530349015
30
0
41
1
10
29.0969805410342
20
1.41256977208053
30
0
41
1
10
29.0934121857027
20
1.45290292353468
30
0
41
1
10
29.0922107162152
20
1.46575575779556
30
0
41
1
10
29.0898054246641
20
1.49022673259245
30
0
41
1
10
29.0886117245278
20
1.50175147259759
30
0
41
1
10
29.0826862464773
20
1.55582572904376
30
0
41
1
10
29.0780938316205
20
1.58793346612339
30
0
41
1
10
29.073437775226
20
1.60898406502946
30
0
0
SPLINE
5
EA
100
AcDbEntity
8
1
62
256
6
ByLayer
370
13
48
1
60
0
100
AcDbSpline
70
4
71
3
72
10
73
6
40
0
40
0
40
0
40
0
40
0.227588039872697
40
0.741768254424436
40
1
40
1
40
1
40
1
41
1.04
10
29.3677070247727
20
0.580404110770707
30
0
41
1.04
10
29.361021549847
20
0.644491003011347
30
0
41
1.04
10
29.3391332668179
20
0.846316201028876
30
0
41
1.04
10
29.3090009956208
20
1.07660190835147
30
0
41
1.04
10
29.285395929956
20
1.1978175275669
30
0
41
1.04
10
29.2774666502763
20
1.23130691089658
30
0
0
SPLINE
5
EB
100
AcDbEntity
8
1
62
256
6
ByLayer
370
13
48
1
60
0
100
AcDbSpline
70
4
71
3
72
9
73
5
40
0
40
0
40
0
40
0
40
0.20518738544127
40
1
40
1
40
1
40
1
41
1.04
10
25.6379233574922
20
-1.33181444696504
30
0
41
1.04
10
25.6312601847988
20
-1.32301891718285
30
0
41
1.04
10
25.5992628410351
20
-1.25427609952292
30
0
41
1.04
10
25.5703765665122
20
-1.07480649411089
30
0
41
1.04
10
25.5484202233105
20
-0.902005974849784
30
0
0
SPLINE
5
EC
100
AcDbEntity
8
1
62
256
6
ByLayer
370
13
48
1
60
0
100
AcDbSpline
70
4
71
3
72
10
73
6
40
0
40
0
40
0
40
0
40
0.0165600959390763
40
0.545472110186533
40
1
40
1
40
1
40
1
41
1
10
25.0010107335112
20
-1.16755322277598
30
0
41
1
10
25.0005250765325
20
-1.16499966374437
30
0
41
1
10
24.984521126013
20
-1.08000358732124
30
0
41
1
10
24.9547682431104
20
-0.871005611242481
30
0
41
1
10
24.9252817143009
20
-0.593109879245418
30
0
41
1
10
24.9115099227599
20
-0.455364796665009
30
0
0
SPLINE
5
ED
100
AcDbEntity
8
1
62
256
6
ByLayer
370
13
48
1
60
0
100
AcDbSpline
70
4
71
3
72
9
73
5
40
0
40
0
40
0
40
0
40
0.386952633183966
40
1
40
1
40
1
40
1
41
1
10
25.5748402330151
20
0.85115134430896
30
0
41
1
10
25.563521967656
20
0.943963927496071
30
0
41
1
10
25.5340525676122
20
1.15933693318863
30
0
41
1
10
25.5040585727583
20
1.28690807859681
30
0
41
1
10
25.4852193075002
20
1.32200938987049
30
0
0
SPLINE
5
EE
100
AcDbEntity
8
1
62
256
6
ByLayer
370
18
48
1
60
0
100
AcDbSpline
70
4
71
3
72
25
73
21
40
0
40
0
40
0
40
0
40
0.125000000000001
40
0.125000000000001
40
0.187500000000001
40
0.187500000000001
40
0.250000000000002
40
0.250000000000002
40
0.375000000000002
40
0.375000000000002
40
0.500000000000003
40
0.500000000000003
40
0.562500000000003
40
0.593750000000002
40
0.593750000000002
40
0.625000000000002
40
0.625000000000002
40
0.750000000000001
40
0.875000000000001
40
1
40
1
40
1
40
1
41
1
10
25.7558974680653
20
1.71409814548679
30
0
41
1
10
25.7603570692561
20
1.69630421354432
30
0
41
1
10
25.7647807445066
20
1.67533335521639
30
0
41
1
10
25.7714081954434
20
1.63904947997111
30
0
41
1
10
25.7736162948476
20
1.62614861111209
30
0
41
1
10
25.7780422983239
20
1.59870322184398
30
0
41
1
10
25.780262878589
20
1.58413533189579
30
0
41
1
10
25.7868826073181
20
1.53847733863066
30
0
41
1
10
25.7912641733604
20
1.50528874907226
30
0
41
1
10
25.8001164329443
20
1.43356383569213
30
0
41
1
10
25.8045897616479
20
1.39502748914853
30
0
41
1
10
25.8113527742142
20
1.33318470145053
30
0
41
1
10
25.8147476947212
20
1.30125165130212
30
0
41
1
10
25.8181615489507
20
1.26777634916593
30
0
41
1
10
25.8204417307629
20
1.24511256183453
30
0
41
1
10
25.8215854576337
20
1.2335916224321
30
0
41
1
10
25.8272839909596
20
1.17542907323846
30
0
41
1
10
25.8363038975423
20
1.07849434433055
30
0
41
1
10
25.8496308772535
20
0.921846757104277
30
0
41
1
10
25.85850973309
20
0.809919921701606
30
0
41
1
10
25.8630025114635
20
0.75202025686977
30
0
0
SPLINE
5
EF
100
AcDbEntity
8
1
62
256
6
ByLayer
370
18
48
1
60
0
100
AcDbSpline
70
4
71
3
72
26
73
22
40
0
40
0
40
0
40
0
40
0.125
40
0.125
40
0.249999999999999
40
0.374999999999999
40
0.374999999999999
40
0.437499999999999
40
0.437499999999999
40
0.499999999999999
40
0.499999999999999
40
0.624999999999999
40
0.749999999999999
40
0.749999999999999
40
0.781249999999998
40
0.781249999999998
40
0.812499999999998
40
0.812499999999998
40
0.874999999999998
40
0.874999999999998
40
1
40
1
40
1
40
1
41
1
10
25.9428040730081
20
0.671508700390717
30
0
41
1
10
25.938255162842
20
0.730730214717426
30
0
41
1
10
25.9337633472927
20
0.788157112948909
30
0
41
1
10
25.9248545561238
20
0.899461720488318
30
0
41
1
10
25.9160188232993
20
1.00724608727882
30
0
41
1
10
25.9071742896784
20
1.10800424687579
30
0
41
1
10
25.9004508473424
20
1.18085179449736
30
0
41
1
10
25.8981935851368
20
1.20469363642945
30
0
41
1
10
25.8937027625277
20
1.25089565838846
30
0
41
1
10
25.8914625063772
20
1.27333000764958
30
0
41
1
10
25.8847525606243
20
1.33866744611771
30
0
41
1
10
25.8758362157896
20
1.42055303407835
30
0
41
1
10
25.8668971960236
20
1.49207165786334
30
0
41
1
10
25.8612597285336
20
1.53344998528613
30
0
41
1
10
25.8601296301205
20
1.54155916220924
30
0
41
1
10
25.8578628158731
20
1.5574406572641
30
0
41
1
10
25.856724822549
20
1.56522057044933
30
0
41
1
10
25.8533187923276
20
1.58791951360382
30
0
41
1
10
25.8510538891706
20
1.6022383553894
30
0
41
1
10
25.8442799998099
20
1.64280344963092
30
0
41
1
10
25.8397930491572
20
1.66666488670364
30
0
41
1
10
25.8353296693791
20
1.68739289716089
30
0
0
SPLINE
5
F0
100
AcDbEntity
8
1
62
256
6
ByLayer
370
13
48
1
60
0
100
AcDbSpline
70
4
71
3
72
9
73
5
40
0
40
0
40
0
40
0
40
0.579577282065929
40
1
40
1
40
1
40
1
41
1.04
10
26.2117446191194
20
0.390108357351884
30
0
41
1.04
10
26.1940968009514
20
0.569357348310362
30
0
41
1.04
10
26.1640973098285
20
0.854568040790556
30
0
41
1.04
10
26.1344470156619
20
1.06249303654487
30
0
41
1.04
10
26.1220058213672
20
1.13328277546889
30
0
0
SPLINE
5
F1
100
AcDbEntity
8
1
62
256
6
ByLayer
370
13
48
1
60
0
100
AcDbSpline
70
4
71
3
72
10
73
6
40
0
40
0
40
0
40
0
40
0.439627039682245
40
0.948946218505247
40
1
40
1
40
1
40
1
41
1
10
29.5914527802518
20
0.409007644109835
30
0
41
1
10
29.5785039904004
20
0.54015835509793
30
0
41
1
10
29.5504092969284
20
0.810808367510646
30
0
41
1
10
29.519989337532
20
1.04029636086474
30
0
41
1
10
29.5027655580415
20
1.13821233402197
30
0
41
1
10
29.5011948776856
20
1.14687301929911
30
0
0
SPLINE
5
F2
100
AcDbEntity
8
1
62
256
6
ByLayer
370
18
48
1
60
0
100
AcDbSpline
70
4
71
3
72
19
73
15
40
0
40
0
40
0
40
0
40
0.25
40
0.25
40
0.375
40
0.375
40
0.5
40
0.5
40
0.75
40
0.75
40
0.8125
40
0.8125
40
0.875
40
1
40
1
40
1
40
1
41
1
10
30.1356054123427
20
-0.0855271581992838
30
0
41
1
10
30.1290407389574
20
0.0064507311403474
30
0
41
1
10
30.1230308239027
20
0.0976050714574228
30
0
41
1
10
30.1142459019475
20
0.233112524968618
30
0
41
1
10
30.1113572273994
20
0.278076078171068
30
0
41
1
10
30.1055849872265
20
0.367573982866162
30
0
41
1
10
30.1027562588083
20
0.411393819592547
30
0
41
1
10
30.0945229153008
20
0.540009794662581
30
0
41
1
10
30.0893441757406
20
0.622043605140703
30
0
41
1
10
30.0832118492559
20
0.719796425805413
30
0
41
1
10
30.0820016984527
20
0.739139267649904
30
0
41
1
10
30.0796270369461
20
0.777174409089923
30
0
41
1
10
30.0761468342685
20
0.833024426098916
30
0
41
1
10
30.0728944710117
20
0.885326340154876
30
0
41
1
10
30.0707933895779
20
0.918633749162865
30
0
0
SPLINE
5
F3
100
AcDbEntity
8
1
62
256
6
ByLayer
370
18
48
1
60
0
100
AcDbSpline
70
4
71
3
72
23
73
19
40
0
40
0
40
0
40
0
40
0.125000000000001
40
0.250000000000003
40
0.250000000000003
40
0.312500000000003
40
0.312500000000003
40
0.375000000000004
40
0.375000000000004
40
0.500000000000003
40
0.500000000000003
40
0.750000000000003
40
0.750000000000003
40
0.812500000000003
40
0.812500000000003
40
0.875000000000002
40
0.875000000000002
40
1
40
1
40
1
40
1
41
1
10
29.6218072134784
20
1.27654681906671
30
0
41
1
10
29.6275911543804
20
1.24875818742541
30
0
41
1
10
29.6391644793762
20
1.18883642835223
30
0
41
1
10
29.6507626600449
20
1.12046295073387
30
0
41
1
10
29.6594529611269
20
1.06592534655849
30
0
41
1
10
29.6623481276672
20
1.04720139664022
30
0
41
1
10
29.6681299102629
20
1.00862497448586
30
0
41
1
10
29.671022714938
20
0.988718387407772
30
0
41
1
10
29.6795868429645
20
0.927941805954987
30
0
41
1
10
29.6851788878583
20
0.885867833648888
30
0
41
1
10
29.701712221765
20
0.755134575040103
30
0
41
1
10
29.7123888841271
20
0.662013002653282
30
0
41
1
10
29.7255755903486
20
0.537982850067891
30
0
41
1
10
29.7281927081117
20
0.512910779424573
30
0
41
1
10
29.7333712712937
20
0.462485935405738
30
0
41
1
10
29.7359367431683
20
0.437095265638305
30
0
41
1
10
29.7435759948822
20
0.360396001783386
30
0
41
1
10
29.7485928430064
20
0.308561864212123
30
0
41
1
10
29.7535674353344
20
0.256025336468582
30
0
0
SPLINE
5
F4
100
AcDbEntity
8
1
62
256
6
ByLayer
370
13
48
1
60
0
100
AcDbSpline
70
4
71
3
72
9
73
5
40
0
40
0
40
0
40
0
40
0.257809907523946
40
1
40
1
40
1
40
1
41
1.04
10
28.7938877520712
20
-1.29135142147723
30
0
41
1.04
10
28.7862957753178
20
-1.26933627888915
30
0
41
1.04
10
28.7567260335444
20
-1.15664672111237
30
0
41
1.04
10
28.7267998580344
20
-0.940542812198577
30
0
41
1.04
10
28.7037608180825
20
-0.736409550045062
30
0
0
SPLINE
5
F5
100
AcDbEntity
8
1
62
256
6
ByLayer
370
13
48
1
60
0
100
AcDbSpline
70
4
71
3
72
9
73
5
40
0
40
0
40
0
40
0
40
0.332908698650623
40
1
40
1
40
1
40
1
41
1.04
10
24.7772239778641
20
-1.06514745570431
30
0
41
1.04
10
24.7674417338113
20
-1.00196512411075
30
0
41
1.04
10
24.7378737044169
20
-0.782765205751827
30
0
41
1.04
10
24.7080752293647
20
-0.488833491107461
30
0
41
1.04
10
24.6878000433109
20
-0.278339466388152
30
0
0
SPLINE
5
F6
100
AcDbEntity
8
1
62
256
6
ByLayer
370
18
48
1
60
0
100
AcDbSpline
70
4
71
3
72
28
73
24
40
0
40
0
40
0
40
0
40
0.0625000000000003
40
0.0625000000000003
40
0.125000000000001
40
0.125000000000001
40
0.250000000000001
40
0.250000000000001
40
0.375000000000002
40
0.375000000000002
40
0.437500000000002
40
0.437500000000002
40
0.468750000000002
40
0.468750000000002
40
0.500000000000002
40
0.625000000000001
40
0.75
40
0.75
40
0.8125
40
0.8125
40
0.875
40
0.875
40
1
40
1
40
1
40
1
41
1
10
26.8036831747659
20
-0.257754158954498
30
0
41
1
10
26.8014455242883
20
-0.226352860171602
30
0
41
1
10
26.7991974527598
20
-0.194693266585631
30
0
41
1
10
26.7946873813909
20
-0.131076544883001
30
0
41
1
10
26.79244038125
20
-0.0993317745853517
30
0
41
1
10
26.7857108253453
20
-0.0042849033372931
30
0
41
1
10
26.7812388864102
20
0.0588302165231767
30
0
41
1
10
26.7722741540821
20
0.184567292828945
30
0
41
1
10
26.7677803064469
20
0.24718917472282
30
0
41
1
10
26.7610310086535
20
0.34074707685275
30
0
41
1
10
26.75877954787
20
0.371870408390947
30
0
41
1
10
26.7553970426991
20
0.418459327905197
30
0
41
1
10
26.7542670172291
20
0.433994961034415
30
0
41
1
10
26.7520160801774
20
0.464872804110769
30
0
41
1
10
26.7464075710238
20
0.541634548002719
30
0
41
1
10
26.7364637201135
20
0.675971850344126
30
0
41
1
10
26.727673133446
20
0.790052760508843
30
0
41
1
10
26.7210242076208
20
0.8735922718827
30
0
41
1
10
26.7187984832911
20
0.901101221957333
30
0
41
1
10
26.7143153800729
20
0.955431637480046
30
0
41
1
10
26.7120510624266
20
0.982332217908066
30
0
41
1
10
26.7052552482134
20
1.06124396960945
30
0
41
1
10
26.7007063526344
20
1.11150567983449
30
0
41
1
10
26.6961569092906
20
1.15949454162771
30
0
0
SPLINE
5
F7
100
AcDbEntity
8
1
62
256
6
ByLayer
370
13
48
1
60
0
100
AcDbSpline
70
4
71
3
72
9
73
5
40
0
40
0
40
0
40
0
40
0.485357268501914
40
1
40
1
40
1
40
1
41
1.04
10
27.0724957974689
20
-0.312341433632295
30
0
41
1.04
10
27.0585673792397
20
-0.168511920028454
30
0
41
1.04
10
27.0294203637123
20
0.143541374184317
30
0
41
1.04
10
26.998845290739
20
0.462553222843153
30
0
41
1.04
10
26.9826303495608
20
0.615651694669157
30
0
0
SPLINE
5
F8
100
AcDbEntity
8
1
62
256
6
ByLayer
370
13
48
1
60
0
100
AcDbSpline
70
4
71
3
72
9
73
5
40
0
40
0
40
0
40
0
40
0.694140578770052
40
1
40
1
40
1
40
1
41
1
10
27.2962512558746
20
-0.488600699155285
30
0
41
1
10
27.276204338902
20
-0.289918765891116
30
0
41
1
10
27.2468214070354
20
0.0272204293664799
30
0
41
1
10
27.2159551482186
20
0.350076127530969
30
0
41
1
10
27.2063530925829
20
0.446481537342208
30
0
0
SPLINE
5
F9
100
AcDbEntity
8
1
62
256
6
ByLayer
370
13
48
1
60
0
100
AcDbSpline
70
4
71
3
72
9
73
5
40
0
40
0
40
0
40
0
40
0.580469383704945
40
1
40
1
40
1
40
1
41
1
10
28.1569652405861
20
-1.0532913611973
30
0
41
1
10
28.1399011454795
20
-0.940734864135464
30
0
41
1
10
28.1103260872321
20
-0.696674818073632
30
0
41
1
10
28.0798620159604
20
-0.388337368555398
30
0
41
1
10
28.0668798854582
20
-0.252732551653537
30
0
0
SPLINE
5
FA
100
AcDbEntity
8
1
62
256
6
ByLayer
370
18
48
1
60
0
100
AcDbSpline
70
4
71
3
72
28
73
24
40
0
40
0
40
0
40
0
40
0.124999999999999
40
0.124999999999999
40
0.156249999999998
40
0.156249999999998
40
0.187499999999998
40
0.187499999999998
40
0.249999999999998
40
0.249999999999998
40
0.374999999999999
40
0.500000000000001
40
0.500000000000001
40
0.562500000000001
40
0.562500000000001
40
0.625000000000002
40
0.625000000000002
40
0.750000000000001
40
0.875000000000001
40
0.875000000000001
40
0.937500000000001
40
0.937500000000001
40
1
40
1
40
1
40
1
41
1
10
28.5251495664602
20
-1.66837214593369
30
0
41
1
10
28.5206845944789
20
-1.64578618861609
30
0
41
1
10
28.5162139455763
20
-1.62006484145385
30
0
41
1
10
28.5105716191396
20
-1.58390109320663
30
0
41
1
10
28.5094408711495
20
-1.57646718895742
30
0
41
1
10
28.5071747108498
20
-1.56119248151495
30
0
41
1
10
28.5060378299681
20
-1.55334092772028
30
0
41
1
10
28.5026385731053
20
-1.52930248096257
30
0
41
1
10
28.5003833267178
20
-1.51260511925574
30
0
41
1
10
28.4936450702419
20
-1.46053953034485
30
0
41
1
10
28.4847355778813
20
-1.3858668242197
30
0
41
1
10
28.4758804408133
20
-1.30085949990709
30
0
41
1
10
28.4692083362697
20
-1.23316151943192
30
0
41
1
10
28.4669790277275
20
-1.20993709611346
30
0
41
1
10
28.4624997424567
20
-1.16214293203109
30
0
41
1
10
28.4602607057254
20
-1.13768818835175
30
0
41
1
10
28.4535708893368
20
-1.06312060995359
30
0
41
1
10
28.4446893723131
20
-0.960136480738953
30
0
41
1
10
28.4357373235582
20
-0.850194888304173
30
0
41
1
10
28.4289568199248
20
-0.765101911948534
30
0
41
1
10
28.4266857513616
20
-0.736297206808615
30
0
41
1
10
28.4221177384512
20
-0.677790792481318
30
0
41
1
10
28.4198152443762
20
-0.648023073008233
30
0
41
1
10
28.4175272932607
20
-0.61814349395479
30
0
0
SPLINE
5
FB
100
AcDbEntity
8
1
62
256
6
ByLayer
370
18
48
1
60
0
100
AcDbSpline
70
4
71
3
72
27
73
23
40
0
40
0
40
0
40
0
40
0.0624999999999998
40
0.0624999999999998
40
0.125
40
0.125
40
0.249999999999999
40
0.249999999999999
40
0.374999999999999
40
0.374999999999999
40
0.437499999999999
40
0.437499999999999
40
0.499999999999999
40
0.499999999999999
40
0.624999999999999
40
0.749999999999999
40
0.749999999999999
40
0.812499999999999
40
0.812499999999999
40
0.874999999999999
40
0.874999999999999
40
1
40
1
40
1
40
1
41
1
10
28.3376542692315
20
-0.534641410576739
30
0
41
1
10
28.3398750140026
20
-0.564998274988199
30
0
41
1
10
28.342108589479
20
-0.595299845150691
30
0
41
1
10
28.3465593435673
20
-0.655062568263361
30
0
41
1
10
28.3487763823552
20
-0.684523865295745
30
0
41
1
10
28.3554231541204
20
-0.771671194780851
30
0
41
1
10
28.35985199154
20
-0.828123808555006
30
0
41
1
10
28.3688080593327
20
-0.937778693130383
30
0
41
1
10
28.3733251020774
20
-0.990981704489798
30
0
41
1
10
28.3801557376049
20
-1.06830258203735
30
0
41
1
10
28.3824418447434
20
-1.0936614026883
30
0
41
1
10
28.3870331175936
20
-1.1435304458289
30
0
41
1
10
28.3893197112818
20
-1.16783849380769
30
0
41
1
10
28.3961444922861
20
-1.23881305253616
30
0
41
1
10
28.405158976097
20
-1.32835815994971
30
0
41
1
10
28.4140587545808
20
-1.40792836983326
30
0
41
1
10
28.4207305843586
20
-1.46381280278817
30
0
41
1
10
28.4229542437726
20
-1.48180743080289
30
0
41
1
10
28.4274106671079
20
-1.51650425446559
30
0
41
1
10
28.4296454448567
20
-1.53321595404543
30
0
41
1
10
28.4363005579692
20
-1.58080717498012
30
0
41
1
10
28.4406977083494
20
-1.60936377571869
30
0
41
1
10
28.4451101815422
20
-1.63483075133118
30
0
0
SPLINE
5
FC
100
AcDbEntity
8
1
62
256
6
ByLayer
370
13
48
1
60
0
100
AcDbSpline
70
4
71
3
72
10
73
6
40
0
40
0
40
0
40
0
40
0.370431363589822
40
0.889991853070325
40
1
40
1
40
1
40
1
41
1.04
10
27.9331891827557
20
-0.928846489999722
30
0
41
1.04
10
27.9223810259761
20
-0.8460715203745
30
0
41
1.04
10
27.89624592276
20
-0.621809336647171
30
0
41
1.04
10
27.8661102740345
20
-0.313148727140727
30
0
41
1.04
10
27.8466742601815
20
-0.106979753742346
30
0
41
1.04
10
27.8432614992647
20
-0.070702660244192
30
0
0
SPLINE
5
FD
100
AcDbEntity
8
1
62
256
6
ByLayer
370
13
48
1
60
0
100
AcDbSpline
70
4
71
3
72
10
73
6
40
0
40
0
40
0
40
0
40
0.0082580032443572
40
0.792354691756544
40
1
40
1
40
1
40
1
41
1
10
26.4355385997807
20
0.210019223210452
30
0
41
1
10
26.4352860222361
20
0.212669688483544
30
0
41
1
10
26.4110571235704
20
0.46678902923648
30
0
41
1
10
26.3811999745784
20
0.763499715637437
30
0
41
1
10
26.3519279275223
20
0.981800103551137
30
0
41
1
10
26.3458095617178
20
1.02383231265813
30
0
0
SPLINE
5
FE
100
AcDbEntity
8
1
62
256
6
ByLayer
370
18
48
1
60
0
100
AcDbSpline
70
4
71
3
72
29
73
25
40
0
40
0
40
0
40
0
40
0.125000000000001
40
0.125000000000001
40
0.187500000000002
40
0.187500000000002
40
0.250000000000003
40
0.250000000000003
40
0.375000000000004
40
0.500000000000005
40
0.500000000000005
40
0.562500000000005
40
0.562500000000005
40
0.625000000000004
40
0.625000000000004
40
0.750000000000003
40
0.750000000000003
40
0.875000000000002
40
0.875000000000002
40
0.937500000000001
40
0.937500000000001
40
0.968750000000001
40
0.968750000000001
40
1
40
1
40
1
40
1
41
1
10
26.6161797113247
20
1.22506122838118
30
0
41
1
10
26.6206583472506
20
1.17914955773702
30
0
41
1
10
26.6251675410788
20
1.13086954401709
30
0
41
1
10
26.6319792973932
20
1.05479494190251
30
0
41
1
10
26.6342626984056
20
1.02876380163681
30
0
41
1
10
26.638794967375
20
0.976060033380293
30
0
41
1
10
26.641049071501
20
0.949331396263375
30
0
41
1
10
26.6477818278353
20
0.868036213604199
30
0
41
1
10
26.6566782722672
20
0.756690445097718
30
0
41
1
10
26.6655267248763
20
0.639513998278943
30
0
41
1
10
26.672206478962
20
0.549400004895119
30
0
41
1
10
26.6744449792557
20
0.518927736825447
30
0
41
1
10
26.6789289616187
20
0.457498922783856
30
0
41
1
10
26.6811641855739
20
0.42668456893793
30
0
41
1
10
26.6878681835772
20
0.333949373591821
30
0
41
1
10
26.6923455883391
20
0.271737927265178
30
0
41
1
10
26.701328287333
20
0.146553519961458
30
0
41
1
10
26.7058213840955
20
0.0835796952794965
30
0
41
1
10
26.7125623749208
20
-0.0114628914569721
30
0
41
1
10
26.7148102247048
20
-0.0432408855257052
30
0
41
1
10
26.7181887327789
20
-0.0910562723886414
30
0
41
1
10
26.7193170314233
20
-0.107033183527335
30
0
41
1
10
26.7215640485874
20
-0.138848966983659
30
0
41
1
10
26.7226842848947
20
-0.154709298767415
30
0
41
1
10
26.7238020774073
20
-0.170522548191059
30
0
0
SPLINE
5
FF
100
AcDbEntity
8
1
62
256
6
ByLayer
370
18
48
1
60
0
100
AcDbSpline
70
4
71
3
72
28
73
24
40
0
40
0
40
0
40
0
40
0.124999999999945
40
0.124999999999945
40
0.24999999999989
40
0.24999999999989
40
0.374999999999836
40
0.374999999999836
40
0.437499999999832
40
0.437499999999832
40
0.499999999999829
40
0.499999999999829
40
0.624999999999872
40
0.624999999999872
40
0.749999999999915
40
0.749999999999915
40
0.812499999999936
40
0.812499999999936
40
0.874999999999958
40
0.874999999999958
40
0.937499999999979
40
0.937499999999979
40
1
40
1
40
1
40
1
41
1
10
30.165274278251
20
1.19082058687954
30
0
41
1
10
30.1592118286814
20
1.17901923491232
30
0
41
1
10
30.1522185130635
20
1.1681436878217
30
0
41
1
10
30.136783523533
20
1.1478092955073
30
0
41
1
10
30.1282733744386
20
1.13831776011679
30
0
41
1
10
30.1104749711965
20
1.12118742611963
30
0
41
1
10
30.1011351739976
20
1.11346966425725
30
0
41
1
10
30.086510529778
20
1.10311954992477
30
0
41
1
10
30.081532242884
20
1.09987597972051
30
0
41
1
10
30.0713653762027
20
1.09381981501034
30
0
41
1
10
30.0661787941068
20
1.09101149410421
30
0
41
1
10
30.0505716890586
20
1.08340656622076
30
0
41
1
10
30.0400190990102
20
1.07936163771666
30
0
41
1
10
30.0186431027565
20
1.07363161721861
30
0
41
1
10
30.0077299252548
20
1.07195779766957
30
0
41
1
10
29.9919105668439
20
1.07184666287685
30
0
41
1
10
29.9867058209166
20
1.07220271856252
30
0
41
1
10
29.9764668761835
20
1.0738417559061
30
0
41
1
10
29.9714327227464
20
1.0751351404902
30
0
41
1
10
29.9619077159761
20
1.07873347264646
30
0
41
1
10
29.9573757381328
20
1.08104021646423
30
0
41
1
10
29.9488676452305
20
1.08687479803348
30
0
41
1
10
29.9449513812194
20
1.09037227573617
30
0
41
1
10
29.9414993580638
20
1.09447270818029
30
0
0
SPLINE
5
100
100
AcDbEntity
8
1
62
256
6
ByLayer
370
18
48
1
60
0
100
AcDbSpline
70
4
71
3
72
10
73
6
40
0
40
0
40
0
40
0
40
0.5
40
0.5
40
1
40
1
40
1
40
1
41
1
10
29.9414993580638
20
1.09447270818029
30
0
41
1
10
29.9174418440896
20
1.12304905497029
30
0
41
1
10
29.8935116024173
20
1.15017532627317
30
0
41
1
10
29.8458519133233
20
1.20163140699526
30
0
41
1
10
29.8220988646699
20
1.22599506260138
30
0
41
1
10
29.7984599003198
20
1.24897607749443
30
0
0
SPLINE
5
101
100
AcDbEntity
8
1
62
256
6
ByLayer
370
18
48
1
60
0
100
AcDbSpline
70
4
71
3
72
8
73
4
40
0
40
0
40
0
40
0
40
1
40
1
40
1
40
1
41
1
10
29.7984599003198
20
1.24897607749446
30
0
41
1
10
29.7688771062248
20
1.23815619150451
30
0
41
1
10
29.73938809373
20
1.22655504938192
30
0
41
1
10
29.7099669529284
20
1.21417778394081
30
0
0
SPLINE
5
102
100
AcDbEntity
8
1
62
256
6
ByLayer
370
18
48
1
60
0
100
AcDbSpline
70
4
71
3
72
22
73
18
40
0
40
0
40
0
40
0
40
0.0493817159058377
40
0.0493817159058377
40
0.155005969694059
40
0.155005969694059
40
0.366254477270587
40
0.366254477270587
40
0.577502984847115
40
0.577502984847115
40
0.683127238635336
40
0.683127238635336
40
0.788751492423557
40
0.788751492423557
40
0.894375746211779
40
0.894375746211779
40
1
40
1
40
1
40
1
41
1
10
25.7799102969429
20
-1.28511829662847
30
0
41
1
10
25.7775793373462
20
-1.28447161506421
30
0
41
1
10
25.7752256265133
20
-1.28387726930632
30
0
41
1
10
25.7677655459582
20
-1.28217989684546
30
0
41
1
10
25.7625796319092
20
-1.28127205074506
30
0
41
1
10
25.7469743368225
20
-1.27937085363933
30
0
41
1
10
25.7364222769866
20
-1.27916289094048
30
0
41
1
10
25.7150480007749
20
-1.28123430475071
30
0
41
1
10
25.7041371341058
20
-1.28355705816412
30
0
41
1
10
25.6883225432835
20
-1.28932795098686
30
0
41
1
10
25.6831195756316
20
-1.29163442817156
30
0
41
1
10
25.6728847692375
20
-1.29715464414079
30
0
41
1
10
25.6678522117951
20
-1.30037978989958
30
0
41
1
10
25.658330483036
20
-1.30769298684038
30
0
41
1
10
25.653800256048
20
-1.31179814637375
30
0
41
1
10
25.6452953601848
20
-1.32108693021277
30
0
41
1
10
25.6413771384857
20
-1.32622071608907
30
0
41
1
10
25.6379233574922
20
-1.33181444696504
30
0
0
SPLINE
5
103
100
AcDbEntity
8
1
62
256
6
ByLayer
370
18
48
1
60
0
100
AcDbSpline
70
4
71
3
72
10
73
6
40
0
40
0
40
0
40
0
40
0.5
40
0.5
40
1
40
1
40
1
40
1
41
1
10
25.6379233574922
20
-1.33181444696501
30
0
41
1
10
25.5922118529766
20
-1.40584862998998
30
0
41
1
10
25.5469831689894
20
-1.47743959495835
30
0
41
1
10
25.4570778472471
20
-1.61602133176274
30
0
41
1
10
25.4128405625162
20
-1.68232505275336
30
0
41
1
10
25.3690317288227
20
-1.74573982503313
30
0
0
SPLINE
5
104
100
AcDbEntity
8
1
62
256
6
ByLayer
370
18
48
1
60
0
100
AcDbSpline
70
4
71
3
72
8
73
4
40
0
40
0
40
0
40
0
40
1
40
1
40
1
40
1
41
1
10
25.2890565080093
20
-1.72487121723361
30
0
41
1
10
25.3157705256804
20
-1.73254322504135
30
0
41
1
10
25.342422911644
20
-1.73949786774915
30
0
41
1
10
25.3690317288227
20
-1.7457398250331
30
0
0
SPLINE
5
105
100
AcDbEntity
8
1
62
256
6
ByLayer
370
18
48
1
60
0
100
AcDbSpline
70
4
71
3
72
10
73
6
40
0
40
0
40
0
40
0
40
0.5
40
0.5
40
1
40
1
40
1
40
1
41
1
10
25.2890565080094
20
-1.72487121723358
30
0
41
1
10
25.242227761787
20
-1.63679403769601
30
0
41
1
10
25.1949665321741
20
-1.54601673812192
30
0
41
1
10
25.0988223020175
20
-1.35932884055885
30
0
41
1
10
25.0503280499923
20
-1.26422893141748
30
0
41
1
10
25.0010107335112
20
-1.16755322277598
30
0
0
SPLINE
5
106
100
AcDbEntity
8
1
62
256
6
ByLayer
370
18
48
1
60
0
100
AcDbSpline
70
4
71
3
72
28
73
24
40
0
40
0
40
0
40
0
40
0.124999999999988
40
0.124999999999988
40
0.249999999999976
40
0.249999999999976
40
0.374999999999964
40
0.374999999999964
40
0.437499999999958
40
0.437499999999958
40
0.499999999999952
40
0.499999999999952
40
0.624999999999989
40
0.624999999999989
40
0.750000000000026
40
0.750000000000026
40
0.81250000000002
40
0.81250000000002
40
0.875000000000013
40
0.875000000000013
40
0.937500000000007
40
0.937500000000007
40
1
40
1
40
1
40
1
41
1
10
25.0010107335112
20
-1.16755322277598
30
0
41
1
10
24.9949357738329
20
-1.15564460580802
30
0
41
1
10
24.9879247097726
20
-1.14463761916605
30
0
41
1
10
24.9724513805886
20
-1.12400221007581
30
0
41
1
10
24.9639201046942
20
-1.11433941728663
30
0
41
1
10
24.9460860532601
20
-1.09684431759084
30
0
41
1
10
24.93673090057
20
-1.08893124122417
30
0
41
1
10
24.9220886850033
20
-1.07826488377975
30
0
41
1
10
24.9171054638421
20
-1.07491198479602
30
0
41
1
10
24.9069313056589
20
-1.06862787291487
30
0
41
1
10
24.9017447275601
20
-1.0657023366318
30
0
41
1
10
24.8861407236989
20
-1.05773502079913
30
0
41
1
10
24.8755944545432
20
-1.05343379224971
30
0
41
1
10
24.8542435628611
20
-1.04714494407546
30
0
41
1
10
24.8433497137183
20
-1.04516426600051
30
0
41
1
10
24.8275616743222
20
-1.04456073483232
30
0
41
1
10
24.8223680661328
20
-1.04474681390619
30
0
41
1
10
24.8121523163279
20
-1.04603112984455
30
0
41
1
10
24.8071268747884
20
-1.04714008976151
30
0
41
1
10
24.7976173456538
20
-1.05036557442102
30
0
41
1
10
24.7930924966912
20
-1.05248233358418
30
0
41
1
10
24.7845966839075
20
-1.05792768868687
30
0
41
1
10
24.7806777836005
20
-1.0612344449942
30
0
41
1
10
24.7772239778641
20
-1.06514745570439
30
0
0
SPLINE
5
107
100
AcDbEntity
8
1
62
256
6
ByLayer
370
18
48
1
60
0
100
AcDbSpline
70
4
71
3
72
10
73
6
40
0
40
0
40
0
40
0
40
0.5
40
0.5
40
1
40
1
40
1
40
1
41
1
10
24.7772239778641
20
-1.06514745570439
30
0
41
1
10
24.7315225035537
20
-1.11692522553179
30
0
41
1
10
24.6862968139004
20
-1.16343349474627
30
0
41
1
10
24.5963962708744
20
-1.24654700677351
30
0
41
1
10
24.5521670563528
20
-1.28268494256773
30
0
41
1
10
24.5083695397772
20
-1.31371673866931
30
0
0
SPLINE
5
108
100
AcDbEntity
8
1
62
256
6
ByLayer
370
18
48
1
60
0
100
AcDbSpline
70
4
71
3
72
14
73
10
40
0
40
0
40
0
40
0
40
0.25
40
0.25
40
0.5
40
0.5
40
0.75
40
0.75
40
1
40
1
40
1
40
1
41
1
10
22.9700000000071
20
-1.65353348841293
30
0
41
1
10
22.9929061472112
20
-1.63213598519539
30
0
41
1
10
23.0159374224421
20
-1.60935322322442
30
0
41
1
10
23.0624100631845
20
-1.56075756071081
30
0
41
1
10
23.0858748502976
20
-1.53490215755093
30
0
41
1
10
23.1332434259073
20
-1.48025897543025
30
0
41
1
10
23.1570544109547
20
-1.45159181190598
30
0
41
1
10
23.2050012018677
20
-1.39165311715638
30
0
41
1
10
23.2291376727291
20
-1.3603768138519
30
0
41
1
10
23.2535016978071
20
-1.32775891203167
30
0
0
SPLINE
5
109
100
AcDbEntity
8
1
62
256
6
ByLayer
370
18
48
1
60
0
100
AcDbSpline
70
4
71
3
72
28
73
24
40
0
40
0
40
0
40
0
40
0.124999999999981
40
0.124999999999981
40
0.249999999999961
40
0.249999999999961
40
0.374999999999942
40
0.374999999999942
40
0.499999999999923
40
0.499999999999923
40
0.624999999999903
40
0.624999999999903
40
0.687499999999919
40
0.687499999999919
40
0.749999999999936
40
0.749999999999936
40
0.812499999999952
40
0.812499999999952
40
0.874999999999968
40
0.874999999999968
40
0.937499999999984
40
0.937499999999984
40
1
40
1
40
1
40
1
41
1
10
23.2535016978071
20
-1.32775891203167
30
0
41
1
10
23.259723919231
20
-1.31942876925527
30
0
41
1
10
23.266925102031
20
-1.31246009556449
30
0
41
1
10
23.2828083616058
20
-1.3005334519134
30
0
41
1
10
23.2915689694956
20
-1.2955796988542
30
0
41
1
10
23.3097956751757
20
-1.28779296956668
30
0
41
1
10
23.3193197115044
20
-1.28490441260516
30
0
41
1
10
23.3391191545642
20
-1.28104082335756
30
0
41
1
10
23.34948782357
20
-1.28007724413936
30
0
41
1
10
23.3703004930775
20
-1.28027551164112
30
0
41
1
10
23.3807866840511
20
-1.28140820061054
30
0
41
1
10
23.3965961475011
20
-1.28486763524109
30
0
41
1
10
23.4018795031979
20
-1.28631693936796
30
0
41
1
10
23.4124675335809
20
-1.28989261987445
30
0
41
1
10
23.4177698003273
20
-1.29202372764382
30
0
41
1
10
23.428121500162
20
-1.29695004052002
30
0
41
1
10
23.4332023362238
20
-1.29975376046357
30
0
41
1
10
23.4431394198406
20
-1.3061421436353
30
0
41
1
10
23.4480320509624
20
-1.30975798491485
30
0
41
1
10
23.4573447374507
20
-1.31777564434199
30
0
41
1
10
23.4617523526301
20
-1.32215660432061
30
0
41
1
10
23.4699934727736
20
-1.33178159152504
30
0
41
1
10
23.4738516059175
20
-1.33706830631112
30
0
41
1
10
23.4772700010258
20
-1.34275355612502
30
0
0
SPLINE
5
10A
100
AcDbEntity
8
1
62
256
6
ByLayer
370
18
48
1
60
0
100
AcDbSpline
70
4
71
3
72
12
73
8
40
0
40
0
40
0
40
0
40
0.5
40
0.5
40
0.75
40
0.75
40
1
40
1
40
1
40
1
41
1
10
23.4772700010258
20
-1.34275355612502
30
0
41
1
10
23.5232439494376
20
-1.41921440204087
30
0
41
1
10
23.568797384675
20
-1.49414580606208
30
0
41
1
10
23.6363696636482
20
-1.60341264338814
30
0
41
1
10
23.6587674122692
20
-1.63930929996798
30
0
41
1
10
23.7032142334712
20
-1.70977991904328
30
0
41
1
10
23.7252859820775
20
-1.74439031620733
30
0
41
1
10
23.7472407802333
20
-1.77837172814833
30
0
0
SPLINE
5
10B
100
AcDbEntity
8
1
62
256
6
ByLayer
370
18
48
1
60
0
100
AcDbSpline
70
4
71
3
72
8
73
4
40
0
40
0
40
0
40
0
40
1
40
1
40
1
40
1
41
1
10
23.8273152878771
20
-1.76768269533093
30
0
41
1
10
23.8006855554199
20
-1.77195110184479
30
0
41
1
10
23.7739983913194
20
-1.77551741404574
30
0
41
1
10
23.7472407802333
20
-1.77837172814833
30
0
0
SPLINE
5
10C
100
AcDbEntity
8
1
62
256
6
ByLayer
370
18
48
1
60
0
100
AcDbSpline
70
4
71
3
72
10
73
6
40
0
40
0
40
0
40
0
40
0.5
40
0.5
40
1
40
1
40
1
40
1
41
1
10
23.8273152878771
20
-1.76768269533093
30
0
41
1
10
23.8738112965232
20
-1.68656763392173
30
0
41
1
10
23.9207826818884
20
-1.60229904976265
30
0
41
1
10
24.0164492149041
20
-1.42774065910388
30
0
41
1
10
24.0647464874203
20
-1.33819482080531
30
0
41
1
10
24.1140666529164
20
-1.24650305022089
30
0
0
SPLINE
5
10D
100
AcDbEntity
8
1
62
256
6
ByLayer
370
18
48
1
60
0
100
AcDbSpline
70
4
71
3
72
28
73
24
40
0
40
0
40
0
40
0
40
0.125
40
0.125
40
0.25
40
0.25
40
0.375
40
0.375
40
0.5
40
0.5
40
0.625
40
0.625
40
0.6875
40
0.6875
40
0.75
40
0.75
40
0.8125
40
0.8125
40
0.875
40
0.875
40
0.9375
40
0.9375
40
1
40
1
40
1
40
1
41
1
10
24.1140666529164
20
-1.24650305022092
30
0
41
1
10
24.1202821686558
20
-1.23494770287948
30
0
41
1
10
24.1274765203332
20
-1.22447768869924
30
0
41
1
10
24.1433491715158
20
-1.20515774627367
30
0
41
1
10
24.152106599789
20
-1.19627724688041
30
0
41
1
10
24.1703310335691
20
-1.18054240656227
30
0
41
1
10
24.1798557644886
20
-1.17360475980914
30
0
41
1
10
24.1996601492617
20
-1.16148513828063
30
0
41
1
10
24.2100321473976
20
-1.15627808945197
30
0
41
1
10
24.230847093725
20
-1.14805130098802
30
0
41
1
10
24.241334975626
20
-1.14498227425369
30
0
41
1
10
24.2571485153776
20
-1.14212032393726
30
0
41
1
10
24.2624334882939
20
-1.14145936498917
30
0
41
1
10
24.2730254955559
20
-1.14080109931672
30
0
41
1
10
24.2783238301424
20
-1.14080959276765
30
0
41
1
10
24.2886695112171
20
-1.14157292489514
30
0
41
1
10
24.2937477255611
20
-1.14232364799193
30
0
41
1
10
24.3036799036709
20
-1.14466514757285
30
0
41
1
10
24.3085706177078
20
-1.1462723446779
30
0
41
1
10
24.3178726113225
20
-1.15041919639532
30
0
41
1
10
24.3222751747173
20
-1.15294498508075
30
0
41
1
10
24.3305072887751
20
-1.15904731183366
30
0
41
1
10
24.3343611778795
20
-1.16265491778208
30
0
41
1
10
24.3377762948671
20
-1.16681691370923
30
0
0
SPLINE
5
10E
100
AcDbEntity
8
1
62
256
6
ByLayer
370
18
48
1
60
0
100
AcDbSpline
70
4
71
3
72
8
73
4
40
0
40
0
40
0
40
0
40
1
40
1
40
1
40
1
41
1
10
24.3377762948671
20
-1.16681691370926
30
0
41
1
10
24.3595695292848
20
-1.19337628289543
30
0
41
1
10
24.3812492529357
20
-1.21889776180114
30
0
41
1
10
24.4028406730161
20
-1.24338983030879
30
0
0
SPLINE
5
10F
100
AcDbEntity
8
1
62
256
6
ByLayer
370
18
48
1
60
0
100
AcDbSpline
70
4
71
3
72
12
73
8
40
0
40
0
40
0
40
0
40
0.247536516767815
40
0.247536516767815
40
0.623768258383908
40
0.623768258383908
40
1
40
1
40
1
40
1
41
1
10
24.4299032254574
20
-1.27360461857796
30
0
41
1
10
24.4448551650065
20
-1.29003114493307
30
0
41
1
10
24.4597512228277
20
-1.3059525120911
30
0
41
1
10
24.4971441811887
20
-1.34480511859988
30
0
41
1
10
24.5195704226787
20
-1.36709451506297
30
0
41
1
10
24.5640018008169
20
-1.40882085058132
30
0
41
1
10
24.5860403200164
20
-1.42833166590861
30
0
41
1
10
24.6079737467001
20
-1.44672630525901
30
0
0
SPLINE
5
110
100
AcDbEntity
8
1
62
256
6
ByLayer
370
18
48
1
60
0
100
AcDbSpline
70
4
71
3
72
8
73
4
40
0
40
0
40
0
40
0
40
1
40
1
40
1
40
1
41
1
10
24.6879754471081
20
-1.39335546133699
30
0
41
1
10
24.6612957790211
20
-1.4116718305367
30
0
41
1
10
24.6345738290416
20
-1.42943526910057
30
0
41
1
10
24.6079737467001
20
-1.44672630525892
30
0
0
SPLINE
5
111
100
AcDbEntity
8
1
62
256
6
ByLayer
370
18
48
1
60
0
100
AcDbSpline
70
4
71
3
72
10
73
6
40
0
40
0
40
0
40
0
40
0.833549828537331
40
0.833549828537331
40
1
40
1
40
1
40
1
41
1
10
24.6879754471082
20
-1.39335546133756
30
0
41
1
10
24.7344112156472
20
-1.29708005077092
30
0
41
1
10
24.7813589870976
20
-1.20121120272898
30
0
41
1
10
24.8387449345769
20
-1.0870566874552
30
0
41
1
10
24.8483158798573
20
-1.06811662493269
30
0
41
1
10
24.8579097348841
20
-1.04923976119852
30
0
0
SPLINE
5
112
100
AcDbEntity
8
1
62
256
6
ByLayer
370
18
48
1
60
0
100
AcDbSpline
70
4
71
3
72
20
73
16
40
0
40
0
40
0
40
0
40
0.114390373826389
40
0.114390373826389
40
0.261991978188657
40
0.261991978188657
40
0.409593582550926
40
0.409593582550926
40
0.557195186913194
40
0.557195186913194
40
0.704796791275463
40
0.704796791275463
40
0.852398395637732
40
0.852398395637732
40
1
40
1
40
1
40
1
41
1
10
28.5429074999465
20
1.28286748578887
30
0
41
1
10
28.5469713911477
20
1.28334111392638
30
0
41
1
10
28.5510435977248
20
1.28398436153003
30
0
41
1
10
28.5603859834538
20
1.28586400948939
30
0
41
1
10
28.5656609599206
20
1.28722122403667
30
0
41
1
10
28.5762283559954
20
1.29061580692007
30
0
41
1
10
28.5814954596871
20
1.29264937896738
30
0
41
1
10
28.5917879280829
20
1.29738572287184
30
0
41
1
10
28.5968401287482
20
1.30009584443087
30
0
41
1
10
28.6067198800834
20
1.30629728374387
30
0
41
1
10
28.6115837762167
20
1.30981958322772
30
0
41
1
10
28.620830903746
20
1.31764145791161
30
0
41
1
10
28.6252085551142
20
1.32192561819727
30
0
41
1
10
28.6333978643372
20
1.33135871812081
30
0
41
1
10
28.6372338554719
20
1.33654851044835
30
0
41
1
10
28.6406415322671
20
1.34214926430198
30
0
0
SPLINE
5
113
100
AcDbEntity
8
1
62
256
6
ByLayer
370
18
48
1
60
0
100
AcDbSpline
70
4
71
3
72
14
73
10
40
0
40
0
40
0
40
0
40
0.25
40
0.25
40
0.5
40
0.5
40
0.75
40
0.75
40
1
40
1
40
1
40
1
41
1
10
28.6406415322671
20
1.34214926430198
30
0
41
1
10
28.6593677513845
20
1.37292710803169
30
0
41
1
10
28.6780051819305
20
1.4033902680813
30
0
41
1
10
28.715132607919
20
1.46366338394526
30
0
41
1
10
28.7336278872715
20
1.49348402038368
30
0
41
1
10
28.7704005267594
20
1.55229615182969
30
0
41
1
10
28.7887058712139
20
1.5813317602553
30
0
41
1
10
28.8250910492662
20
1.63849096880293
30
0
41
1
10
28.843157663273
20
1.66659446458317
30
0
41
1
10
28.8611204200808
20
1.69422505290279
30
0
0
SPLINE
5
114
100
AcDbEntity
8
1
62
256
6
ByLayer
370
18
48
1
60
0
100
AcDbSpline
70
4
71
3
72
10
73
6
40
0
40
0
40
0
40
0
40
0.5
40
0.5
40
1
40
1
40
1
40
1
41
1
10
28.8611204200811
20
1.69422505290302
30
0
41
1
10
28.8960281222758
20
1.68249986035974
30
0
41
1
10
28.9310440538507
20
1.66955450089131
30
0
41
1
10
29.0017502788797
20
1.64114426463831
30
0
41
1
10
29.0374698941317
20
1.62568097458049
30
0
41
1
10
29.073437775226
20
1.60898406502949
30
0
0
SPLINE
5
115
100
AcDbEntity
8
1
62
256
6
ByLayer
370
18
48
1
60
0
100
AcDbSpline
70
4
71
3
72
10
73
6
40
0
40
0
40
0
40
0
40
0.5
40
0.5
40
1
40
1
40
1
40
1
41
1
10
29.073437775226
20
1.60898406502946
30
0
41
1
10
29.10670388315
20
1.54825468330171
30
0
41
1
10
29.1404075592122
20
1.48607402578611
30
0
41
1
10
29.2083794207786
20
1.36002518223773
30
0
41
1
10
29.2426784524146
20
1.29609748287842
30
0
41
1
10
29.2774666502763
20
1.23130691089659
30
0
0
SPLINE
5
116
100
AcDbEntity
8
1
62
256
6
ByLayer
370
18
48
1
60
0
100
AcDbSpline
70
4
71
3
72
28
73
24
40
0
40
0
40
0
40
0
40
0.125
40
0.125
40
0.249999999999999
40
0.249999999999999
40
0.374999999999999
40
0.374999999999999
40
0.499999999999999
40
0.499999999999999
40
0.624999999999998
40
0.624999999999998
40
0.687499999999999
40
0.687499999999999
40
0.749999999999999
40
0.749999999999999
40
0.812499999999999
40
0.812499999999999
40
0.874999999999999
40
0.874999999999999
40
0.9375
40
0.9375
40
1
40
1
40
1
40
1
41
1
10
29.2774666502763
20
1.23130691089659
30
0
41
1
10
29.2837320608209
20
1.21963802438222
30
0
41
1
10
29.2909941542792
20
1.20905943698219
30
0
41
1
10
29.3070091117129
20
1.18951736842394
30
0
41
1
10
29.3158441613309
20
1.18052077009006
30
0
41
1
10
29.3341976179289
20
1.16456066242449
30
0
41
1
10
29.3437791902369
20
1.15751100829084
30
0
41
1
10
29.3636694696791
20
1.1451511570572
30
0
41
1
10
29.3740638620204
20
1.1398187767924
30
0
41
1
10
29.3948730308325
20
1.13130749524169
30
0
41
1
10
29.4053421090429
20
1.12807470794817
30
0
41
1
10
29.4211086237135
20
1.12492225035291
30
0
41
1
10
29.4263749227738
20
1.12415712549421
30
0
41
1
10
29.4369236286824
20
1.12327267952642
30
0
41
1
10
29.4421731900179
20
1.12315982419489
30
0
41
1
10
29.4524384173712
20
1.12365981663146
30
0
41
1
10
29.4574781550943
20
1.12426949710078
30
0
41
1
10
29.4673349595674
20
1.12630360792088
30
0
41
1
10
29.4721881895977
20
1.12774335786045
30
0
41
1
10
29.4814135408113
20
1.13152689337198
30
0
41
1
10
29.4857824374139
20
1.13385916627519
30
0
41
1
10
29.493958234775
20
1.13954880611647
30
0
41
1
10
29.4977893732565
20
1.14293467539758
30
0
41
1
10
29.5011948776856
20
1.14687301929908
30
0
0
SPLINE
5
117
100
AcDbEntity
8
1
62
256
6
ByLayer
370
18
48
1
60
0
100
AcDbSpline
70
4
71
3
72
10
73
6
40
0
40
0
40
0
40
0
40
0.5
40
0.5
40
1
40
1
40
1
40
1
41
1
10
29.5011948776856
20
1.14687301929911
30
0
41
1
10
29.5214881652701
20
1.17034147957122
30
0
41
1
10
29.5416768891521
20
1.19288903443797
30
0
41
1
10
29.5818884598125
20
1.23612682769632
30
0
41
1
10
29.6019072680727
20
1.25682122614839
30
0
41
1
10
29.6218072134783
20
1.27654681906671
30
0
0
SPLINE
5
118
100
AcDbEntity
8
1
62
256
6
ByLayer
370
18
48
1
60
0
100
AcDbSpline
70
4
71
3
72
14
73
10
40
0
40
0
40
0
40
0
40
0.249999999999995
40
0.249999999999995
40
0.375000000000004
40
0.375000000000004
40
0.500000000000012
40
0.500000000000012
40
1
40
1
40
1
40
1
41
1
10
29.6218072134784
20
1.27654681906668
30
0
41
1
10
29.6585756510506
20
1.24980166053831
30
0
41
1
10
29.6955545291668
20
1.22217549330225
30
0
41
1
10
29.7513861358372
20
1.17944995216075
30
0
41
1
10
29.7700570980059
20
1.16499339326276
30
0
41
1
10
29.8075255053423
20
1.13565216090396
30
0
41
1
10
29.8263503125442
20
1.12074475281071
30
0
41
1
10
29.9204247348727
20
1.04544242548383
30
0
41
1
10
29.9953999709641
20
0.982893951749162
30
0
41
1
10
30.0707933895779
20
0.918633749162865
30
0
0
SPLINE
5
119
100
AcDbEntity
8
1
62
256
6
ByLayer
370
18
48
1
60
0
100
AcDbSpline
70
4
71
3
72
8
73
4
40
0
40
0
40
0
40
0
40
1
40
1
40
1
40
1
41
1
10
30.0707933895779
20
0.918633749162893
30
0
41
1
10
30.0930408923184
20
0.876515147070251
30
0
41
1
10
30.1154484250791
20
0.834817853716885
30
0
41
1
10
30.1380710205996
20
0.793579148461021
30
0
0
SPLINE
5
11A
100
AcDbEntity
8
1
62
256
6
ByLayer
370
18
48
1
60
0
100
AcDbSpline
70
4
71
3
72
28
73
24
40
0
40
0
40
0
40
0
40
0.125
40
0.125
40
0.25
40
0.25
40
0.375
40
0.375
40
0.4375
40
0.4375
40
0.5
40
0.5
40
0.625
40
0.625
40
0.75
40
0.75
40
0.8125
40
0.8125
40
0.875
40
0.875
40
0.9375
40
0.9375
40
1
40
1
40
1
40
1
41
1
10
29.0176741657666
20
-1.32973347172728
30
0
41
1
10
29.0116121832764
20
-1.31951778727193
30
0
41
1
10
29.004618651914
20
-1.31043837508216
30
0
41
1
10
28.9891815547075
20
-1.29400374798775
30
0
41
1
10
28.9806693539369
20
-1.28663265799233
30
0
41
1
10
28.9628646989668
20
-1.27389585794668
30
0
41
1
10
28.9535206303399
20
-1.2684645499325
30
0
41
1
10
28.9388881824823
20
-1.26168795446131
30
0
41
1
10
28.9339070872404
20
-1.25965983877384
30
0
41
1
10
28.923734756334
20
-1.25608841557437
30
0
41
1
10
28.9185462255722
20
-1.25454918196053
30
0
41
1
10
28.9029336678642
20
-1.25077544960774
30
0
41
1
10
28.892377442128
20
-1.24933721447084
30
0
41
1
10
28.8709992545529
20
-1.24897168552815
30
0
41
1
10
28.860089202135
20
-1.25007801908546
30
0
41
1
10
28.8442774260041
20
-1.25411681879379
30
0
41
1
10
28.8390755997233
20
-1.25585873535832
30
0
41
1
10
28.8288428315534
20
-1.2602792762479
30
0
41
1
10
28.8238114390567
20
-1.26296918933528
30
0
41
1
10
28.8142912128853
20
-1.26928256370258
30
0
41
1
10
28.8097613438374
20
-1.27291868575748
30
0
41
1
10
28.80125659178
20
-1.28134491121096
30
0
41
1
10
28.7973401228864
20
-1.28608877670925
30
0
41
1
10
28.7938877520712
20
-1.29135142147726
30
0
0
SPLINE
5
11B
100
AcDbEntity
8
1
62
256
6
ByLayer
370
18
48
1
60
0
100
AcDbSpline
70
4
71
3
72
10
73
6
40
0
40
0
40
0
40
0
40
0.5
40
0.5
40
1
40
1
40
1
40
1
41
1
10
28.7938877520712
20
-1.29135142147723
30
0
41
1
10
28.7482315289919
20
-1.36094779347044
30
0
41
1
10
28.7030413245942
20
-1.42717827154672
30
0
41
1
10
28.6131883749943
20
-1.55334569370157
30
0
41
1
10
28.5689598087164
20
-1.61266795946958
30
0
41
1
10
28.5251495664602
20
-1.66837214593372
30
0
0
SPLINE
5
11C
100
AcDbEntity
8
1
62
256
6
ByLayer
370
18
48
1
60
0
100
AcDbSpline
70
4
71
3
72
8
73
4
40
0
40
0
40
0
40
0
40
1
40
1
40
1
40
1
41
1
10
28.4451101815325
20
-1.63483075133181
30
0
41
1
10
28.471780828441
20
-1.64667367462479
30
0
41
1
10
28.4984547396771
20
-1.65785677320861
30
0
41
1
10
28.5251495664602
20
-1.66837214593369
30
0
0
SPLINE
5
11D
100
AcDbEntity
8
1
62
256
6
ByLayer
370
18
48
1
60
0
100
AcDbSpline
70
4
71
3
72
10
73
6
40
0
40
0
40
0
40
0
40
0.5
40
0.5
40
1
40
1
40
1
40
1
41
1
10
28.4451101815342
20
-1.6348307513185
30
0
41
1
10
28.3982958784666
20
-1.54060040356322
30
0
41
1
10
28.3510351621969
20
-1.44467237376909
30
0
41
1
10
28.2548306133472
20
-1.249855925438
30
0
41
1
10
28.2063136521417
20
-1.15180379555528
30
0
41
1
10
28.1569652405861
20
-1.05329136119738
30
0
0
SPLINE
5
11E
100
AcDbEntity
8
1
62
256
6
ByLayer
370
18
48
1
60
0
100
AcDbSpline
70
4
71
3
72
28
73
24
40
0
40
0
40
0
40
0
40
0.125000000000025
40
0.125000000000025
40
0.25000000000005
40
0.25000000000005
40
0.375000000000075
40
0.375000000000075
40
0.437500000000087
40
0.437500000000087
40
0.5000000000001
40
0.5000000000001
40
0.625000000000075
40
0.625000000000075
40
0.75000000000005
40
0.75000000000005
40
0.812500000000038
40
0.812500000000038
40
0.875000000000025
40
0.875000000000025
40
0.937500000000013
40
0.937500000000013
40
1
40
1
40
1
40
1
41
1
10
28.156965240586
20
-1.05329136119724
30
0
41
1
10
28.150897248015
20
-1.04117804891445
30
0
41
1
10
28.1438959091617
20
-1.02982690716652
30
0
41
1
10
28.1284437897571
20
-1.00829818048067
30
0
41
1
10
28.1199242908868
20
-0.998080069111865
30
0
41
1
10
28.1021109449761
20
-0.979321035843981
30
0
41
1
10
28.0927651289563
20
-0.970696987768036
30
0
41
1
10
28.0781346960543
20
-0.958845486342653
30
0
41
1
10
28.0731550255711
20
-0.955077526625786
30
0
41
1
10
28.0629870153957
20
-0.947920359739044
30
0
41
1
10
28.0578017562596
20
-0.944536210153188
30
0
41
1
10
28.0421998500906
20
-0.935148266289247
30
0
41
1
10
28.0316522397223
20
-0.929833568450789
30
0
41
1
10
28.0102913785921
20
-0.921354113327112
30
0
41
1
10
27.9993887423135
20
-0.918185275518113
30
0
41
1
10
27.9835830945894
20
-0.915715023157077
30
0
41
1
10
27.9783828032306
20
-0.915262417099683
30
0
41
1
10
27.9681521067445
20
-0.915230000963703
30
0
41
1
10
27.9631205442573
20
-0.915659725573278
30
0
41
1
10
27.9535991683911
20
-0.91752359569665
30
0
41
1
10
27.9490683487603
20
-0.918953166498341
30
0
41
1
10
27.9405614159834
20
-0.923008789495981
30
0
41
1
10
27.9366430207963
20
-0.925617302788879
30
0
41
1
10
27.9331891827557
20
-0.928846489999756
30
0
0
SPLINE
5
11F
100
AcDbEntity
8
1
62
256
6
ByLayer
370
18
48
1
60
0
100
AcDbSpline
70
4
71
3
72
10
73
6
40
0
40
0
40
0
40
0
40
0.5
40
0.5
40
1
40
1
40
1
40
1
41
1
10
27.9331891827557
20
-0.928846489999728
30
0
41
1
10
27.887530143636
20
-0.971535690667679
30
0
41
1
10
27.84233361449
20
-1.00838688977413
30
0
41
1
10
27.7524864845216
20
-1.07088215565022
30
0
41
1
10
27.7082771514898
20
-1.09627391961598
30
0
41
1
10
27.6644888106754
20
-1.11622149404079
30
0
0
SPLINE
5
120
100
AcDbEntity
8
1
62
256
6
ByLayer
370
18
48
1
60
0
100
AcDbSpline
70
4
71
3
72
10
73
6
40
0
40
0
40
0
40
0
40
0.5
40
0.5
40
1
40
1
40
1
40
1
41
1
10
27.5843261096161
20
-1.04602354385301
30
0
41
1
10
27.5374704991855
20
-0.948223634799149
30
0
41
1
10
27.4902027116502
20
-0.852434990220729
30
0
41
1
10
27.3940581442452
20
-0.665597983442382
30
0
41
1
10
27.3455923279569
20
-0.575340985971025
30
0
41
1
10
27.2962512558746
20
-0.488600699155455
30
0
0
SPLINE
5
121
100
AcDbEntity
8
1
62
256
6
ByLayer
370
18
48
1
60
0
100
AcDbSpline
70
4
71
3
72
28
73
24
40
0
40
0
40
0
40
0
40
0.125000000000008
40
0.125000000000008
40
0.250000000000016
40
0.250000000000016
40
0.375000000000024
40
0.375000000000024
40
0.437500000000052
40
0.437500000000052
40
0.50000000000008
40
0.50000000000008
40
0.625000000000085
40
0.625000000000085
40
0.75000000000009
40
0.75000000000009
40
0.812500000000067
40
0.812500000000067
40
0.875000000000045
40
0.875000000000045
40
0.937500000000022
40
0.937500000000022
40
1
40
1
40
1
40
1
41
1
10
27.2962512558746
20
-0.48860069915537
30
0
41
1
10
27.2901854311917
20
-0.477937141381773
30
0
41
1
10
27.2831849194365
20
-0.467447710479206
30
0
41
1
10
27.2677297260965
20
-0.44676438895587
30
0
41
1
10
27.259205776944
20
-0.436515765407194
30
0
41
1
10
27.2413800483251
20
-0.416903282586247
30
0
41
1
10
27.2320265956502
20
-0.40746202899075
30
0
41
1
10
27.2173839961466
20
-0.393800749094936
30
0
41
1
10
27.2124001445234
20
-0.389331140223675
30
0
41
1
10
27.2022238044616
20
-0.380560674018625
30
0
41
1
10
27.1970358476125
20
-0.376265579028455
30
0
41
1
10
27.1814272140493
20
-0.363855731897644
30
0
41
1
10
27.170877076303
20
-0.356134287935618
30
0
41
1
10
27.1495177696984
20
-0.341887253026727
30
0
41
1
10
27.1386206052746
20
-0.335321745586498
30
0
41
1
10
27.1228294057462
20
-0.32702335733785
30
0
41
1
10
27.1176347710561
20
-0.324499719043843
30
0
41
1
10
27.1074168383762
20
-0.320017255252196
30
0
41
1
10
27.1023917190875
20
-0.318062898482651
30
0
41
1
10
27.0928828843645
20
-0.314948291568271
30
0
41
1
10
27.0883583343043
20
-0.313767542037539
30
0
41
1
10
27.0798631269173
20
-0.312311225589724
30
0
41
1
10
27.0759473500086
20
-0.312050745338212
30
0
41
1
10
27.0724957974688
20
-0.31234143363227
30
0
0
SPLINE
5
122
100
AcDbEntity
8
1
62
256
6
ByLayer
370
18
48
1
60
0
100
AcDbSpline
70
4
71
3
72
10
73
6
40
0
40
0
40
0
40
0
40
0.5
40
0.5
40
1
40
1
40
1
40
1
41
1
10
27.0724957974688
20
-0.312341433632298
30
0
41
1
10
27.026819961223
20
-0.316188233229156
30
0
41
1
10
26.9816139770591
20
-0.313161845830223
30
0
41
1
10
26.8917361211319
20
-0.294549629242709
30
0
41
1
10
26.8474974271635
20
-0.279057094129115
30
0
41
1
10
26.8036831747659
20
-0.257754158954498
30
0
0
SPLINE
5
123
100
AcDbEntity
8
1
62
256
6
ByLayer
370
18
48
1
60
0
100
AcDbSpline
70
4
71
3
72
8
73
4
40
0
40
0
40
0
40
0
40
1
40
1
40
1
40
1
41
1
10
26.7238020773996
20
-0.170522548191172
30
0
41
1
10
26.7504199576432
20
-0.199670734747855
30
0
41
1
10
26.7770410596166
20
-0.228753398562048
30
0
41
1
10
26.8036831747659
20
-0.257754158954498
30
0
0
SPLINE
5
124
100
AcDbEntity
8
1
62
256
6
ByLayer
370
18
48
1
60
0
100
AcDbSpline
70
4
71
3
72
10
73
6
40
0
40
0
40
0
40
0
40
0.5
40
0.5
40
1
40
1
40
1
40
1
41
1
10
26.7238020774009
20
-0.170522548189069
30
0
41
1
10
26.676979408774
20
-0.0959674885484958
30
0
41
1
10
26.6296754109047
20
-0.0266269632066667
30
0
41
1
10
26.5334209702715
20
0.10097299946267
30
0
41
1
10
26.4848768079902
20
0.15870425819935
30
0
41
1
10
26.4355385997807
20
0.210019223210395
30
0
0
SPLINE
5
125
100
AcDbEntity
8
1
62
256
6
ByLayer
370
18
48
1
60
0
100
AcDbSpline
70
4
71
3
72
28
73
24
40
0
40
0
40
0
40
0
40
0.125000000000012
40
0.125000000000012
40
0.250000000000025
40
0.250000000000025
40
0.375000000000037
40
0.375000000000037
40
0.437500000000043
40
0.437500000000043
40
0.50000000000005
40
0.50000000000005
40
0.625000000000063
40
0.625000000000063
40
0.750000000000076
40
0.750000000000076
40
0.812500000000057
40
0.812500000000057
40
0.875000000000038
40
0.875000000000038
40
0.937500000000019
40
0.937500000000019
40
1
40
1
40
1
40
1
41
1
10
26.4355385997807
20
0.210019223210423
30
0
41
1
10
26.4294677798955
20
0.216333273138531
30
0
41
1
10
26.4224637436243
20
0.223112632169887
30
0
41
1
10
26.4070088067467
20
0.237339228457472
30
0
41
1
10
26.3984892335253
20
0.244839811579254
30
0
41
1
10
26.3806770123329
20
0.259992332423565
30
0
41
1
10
26.3713324896638
20
0.267694718838584
30
0
41
1
10
26.3567043102368
20
0.279465893454159
30
0
41
1
10
26.3517254441427
20
0.283426444389619
30
0
41
1
10
26.341559036176
20
0.29143343287339
30
0
41
1
10
26.3363732548097
20
0.295478089850633
30
0
41
1
10
26.320769402521
20
0.307552113472411
30
0
41
1
10
26.3102197612661
20
0.315588833132864
30
0
41
1
10
26.288853743593
20
0.3317324666275
30
0
41
1
10
26.2779467209136
20
0.339905470701325
30
0
41
1
10
26.2621365030262
20
0.351756797261487
30
0
41
1
10
26.2569351947815
20
0.355656822041652
30
0
41
1
10
26.2467040791806
20
0.363349451809739
30
0
41
1
10
26.241671897616
20
0.367144246326944
30
0
41
1
10
26.2321509823478
20
0.374362815305972
30
0
41
1
10
26.2276212520865
20
0.377817453340043
30
0
41
1
10
26.2191174799016
20
0.38435583699831
30
0
41
1
10
26.2151983947566
20
0.387397881682688
30
0
41
1
10
26.2117446191194
20
0.390108357351835
30
0
0
SPLINE
5
126
100
AcDbEntity
8
1
62
256
6
ByLayer
370
18
48
1
60
0
100
AcDbSpline
70
4
71
3
72
10
73
6
40
0
40
0
40
0
40
0
40
0.5
40
0.5
40
1
40
1
40
1
40
1
41
1
10
26.2117446191194
20
0.390108357351892
30
0
41
1
10
26.1660453145213
20
0.425972543744763
30
0
41
1
10
26.1208146693993
20
0.467826911433207
30
0
41
1
10
26.0308902157551
20
0.562449879495347
30
0
41
1
10
25.9866365032039
20
0.61472940494383
30
0
41
1
10
25.9428040730081
20
0.671508700390717
30
0
0
SPLINE
5
127
100
AcDbEntity
8
1
62
256
6
ByLayer
370
18
48
1
60
0
100
AcDbSpline
70
4
71
3
72
8
73
4
40
0
40
0
40
0
40
0
40
1
40
1
40
1
40
1
41
1
10
25.863002511455
20
0.752020256866359
30
0
41
1
10
25.8895941143499
20
0.725483610996776
30
0
41
1
10
25.9161889228153
20
0.698641887643646
30
0
41
1
10
25.9428040730081
20
0.671508700390717
30
0
0
SPLINE
5
128
100
AcDbEntity
8
1
62
256
6
ByLayer
370
18
48
1
60
0
100
AcDbSpline
70
4
71
3
72
10
73
6
40
0
40
0
40
0
40
0
40
0.5
40
0.5
40
1
40
1
40
1
40
1
41
1
10
25.8630025114564
20
0.752020256862181
30
0
41
1
10
25.8161875540911
20
0.782868521642513
30
0
41
1
10
25.7689349458123
20
0.806842111963135
30
0
41
1
10
25.6727497034276
20
0.840244556475028
30
0
41
1
10
25.6242131039626
20
0.849483122270556
30
0
41
1
10
25.5748402330151
20
0.851151344308875
30
0
0
SPLINE
5
129
100
AcDbEntity
8
1
62
256
6
ByLayer
370
18
48
1
60
0
100
AcDbSpline
70
4
71
3
72
28
73
24
40
0
40
0
40
0
40
0
40
0.12499999999997
40
0.12499999999997
40
0.249999999999941
40
0.249999999999941
40
0.374999999999911
40
0.374999999999911
40
0.43749999999992
40
0.43749999999992
40
0.499999999999929
40
0.499999999999929
40
0.624999999999946
40
0.624999999999946
40
0.749999999999964
40
0.749999999999964
40
0.812499999999973
40
0.812499999999973
40
0.874999999999982
40
0.874999999999982
40
0.937499999999991
40
0.937499999999991
40
1
40
1
40
1
40
1
41
1
10
25.574840233015
20
0.851151344308875
30
0
41
1
10
25.5687621916449
20
0.851356710583303
30
0
41
1
10
25.5617477588215
20
0.85254106246731
30
0
41
1
10
25.5462666554541
20
0.856364050694879
30
0
41
1
10
25.5377307770181
20
0.859040818415991
30
0
41
1
10
25.5198872335162
20
0.86554797446118
30
0
41
1
10
25.5105272252803
20
0.869388098119032
30
0
41
1
10
25.495878016711
20
0.876032874580545
30
0
41
1
10
25.4908925147362
20
0.878396912519122
30
0
41
1
10
25.4807139954091
20
0.883445230801726
30
0
41
1
10
25.475525580073
20
0.886128455608429
30
0
41
1
10
25.4599165827851
20
0.89455494335985
30
0
41
1
10
25.4493677151199
20
0.900708336529647
30
0
41
1
10
25.4280137259745
20
0.914345365158169
30
0
41
1
10
25.4171192757301
20
0.921902443248854
30
0
41
1
10
25.4013319387648
20
0.934089322465155
30
0
41
1
10
25.3961388663079
20
0.938307962201691
30
0
41
1
10
25.3859248505223
20
0.947124241393141
30
0
41
1
10
25.3809003142965
20
0.951730972734538
30
0
41
1
10
25.3713930367141
20
0.961097025144682
30
0
41
1
10
25.366869581157
20
0.965888848007239
30
0
41
1
10
25.3583769904475
20
0.975734997386184
30
0
41
1
10
25.3544591924115
20
0.980736721120905
30
0
41
1
10
25.3510066879541
20
0.98571515179259
30
0
0
SPLINE
5
12A
100
AcDbEntity
8
1
62
256
6
ByLayer
370
18
48
1
60
0
100
AcDbSpline
70
4
71
3
72
10
73
6
40
0
40
0
40
0
40
0
40
0.5
40
0.5
40
1
40
1
40
1
40
1
41
1
10
25.3510066879541
20
0.985715151792562
30
0
41
1
10
25.30534376079
20
1.0515600246824
30
0
41
1
10
25.260153958845
20
1.12077178547298
30
0
41
1
10
25.1703051153837
20
1.26519261780339
30
0
41
1
10
25.1260844836263
20
1.33969570116491
30
0
41
1
10
25.0822851758814
20
1.4162403186246
30
0
0
SPLINE
5
12B
100
AcDbEntity
8
1
62
256
6
ByLayer
370
18
48
1
60
0
100
AcDbSpline
70
4
71
3
72
10
73
6
40
0
40
0
40
0
40
0
40
0.5
40
0.5
40
1
40
1
40
1
40
1
41
1
10
25.0025264163063
20
1.46801852564926
30
0
41
1
10
24.955623894621
20
1.44681894950747
30
0
41
1
10
24.9082390629283
20
1.41891514607337
30
0
41
1
10
24.811895950112
20
1.34927340633254
30
0
41
1
10
24.7633569022055
20
1.30783730997513
30
0
41
1
10
24.7140645179746
20
1.25952399895735
30
0
0
SPLINE
5
12C
100
AcDbEntity
8
1
62
256
6
ByLayer
370
18
48
1
60
0
100
AcDbSpline
70
4
71
3
72
28
73
24
40
0
40
0
40
0
40
0
40
0.124999999999971
40
0.124999999999971
40
0.249999999999941
40
0.249999999999941
40
0.374999999999912
40
0.374999999999912
40
0.437499999999921
40
0.437499999999921
40
0.49999999999993
40
0.49999999999993
40
0.624999999999947
40
0.624999999999947
40
0.749999999999965
40
0.749999999999965
40
0.812499999999974
40
0.812499999999974
40
0.874999999999982
40
0.874999999999982
40
0.937499999999991
40
0.937499999999991
40
1
40
1
40
1
40
1
41
1
10
24.7140645179746
20
1.25952399895729
30
0
41
1
10
24.707999668535
20
1.25357961298727
30
0
41
1
10
24.7010024734604
20
1.24885010399905
30
0
41
1
10
24.6855595739406
20
1.24121177486683
30
0
41
1
10
24.6770451325672
20
1.23831445505761
30
0
41
1
10
24.6592372794194
20
1.23434020303745
30
0
41
1
10
24.6498918180674
20
1.2332293969333
30
0
41
1
10
24.6352572945258
20
1.2328618105449
30
0
41
1
10
24.6302755736899
20
1.23295811194987
30
0
41
1
10
24.620102548836
20
1.23361499332265
30
0
41
1
10
24.6149141058857
20
1.23417793664461
30
0
41
1
10
24.5993036183839
20
1.23657612492042
30
0
41
1
10
24.5887512370543
20
1.23911086441217
30
0
41
1
10
24.5673849172773
20
1.24640642833881
30
0
41
1
10
24.5564824281233
20
1.25122750657536
30
0
41
1
10
24.5406832141838
20
1.26034142791818
30
0
41
1
10
24.5354859144634
20
1.26370064211886
30
0
41
1
10
24.525262929315
20
1.27118414046572
30
0
41
1
10
24.5202352229958
20
1.27531983185457
30
0
41
1
10
24.5107224229518
20
1.2842288471538
30
0
41
1
10
24.5061963836135
20
1.28902763933277
30
0
41
1
10
24.4976990764138
20
1.29945341368233
30
0
41
1
10
24.4937820373811
20
1.30502481194844
30
0
41
1
10
24.4903295218784
20
1.31089084966635
30
0
0
SPLINE
5
12D
100
AcDbEntity
8
1
62
256
6
ByLayer
370
18
48
1
60
0
100
AcDbSpline
70
4
71
3
72
10
73
6
40
0
40
0
40
0
40
0
40
0.5
40
0.5
40
1
40
1
40
1
40
1
41
1
10
24.4903295218784
20
1.31089084966635
30
0
41
1
10
24.4445836615178
20
1.38861590031627
30
0
41
1
10
24.3993170999079
20
1.46622242510878
30
0
41
1
10
24.3093275862722
20
1.62099728804958
30
0
41
1
10
24.2650405681034
20
1.69740584798288
30
0
41
1
10
24.2211849616393
20
1.77277491389293
30
0
0
SPLINE
5
12E
100
AcDbEntity
8
1
62
256
6
ByLayer
370
18
48
1
60
0
100
AcDbSpline
70
4
71
3
72
10
73
6
40
0
40
0
40
0
40
0
40
0.5
40
0.5
40
1
40
1
40
1
40
1
41
1
10
24.1417661920454
20
1.78159496147916
30
0
41
1
10
24.0949241291228
20
1.71412798659461
30
0
41
1
10
24.0476021126587
20
1.64196914684314
30
0
41
1
10
23.95129115217
20
1.48819644451612
30
0
41
1
10
23.9027254812223
20
1.40727140164125
30
0
41
1
10
23.8533913168591
20
1.32233950896264
30
0
0
SPLINE
5
12F
100
AcDbEntity
8
1
62
256
6
ByLayer
370
18
48
1
60
0
100
AcDbSpline
70
4
71
3
72
28
73
24
40
0
40
0
40
0
40
0
40
0.125000000000037
40
0.125000000000037
40
0.250000000000075
40
0.250000000000075
40
0.375000000000113
40
0.375000000000113
40
0.437500000000131
40
0.437500000000131
40
0.50000000000015
40
0.50000000000015
40
0.625000000000138
40
0.625000000000138
40
0.750000000000126
40
0.750000000000126
40
0.812500000000094
40
0.812500000000094
40
0.875000000000063
40
0.875000000000063
40
0.937500000000032
40
0.937500000000032
40
1
40
1
40
1
40
1
41
1
10
23.8533913168591
20
1.32233950896253
30
0
41
1
10
23.847311497005
20
1.31187271350728
30
0
41
1
10
23.8402958982543
20
1.30253928822555
30
0
41
1
10
23.8248171071709
20
1.28558546792323
30
0
41
1
10
23.8162851123335
20
1.27794781534209
30
0
41
1
10
23.798453469826
20
1.26467745421996
30
0
41
1
10
23.7891014746766
20
1.25897662348882
30
0
41
1
10
23.7744666175409
20
1.25178397909491
30
0
41
1
10
23.7694862647251
20
1.24961527566686
30
0
41
1
10
23.7593185359589
20
1.2457577496931
30
0
41
1
10
23.75413301015
20
1.24407276234842
30
0
41
1
10
23.7385320300247
20
1.23986036504425
30
0
41
1
10
23.7279872494083
20
1.23812551655354
30
0
41
1
10
23.7066379224139
20
1.23715306513438
30
0
41
1
10
23.695741515803
20
1.23794635385309
30
0
41
1
10
23.6799469726292
20
1.24152428869112
30
0
41
1
10
23.6747512150675
20
1.24311320200096
30
0
41
1
10
23.6645315514654
20
1.24722788650789
30
0
41
1
10
23.6595030337243
20
1.2497667555391
30
0
41
1
10
23.6499886314
20
1.25578958285453
30
0
41
1
10
23.6454619379628
20
1.25928465557104
30
0
41
1
10
23.6369636541419
20
1.26743716293746
30
0
41
1
10
23.6330430556488
20
1.27205842513254
30
0
41
1
10
23.6295885334221
20
1.2772083268521
30
0
0
SPLINE
5
130
100
AcDbEntity
8
1
62
256
6
ByLayer
370
18
48
1
60
0
100
AcDbSpline
70
4
71
3
72
10
73
6
40
0
40
0
40
0
40
0
40
0.5
40
0.5
40
1
40
1
40
1
40
1
41
1
10
23.6295885334221
20
1.27720832685213
30
0
41
1
10
23.5838706316734
20
1.34536325114598
30
0
41
1
10
23.5386265365144
20
1.40995049183772
30
0
41
1
10
23.4486817691682
20
1.53233542101597
30
0
41
1
10
23.4044278672584
20
1.58948839874756
30
0
41
1
10
23.3605968741909
20
1.64280748075188
30
0
0
SPLINE
5
131
100
AcDbEntity
8
1
62
256
6
ByLayer
370
18
48
1
60
0
100
AcDbSpline
70
4
71
3
72
8
73
4
40
0
40
0
40
0
40
0
40
1
40
1
40
1
40
1
41
1
10
22.97
20
1.42814436927779
30
0
41
1
10
23.101310905949
20
1.51496534589404
30
0
41
1
10
23.2308261763556
20
1.58664947655112
30
0
41
1
10
23.3605968741909
20
1.64280748075188
30
0
0
SPLINE
5
132
100
AcDbEntity
8
1
62
256
6
ByLayer
370
18
48
1
60
0
100
AcDbSpline
70
4
71
3
72
8
73
4
40
0
40
0
40
0
40
0
40
1
40
1
40
1
40
1
41
1
10
22.97
20
1.42814436927779
30
0
41
1
10
22.97
20
1.42185254764797
30
0
41
1
10
22.97
20
1.41556061474574
30
0
41
1
10
22.97
20
1.40926857060506
30
0
0
SPLINE
5
133
100
AcDbEntity
8
1
62
256
6
ByLayer
370
18
48
1
60
0
100
AcDbSpline
70
4
71
3
72
14
73
10
40
0
40
0
40
0
40
0
40
0.166439152715548
40
0.166439152715548
40
0.540787542050679
40
0.540787542050679
40
0.915135931385811
40
0.915135931385811
40
1
40
1
40
1
40
1
41
1
10
17.3191062029924
20
-0.801313410608344
30
0
41
1
10
17.3074416188304
20
-0.815365552243946
30
0
41
1
10
17.2961512576694
20
-0.829986349128035
30
0
41
1
10
17.2606152584484
20
-0.879236424987596
30
0
41
1
10
17.242713683365
20
-0.920570170461644
30
0
41
1
10
17.2215983659317
20
-1.01589132757189
30
0
41
1
10
17.2181595597113
20
-1.06745342645229
30
0
41
1
10
17.2210288192948
20
-1.13261426959656
30
0
41
1
10
17.2219032983304
20
-1.1446925126387
30
0
41
1
10
17.2230193623486
20
-1.15679622538008
30
0
0
SPLINE
5
134
100
AcDbEntity
8
1
62
256
6
ByLayer
370
18
48
1
60
0
100
AcDbSpline
70
4
71
3
72
28
73
24
40
0
40
0
40
0
40
0
40
0.125
40
0.125
40
0.25
40
0.25
40
0.375
40
0.375
40
0.5
40
0.5
40
0.625
40
0.625
40
0.6875
40
0.6875
40
0.75
40
0.75
40
0.8125
40
0.8125
40
0.875
40
0.875
40
0.9375
40
0.9375
40
1
40
1
40
1
40
1
41
1
10
24.6878000433114
20
-0.278339466393476
30
0
41
1
10
24.6940260541077
20
-0.283450286985158
30
0
41
1
10
24.7012351153682
20
-0.289210615609306
30
0
41
1
10
24.7171383142598
20
-0.301666212117368
30
0
41
1
10
24.7259122046133
20
-0.308426564634885
30
0
41
1
10
24.7441615407688
20
-0.322350788771075
30
0
41
1
10
24.7536953218575
20
-0.329560159608946
30
0
41
1
10
24.773509870855
20
-0.344480266928059
30
0
41
1
10
24.7838816154558
20
-0.352260187727012
30
0
41
1
10
24.8046875079812
20
-0.367931185195687
30
0
41
1
10
24.8151680862102
20
-0.375857238398197
30
0
41
1
10
24.8309684956699
20
-0.387964961204801
30
0
41
1
10
24.8362487288988
20
-0.39203759596478
30
0
41
1
10
24.8468309159507
20
-0.400277894857112
30
0
41
1
10
24.8521207859423
20
-0.404436690946909
30
0
41
1
10
24.8624524990181
20
-0.412668175539352
30
0
41
1
10
24.8675244683059
20
-0.416764792397316
30
0
41
1
10
24.8774453634473
20
-0.424925312961022
30
0
41
1
10
24.8823310853385
20
-0.429020877284273
30
0
41
1
10
24.8916217514931
20
-0.43699983297202
30
0
41
1
10
24.8960197387452
20
-0.440875276698165
30
0
41
1
10
24.9042448749232
20
-0.448357011910929
30
0
41
1
10
24.9080962566796
20
-0.451988322947528
30
0
41
1
10
24.9115099227611
20
-0.455364796676008
30
0
0
SPLINE
5
135
100
AcDbEntity
8
1
62
256
6
ByLayer
370
18
48
1
60
0
100
AcDbSpline
70
4
71
3
72
12
73
8
40
0
40
0
40
0
40
0
40
0.500000000000009
40
0.500000000000009
40
0.750000000000005
40
0.750000000000005
40
1
40
1
40
1
40
1
41
1
10
24.9115099227611
20
-0.455364796675923
30
0
41
1
10
24.9576079413043
20
-0.500960571081265
30
0
41
1
10
25.0032691491044
20
-0.551971418316043
30
0
41
1
10
25.0709266061245
20
-0.635618238504378
30
0
41
1
10
25.0933386349467
20
-0.664696392804615
30
0
41
1
10
25.1377971921029
20
-0.724860723522653
30
0
41
1
10
25.1598695510685
20
-0.755968546137041
30
0
41
1
10
25.181826595331
20
-0.788034010930375
30
0
0
SPLINE
5
136
100
AcDbEntity
8
1
62
256
6
ByLayer
370
18
48
1
60
0
100
AcDbSpline
70
4
71
3
72
10
73
6
40
0
40
0
40
0
40
0
40
0.5
40
0.5
40
1
40
1
40
1
40
1
41
1
10
25.2618911246495
20
-0.866015425234593
30
0
41
1
10
25.3082989112223
20
-0.886127527320184
30
0
41
1
10
25.3552394407963
20
-0.899304800282636
30
0
41
1
10
25.450886901366
20
-0.911454916336254
30
0
41
1
10
25.4991785004247
20
-0.910411003454982
30
0
41
1
10
25.5484202233104
20
-0.902005974849601
30
0
0
SPLINE
5
137
100
AcDbEntity
8
1
62
256
6
ByLayer
370
18
48
1
60
0
100
AcDbSpline
70
4
71
3
72
28
73
24
40
0
40
0
40
0
40
0
40
0.125
40
0.125
40
0.25
40
0.25
40
0.375
40
0.375
40
0.5
40
0.5
40
0.625
40
0.625
40
0.6875
40
0.6875
40
0.75
40
0.75
40
0.8125
40
0.8125
40
0.875
40
0.875
40
0.9375
40
0.9375
40
1
40
1
40
1
40
1
41
1
10
25.5484202233105
20
-0.9020059748498
30
0
41
1
10
25.5546534264371
20
-0.900942034607397
30
0
41
1
10
25.5618712774539
20
-0.901063181982522
30
0
41
1
10
25.5777914453194
20
-0.903038681398272
30
0
41
1
10
25.5865731716112
20
-0.904939809351845
30
0
41
1
10
25.6048342604822
20
-0.910171230176246
30
0
41
1
10
25.6143734348804
20
-0.913501151866626
30
0
41
1
10
25.6341951118232
20
-0.921541670936676
30
0
41
1
10
25.6445671496438
20
-0.92630601728743
30
0
41
1
10
25.6653667507079
20
-0.937060159975033
30
0
41
1
10
25.6758416889804
20
-0.943058326845744
30
0
41
1
10
25.6916313413082
20
-0.953152384939926
30
0
41
1
10
25.6969075883482
20
-0.956701585637433
30
0
41
1
10
25.7074811842166
20
-0.96422890831235
30
0
41
1
10
25.7127649499959
20
-0.96820038984643
30
0
41
1
10
25.7230863529455
20
-0.97644257733873
30
0
41
1
10
25.7281536345218
20
-0.980733799237584
30
0
41
1
10
25.738065856905
20
-0.989714106626735
30
0
41
1
10
25.7429474086655
20
-0.994441667229665
30
0
41
1
10
25.7522319986346
20
-1.00417171009218
30
0
41
1
10
25.7566277087448
20
-1.00915946621268
30
0
41
1
10
25.7648496994736
20
-1.01941687398573
30
0
41
1
10
25.7687003352922
20
-1.02472624398124
30
0
41
1
10
25.7721153334322
20
-1.03007949636083
30
0
0
SPLINE
5
138
100
AcDbEntity
8
1
62
256
6
ByLayer
370
18
48
1
60
0
100
AcDbSpline
70
4
71
3
72
12
73
8
40
0
40
0
40
0
40
0
40
0.500000000000001
40
0.500000000000001
40
0.75
40
0.75
40
1
40
1
40
1
40
1
41
1
10
25.7721153334322
20
-1.0300794963608
30
0
41
1
10
25.8181937846373
20
-1.10231074465082
30
0
41
1
10
25.8638248837838
20
-1.1773280937584
30
0
41
1
10
25.9314672918964
20
-1.29275385600818
30
0
41
1
10
25.9538807701955
20
-1.3317106135321
30
0
41
1
10
25.9983489893494
20
-1.41024566539238
30
0
41
1
10
26.020426630948
20
-1.44986282255118
30
0
41
1
10
26.0423829881333
20
-1.48980706856966
30
0
0
SPLINE
5
139
100
AcDbEntity
8
1
62
256
6
ByLayer
370
18
48
1
60
0
100
AcDbSpline
70
4
71
3
72
14
73
10
40
0
40
0
40
0
40
0
40
0.25
40
0.25
40
0.5
40
0.5
40
0.75
40
0.75
40
1
40
1
40
1
40
1
41
1
10
26.1222720861637
20
-1.53642970152356
30
0
41
1
10
26.1454837726521
20
-1.52136302340961
30
0
41
1
10
26.1687925037891
20
-1.50486318140457
30
0
41
1
10
26.2157299715872
20
-1.46880941261543
30
0
41
1
10
26.2393919439847
20
-1.4491583293059
30
0
41
1
10
26.2872660123682
20
-1.40629168246039
30
0
41
1
10
26.3113477295142
20
-1.38326185251273
30
0
41
1
10
26.3598482555474
20
-1.33422815447713
30
0
41
1
10
26.3842711720635
20
-1.30820478541449
30
0
41
1
10
26.4089320736621
20
-1.28063284777721
30
0
0
SPLINE
5
13A
100
AcDbEntity
8
1
62
256
6
ByLayer
370
18
48
1
60
0
100
AcDbSpline
70
4
71
3
72
28
73
24
40
0
40
0
40
0
40
0
40
0.124999999999981
40
0.124999999999981
40
0.249999999999961
40
0.249999999999961
40
0.374999999999942
40
0.374999999999942
40
0.499999999999922
40
0.499999999999922
40
0.624999999999903
40
0.624999999999903
40
0.687499999999919
40
0.687499999999919
40
0.749999999999935
40
0.749999999999935
40
0.812499999999951
40
0.812499999999951
40
0.874999999999967
40
0.874999999999967
40
0.937499999999984
40
0.937499999999984
40
1
40
1
40
1
40
1
41
1
10
26.4089320736656
20
-1.28063284777903
30
0
41
1
10
26.4151687526492
20
-1.27365997522162
30
0
41
1
10
26.4223921159763
20
-1.26808170800831
30
0
41
1
10
26.438324973668
20
-1.25897532612154
30
0
41
1
10
26.4471148257838
20
-1.25546221654383
30
0
41
1
10
26.4653913803844
20
-1.25049719293284
30
0
41
1
10
26.4749374570376
20
-1.24899947537054
30
0
41
1
10
26.4947722733878
20
-1.24787830466019
30
0
41
1
10
26.5051509711331
20
-1.24827791128686
30
0
41
1
10
26.5259621318988
20
-1.25107629282195
30
0
41
1
10
26.5364413279397
20
-1.25345396288762
30
0
41
1
10
26.5522326059101
20
-1.25869369870694
30
0
41
1
10
26.5575086152352
20
-1.26072177371748
30
0
41
1
10
26.568079635297
20
-1.26542277378536
30
0
41
1
10
26.573361023624
20
-1.26809433380342
30
0
41
1
10
26.5836758110801
20
-1.27403894728013
30
0
41
1
10
26.5887388678992
20
-1.27732375277972
30
0
41
1
10
26.598640401062
20
-1.28461068014696
30
0
41
1
10
26.6035152956108
20
-1.2886472052906
30
0
41
1
10
26.6127884777051
20
-1.29740619126736
30
0
41
1
10
26.6171779469478
20
-1.30211032311533
30
0
41
1
10
26.6253876947561
20
-1.31227012860231
30
0
41
1
10
26.6292324504404
20
-1.31776891394662
30
0
41
1
10
26.6326441910477
20
-1.32359780798401
30
0
0
SPLINE
5
13B
100
AcDbEntity
8
1
62
256
6
ByLayer
370
18
48
1
60
0
100
AcDbSpline
70
4
71
3
72
14
73
10
40
0
40
0
40
0
40
0
40
0.25
40
0.25
40
0.5
40
0.5
40
0.75
40
0.75
40
1
40
1
40
1
40
1
41
1
10
26.6326441910477
20
-1.32359780798401
30
0
41
1
10
26.6557424843854
20
-1.36306080350622
30
0
41
1
10
26.6787087004026
20
-1.40234339695604
30
0
41
1
10
26.7244361943946
20
-1.48051702531777
30
0
41
1
10
26.7471644161104
20
-1.51935085632249
30
0
41
1
10
26.7923447728011
20
-1.59636680820989
30
0
41
1
10
26.8147988206704
20
-1.63455229553929
30
0
41
1
10
26.859348813768
20
-1.70999870482069
30
0
41
1
10
26.8814672057217
20
-1.74729803775611
30
0
41
1
10
26.9034639975114
20
-1.78416637962008
30
0
0
SPLINE
5
13C
100
AcDbEntity
8
1
62
256
6
ByLayer
370
18
48
1
60
0
100
AcDbSpline
70
4
71
3
72
10
73
6
40
0
40
0
40
0
40
0
40
0.5
40
0.5
40
1
40
1
40
1
40
1
41
1
10
26.9830128035644
20
-1.78681571686943
30
0
41
1
10
27.0294111219619
20
-1.71453461947758
30
0
41
1
10
27.0763425248357
20
-1.63833063460695
30
0
41
1
10
27.1719526485682
20
-1.47831149887682
30
0
41
1
10
27.2202128357125
20
-1.39518289815962
30
0
41
1
10
27.2694668728809
20
-1.30888247853142
30
0
0
SPLINE
5
13D
100
AcDbEntity
8
1
62
256
6
ByLayer
370
18
48
1
60
0
100
AcDbSpline
70
4
71
3
72
28
73
24
40
0
40
0
40
0
40
0
40
0.125000000000019
40
0.125000000000019
40
0.250000000000039
40
0.250000000000039
40
0.375000000000058
40
0.375000000000058
40
0.500000000000078
40
0.500000000000078
40
0.625000000000097
40
0.625000000000097
40
0.687500000000081
40
0.687500000000081
40
0.750000000000065
40
0.750000000000065
40
0.812500000000049
40
0.812500000000049
40
0.875000000000032
40
0.875000000000032
40
0.937500000000016
40
0.937500000000016
40
1
40
1
40
1
40
1
41
1
10
27.2694668728809
20
-1.30888247853142
30
0
41
1
10
27.2757109264581
20
-1.29794196532924
30
0
41
1
10
27.2829432977441
20
-1.28822750780569
30
0
41
1
10
27.2988948490302
20
-1.27061270936417
30
0
41
1
10
27.3076948027482
20
-1.26269162317939
30
0
41
1
10
27.3259891077641
20
-1.24898718947648
30
0
41
1
10
27.3355436619232
20
-1.24312516547798
30
0
41
1
10
27.3553931911888
20
-1.23326761213804
30
0
41
1
10
27.3657767516994
20
-1.22925972326905
30
0
41
1
10
27.386589555387
20
-1.2234728840406
30
0
41
1
10
27.3970683843987
20
-1.22164812398154
30
0
41
1
10
27.4128573825105
20
-1.22069911765101
30
0
41
1
10
27.4181323152203
20
-1.22068364211893
30
0
41
1
10
27.4287004235141
20
-1.22133525080568
30
0
41
1
10
27.4339736226213
20
-1.22200581074057
30
0
41
1
10
27.4442754653149
20
-1.22408111306942
30
0
41
1
10
27.4493322294749
20
-1.22548590207904
30
0
41
1
10
27.4592216320497
20
-1.22913105424021
30
0
41
1
10
27.4640906362592
20
-1.23139293534456
30
0
41
1
10
27.4733500504175
20
-1.23681434885958
30
0
41
1
10
27.4777335055405
20
-1.23995930949263
30
0
41
1
10
27.4859329437779
20
-1.24725763415103
30
0
41
1
10
27.4897732978569
20
-1.25144542836657
30
0
41
1
10
27.493182990193
20
-1.25615379253534
30
0
0
SPLINE
5
13E
100
AcDbEntity
8
1
62
256
6
ByLayer
370
18
48
1
60
0
100
AcDbSpline
70
4
71
3
72
12
73
8
40
0
40
0
40
0
40
0
40
0.50000000000001
40
0.50000000000001
40
0.750000000000005
40
0.750000000000005
40
1
40
1
40
1
40
1
41
1
10
27.493182990193
20
-1.25615379253537
30
0
41
1
10
27.5393475641076
20
-1.31990136981247
30
0
41
1
10
27.5850581613303
20
-1.37987800144759
30
0
41
1
10
27.6527932595235
20
-1.46349258526786
30
0
41
1
10
27.6752314803061
20
-1.49030055131019
30
0
41
1
10
27.719724939368
20
-1.54157277768383
30
0
41
1
10
27.741801752181
20
-1.5660511796024
30
0
41
1
10
27.7637548140347
20
-1.58942106485287
30
0
0
SPLINE
5
13F
100
AcDbEntity
8
1
62
256
6
ByLayer
370
18
48
1
60
0
100
AcDbSpline
70
4
71
3
72
8
73
4
40
0
40
0
40
0
40
0
40
1
40
1
40
1
40
1
41
1
10
27.8437000768007
20
-1.54714653112686
30
0
41
1
10
27.8169373996759
20
-1.56185840839839
30
0
41
1
10
27.7903327354504
20
-1.57596992517372
30
0
41
1
10
27.7637548140347
20
-1.58942106485287
30
0
0
SPLINE
5
140
100
AcDbEntity
8
1
62
256
6
ByLayer
370
18
48
1
60
0
100
AcDbSpline
70
4
71
3
72
12
73
8
40
0
40
0
40
0
40
0
40
0.25
40
0.25
40
0.5
40
0.5
40
1
40
1
40
1
40
1
41
1
10
27.8437000768007
20
-1.54714653112748
30
0
41
1
10
27.8668562370972
20
-1.50013036990452
30
0
41
1
10
27.8901709544203
20
-1.45298145326529
30
0
41
1
10
27.9371589622083
20
-1.35846280193397
30
0
41
1
10
27.9608341122864
20
-1.31107922226744
30
0
41
1
10
28.0325045942506
20
-1.16873986171879
30
0
41
1
10
28.0807660795388
20
-1.07432359288853
30
0
41
1
10
28.1299872586978
20
-0.980641932390512
30
0
0
SPLINE
5
141
100
AcDbEntity
8
1
62
256
6
ByLayer
370
18
48
1
60
0
100
AcDbSpline
70
4
71
3
72
8
73
4
40
0
40
0
40
0
40
0
40
1
40
1
40
1
40
1
41
1
10
30.1356054123427
20
-0.0855271581992838
30
0
41
1
10
30.0054631553343
20
0.0232720735608325
30
0
41
1
10
29.8787410994583
20
0.137788398889768
30
0
41
1
10
29.7535674353344
20
0.256025336468582
30
0
0
SPLINE
5
142
100
AcDbEntity
8
1
62
256
6
ByLayer
370
18
48
1
60
0
100
AcDbSpline
70
4
71
3
72
12
73
8
40
0
40
0
40
0
40
0
40
0.25
40
0.25
40
0.5
40
0.5
40
1
40
1
40
1
40
1
41
1
10
29.7535674353344
20
0.256025336468582
30
0
41
1
10
29.7402384669949
20
0.270835589652847
30
0
41
1
10
29.7268474032099
20
0.285168103816659
30
0
41
1
10
29.7000147807497
20
0.312769804381503
30
0
41
1
10
29.6865620174992
20
0.326051860388361
30
0
41
1
10
29.6460675770719
20
0.364326969653121
30
0
41
1
10
29.618893331981
20
0.387761581555139
30
0
41
1
10
29.5914527802518
20
0.409007644109835
30
0
0
SPLINE
5
143
100
AcDbEntity
8
1
62
256
6
ByLayer
370
18
48
1
60
0
100
AcDbSpline
70
4
71
3
72
28
73
24
40
0
40
0
40
0
40
0
40
0.124999999999976
40
0.124999999999976
40
0.249999999999951
40
0.249999999999951
40
0.374999999999927
40
0.374999999999927
40
0.437499999999914
40
0.437499999999914
40
0.499999999999902
40
0.499999999999902
40
0.624999999999927
40
0.624999999999927
40
0.749999999999952
40
0.749999999999952
40
0.812499999999964
40
0.812499999999964
40
0.874999999999976
40
0.874999999999976
40
0.937499999999988
40
0.937499999999988
40
1
40
1
40
1
40
1
41
1
10
29.5914527802518
20
0.409007644109891
30
0
41
1
10
29.5853933567979
20
0.413699200278927
30
0
41
1
10
29.5784031883563
20
0.419014640925298
30
0
41
1
10
29.5629736889341
20
0.430555245918555
30
0
41
1
10
29.5544657534842
20
0.436830555471459
30
0
41
1
10
29.5366700915448
20
0.449828844693826
30
0
41
1
10
29.5273309211241
20
0.456591341264073
30
0
41
1
10
29.5127059453958
20
0.467154310341414
30
0
41
1
10
29.5077273563767
20
0.470746086281622
30
0
41
1
10
29.4975598189125
20
0.478086986484613
30
0
41
1
10
29.4923732750315
20
0.481834371780451
30
0
41
1
10
29.476765816348
20
0.493144177140465
30
0
41
1
10
29.4662121239236
20
0.500833701870931
30
0
41
1
10
29.4448340330604
20
0.516660324256605
30
0
41
1
10
29.4339216489456
20
0.52486586340774
30
0
41
1
10
29.4181051232229
20
0.537128575792963
30
0
41
1
10
29.4129014267442
20
0.541226057650647
30
0
41
1
10
29.4026647173213
20
0.549455868428623
30
0
41
1
10
29.3976321999255
20
0.553589844770926
30
0
41
1
10
29.3881102110053
20
0.561631904587983
30
0
41
1
10
29.3835796449679
20
0.565572248901987
30
0
41
1
10
29.3750739749343
20
0.573260088363469
30
0
41
1
10
29.3711586107187
20
0.576955948134355
30
0
41
1
10
29.3677070247728
20
0.580404110770729
30
0
0
SPLINE
5
144
100
AcDbEntity
8
1
62
256
6
ByLayer
370
18
48
1
60
0
100
AcDbSpline
70
4
71
3
72
12
73
8
40
0
40
0
40
0
40
0
40
0.499999999999989
40
0.499999999999989
40
0.749999999999994
40
0.749999999999994
40
1
40
1
40
1
40
1
41
1
10
29.3677070247728
20
0.580404110770729
30
0
41
1
10
29.3272170850466
20
0.620853892262062
30
0
41
1
10
29.2870965550724
20
0.665605364107364
30
0
41
1
10
29.2272518334815
20
0.738542909059106
30
0
41
1
10
29.2073763216324
20
0.763804369483864
30
0
41
1
10
29.1679180724016
20
0.815891279367804
30
0
41
1
10
29.1483076206545
20
0.842750684784505
30
0
41
1
10
29.1287915049002
20
0.87039404533121
30
0
0
SPLINE
5
145
100
AcDbEntity
8
1
62
256
6
ByLayer
370
18
48
1
60
0
100
AcDbSpline
70
4
71
3
72
12
73
8
40
0
40
0
40
0
40
0
40
0.249999999999997
40
0.249999999999997
40
0.499999999999993
40
0.499999999999993
40
1
40
1
40
1
40
1
41
1
10
29.0057045540074
20
0.992141534231365
30
0
41
1
10
28.9833491901725
20
0.999338467240477
30
0
41
1
10
28.9608823520449
20
1.00492394215331
30
0
41
1
10
28.915641476519
20
1.01280072866695
30
0
41
1
10
28.8928455434176
20
1.01509199246877
30
0
41
1
10
28.8240107133946
20
1.01687564885543
30
0
41
1
10
28.7777513192821
20
1.01131426613773
30
0
41
1
10
28.7307680124239
20
0.998867683118306
30
0
0
SPLINE
5
146
100
AcDbEntity
8
1
62
256
6
ByLayer
370
18
48
1
60
0
100
AcDbSpline
70
4
71
3
72
28
73
24
40
0
40
0
40
0
40
0
40
0.12500000000003
40
0.12500000000003
40
0.25000000000006
40
0.25000000000006
40
0.37500000000009
40
0.37500000000009
40
0.437500000000081
40
0.437500000000081
40
0.500000000000072
40
0.500000000000072
40
0.625000000000054
40
0.625000000000054
40
0.750000000000036
40
0.750000000000036
40
0.812500000000027
40
0.812500000000027
40
0.875000000000018
40
0.875000000000018
40
0.937500000000009
40
0.937500000000009
40
1
40
1
40
1
40
1
41
1
10
28.7307680124239
20
0.998867683118306
30
0
41
1
10
28.72470011228
20
0.997260205315087
30
0
41
1
10
28.7176992094172
20
0.996725318306488
30
0
41
1
10
28.7022484344583
20
0.997254656467959
30
0
41
1
10
28.6937301157086
20
0.998349716930846
30
0
41
1
10
28.6759184435537
20
1.00192164674434
30
0
41
1
10
28.6665730864202
20
1.00439561543706
30
0
41
1
10
28.6519429436671
20
1.00913763780144
30
0
41
1
10
28.6469633131804
20
1.01089207224024
30
0
41
1
10
28.6367953653207
20
1.01477241626364
30
0
41
1
10
28.6316094649369
20
1.01689907251208
30
0
41
1
10
28.6160056746692
20
1.02376499111006
30
0
41
1
10
28.6054567511317
20
1.02901166265718
30
0
41
1
10
28.5840939268152
20
1.0411406191341
30
0
41
1
10
28.5731898706943
20
1.04809486841953
30
0
41
1
10
28.5573812222601
20
1.05971319380558
30
0
41
1
10
28.5521799354773
20
1.06379653332854
30
0
41
1
10
28.5419471163973
20
1.0724702994938
30
0
41
1
10
28.5369139193662
20
1.07706944595594
30
0
41
1
10
28.5273891080873
20
1.08657094551415
30
0
41
1
10
28.5228564818507
20
1.09150479540898
30
0
41
1
10
28.5143457513447
20
1.10181463083339
30
0
41
1
10
28.5104256429103
20
1.10712828581944
30
0
41
1
10
28.5069703749094
20
1.11251465028224
30
0
0
SPLINE
5
147
100
AcDbEntity
8
1
62
256
6
ByLayer
370
18
48
1
60
0
100
AcDbSpline
70
4
71
3
72
10
73
6
40
0
40
0
40
0
40
0
40
0.5
40
0.5
40
1
40
1
40
1
40
1
41
1
10
28.5069703749094
20
1.11251465028224
30
0
41
1
10
28.4613147625694
20
1.18368648638236
30
0
41
1
10
28.4161172435241
20
1.25729073854555
30
0
41
1
10
28.326255717159
20
1.40881541135039
30
0
41
1
10
28.2820345446996
20
1.4859950957493
30
0
41
1
10
28.238237874948
20
1.56436023615177
30
0
0
SPLINE
5
148
100
AcDbEntity
8
1
62
256
6
ByLayer
370
18
48
1
60
0
100
AcDbSpline
70
4
71
3
72
10
73
6
40
0
40
0
40
0
40
0
40
0.5
40
0.5
40
1
40
1
40
1
40
1
41
1
10
28.1582342692695
20
1.60497219554742
30
0
41
1
10
28.1114266357474
20
1.56926767405915
30
0
41
1
10
28.0641649129635
20
1.52724820397594
30
0
41
1
10
27.967974967912
20
1.43033854633629
30
0
41
1
10
27.9194548382836
20
1.37585841189443
30
0
41
1
10
27.8700488718972
20
1.31513663648335
30
0
0
SPLINE
5
149
100
AcDbEntity
8
1
62
256
6
ByLayer
370
18
48
1
60
0
100
AcDbSpline
70
4
71
3
72
28
73
24
40
0
40
0
40
0
40
0
40
0.124999999999992
40
0.124999999999992
40
0.249999999999983
40
0.249999999999983
40
0.374999999999975
40
0.374999999999975
40
0.437499999999947
40
0.437499999999947
40
0.499999999999919
40
0.499999999999919
40
0.624999999999914
40
0.624999999999914
40
0.749999999999908
40
0.749999999999908
40
0.812499999999931
40
0.812499999999931
40
0.874999999999954
40
0.874999999999954
40
0.937499999999977
40
0.937499999999977
40
1
40
1
40
1
40
1
41
1
10
27.8700488718972
20
1.31513663648329
30
0
41
1
10
27.8639801059845
20
1.30767789682645
30
0
41
1
10
27.8569759549832
20
1.30144167948816
30
0
41
1
10
27.8415125856068
20
1.29081441576108
30
0
41
1
10
27.8329838256268
20
1.28642627240265
30
0
41
1
10
27.8151495304213
20
1.27958899328684
30
0
41
1
10
27.8057923739002
20
1.27709504392536
30
0
41
1
10
27.7911457304152
20
1.27471519517687
30
0
41
1
10
27.7861607783212
20
1.27415113235489
30
0
41
1
10
27.7759828235547
20
1.27350687352558
30
0
41
1
10
27.7707945430528
20
1.27342969971755
30
0
41
1
10
27.7551857395143
20
1.27396770598267
30
0
41
1
10
27.7446366426495
20
1.27533076777834
30
0
41
1
10
27.7232818336644
20
1.28042548395416
30
0
41
1
10
27.7123877016552
20
1.28421041446049
30
0
41
1
10
27.6966017339375
20
1.29196930761952
30
0
41
1
10
27.6914090707623
20
1.29490760058866
30
0
41
1
10
27.681195573077
20
1.30162074796394
30
0
41
1
10
27.6761723942866
20
1.30540768636013
30
0
41
1
10
27.6666676330515
20
1.3137274714575
30
0
41
1
10
27.6621452602016
20
1.31828229953066
30
0
41
1
10
27.653654618651
20
1.32834241785642
30
0
41
1
10
27.6497402492154
20
1.33379554808775
30
0
41
1
10
27.6462902901237
20
1.33962081785995
30
0
0
SPLINE
5
14A
100
AcDbEntity
8
1
62
256
6
ByLayer
370
18
48
1
60
0
100
AcDbSpline
70
4
71
3
72
10
73
6
40
0
40
0
40
0
40
0
40
0.5
40
0.5
40
1
40
1
40
1
40
1
41
1
10
27.6462902901237
20
1.33962081785995
30
0
41
1
10
27.6006292672366
20
1.41671963825888
30
0
41
1
10
27.5554358604774
20
1.49268096103276
30
0
41
1
10
27.4655657504181
20
1.6423007066887
30
0
41
1
10
27.4213227909873
20
1.71522848851441
30
0
41
1
10
27.3775011195131
20
1.78626391153529
30
0
0
SPLINE
5
14B
100
AcDbEntity
8
1
62
256
6
ByLayer
370
18
48
1
60
0
100
AcDbSpline
70
4
71
3
72
8
73
4
40
0
40
0
40
0
40
0
40
1
40
1
40
1
40
1
41
1
10
27.2977104153038
20
1.78186529934246
30
0
41
1
10
27.324329369159
20
1.78405103700243
30
0
41
1
10
27.3509201997133
20
1.78551641964702
30
0
41
1
10
27.3775011195131
20
1.78626391153526
30
0
0
SPLINE
5
14C
100
AcDbEntity
8
1
62
256
6
ByLayer
370
18
48
1
60
0
100
AcDbSpline
70
4
71
3
72
10
73
6
40
0
40
0
40
0
40
0
40
0.5
40
0.5
40
1
40
1
40
1
40
1
41
1
10
27.2977104153038
20
1.78186529934246
30
0
41
1
10
27.2508280764568
20
1.70410589109696
30
0
41
1
10
27.2034630033101
20
1.62245234502589
30
0
41
1
10
27.1071564389127
20
1.45145350458426
30
0
41
1
10
27.0586561436129
20
1.36283300377258
30
0
41
1
10
27.0093342943502
20
1.27123648948688
30
0
0
SPLINE
5
14D
100
AcDbEntity
8
1
62
256
6
ByLayer
370
18
48
1
60
0
100
AcDbSpline
70
4
71
3
72
28
73
24
40
0
40
0
40
0
40
0
40
0.125000000000001
40
0.125000000000001
40
0.250000000000001
40
0.250000000000001
40
0.375000000000002
40
0.375000000000002
40
0.437500000000002
40
0.437500000000002
40
0.500000000000002
40
0.500000000000002
40
0.625000000000002
40
0.625000000000002
40
0.750000000000001
40
0.750000000000001
40
0.812500000000001
40
0.812500000000001
40
0.875000000000001
40
0.875000000000001
40
0.9375
40
0.9375
40
1
40
1
40
1
40
1
41
1
10
27.0093342943502
20
1.2712364894868
30
0
41
1
10
27.0032674980541
20
1.25996973039517
30
0
41
1
10
26.9962677686594
20
1.2497414379107
30
0
41
1
10
26.9808196044216
20
1.23086558904129
30
0
41
1
10
26.9723024890773
20
1.2221925984343
30
0
41
1
10
26.9544930777321
20
1.20679871502023
30
0
41
1
10
26.9451488310663
20
1.20000337743491
30
0
41
1
10
26.9305196442472
20
1.19111945636678
30
0
41
1
10
26.9255402127478
20
1.18837855127052
30
0
41
1
10
26.9153723150612
20
1.1833577369643
30
0
41
1
10
26.9101866328797
20
1.18108232717594
30
0
41
1
10
26.894582991696
20
1.17509731287251
30
0
41
1
10
26.8840335115229
20
1.17216939956302
30
0
41
1
10
26.8626682374962
20
1.16877036391082
30
0
41
1
10
26.8517629036648
20
1.16831986902514
30
0
41
1
10
26.8359538612572
20
1.17006594861533
30
0
41
1
10
26.8307525532717
20
1.17104737520503
30
0
41
1
10
26.8205201948734
20
1.17395395849849
30
0
41
1
10
26.8154877710908
20
1.17589042769151
30
0
41
1
10
26.8059651955848
20
1.18075426497339
30
0
41
1
10
26.8014340327191
20
1.18368821502614
30
0
41
1
10
26.7929267916545
20
1.19076357464036
30
0
41
1
10
26.789007854583
20
1.19486909666307
30
0
41
1
10
26.7855536843238
20
1.19954816586201
30
0
0
SPLINE
5
14E
100
AcDbEntity
8
1
62
256
6
ByLayer
370
18
48
1
60
0
100
AcDbSpline
70
4
71
3
72
10
73
6
40
0
40
0
40
0
40
0
40
0.5
40
0.5
40
1
40
1
40
1
40
1
41
1
10
26.7855536843238
20
1.19954816586201
30
0
41
1
10
26.7398734333394
20
1.2614272972701
30
0
41
1
10
26.6946569352355
20
1.31891733312918
30
0
41
1
10
26.6047648682243
20
1.42545322135922
30
0
41
1
10
26.5605292880117
20
1.47401528270339
30
0
41
1
10
26.5167129369771
20
1.51816186799871
30
0
0
SPLINE
5
14F
100
AcDbEntity
8
1
62
256
6
ByLayer
370
18
48
1
60
0
100
AcDbSpline
70
4
71
3
72
8
73
4
40
0
40
0
40
0
40
0
40
1
40
1
40
1
40
1
41
1
10
26.436864051635
20
1.47002424093216
30
0
41
1
10
26.4635029454942
20
1.48668300042544
30
0
41
1
10
26.4901133499563
20
1.5027308941828
30
0
41
1
10
26.5167129369771
20
1.51816186799866
30
0
0
SPLINE
5
150
100
AcDbEntity
8
1
62
256
6
ByLayer
370
18
48
1
60
0
100
AcDbSpline
70
4
71
3
72
10
73
6
40
0
40
0
40
0
40
0
40
0.675418698437791
40
0.675418698437791
40
1
40
1
40
1
40
1
41
1
10
26.4368640516351
20
1.47002424093216
30
0
41
1
10
26.3899855162172
20
1.37147236201056
30
0
41
1
10
26.3426823599775
20
1.27255105809633
30
0
41
1
10
26.2714601875946
20
1.12593628309631
30
0
41
1
10
26.2482516168318
20
1.07852190638207
30
0
41
1
10
26.2249033677216
20
1.03130705479148
30
0
0
SPLINE
5
151
100
AcDbEntity
8
1
62
256
6
ByLayer
370
18
48
1
60
0
100
AcDbSpline
70
4
71
3
72
24
73
20
40
0
40
0
40
0
40
0
40
0.152881933000493
40
0.152881933000493
40
0.322305546400437
40
0.322305546400437
40
0.49172915980038
40
0.49172915980038
40
0.576440966500317
40
0.576440966500317
40
0.661152773200253
40
0.661152773200253
40
0.74586457990019
40
0.74586457990019
40
0.830576386600127
40
0.830576386600127
40
0.915288193300063
40
0.915288193300063
40
1
40
1
40
1
40
1
41
1
10
25.3114203221979
20
1.29453044819309
30
0
41
1
10
25.3197259517114
20
1.28975134198575
30
0
41
1
10
25.3283631585913
20
1.28579443012566
30
0
41
1
10
25.3472162075851
20
1.27910509711808
30
0
41
1
10
25.3575929673136
20
1.2765506640973
30
0
41
1
10
25.3784089088261
20
1.27366325463771
30
0
41
1
10
25.3888942253533
20
1.27329236129373
30
0
41
1
10
25.4046993986776
20
1.27454697609304
30
0
41
1
10
25.4099808187726
20
1.27526985621483
30
0
41
1
10
25.4205642474417
20
1.27740959047946
30
0
41
1
10
25.4258542115128
20
1.27882924681216
30
0
41
1
10
25.436184741164
20
1.28238268407281
30
0
41
1
10
25.4412554536716
20
1.28452066843883
30
0
41
1
10
25.4511724290584
20
1.28962181682291
30
0
41
1
10
25.4560553547582
20
1.29261209369994
30
0
41
1
10
25.4653419585638
20
1.29944897922499
30
0
41
1
10
25.4697375059739
20
1.30327888448923
30
0
41
1
10
25.4779576180754
20
1.31189359124633
30
0
41
1
10
25.4818065412742
20
1.31671769655858
30
0
41
1
10
25.4852193075002
20
1.32200938987046
30
0
0
SPLINE
5
152
100
AcDbEntity
8
1
62
256
6
ByLayer
370
18
48
1
60
0
100
AcDbSpline
70
4
71
3
72
12
73
8
40
0
40
0
40
0
40
0
40
0.5
40
0.5
40
0.75
40
0.75
40
1
40
1
40
1
40
1
41
1
10
25.4852193075002
20
1.32200938987046
30
0
41
1
10
25.5313842946044
20
1.39359089804333
30
0
41
1
10
25.5771061092446
20
1.46242358925338
30
0
41
1
10
25.6448518406626
20
1.5607144326155
30
0
41
1
10
25.6672927765772
20
1.59264402475927
30
0
41
1
10
25.7118095499794
20
1.65466755770828
30
0
41
1
10
25.7339112534016
20
1.68480391548161
30
0
41
1
10
25.755897468065
20
1.71409814548596
30
0
0
SPLINE
5
153
100
AcDbEntity
8
1
62
256
6
ByLayer
370
18
48
1
60
0
100
AcDbSpline
70
4
71
3
72
8
73
4
40
0
40
0
40
0
40
0
40
1
40
1
40
1
40
1
41
1
10
25.8353296693884
20
1.68739289716169
30
0
41
1
10
25.8088109937494
20
1.69697275994773
30
0
41
1
10
25.7823324240954
20
1.7058741194881
30
0
41
1
10
25.7558974680646
20
1.7140981454867
30
0
0
SPLINE
5
154
100
AcDbEntity
8
1
62
256
6
ByLayer
370
18
48
1
60
0
100
AcDbSpline
70
4
71
3
72
10
73
6
40
0
40
0
40
0
40
0
40
0.5
40
0.5
40
1
40
1
40
1
40
1
41
1
10
25.8353296693878
20
1.68739289714677
30
0
41
1
10
25.8817339508873
20
1.59814184631398
30
0
41
1
10
25.9286906074412
20
1.50701432633681
30
0
41
1
10
26.0244016343183
20
1.32139431260018
30
0
41
1
10
26.0727426843724
20
1.22768748917932
30
0
41
1
10
26.1220058213672
20
1.13328277546921
30
0
0
SPLINE
5
155
100
AcDbEntity
8
1
62
256
6
ByLayer
370
18
48
1
60
0
100
AcDbSpline
70
4
71
3
72
26
73
22
40
0
40
0
40
0
40
0
40
0.125000000000019
40
0.125000000000019
40
0.250000000000039
40
0.250000000000039
40
0.375000000000058
40
0.375000000000058
40
0.500000000000077
40
0.500000000000077
40
0.625000000000097
40
0.625000000000097
40
0.68750000000008
40
0.68750000000008
40
0.750000000000064
40
0.750000000000064
40
0.812500000000048
40
0.812500000000048
40
0.875000000000032
40
0.875000000000032
40
1
40
1
40
1
40
1
41
1
10
26.1220058213672
20
1.13328277546921
30
0
41
1
10
26.1282568136319
20
1.12130377512233
30
0
41
1
10
26.1354966521102
20
1.110250814994
30
0
41
1
10
26.1514488286239
20
1.08952008086544
30
0
41
1
10
26.160237493051
20
1.07980124388627
30
0
41
1
10
26.1784841086588
20
1.06220997634497
30
0
41
1
10
26.1880037349762
20
1.05424759874043
30
0
41
1
10
26.2077849836393
20
1.03988638698993
30
0
41
1
10
26.2181394195724
20
1.03345040577943
30
0
41
1
10
26.2389365574345
20
1.02263691204763
30
0
41
1
10
26.2494240508125
20
1.01820981777894
30
0
41
1
10
26.2652522614185
20
1.01320497188343
30
0
41
1
10
26.2705437707571
20
1.01181116407574
30
0
41
1
10
26.2811481414998
20
1.00963944249332
30
0
41
1
10
26.2864592501803
20
1.00886708851363
30
0
41
1
10
26.2968226590583
20
1.00804851318185
30
0
41
1
10
26.301906589122
20
1.00799299515432
30
0
41
1
10
26.3118432140787
20
1.00868191326555
30
0
41
1
10
26.316735013276
20
1.00943651205603
30
0
41
1
10
26.3306778372404
20
1.01307814464266
30
0
41
1
10
26.3389537650625
20
1.01722967963934
30
0
41
1
10
26.3458095617178
20
1.02383231265807
30
0
0
SPLINE
5
156
100
AcDbEntity
8
1
62
256
6
ByLayer
370
18
48
1
60
0
100
AcDbSpline
70
4
71
3
72
12
73
8
40
0
40
0
40
0
40
0
40
0.5
40
0.5
40
0.75
40
0.75
40
1
40
1
40
1
40
1
41
1
10
26.3458095617178
20
1.02383231265813
30
0
41
1
10
26.3919088710202
20
1.06822931523033
30
0
41
1
10
26.4375594270729
20
1.10722888479288
30
0
41
1
10
26.5052301235185
20
1.15759339927573
30
0
41
1
10
26.5276524638867
20
1.17302200102836
30
0
41
1
10
26.5721347544867
20
1.20109629685101
30
0
41
1
10
26.5942180513563
20
1.21375933960223
30
0
41
1
10
26.6161797113244
20
1.22506122838052
30
0
0
SPLINE
5
157
100
AcDbEntity
8
1
62
256
6
ByLayer
370
18
48
1
60
0
100
AcDbSpline
70
4
71
3
72
8
73
4
40
0
40
0
40
0
40
0
40
1
40
1
40
1
40
1
41
1
10
26.696156909297
20
1.15949454162859
30
0
41
1
10
26.6695020380303
20
1.18186606438323
30
0
41
1
10
26.64284625252
20
1.20372229004872
30
0
41
1
10
26.6161797113241
20
1.22506122838115
30
0
0
SPLINE
5
158
100
AcDbEntity
8
1
62
256
6
ByLayer
370
18
48
1
60
0
100
AcDbSpline
70
4
71
3
72
10
73
6
40
0
40
0
40
0
40
0
40
0.5
40
0.5
40
1
40
1
40
1
40
1
41
1
10
26.6961569092965
20
1.15949454162103
30
0
41
1
10
26.7425510722809
20
1.06454853353174
30
0
41
1
10
26.7894444453122
20
0.971288594068909
30
0
41
1
10
26.8850755320691
20
0.78900326378519
30
0
41
1
10
26.9333767061748
20
0.700754824104962
30
0
41
1
10
26.9826303495609
20
0.61565169466914
30
0
0
SPLINE
5
159
100
AcDbEntity
8
1
62
256
6
ByLayer
370
18
48
1
60
0
100
AcDbSpline
70
4
71
3
72
28
73
24
40
0
40
0
40
0
40
0
40
0.125
40
0.125
40
0.25
40
0.25
40
0.375
40
0.375
40
0.499999999999999
40
0.499999999999999
40
0.624999999999999
40
0.624999999999999
40
0.687499999999999
40
0.687499999999999
40
0.749999999999999
40
0.749999999999999
40
0.8125
40
0.8125
40
0.875
40
0.875
40
0.9375
40
0.9375
40
1
40
1
40
1
40
1
41
1
10
26.9826303495609
20
0.615651694669168
30
0
41
1
10
26.9888716102977
20
0.60486770421042
30
0
41
1
10
26.9961016952633
20
0.594347555972092
30
0
41
1
10
27.0120506757338
20
0.573721590022899
30
0
41
1
10
27.0208502344879
20
0.56355172578705
30
0
41
1
10
27.0391452850055
20
0.544245202432819
30
0
41
1
10
27.0487011020984
20
0.535025089618216
30
0
41
1
10
27.0685553834817
20
0.517373671326737
30
0
41
1
10
27.0789424706235
20
0.508882483387225
30
0
41
1
10
27.0997605917337
20
0.493215383243268
30
0
41
1
10
27.1102413820992
20
0.48598111976662
30
0
41
1
10
27.1260318264184
20
0.476080660063019
30
0
41
1
10
27.1313070559537
20
0.472940617634379
30
0
41
1
10
27.1418752872354
20
0.467014674030764
30
0
41
1
10
27.1471472065936
20
0.464243152880726
30
0
41
1
10
27.1574471042298
20
0.459221925759323
30
0
41
1
10
27.1625029430892
20
0.456955338476234
30
0
41
1
10
27.1723907352621
20
0.452968419165302
30
0
41
1
10
27.1772591255529
20
0.451237647057979
30
0
41
1
10
27.1865171198325
20
0.448499262414032
30
0
41
1
10
27.1909004334427
20
0.447488208371425
30
0
41
1
10
27.1991009644745
20
0.446303970678713
30
0
41
1
10
27.2029425739965
20
0.446133260264759
30
0
41
1
10
27.2063530925829
20
0.446481537342152
30
0
0
SPLINE
5
15A
100
AcDbEntity
8
1
62
256
6
ByLayer
370
18
48
1
60
0
100
AcDbSpline
70
4
71
3
72
12
73
8
40
0
40
0
40
0
40
0
40
0.49999999999999
40
0.49999999999999
40
0.749999999999995
40
0.749999999999995
40
1
40
1
40
1
40
1
41
1
10
27.2063530925829
20
0.446481537342208
30
0
41
1
10
27.2525386697894
20
0.451197939683624
30
0
41
1
10
27.298257107709
20
0.449321810968058
30
0
41
1
10
27.3660063760229
20
0.437276728427605
30
0
41
1
10
27.3884513998485
20
0.431730793009649
30
0
41
1
10
27.4329826986907
20
0.417740410161827
30
0
41
1
10
27.4550917037462
20
0.409292167025825
30
0
41
1
10
27.4770808550585
20
0.399429970793477
30
0
0
SPLINE
5
15B
100
AcDbEntity
8
1
62
256
6
ByLayer
370
18
48
1
60
0
100
AcDbSpline
70
4
71
3
72
12
73
8
40
0
40
0
40
0
40
0
40
0.5
40
0.5
40
0.75
40
0.75
40
1
40
1
40
1
40
1
41
1
10
27.5571234558865
20
0.313430406205953
30
0
41
1
10
27.6035100169064
20
0.239135594927575
30
0
41
1
10
27.6504109240503
20
0.169656556620822
30
0
41
1
10
27.7220090657305
20
0.0729775611964669
30
0
41
1
10
27.7459809382701
20
0.0421163795747646
30
0
41
1
10
27.794286693676
20
-0.0166448083153057
30
0
41
1
10
27.8186252422224
20
-0.0445247879805777
30
0
41
1
10
27.8432614992647
20
-0.0707026602445637
30
0
0
SPLINE
5
15C
100
AcDbEntity
8
1
62
256
6
ByLayer
370
18
48
1
60
0
100
AcDbSpline
70
4
71
3
72
28
73
24
40
0
40
0
40
0
40
0
40
0.125
40
0.125
40
0.25
40
0.25
40
0.375
40
0.375
40
0.5
40
0.5
40
0.625
40
0.625
40
0.6875
40
0.6875
40
0.75
40
0.75
40
0.8125
40
0.8125
40
0.875
40
0.875
40
0.9375
40
0.9375
40
1
40
1
40
1
40
1
41
1
10
27.8432614992647
20
-0.0707026602445637
30
0
41
1
10
27.8494986526735
20
-0.0773301038917964
30
0
41
1
10
27.8567275962627
20
-0.0844187452391907
30
0
41
1
10
27.8726860589813
20
-0.0992478491706663
30
0
41
1
10
27.8814981557107
20
-0.10705787451846
30
0
41
1
10
27.8998250789959
20
-0.122756617982816
30
0
41
1
10
27.9094000171099
20
-0.130699784329295
30
0
41
1
10
27.9292854950378
20
-0.14681656837655
30
0
41
1
10
27.9396816891614
20
-0.155056985277838
30
0
41
1
10
27.9604998927522
20
-0.171323734738593
30
0
41
1
10
27.9709765457843
20
-0.179397772190924
30
0
41
1
10
27.986757089586
20
-0.191471146119824
30
0
41
1
10
27.9920283887597
20
-0.195489153071605
30
0
41
1
10
28.0025879494748
20
-0.203521264563534
30
0
41
1
10
28.0078406756868
20
-0.207508148732245
30
0
41
1
10
28.0181125486288
20
-0.215304124761388
30
0
41
1
10
28.0231551429019
20
-0.219131532699549
30
0
41
1
10
28.0330181150053
20
-0.226637292860914
30
0
41
1
10
28.037874935511
20
-0.230343349699012
30
0
41
1
10
28.0471008694377
20
-0.23741266533375
30
0
41
1
10
28.0514701190252
20
-0.240775847981951
30
0
41
1
10
28.0596467078618
20
-0.247097440557695
30
0
41
1
10
28.0634779708255
20
-0.250075157470604
30
0
41
1
10
28.0668798854582
20
-0.252732551653622
30
0
0
SPLINE
5
15D
100
AcDbEntity
8
1
62
256
6
ByLayer
370
18
48
1
60
0
100
AcDbSpline
70
4
71
3
72
12
73
8
40
0
40
0
40
0
40
0
40
0.500000000000009
40
0.500000000000009
40
0.750000000000005
40
0.750000000000005
40
1
40
1
40
1
40
1
41
1
10
28.0668798854582
20
-0.252732551653537
30
0
41
1
10
28.1130959474055
20
-0.288834073132705
30
0
41
1
10
28.1588432036249
20
-0.33083860403454
30
0
41
1
10
28.2266239751119
20
-0.401683127182054
30
0
41
1
10
28.2490754726476
20
-0.426605673269108
30
0
41
1
10
28.2935970759899
20
-0.478820750469964
30
0
41
1
10
28.3156895311207
20
-0.506146708150055
30
0
41
1
10
28.3376542692315
20
-0.534641410576739
30
0
0
SPLINE
5
15E
100
AcDbEntity
8
1
62
256
6
ByLayer
370
18
48
1
60
0
100
AcDbSpline
70
4
71
3
72
10
73
6
40
0
40
0
40
0
40
0
40
0.5
40
0.5
40
1
40
1
40
1
40
1
41
1
10
28.4175272932603
20
-0.61814349395496
30
0
41
1
10
28.4638578889954
20
-0.651715744219075
30
0
41
1
10
28.510746932367
20
-0.678522351901421
30
0
41
1
10
28.6063066943565
20
-0.718238172946769
30
0
41
1
10
28.6545677346509
20
-0.730977245469376
30
0
41
1
10
28.7037608180825
20
-0.736409550045039
30
0
0
SPLINE
5
15F
100
AcDbEntity
8
1
62
256
6
ByLayer
370
18
48
1
60
0
100
AcDbSpline
70
4
71
3
72
28
73
24
40
0
40
0
40
0
40
0
40
0.125
40
0.125
40
0.25
40
0.25
40
0.375
40
0.375
40
0.5
40
0.5
40
0.625
40
0.625
40
0.6875
40
0.6875
40
0.75
40
0.75
40
0.8125
40
0.8125
40
0.875
40
0.875
40
0.9375
40
0.9375
40
1
40
1
40
1
40
1
41
1
10
28.7037608180825
20
-0.736409550045067
30
0
41
1
10
28.7100235789055
20
-0.737101135566888
30
0
41
1
10
28.7172815013948
20
-0.738880129563
30
0
41
1
10
28.7332874531851
20
-0.744020083391632
30
0
41
1
10
28.7421167781369
20
-0.747436299972861
30
0
41
1
10
28.7604609982765
20
-0.755453059287106
30
0
41
1
10
28.7700386921102
20
-0.760064503560443
30
0
41
1
10
28.7899254069722
20
-0.770460877543201
30
0
41
1
10
28.8003212735446
20
-0.776303800879788
30
0
41
1
10
28.8211406811879
20
-0.788928239348763
30
0
41
1
10
28.8316163952085
20
-0.795729882630894
30
0
41
1
10
28.8473919506416
20
-0.806807912558298
30
0
41
1
10
28.8526610828975
20
-0.810647742829133
30
0
41
1
10
28.8632146918883
20
-0.818671450388564
30
0
41
1
10
28.8684727078612
20
-0.822837200928205
30
0
41
1
10
28.8787496044881
20
-0.8313693647668
30
0
41
1
10
28.8837944915074
20
-0.835755157369505
30
0
41
1
10
28.8936614167872
20
-0.844810420635866
30
0
41
1
10
28.8985195678032
20
-0.849517092501401
30
0
41
1
10
28.9077599425665
20
-0.859069143038937
30
0
41
1
10
28.9121361877569
20
-0.863902825362231
30
0
41
1
10
28.9203261473427
20
-0.873698806994668
30
0
41
1
10
28.9241643159451
20
-0.8786974694832
30
0
41
1
10
28.9275754180866
20
-0.883660053177664
30
0
0
SPLINE
5
160
100
AcDbEntity
8
1
62
256
6
ByLayer
370
18
48
1
60
0
100
AcDbSpline
70
4
71
3
72
10
73
6
40
0
40
0
40
0
40
0
40
0.5
40
0.5
40
1
40
1
40
1
40
1
41
1
10
28.9275754180866
20
-0.883660053177636
30
0
41
1
10
28.9592081070402
20
-0.929680330465885
30
0
41
1
10
28.9906224670906
20
-0.977336556964048
30
0
41
1
10
29.0529901029731
20
-1.07544402757776
30
0
41
1
10
29.0839405213596
20
-1.12593890049604
30
0
41
1
10
29.1145578653262
20
-1.17750597047373
30
0
0
SPLINE
5
161
100
AcDbEntity
8
1
62
256
6
ByLayer
370
18
48
1
60
0
100
AcDbSpline
70
4
71
3
72
8
73
4
40
0
40
0
40
0
40
0
40
1
40
1
40
1
40
1
41
1
10
29.1145578653264
20
-1.17750597047373
30
0
41
1
10
29.2117764115979
20
-1.23386459063116
30
0
41
1
10
29.3087609159163
20
-1.2808852198915
30
0
41
1
10
29.4061978395634
20
-1.31873003285344
30
0
0
SPLINE
5
162
100
AcDbEntity
8
1
62
256
6
ByLayer
370
18
48
1
60
0
100
AcDbSpline
70
4
71
3
72
10
73
6
40
0
40
0
40
0
40
0
40
0.5
40
0.5
40
1
40
1
40
1
40
1
41
1
10
29.4061978395634
20
-1.31873003285344
30
0
41
1
10
29.4321458165215
20
-1.30322386305261
30
0
41
1
10
29.4582937783615
20
-1.28573725704877
30
0
41
1
10
29.5109668342856
20
-1.24682251618557
30
0
41
1
10
29.5375130371062
20
-1.22540535123679
30
0
41
1
10
29.5643523355411
20
-1.20198852940163
30
0
0
SPLINE
5
163
100
AcDbEntity
8
1
62
256
6
ByLayer
370
18
48
1
60
0
100
AcDbSpline
70
4
71
3
72
26
73
22
40
0
40
0
40
0
40
0
40
0.125000000000025
40
0.125000000000025
40
0.25000000000005
40
0.25000000000005
40
0.375000000000074
40
0.375000000000074
40
0.500000000000099
40
0.500000000000099
40
0.625000000000123
40
0.625000000000123
40
0.68750000000011
40
0.68750000000011
40
0.750000000000097
40
0.750000000000097
40
0.812500000000084
40
0.812500000000084
40
0.875000000000071
40
0.875000000000071
40
1
40
1
40
1
40
1
41
1
10
29.5643523355411
20
-1.20198852940186
30
0
41
1
10
29.5706156366791
20
-1.19652390791765
30
0
41
1
10
29.5778751812713
20
-1.19246363723474
30
0
41
1
10
29.5938867552957
20
-1.18639805284144
30
0
41
1
10
29.6027209822446
20
-1.18441891141586
30
0
41
1
10
29.6210768852034
20
-1.18242146361271
30
0
41
1
10
29.6306611698599
20
-1.18236716880443
30
0
41
1
10
29.6505641474232
20
-1.18406151130321
30
0
41
1
10
29.6609694294288
20
-1.18584326431005
30
0
41
1
10
29.6818046433954
20
-1.19124237031224
30
0
41
1
10
29.6922884743947
20
-1.19484841125873
30
0
41
1
10
29.7080761340744
20
-1.20181174459671
30
0
41
1
10
29.7133493446259
20
-1.20439430686324
30
0
41
1
10
29.723911249669
20
-1.21015946246234
30
0
41
1
10
29.7291672575205
20
-1.21332764025425
30
0
41
1
10
29.7394420868934
20
-1.22019466368062
30
0
41
1
10
29.7444854432279
20
-1.22390594847067
30
0
41
1
10
29.7543469691615
20
-1.23196826398467
30
0
41
1
10
29.7592049815868
20
-1.23636023962803
30
0
41
1
10
29.7730189809565
20
-1.25035420285411
30
0
41
1
10
29.7812358164194
20
-1.2606887307839
30
0
41
1
10
29.788064035322
20
-1.27243953156233
30
0
0
SPLINE
5
164
100
AcDbEntity
8
1
62
256
6
ByLayer
370
18
48
1
60
0
100
AcDbSpline
70
4
71
3
72
8
73
4
40
0
40
0
40
0
40
0
40
1
40
1
40
1
40
1
41
1
10
29.7880640353219
20
-1.2724395315623
30
0
41
1
10
29.8176119838006
20
-1.32328911048461
30
0
41
1
10
29.8469497417093
20
-1.37427475264073
30
0
41
1
10
29.8760824665425
20
-1.42524303466567
30
0
0
SPLINE
5
165
100
AcDbEntity
8
1
62
256
6
ByLayer
370
13
48
1
60
0
100
AcDbSpline
70
4
71
3
72
8
73
4
40
0
40
0
40
0
40
0
40
1
40
1
40
1
40
1
41
1.04
10
30.4403205401345
20
-1.31824997330549
30
0
41
1.04
10
30.4351719093033
20
-1.32848661899927
30
0
41
1.04
10
30.4300277171307
20
-1.33549539363079
30
0
41
1.04
10
30.4249045789542
20
-1.33919828514901
30
0
0
SPLINE
5
166
100
AcDbEntity
8
1
62
256
6
ByLayer
370
18
48
1
60
0
100
AcDbSpline
70
4
71
3
72
8
73
4
40
0
40
0
40
0
40
0
40
1
40
1
40
1
40
1
41
1
10
24.1319875953056
20
1.78684881927185
30
0
41
1
10
24.1352559916792
20
1.78683950865698
30
0
41
1
10
24.1385148493201
20
1.78508978206662
30
0
41
1
10
24.1417661920452
20
1.78159496147882
30
0
0
SPLINE
5
167
100
AcDbEntity
8
1
62
256
6
ByLayer
370
18
48
1
60
0
100
AcDbSpline
70
4
71
3
72
9
73
5
40
0
40
0
40
0
40
0
40
0.842437261505939
40
1
40
1
40
1
40
1
41
1
10
24.2211849616393
20
1.7727749138929
30
0
41
1
10
24.2167077473635
20
1.78068495685335
30
0
41
1
10
24.2114695382622
20
1.78610743929036
30
0
41
1
10
24.2062665114804
20
1.78684839429067
30
0
41
1
10
24.2054470248035
20
1.78684830981132
30
0
0
SPLINE
5
168
100
AcDbEntity
8
1
62
256
6
ByLayer
370
18
48
1
60
0
100
AcDbSpline
70
4
71
3
72
12
73
8
40
0
40
0
40
0
40
0
40
0.0073641840986201
40
0.0073641840986201
40
0.338242789399078
40
0.338242789399078
40
1
40
1
40
1
40
1
41
1
10
30.4157442772983
20
-1.35984692296688
30
0
41
1
10
30.4157150638285
20
-1.35991158329173
30
0
41
1
10
30.4156858600835
20
-1.35997599296459
30
0
41
1
10
30.414344956034
20
-1.36292286120587
30
0
41
1
10
30.4130557096793
20
-1.36529082942397
30
0
41
1
10
30.4092774559867
20
-1.37080434018523
30
0
41
1
10
30.4068671795635
20
-1.37239088010429
30
0
41
1
10
30.4045198106765
20
-1.371917580185
30
0
0
SPLINE
5
169
100
AcDbEntity
8
1
62
256
6
ByLayer
370
18
48
1
60
0
100
AcDbSpline
70
4
71
3
72
8
73
4
40
0
40
0
40
0
40
0
40
1
40
1
40
1
40
1
41
1
10
22.97
20
-1.67700777943884
30
0
41
1
10
22.97
20
-1.66939062015911
30
0
41
1
10
22.97
20
-1.66156584279437
30
0
41
1
10
22.97
20
-1.65353348842399
30
0
0
SPLINE
5
16A
100
AcDbEntity
8
1
62
256
6
ByLayer
370
18
48
1
60
0
100
AcDbSpline
70
4
71
3
72
14
73
10
40
0
40
0
40
0
40
0
40
0.418980228527484
40
0.418980228527484
40
0.564235171395614
40
0.564235171395614
40
0.709490114263744
40
0.709490114263744
40
1
40
1
40
1
40
1
41
1
10
23.0150900002777
20
-1.78686353262754
30
0
41
1
10
23.0089288941981
20
-1.7868698033771
30
0
41
1
10
23.0027137860819
20
-1.78042996930273
30
0
41
1
10
22.9941617769892
20
-1.7628712422819
30
0
41
1
10
22.9919482025454
20
-1.75755200708159
30
0
41
1
10
22.9875390039392
20
-1.74543745385719
30
0
41
1
10
22.9853373052333
20
-1.73863049345403
30
0
41
1
10
22.9787417809816
20
-1.71599658659798
30
0
41
1
10
22.9743562046253
20
-1.697962332683
30
0
41
1
10
22.97
20
-1.67700777943884
30
0
0
SPLINE
5
16B
100
AcDbEntity
8
1
62
256
6
ByLayer
370
18
48
1
60
0
100
AcDbSpline
70
4
71
3
72
17
73
13
40
0
40
0
40
0
40
0
40
0.0662856123290943
40
0.0662856123290943
40
0.299714209246822
40
0.299714209246822
40
0.416428507705685
40
0.416428507705685
40
0.533142806164548
40
0.533142806164548
40
0.766571403082274
40
1
40
1
40
1
40
1
41
1
10
28.1006567577826
20
1.7868484859043
30
0
41
1
10
28.1019223202704
20
1.78685965268357
30
0
41
1
10
28.1031898979883
20
1.7866001250934
30
0
41
1
10
28.1089395538559
20
1.78421101327393
30
0
41
1
10
28.113452288421
20
1.77901608954801
30
0
41
1
10
28.1202484634633
20
1.76617171247389
30
0
41
1
10
28.1225185287277
20
1.76104649899725
30
0
41
1
10
28.1270666116005
20
1.74907804299582
30
0
41
1
10
28.1293509352034
20
1.74221053469594
30
0
41
1
10
28.1361452999181
20
1.71922355171986
30
0
41
1
10
28.1450733584488
20
1.68219727286694
30
0
41
1
10
28.1538378336851
20
1.63278614909404
30
0
41
1
10
28.1582342692695
20
1.60497219554745
30
0
0
SPLINE
5
16C
100
AcDbEntity
8
1
62
256
6
ByLayer
370
18
48
1
60
0
100
AcDbSpline
70
4
71
3
72
16
73
12
40
0
40
0
40
0
40
0
40
0.210542282195183
40
0.421084564390365
40
0.421084564390365
40
0.526355705487957
40
0.526355705487957
40
0.631626846585548
40
0.631626846585548
40
0.842169128780731
40
1
40
1
40
1
40
1
41
1
10
28.238237874948
20
1.56436023615174
30
0
41
1
10
28.2337837391786
20
1.59495649280811
30
0
41
1
10
28.224930735847
20
1.65003179295329
30
0
41
1
10
28.2160240583049
20
1.69295293114368
30
0
41
1
10
28.2092458399838
20
1.72046032142094
30
0
41
1
10
28.2069618462111
20
1.72886620558683
30
0
41
1
10
28.2024069949525
20
1.74392400189095
30
0
41
1
10
28.200133800141
20
1.75059324115767
30
0
41
1
10
28.193331710569
20
1.76807126989055
30
0
41
1
10
28.1854407525593
20
1.78256885676981
30
0
41
1
10
28.1776125462536
20
1.78689281517109
30
0
41
1
10
28.1742594266817
20
1.78684796170879
30
0
0
SPLINE
5
16D
100
AcDbEntity
8
1
62
256
6
ByLayer
370
18
48
1
60
0
100
AcDbSpline
70
4
71
3
72
18
73
14
40
0
40
0
40
0
40
0
40
0.0095323524731724
40
0.0095323524731724
40
0.207625881978538
40
0.405719411483903
40
0.405719411483903
40
0.504766176236587
40
0.504766176236587
40
0.60381294098927
40
0.60381294098927
40
0.801906470494635
40
1
40
1
40
1
40
1
41
1
10
26.1898946307473
20
-1.7868469147362
30
0
41
1
10
26.1896777331865
20
-1.78684976872623
30
0
41
1
10
26.1894610156851
20
-1.78684481145947
30
0
41
1
10
26.1847445780942
20
-1.78656700991189
30
0
41
1
10
26.1759076236573
20
-1.77931629627346
30
0
41
1
10
26.1672106766911
20
-1.75878776689646
30
0
41
1
10
26.1605721845557
20
-1.73830756141845
30
0
41
1
10
26.1583352727966
20
-1.73062082327493
30
0
41
1
10
26.1538311997073
20
-1.71355617185247
30
0
41
1
10
26.1515784906312
20
-1.70423500998331
30
0
41
1
10
26.14481957112
20
-1.67395720058849
30
0
41
1
10
26.1358061601708
20
-1.62742815598978
30
0
41
1
10
26.1267899085274
20
-1.56880839202611
30
0
41
1
10
26.1222720861565
20
-1.53642970153544
30
0
0
SPLINE
5
16E
100
AcDbEntity
8
1
62
256
6
ByLayer
370
18
48
1
60
0
100
AcDbSpline
70
4
71
3
72
22
73
18
40
0
40
0
40
0
40
0
40
0.181599661217516
40
0.363199322435032
40
0.363199322435032
40
0.45399915304379
40
0.45399915304379
40
0.49939906834817
40
0.49939906834817
40
0.544798983652549
40
0.726398644870065
40
0.726398644870065
40
0.907998306087581
40
0.907998306087581
40
0.998798136696339
40
0.998798136696339
40
1
40
1
40
1
40
1
41
1
10
26.0423829881333
20
-1.48980706856966
30
0
41
1
10
26.0467897785977
20
-1.52485243438073
30
0
41
1
10
26.0555716266151
20
-1.58891270843461
30
0
41
1
10
26.0644823167972
20
-1.6411194309284
30
0
41
1
10
26.0712598514365
20
-1.6757578572682
30
0
41
1
10
26.0735344769062
20
-1.68654968914885
30
0
41
1
10
26.0769720877188
20
-1.70158223216109
30
0
41
1
10
26.0781233944006
20
-1.70640436722653
30
0
41
1
10
26.0804208209856
20
-1.71560626239767
30
0
41
1
10
26.0861591319506
20
-1.73753695828472
30
0
41
1
10
26.0918330287559
20
-1.75418403149084
30
0
41
1
10
26.1008081785072
20
-1.77421527034733
30
0
41
1
10
26.1052454849937
20
-1.78092843812223
30
0
41
1
10
26.1118968295048
20
-1.78599347936799
30
0
41
1
10
26.1141139476536
20
-1.7868459919832
30
0
41
1
10
26.1163707884114
20
-1.78684770664663
30
0
41
1
10
26.1164002735659
20
-1.78684757865898
30
0
41
1
10
26.1164297616166
20
-1.78684730030253
30
0
0
SPLINE
5
16F
100
AcDbEntity
8
1
62
256
6
ByLayer
370
18
48
1
60
0
100
AcDbSpline
70
4
71
3
72
24
73
20
40
0
40
0
40
0
40
0
40
0.1622247862384
40
0.1622247862384
40
0.3244495724768
40
0.3244495724768
40
0.405561965595999
40
0.405561965595999
40
0.486674358715199
40
0.486674358715199
40
0.648899144953598
40
0.811123931191998
40
0.811123931191998
40
0.892236324311197
40
0.932792520870797
40
0.932792520870797
40
0.973348717430397
40
0.973348717430397
40
1
40
1
40
1
40
1
41
1
10
25.0822851758814
20
1.4162403186246
30
0
41
1
10
25.0777733512509
20
1.45496524818952
30
0
41
1
10
25.0732472550351
20
1.49076305335438
30
0
41
1
10
25.064202027008
20
1.55663188282057
30
0
41
1
10
25.0596841858001
20
1.58670275667893
30
0
41
1
10
25.0529121373514
20
1.62746128843713
30
0
41
1
10
25.0506552207397
20
1.64032132247541
30
0
41
1
10
25.0461377622985
20
1.66456127824597
30
0
41
1
10
25.043872933987
20
1.67595724579593
30
0
41
1
10
25.0371413376353
20
1.70751640247582
30
0
41
1
10
25.0282877443563
20
1.74287610058042
30
0
41
1
10
25.019521438846
20
1.76515878674613
30
0
41
1
10
25.0129111101472
20
1.77693638814537
30
0
41
1
10
25.0095969212158
20
1.7815890593775
30
0
41
1
10
25.0062556167226
20
1.7843580954914
30
0
41
1
10
25.0040205212094
20
1.7857805127521
30
0
41
1
10
25.0028974896125
20
1.78628018338003
30
0
41
1
10
25.0010377550058
20
1.78675122141087
30
0
41
1
10
25.0003004971973
20
1.7868456466737
30
0
41
1
10
24.9995632988644
20
1.78684821693778
30
0
0
SPLINE
5
170
100
AcDbEntity
8
1
62
256
6
ByLayer
370
18
48
1
60
0
100
AcDbSpline
70
4
71
3
72
24
73
20
40
0
40
0
40
0
40
0
40
0.127146706414
40
0.127146706414
40
0.1998844808795
40
0.1998844808795
40
0.272622255345
40
0.272622255345
40
0.418097804275999
40
0.563573353206998
40
0.563573353206998
40
0.599942240439748
40
0.599942240439748
40
0.636311127672498
40
0.636311127672498
40
0.709048902137999
40
0.709048902137999
40
0.854524451068999
40
1
40
1
40
1
40
1
41
1
10
24.9097831360252
20
1.77302219752207
30
0
41
1
10
24.9137544048595
20
1.77987709573938
30
0
41
1
10
24.9177593941587
20
1.78421478095271
30
0
41
1
10
24.9240636577466
20
1.78696752583085
30
0
41
1
10
24.9263600380541
20
1.78711387441172
30
0
41
1
10
24.9309006567819
20
1.78570525988169
30
0
41
1
10
24.9331519252026
20
1.78415501208406
30
0
41
1
10
24.939855771011
20
1.77700891488752
30
0
41
1
10
24.9486561518105
20
1.76083973789835
30
0
41
1
10
24.9573802131089
20
1.73150166277472
30
0
41
1
10
24.9628898153871
20
1.70894655492819
30
0
41
1
10
24.9639948842861
20
1.70422403449908
30
0
41
1
10
24.966214596149
20
1.69435110327598
30
0
41
1
10
24.9673296955353
20
1.68919785826566
30
0
41
1
10
24.9706747341766
20
1.67318891852924
30
0
41
1
10
24.9729133367098
20
1.6617560854809
30
0
41
1
10
24.9796775765831
20
1.62522366266808
30
0
41
1
10
24.9887980252468
20
1.57056843398792
30
0
41
1
10
24.9979566996723
20
1.50419334666319
30
0
41
1
10
25.0025264163061
20
1.46801852564897
30
0
0
SPLINE
5
171
100
AcDbEntity
8
1
62
256
6
ByLayer
370
18
48
1
60
0
100
AcDbSpline
70
4
71
3
72
86
73
82
40
0
40
0
40
0
40
0
40
0.0312500000000215
40
0.0312500000000215
40
0.062500000000043
40
0.062500000000043
40
0.125000000000081
40
0.125000000000081
40
0.1562500000001
40
0.1562500000001
40
0.171875000000107
40
0.171875000000107
40
0.187500000000113
40
0.187500000000113
40
0.250000000000129
40
0.250000000000129
40
0.281250000000137
40
0.281250000000137
40
0.296875000000137
40
0.296875000000137
40
0.312500000000138
40
0.312500000000138
40
0.34375000000014
40
0.34375000000014
40
0.375000000000142
40
0.375000000000142
40
0.390625000000139
40
0.390625000000139
40
0.406250000000137
40
0.406250000000137
40
0.437500000000133
40
0.437500000000133
40
0.468750000000128
40
0.468750000000128
40
0.484375000000129
40
0.484375000000129
40
0.500000000000129
40
0.500000000000129
40
0.531250000000135
40
0.531250000000135
40
0.539062500000136
40
0.539062500000136
40
0.546875000000136
40
0.562500000000133
40
0.562500000000133
40
0.57812500000013
40
0.57812500000013
40
0.593750000000127
40
0.609375000000124
40
0.617187500000122
40
0.617187500000122
40
0.62500000000012
40
0.62500000000012
40
0.632812500000118
40
0.632812500000118
40
0.640625000000116
40
0.648437500000114
40
0.648437500000114
40
0.656250000000112
40
0.656250000000112
40
0.671875000000108
40
0.671875000000108
40
0.687500000000104
40
0.687500000000104
40
0.7031250000001
40
0.7031250000001
40
0.718750000000096
40
0.718750000000096
40
0.750000000000084
40
0.750000000000084
40
0.781250000000072
40
0.781250000000072
40
0.812500000000061
40
0.812500000000061
40
0.843750000000049
40
0.843750000000049
40
0.875000000000038
40
0.875000000000038
40
0.937500000000019
40
0.937500000000019
40
1
40
1
40
1
40
1
41
1
10
18.2202949341385
20
1.07120500491843
30
0
41
1
10
18.1939858437894
20
1.0827989426682
30
0
41
1
10
18.1675447071906
20
1.09367060909153
30
0
41
1
10
18.1138581617732
20
1.11372812742846
30
0
41
1
10
18.0865539291949
20
1.12287978185054
30
0
41
1
10
18.0030728126542
20
1.14792248982582
30
0
41
1
10
17.9454326120654
20
1.16145985930606
30
0
41
1
10
17.8552369167162
20
1.17791939821262
30
0
41
1
10
17.8245470948063
20
1.182764819705
30
0
41
1
10
17.7774501294556
20
1.18917968929424
30
0
41
1
10
17.7615738212082
20
1.19117573383679
30
0
41
1
10
17.7294413924228
20
1.19490066652563
30
0
41
1
10
17.7131610658981
20
1.19663132741485
30
0
41
1
10
17.6314931909092
20
1.20459033228766
30
0
41
1
10
17.5648263216393
20
1.20884161321052
30
0
41
1
10
17.4622733921827
20
1.21289503286943
30
0
41
1
10
17.4276623957523
20
1.21385395641789
30
0
41
1
10
17.3749182033961
20
1.21466799168556
30
0
41
1
10
17.357104399046
20
1.21481580295927
30
0
41
1
10
17.3216485136361
20
1.21488816633456
30
0
41
1
10
17.3039828577207
20
1.2148210398573
30
0
41
1
10
17.2510925742918
20
1.21444038168332
30
0
41
1
10
17.2159491469099
20
1.2139909343764
30
0
41
1
10
17.1458993855921
20
1.21265598374401
30
0
41
1
10
17.110997400178
20
1.21176386455147
30
0
41
1
10
17.0588559055838
20
1.20997826294402
30
0
41
1
10
17.0415109068102
20
1.20930762839058
30
0
41
1
10
17.0068985597558
20
1.20778667604654
30
0
41
1
10
16.9895989340027
20
1.20693452034794
30
0
41
1
10
16.9381133888024
20
1.2040687018399
30
0
41
1
10
16.9043556145004
20
1.2017492507961
30
0
41
1
10
16.8381575087545
20
1.19594400972224
30
0
41
1
10
16.8057052566433
20
1.19246940659087
30
0
41
1
10
16.7582454727113
20
1.18594802920563
30
0
41
1
10
16.7425788751161
20
1.18354394913138
30
0
41
1
10
16.7120234727229
20
1.17825918933269
30
0
41
1
10
16.6971259388569
20
1.1753770733755
30
0
41
1
10
16.6536900001657
20
1.16586165878371
30
0
41
1
10
16.6263890602749
20
1.15838247906308
30
0
41
1
10
16.5949367439202
20
1.14685575483958
30
0
41
1
10
16.5887687278822
20
1.14443349471759
30
0
41
1
10
16.5768540837238
20
1.13939720717298
30
0
41
1
10
16.5595732955971
20
1.13154154170576
30
0
41
1
10
16.5441205544812
20
1.12271490316081
30
0
41
1
10
16.5252709017071
20
1.10993534577608
30
0
41
1
10
16.5167181284494
20
1.10303121163287
30
0
41
1
10
16.5015527890612
20
1.08806623821695
30
0
41
1
10
16.4886435296136
20
1.07226686263641
30
0
41
1
10
16.4779425689404
20
1.05030804544273
30
0
41
1
10
16.4738990864371
20
1.03607728168458
30
0
41
1
10
16.4717264053475
20
1.02634799472102
30
0
41
1
10
16.4709022483635
20
1.02135200831515
30
0
41
1
10
16.4697812343613
20
1.0112613857749
30
0
41
1
10
16.4696195736636
20
1.00615611262773
30
0
41
1
10
16.4703106849709
20
0.99583893756207
30
0
41
1
10
16.4719068414558
20
0.98541039780244
30
0
41
1
10
16.4750921372669
20
0.974755749579344
30
0
41
1
10
16.4789833120389
20
0.963986608225383
30
0
41
1
10
16.4812878198456
20
0.958538169494204
30
0
41
1
10
16.4890000335976
20
0.942299730480698
30
0
41
1
10
16.4952279983936
20
0.931516033910839
30
0
41
1
10
16.5092535794617
20
0.909935655659126
30
0
41
1
10
16.5170563662282
20
0.899139867140974
30
0
41
1
10
16.5338680780563
20
0.877477400348795
30
0
41
1
10
16.5429174105282
20
0.866580702158672
30
0
41
1
10
16.5617014324957
20
0.844924778143906
30
0
41
1
10
16.5714500607526
20
0.83413937983704
30
0
41
1
10
16.6015235542718
20
0.801822441026957
30
0
41
1
10
16.6226636773572
20
0.78032595912606
30
0
41
1
10
16.6663501224869
20
0.737140019984878
30
0
41
1
10
16.6889051213892
20
0.715453744694656
30
0
41
1
10
16.7349960667473
20
0.671717458202721
30
0
41
1
10
16.7585354240151
20
0.649668679591855
30
0
41
1
10
16.8063226688258
20
0.605082862902435
30
0
41
1
10
16.8305804728278
20
0.58253835153036
30
0
41
1
10
16.8792291495274
20
0.537225435397261
30
0
41
1
10
16.9036722039756
20
0.514411755954342
30
0
41
1
10
16.9772012903349
20
0.445391192966866
30
0
41
1
10
17.0264456236686
20
0.398572238864688
30
0
41
1
10
17.12482389998
20
0.302835879989999
30
0
41
1
10
17.1739666708414
20
0.253923997911642
30
0
41
1
10
17.2230202245275
20
0.203877226519324
30
0
0
SPLINE
5
172
100
AcDbEntity
8
1
62
256
6
ByLayer
370
13
48
1
60
0
100
AcDbSpline
70
4
71
3
72
8
73
4
40
0
40
0
40
0
40
0
40
1
40
1
40
1
40
1
41
1.04
10
23.0557544530726
20
0.190839337169416
30
0
41
1.04
10
23.0550729084648
20
0.198073800284085
30
0
41
1.04
10
23.0543896708233
20
0.205324962302783
30
0
41
1.04
10
23.0537047300209
20
0.212592520866349
30
0
0
SPLINE
5
173
100
AcDbEntity
8
1
62
256
6
ByLayer
370
18
48
1
60
0
100
AcDbSpline
70
4
71
3
72
86
73
82
40
0
40
0
40
0
40
0
40
0.031249999999989
40
0.031249999999989
40
0.0624999999999781
40
0.0624999999999781
40
0.124999999999956
40
0.124999999999956
40
0.156249999999945
40
0.156249999999945
40
0.17187499999994
40
0.17187499999994
40
0.187499999999934
40
0.187499999999934
40
0.249999999999924
40
0.249999999999924
40
0.281249999999919
40
0.281249999999919
40
0.296874999999916
40
0.296874999999916
40
0.312499999999914
40
0.312499999999914
40
0.343749999999909
40
0.343749999999909
40
0.374999999999904
40
0.374999999999904
40
0.390624999999904
40
0.390624999999904
40
0.406249999999904
40
0.406249999999904
40
0.437499999999899
40
0.437499999999899
40
0.468749999999894
40
0.468749999999894
40
0.484374999999892
40
0.484374999999892
40
0.499999999999889
40
0.499999999999889
40
0.531249999999884
40
0.531249999999884
40
0.539062499999886
40
0.539062499999886
40
0.546874999999888
40
0.562499999999889
40
0.562499999999889
40
0.578124999999889
40
0.578124999999889
40
0.593749999999889
40
0.609374999999889
40
0.61718749999989
40
0.61718749999989
40
0.624999999999891
40
0.624999999999891
40
0.632812499999892
40
0.632812499999892
40
0.640624999999892
40
0.648437499999893
40
0.648437499999893
40
0.656249999999894
40
0.656249999999894
40
0.671874999999897
40
0.671874999999897
40
0.6874999999999
40
0.6874999999999
40
0.703124999999903
40
0.703124999999903
40
0.718749999999906
40
0.718749999999906
40
0.749999999999915
40
0.749999999999915
40
0.781249999999925
40
0.781249999999925
40
0.812499999999934
40
0.812499999999934
40
0.843749999999944
40
0.843749999999944
40
0.874999999999953
40
0.874999999999953
40
0.937499999999977
40
0.937499999999977
40
1
40
1
40
1
40
1
41
1
10
18.2202949341385
20
-1.06786994282945
30
0
41
1
10
18.1939858437894
20
-1.05616703776553
30
0
41
1
10
18.1675447071905
20
-1.04403432770616
30
0
41
1
10
18.1138581617731
20
-1.01946612073047
30
0
41
1
10
18.0865539291949
20
-1.00708449942317
30
0
41
1
10
18.0030728126541
20
-0.970095943990287
30
0
41
1
10
17.9454326120653
20
-0.945546898194777
30
0
41
1
10
17.8552369167161
20
-0.910715467533066
30
0
41
1
10
17.8245470948062
20
-0.899439867091388
30
0
41
1
10
17.7774501294556
20
-0.883298222911122
30
0
41
1
10
17.7615738212081
20
-0.878046667984421
30
0
41
1
10
17.7294413924227
20
-0.867851875072972
30
0
41
1
10
17.713161065898
20
-0.862902587162154
30
0
41
1
10
17.6314931909091
20
-0.839273212675266
30
0
41
1
10
17.5648263216391
20
-0.82371690150697
30
0
41
1
10
17.4622733921825
20
-0.807989992934125
30
0
41
1
10
17.4276623957521
20
-0.804016691657864
30
0
41
1
10
17.3749182033959
20
-0.800612736076062
30
0
41
1
10
17.3571043990458
20
-0.799984390177684
30
0
41
1
10
17.3216485136359
20
-0.799677893445647
30
0
41
1
10
17.3039828577205
20
-0.799963112967134
30
0
41
1
10
17.2510925742916
20
-0.801568204686987
30
0
41
1
10
17.2159491469097
20
-0.803458851656217
30
0
41
1
10
17.1458993855919
20
-0.808880335267588
30
0
41
1
10
17.1109974001778
20
-0.812442185012458
30
0
41
1
10
17.0588559055837
20
-0.819208613075745
30
0
41
1
10
17.0415109068101
20
-0.821702839977803
30
0
41
1
10
17.0068985597556
20
-0.827203645732538
30
0
41
1
10
16.9895989340026
20
-0.830216645212147
30
0
41
1
10
16.9381133888023
20
-0.840029339565632
30
0
41
1
10
16.9043556145003
20
-0.847607950704429
30
0
41
1
10
16.8381575087544
20
-0.865023918102025
30
0
41
1
10
16.8057052566433
20
-0.874841294133375
30
0
41
1
10
16.7582454727112
20
-0.891489995234394
30
0
41
1
10
16.742578875116
20
-0.897382268393272
30
0
41
1
10
16.7120234727228
20
-0.909689765932711
30
0
41
1
10
16.6971259388568
20
-0.916111182574525
30
0
41
1
10
16.6536900001656
20
-0.936198752658044
30
0
41
1
10
16.6263890602749
20
-0.950683599472143
30
0
41
1
10
16.5949367439201
20
-0.970277804221581
30
0
41
1
10
16.5887687278821
20
-0.974280817272046
30
0
41
1
10
16.5768540837238
20
-0.982351044998921
30
0
41
1
10
16.559573295597
20
-0.994576357007986
30
0
41
1
10
16.5441205544811
20
-1.00713717464691
30
0
41
1
10
16.525270901707
20
-1.02413584420776
30
0
41
1
10
16.5167181284494
20
-1.03277169483942
30
0
41
1
10
16.5015527890611
20
-1.05019486157647
30
0
41
1
10
16.4886435204732
20
-1.06739223265782
30
0
41
1
10
16.4779425689404
20
-1.08814320874043
30
0
41
1
10
16.473899086437
20
-1.10017716920598
30
0
41
1
10
16.4717264053475
20
-1.10809812001966
30
0
41
1
10
16.4709022483635
20
-1.11201446875782
30
0
41
1
10
16.4697812343613
20
-1.11962637683425
30
0
41
1
10
16.4696195736636
20
-1.12333150177142
30
0
41
1
10
16.4703106849709
20
-1.13053747094506
30
0
41
1
10
16.4719066195648
20
-1.13754274026496
30
0
41
1
10
16.475092137267
20
-1.14416080190162
30
0
41
1
10
16.4789833120389
20
-1.15059090822209
30
0
41
1
10
16.4812878198457
20
-1.15371442900354
30
0
41
1
10
16.4890000335977
20
-1.16266235257558
30
0
41
1
10
16.4952279983936
20
-1.16812810761343
30
0
41
1
10
16.5092535794617
20
-1.17824382096484
30
0
41
1
10
16.5170563662282
20
-1.18289228964974
30
0
41
1
10
16.5338680780563
20
-1.19148441576846
30
0
41
1
10
16.5429174105283
20
-1.19543621092041
30
0
41
1
10
16.5617014324958
20
-1.2026319130519
30
0
41
1
10
16.5714500607527
20
-1.20588781801334
30
0
41
1
10
16.6015235542719
20
-1.21476378800253
30
0
41
1
10
16.6226636773573
20
-1.21949945865646
30
0
41
1
10
16.666350122487
20
-1.22702728360721
30
0
41
1
10
16.6889051213893
20
-1.2298146584493
30
0
41
1
10
16.7349960667474
20
-1.23365569641953
30
0
41
1
10
16.7585354240151
20
-1.23470745073732
30
0
41
1
10
16.8063226688258
20
-1.23518668539961
30
0
41
1
10
16.8305804728279
20
-1.23460905598887
30
0
41
1
10
16.8792291495274
20
-1.23191171154471
30
0
41
1
10
16.9036722039756
20
-1.22979305687903
30
0
41
1
10
16.9772012903349
20
-1.22120719389738
30
0
41
1
10
17.0264456236686
20
-1.21252011793754
30
0
41
1
10
17.12482389998
20
-1.18920685411246
30
0
41
1
10
17.1739666708414
20
-1.17457444635215
30
0
41
1
10
17.2230202245275
20
-1.15680557519377
30
0
0
SPLINE
5
174
100
AcDbEntity
8
1
62
256
6
ByLayer
370
18
48
1
60
0
100
AcDbSpline
70
4
71
3
72
20
73
16
40
0
40
0
40
0
40
0
40
0.0624999999999998
40
0.0624999999999998
40
0.125
40
0.249999999999999
40
0.249999999999999
40
0.499999999999999
40
0.499999999999999
40
0.562499999999999
40
0.562499999999999
40
0.624999999999998
40
0.749999999999998
40
0.749999999999998
40
1
40
1
40
1
40
1
41
1
10
30.7167174216381
20
0.349583517539884
30
0
41
1
10
30.7150021535435
20
0.333320104512666
30
0
41
1
10
30.7133119091811
20
0.316827875755251
30
0
41
1
10
30.710004737614
20
0.283647439186808
30
0
41
1
10
30.7051622197762
20
0.233669900205257
30
0
41
1
10
30.7006505673068
20
0.183086951038092
30
0
41
1
10
30.6920378276693
20
0.0811312081224287
30
0
41
1
10
30.6868351110863
20
0.0121150089045727
30
0
41
1
10
30.6810502651243
20
-0.075519394611689
30
0
41
1
10
30.6799288351468
20
-0.0931358063422181
30
0
41
1
10
30.6777833372299
20
-0.128161138782133
30
0
41
1
10
30.6747026912656
20
-0.180510949728671
30
0
41
1
10
30.6720378216531
20
-0.232304504869717
30
0
41
1
10
30.6672775771943
20
-0.335156387769871
30
0
41
1
10
30.6648649641584
20
-0.402749195132856
30
0
41
1
10
30.6632489330276
20
-0.469321801316511
30
0
0
SPLINE
5
175
100
AcDbEntity
8
1
62
256
6
ByLayer
370
18
48
1
60
0
100
AcDbSpline
70
4
71
3
72
22
73
18
40
0
40
0
40
0
40
0
40
0.249999999999996
40
0.249999999999996
40
0.374999999999993
40
0.374999999999993
40
0.437499999999993
40
0.437499999999993
40
0.499999999999993
40
0.499999999999993
40
0.749999999999993
40
0.749999999999993
40
0.812499999999995
40
0.812499999999995
40
0.874999999999997
40
0.874999999999997
40
1
40
1
40
1
40
1
41
1
10
30.3835471218004
20
0.645267006694809
30
0
41
1
10
30.393684331686
20
0.570147877838963
30
0
41
1
10
30.4033778212048
20
0.491810030506201
30
0
41
1
10
30.4176102199148
20
0.369668551115979
30
0
41
1
10
30.4223100883561
20
0.328178430677809
30
0
41
1
10
30.4293720815804
20
0.2647547631056
30
0
41
1
10
30.4317324295391
20
0.243355981426475
30
0
41
1
10
30.436410617883
20
0.200544753592709
30
0
41
1
10
30.4387302621892
20
0.179117299078655
30
0
41
1
10
30.4502325808135
20
0.0718727445643026
30
0
41
1
10
30.4591281708858
20
-0.0142630072843417
30
0
41
1
10
30.4698586588343
20
-0.122362366758864
30
0
41
1
10
30.4719853461794
20
-0.144003912998016
30
0
41
1
10
30.4762004297035
20
-0.187331195484575
30
0
41
1
10
30.4782925571678
20
-0.209056791755387
30
0
41
1
10
30.4844644031157
20
-0.273783369374115
30
0
41
1
10
30.4884511940241
20
-0.316456854053428
30
0
41
1
10
30.4923293689133
20
-0.358649600830006
30
0
0
SPLINE
5
176
100
AcDbEntity
8
1
62
256
6
ByLayer
370
13
48
1
60
0
100
AcDbSpline
70
4
71
3
72
10
73
6
40
0
40
0
40
0
40
0
40
0.636688996014169
40
0.889980767619149
40
1
40
1
40
1
40
1
41
1
10
30.4521956998565
20
-0.293222152739816
30
0
41
1
10
30.433396588271
20
-0.0981114996986889
30
0
41
1
10
30.4068275397508
20
0.190838361691647
30
0
41
1
10
30.3762581888351
20
0.50081308528317
30
0
41
1
10
30.3651587511893
20
0.606749616453868
30
0
41
1
10
30.3617999736633
20
0.638123400259673
30
0
0
SPLINE
5
177
100
AcDbEntity
8
1
62
256
6
ByLayer
370
13
48
1
60
0
100
AcDbSpline
70
4
71
3
72
10
73
6
40
0
40
0
40
0
40
0
40
0.425530483749258
40
0.680436776640292
40
1
40
1
40
1
40
1
41
1.04
10
30.2284174382429
20
-0.110475003811371
30
0
41
1.04
10
30.2158308985808
20
0.0227392824123139
30
0
41
1.04
10
30.1955298323579
20
0.240002140956801
30
0
41
1.04
10
30.1651541179369
20
0.549254097382764
30
0
41
1.04
10
30.1477208255259
20
0.710899846696067
30
0
41
1.04
10
30.1380710205996
20
0.79357914846103
30
0
0
SPLINE
5
178
100
AcDbEntity
8
1
62
256
6
ByLayer
370
18
48
1
60
0
100
AcDbSpline
70
4
71
3
72
23
73
19
40
0
40
0
40
0
40
0
40
0.125000000000001
40
0.125000000000001
40
0.187500000000001
40
0.187500000000001
40
0.250000000000001
40
0.250000000000001
40
0.375000000000001
40
0.375000000000001
40
0.5
40
0.5
40
0.625
40
0.625
40
0.75
40
0.75
40
0.875
40
1
40
1
40
1
40
1
41
1
10
25.3690317288227
20
-1.7457398250331
30
0
41
1
10
25.3646385989297
20
-1.73229974950823
30
0
41
1
10
25.360257408688
20
-1.71562861014655
30
0
41
1
10
25.353594181244
20
-1.68573426067883
30
0
41
1
10
25.3513604311817
20
-1.67495316955237
30
0
41
1
10
25.3468621542426
20
-1.65173033194537
30
0
41
1
10
25.3445907482516
20
-1.63924673345838
30
0
41
1
10
25.3377896478095
20
-1.59962649737605
30
0
41
1
10
25.3332697874226
20
-1.57033429328544
30
0
41
1
10
25.3242511661433
20
-1.50616838892714
30
0
41
1
10
25.3197533260735
20
-1.4712942074311
30
0
41
1
10
25.3107717163809
20
-1.39594736600009
30
0
41
1
10
25.3062890238817
20
-1.35547526570829
30
0
41
1
10
25.2973001337452
20
-1.26872458271825
30
0
41
1
10
25.2928740895653
20
-1.22321407900381
30
0
41
1
10
25.2840632624424
20
-1.12813913285396
30
0
41
1
10
25.2752846700429
20
-1.02899037162376
30
0
41
1
10
25.2663942947263
20
-0.921732397522902
30
0
41
1
10
25.2618911246438
20
-0.866015425241272
30
0
0
SPLINE
5
179
100
AcDbEntity
8
1
62
256
6
ByLayer
370
18
48
1
60
0
100
AcDbSpline
70
4
71
3
72
25
73
21
40
0
40
0
40
0
40
0
40
0.125
40
0.25
40
0.25
40
0.375
40
0.375
40
0.437499999999999
40
0.437499999999999
40
0.499999999999999
40
0.499999999999999
40
0.624999999999999
40
0.624999999999999
40
0.75
40
0.75
40
0.8125
40
0.8125
40
0.874999999999999
40
0.874999999999999
40
1
40
1
40
1
40
1
41
1
10
25.181826595331
20
-0.788034010930375
30
0
41
1
10
25.1862699909522
20
-0.845274280105514
30
0
41
1
10
25.1950612339413
20
-0.955789982901592
30
0
41
1
10
25.2038805285904
20
-1.05861985933629
30
0
41
1
10
25.2128471744749
20
-1.157597363561
30
0
41
1
10
25.2173976521838
20
-1.20516081630245
30
0
41
1
10
25.2242783486819
20
-1.27351966436746
30
0
41
1
10
25.2265712182343
20
-1.29570262352769
30
0
41
1
10
25.2311227538813
20
-1.338589375851
30
0
41
1
10
25.2333861129742
20
-1.35933996988953
30
0
41
1
10
25.2401415824964
20
-1.41954487630355
30
0
41
1
10
25.2445970161593
20
-1.45695798451467
30
0
41
1
10
25.253473054955
20
-1.52636318286469
30
0
41
1
10
25.2578998522309
20
-1.55835536579096
30
0
41
1
10
25.2645818172056
20
-1.6021590102311
30
0
41
1
10
25.2668205697017
20
-1.61608883995768
30
0
41
1
10
25.2712718441653
20
-1.64222815016029
30
0
41
1
10
25.2734893061144
20
-1.65447354241652
30
0
41
1
10
25.2801416634446
20
-1.68878180642756
30
0
41
1
10
25.2845859691079
20
-1.70842320113147
30
0
41
1
10
25.2890565080094
20
-1.72487121723361
30
0
0
SPLINE
5
17A
100
AcDbEntity
8
1
62
256
6
ByLayer
370
18
48
1
60
0
100
AcDbSpline
70
4
71
2
72
6
73
3
40
0
40
0
40
0
40
1
40
1
40
1
41
1
10
23.00534854575
20
0.2214072910553
30
0
41
1
10
23.0295266378855
20
0.216999905960847
30
0
41
1
10
23.0537047300209
20
0.212592520866366
30
0
0
SPLINE
5
17B
100
AcDbEntity
8
1
62
256
6
ByLayer
370
18
48
1
60
0
100
AcDbSpline
70
4
71
2
72
6
73
3
40
0
40
0
40
0
40
1
40
1
40
1
41
1.04
10
23.0537047300209
20
0.212592520866349
30
0
41
0.52
10
23.156084890555
20
0.193929807903714
30
0
41
1.04
10
23.2584650511514
20
0.229544876239465
30
0
0
SPLINE
5
17C
100
AcDbEntity
8
1
62
256
6
ByLayer
370
18
48
1
60
0
100
AcDbSpline
70
4
71
3
72
8
73
4
40
0
40
0
40
0
40
0
40
1
40
1
40
1
40
1
41
1
10
22.9295504698035
20
0.263304078179601
30
0
41
1
10
22.9430331611319
20
0.265656082552709
30
0
41
1
10
22.9565163445561
20
0.26800800192018
30
0
41
1
10
22.97
20
0.270359839700916
30
0
0
SPLINE
5
17D
100
AcDbEntity
8
1
62
256
6
ByLayer
370
13
48
1
60
0
100
AcDbSpline
70
4
71
3
72
10
73
6
40
0
40
0
40
0
40
0
40
0.179622031247884
40
0.703508940479453
40
1
40
1
40
1
40
1
41
1.04
10
23.9165466366795
20
-0.507130465141696
30
0
41
1.04
10
23.9113036152478
20
-0.455609702950409
30
0
41
1.04
10
23.8906322050988
20
-0.247373028876816
30
0
41
1.04
10
23.8603835777726
20
0.0788501113405825
30
0
41
1.04
10
23.8359812153899
20
0.333480007288281
30
0
41
1.04
10
23.8271688641962
20
0.422343236775191
30
0
0
SPLINE
5
17E
100
AcDbEntity
8
1
62
256
6
ByLayer
370
13
48
1
60
0
100
AcDbSpline
70
4
71
3
72
10
73
6
40
0
40
0
40
0
40
0
40
0.395794505762655
40
0.916683145386302
40
1
40
1
40
1
40
1
41
1
10
24.1402901499466
20
-0.672635740758238
30
0
41
1
10
24.1288428665667
20
-0.567384935559033
30
0
41
1
10
24.1020003632082
20
-0.301678975724201
30
0
41
1
10
24.0715776262344
20
0.0267193005982165
30
0
41
1
10
24.0534226179956
20
0.217501867968679
30
0
41
1
10
24.0509223804395
20
0.243631608959674
30
0
0
SPLINE
5
17F
100
AcDbEntity
8
1
62
256
6
ByLayer
370
18
48
1
60
0
100
AcDbSpline
70
4
71
3
72
29
73
25
40
0
40
0
40
0
40
0
40
0.0625000000000007
40
0.0625000000000007
40
0.0937500000000011
40
0.0937500000000011
40
0.125000000000001
40
0.125000000000001
40
0.250000000000002
40
0.375000000000003
40
0.375000000000003
40
0.500000000000003
40
0.500000000000003
40
0.531250000000003
40
0.531250000000003
40
0.562500000000003
40
0.625000000000002
40
0.625000000000002
40
0.750000000000002
40
0.875000000000001
40
0.875000000000001
40
0.937500000000001
40
0.937500000000001
40
1
40
1
40
1
40
1
41
1
10
23.6477820384743
20
-0.521498906683064
30
0
41
1
10
23.6455212717995
20
-0.491336451186441
30
0
41
1
10
23.6432397862575
20
-0.460873599390737
30
0
41
1
10
23.6397953336621
20
-0.414720969780632
30
0
41
1
10
23.6386438569109
20
-0.399260299473838
30
0
41
1
10
23.6363365035442
20
-0.368184160869078
30
0
41
1
10
23.6351789230968
20
-0.352545508844486
30
0
41
1
10
23.6294131395712
20
-0.274352209220325
30
0
41
1
10
23.6203235335662
20
-0.149020598334971
30
0
41
1
10
23.6115353256588
20
-0.0232560363650123
30
0
41
1
10
23.6027892831274
20
0.102717423444119
30
0
41
1
10
23.5984306400684
20
0.165808110289788
30
0
41
1
10
23.5928838249422
20
0.244797575174715
30
0
41
1
10
23.5917700351109
20
0.260605519221031
30
0
41
1
10
23.5895469828384
20
0.292043715312388
30
0
41
1
10
23.5862141823246
20
0.339006033343907
30
0
41
1
10
23.5828841282237
20
0.385390215798338
30
0
41
1
10
23.5762211728537
20
0.477399400853983
30
0
41
1
10
23.5673296491128
20
0.598057862537729
30
0
41
1
10
23.5583549997646
20
0.714696543440567
30
0
41
1
10
23.5515640645948
20
0.800624474025341
30
0
41
1
10
23.5492842486297
20
0.829081968997116
30
0
41
1
10
23.5447482921051
20
0.884865051866001
30
0
41
1
10
23.5424882766909
20
0.912241835359424
30
0
41
1
10
23.5402337164212
20
0.939113371496063
30
0
0
SPLINE
5
180
100
AcDbEntity
8
1
62
256
6
ByLayer
370
18
48
1
60
0
100
AcDbSpline
70
4
71
3
72
28
73
24
40
0
40
0
40
0
40
0
40
0.124999999999996
40
0.124999999999996
40
0.156249999999996
40
0.156249999999996
40
0.187499999999995
40
0.187499999999995
40
0.249999999999995
40
0.249999999999995
40
0.374999999999996
40
0.499999999999997
40
0.499999999999997
40
0.562499999999997
40
0.562499999999997
40
0.624999999999997
40
0.624999999999997
40
0.749999999999998
40
0.875
40
0.875
40
0.9375
40
0.9375
40
1
40
1
40
1
40
1
41
1
10
24.5083695397772
20
-1.31371673866928
30
0
41
1
10
24.5039806118268
20
-1.27102418644782
30
0
41
1
10
24.4995926497947
20
-1.2258356525667
30
0
41
1
10
24.4940183140851
20
-1.166157454466
30
0
41
1
10
24.4928988240623
20
-1.15406177218057
30
0
41
1
10
24.490647998336
20
-1.12954677252554
30
0
41
1
10
24.4895158172567
20
-1.11711588153887
30
0
41
1
10
24.4861228981265
20
-1.07955454095861
30
0
41
1
10
24.4838599068373
20
-1.05409161699382
30
0
41
1
10
24.4770737670846
20
-0.976462161662369
30
0
41
1
10
24.4680352521703
20
-0.869654426655842
30
0
41
1
10
24.4590273727614
20
-0.7563426730608
30
0
41
1
10
24.4522632597035
20
-0.668875897932793
30
0
41
1
10
24.4500069450024
20
-0.639305638937344
30
0
41
1
10
24.4454848929216
20
-0.579317678702068
30
0
41
1
10
24.4432324811052
20
-0.549076079027657
30
0
41
1
10
24.4365205293394
20
-0.458041289201958
30
0
41
1
10
24.4276658577605
20
-0.335482293195497
30
0
41
1
10
24.4188529434398
20
-0.210624408064291
30
0
41
1
10
24.4121999757152
20
-0.116112572370383
30
0
41
1
10
24.4099750812118
20
-0.0844635949852375
30
0
41
1
10
24.4055009892837
20
-0.0208707629477658
30
0
41
1
10
24.4032474286719
20
0.011134290711567
30
0
41
1
10
24.4010033637386
20
0.0429173319600977
30
0
0
SPLINE
5
181
100
AcDbEntity
8
1
62
256
6
ByLayer
370
18
48
1
60
0
100
AcDbSpline
70
4
71
3
72
28
73
24
40
0
40
0
40
0
40
0
40
0.0312499999999997
40
0.0312499999999997
40
0.0624999999999994
40
0.0624999999999994
40
0.125
40
0.125
40
0.250000000000001
40
0.375000000000001
40
0.375000000000001
40
0.437500000000002
40
0.437500000000002
40
0.500000000000002
40
0.500000000000002
40
0.625000000000002
40
0.750000000000001
40
0.750000000000001
40
0.812500000000001
40
0.812500000000001
40
0.875000000000001
40
0.875000000000001
40
1
40
1
40
1
40
1
41
1
10
24.3212640675436
20
0.130324061458367
30
0
41
1
10
24.3224073539572
20
0.114493645400188
30
0
41
1
10
24.3235512483612
20
0.098619765655144
30
0
41
1
10
24.3258391646895
20
0.0667839715789569
30
0
41
1
10
24.3269835662705
20
0.0508165700847769
30
0
41
1
10
24.3303954564469
20
0.0030702269371261
30
0
41
1
10
24.3326482588902
20
-0.0286482956296368
30
0
41
1
10
24.339345121111
20
-0.123473213517002
30
0
41
1
10
24.3481032653883
20
-0.249027009398418
30
0
41
1
10
24.356739571783
20
-0.372831787521505
30
0
41
1
10
24.3633522202303
20
-0.465004462282906
30
0
41
1
10
24.3655793402503
20
-0.495614957180351
30
0
41
1
10
24.3700782129346
20
-0.55660354094789
30
0
41
1
10
24.3723340124258
20
-0.586764936565146
30
0
41
1
10
24.3790970349908
20
-0.676005754071412
30
0
41
1
10
24.3881192617774
20
-0.791919093305609
30
0
41
1
10
24.3971323359689
20
-0.901811983618245
30
0
41
1
10
24.4039015742369
20
-0.981944226898008
30
0
41
1
10
24.4061598092042
20
-1.00827293576316
30
0
41
1
10
24.4106857085246
20
-1.06015116269307
30
0
41
1
10
24.4129565696574
20
-1.08573466243581
30
0
41
1
10
24.4197064818366
20
-1.16040772873328
30
0
41
1
10
24.4241470449939
20
-1.20772283424213
30
0
41
1
10
24.4285550361956
20
-1.2526353679176
30
0
0
SPLINE
5
182
100
AcDbEntity
8
1
62
256
6
ByLayer
370
18
48
1
60
0
100
AcDbSpline
70
4
71
3
72
26
73
22
40
0
40
0
40
0
40
0
40
0.0624999999999997
40
0.0624999999999997
40
0.124999999999999
40
0.124999999999999
40
0.249999999999999
40
0.374999999999998
40
0.374999999999998
40
0.437499999999998
40
0.437499999999998
40
0.499999999999998
40
0.499999999999998
40
0.624999999999998
40
0.749999999999999
40
0.874999999999999
40
0.874999999999999
40
0.90625
40
0.90625
40
0.9375
40
1
40
1
40
1
40
1
41
1
10
27.4770808550588
20
0.399429970794415
30
0
41
1
10
27.4792991828161
20
0.368615102033885
30
0
41
1
10
27.4815183131934
20
0.337543277459105
30
0
41
1
10
27.4859727251617
20
0.274877488089572
30
0
41
1
10
27.4882143469638
20
0.24319354559762
30
0
41
1
10
27.4949223251919
20
0.148343733736937
30
0
41
1
10
27.5038471324426
20
0.0220667278426845
30
0
41
1
10
27.512795880367
20
-0.103838178990657
30
0
41
1
10
27.5195324167183
20
-0.1981256277233
30
0
41
1
10
27.5217820603922
20
-0.229531192960195
30
0
41
1
10
27.5262926171537
20
-0.292294253103194
30
0
41
1
10
27.5285556811836
20
-0.323681693920889
30
0
41
1
10
27.5353539028038
20
-0.417581698196756
30
0
41
1
10
27.5443129711681
20
-0.540311064505829
30
0
41
1
10
27.5575664023568
20
-0.717244486688855
30
0
41
1
10
27.5664065704199
20
-0.830427811070962
30
0
41
1
10
27.5719937683525
20
-0.899624244055673
30
0
41
1
10
27.573116077334
20
-0.913406257546939
30
0
41
1
10
27.575357826841
20
-0.940677528388932
30
0
41
1
10
27.578717619797
20
-0.981164435150021
30
0
41
1
10
27.5820776725722
20
-1.02040654389148
30
0
41
1
10
27.5843261096244
20
-1.04602354386188
30
0
0
SPLINE
5
183
100
AcDbEntity
8
1
62
256
6
ByLayer
370
18
48
1
60
0
100
AcDbSpline
70
4
71
3
72
27
73
23
40
0
40
0
40
0
40
0
40
0.0625000000000012
40
0.0625000000000012
40
0.125000000000002
40
0.125000000000002
40
0.250000000000003
40
0.250000000000003
40
0.375000000000004
40
0.500000000000005
40
0.500000000000005
40
0.531250000000006
40
0.531250000000006
40
0.562500000000006
40
0.625000000000006
40
0.625000000000006
40
0.750000000000004
40
0.875000000000003
40
0.875000000000003
40
0.937500000000001
40
0.937500000000001
40
1
40
1
40
1
40
1
41
1
10
27.6644888106754
20
-1.11622149404079
30
0
41
1
10
27.6622827249112
20
-1.09155424523291
30
0
41
1
10
27.6600705978057
20
-1.06631825897654
30
0
41
1
10
27.6556221302184
20
-1.0146918165396
30
0
41
1
10
27.6533810138421
20
-0.988244139127858
30
0
41
1
10
27.6466349767293
20
-0.907521430507671
30
0
41
1
10
27.6421374634686
20
-0.852338159980576
30
0
41
1
10
27.6331208384536
20
-0.739329867698785
30
0
41
1
10
27.6240979166188
20
-0.623678097912517
30
0
41
1
10
27.6150598269923
20
-0.502743624033883
30
0
41
1
10
27.6093866516503
20
-0.425454019389719
30
0
41
1
10
27.6082499148179
20
-0.409899162221365
30
0
41
1
10
27.605986651126
20
-0.378802596987498
30
0
41
1
10
27.602602276578
20
-0.332112483455859
30
0
41
1
10
27.5992457550356
20
-0.285288434987081
30
0
41
1
10
27.5925597841259
20
-0.191465254183328
30
0
41
1
10
27.5837204646857
20
-0.0659014921702408
30
0
41
1
10
27.5749103917485
20
0.0605800237041194
30
0
41
1
10
27.5682510424575
20
0.155790313589989
30
0
41
1
10
27.5660161645159
20
0.187674441628559
30
0
41
1
10
27.5615640874229
20
0.250893243382649
30
0
41
1
10
27.559343676111
20
0.282274108762721
30
0
41
1
10
27.5571234558869
20
0.313430406205811
30
0
0
SPLINE
5
184
100
AcDbEntity
8
1
62
256
6
ByLayer
370
18
48
1
60
0
100
AcDbSpline
70
4
71
3
72
14
73
10
40
0
40
0
40
0
40
0
40
0.25
40
0.499999999999999
40
0.749999999999998
40
0.749999999999998
40
0.874999999999999
40
0.874999999999999
40
1
40
1
40
1
40
1
41
1
10
23.5138312210995
20
0.318379309984863
30
0
41
1
10
23.5183772587711
20
0.255403161333817
30
0
41
1
10
23.5272670374252
20
0.129366715182329
30
0
41
1
10
23.5405268000121
20
-0.059895137984995
30
0
41
1
10
23.5495170167088
20
-0.186193207106925
30
0
41
1
10
23.5563508753908
20
-0.28096216479662
30
0
41
1
10
23.5586445780121
20
-0.31257054402019
30
0
41
1
10
23.5632079414591
20
-0.375042526174809
30
0
41
1
10
23.5654844780958
20
-0.406002453624154
30
0
41
1
10
23.5677558816634
20
-0.436691043661085
30
0
0
SPLINE
5
185
100
AcDbEntity
8
1
62
256
6
ByLayer
370
18
48
1
60
0
100
AcDbSpline
70
4
71
2
72
6
73
3
40
0
40
0
40
0
40
1
40
1
40
1
41
1
10
23.2584650511514
20
0.229544876239487
30
0
41
1
10
23.3861481361255
20
0.273962093112175
30
0
41
1
10
23.5138312210995
20
0.318379309984863
30
0
0
SPLINE
5
186
100
AcDbEntity
8
1
62
256
6
ByLayer
370
13
48
1
60
0
100
AcDbSpline
70
4
71
3
72
8
73
4
40
0
40
0
40
0
40
0
40
1
40
1
40
1
40
1
41
1
10
23.2795071601749
20
0.0064088155028514
30
0
41
1
10
23.2726733927641
20
0.0788210724590215
30
0
41
1
10
23.2656632744916
20
0.153320346920367
30
0
41
1
10
23.2584650511514
20
0.229544876239487
30
0
0
SPLINE
5
187
100
AcDbEntity
8
1
62
256
6
ByLayer
370
18
48
1
60
0
100
AcDbSpline
70
4
71
3
72
30
73
26
40
0
40
0
40
0
40
0
40
0.0624999999999998
40
0.0624999999999998
40
0.0937499999999998
40
0.0937499999999998
40
0.125
40
0.125
40
0.15625
40
0.15625
40
0.1875
40
0.1875
40
0.25
40
0.25
40
0.5
40
0.5
40
0.75
40
0.75
40
0.875
40
0.875
40
0.9375
40
0.9375
40
0.96875
40
0.96875
40
1
40
1
40
1
40
1
41
1
10
31.07
20
0.947138077138447
30
0
41
1
10
31.0700000000001
20
0.922967505419365
30
0
41
1
10
31.0700000000001
20
0.89961628528539
30
0
41
1
10
31.0700000000001
20
0.865840707975735
30
0
41
1
10
31.0700000000001
20
0.854789983886548
30
0
41
1
10
31.0700000000001
20
0.83311259689151
30
0
41
1
10
31.0700000000001
20
0.822577108254109
30
0
41
1
10
31.0700000000001
20
0.802303270129357
30
0
41
1
10
31.07
20
0.792546922985395
30
0
41
1
10
31.07
20
0.773750200066814
30
0
41
1
10
31.0700000000001
20
0.764547128093227
30
0
41
1
10
31.0700000000001
20
0.736889421843301
30
0
41
1
10
31.0700000000001
20
0.718574894382641
30
0
41
1
10
31.07
20
0.627709145031957
30
0
41
1
10
31.07
20
0.557197060399687
30
0
41
1
10
31.07
20
0.42053655949519
30
0
41
1
10
31.07
20
0.354332303267569
30
0
41
1
10
31.07
20
0.258709526626717
30
0
41
1
10
31.07
20
0.227437767031859
30
0
41
1
10
31.07
20
0.181434770544996
30
0
41
1
10
31.0700000000001
20
0.166246719230088
30
0
41
1
10
31.0700000000001
20
0.143718406631791
30
0
41
1
10
31.07
20
0.136149665410272
30
0
41
1
10
31.0700000000001
20
0.121873475843472
30
0
41
1
10
31.0700000000001
20
0.115247549996326
30
0
41
1
10
31.0700000000001
20
0.109053223063881
30
0
0
SPLINE
5
188
100
AcDbEntity
8
1
62
256
6
ByLayer
370
18
48
1
60
0
100
AcDbSpline
70
4
71
3
72
18
73
14
40
0
40
0
40
0
40
0
40
0.125000000000009
40
0.125000000000009
40
0.187500000000013
40
0.187500000000013
40
0.250000000000017
40
0.250000000000017
40
0.500000000000012
40
0.500000000000012
40
0.750000000000006
40
0.750000000000006
40
1
40
1
40
1
40
1
41
1
10
30.6632489330278
20
1.33710494839994
30
0
41
1
10
30.6809048422906
20
1.32128222418751
30
0
41
1
10
30.6987092742696
20
1.30513372377226
30
0
41
1
10
30.7255447474232
20
1.28053911033726
30
0
41
1
10
30.73452945734
20
1.27225537858592
30
0
41
1
10
30.7524633606442
20
1.25568879808293
30
0
41
1
10
30.7613842671296
20
1.24744656715936
30
0
41
1
10
30.8057265662943
20
1.20645382374585
30
0
41
1
10
30.8405195054114
20
1.17413485745453
30
0
41
1
10
30.908749524699
20
1.109654007079
30
0
41
1
10
30.9421893355644
20
1.07749522899297
30
0
41
1
10
31.0074732979651
20
1.01274123959735
30
0
41
1
10
31.0393261940444
20
0.980154381376622
30
0
41
1
10
31.0700000000001
20
0.947138077138476
30
0
0
SPLINE
5
189
100
AcDbEntity
8
1
62
256
6
ByLayer
370
18
48
1
60
0
100
AcDbSpline
70
4
71
3
72
10
73
6
40
0
40
0
40
0
40
0
40
0.5
40
0.5
40
1
40
1
40
1
40
1
41
1
10
30.6632489330278
20
1.33710494839994
30
0
41
1
10
30.5929178686499
20
1.34736326128143
30
0
41
1
10
30.5232375055792
20
1.35377925361718
30
0
41
1
10
30.384837025423
20
1.35840604292318
30
0
41
1
10
30.3161361560531
20
1.35658801615676
30
0
41
1
10
30.2475358221351
20
1.3505092206635
30
0
0
SPLINE
5
18A
100
AcDbEntity
8
1
62
256
6
ByLayer
370
18
48
1
60
0
100
AcDbSpline
70
4
71
3
72
8
73
4
40
0
40
0
40
0
40
0
40
1
40
1
40
1
40
1
41
1
10
30.247535822135
20
1.35050922066327
30
0
41
1
10
30.2203238623082
20
1.29789325981011
30
0
41
1
10
30.192932326713
20
1.24466060004238
30
0
41
1
10
30.1652742782509
20
1.19082058687908
30
0
0
SPLINE
5
18B
100
AcDbEntity
8
1
62
256
6
ByLayer
370
18
48
1
60
0
100
AcDbSpline
70
4
71
3
72
8
73
4
40
0
40
0
40
0
40
0
40
1
40
1
40
1
40
1
41
1
10
24.4285550361956
20
-1.25263536791766
30
0
41
1
10
24.4551546450211
20
-1.27350203583734
30
0
41
1
10
24.4818247794782
20
-1.29391995479767
30
0
41
1
10
24.5083695397772
20
-1.31371673866926
30
0
0
SPLINE
5
18C
100
AcDbEntity
8
1
62
256
6
ByLayer
370
18
48
1
60
0
100
AcDbSpline
70
4
71
3
72
10
73
6
40
0
40
0
40
0
40
0
40
0.5
40
0.5
40
1
40
1
40
1
40
1
41
1
10
24.4285550361956
20
-1.25263536791769
30
0
41
1
10
24.3817349916072
20
-1.15316416233839
30
0
41
1
10
24.3344380713779
20
-1.05469036941676
30
0
41
1
10
24.2381984518722
20
-0.860346800742292
30
0
41
1
10
24.1896666413499
20
-0.765288861592552
30
0
41
1
10
24.1402901499466
20
-0.672635740758238
30
0
0
SPLINE
5
18D
100
AcDbEntity
8
1
62
256
6
ByLayer
370
18
48
1
60
0
100
AcDbSpline
70
4
71
3
72
28
73
24
40
0
40
0
40
0
40
0
40
0.124999999999976
40
0.124999999999976
40
0.249999999999951
40
0.249999999999951
40
0.374999999999927
40
0.374999999999927
40
0.437499999999914
40
0.437499999999914
40
0.499999999999902
40
0.499999999999902
40
0.624999999999926
40
0.624999999999926
40
0.749999999999951
40
0.749999999999951
40
0.812499999999963
40
0.812499999999963
40
0.874999999999975
40
0.874999999999975
40
0.937499999999988
40
0.937499999999988
40
1
40
1
40
1
40
1
41
1
10
24.1402901499466
20
-0.672635740758238
30
0
41
1
10
24.1342174157504
20
-0.661240484447234
30
0
41
1
10
24.1272094617951
20
-0.650200800799666
30
0
41
1
10
24.1117409235455
20
-0.628689778862906
30
0
41
1
10
24.1032106584779
20
-0.618165601664259
30
0
41
1
10
24.0853735299735
20
-0.598270276506241
30
0
41
1
10
24.0760144814753
20
-0.588818250835402
30
0
41
1
10
24.061361819971
20
-0.575336317739527
30
0
41
1
10
24.0563744014863
20
-0.570959361167695
30
0
41
1
10
24.0461906394703
20
-0.562443793447187
30
0
41
1
10
24.0409995530904
20
-0.558311776855447
30
0
41
1
10
24.0253824491888
20
-0.546493066096531
30
0
41
1
10
24.0148277958277
20
-0.539301785149405
30
0
41
1
10
23.9934669127364
20
-0.526432913827222
30
0
41
1
10
23.9825737396818
20
-0.520725385160063
30
0
41
1
10
23.9667980053742
20
-0.513964582582759
30
0
41
1
10
23.9616099372851
20
-0.511996729209841
30
0
41
1
10
23.9514081383404
20
-0.508727947247536
30
0
41
1
10
23.9463906919867
20
-0.507432466398654
30
0
41
1
10
23.9368984779149
20
-0.505712961419903
30
0
41
1
10
23.9323830819387
20
-0.505272699254533
30
0
41
1
10
23.92390673886
20
-0.505399506651855
30
0
41
1
10
23.9199943356189
20
-0.505973484996503
30
0
41
1
10
23.9165466366795
20
-0.507130465141955
30
0
0
SPLINE
5
18E
100
AcDbEntity
8
1
62
256
6
ByLayer
370
18
48
1
60
0
100
AcDbSpline
70
4
71
3
72
10
73
6
40
0
40
0
40
0
40
0
40
0.5
40
0.5
40
1
40
1
40
1
40
1
41
1
10
23.9165466366796
20
-0.507130465141955
30
0
41
1
10
23.8708732233425
20
-0.522457566880263
30
0
41
1
10
23.8256842623613
20
-0.530919002649114
30
0
41
1
10
23.7358281596215
20
-0.53540656697632
30
0
41
1
10
23.691599690547
20
-0.531394271515722
30
0
41
1
10
23.6477820384743
20
-0.521498906683092
30
0
0
SPLINE
5
18F
100
AcDbEntity
8
1
62
256
6
ByLayer
370
18
48
1
60
0
100
AcDbSpline
70
4
71
3
72
8
73
4
40
0
40
0
40
0
40
0
40
1
40
1
40
1
40
1
41
1
10
23.5677558816639
20
-0.436691043661199
30
0
41
1
10
23.5943742800288
20
-0.465089599815968
30
0
41
1
10
23.6210436814482
20
-0.4933645884702
30
0
41
1
10
23.6477820384743
20
-0.521498906683064
30
0
0
SPLINE
5
190
100
AcDbEntity
8
1
62
256
6
ByLayer
370
18
48
1
60
0
100
AcDbSpline
70
4
71
3
72
10
73
6
40
0
40
0
40
0
40
0
40
0.5
40
0.5
40
1
40
1
40
1
40
1
41
1
10
23.5677558816636
20
-0.436691043661057
30
0
41
1
10
23.5208989216421
20
-0.353208890378312
30
0
41
1
10
23.4735813507705
20
-0.274131100023567
30
0
41
1
10
23.377326384216
20
-0.125612623973609
30
0
41
1
10
23.3288125791134
20
-0.0567658460271616
30
0
41
1
10
23.2795071601749
20
0.0064088155028514
30
0
0
SPLINE
5
191
100
AcDbEntity
8
1
62
256
6
ByLayer
370
18
48
1
60
0
100
AcDbSpline
70
4
71
3
72
28
73
24
40
0
40
0
40
0
40
0
40
0.124999999999958
40
0.124999999999958
40
0.249999999999916
40
0.249999999999916
40
0.374999999999873
40
0.374999999999873
40
0.437499999999876
40
0.437499999999876
40
0.499999999999878
40
0.499999999999878
40
0.624999999999883
40
0.624999999999883
40
0.749999999999888
40
0.749999999999888
40
0.812499999999916
40
0.812499999999916
40
0.874999999999944
40
0.874999999999944
40
0.937499999999972
40
0.937499999999972
40
1
40
1
40
1
40
1
41
1
10
23.2795071601749
20
0.0064088155028514
30
0
41
1
10
23.2734313135326
20
0.0141937519947533
30
0
41
1
10
23.2664210677693
20
0.0222719913338949
30
0
41
1
10
23.2509527107447
20
0.038836358508604
30
0
41
1
10
23.2424256931595
20
0.0473781705029239
30
0
41
1
10
23.2246010332471
20
0.0643141934319544
30
0
41
1
10
23.2152511007283
20
0.0727683624023427
30
0
41
1
10
23.2006158189607
20
0.085462384077033
30
0
41
1
10
23.1956347575911
20
0.0896960626255918
30
0
41
1
10
23.1854643059827
20
0.09817680344824
30
0
41
1
10
23.1802783604784
20
0.102420154580443
30
0
41
1
10
23.1646751800244
20
0.114965271490121
30
0
41
1
10
23.1541276971383
20
0.123155771205347
30
0
41
1
10
23.1327704117198
20
0.139232590881591
30
0
41
1
10
23.1218720874209
20
0.147178436085227
30
0
41
1
10
23.1060799406429
20
0.158335235109092
30
0
41
1
10
23.1008851442102
20
0.161944954200436
30
0
41
1
10
23.0906678597651
20
0.168917746753777
30
0
41
1
10
23.085643007832
20
0.17228120633294
30
0
41
1
10
23.0761361628136
20
0.178501065430595
30
0
41
1
10
23.0716132858084
20
0.181386102063755
30
0
41
1
10
23.0631222542451
20
0.186617705596859
30
0
41
1
10
23.059206104804
20
0.188930974549123
30
0
41
1
10
23.0557544530725
20
0.190839337169393
30
0
0
SPLINE
5
192
100
AcDbEntity
8
1
62
256
6
ByLayer
370
18
48
1
60
0
100
AcDbSpline
70
4
71
3
72
8
73
4
40
0
40
0
40
0
40
0
40
1
40
1
40
1
40
1
41
1
10
23.0557544530726
20
0.190839337169393
30
0
41
1
10
23.0389103281494
20
0.200152182402974
30
0
41
1
10
23.0221108095423
20
0.210350545322257
30
0
41
1
10
23.00534854575
20
0.2214072910553
30
0
0
SPLINE
5
193
100
AcDbEntity
8
1
62
256
6
ByLayer
370
18
48
1
60
0
100
AcDbSpline
70
4
71
3
72
8
73
4
40
0
40
0
40
0
40
0
40
1
40
1
40
1
40
1
41
1
10
23.0053485457499
20
0.2214072910553
30
0
41
1
10
23.0007813053561
20
0.223418130234478
30
0
41
1
10
22.9963486617082
20
0.225446307618256
30
0
41
1
10
22.9920413929099
20
0.227490120115164
30
0
0
SPLINE
5
194
100
AcDbEntity
8
1
62
256
6
ByLayer
370
18
48
1
60
0
100
AcDbSpline
70
4
71
3
72
8
73
4
40
0
40
0
40
0
40
0
40
1
40
1
40
1
40
1
41
1
10
22.9516065584264
20
0.249107962295994
30
0
41
1
10
22.9438173927952
20
0.253788609218958
30
0
41
1
10
22.936489633901
20
0.258523501213432
30
0
41
1
10
22.929550469811
20
0.263304078178294
30
0
0
SPLINE
5
195
100
AcDbEntity
8
1
62
256
6
ByLayer
370
18
48
1
60
0
100
AcDbSpline
70
4
71
3
72
18
73
14
40
0
40
0
40
0
40
0
40
0.250000000000003
40
0.250000000000003
40
0.500000000000007
40
0.500000000000007
40
0.625000000000008
40
0.625000000000008
40
0.687500000000009
40
0.687500000000009
40
0.750000000000009
40
0.750000000000009
40
1
40
1
40
1
40
1
41
1
10
22.9295504698047
20
0.263304078183978
30
0
41
1
10
22.8735330950862
20
0.325162702857995
30
0
41
1
10
22.817303333726
20
0.383216829701127
30
0
41
1
10
22.7037891210135
20
0.49146212429244
30
0
41
1
10
22.6465084937349
20
0.5416553602916
30
0
41
1
10
22.5592033553523
20
0.610576598267102
30
0
41
1
10
22.5298696124745
20
0.632486174472547
30
0
41
1
10
22.4854254840645
20
0.663661976311545
30
0
41
1
10
22.4705366305983
20
0.673772164987582
30
0
41
1
10
22.440591513805
20
0.693409424291275
30
0
41
1
10
22.4255431281686
20
0.702930064387829
30
0
41
1
10
22.3502292553544
20
0.748829994278282
30
0
41
1
10
22.2894985378786
20
0.780357983677533
30
0
41
1
10
22.2278897973282
20
0.806464658770579
30
0
0
SPLINE
5
196
100
AcDbEntity
8
1
62
256
6
ByLayer
370
18
48
1
60
0
100
AcDbSpline
70
4
71
3
72
12
73
8
40
0
40
0
40
0
40
0
40
0.5
40
0.5
40
0.75
40
0.75
40
1
40
1
40
1
40
1
41
1
10
22.2278897973279
20
0.806464658770636
30
0
41
1
10
22.1818800351543
20
0.825961274046989
30
0
41
1
10
22.1328379310326
20
0.846496401862538
30
0
41
1
10
22.0553835407154
20
0.879950080393144
30
0
41
1
10
22.0289140283347
20
0.891556420067218
30
0
41
1
10
21.974748457437
20
0.916024419526423
30
0
41
1
10
21.9470517884405
20
0.928889722204076
30
0
41
1
10
21.9188669523818
20
0.942682499179455
30
0
0
SPLINE
5
197
100
AcDbEntity
8
1
62
256
6
ByLayer
370
18
48
1
60
0
100
AcDbSpline
70
4
71
3
72
37
73
33
40
0
40
0
40
0
40
0
40
0.0980175871557825
40
0.0980175871557825
40
0.196035174311565
40
0.196035174311565
40
0.294052761467347
40
0.294052761467347
40
0.343061555045236
40
0.367565951834183
40
0.367565951834183
40
0.39207034862313
40
0.39207034862313
40
0.441079142201029
40
0.441079142201029
40
0.490087935778929
40
0.490087935778929
40
0.588105522934722
40
0.588105522934722
40
0.686123110090516
40
0.686123110090516
40
0.735131903668415
40
0.735131903668415
40
0.759636300457362
40
0.759636300457362
40
0.784140697246309
40
0.784140697246309
40
0.882158284402103
40
0.882158284402103
40
0.980175871557896
40
0.980175871557896
40
1
40
1
40
1
40
1
41
1
10
21.9188669523819
20
0.942682499179455
30
0
41
1
10
21.8409997774758
20
0.980788258423445
30
0
41
1
10
21.7637590819845
20
1.01545040208782
30
0
41
1
10
21.609945312124
20
1.07759997844289
30
0
41
1
10
21.5333686072167
20
1.10507545135408
30
0
41
1
10
21.3799893538015
20
1.15237086753811
30
0
41
1
10
21.3031194066903
20
1.17218275788755
30
0
41
1
10
21.187623408034
20
1.19611968113563
30
0
41
1
10
21.1298052996237
20
1.20662581155767
30
0
41
1
10
21.0717580841788
20
1.21485738471918
30
0
41
1
10
21.0329947225182
20
1.21983141930866
30
0
41
1
10
21.0135571547746
20
1.22206375178911
30
0
41
1
10
20.9553195979694
20
1.2279599070639
30
0
41
1
10
20.916621441648
20
1.23082335053806
30
0
41
1
10
20.839372844815
20
1.23445052185065
30
0
41
1
10
20.8008069122459
20
1.2352149778489
30
0
41
1
10
20.6853193427747
20
1.23441529859261
30
0
41
1
10
20.6087303847642
20
1.22974243973329
30
0
41
1
10
20.4554729428092
20
1.21220061236645
30
0
41
1
10
20.3787937309392
20
1.19933900847553
30
0
41
1
10
20.2631587625903
20
1.17403821661327
30
0
41
1
10
20.2245402203741
20
1.16459221318351
30
0
41
1
10
20.1664316521015
20
1.14891225775693
30
0
41
1
10
20.1470375787774
20
1.14343117527389
30
0
41
1
10
20.1081986474947
20
1.13195404357001
30
0
41
1
10
20.0887413816295
20
1.12595469273421
30
0
41
1
10
19.9917493900614
20
1.09483091940092
30
0
41
1
10
19.9147439815988
20
1.06622286230083
30
0
41
1
10
19.7610284233648
20
1.00236867535389
30
0
41
1
10
19.6842314172342
20
0.967209400429937
30
0
41
1
10
19.5920354713695
20
0.921034548297797
30
0
41
1
10
19.5765271502324
20
0.913135633884337
30
0
41
1
10
19.5610169998815
20
0.905108340029187
30
0
0
SPLINE
5
198
100
AcDbEntity
8
1
62
256
6
ByLayer
370
18
48
1
60
0
100
AcDbSpline
70
4
71
3
72
56
73
52
40
0
40
0
40
0
40
0
40
0.0136647407623232
40
0.0136647407623232
40
0.0547620432305622
40
0.0547620432305622
40
0.0958593456988013
40
0.0958593456988013
40
0.13695664816704
40
0.13695664816704
40
0.15750529940116
40
0.15750529940116
40
0.178053950635279
40
0.178053950635279
40
0.219151253103518
40
0.219151253103518
40
0.260248555571758
40
0.260248555571758
40
0.342443160508232
40
0.342443160508232
40
0.383540462976467
40
0.383540462976467
40
0.424637765444703
40
0.424637765444703
40
0.506832370381173
40
0.506832370381173
40
0.527381021615291
40
0.527381021615291
40
0.547929672849409
40
0.547929672849409
40
0.568478324083526
40
0.568478324083526
40
0.589026975317644
40
0.589026975317644
40
0.671221580254111
40
0.671221580254111
40
0.712318882722346
40
0.712318882722346
40
0.753416185190581
40
0.753416185190581
40
0.794513487658816
40
0.794513487658816
40
0.815062138892934
40
0.815062138892934
40
0.835610790127052
40
0.835610790127052
40
0.917805395063526
40
0.917805395063526
40
0.958902697531763
40
0.958902697531763
40
1
40
1
40
1
40
1
41
1
10
18.347036805071
20
1.23500052706274
30
0
41
1
10
18.3632413734063
20
1.2349960859701
30
0
41
1
10
18.3794360112602
20
1.23480898218619
30
0
41
1
10
18.4442943706909
20
1.23332935414643
30
0
41
1
10
18.4928993440408
20
1.2305666275698
30
0
41
1
10
18.5902423340844
20
1.22177491553296
30
0
41
1
10
18.6389797441331
20
1.21575533282956
30
0
41
1
10
18.7363842939308
20
1.20036798908333
30
0
41
1
10
18.7851714028414
20
1.19102265090396
30
0
41
1
10
18.858740044819
20
1.17459697671677
30
0
41
1
10
18.8833180077131
20
1.16871775791921
30
0
41
1
10
18.932584486472
20
1.15614487542553
30
0
41
1
10
18.9573023091954
20
1.14944100975436
30
0
41
1
10
19.0312067166724
20
1.12821545326588
30
0
41
1
10
19.0802548340985
20
1.11256341831017
30
0
41
1
10
19.1779030185255
20
1.07827956613897
30
0
41
1
10
19.2265113665983
20
1.05964414149779
30
0
41
1
10
19.3724871603108
20
0.999858410979385
30
0
41
1
10
19.4697961305636
20
0.954734437102161
30
0
41
1
10
19.6159449122141
20
0.879314513246925
30
0
41
1
10
19.6647094142249
20
0.852893495401986
30
0
41
1
10
19.7624740777256
20
0.797566243534249
30
0
41
1
10
19.8115060093206
20
0.768688828550097
30
0
41
1
10
19.9595562939812
20
0.678897062221836
30
0
41
1
10
20.0579104155108
20
0.615368864093995
30
0
41
1
10
20.1809964999633
20
0.532097844530597
30
0
41
1
10
20.2056424552827
20
0.515276686116266
30
0
41
1
10
20.2547428647827
20
0.480991920957678
30
0
41
1
10
20.2792000124264
20
0.463528348953133
30
0
41
1
10
20.3283431230997
20
0.428465026781879
30
0
41
1
10
20.3530156956302
20
0.410951356471287
30
0
41
1
10
20.402221289964
20
0.375737080246182
30
0
41
1
10
20.4267657316141
20
0.358017013678108
30
0
41
1
10
20.5492866367807
20
0.268971753209627
30
0
41
1
10
20.6466867404598
20
0.196350344617514
30
0
41
1
10
20.7923802843325
20
0.0860314761621339
30
0
41
1
10
20.840880901019
20
0.0490314802563603
30
0
41
1
10
20.9382214034251
20
-0.0247977302352069
30
0
41
1
10
20.9870301565082
20
-0.0616678412178828
30
0
41
1
10
21.0848941169983
20
-0.135361312276388
30
0
41
1
10
21.1339455835871
20
-0.172189938807918
30
0
41
1
10
21.2077803833496
20
-0.227304978218427
30
0
41
1
10
21.2324589754156
20
-0.24567837664614
30
0
41
1
10
21.2816687764729
20
-0.282180363479114
30
0
41
1
10
21.3062270389492
20
-0.300321686294581
30
0
41
1
10
21.4289223670245
20
-0.390307888557601
30
0
41
1
10
21.5266790584719
20
-0.460115883605084
30
0
41
1
10
21.6736418423133
20
-0.5604816469897
30
0
41
1
10
21.7226738904269
20
-0.593226853907851
30
0
41
1
10
21.8206709725404
20
-0.657454274144214
30
0
41
1
10
21.8695298274654
20
-0.689047775599789
30
0
41
1
10
21.9188669523818
20
-0.719416176967655
30
0
0
SPLINE
5
199
100
AcDbEntity
8
1
62
256
6
ByLayer
370
18
48
1
60
0
100
AcDbSpline
70
4
71
3
72
14
73
10
40
0
40
0
40
0
40
0
40
0.25
40
0.25
40
0.5
40
0.5
40
0.75
40
0.75
40
1
40
1
40
1
40
1
41
1
10
21.9188669523819
20
-0.719416176967655
30
0
41
1
10
21.9451674571877
20
-0.735604884507353
30
0
41
1
10
21.9714885488492
20
-0.752207663778194
30
0
41
1
10
22.0238214695384
20
-0.786661464722954
30
0
41
1
10
22.0498379784531
20
-0.804503801854651
30
0
41
1
10
22.1015217869781
20
-0.841560160119514
30
0
41
1
10
22.1272212482551
20
-0.860744454974707
30
0
41
1
10
22.1781196997024
20
-0.900807217513488
30
0
41
1
10
22.2032423763471
20
-0.921752110735753
30
0
41
1
10
22.2278897973279
20
-0.943852314893462
30
0
0
SPLINE
5
19A
100
AcDbEntity
8
1
62
256
6
ByLayer
370
18
48
1
60
0
100
AcDbSpline
70
4
71
3
72
18
73
14
40
0
40
0
40
0
40
0
40
0.249999999999993
40
0.249999999999993
40
0.37499999999999
40
0.37499999999999
40
0.499999999999987
40
0.499999999999987
40
0.749999999999993
40
0.749999999999993
40
0.874999999999997
40
0.874999999999997
40
1
40
1
40
1
40
1
41
1
10
22.2278897973279
20
-0.943852314893462
30
0
41
1
10
22.2942228193633
20
-1.00333007244558
30
0
41
1
10
22.3588870303063
20
-1.06307527654064
30
0
41
1
10
22.4539380183199
20
-1.15249569699728
30
0
41
1
10
22.4853263904373
20
-1.18225300425803
30
0
41
1
10
22.5476894368108
20
-1.24153153540502
30
0
41
1
10
22.5786487914789
20
-1.27106137183614
30
0
41
1
10
22.670953586915
20
-1.35920828012897
30
0
41
1
10
22.7317484068244
20
-1.41737312015545
30
0
41
1
10
22.8222593688397
20
-1.50321264658515
30
0
41
1
10
22.8521833672306
20
-1.53146862595716
30
0
41
1
10
22.9114692310371
20
-1.58708481108982
30
0
41
1
10
22.9408473968621
20
-1.6144630496004
30
0
41
1
10
22.97
20
-1.6413724394485
30
0
0
SPLINE
5
19B
100
AcDbEntity
8
1
62
256
6
ByLayer
370
18
48
1
60
0
100
AcDbSpline
70
4
71
3
72
8
73
4
40
0
40
0
40
0
40
0
40
1
40
1
40
1
40
1
41
1
10
22.97
20
-1.64137243944873
30
0
41
1
10
22.97
20
-1.64542638955274
30
0
41
1
10
22.97
20
-1.64948007259554
30
0
41
1
10
22.97
20
-1.6535334884089
30
0
0
SPLINE
5
19C
100
AcDbEntity
8
1
62
256
6
ByLayer
370
18
48
1
60
0
100
AcDbSpline
70
4
71
3
72
26
73
22
40
0
40
0
40
0
40
0
40
0.125000000000014
40
0.125000000000014
40
0.250000000000028
40
0.250000000000028
40
0.375000000000042
40
0.375000000000042
40
0.500000000000057
40
0.500000000000057
40
0.625000000000071
40
0.625000000000071
40
0.687500000000052
40
0.687500000000052
40
0.750000000000032
40
0.750000000000032
40
0.812500000000013
40
0.812500000000013
40
0.874999999999994
40
0.874999999999994
40
1
40
1
40
1
40
1
41
1
10
30.1380710205996
20
0.793579148461021
30
0
41
1
10
30.1443390403167
20
0.782153182001196
30
0
41
1
10
30.1516056903421
20
0.771201177250816
30
0
41
1
10
30.1676338316776
20
0.750014578030886
30
0
41
1
10
30.1764779139346
20
0.739719603066675
30
0
41
1
10
30.1948518462019
20
0.720453633933033
30
0
41
1
10
30.2044450800372
20
0.71139528009644
30
0
41
1
10
30.2243638618307
20
0.694331207516797
30
0
41
1
10
30.2347746245206
20
0.686276480397879
30
0
41
1
10
30.2556119128318
20
0.671740203006152
30
0
41
1
10
30.2660948309305
20
0.665194639143948
30
0
41
1
10
30.2818795959806
20
0.656541408041107
30
0
41
1
10
30.2871516218381
20
0.653853382359927
30
0
41
1
10
30.2977111767851
20
0.648915693847925
30
0
41
1
10
30.3029584800203
20
0.646686849089207
30
0
41
1
10
30.3132223226787
20
0.64281177739403
30
0
41
1
10
30.3182608038106
20
0.641154821683699
30
0
41
1
10
30.3281136825339
20
0.638468757885818
30
0
41
1
10
30.3329677492598
20
0.637434622100955
30
0
41
1
10
30.3467645994849
20
0.635517972693833
30
0
41
1
10
30.3549743683507
20
0.635738800203455
30
0
41
1
10
30.3617999736633
20
0.638123400259531
30
0
0
SPLINE
5
19D
100
AcDbEntity
8
1
62
256
6
ByLayer
370
18
48
1
60
0
100
AcDbSpline
70
4
71
3
72
8
73
4
40
0
40
0
40
0
40
0
40
1
40
1
40
1
40
1
41
1
10
30.3617999736633
20
0.638123400259673
30
0
41
1
10
30.36906243969
20
0.640660622396155
30
0
41
1
10
30.3763113597821
20
0.643044143606829
30
0
41
1
10
30.3835471218004
20
0.64526700669478
30
0
0
SPLINE
5
19E
100
AcDbEntity
8
1
62
256
6
ByLayer
370
18
48
1
60
0
100
AcDbSpline
70
4
71
3
72
12
73
8
40
0
40
0
40
0
40
0
40
0.5
40
0.5
40
0.75
40
0.75
40
1
40
1
40
1
40
1
41
1
10
30.3835471218006
20
0.645267006694894
30
0
41
1
10
30.4381287814123
20
0.596721576032166
30
0
41
1
10
30.4931392931697
20
0.547572270810576
30
0
41
1
10
30.5766461900585
20
0.47325925404482
30
0
41
1
10
30.6046472682884
20
0.448387486596061
30
0
41
1
10
30.6606207208976
20
0.398874757147752
30
0
41
1
10
30.6886438653523
20
0.3741869530173
30
0
41
1
10
30.7167174216633
20
0.349583517533631
30
0
0
SPLINE
5
19F
100
AcDbEntity
8
1
62
256
6
ByLayer
370
18
48
1
60
0
100
AcDbSpline
70
4
71
3
72
21
73
17
40
0
40
0
40
0
40
0
40
0.124999999999978
40
0.124999999999978
40
0.249999999999955
40
0.249999999999955
40
0.374999999999933
40
0.437499999999934
40
0.437499999999934
40
0.499999999999936
40
0.499999999999936
40
0.749999999999968
40
0.749999999999968
40
0.874999999999984
40
0.874999999999984
40
1
40
1
40
1
40
1
41
1
10
31.0700000000017
20
0.109053223062119
30
0
41
1
10
31.0541396880924
20
0.108721835401383
30
0
41
1
10
31.0380609315355
20
0.110547990243759
30
0
41
1
10
31.0057585196292
20
0.117694040184176
30
0
41
1
10
30.9898991244658
20
0.122904768315465
30
0
41
1
10
30.9585931626653
20
0.135856944030394
30
0
41
1
10
30.9354276430653
20
0.14749576029638
30
0
41
1
10
30.9126168669633
20
0.161689942884379
30
0
41
1
10
30.8974766197591
20
0.171693696540757
30
0
41
1
10
30.8899429399754
20
0.176966092663264
30
0
41
1
10
30.85280063956
20
0.204335816546376
30
0
41
1
10
30.8244252360761
20
0.229629914372879
30
0
41
1
10
30.7831819363097
20
0.271742906840245
30
0
41
1
10
30.7696598704972
20
0.286488558748744
30
0
41
1
10
30.7429684667002
20
0.317269770714688
30
0
41
1
10
30.7298165726679
20
0.333403486716833
30
0
41
1
10
30.7167174216568
20
0.349583517533119
30
0
0
SPLINE
5
1A0
100
AcDbEntity
8
1
62
256
6
ByLayer
370
18
48
1
60
0
100
AcDbSpline
70
4
71
3
72
8
73
4
40
0
40
0
40
0
40
0
40
1
40
1
40
1
40
1
41
1
10
27.5843261096144
20
-1.04602354386259
30
0
41
1
10
27.6110382382368
20
-1.06984903767511
30
0
41
1
10
27.6377531486838
20
-1.09325310949265
30
0
41
1
10
27.6644888106754
20
-1.11622149404079
30
0
0
SPLINE
5
1A1
100
AcDbEntity
8
1
62
256
6
ByLayer
370
18
48
1
60
0
100
AcDbSpline
70
4
71
3
72
8
73
4
40
0
40
0
40
0
40
0
40
1
40
1
40
1
40
1
41
1
10
25.0025264163063
20
1.468018525649
30
0
41
1
10
25.0291043632784
20
1.45134829174557
30
0
41
1
10
25.0556844798463
20
1.43408610942259
30
0
41
1
10
25.0822851758814
20
1.4162403186246
30
0
0
SPLINE
5
1A2
100
AcDbEntity
8
1
62
256
6
ByLayer
370
18
48
1
60
0
100
AcDbSpline
70
4
71
3
72
8
73
4
40
0
40
0
40
0
40
0
40
1
40
1
40
1
40
1
41
1
10
24.1417661920454
20
1.78159496147882
30
0
41
1
10
24.1682297453681
20
1.77936441045307
30
0
41
1
10
24.1946970182518
20
1.77642447320906
30
0
41
1
10
24.2211849616393
20
1.7727749138929
30
0
0
SPLINE
5
1A3
100
AcDbEntity
8
1
62
256
6
ByLayer
370
18
48
1
60
0
100
AcDbSpline
70
4
71
3
72
14
73
10
40
0
40
0
40
0
40
0
40
0.459970238519363
40
0.459970238519363
40
0.729985119259682
40
0.729985119259682
40
0.864992559629841
40
0.864992559629841
40
1
40
1
40
1
40
1
41
1
10
19.0758701310411
20
-1.23499574202853
30
0
41
1
10
18.9441747772857
20
-1.23502549046833
30
0
41
1
10
18.8139840785107
20
-1.22289400546117
30
0
41
1
10
18.6064406260074
20
-1.18530398525417
30
0
41
1
10
18.5295910494618
20
-1.1674151628298
30
0
41
1
10
18.4140120611795
20
-1.13452983111671
30
0
41
1
10
18.3754147603549
20
-1.12256567240362
30
0
41
1
10
18.2979587673179
20
-1.09666162752921
30
0
41
1
10
18.2590355894417
20
-1.08269267708334
30
0
41
1
10
18.2202881555928
20
-1.06789743011669
30
0
0
SPLINE
5
1A4
100
AcDbEntity
8
1
62
256
6
ByLayer
370
18
48
1
60
0
100
AcDbSpline
70
4
71
3
72
18
73
14
40
0
40
0
40
0
40
0
40
0.237699183024804
40
0.237699183024804
40
0.475398366049609
40
0.475398366049609
40
0.594247957562011
40
0.594247957562011
40
0.713097549074413
40
0.713097549074413
40
0.950796732099217
40
0.950796732099217
40
1
40
1
40
1
40
1
41
1
10
17.2230252361653
20
-1.15677710404972
30
0
41
1
10
17.2722019948749
20
-1.14380910598646
30
0
41
1
10
17.3211343514146
20
-1.12929321475144
30
0
41
1
10
17.4187351166672
20
-1.09730254716521
30
0
41
1
10
17.4673839215485
20
-1.07981353694871
30
0
41
1
10
17.5404229251662
20
-1.05154883896401
30
0
41
1
10
17.5647208536089
20
-1.04174919829509
30
0
41
1
10
17.613215121139
20
-1.02137704644699
30
0
41
1
10
17.6374719612385
20
-1.01084845430017
30
0
41
1
10
17.7103705237003
20
-0.978318453587093
30
0
41
1
10
17.7591683739903
20
-0.955402999433062
30
0
41
1
10
17.8181706447656
20
-0.926156058143221
30
0
41
1
10
17.8282933695783
20
-0.921083917352775
30
0
41
1
10
17.8384203526089
20
-0.915955406731428
30
0
0
SPLINE
5
1A5
100
AcDbEntity
8
1
62
256
6
ByLayer
370
18
48
1
60
0
100
AcDbSpline
70
4
71
3
72
10
73
6
40
0
40
0
40
0
40
0
40
0.0680351050898225
40
0.0680351050898225
40
1
40
1
40
1
40
1
41
1
10
21.7609409825686
20
1.23499974777076
30
0
41
1
10
21.7645182905546
20
1.2349976666714
30
0
41
1
10
21.7680954503031
20
1.23498664582104
30
0
41
1
10
21.8206709725404
20
1.23469309065484
30
0
41
1
10
21.8695298274654
20
1.23271055985336
30
0
41
1
10
21.9188669523819
20
1.22904635592519
30
0
0
SPLINE
5
1A6
100
AcDbEntity
8
1
62
256
6
ByLayer
370
18
48
1
60
0
100
AcDbSpline
70
4
71
3
72
14
73
10
40
0
40
0
40
0
40
0
40
0.25
40
0.25
40
0.5
40
0.5
40
0.75
40
0.75
40
1
40
1
40
1
40
1
41
1
10
21.9188669523818
20
1.22904635592519
30
0
41
1
10
21.9451674571877
20
1.22709305173115
30
0
41
1
10
21.9714885488491
20
1.22642121951276
30
0
41
1
10
22.0238214695384
20
1.22769897799316
30
0
41
1
10
22.0498379784531
20
1.22963878433001
30
0
41
1
10
22.1015217869781
20
1.23636775022331
30
0
41
1
10
22.1272212482551
20
1.2411773983016
30
0
41
1
10
22.1781196997024
20
1.25408467862781
30
0
41
1
10
22.2032423763471
20
1.26212166126723
30
0
41
1
10
22.2278897973279
20
1.27195285676325
30
0
0
SPLINE
5
1A7
100
AcDbEntity
8
1
62
256
6
ByLayer
370
18
48
1
60
0
100
AcDbSpline
70
4
71
3
72
18
73
14
40
0
40
0
40
0
40
0
40
0.250000000000004
40
0.250000000000004
40
0.375000000000005
40
0.375000000000005
40
0.500000000000007
40
0.500000000000007
40
0.749999999999997
40
0.749999999999997
40
0.874999999999998
40
0.874999999999998
40
1
40
1
40
1
40
1
41
1
10
22.2278897973279
20
1.27195285676322
30
0
41
1
10
22.2942228193633
20
1.29841132103744
30
0
41
1
10
22.3588870303064
20
1.32076663591437
30
0
41
1
10
22.4539380183199
20
1.34782999554278
30
0
41
1
10
22.4853263904373
20
1.35580434339744
30
0
41
1
10
22.5476894368108
20
1.36973420548694
30
0
41
1
10
22.5786487914789
20
1.37567244983316
30
0
41
1
10
22.670953586915
20
1.39030719341059
30
0
41
1
10
22.7317484068244
20
1.39585950809686
30
0
41
1
10
22.8222593688397
20
1.39748805266592
30
0
41
1
10
22.8521833672306
20
1.39690468893417
30
0
41
1
10
22.911469231037
20
1.39342571708977
30
0
41
1
10
22.9408473968623
20
1.3905265109866
30
0
41
1
10
22.9700000000002
20
1.38645185715384
30
0
0
SPLINE
5
1A8
100
AcDbEntity
8
1
62
256
6
ByLayer
370
18
48
1
60
0
100
AcDbSpline
70
4
71
3
72
16
73
12
40
0
40
0
40
0
40
0
40
0.249999999999996
40
0.249999999999996
40
0.499999999999992
40
0.499999999999992
40
0.749999999999988
40
0.749999999999988
40
0.874999999999994
40
0.874999999999994
40
1
40
1
40
1
40
1
41
1
10
23.5402337164274
20
0.939113371496859
30
0
41
1
10
23.4927568106616
20
0.983657754130462
30
0
41
1
10
23.4455219081281
20
1.0269455071103
30
0
41
1
10
23.3507809720483
20
1.11047507810429
30
0
41
1
10
23.3033866196018
20
1.15080425830203
30
0
41
1
10
23.208452038229
20
1.22852678638415
30
0
41
1
10
23.160864747081
20
1.26588803153206
30
0
41
1
10
23.0892326947176
20
1.31960890206551
30
0
41
1
10
23.065337640415
20
1.33714756999464
30
0
41
1
10
23.0176150812387
20
1.37151598569739
30
0
41
1
10
22.9938240029432
20
1.38829094010936
30
0
41
1
10
22.97
20
1.40459568209664
30
0
0
SPLINE
5
1A9
100
AcDbEntity
8
1
62
256
6
ByLayer
370
18
48
1
60
0
100
AcDbSpline
70
4
71
3
72
10
73
6
40
0
40
0
40
0
40
0
40
0.5
40
0.5
40
1
40
1
40
1
40
1
41
1
10
23.5402337164271
20
0.939113371490237
30
0
41
1
10
23.5866542400146
20
0.846663364400229
30
0
41
1
10
23.633646922117
20
0.756997806925227
30
0
41
1
10
23.7294574641202
20
0.583817629226104
30
0
41
1
10
23.7778454424418
20
0.501028950084276
30
0
41
1
10
23.8271688641963
20
0.422343236775191
30
0
0
SPLINE
5
1AA
100
AcDbEntity
8
1
62
256
6
ByLayer
370
18
48
1
60
0
100
AcDbSpline
70
4
71
3
72
28
73
24
40
0
40
0
40
0
40
0
40
0.124999999999981
40
0.124999999999981
40
0.249999999999961
40
0.249999999999961
40
0.374999999999942
40
0.374999999999942
40
0.499999999999922
40
0.499999999999922
40
0.624999999999903
40
0.624999999999903
40
0.687499999999919
40
0.687499999999919
40
0.749999999999935
40
0.749999999999935
40
0.812499999999951
40
0.812499999999951
40
0.874999999999968
40
0.874999999999968
40
0.937499999999984
40
0.937499999999984
40
1
40
1
40
1
40
1
41
1
10
23.8271688641963
20
0.422343236775191
30
0
41
1
10
23.8333912557013
20
0.412416648216691
30
0
41
1
10
23.8405940182475
20
0.402547884055622
30
0
41
1
10
23.856481818943
20
0.382924361390224
30
0
41
1
10
23.8652455371951
20
0.373104223621169
30
0
41
1
10
23.8834767833632
20
0.35419510067527
30
0
41
1
10
23.8930025793968
20
0.345027733329346
30
0
41
1
10
23.9128027494274
20
0.327205456448894
30
0
41
1
10
23.9231692302845
20
0.318482853205808
30
0
41
1
10
23.9439740901593
20
0.302067569315824
30
0
41
1
10
23.9544556095389
20
0.294324854096743
30
0
41
1
10
23.9702593746961
20
0.283433707885166
30
0
41
1
10
23.9755410529816
20
0.279925017204363
30
0
41
1
10
23.9861266506446
20
0.273174062490966
30
0
41
1
10
23.991426367747
20
0.269936827421191
30
0
41
1
10
24.0017749962479
20
0.263914356039095
30
0
41
1
10
24.0068551130648
20
0.261107653723997
30
0
41
1
10
24.0167918158145
20
0.2559521795325
30
0
41
1
10
24.0216849275471
20
0.253587226127252
30
0
41
1
10
24.0309964159505
20
0.249499804091101
30
0
41
1
10
24.0354038078286
20
0.247778792546597
30
0
41
1
10
24.0436450995516
20
0.245089597328018
30
0
41
1
10
24.047503524167
20
0.244117806759249
30
0
41
1
10
24.0509223804395
20
0.243631608959561
30
0
0
SPLINE
5
1AB
100
AcDbEntity
8
1
62
256
6
ByLayer
370
18
48
1
60
0
100
AcDbSpline
70
4
71
3
72
12
73
8
40
0
40
0
40
0
40
0
40
0.5
40
0.5
40
0.75
40
0.75
40
1
40
1
40
1
40
1
41
1
10
24.0509223804395
20
0.243631608959674
30
0
41
1
10
24.0969672045067
20
0.237083544237521
30
0
41
1
10
24.142585501299
20
0.223946987535641
30
0
41
1
10
24.2102484939241
20
0.195332489990562
30
0
41
1
10
24.232675850806
20
0.184301409922796
30
0
41
1
10
24.2771811861149
20
0.159424182490682
30
0
41
1
10
24.2992819642789
20
0.145568021230019
30
0
41
1
10
24.3212640675436
20
0.130324061458367
30
0
0
SPLINE
5
1AC
100
AcDbEntity
8
1
62
256
6
ByLayer
370
18
48
1
60
0
100
AcDbSpline
70
4
71
3
72
8
73
4
40
0
40
0
40
0
40
0
40
1
40
1
40
1
40
1
41
1
10
24.4010033637381
20
0.0429173319600693
30
0
41
1
10
24.3744005996787
20
0.0721339073677996
30
0
41
1
10
24.3478231707288
20
0.101271297780812
30
0
41
1
10
24.3212640675436
20
0.130324061458367
30
0
0
SPLINE
5
1AD
100
AcDbEntity
8
1
62
256
6
ByLayer
370
18
48
1
60
0
100
AcDbSpline
70
4
71
3
72
14
73
10
40
0
40
0
40
0
40
0
40
0.25
40
0.25
40
0.5
40
0.5
40
0.75
40
0.75
40
1
40
1
40
1
40
1
41
1
10
24.4010033637381
20
0.0429173319602114
30
0
41
1
10
24.4242373976969
20
0.0102596647304836
30
0
41
1
10
24.4475923540647
20
-0.0210213592725097
30
0
41
1
10
24.494670873971
20
-0.0806782449014349
30
0
41
1
10
24.5184129950246
20
-0.109027929569635
30
0
41
1
10
24.566226173844
20
-0.163087867685846
30
0
41
1
10
24.5902211073366
20
-0.188654108318616
30
0
41
1
10
24.6386527982398
20
-0.236176394183531
30
0
41
1
10
24.6631092009766
20
-0.258071196780946
30
0
41
1
10
24.6878000433114
20
-0.278339466393476
30
0
0
SPLINE
5
1AE
100
AcDbEntity
8
1
62
256
6
ByLayer
370
18
48
1
60
0
100
AcDbSpline
70
4
71
3
72
8
73
4
40
0
40
0
40
0
40
0
40
1
40
1
40
1
40
1
41
1
10
25.2618911246498
20
-0.866015425238288
30
0
41
1
10
25.2351453671226
20
-0.840342601650178
30
0
41
1
10
25.2084579800206
20
-0.814347862032093
30
0
41
1
10
25.1818265953311
20
-0.788034010930403
30
0
0
SPLINE
5
1AF
100
AcDbEntity
8
1
62
256
6
ByLayer
370
18
48
1
60
0
100
AcDbSpline
70
4
71
3
72
8
73
4
40
0
40
0
40
0
40
0
40
1
40
1
40
1
40
1
41
1
10
26.122272086164
20
-1.53642970153359
30
0
41
1
10
26.0956340335708
20
-1.52146651820891
30
0
41
1
10
26.0689996420513
20
-1.50592568354
30
0
41
1
10
26.0423829881333
20
-1.48980706856966
30
0
0
SPLINE
5
1B0
100
AcDbEntity
8
1
62
256
6
ByLayer
370
18
48
1
60
0
100
AcDbSpline
70
4
71
3
72
8
73
4
40
0
40
0
40
0
40
0
40
1
40
1
40
1
40
1
41
1
10
26.9830128035648
20
-1.78681571688392
30
0
41
1
10
26.9564550649868
20
-1.78664161110979
30
0
41
1
10
26.9299398740468
20
-1.78575703991436
30
0
41
1
10
26.9034639975114
20
-1.78416637962008
30
0
0
SPLINE
5
1B1
100
AcDbEntity
8
1
62
256
6
ByLayer
370
18
48
1
60
0
100
AcDbSpline
70
4
71
3
72
18
73
14
40
0
40
0
40
0
40
0
40
0.231304473632218
40
0.231304473632218
40
0.615652236816109
40
0.615652236816109
40
0.807826118408054
40
0.807826118408054
40
0.903913059204027
40
0.903913059204027
40
0.951956529602013
40
0.951956529602013
40
1
40
1
40
1
40
1
41
1
10
31.07
20
-0.597325085461932
30
0
41
1
10
31.07
20
-0.6137127716446
30
0
41
1
10
31.07
20
-0.631178361392244
30
0
41
1
10
31.07
20
-0.680540459514532
30
0
41
1
10
31.0700000000001
20
-0.714284853348033
30
0
41
1
10
31.0700000000001
20
-0.769213156401548
30
0
41
1
10
31.07
20
-0.788252401267101
30
0
41
1
10
31.0700000000001
20
-0.817870395225924
30
0
41
1
10
31.07
20
-0.827916903807562
30
0
41
1
10
31.07
20
-0.843247100837772
30
0
41
1
10
31.07
20
-0.848294632473483
30
0
41
1
10
31.07
20
-0.859284139730477
30
0
41
1
10
31.0700000000001
20
-0.865317293772733
30
0
41
1
10
31.0700000000001
20
-0.871812085465763
30
0
0
SPLINE
5
1B2
100
AcDbEntity
8
1
62
256
6
ByLayer
370
18
48
1
60
0
100
AcDbSpline
70
4
71
3
72
18
73
14
40
0
40
0
40
0
40
0
40
0.125000000000002
40
0.125000000000002
40
0.187500000000002
40
0.187500000000002
40
0.250000000000002
40
0.250000000000002
40
0.500000000000002
40
0.500000000000002
40
0.750000000000001
40
0.750000000000001
40
1
40
1
40
1
40
1
41
1
10
30.6632489330385
20
-0.469321801309604
30
0
41
1
10
30.6809014653779
20
-0.47194307071257
30
0
41
1
10
30.6986922058538
20
-0.474009643182939
30
0
41
1
10
30.7255960130546
20
-0.47629345119239
30
0
41
1
10
30.7346169825932
20
-0.476871569826841
30
0
41
1
10
30.7526172687378
20
-0.478073047819095
30
0
41
1
10
30.7615669516004
20
-0.478794705122596
30
0
41
1
10
30.806033671375
20
-0.483050337515522
30
0
41
1
10
30.8408738547828
20
-0.487999831897838
30
0
41
1
10
30.9091230464603
20
-0.49968967932304
30
0
41
1
10
30.9425344739429
20
-0.506432793742619
30
0
41
1
10
31.0076971009196
20
-0.521026356695273
30
0
41
1
10
31.0394561488625
20
-0.528881871237701
30
0
41
1
10
31.07
20
-0.537382024127027
30
0
0
SPLINE
5
1B3
100
AcDbEntity
8
1
62
256
6
ByLayer
370
18
48
1
60
0
100
AcDbSpline
70
4
71
3
72
8
73
4
40
0
40
0
40
0
40
0
40
1
40
1
40
1
40
1
41
1
10
30.6632489330416
20
-0.469321801316425
30
0
41
1
10
30.6058734072901
20
-0.434445107051573
30
0
41
1
10
30.5489335460424
20
-0.397544630160979
30
0
41
1
10
30.4923293689133
20
-0.358649600830006
30
0
0
SPLINE
5
1B4
100
AcDbEntity
8
1
62
256
6
ByLayer
370
18
48
1
60
0
100
AcDbSpline
70
4
71
3
72
8
73
4
40
0
40
0
40
0
40
0
40
1
40
1
40
1
40
1
41
1
10
30.4923293689133
20
-0.358649600830006
30
0
41
1
10
30.4790070017631
20
-0.336509837777697
30
0
41
1
10
30.4656332660686
20
-0.314695741157379
30
0
41
1
10
30.4521956998565
20
-0.293222152739901
30
0
0
SPLINE
5
1B5
100
AcDbEntity
8
1
62
256
6
ByLayer
370
18
48
1
60
0
100
AcDbSpline
70
4
71
3
72
28
73
24
40
0
40
0
40
0
40
0
40
0.125000000000025
40
0.125000000000025
40
0.25000000000005
40
0.25000000000005
40
0.375000000000075
40
0.375000000000075
40
0.437500000000087
40
0.437500000000087
40
0.5000000000001
40
0.5000000000001
40
0.625000000000075
40
0.625000000000075
40
0.75000000000005
40
0.75000000000005
40
0.812500000000037
40
0.812500000000037
40
0.875000000000025
40
0.875000000000025
40
0.937500000000012
40
0.937500000000012
40
1
40
1
40
1
40
1
41
1
10
30.4521956998563
20
-0.293222152739702
30
0
41
1
10
30.4461317520796
20
-0.283531802814281
30
0
41
1
10
30.4391342140233
20
-0.273832157952597
30
0
41
1
10
30.4236854686321
20
-0.254451654717883
30
0
41
1
10
30.4151655568053
20
-0.244714968028319
30
0
41
1
10
30.3973477611306
20
-0.225841646540601
30
0
41
1
10
30.3879981941853
20
-0.216633263102523
30
0
41
1
10
30.3733609239023
20
-0.203119766703452
30
0
41
1
10
30.368378575364
20
-0.19866569676617
30
0
41
1
10
30.3582046315488
20
-0.189854959118833
30
0
41
1
10
30.3530170947369
20
-0.185503161326039
30
0
41
1
10
30.3374098442179
20
-0.172811461717174
30
0
41
1
10
30.3268613505346
20
-0.164754131175044
30
0
41
1
10
30.3055019568452
20
-0.149491329921062
30
0
41
1
10
30.2946011646985
20
-0.142238731761751
30
0
41
1
10
30.2787998921322
20
-0.132619055481968
30
0
41
1
10
30.2736011750964
20
-0.129605572186136
30
0
41
1
10
30.2633734323534
20
-0.124026474178521
30
0
41
1
10
30.258343688582
20
-0.12146422721429
30
0
41
1
10
30.2488248468743
20
-0.117035674407504
30
0
41
1
10
30.2442948068173
20
-0.115145168163053
30
0
41
1
10
30.2357883032948
20
-0.112143500986662
30
0
41
1
10
30.2318708778871
20
-0.111056941135473
30
0
41
1
10
30.2284174382429
20
-0.110475003811473
30
0
0
SPLINE
5
1B6
100
AcDbEntity
8
1
62
256
6
ByLayer
370
18
48
1
60
0
100
AcDbSpline
70
4
71
3
72
8
73
4
40
0
40
0
40
0
40
0
40
1
40
1
40
1
40
1
41
1
10
30.2284174382429
20
-0.110475003811501
30
0
41
1
10
30.197287247134
20
-0.105229271447598
30
0
41
1
10
30.1663691091828
20
-0.0968625171104804
30
0
41
1
10
30.1356054123428
20
-0.0855271581992838
30
0
0
SPLINE
5
1B7
100
AcDbEntity
8
1
62
256
6
ByLayer
370
18
48
1
60
0
100
AcDbSpline
70
4
71
3
72
8
73
4
40
0
40
0
40
0
40
0
40
1
40
1
40
1
40
1
41
1
10
29.1287915049002
20
0.87039404533121
30
0
41
1
10
29.0875937430184
20
0.911355231862643
30
0
41
1
10
29.0465885907303
20
0.951962160244221
30
0
41
1
10
29.0057045540074
20
0.992141534231365
30
0
0
SPLINE
5
1B8
100
AcDbEntity
8
1
62
256
6
ByLayer
370
18
48
1
60
0
100
AcDbSpline
70
4
71
3
72
8
73
4
40
0
40
0
40
0
40
0
40
1
40
1
40
1
40
1
41
1
10
28.1582342692695
20
1.60497219554745
30
0
41
1
10
28.1849251406388
20
1.59206741298612
30
0
41
1
10
28.2115872620251
20
1.57852675582814
30
0
41
1
10
28.238237874948
20
1.56436023615174
30
0
0
SPLINE
5
1B9
100
AcDbEntity
8
1
62
256
6
ByLayer
370
18
48
1
60
0
100
AcDbSpline
70
4
71
3
72
8
73
4
40
0
40
0
40
0
40
0
40
1
40
1
40
1
40
1
41
1
10
22.4051833002442
20
-1.42722718950759
30
0
41
1
10
22.3466733962326
20
-1.39198780392388
30
0
41
1
10
22.2876932581634
20
-1.35253818337259
30
0
41
1
10
22.2278897973282
20
-1.30898984631952
30
0
0
SPLINE
5
1BA
100
AcDbEntity
8
1
62
256
6
ByLayer
370
18
48
1
60
0
100
AcDbSpline
70
4
71
3
72
12
73
8
40
0
40
0
40
0
40
0
40
0.499999999999982
40
0.499999999999982
40
0.749999999999991
40
0.749999999999991
40
1
40
1
40
1
40
1
41
1
10
22.2278897973279
20
-1.30898984631907
30
0
41
1
10
22.1818800351543
20
-1.27548595535885
30
0
41
1
10
22.1328379310326
20
-1.24626723765343
30
0
41
1
10
22.0553835407154
20
-1.2092242843006
30
0
41
1
10
22.0289140283347
20
-1.19802351372024
30
0
41
1
10
21.9747484574369
20
-1.17817017718485
30
0
41
1
10
21.9470517884405
20
-1.16952182408386
30
0
41
1
10
21.9188669523818
20
-1.16230509039875
30
0
0
SPLINE
5
1BB
100
AcDbEntity
8
1
62
256
6
ByLayer
370
18
48
1
60
0
100
AcDbSpline
70
4
71
3
72
49
73
45
40
0
40
0
40
0
40
0
40
0.0624999999999962
40
0.0624999999999962
40
0.124999999999992
40
0.124999999999992
40
0.187499999999989
40
0.187499999999989
40
0.218749999999985
40
0.234374999999985
40
0.234374999999985
40
0.249999999999985
40
0.249999999999985
40
0.281249999999985
40
0.281249999999985
40
0.312499999999985
40
0.312499999999985
40
0.374999999999984
40
0.374999999999984
40
0.437499999999984
40
0.437499999999984
40
0.468749999999984
40
0.468749999999984
40
0.484374999999984
40
0.484374999999984
40
0.499999999999984
40
0.499999999999984
40
0.562499999999984
40
0.562499999999984
40
0.624999999999983
40
0.624999999999983
40
0.687499999999983
40
0.687499999999983
40
0.718749999999983
40
0.718749999999983
40
0.749999999999983
40
0.749999999999983
40
0.874999999999993
40
0.874999999999993
40
0.937499999999997
40
0.937499999999997
40
0.968749999999998
40
0.968749999999998
40
1
40
1
40
1
40
1
41
1
10
21.9188669523819
20
-1.16230509039875
30
0
41
1
10
21.8409997774758
20
-1.14236718254858
30
0
41
1
10
21.7637590819845
20
-1.11857127527008
30
0
41
1
10
21.609945312124
20
-1.06374882536426
30
0
41
1
10
21.5333686072166
20
-1.03271623630181
30
0
41
1
10
21.3799893538015
20
-0.964123901431122
30
0
41
1
10
21.3031194066903
20
-0.926642335308486
30
0
41
1
10
21.187623408034
20
-0.865517146739109
30
0
41
1
10
21.1298052996237
20
-0.833741909942859
30
0
41
1
10
21.0717580841788
20
-0.800232517419886
30
0
41
1
10
21.0329947225182
20
-0.777518350485309
30
0
41
1
10
21.0135571547747
20
-0.765959857257485
30
0
41
1
10
20.9553195979694
20
-0.730854920611989
30
0
41
1
10
20.916621441648
20
-0.706896045071858
30
0
41
1
10
20.839372844815
20
-0.658004077944497
30
0
41
1
10
20.8008069122459
20
-0.633089321854385
30
0
41
1
10
20.6853193427747
20
-0.55691854530113
30
0
41
1
10
20.6087303847642
20
-0.504087301543137
30
0
41
1
10
20.4554729428092
20
-0.395386794149033
30
0
41
1
10
20.3787937309392
20
-0.339532847959816
30
0
41
1
10
20.2631587625903
20
-0.254175049221573
30
0
41
1
10
20.2245402203741
20
-0.225421467370523
30
0
41
1
10
20.1664316521015
20
-0.181924634185748
30
0
41
1
10
20.1470375787774
20
-0.167357119315227
30
0
41
1
10
20.1081986474947
20
-0.138084578782326
30
0
41
1
10
20.0887413816295
20
-0.123373466870504
30
0
41
1
10
19.9917493900615
20
-0.0498810705167045
30
0
41
1
10
19.9147439815988
20
0.008972982251521
30
0
41
1
10
19.7610284233648
20
0.125650317016778
30
0
41
1
10
19.6842314172342
20
0.183362347547188
30
0
41
1
10
19.5308591735705
20
0.29767686065486
30
0
41
1
10
19.4542097925457
20
0.354177573980053
30
0
41
1
10
19.3386866885165
20
0.437144135079819
30
0
41
1
10
19.3000866845956
20
0.464501350371961
30
0
41
1
10
19.2225983894142
20
0.51848381658246
30
0
41
1
10
19.1836107530262
20
0.545156956850462
30
0
41
1
10
18.9894774220074
20
0.675516206442666
30
0
41
1
10
18.8367459531884
20
0.771288881485646
30
0
41
1
10
18.6064406260074
20
0.897197418968432
30
0
41
1
10
18.5295910494618
20
0.936348370678047
30
0
41
1
10
18.4140120611795
20
0.990579687617725
30
0
41
1
10
18.3754147603548
20
1.00788807155942
30
0
41
1
10
18.2979587673179
20
1.04084625405233
30
0
41
1
10
18.2590355894425
20
1.05651803504657
30
0
41
1
10
18.2202881555936
20
1.07117777148855
30
0
0
SPLINE
5
1BC
100
AcDbEntity
8
1
62
256
6
ByLayer
370
18
48
1
60
0
100
AcDbSpline
70
4
71
3
72
26
73
22
40
0
40
0
40
0
40
0
40
0.0545480207118283
40
0.0545480207118283
40
0.243641169528916
40
0.243641169528916
40
0.33818774393746
40
0.33818774393746
40
0.385461031141732
40
0.385461031141732
40
0.432734318346004
40
0.432734318346004
40
0.52728089275455
40
0.52728089275455
40
0.621827467163097
40
0.621827467163097
40
0.810920615980187
40
0.810920615980187
40
0.905467190388732
40
0.905467190388732
40
1
40
1
40
1
40
1
41
1
10
18.2202986118261
20
1.07121075262512
30
0
41
1
10
18.2106672883154
20
1.05615828095156
30
0
41
1
10
18.2002901281664
20
1.04050961739432
30
0
41
1
10
18.1460391956529
20
0.964298513822541
30
0
41
1
10
18.0860452857642
20
0.890796441927165
30
0
41
1
10
17.979356129414
20
0.773953517026712
30
0
41
1
10
17.9404094350763
20
0.733297973378825
30
0
41
1
10
17.8812784158733
20
0.675065070461699
30
0
41
1
10
17.8614214919326
20
0.656221185844601
30
0
41
1
10
17.8216223576602
20
0.618863359838258
30
0
41
1
10
17.8016840134673
20
0.600369204901142
30
0
41
1
10
17.7427185051787
20
0.546367380053454
30
0
41
1
10
17.7042073567475
20
0.512013426689606
30
0
41
1
10
17.6288617079804
20
0.446761368046168
30
0
41
1
10
17.591708318426
20
0.41561995251439
30
0
41
1
10
17.4856186559325
20
0.32977271732608
30
0
41
1
10
17.4214343974371
20
0.281907432991631
30
0
41
1
10
17.3361999875716
20
0.224223705635723
30
0
41
1
10
17.3098133003313
20
0.207449736316676
30
0
41
1
10
17.2606188397578
20
0.178237056423797
30
0
41
1
10
17.2427188959973
20
0.171122015003675
30
0
41
1
10
17.232160636304
20
0.171876959629344
30
0
0
SPLINE
5
1BD
100
AcDbEntity
8
1
62
256
6
ByLayer
370
18
48
1
60
0
100
AcDbSpline
70
4
71
3
72
10
73
6
40
0
40
0
40
0
40
0
40
0.0006289109923932
40
0.0006289109923932
40
1
40
1
40
1
40
1
41
1
10
17.2204975693713
20
0.193922078822652
30
0
41
1
10
17.2204979028255
20
0.193923987351155
30
0
41
1
10
17.2204982363973
20
0.193925895990901
30
0
41
1
10
17.2210288192948
20
0.196960905742174
30
0
41
1
10
17.2219032983304
20
0.200307634454418
30
0
41
1
10
17.2230193623486
20
0.203874471185372
30
0
0
SPLINE
5
1BE
100
AcDbEntity
8
1
62
256
6
ByLayer
370
18
48
1
60
0
100
AcDbSpline
70
4
71
3
72
66
73
62
40
0
40
0
40
0
40
0
40
0.0362384491115501
40
0.0362384491115501
40
0.0724768982231002
40
0.0724768982231002
40
0.0905961227788752
40
0.0905961227788752
40
0.10871534733465
40
0.10871534733465
40
0.1449537964462
40
0.1449537964462
40
0.18119224555775
40
0.18119224555775
40
0.217430694669301
40
0.217430694669301
40
0.253669143780851
40
0.253669143780851
40
0.289907592892401
40
0.289907592892401
40
0.326146042003951
40
0.326146042003951
40
0.362384491115501
40
0.362384491115501
40
0.398622940227051
40
0.398622940227051
40
0.416742164782825
40
0.416742164782825
40
0.434861389338598
40
0.434861389338598
40
0.471099838450145
40
0.471099838450145
40
0.507338287561692
40
0.507338287561692
40
0.579815185784789
40
0.579815185784789
40
0.616053634896339
40
0.616053634896339
40
0.652292084007889
40
0.652292084007889
40
0.724768982230989
40
0.724768982230989
40
0.742888206786764
40
0.742888206786764
40
0.761007431342539
40
0.761007431342539
40
0.779126655898314
40
0.779126655898314
40
0.797245880454089
40
0.797245880454089
40
0.869722778677186
40
0.869722778677186
40
0.905961227788733
40
0.905961227788733
40
0.94219967690028
40
0.94219967690028
40
0.978438126011827
40
0.978438126011827
40
0.996557350567599
40
0.996557350567599
40
1
40
1
40
1
40
1
41
1
10
17.2230252361653
20
0.203797042965107
30
0
41
1
10
17.2722019948749
20
0.167278160169161
30
0
41
1
10
17.3211343514146
20
0.130520533200411
30
0
41
1
10
17.4187351166671
20
0.0568300032718128
30
0
41
1
10
17.4673839215485
20
0.0198708997226618
30
0
41
1
10
17.5404229251662
20
-0.0353464740297795
30
0
41
1
10
17.5647208536089
20
-0.0537949647231244
30
0
41
1
10
17.613215121139
20
-0.0907828796661931
30
0
41
1
10
17.6374719612385
20
-0.109241443506249
30
0
41
1
10
17.7103705237003
20
-0.164379480510803
30
0
41
1
10
17.7591683739903
20
-0.200784390132128
30
0
41
1
10
17.8569353433183
20
-0.273188555086449
30
0
41
1
10
17.9059107502113
20
-0.309179163657376
30
0
41
1
10
18.0041174568687
20
-0.380637376058274
30
0
41
1
10
18.0534596356707
20
-0.41622617230513
30
0
41
1
10
18.1515852311881
20
-0.485756519117331
30
0
41
1
10
18.2004796595236
20
-0.519734677675586
30
0
41
1
10
18.2981758967214
20
-0.585871061147429
30
0
41
1
10
18.3469457891599
20
-0.618070965921021
30
0
41
1
10
18.4442943706909
20
-0.680792030326245
30
0
41
1
10
18.4928993440408
20
-0.711279707811713
30
0
41
1
10
18.5902423340844
20
-0.770215792231312
30
0
41
1
10
18.6389797441332
20
-0.798670329604903
30
0
41
1
10
18.7363842939308
20
-0.853729119505317
30
0
41
1
10
18.7851714028414
20
-0.880206903900103
30
0
41
1
10
18.858740044819
20
-0.918083488576031
30
0
41
1
10
18.8833180077131
20
-0.930411900652331
30
0
41
1
10
18.932584486472
20
-0.954470315429859
30
0
41
1
10
18.9573023091954
20
-0.966214811250467
30
0
41
1
10
19.0312067166724
20
-1.00034876168715
30
0
41
1
10
19.0802548340985
20
-1.02168917939363
30
0
41
1
10
19.1779030185255
20
-1.06157352634293
30
0
41
1
10
19.2265113665983
20
-1.08010125558221
30
0
41
1
10
19.3724871603107
20
-1.13097751059036
30
0
41
1
10
19.4697961305635
20
-1.15881397402811
30
0
41
1
10
19.6159449122141
20
-1.19135238680715
30
0
41
1
10
19.6647094142249
20
-1.20064647203031
30
0
41
1
10
19.7624740777256
20
-1.21601733813773
30
0
41
1
10
19.8115060093206
20
-1.22208131855047
30
0
41
1
10
19.9595562939812
20
-1.23523191046837
30
0
41
1
10
20.0579104155108
20
-1.23723096028993
30
0
41
1
10
20.1809964999632
20
-1.23136330542923
30
0
41
1
10
20.2056424552827
20
-1.2297748671169
30
0
41
1
10
20.2547428647827
20
-1.2257203246875
30
0
41
1
10
20.2792000124264
20
-1.2232478827041
30
0
41
1
10
20.3283431230997
20
-1.2174758198783
30
0
41
1
10
20.3530156956302
20
-1.21419602793247
30
0
41
1
10
20.402221289964
20
-1.20683553754142
30
0
41
1
10
20.4267657316141
20
-1.20274871720426
30
0
41
1
10
20.5492866367807
20
-1.18032423652278
30
0
41
1
10
20.6466867404598
20
-1.1560508360545
30
0
41
1
10
20.7923802843326
20
-1.11043880540805
30
0
41
1
10
20.8408809010191
20
-1.09369196503559
30
0
41
1
10
20.9382214034251
20
-1.05740470044046
30
0
41
1
10
20.9870301565082
20
-1.03785281563583
30
0
41
1
10
21.0848941169983
20
-0.995898921777808
30
0
41
1
10
21.1339455835871
20
-0.973491793722673
30
0
41
1
10
21.2077803833496
20
-0.937741196730485
30
0
41
1
10
21.2324589754156
20
-0.925450910495869
30
0
41
1
10
21.2617388026542
20
-0.91047689390453
30
0
41
1
10
21.2664120457336
20
-0.908075238348488
30
0
41
1
10
21.2710837934012
20
-0.905662925605213
30
0
0
SPLINE
5
1BF
100
AcDbEntity
8
1
62
256
6
ByLayer
370
18
48
1
60
0
100
AcDbSpline
70
4
71
3
72
8
73
4
40
0
40
0
40
0
40
0
40
1
40
1
40
1
40
1
41
1
10
27.5571234558865
20
0.313430406205754
30
0
41
1
10
27.5304132958337
20
0.342253306263871
30
0
41
1
10
27.5037343145627
20
0.370921341880518
30
0
41
1
10
27.477080855058
20
0.399429970794358
30
0
0
SPLINE
5
1C0
100
AcDbEntity
8
1
62
256
6
ByLayer
370
18
48
1
60
0
100
AcDbSpline
70
4
71
3
72
8
73
4
40
0
40
0
40
0
40
0
40
1
40
1
40
1
40
1
41
1
10
28.4175272932603
20
-0.61814349395479
30
0
41
1
10
28.3908531473965
20
-0.59054884834876
30
0
41
1
10
28.364255002729
20
-0.56269208109876
30
0
41
1
10
28.3376542692315
20
-0.534641410576739
30
0
0
SPLINE
5
1C1
100
AcDbEntity
8
1
62
256
6
ByLayer
370
18
48
1
60
0
100
AcDbSpline
70
4
71
3
72
12
73
8
40
0
40
0
40
0
40
0
40
0.25
40
0.25
40
0.5
40
0.5
40
1
40
1
40
1
40
1
41
1
10
29.8760824665425
20
-1.42524303466567
30
0
41
1
10
29.9197705493628
20
-1.42834664294654
30
0
41
1
10
29.963396779483
20
-1.42958089962394
30
0
41
1
10
30.0508099077345
20
-1.4282299352212
30
0
41
1
10
30.0946168833307
20
-1.42562707017541
30
0
41
1
10
30.2264871342469
20
-1.41214405000957
30
0
41
1
10
30.3148984094118
20
-1.39568844688606
30
0
41
1
10
30.4045198106767
20
-1.37191758018505
30
0
0
SPLINE
5
1C2
100
AcDbEntity
8
1
62
256
6
ByLayer
370
18
48
1
60
0
100
AcDbSpline
70
4
71
3
72
8
73
4
40
0
40
0
40
0
40
0
40
1
40
1
40
1
40
1
41
1
10
30.4045198106764
20
-1.371917580185
30
0
41
1
10
30.4112968500461
20
-1.36108877040925
30
0
41
1
10
30.4180908198617
20
-1.35018317606134
30
0
41
1
10
30.4249045789542
20
-1.33919828514902
30
0
0
SPLINE
5
1C3
100
AcDbEntity
8
1
62
256
6
ByLayer
370
18
48
1
60
0
100
AcDbSpline
70
4
71
3
72
24
73
20
40
0
40
0
40
0
40
0
40
0.124999999999973
40
0.124999999999973
40
0.249999999999945
40
0.249999999999945
40
0.374999999999918
40
0.374999999999918
40
0.437499999999904
40
0.437499999999904
40
0.499999999999891
40
0.499999999999891
40
0.624999999999918
40
0.624999999999918
40
0.749999999999945
40
0.749999999999945
40
0.874999999999973
40
0.874999999999973
40
1
40
1
40
1
40
1
41
1
10
30.4249045789542
20
-1.33919828514902
30
0
41
1
10
30.4306523347404
20
-1.32993196542071
30
0
41
1
10
30.4372418953092
20
-1.32179587484094
30
0
41
1
10
30.451699644372
20
-1.30721383308526
30
0
41
1
10
30.4596504349714
20
-1.30073715457087
30
0
41
1
10
30.4762374330054
20
-1.2896315786866
30
0
41
1
10
30.4848826084926
20
-1.28497045279562
30
0
41
1
10
30.4983207746781
20
-1.27920328915977
30
0
41
1
10
30.5028791015551
20
-1.27748726889695
30
0
41
1
10
30.5121503141998
20
-1.27447297544163
30
0
41
1
10
30.516883051362
20
-1.27317070894296
30
0
41
1
10
30.5311456618474
20
-1.26995492709148
30
0
41
1
10
30.5407183322036
20
-1.26871938181702
30
0
41
1
10
30.5599446191538
20
-1.26814516564269
30
0
41
1
10
30.5695995157312
20
-1.26880083464332
30
0
41
1
10
30.588959847583
20
-1.27240695585894
30
0
41
1
10
30.5984665625371
20
-1.27533128592165
30
0
41
1
10
30.6166642128559
20
-1.28381058862598
30
0
41
1
10
30.6254826084469
20
-1.28946931450912
30
0
41
1
10
30.6332636898339
20
-1.29653682252325
30
0
0
SPLINE
5
1C4
100
AcDbEntity
8
1
62
256
6
ByLayer
370
18
48
1
60
0
100
AcDbSpline
70
4
71
3
72
8
73
4
40
0
40
0
40
0
40
0
40
1
40
1
40
1
40
1
41
1
10
30.6332636898339
20
-1.29653682252325
30
0
41
1
10
30.6610401808356
20
-1.28566598590376
30
0
41
1
10
30.6888535402105
20
-1.27418318420135
30
0
41
1
10
30.71671742165
20
-1.2621061716653
30
0
0
SPLINE
5
1C5
100
AcDbEntity
8
1
62
256
6
ByLayer
370
18
48
1
60
0
100
AcDbSpline
70
4
71
3
72
20
73
16
40
0
40
0
40
0
40
0
40
0.124999999999996
40
0.124999999999996
40
0.249999999999992
40
0.249999999999992
40
0.500000000000011
40
0.500000000000011
40
0.625000000000009
40
0.625000000000009
40
0.750000000000006
40
0.750000000000006
40
0.875000000000003
40
0.875000000000003
40
1
40
1
40
1
40
1
41
1
10
31.07
20
-0.871812085465763
30
0
41
1
10
31.0540355056232
20
-0.885596345821654
30
0
41
1
10
31.0380498640179
20
-0.900267783711797
30
0
41
1
10
31.0060481580718
20
-0.930991287287299
30
0
41
1
10
30.9899295462705
20
-0.947149262544201
30
0
41
1
10
30.9426760343023
20
-0.996057471544049
30
0
41
1
10
30.9123262083252
20
-1.02951290927865
30
0
41
1
10
30.8677976437048
20
-1.08036509065241
30
0
41
1
10
30.8530663709807
20
-1.09750191591274
30
0
41
1
10
30.8243575190185
20
-1.1313532699763
30
0
41
1
10
30.8103324357181
20
-1.14811897486561
30
0
41
1
10
30.7828182254119
20
-1.18130236474713
30
0
41
1
10
30.7693322308209
20
-1.19771914567562
30
0
41
1
10
30.7427885784365
20
-1.2301776576551
30
0
41
1
10
30.7297648399305
20
-1.24620501661784
30
0
41
1
10
30.7167174216483
20
-1.26210617165916
30
0
0
SPLINE
5
1C6
100
AcDbEntity
8
SK1
62
256
6
ByLayer
370
18
48
1
60
0
100
AcDbSpline
70
4
71
3
72
22
73
18
40
0
40
0
40
0
40
0
40
0.124971810435681
40
0.124971810435681
40
0.249943620871362
40
0.249943620871362
40
0.499887241742724
40
0.499887241742724
40
0.624859052178404
40
0.624859052178404
40
0.687344957396245
40
0.687344957396245
40
0.749830862614085
40
0.749830862614085
40
0.999774483485446
40
0.999774483485446
40
1
40
1
40
1
40
1
41
1
10
-18.83
20
1.39499999999998
30
0
41
1
10
-18.8524670303359
20
1.39499999999998
30
0
41
1
10
-18.8743833412067
20
1.39499999999998
30
0
41
1
10
-18.916582707112
20
1.39499999999998
30
0
41
1
10
-18.9368599218999
20
1.39499999999998
30
0
41
1
10
-18.9947798196044
20
1.39499999999998
30
0
41
1
10
-19.0295427423595
20
1.39499999999998
30
0
41
1
10
-19.0736105824591
20
1.39499999999998
30
0
41
1
10
-19.0869459166796
20
1.39499999999998
30
0
41
1
10
-19.1045582062491
20
1.39499999999998
30
0
41
1
10
-19.1100300085944
20
1.39499999999998
30
0
41
1
10
-19.1201099517183
20
1.39499999999998
30
0
41
1
10
-19.1247275998688
20
1.39499999999998
30
0
41
1
10
-19.1453328925716
20
1.39499999999998
30
0
41
1
10
-19.1538654069527
20
1.39499999999998
30
0
41
1
10
-19.1538789976386
20
1.39499999999998
30
0
41
1
10
-19.1538810006492
20
1.39499999999998
30
0
41
1
10
-19.1538790032598
20
1.39499999999998
30
0
0
SPLINE
5
1C7
100
AcDbEntity
8
SK1
62
256
6
ByLayer
370
18
48
1
60
0
100
AcDbSpline
70
4
71
3
72
22
73
18
40
0
40
0
40
0
40
0
40
0.0002257103956099
40
0.0002257103956099
40
0.250169282796707
40
0.250169282796707
40
0.312655175896982
40
0.312655175896982
40
0.375141068997256
40
0.375141068997256
40
0.500112855197805
40
0.500112855197805
40
0.750056427598902
40
0.750056427598902
40
0.875028213799451
40
0.875028213799451
40
1
40
1
40
1
40
1
41
1
10
-19.1538790032641
20
-1.39500000000004
30
0
41
1
10
-19.15388100066
20
-1.39500000000004
30
0
41
1
10
-19.1538789976559
20
-1.39500000000004
30
0
41
1
10
-19.1538654069527
20
-1.39500000000004
30
0
41
1
10
-19.1453328925716
20
-1.39500000000004
30
0
41
1
10
-19.1247275998688
20
-1.39500000000004
30
0
41
1
10
-19.1201099517183
20
-1.39500000000004
30
0
41
1
10
-19.1100300085944
20
-1.39500000000004
30
0
41
1
10
-19.1045582062491
20
-1.39500000000004
30
0
41
1
10
-19.0869459166796
20
-1.39500000000004
30
0
41
1
10
-19.0736105824591
20
-1.39500000000004
30
0
41
1
10
-19.0295427423594
20
-1.39500000000004
30
0
41
1
10
-18.9947798196044
20
-1.39500000000004
30
0
41
1
10
-18.9368599218999
20
-1.39500000000004
30
0
41
1
10
-18.916582707112
20
-1.39500000000004
30
0
41
1
10
-18.8743833412067
20
-1.39500000000004
30
0
41
1
10
-18.8524670303359
20
-1.39500000000004
30
0
41
1
10
-18.83
20
-1.39500000000004
30
0
0
SPLINE
5
1C8
100
AcDbEntity
8
SK1
62
256
6
ByLayer
370
18
48
1
60
0
100
AcDbSpline
70
4
71
3
72
35
73
31
40
0
40
0
40
0
40
0
40
0.0625000000000002
40
0.0937500000000001
40
0.0937500000000001
40
0.125
40
0.125
40
0.25
40
0.25
40
0.375
40
0.375
40
0.40625
40
0.40625
40
0.4375
40
0.4375
40
0.5
40
0.5
40
0.625
40
0.625
40
0.65625
40
0.65625
40
0.6875
40
0.6875
40
0.75
40
0.75
40
0.875
40
0.875
40
0.9375
40
0.9375
40
1
40
1
40
1
40
1
41
1
10
-18.83
20
-1.00425268453716
30
0
41
1
10
-18.852358066104
20
-0.965984593989248
30
0
41
1
10
-18.8850157168013
20
-0.907935460363205
30
0
41
1
10
-18.9160772244566
20
-0.8487120668552
30
0
41
1
10
-18.9363919256032
20
-0.808940701581577
30
0
41
1
10
-18.9463590341076
20
-0.788897061248917
30
0
41
1
10
-18.9948848746768
20
-0.688358833376412
30
0
41
1
10
-19.0297192141233
20
-0.606591454538545
30
0
41
1
10
-19.088417977261
20
-0.439377991297533
30
0
41
1
10
-19.112275845845
20
-0.353929708672524
30
0
41
1
10
-19.1328624840159
20
-0.244022211095228
30
0
41
1
10
-19.136522429703
20
-0.221841992614316
30
0
41
1
10
-19.1428241875934
20
-0.177349685408103
30
0
41
1
10
-19.1454565540605
20
-0.155117827903752
30
0
41
1
10
-19.1517778230071
20
-0.0884657031933216
30
0
41
1
10
-19.1538872682373
20
-0.0440889837855991
30
0
41
1
10
-19.1538654069527
20
0.0888660908148324
30
0
41
1
10
-19.1453328925716
20
0.177267955944643
30
0
41
1
10
-19.1247275998688
20
0.287496237608536
30
0
41
1
10
-19.1201099517183
20
0.309530457636072
30
0
41
1
10
-19.1100300085944
20
0.353149474168163
30
0
41
1
10
-19.1045582062491
20
0.374790020455663
30
0
41
1
10
-19.0869459166796
20
0.439243356342359
30
0
41
1
10
-19.0736105824591
20
0.481588639408187
30
0
41
1
10
-19.0295427423595
20
0.607035217723677
30
0
41
1
10
-18.9947798196044
20
0.688559535981852
30
0
41
1
10
-18.9368599218999
20
0.808586234220314
30
0
41
1
10
-18.916582707112
20
0.848215374944147
30
0
41
1
10
-18.8743833412067
20
0.926830043876322
30
0
41
1
10
-18.8524670303359
20
0.965798090689844
30
0
41
1
10
-18.83
20
1.00425268453708
30
0
0
SPLINE
5
1C9
100
AcDbEntity
8
1
62
256
6
ByLayer
370
18
48
1
60
0
100
AcDbSpline
70
4
71
2
72
6
73
3
40
0
40
0
40
0
40
1
40
1
40
1
41
1
10
27.2810081492216
20
1.74714211784047
30
0
41
1
10
27.197150019585
20
1.60407114586036
30
0
41
1
10
27.1132029578609
20
1.46211006000019
30
0
0
SPLINE
5
1CA
100
AcDbEntity
8
1
62
256
6
ByLayer
370
18
48
1
60
0
100
AcDbSpline
70
4
71
2
72
6
73
3
40
0
40
0
40
0
40
1
40
1
40
1
41
1
10
27.0029200123263
20
-1.76540577746388
30
0
41
1
10
27.110896950495
20
-1.58044031720317
30
0
41
1
10
27.2190976137803
20
-1.39685883400534
30
0
0
SPLINE
5
1CB
100
AcDbEntity
8
1
62
256
6
ByLayer
370
18
48
1
60
0
100
AcDbSpline
70
4
71
1
72
4
73
2
40
0
40
0
40
1
40
1
41
1
10
29.9352693447545
20
-1.50781250755315
30
0
41
1
10
30.4055912185693
20
-1.37192062418802
30
0
0
SPLINE
5
1CC
100
AcDbEntity
8
1
62
256
6
ByLayer
370
18
48
1
60
0
100
AcDbSpline
70
4
71
2
72
6
73
3
40
0
40
0
40
0
40
1
40
1
40
1
41
1
10
29.8103199224
20
-1.3278347221862
30
0
41
1
10
29.8522139548055
20
-1.39948313642205
30
0
41
1
10
29.8940572340943
20
-1.47128717293569
30
0
0
SPLINE
5
1CD
100
AcDbEntity
8
1
62
256
6
ByLayer
370
18
48
1
60
0
100
AcDbSpline
70
4
71
1
72
4
73
2
40
0
40
0
40
1
40
1
41
1
10
29.2495498017737
20
-1.70467737708248
30
0
41
1
10
29.4650283234783
20
-1.64245344766377
30
0
0
SPLINE
5
1CE
100
AcDbEntity
8
1
62
256
6
ByLayer
370
18
48
1
60
0
100
AcDbSpline
70
4
71
3
72
9
73
5
40
0
40
0
40
0
40
0
40
0.101787596598879
40
1
40
1
40
1
40
1
41
1
10
30.4621469818198
20
-0.224948622512528
30
0
41
1
10
30.4539177734588
20
-0.220448058560891
30
0
41
1
10
30.3730240221025
20
-0.176118994030332
30
0
41
1
10
30.2914784154073
20
-0.130698227003876
30
0
41
1
10
30.2185995891457
20
-0.0888964920447108
30
0
0
SPLINE
5
1CF
100
AcDbEntity
8
1
62
256
6
ByLayer
370
18
48
1
60
0
100
AcDbSpline
70
4
71
2
72
6
73
3
40
0
40
0
40
0
40
1
40
1
40
1
41
1
10
24.116179521971
20
1.77320446573194
30
0
41
1
10
23.9858566543004
20
1.54885031468649
30
0
41
1
10
23.8552416180006
20
1.32560424859173
30
0
0
SPLINE
5
1D0
100
AcDbEntity
8
1
62
256
6
ByLayer
370
18
48
1
60
0
100
AcDbSpline
70
4
71
3
72
9
73
5
40
0
40
0
40
0
40
0
40
0.533151258033195
40
1
40
1
40
1
40
1
41
1
10
23.2910673457666
20
-1.32758081438274
30
0
41
1
10
23.2989502068975
20
-1.31347519734368
30
0
41
1
10
23.3189959917715
20
-1.29390770499015
30
0
41
1
10
23.3539662260674
20
-1.28283327907752
30
0
41
1
10
23.3708682078015
20
-1.28185817698827
30
0
0
SPLINE
5
1D1
100
AcDbEntity
8
1
62
256
6
ByLayer
370
18
48
1
60
0
100
AcDbSpline
70
4
71
3
72
8
73
4
40
0
40
0
40
0
40
0
40
1
40
1
40
1
40
1
41
1
10
23.4453286589687
20
-1.30660543415678
30
0
41
1
10
23.4568601415543
20
-1.31590516641921
30
0
41
1
10
23.4654928574562
20
-1.3271398190862
30
0
41
1
10
23.4721083223922
20
-1.34104957588355
30
0
0
SPLINE
5
1D2
100
AcDbEntity
8
1
62
256
6
ByLayer
370
18
48
1
60
0
100
AcDbSpline
70
4
71
3
72
11
73
7
40
0
40
0
40
0
40
0
40
0.248699537746704
40
0.499856530281228
40
0.755471516971438
40
1
40
1
40
1
40
1
41
1
10
27.8240860117359
20
1.3250168287602
30
0
41
1
10
27.8212216456522
20
1.31676862980268
30
0
41
1
10
27.8071382595272
20
1.30314257009442
30
0
41
1
10
27.757949027333
20
1.27760933318899
30
0
41
1
10
27.6887695911943
20
1.28916140654346
30
0
41
1
10
27.6610434495378
20
1.31784408148886
30
0
41
1
10
27.6493105668049
20
1.33715071073422
30
0
0
SPLINE
5
1D3
100
AcDbEntity
8
1
62
256
6
ByLayer
370
18
48
1
60
0
100
AcDbSpline
70
4
71
3
72
11
73
7
40
0
40
0
40
0
40
0
40
0.238717544502082
40
0.488622129632497
40
0.74530971192066
40
1
40
1
40
1
40
1
41
1
10
26.4680404800525
20
-1.32469021332116
30
0
41
1
10
26.4728132245363
20
-1.31468331042845
30
0
41
1
10
26.4893996814053
20
-1.29863985481606
30
0
41
1
10
26.5425535290501
20
-1.27668089578046
30
0
41
1
10
26.6057841665778
20
-1.29242521169678
30
0
41
1
10
26.628027541484
20
-1.31441411342124
30
0
41
1
10
26.6362670494165
20
-1.3293963166785
30
0
0
SPLINE
5
1D4
100
AcDbEntity
8
1
62
256
6
ByLayer
370
18
48
1
60
0
100
AcDbSpline
70
4
71
3
72
11
73
7
40
0
40
0
40
0
40
0
40
0.282442661412356
40
0.54794833081313
40
0.787968188666142
40
1
40
1
40
1
40
1
41
1
10
24.6487134579363
20
1.32502809289659
30
0
41
1
10
24.6399738294152
20
1.30989432503773
30
0
41
1
10
24.6167198420574
20
1.28955307245349
30
0
41
1
10
24.5505084752885
20
1.27775254486264
30
0
41
1
10
24.5018027437832
20
1.30151327008423
30
0
41
1
10
24.487114895553
20
1.31664973646062
30
0
41
1
10
24.4830224727996
20
1.32525667952942
30
0
0
SPLINE
5
1D5
100
AcDbEntity
8
1
62
256
6
ByLayer
370
18
48
1
60
0
100
AcDbSpline
70
4
71
3
72
11
73
7
40
0
40
0
40
0
40
0
40
0.216080077470067
40
0.457334802065351
40
0.721441542648247
40
1
40
1
40
1
40
1
41
1
10
29.6434435551496
20
-1.32439951311335
30
0
41
1
10
29.6472925116084
20
-1.31629262359814
30
0
41
1
10
29.6616625476426
20
-1.30206481713884
30
0
41
1
10
29.7100289123497
20
-1.27824032161695
30
0
41
1
10
29.7763394323345
20
-1.28951224247459
30
0
41
1
10
29.7997272241267
20
-1.30993231989277
30
0
41
1
10
29.8086240146725
20
-1.3250331084073
30
0
0
SPLINE
5
1D6
100
AcDbEntity
8
1
62
256
6
ByLayer
370
18
48
1
60
0
100
AcDbSpline
70
4
71
2
72
6
73
3
40
0
40
0
40
0
40
1
40
1
40
1
41
1
10
23.0282142900886
20
-1.77725529228951
30
0
41
1
10
23.1598349229968
20
-1.55098838677691
30
0
41
1
10
23.2924268263005
20
-1.32533661573032
30
0
0
SPLINE
5
1D7
100
AcDbEntity
8
1
62
256
6
ByLayer
370
18
48
1
60
0
100
AcDbSpline
70
4
71
2
72
6
73
3
40
0
40
0
40
0
40
1
40
1
40
1
41
1
10
28.0871720243863
20
1.77657893651224
30
0
41
1
10
27.9551848894968
20
1.5491454826317
30
0
41
1
10
27.8225518563546
20
1.32229755868204
30
0
0
SPLINE
5
1D8
100
AcDbEntity
8
1
62
256
6
ByLayer
370
18
48
1
60
0
100
AcDbSpline
70
4
71
2
72
6
73
3
40
0
40
0
40
0
40
1
40
1
40
1
41
1
10
28.4524306146302
20
1.32472492259518
30
0
41
1
10
28.3198650913822
20
1.55018834889913
30
0
41
1
10
28.1882431550821
20
1.77631935576636
30
0
0
SPLINE
5
1D9
100
AcDbEntity
8
1
62
256
6
ByLayer
370
18
48
1
60
0
100
AcDbSpline
70
4
71
2
72
6
73
3
40
0
40
0
40
0
40
1
40
1
40
1
41
1
10
29.4491533540215
20
-1.65525273442725
30
0
41
1
10
29.4520308908778
20
-1.65030965023169
30
0
41
1
10
29.4549085442123
20
-1.64536696147633
30
0
0
SPLINE
5
1DA
100
AcDbEntity
8
1
62
256
6
ByLayer
370
18
48
1
60
0
100
AcDbSpline
70
4
71
2
72
6
73
3
40
0
40
0
40
0
40
1
40
1
40
1
41
1
10
29.4575374508322
20
-1.6408516470398
30
0
41
1
10
29.5465051515982
20
-1.488048163358
30
0
41
1
10
29.6355841834842
20
-1.33562264550272
30
0
0
SPLINE
5
1DB
100
AcDbEntity
8
1
62
256
6
ByLayer
370
18
48
1
60
0
100
AcDbSpline
70
4
71
3
72
10
73
6
40
0
40
0
40
0
40
0
40
0.217187713459162
40
0.612070943021335
40
1
40
1
40
1
40
1
41
1
10
28.5431638766829
20
1.28561477458879
30
0
41
1
10
28.5338861835282
20
1.28395459781262
30
0
41
1
10
28.5092458303728
20
1.28227143461237
30
0
41
1
10
28.4705398572215
20
1.30194470136595
30
0
41
1
10
28.4555324932118
20
1.31775967474829
30
0
41
1
10
28.4507195838626
20
1.32751314757121
30
0
0
SPLINE
5
1DC
100
AcDbEntity
8
1
62
256
6
ByLayer
370
18
48
1
60
0
100
AcDbSpline
70
4
71
2
72
6
73
3
40
0
40
0
40
0
40
1
40
1
40
1
41
1
10
26.2053394712355
20
-1.77358101062967
30
0
41
1
10
26.33654291226
20
-1.5482394208673
30
0
41
1
10
26.4683231962036
20
-1.32420389363344
30
0
0
SPLINE
5
1DD
100
AcDbEntity
8
1
62
256
6
ByLayer
370
18
48
1
60
0
100
AcDbSpline
70
4
71
2
72
6
73
3
40
0
40
0
40
0
40
1
40
1
40
1
41
1
10
25.8383385860454
20
-1.32271701740072
30
0
41
1
10
25.9708857340127
20
-1.54923395425698
30
0
41
1
10
26.1023988474451
20
-1.77587667041124
30
0
0
SPLINE
5
1DE
100
AcDbEntity
8
1
62
256
6
ByLayer
370
18
48
1
60
0
100
AcDbSpline
70
4
71
2
72
6
73
3
40
0
40
0
40
0
40
1
40
1
40
1
41
1
10
25.7785423471603
20
-1.28922353035057
30
0
41
1
10
25.8246579233421
20
-1.28762388882524
30
0
41
1
10
25.8368808246865
20
-1.31999898089748
30
0
0
SPLINE
5
1DF
100
AcDbEntity
8
1
62
256
6
ByLayer
370
18
48
1
60
0
100
AcDbSpline
70
4
71
2
72
6
73
3
40
0
40
0
40
0
40
1
40
1
40
1
41
1
10
24.911881208064
20
1.77663396173946
30
0
41
1
10
24.7815455002762
20
1.55217462820497
30
0
41
1
10
24.6509411562595
20
1.3286365210258
30
0
0
SPLINE
5
1E0
100
AcDbEntity
8
1
62
256
6
ByLayer
370
18
48
1
60
0
100
AcDbSpline
70
4
71
2
72
6
73
3
40
0
40
0
40
0
40
1
40
1
40
1
41
1
10
25.3119451186853
20
1.29567149424457
30
0
41
1
10
25.3036398603889
20
1.29894016012023
30
0
41
1
10
25.29807055331
20
1.30205094430258
30
0
0
SPLINE
5
1E1
100
AcDbEntity
8
1
62
256
6
ByLayer
370
18
48
1
60
0
100
AcDbSpline
70
4
71
1
72
4
73
2
40
0
40
0
40
1
40
1
41
1
10
25.2877521805684
20
1.31059873934191
30
0
41
1
10
25.2821371543994
20
1.31525015736122
30
0
0
SPLINE
5
1E2
100
AcDbEntity
8
1
62
256
6
ByLayer
370
18
48
1
60
0
100
AcDbSpline
70
4
71
2
72
6
73
3
40
0
40
0
40
0
40
1
40
1
40
1
41
1
10
25.2770560876463
20
1.32502624568124
30
0
41
1
10
25.1435781994949
20
1.55214655992069
30
0
41
1
10
25.0108253075747
20
1.78020867757167
30
0
0
SPLINE
5
1E3
100
AcDbEntity
8
1
62
256
6
ByLayer
370
18
48
1
60
0
100
AcDbSpline
70
4
71
2
72
6
73
3
40
0
40
0
40
0
40
1
40
1
40
1
41
1
10
29.0154300037722
20
-1.32621431025595
30
0
41
1
10
29.1231340287427
20
-1.51036631579783
30
0
41
1
10
29.2306044387205
20
-1.6952652380416
30
0
0
SPLINE
5
1E4
100
AcDbEntity
8
1
62
256
6
ByLayer
370
18
48
1
60
0
100
AcDbSpline
70
4
71
2
72
6
73
3
40
0
40
0
40
0
40
1
40
1
40
1
41
1
10
30.4431848508145
20
-1.31222334716395
30
0
41
1
10
30.4471643893531
20
-1.30433878045801
30
0
41
1
10
30.470013081297
20
-1.29516866483596
30
0
0
SPLINE
5
1E5
100
AcDbEntity
8
1
62
256
6
ByLayer
370
18
48
1
60
0
100
AcDbSpline
70
4
71
2
72
6
73
3
40
0
40
0
40
0
40
1
40
1
40
1
41
1
10
30.4018385601519
20
-1.38342978290566
30
0
41
1
10
30.4080211040061
20
-1.37294079248286
30
0
41
1
10
30.4142044346142
20
-1.36245690627371
30
0
0
SPLINE
5
1E6
100
AcDbEntity
8
1
62
256
6
ByLayer
370
18
48
1
60
0
100
AcDbSpline
70
4
71
2
72
6
73
3
40
0
40
0
40
0
40
1
40
1
40
1
41
1
10
30.4149413529636
20
-1.36120747821397
30
0
41
1
10
30.4277030940419
20
-1.33957063654017
30
0
41
1
10
30.440468186373
20
-1.31795553675067
30
0
0
SPLINE
5
1E7
100
AcDbEntity
8
1
62
256
6
ByLayer
370
18
48
1
60
0
100
AcDbSpline
70
4
71
2
72
6
73
3
40
0
40
0
40
0
40
1
40
1
40
1
41
1
10
24.2192644623715
20
1.77290700814521
30
0
41
1
10
24.2153890667881
20
1.77957557551369
30
0
41
1
10
24.2115138573034
20
1.78624453404151
30
0
0
LINE
5
81
100
AcDbEntity
8
80
62
256
6
ByLayer
370
18
48
1
60
0
100
AcDbLine
10
0
20
0
30
0
11
-5
21
0
31
0
39
0
210
0
220
0
230
1
0
LINE
5
82
100
AcDbEntity
8
4
62
256
6
ByLayer
370
18
48
0.05
60
0
100
AcDbLine
10
0
20
0
30
0
11
31.07
21
0
31
0
39
0
210
0
220
0
230
1
0
LINE
5
84
100
AcDbEntity
8
81
62
256
6
ByLayer
370
18
48
1
60
0
100
AcDbLine
10
31.07
20
0
30
0
11
36.07
21
0
31
0
39
0
210
0
220
0
230
1
0
LINE
5
85
100
AcDbEntity
8
SK4
62
256
6
ByLayer
370
18
48
0.05
60
0
100
AcDbLine
10
-19.83
20
0
30
0
11
31.07
21
0
31
0
39
0
210
0
220
0
230
1
0
LINE
5
87
100
AcDbEntity
8
1
62
256
6
ByLayer
370
18
48
1
60
0
100
AcDbLine
10
0
20
1.7905
30
0
11
0
21
-1.7905
31
0
39
0
210
0
220
0
230
1
0
LINE
5
88
100
AcDbEntity
8
1
62
256
6
ByLayer
370
18
48
1
60
0
100
AcDbLine
10
29.924237
20
-1.507619
30
0
11
29.932403
21
-1.508627
31
0
39
0
210
0
220
0
230
1
0
LINE
5
89
100
AcDbEntity
8
1
62
256
6
ByLayer
370
18
48
1
60
0
100
AcDbLine
10
22.97
20
0.27036
30
0
11
22.97
21
0.273447
31
0
39
0
210
0
220
0
230
1
0
LINE
5
8A
100
AcDbEntity
8
1
62
256
6
ByLayer
370
18
48
1
60
0
100
AcDbLine
10
31.07
20
0.95
30
0
11
31.07
21
0.947138
31
0
39
0
210
0
220
0
230
1
0
LINE
5
8B
100
AcDbEntity
8
1
62
256
6
ByLayer
370
18
48
1
60
0
100
AcDbLine
10
26.903464
20
-1.784166
30
0
11
26.910289
21
-1.786849
31
0
39
0
210
0
220
0
230
1
0
LINE
5
8C
100
AcDbEntity
8
1
62
256
6
ByLayer
370
18
48
1
60
0
100
AcDbLine
10
22.97
20
-1.786848
30
0
11
22.97
21
-1.677008
31
0
39
0
210
0
220
0
230
1
0
LINE
5
8D
100
AcDbEntity
8
1
62
256
6
ByLayer
370
13
48
1
60
0
100
AcDbLine
10
22.22789
20
-0.943852
30
0
11
22.22789
21
-1.30899
31
0
39
0
210
0
220
0
230
1
0
LINE
5
8E
100
AcDbEntity
8
1
62
256
6
ByLayer
370
13
48
1
60
0
100
AcDbLine
10
21.918867
20
-1.162305
30
0
11
21.918867
21
-0.719416
31
0
39
0
210
0
220
0
230
1
0
LINE
5
8F
100
AcDbEntity
8
1
62
256
6
ByLayer
370
13
48
1
60
0
100
AcDbLine
10
21.918867
20
0.942682
30
0
11
21.918867
21
1.229046
31
0
39
0
210
0
220
0
230
1
0
LINE
5
90
100
AcDbEntity
8
1
62
256
6
ByLayer
370
13
48
1
60
0
100
AcDbLine
10
15.184359
20
-1.235
30
0
11
15.184359
21
1.235
31
0
39
0
210
0
220
0
230
1
0
LINE
5
91
100
AcDbEntity
8
1
62
256
6
ByLayer
370
18
48
1
60
0
100
AcDbLine
10
31.07
20
0.109053
30
0
11
31.07
21
-0.537382
31
0
39
0
210
0
220
0
230
1
0
LINE
5
92
100
AcDbEntity
8
1
62
256
6
ByLayer
370
13
48
1
60
0
100
AcDbLine
10
22.22789
20
1.271953
30
0
11
22.22789
21
0.806465
31
0
39
0
210
0
220
0
230
1
0
LINE
5
93
100
AcDbEntity
8
1
62
256
6
ByLayer
370
18
48
1
60
0
100
AcDbLine
10
22.97
20
1.404596
30
0
11
22.97
21
0.273447
31
0
39
0
210
0
220
0
230
1
0
LINE
5
94
100
AcDbEntity
8
1
62
256
6
ByLayer
370
13
48
1
60
0
100
AcDbLine
10
14.784359
20
1.34218
30
0
11
14.784359
21
-1.34218
31
0
39
0
210
0
220
0
230
1
0
LINE
5
95
100
AcDbEntity
8
1
62
256
6
ByLayer
370
18
48
1
60
0
100
AcDbLine
10
14.007846
20
1.7905
30
0
11
14.007846
21
-1.7905
31
0
39
0
210
0
220
0
230
1
0
LINE
5
96
100
AcDbEntity
8
1
62
256
6
ByLayer
370
18
48
1
60
0
100
AcDbLine
10
31.07
20
-0.537382
30
0
11
31.07
21
-0.528926
31
0
39
0
210
0
220
0
230
1
0
LINE
5
97
100
AcDbEntity
8
SK1
62
256
6
ByLayer
370
18
48
1
60
0
100
AcDbLine
10
-19.83
20
0.71888
30
0
11
-19.83
21
-0.71888
31
0
39
0
210
0
220
0
230
1
0
LINE
5
99
100
AcDbEntity
8
SK1
62
256
6
ByLayer
370
18
48
1
60
0
100
AcDbLine
10
-15
20
1.004253
30
0
11
-15
21
-1.004253
31
0
39
0
210
0
220
0
230
1
0
LINE
5
9A
100
AcDbEntity
8
SK1
62
256
6
ByLayer
370
18
48
1
60
0
100
AcDbLine
10
-15
20
1.395
30
0
11
-14.67612
21
1.71888
31
0
39
0
210
0
220
0
230
1
0
LINE
5
9B
100
AcDbEntity
8
SK1
62
256
6
ByLayer
370
18
48
1
60
0
100
AcDbLine
10
-18.83
20
1.395
30
0
11
-15
21
1.395
31
0
39
0
210
0
220
0
230
1
0
LINE
5
9C
100
AcDbEntity
8
SK1
62
256
6
ByLayer
370
18
48
1
60
0
100
AcDbLine
10
-18.83
20
1.004253
30
0
11
-18.83
21
1.395
31
0
39
0
210
0
220
0
230
1
0
LINE
5
9D
100
AcDbEntity
8
SK1
62
256
6
ByLayer
370
18
48
1
60
0
100
AcDbLine
10
-15
20
1.004253
30
0
11
-18.83
21
1.004253
31
0
39
0
210
0
220
0
230
1
0
LINE
5
9E
100
AcDbEntity
8
SK1
62
256
6
ByLayer
370
18
48
1
60
0
100
AcDbLine
10
-18.83
20
-1.004253
30
0
11
-15
21
-1.004253
31
0
39
0
210
0
220
0
230
1
0
LINE
5
9F
100
AcDbEntity
8
SK1
62
256
6
ByLayer
370
18
48
1
60
0
100
AcDbLine
10
-18.83
20
-1.395
30
0
11
-18.83
21
-1.004253
31
0
39
0
210
0
220
0
230
1
0
LINE
5
A0
100
AcDbEntity
8
SK1
62
256
6
ByLayer
370
18
48
1
60
0
100
AcDbLine
10
-15
20
-1.395
30
0
11
-18.83
21
-1.395
31
0
39
0
210
0
220
0
230
1
0
LINE
5
A1
100
AcDbEntity
8
SK1
62
256
6
ByLayer
370
18
48
1
60
0
100
AcDbLine
10
-15
20
-1.395
30
0
11
-14.67612
21
-1.71888
31
0
39
0
210
0
220
0
230
1
0
LINE
5
A2
100
AcDbEntity
8
SK1
62
256
6
ByLayer
370
18
48
1
60
0
100
AcDbLine
10
-14.517
20
1.71888
30
0
11
-14.517
21
-1.71888
31
0
39
0
210
0
220
0
230
1
0
LINE
5
A3
100
AcDbEntity
8
SK1
62
256
6
ByLayer
370
18
48
1
60
0
100
AcDbLine
10
0
20
1.7905
30
0
11
0
21
-1.7905
31
0
39
0
210
0
220
0
230
1
0
LINE
5
A4
100
AcDbEntity
8
SK1
62
256
6
ByLayer
370
18
48
1
60
0
100
AcDbLine
10
-14.44538
20
-1.7905
30
0
11
-14.44538
21
1.7905
31
0
39
0
210
0
220
0
230
1
0
LINE
5
A5
100
AcDbEntity
8
1
62
256
6
ByLayer
370
18
48
1
60
0
100
AcDbLine
10
14.007846
20
1.7905
30
0
11
0
21
1.7905
31
0
39
0
210
0
220
0
230
1
0
LINE
5
A6
100
AcDbEntity
8
1
62
256
6
ByLayer
370
18
48
1
60
0
100
AcDbLine
10
0
20
-1.7905
30
0
11
14.007846
21
-1.7905
31
0
39
0
210
0
220
0
230
1
0
LINE
5
A7
100
AcDbEntity
8
1
62
256
6
ByLayer
370
18
48
1
60
0
100
AcDbLine
10
31.07
20
0.95
30
0
11
30.975233
21
1.044767
31
0
39
0
210
0
220
0
230
1
0
LINE
5
A8
100
AcDbEntity
8
1
62
256
6
ByLayer
370
18
48
1
60
0
100
AcDbLine
10
26.910275
20
-1.786848
30
0
11
26.983765
21
-1.786848
31
0
39
0
210
0
220
0
230
1
0
LINE
5
A9
100
AcDbEntity
8
1
62
256
6
ByLayer
370
18
48
1
60
0
100
AcDbLine
10
24.205519
20
1.786848
30
0
11
24.131943
21
1.786848
31
0
39
0
210
0
220
0
230
1
0
LINE
5
AA
100
AcDbEntity
8
1
62
256
6
ByLayer
370
18
48
1
60
0
100
AcDbLine
10
22.97
20
-1.786848
30
0
11
23.01492
21
-1.786848
31
0
39
0
210
0
220
0
230
1
0
LINE
5
AB
100
AcDbEntity
8
1
62
256
6
ByLayer
370
18
48
1
60
0
100
AcDbLine
10
28.174434
20
1.786848
30
0
11
28.10085
21
1.786848
31
0
39
0
210
0
220
0
230
1
0
LINE
5
AC
100
AcDbEntity
8
1
62
256
6
ByLayer
370
18
48
1
60
0
100
AcDbLine
10
26.116325
20
-1.786848
30
0
11
26.189995
21
-1.786848
31
0
39
0
210
0
220
0
230
1
0
LINE
5
AD
100
AcDbEntity
8
1
62
256
6
ByLayer
370
18
48
1
60
0
100
AcDbLine
10
22.403587
20
-1.426269
30
0
11
22.97
21
-1.766604
31
0
39
0
210
0
220
0
230
1
0
LINE
5
AE
100
AcDbEntity
8
1
62
256
6
ByLayer
370
18
48
1
60
0
100
AcDbLine
10
24.9995
20
1.786848
30
0
11
24.925745
21
1.786848
31
0
39
0
210
0
220
0
230
1
0
LINE
5
AF
100
AcDbEntity
8
1
62
256
6
ByLayer
370
18
48
1
60
0
100
AcDbLine
10
15.184359
20
-1.235
30
0
11
16.795337
21
-1.235
31
0
39
0
210
0
220
0
230
1
0
LINE
5
B0
100
AcDbEntity
8
1
62
256
6
ByLayer
370
18
48
1
60
0
100
AcDbLine
10
19.07575
20
-1.235
30
0
11
20.052444
21
-1.235
31
0
39
0
210
0
220
0
230
1
0
LINE
5
B1
100
AcDbEntity
8
1
62
256
6
ByLayer
370
18
48
1
60
0
100
AcDbLine
10
21.759957
20
1.235
30
0
11
20.777243
21
1.235
31
0
39
0
210
0
220
0
230
1
0
LINE
5
B2
100
AcDbEntity
8
1
62
256
6
ByLayer
370
18
48
1
60
0
100
AcDbLine
10
18.346879
20
1.235
30
0
11
15.184359
21
1.235
31
0
39
0
210
0
220
0
230
1
0
LINE
5
B3
100
AcDbEntity
8
1
62
256
6
ByLayer
370
18
48
1
60
0
100
AcDbLine
10
14.784359
20
1.34218
30
0
11
14.007846
21
1.7905
31
0
39
0
210
0
220
0
230
1
0
LINE
5
B4
100
AcDbEntity
8
1
62
256
6
ByLayer
370
18
48
1
60
0
100
AcDbLine
10
14.007846
20
-1.7905
30
0
11
14.784359
21
-1.34218
31
0
39
0
210
0
220
0
230
1
0
LINE
5
B5
100
AcDbEntity
8
SK1
62
256
6
ByLayer
370
18
48
1
60
0
100
AcDbLine
10
-19.83
20
-0.71888
30
0
11
-19.15388
21
-1.395
31
0
39
0
210
0
220
0
230
1
0
LINE
5
B6
100
AcDbEntity
8
SK1
62
256
6
ByLayer
370
18
48
1
60
0
100
AcDbLine
10
-19.15388
20
1.395
30
0
11
-19.83
21
0.71888
31
0
39
0
210
0
220
0
230
1
0
LINE
5
B7
100
AcDbEntity
8
SK1
62
256
6
ByLayer
370
18
48
1
60
0
100
AcDbLine
10
-14.517
20
1.71888
30
0
11
-14.67612
21
1.71888
31
0
39
0
210
0
220
0
230
1
0
LINE
5
B8
100
AcDbEntity
8
SK1
62
256
6
ByLayer
370
18
48
1
60
0
100
AcDbLine
10
-14.67612
20
-1.71888
30
0
11
-14.517
21
-1.71888
31
0
39
0
210
0
220
0
230
1
0
LINE
5
B9
100
AcDbEntity
8
SK1
62
256
6
ByLayer
370
18
48
1
60
0
100
AcDbLine
10
-14.517
20
-1.71888
30
0
11
-14.44538
21
-1.7905
31
0
39
0
210
0
220
0
230
1
0
LINE
5
BA
100
AcDbEntity
8
SK1
62
256
6
ByLayer
370
18
48
1
60
0
100
AcDbLine
10
-14.44538
20
1.7905
30
0
11
-14.517
21
1.71888
31
0
39
0
210
0
220
0
230
1
0
LINE
5
BB
100
AcDbEntity
8
SK1
62
256
6
ByLayer
370
18
48
1
60
0
100
AcDbLine
10
0
20
1.7905
30
0
11
-14.44538
21
1.7905
31
0
39
0
210
0
220
0
230
1
0
LINE
5
BC
100
AcDbEntity
8
SK1
62
256
6
ByLayer
370
18
48
1
60
0
100
AcDbLine
10
-14.44538
20
-1.7905
30
0
11
0
21
-1.7905
31
0
39
0
210
0
220
0
230
1
0
LINE
5
BD
100
AcDbEntity
8
SK2
62
256
6
ByLayer
370
18
48
1
60
0
100
AcDbLine
10
7.781233
20
23.823355
30
0
11
7.781233
21
-9.2905
31
0
39
0
210
0
220
0
230
1
0
LINE
5
BF
100
AcDbEntity
8
1
62
256
6
ByLayer
370
18
48
1
60
1
100
AcDbLine
10
7.781233
20
1.7905
30
0
11
7.320449
21
5.290498
31
0
39
0
210
0
220
0
230
1
0
LINE
5
C0
100
AcDbEntity
8
1
62
256
6
ByLayer
370
18
48
1
60
1
100
AcDbLine
10
7.320449
20
5.290498
30
0
11
8.242017
21
5.290502
31
0
39
0
210
0
220
0
230
1
0
LINE
5
C1
100
AcDbEntity
8
1
62
256
6
ByLayer
370
18
48
1
60
1
100
AcDbLine
10
8.242017
20
5.290502
30
0
11
7.781233
21
1.7905
31
0
39
0
210
0
220
0
230
1
0
LINE
5
C2
100
AcDbEntity
8
1
62
256
6
ByLayer
370
18
48
1
60
1
100
AcDbLine
10
7.781233
20
-1.7905
30
0
11
8.242017
21
-5.290498
31
0
39
0
210
0
220
0
230
1
0
LINE
5
C3
100
AcDbEntity
8
1
62
256
6
ByLayer
370
18
48
1
60
1
100
AcDbLine
10
8.242017
20
-5.290498
30
0
11
7.320449
21
-5.290502
31
0
39
0
210
0
220
0
230
1
0
LINE
5
C4
100
AcDbEntity
8
1
62
256
6
ByLayer
370
18
48
1
60
1
100
AcDbLine
10
7.320449
20
-5.290502
30
0
11
7.781233
21
-1.7905
31
0
39
0
210
0
220
0
230
1
0
LINE
5
C5
100
AcDbEntity
8
2
62
256
6
ByLayer
370
18
48
1
60
0
100
AcDbLine
10
30.97
20
-39.286848
30
0
11
-19.83
21
-39.286848
31
0
39
0
210
0
220
0
230
1
0
LINE
5
C7
100
AcDbEntity
8
2
62
256
6
ByLayer
370
18
48
1
60
0
100
AcDbLine
10
-19.83
20
-2.30638
30
0
11
-19.83
21
-41.286848
31
0
39
0
210
0
220
0
230
1
0
LINE
5
C8
100
AcDbEntity
8
2
62
256
6
ByLayer
370
18
48
1
60
0
100
AcDbLine
10
30.97
20
-3.374348
30
0
11
30.97
21
-41.286848
31
0
39
0
210
0
220
0
230
1
0
LINE
5
C9
100
AcDbEntity
8
1
62
256
6
ByLayer
370
18
48
1
60
1
100
AcDbLine
10
-19.83
20
-39.286848
30
0
11
-16.330002
21
-38.826064
31
0
39
0
210
0
220
0
230
1
0
LINE
5
CA
100
AcDbEntity
8
1
62
256
6
ByLayer
370
18
48
1
60
1
100
AcDbLine
10
-16.330002
20
-38.826064
30
0
11
-16.329998
21
-39.747631
31
0
39
0
210
0
220
0
230
1
0
LINE
5
CB
100
AcDbEntity
8
1
62
256
6
ByLayer
370
18
48
1
60
1
100
AcDbLine
10
-16.329998
20
-39.747631
30
0
11
-19.83
21
-39.286848
31
0
39
0
210
0
220
0
230
1
0
LINE
5
CC
100
AcDbEntity
8
1
62
256
6
ByLayer
370
18
48
1
60
1
100
AcDbLine
10
30.97
20
-39.286848
30
0
11
27.470002
21
-39.747631
31
0
39
0
210
0
220
0
230
1
0
LINE
5
CD
100
AcDbEntity
8
1
62
256
6
ByLayer
370
18
48
1
60
1
100
AcDbLine
10
27.470002
20
-39.747631
30
0
11
27.469998
21
-38.826064
31
0
39
0
210
0
220
0
230
1
0
LINE
5
CE
100
AcDbEntity
8
1
62
256
6
ByLayer
370
18
48
1
60
1
100
AcDbLine
10
27.469998
20
-38.826064
30
0
11
30.97
21
-39.286848
31
0
39
0
210
0
220
0
230
1
0
LINE
5
1EC
100
AcDbEntity
8
1
62
256
6
ByLayer
370
18
48
1
60
1
100
AcDbLine
10
7.781233
20
1.7905
30
0
11
7.320449
21
5.290498
31
0
39
0
210
0
220
0
230
1
0
LINE
5
1ED
100
AcDbEntity
8
1
62
256
6
ByLayer
370
18
48
1
60
1
100
AcDbLine
10
7.320449
20
5.290498
30
0
11
8.242017
21
5.290502
31
0
39
0
210
0
220
0
230
1
0
LINE
5
1EE
100
AcDbEntity
8
1
62
256
6
ByLayer
370
18
48
1
60
1
100
AcDbLine
10
8.242017
20
5.290502
30
0
11
7.781233
21
1.7905
31
0
39
0
210
0
220
0
230
1
0
LINE
5
1F0
100
AcDbEntity
8
1
62
256
6
ByLayer
370
18
48
1
60
1
100
AcDbLine
10
7.781233
20
-1.7905
30
0
11
8.242017
21
-5.290498
31
0
39
0
210
0
220
0
230
1
0
LINE
5
1F1
100
AcDbEntity
8
1
62
256
6
ByLayer
370
18
48
1
60
1
100
AcDbLine
10
8.242017
20
-5.290498
30
0
11
7.320449
21
-5.290502
31
0
39
0
210
0
220
0
230
1
0
LINE
5
1F2
100
AcDbEntity
8
1
62
256
6
ByLayer
370
18
48
1
60
1
100
AcDbLine
10
7.320449
20
-5.290502
30
0
11
7.781233
21
-1.7905
31
0
39
0
210
0
220
0
230
1
0
LINE
5
1F5
100
AcDbEntity
8
1
62
256
6
ByLayer
370
18
48
1
60
1
100
AcDbLine
10
-19.83
20
-39.286848
30
0
11
-16.330002
21
-38.826064
31
0
39
0
210
0
220
0
230
1
0
LINE
5
1F6
100
AcDbEntity
8
1
62
256
6
ByLayer
370
18
48
1
60
1
100
AcDbLine
10
-16.330002
20
-38.826064
30
0
11
-16.329998
21
-39.747631
31
0
39
0
210
0
220
0
230
1
0
LINE
5
1F7
100
AcDbEntity
8
1
62
256
6
ByLayer
370
18
48
1
60
1
100
AcDbLine
10
-16.329998
20
-39.747631
30
0
11
-19.83
21
-39.286848
31
0
39
0
210
0
220
0
230
1
0
LINE
5
1F9
100
AcDbEntity
8
1
62
256
6
ByLayer
370
18
48
1
60
1
100
AcDbLine
10
30.97
20
-39.286848
30
0
11
27.470002
21
-39.747631
31
0
39
0
210
0
220
0
230
1
0
LINE
5
1FA
100
AcDbEntity
8
1
62
256
6
ByLayer
370
18
48
1
60
1
100
AcDbLine
10
27.470002
20
-39.747631
30
0
11
27.469998
21
-38.826064
31
0
39
0
210
0
220
0
230
1
0
LINE
5
1FB
100
AcDbEntity
8
1
62
256
6
ByLayer
370
18
48
1
60
1
100
AcDbLine
10
27.469998
20
-38.826064
30
0
11
30.97
21
-39.286848
31
0
39
0
210
0
220
0
230
1
0
MTEXT
5
1E8
100
AcDbEntity
8
SK2
62
256
6
ByLayer
370
18
48
1
60
0
100
AcDbMText
10
6.440118
20
9.448938
30
0
210
0
220
0
230
1
1
%%c
40
3
41
0
44
1.084337
50
90
71
7
72
5
7
iso_b_vert
0
MTEXT
5
1EB
100
AcDbEntity
8
SK2
62
256
6
ByLayer
370
18
48
1
60
0
100
AcDbMText
10
6.440118
20
15.4255
30
0
210
0
220
0
230
1
1
\W0.7373;3.581
40
3
41
0
44
1.084337
50
90
71
7
72
5
7
iso_b_vert
0
MTEXT
5
1F4
100
AcDbEntity
8
2
62
256
6
ByLayer
370
18
48
1
60
0
100
AcDbMText
10
2.208544
20
-38.401733
30
0
210
0
220
0
230
1
1
\W0.7346;50.8
40
3
41
0
44
1.084337
50
0
71
7
72
5
7
iso_b_vert
0
MTEXT
5
1FD
100
AcDbEntity
8
SK6
62
256
6
ByLayer
370
18
48
1
60
0
100
AcDbMText
10
-14.162185
20
-82.114886
30
0
210
0
220
0
230
1
1
\W0.7383;T300-MM100AE-6-32   C145
40
3
41
0
44
1.084337
50
0
71
7
72
5
7
iso_b_vert
0
HATCH
5
1EF
100
AcDbEntity
8
SK2
62
256
6
ByLayer
370
13
48
1
60
0
100
AcDbHatch
10
0
20
0
30
0
210
0
220
0
230
1
2
ANSI31
70
0
71
0
91
1
92
5
93
3
72
1
10
7.78123288819776
20
1.79050000000001
11
7.32044914664499
21
5.29049830744682
72
1
10
7.32044914664499
20
5.29049830744682
11
8.24201662975054
21
5.29050169255319
72
1
10
8.24201662975054
20
5.29050169255319
11
7.78123288819776
21
1.79050000000001
97
0
75
0
76
1
52
0
41
0.0062
77
0
78
1
53
45
43
0
44
0
45
-0.0139193969876572
46
0.0139193969876572
79
0
47
0
98
1
10
0
20
0
0
HATCH
5
1F3
100
AcDbEntity
8
SK2
62
256
6
ByLayer
370
13
48
1
60
0
100
AcDbHatch
10
0
20
0
30
0
210
0
220
0
230
1
2
ANSI31
70
0
71
0
91
1
92
5
93
3
72
1
10
7.78123288819776
20
-1.79050000000001
11
8.24201662975054
21
-5.29049830744682
72
1
10
8.24201662975054
20
-5.29049830744682
11
7.32044914664499
21
-5.29050169255319
72
1
10
7.32044914664499
20
-5.29050169255319
11
7.78123288819776
21
-1.79050000000001
97
0
75
0
76
1
52
0
41
0.0062
77
0
78
1
53
45
43
0
44
0
45
-0.0139193969876572
46
0.0139193969876572
79
0
47
0
98
1
10
0
20
0
0
HATCH
5
1F8
100
AcDbEntity
8
2
62
256
6
ByLayer
370
13
48
1
60
0
100
AcDbHatch
10
0
20
0
30
0
210
0
220
0
230
1
2
ANSI31
70
0
71
0
91
1
92
5
93
3
72
1
10
-19.83
20
-39.2868476867697
11
-16.3300016925532
21
-38.8260639452169
72
1
10
-16.3300016925532
20
-38.8260639452169
11
-16.3299983074468
21
-39.7476314283225
72
1
10
-16.3299983074468
20
-39.7476314283225
11
-19.83
21
-39.2868476867697
97
0
75
0
76
1
52
0
41
0.0062
77
0
78
1
53
45
43
0
44
0
45
-0.0139193969876572
46
0.0139193969876572
79
0
47
0
98
1
10
0
20
0
0
HATCH
5
1FC
100
AcDbEntity
8
2
62
256
6
ByLayer
370
13
48
1
60
0
100
AcDbHatch
10
0
20
0
30
0
210
0
220
0
230
1
2
ANSI31
70
0
71
0
91
1
92
5
93
3
72
1
10
30.97
20
-39.2868476867697
11
27.4700016925532
21
-39.7476314283225
72
1
10
27.4700016925532
20
-39.7476314283225
11
27.4699983074468
21
-38.8260639452169
72
1
10
27.4699983074468
20
-38.8260639452169
11
30.97
21
-39.2868476867697
97
0
75
0
76
1
52
0
41
0.0062
77
0
78
1
53
45
43
0
44
0
45
-0.0139193969876572
46
0.0139193969876572
79
0
47
0
98
1
10
0
20
0
0
DIMENSION
5
200
100
AcDbEntity
8
2
62
256
6
ByLayer
370
18
48
1
60
0
100
AcDbDimension
2
_U0
10
49.653152
20
-1.786848
30
0
11
49.653152
21
20.403046
31
0
70
32
71
1
72
1
41
1
210
0
220
0
230
1
3
Standard
100
AcDbAlignedDimension
13
30.97
23
1.786848
33
0
14
30.97
24
-1.786848
34
0
50
90
100
AcDbRotatedDimension
1001
ACAD
1000
DSTYLE
1002
{
1070
   371
1070
    13
1070
   372
1070
    13
1070
     3
1000

1070
   170
1070
     0
1070
   144
1040
1.0
1070
   277
1070
     2
1070
   284
1070
     8
1070
   278
1070
    46
1070
   146
1040
1.166667
1070
   345
1005
16
1070
   347
1005
16
1070
   346
1005
16
1070
   344
1005
0
1070
   343
1005
0
1070
   172
1070
     1
1070
    76
1070
     0
1070
    75
1070
     0
1070
   282
1070
     0
1070
   281
1070
     0
1070
    71
1070
     0
1070
    74
1070
     0
1070
   279
1070
     0
1070
   173
1070
     1
1070
   340
1005
1E9
1070
   271
1070
     3
1070
   272
1070
     3
1070
    77
1070
     1
1070
    73
1070
     0
1070
   171
1070
     3
1070
   274
1070
     4
1070
   177
1070
     2
1070
   176
1070
     2
1070
   178
1070
     2
1070
    78
1070
     8
1070
    48
1040
-0.1
1070
    41
1040
3.5
1070
   147
1040
1.5
1070
    42
1040
1.5875
1070
    44
1040
2.0
1070
   140
1040
3.0
1002
}
1001
ACAD_DSTYLE_DIM_LINETYPE
1070
   380
1005
16
1001
ACAD_DSTYLE_DIM_EXT1_LINETYPE
1070
   381
1005
16
1001
ACAD_DSTYLE_DIM_EXT2_LINETYPE
1070
   382
1005
16
0
DIMENSION
5
21B
100
AcDbEntity
8
SK2
62
256
6
ByLayer
370
18
48
1
60
0
100
AcDbDimension
2
_U1
10
-24.83
20
1.395
30
0
11
-24.83
21
22.165626
31
0
70
32
71
1
72
1
41
1
210
0
220
0
230
1
3
Standard
100
AcDbAlignedDimension
13
-18.83
23
-1.395
33
0
14
-18.83
24
1.395
34
0
50
90
100
AcDbRotatedDimension
1001
ACAD
1000
DSTYLE
1002
{
1070
   371
1070
    13
1070
   372
1070
    13
1070
     3
1000

1070
   170
1070
     0
1070
   144
1040
1.0
1070
   277
1070
     2
1070
   284
1070
     8
1070
   278
1070
    46
1070
   146
1040
1.166667
1070
   345
1005
16
1070
   347
1005
16
1070
   346
1005
16
1070
   344
1005
0
1070
   343
1005
0
1070
   172
1070
     1
1070
    76
1070
     0
1070
    75
1070
     0
1070
   282
1070
     0
1070
   281
1070
     0
1070
    71
1070
     0
1070
    74
1070
     0
1070
   279
1070
     0
1070
   173
1070
     1
1070
   340
1005
1E9
1070
   271
1070
     3
1070
   272
1070
     3
1070
    77
1070
     1
1070
    73
1070
     0
1070
   171
1070
     3
1070
   274
1070
     4
1070
   177
1070
     2
1070
   176
1070
     2
1070
   178
1070
     2
1070
    78
1070
     8
1070
    48
1040
-0.1
1070
    41
1040
3.5
1070
   147
1040
1.5
1070
    42
1040
1.5875
1070
    44
1040
2.0
1070
   140
1040
3.0
1002
}
1001
ACAD_DSTYLE_DIM_LINETYPE
1070
   380
1005
16
1001
ACAD_DSTYLE_DIM_EXT1_LINETYPE
1070
   381
1005
16
1001
ACAD_DSTYLE_DIM_EXT2_LINETYPE
1070
   382
1005
16
0
DIMENSION
5
235
100
AcDbEntity
8
SK2
62
256
6
ByLayer
370
18
48
1
60
0
100
AcDbDimension
2
_U2
10
29.18
20
10.792403
30
0
11
30.075
21
10.792403
31
0
70
32
71
1
72
1
41
1
210
0
220
0
230
1
3
Standard
100
AcDbAlignedDimension
13
30.97
23
1.786848
33
0
14
29.18
24
0
34
0
50
0
100
AcDbRotatedDimension
1001
ACAD
1000
DSTYLE
1002
{
1070
   371
1070
    13
1070
   372
1070
    13
1070
   170
1070
     0
1070
   144
1040
1.0
1070
   277
1070
     2
1070
   284
1070
     8
1070
   278
1070
    46
1070
   146
1040
1.166667
1070
   345
1005
16
1070
   347
1005
16
1070
   346
1005
16
1070
   344
1005
0
1070
   343
1005
0
1070
   172
1070
     1
1070
    76
1070
     0
1070
    75
1070
     0
1070
   282
1070
     0
1070
   281
1070
     0
1070
    71
1070
     0
1070
    74
1070
     0
1070
   279
1070
     0
1070
   173
1070
     1
1070
   340
1005
1E9
1070
   271
1070
     3
1070
   272
1070
     3
1070
    77
1070
     1
1070
    73
1070
     1
1070
   171
1070
     3
1070
   274
1070
     4
1070
   177
1070
     2
1070
   176
1070
     2
1070
   178
1070
     2
1070
    78
1070
     8
1070
    48
1040
-0.1
1070
    41
1040
3.5
1070
   147
1040
1.5
1070
    42
1040
1.5875
1070
    44
1040
2.0
1070
   140
1040
3.0
1002
}
1001
ACAD_DSTYLE_DIM_LINETYPE
1070
   380
1005
16
1001
ACAD_DSTYLE_DIM_EXT1_LINETYPE
1070
   381
1005
16
1001
ACAD_DSTYLE_DIM_EXT2_LINETYPE
1070
   382
1005
16
0
DIMENSION
5
24F
100
AcDbEntity
8
SK2
62
256
6
ByLayer
370
18
48
1
60
0
100
AcDbDimension
2
_U3
10
22.97
20
-8.786848
30
0
11
23.784371
21
-8.786848
31
0
70
32
71
1
72
1
41
1
210
0
220
0
230
1
3
Standard
100
AcDbAlignedDimension
13
30.97
23
-1.786848
33
0
14
22.97
24
-1.786848
34
0
50
0
100
AcDbRotatedDimension
1001
ACAD
1000
DSTYLE
1002
{
1070
   371
1070
    13
1070
   372
1070
    13
1070
   170
1070
     0
1070
   144
1040
1.0
1070
   277
1070
     2
1070
   284
1070
     8
1070
   278
1070
    46
1070
   146
1040
1.166667
1070
   345
1005
16
1070
   347
1005
16
1070
   346
1005
16
1070
   344
1005
0
1070
   343
1005
0
1070
   172
1070
     1
1070
    76
1070
     0
1070
    75
1070
     0
1070
   282
1070
     0
1070
   281
1070
     0
1070
    71
1070
     0
1070
    74
1070
     0
1070
   279
1070
     0
1070
   173
1070
     1
1070
   340
1005
1E9
1070
   271
1070
     1
1070
   272
1070
     3
1070
    77
1070
     1
1070
    73
1070
     1
1070
   171
1070
     3
1070
   274
1070
     4
1070
   177
1070
     2
1070
   176
1070
     2
1070
   178
1070
     2
1070
    78
1070
     8
1070
    48
1040
-0.1
1070
    41
1040
3.5
1070
   147
1040
1.5
1070
    42
1040
1.5875
1070
    44
1040
2.0
1070
   140
1040
3.0
1002
}
1001
ACAD_DSTYLE_DIM_LINETYPE
1070
   380
1005
16
1001
ACAD_DSTYLE_DIM_EXT1_LINETYPE
1070
   381
1005
16
1001
ACAD_DSTYLE_DIM_EXT2_LINETYPE
1070
   382
1005
16
0
DIMENSION
5
268
100
AcDbEntity
8
SK2
62
256
6
ByLayer
370
18
48
1
60
0
100
AcDbDimension
2
_U4
10
14.97
20
-31.286848
30
0
11
22.97
21
-31.286848
31
0
70
32
71
1
72
1
41
1
210
0
220
0
230
1
3
Standard
100
AcDbAlignedDimension
13
30.97
23
-1.786848
33
0
14
14.97
24
-1.235
34
0
50
0
100
AcDbRotatedDimension
1001
ACAD
1000
DSTYLE
1002
{
1070
   371
1070
    13
1070
   372
1070
    13
1070
   170
1070
     0
1070
   144
1040
1.0
1070
   277
1070
     2
1070
   284
1070
     8
1070
   278
1070
    46
1070
   146
1040
1.166667
1070
   345
1005
16
1070
   347
1005
16
1070
   346
1005
16
1070
   344
1005
0
1070
   343
1005
0
1070
   172
1070
     1
1070
    76
1070
     0
1070
    75
1070
     0
1070
   282
1070
     0
1070
   281
1070
     0
1070
    71
1070
     0
1070
    74
1070
     0
1070
   279
1070
     0
1070
   173
1070
     1
1070
   340
1005
1E9
1070
   271
1070
     1
1070
   272
1070
     3
1070
    77
1070
     1
1070
    73
1070
     1
1070
   171
1070
     3
1070
   274
1070
     4
1070
   177
1070
     2
1070
   176
1070
     2
1070
   178
1070
     2
1070
    78
1070
     8
1070
    48
1040
-0.1
1070
    41
1040
3.5
1070
   147
1040
1.5
1070
    42
1040
1.5875
1070
    44
1040
2.0
1070
   140
1040
3.0
1002
}
1001
ACAD_DSTYLE_DIM_LINETYPE
1070
   380
1005
16
1001
ACAD_DSTYLE_DIM_EXT1_LINETYPE
1070
   381
1005
16
1001
ACAD_DSTYLE_DIM_EXT2_LINETYPE
1070
   382
1005
16
0
DIMENSION
5
280
100
AcDbEntity
8
2
62
256
6
ByLayer
370
18
48
1
60
0
100
AcDbDimension
2
_U5
10
16.47
20
-20.286848
30
0
11
23.72
21
-20.286848
31
0
70
32
71
1
72
1
41
1
210
0
220
0
230
1
3
Standard
100
AcDbAlignedDimension
13
30.97
23
-1.786848
33
0
14
16.47
24
0
34
0
50
0
100
AcDbRotatedDimension
1001
ACAD
1000
DSTYLE
1002
{
1070
   371
1070
    13
1070
   372
1070
    13
1070
   170
1070
     0
1070
   144
1040
1.0
1070
   277
1070
     2
1070
   284
1070
     8
1070
   278
1070
    46
1070
   146
1040
1.166667
1070
   345
1005
16
1070
   347
1005
16
1070
   346
1005
16
1070
   344
1005
0
1070
   343
1005
0
1070
   172
1070
     1
1070
    76
1070
     0
1070
    75
1070
     0
1070
   282
1070
     0
1070
   281
1070
     0
1070
    71
1070
     0
1070
    74
1070
     0
1070
   279
1070
     0
1070
   173
1070
     1
1070
   340
1005
1E9
1070
   271
1070
     1
1070
   272
1070
     3
1070
    77
1070
     1
1070
    73
1070
     1
1070
   171
1070
     3
1070
   274
1070
     4
1070
   177
1070
     2
1070
   176
1070
     2
1070
   178
1070
     2
1070
    78
1070
     8
1070
    48
1040
-0.1
1070
    41
1040
3.5
1070
   147
1040
1.5
1070
    42
1040
1.5875
1070
    44
1040
2.0
1070
   140
1040
3.0
1002
}
1001
ACAD_DSTYLE_DIM_LINETYPE
1070
   380
1005
16
1001
ACAD_DSTYLE_DIM_EXT1_LINETYPE
1070
   381
1005
16
1001
ACAD_DSTYLE_DIM_EXT2_LINETYPE
1070
   382
1005
16
0
ENDSEC
0
SECTION
2
OBJECTS
0
DICTIONARY
5
309
330
0
100
AcDbDictionary
280
0
281
1
3
ACAD_GROUP
350
30a
3
ACAD_MLINESTYLE
350
30b
0
DICTIONARY
5
30a
330
0
100
AcDbDictionary
280
0
281
1
0
DICTIONARY
5
30b
330
0
100
AcDbDictionary
280
0
281
1
3
Standard
350
18
0
MLINESTYLE
5
18
330
30b
100
AcDbMlineStyle
2
Standard
70
0
3

62
256
51
90
52
90
71
2
49
-0.5
62
256
6
ByLayer
49
0.5
62
256
6
ByLayer
0
RASTERVARIABLES
5
2f7
330

100
AcDbRasterVariables
90
0
70
1
71
1
72
1
0
ENDSEC
0
EOF
