0
SECTION
2
HEADER
9
$ACADVER
1
AC1015
9
$DWGCODEPAGE
3
ANSI_1252
9
$HANDSEED
5
321
9
$ANGBASE
50
0
9
$ANGDIR
70
0
9
$ATTMODE
70
1
9
$AUNITS
70
0
9
$AUPREC
70
0
9
$CECOLOR
62
256
9
$CELTSCALE
40
1
9
$CELTYPE
6
ByLayer
9
$CELWEIGHT
370
18
9
$CLAYER
8
0
9
$CMLJUST
70
0
9
$CMLSCALE
40
1
9
$CMLSTYLE
2
Standard
9
$DIMSTYLE
2
Standard
9
$TEXTSIZE
40
0.2
9
$TEXTSTYLE
7
Standard
9
$LUNITS
70
2
9
$LUPREC
70
4
9
$EXTNAMES
290
1
9
$INSUNITS
70
4
9
$LTSCALE
40
1
9
$LWDISPLAY
290
1
9
$PDMODE
70
0
9
$PDSIZE
40
0
9
$PLINEGEN
70
0
0
ENDSEC
0
SECTION
2
CLASSES
0
CLASS
1
RASTERVARIABLES
2
AcDbRasterVariables
3
ISM
90
0
280
0
281
0
0
ENDSEC
0
SECTION
2
TABLES
0
TABLE
2
VPORT
5
317
100
AcDbSymbolTable
0
VPORT
5
1
100
AcDbSymbolTableRecord
100
AcDbViewportTableRecord
2
*Active
70
0
10
0
20
0
11
1
21
1
12
-1
22
1
13
0
23
0
14
0.5
24
0.5
15
10
25
10
16
0
26
0
36
1
17
0
27
0
37
0
0
ENDTAB
0
TABLE
2
LTYPE
5
318
100
AcDbSymbolTable
0
LTYPE
5
14
100
AcDbSymbolTableRecord
100
AcDbLinetypeTableRecord
70
0
2
ByBlock
3

72
65
73
0
40
0
0
LTYPE
5
15
100
AcDbSymbolTableRecord
100
AcDbLinetypeTableRecord
70
0
2
ByLayer
3

72
65
73
0
40
0
0
LTYPE
5
16
100
AcDbSymbolTableRecord
100
AcDbLinetypeTableRecord
70
0
2
Continuous
3
Solid line
72
65
73
0
40
0
0
LTYPE
5
6E
100
AcDbSymbolTableRecord
100
AcDbLinetypeTableRecord
70
0
2
CENTER
3
____ _ ____ _ ____ _ ____
72
65
73
4
40
47.5
49
22
74
0
49
-8.5
74
0
49
8.5
74
0
49
-8.5
74
0
0
LTYPE
5
6F
100
AcDbSymbolTableRecord
100
AcDbLinetypeTableRecord
70
0
2
DASHED
3
__ __ __ __ __ __ __ __ __
72
65
73
2
40
25.72
49
12.86
74
0
49
-12.86
74
0
0
ENDTAB
0
TABLE
2
LAYER
5
319
100
AcDbSymbolTable
0
LAYER
5
10
100
AcDbSymbolTableRecord
100
AcDbLayerTableRecord
2
0
70
0
62
7
6
Continuous
290
1
370
-3
390
0
0
LAYER
5
71
100
AcDbSymbolTableRecord
100
AcDbLayerTableRecord
2
80
70
0
62
-6
6
Continuous
290
1
370
-3
390
0
0
LAYER
5
73
100
AcDbSymbolTableRecord
100
AcDbLayerTableRecord
2
81
70
0
62
-3
6
Continuous
290
1
370
-3
390
0
0
LAYER
5
75
100
AcDbSymbolTableRecord
100
AcDbLayerTableRecord
2
1
70
0
62
4
6
Continuous
290
1
370
-3
390
0
0
LAYER
5
85
100
AcDbSymbolTableRecord
100
AcDbLayerTableRecord
2
4
70
0
62
-2
6
CENTER
290
1
370
-3
390
0
0
LAYER
5
C9
100
AcDbSymbolTableRecord
100
AcDbLayerTableRecord
2
2
70
0
62
7
6
Continuous
290
1
370
-3
390
0
0
LAYER
5
20F
100
AcDbSymbolTableRecord
100
AcDbLayerTableRecord
2
Defpoints
70
0
62
7
6
Continuous
290
0
370
-3
390
0
0
LAYER
5
303
100
AcDbSymbolTableRecord
100
AcDbLayerTableRecord
2
SK4
70
0
62
2
6
CENTER
290
1
370
-3
390
0
0
LAYER
5
304
100
AcDbSymbolTableRecord
100
AcDbLayerTableRecord
2
SK1
70
0
62
4
6
Continuous
290
1
370
-3
390
0
0
LAYER
5
305
100
AcDbSymbolTableRecord
100
AcDbLayerTableRecord
2
SK2
70
0
62
7
6
Continuous
290
1
370
-3
390
0
0
LAYER
5
306
100
AcDbSymbolTableRecord
100
AcDbLayerTableRecord
2
SK6
70
0
62
5
6
Continuous
290
1
370
-3
390
0
0
ENDTAB
0
TABLE
2
STYLE
5
31a
100
AcDbSymbolTable
0
STYLE
5
11
100
AcDbSymbolTableRecord
100
AcDbTextStyleTableRecord
2
Standard
3
txt
70
0
71
0
40
0
41
1
42
0
50
0
0
STYLE
5
1F5
100
AcDbSymbolTableRecord
100
AcDbTextStyleTableRecord
2
iso_b_vert
3
simplex.shx
70
0
71
0
40
0
41
1
42
0
50
0
0
STYLE
5
1F6
100
AcDbSymbolTableRecord
100
AcDbTextStyleTableRecord
2
DWGDirectTextStyle
3
simplex
70
0
71
0
40
0
41
1
42
0
50
0
0
ENDTAB
0
TABLE
2
DIMSTYLE
5
31b
100
AcDbSymbolTable
100
AcDbDimStyleTable
0
DIMSTYLE
105
27
100
AcDbSymbolTableRecord
100
AcDbDimStyleTableRecord
2
Standard
70
0
3
<>
41
0.18
42
0.0625
44
0.18
140
0.18
147
0.09
73
0
74
0
77
1
271
2
275
0
278
52
280
0
340
11
0
ENDTAB
0
TABLE
2
VIEW
5
31c
100
AcDbSymbolTable
0
ENDTAB
0
TABLE
2
UCS
5
31d
100
AcDbSymbolTable
0
ENDTAB
0
TABLE
2
APPID
5
31e
100
AcDbSymbolTable
0
APPID
5
12
100
AcDbSymbolTableRecord
100
AcDbRegAppTableRecord
2
ACAD
70
0
0
APPID
5
20B
100
AcDbSymbolTableRecord
100
AcDbRegAppTableRecord
2
ACAD_DSTYLE_DIMBREAK
70
0
0
APPID
5
2C2
100
AcDbSymbolTableRecord
100
AcDbRegAppTableRecord
2
ACAD_DSTYLE_DIM_LINETYPE
70
0
0
APPID
5
2C3
100
AcDbSymbolTableRecord
100
AcDbRegAppTableRecord
2
ACAD_DSTYLE_DIM_EXT1_LINETYPE
70
0
0
APPID
5
2C4
100
AcDbSymbolTableRecord
100
AcDbRegAppTableRecord
2
ACAD_DSTYLE_DIM_EXT2_LINETYPE
70
0
0
APPID
5
2FF
100
AcDbSymbolTableRecord
100
AcDbRegAppTableRecord
2
ACAD_MLEADERVER
70
0
0
ENDTAB
0
TABLE
2
BLOCK_RECORD
5
31f
100
AcDbSymbolTable
0
BLOCK_RECORD
5
1F
100
AcDbSymbolTableRecord
100
AcDbBlockTableRecord
2
*Model_Space
340
0
70
0
0
BLOCK_RECORD
5
1B
100
AcDbSymbolTableRecord
100
AcDbBlockTableRecord
2
*Paper_Space
340
0
70
0
0
BLOCK_RECORD
5
23
100
AcDbSymbolTableRecord
100
AcDbBlockTableRecord
2
*Paper_Space0
340
0
70
0
0
BLOCK_RECORD
5
210
100
AcDbSymbolTableRecord
100
AcDbBlockTableRecord
2
*D1
340
0
70
0
0
BLOCK_RECORD
5
21E
100
AcDbSymbolTableRecord
100
AcDbBlockTableRecord
2
_U0
340
0
70
0
0
BLOCK_RECORD
5
22A
100
AcDbSymbolTableRecord
100
AcDbBlockTableRecord
2
*D3
340
0
70
0
0
BLOCK_RECORD
5
238
100
AcDbSymbolTableRecord
100
AcDbBlockTableRecord
2
_U1
340
0
70
0
0
BLOCK_RECORD
5
244
100
AcDbSymbolTableRecord
100
AcDbBlockTableRecord
2
*D5
340
0
70
0
0
BLOCK_RECORD
5
251
100
AcDbSymbolTableRecord
100
AcDbBlockTableRecord
2
_U2
340
0
70
0
0
BLOCK_RECORD
5
25E
100
AcDbSymbolTableRecord
100
AcDbBlockTableRecord
2
*D7
340
0
70
0
0
BLOCK_RECORD
5
26B
100
AcDbSymbolTableRecord
100
AcDbBlockTableRecord
2
_U3
340
0
70
0
0
BLOCK_RECORD
5
277
100
AcDbSymbolTableRecord
100
AcDbBlockTableRecord
2
*D9
340
0
70
0
0
BLOCK_RECORD
5
283
100
AcDbSymbolTableRecord
100
AcDbBlockTableRecord
2
_U4
340
0
70
0
0
BLOCK_RECORD
5
28F
100
AcDbSymbolTableRecord
100
AcDbBlockTableRecord
2
*D11
340
0
70
0
0
BLOCK_RECORD
5
29B
100
AcDbSymbolTableRecord
100
AcDbBlockTableRecord
2
_U5
340
0
70
0
0
ENDTAB
0
ENDSEC
0
SECTION
2
BLOCKS
0
BLOCK
5
20
100
AcDbEntity
8
0
100
AcDbBlockBegin
2
*Model_Space
70
0
10
0
20
0
30
0
3
*Model_Space
0
ENDBLK
5
21
100
AcDbEntity
8
0
100
AcDbBlockEnd
0
BLOCK
5
1C
100
AcDbEntity
8
0
100
AcDbBlockBegin
2
*Paper_Space
70
0
10
0
20
0
30
0
3
*Paper_Space
0
ENDBLK
5
1D
100
AcDbEntity
8
0
100
AcDbBlockEnd
0
BLOCK
5
24
100
AcDbEntity
8
0
100
AcDbBlockBegin
2
*Paper_Space0
70
0
10
0
20
0
30
0
3
*Paper_Space0
0
ENDBLK
5
25
100
AcDbEntity
8
0
100
AcDbBlockEnd
0
BLOCK
5
211
100
AcDbEntity
8
0
100
AcDbBlockBegin
2
*D1
70
1
10
0
20
0
30
0
3
*D1
0
LINE
5
213
100
AcDbEntity
8
0
62
256
6
ByLayer
370
-2
48
1
60
0
100
AcDbLine
10
42.2175
20
3.05706
30
0
11
62.13
21
3.05706
31
0
39
0
210
0
220
0
230
1
0
LINE
5
214
100
AcDbEntity
8
0
62
256
6
ByLayer
370
-2
48
1
60
0
100
AcDbLine
10
42.2175
20
-3.05706
30
0
11
62.13
21
-3.05706
31
0
39
0
210
0
220
0
230
1
0
LINE
5
215
100
AcDbEntity
8
0
62
256
6
ByLayer
370
-2
48
1
60
0
100
AcDbLine
10
60.13
20
3.05706
30
0
11
60.13
21
31.05706
31
0
39
0
210
0
220
0
230
1
0
LINE
5
216
100
AcDbEntity
8
0
62
256
6
ByLayer
370
-2
48
1
60
0
100
AcDbLine
10
60.13
20
6.55706
30
0
11
60.13
21
10.05706
31
0
39
0
210
0
220
0
230
1
0
LINE
5
217
100
AcDbEntity
8
0
62
256
6
ByLayer
370
-2
48
1
60
0
100
AcDbLine
10
60.13
20
-6.55706
30
0
11
60.13
21
-10.05706
31
0
39
0
210
0
220
0
230
1
0
SOLID
5
218
100
AcDbEntity
8
0
62
256
6
ByLayer
370
-1
48
1
60
0
100
AcDbTrace
10
59.546667
20
6.55706
30
0
11
60.713333
21
6.55706
31
0
12
60.13
22
3.05706
32
0
13
60.13
23
3.05706
33
0
39
0
210
0
220
0
230
1
0
SOLID
5
219
100
AcDbEntity
8
0
62
256
6
ByLayer
370
-1
48
1
60
0
100
AcDbTrace
10
60.713333
20
-6.55706
30
0
11
59.546667
21
-6.55706
31
0
12
60.13
22
-3.05706
32
0
13
60.13
23
-3.05706
33
0
39
0
210
0
220
0
230
1
0
MTEXT
5
21A
100
AcDbEntity
8
0
62
256
6
ByLayer
370
18
48
1
60
0
100
AcDbMText
10
54.13
20
20.55706
30
0
210
0
220
0
230
1
1
\A1;6.114
40
3
41
0
44
1
50
90
71
5
72
5
7
iso_b_vert
0
POINT
5
21B
100
AcDbEntity
8
Defpoints
62
0
6
ByLayer
370
-1
48
1
60
0
100
AcDbPoint
10
40.63
20
3.05706
30
0
39
0
210
0
220
0
230
1
50
360
0
POINT
5
21C
100
AcDbEntity
8
Defpoints
62
0
6
ByLayer
370
-1
48
1
60
0
100
AcDbPoint
10
40.63
20
-3.05706
30
0
39
0
210
0
220
0
230
1
50
360
0
POINT
5
21D
100
AcDbEntity
8
Defpoints
62
0
6
ByLayer
370
-1
48
1
60
0
100
AcDbPoint
10
60.13
20
-3.05706
30
0
39
0
210
0
220
0
230
1
50
360
0
ENDBLK
5
212
100
AcDbEntity
8
0
100
AcDbBlockEnd
0
BLOCK
5
225
100
AcDbEntity
8
0
100
AcDbBlockBegin
2
_U0
70
0
10
0
20
0
30
0
3
_U0
0
MTEXT
5
21F
100
AcDbEntity
8
2
62
256
6
ByLayer
370
18
48
1
60
0
100
AcDbMText
10
59.538886
20
13.19206
30
0
210
0
220
0
230
1
1
\W0.7203;M6
40
3
41
0
44
1.084337
50
90
71
7
72
5
7
iso_b_vert
0
LINE
5
220
100
AcDbEntity
8
2
62
256
6
ByLayer
370
13
48
1
60
0
100
AcDbLine
10
42.2175
20
3.05706
30
0
11
62.13
21
3.05706
31
0
39
0
210
0
220
0
230
1
0
LINE
5
221
100
AcDbEntity
8
2
62
256
6
ByLayer
370
13
48
1
60
0
100
AcDbLine
10
42.2175
20
-3.05706
30
0
11
62.13
21
-3.05706
31
0
39
0
210
0
220
0
230
1
0
LINE
5
222
100
AcDbEntity
8
2
62
256
6
ByLayer
370
13
48
1
60
0
100
AcDbLine
10
60.13
20
-10.55706
30
0
11
60.13
21
17.31186
31
0
39
0
210
0
220
0
230
1
0
SOLID
5
223
100
AcDbEntity
8
2
62
256
6
ByLayer
370
18
48
1
60
0
100
AcDbTrace
10
60.13
20
3.05706
30
0
11
59.669216
21
6.557059
31
0
12
60.590784
22
6.557062
32
0
13
60.590784
23
6.557062
33
0
39
0
210
0
220
0
230
1
0
SOLID
5
224
100
AcDbEntity
8
2
62
256
6
ByLayer
370
18
48
1
60
0
100
AcDbTrace
10
60.13
20
-3.05706
30
0
11
60.590784
21
-6.557059
31
0
12
59.669216
22
-6.557062
32
0
13
59.669216
23
-6.557062
33
0
39
0
210
0
220
0
230
1
0
ENDBLK
5
226
100
AcDbEntity
8
0
100
AcDbBlockEnd
0
BLOCK
5
22B
100
AcDbEntity
8
0
100
AcDbBlockBegin
2
*D3
70
1
10
0
20
0
30
0
3
*D3
0
LINE
5
22D
100
AcDbEntity
8
0
62
256
6
ByLayer
370
-2
48
1
60
0
100
AcDbLine
10
-23.4575
20
-2.425
30
0
11
-29.87
21
-2.425
31
0
39
0
210
0
220
0
230
1
0
LINE
5
22E
100
AcDbEntity
8
0
62
256
6
ByLayer
370
-2
48
1
60
0
100
AcDbLine
10
-23.4575
20
2.425
30
0
11
-29.87
21
2.425
31
0
39
0
210
0
220
0
230
1
0
LINE
5
22F
100
AcDbEntity
8
0
62
256
6
ByLayer
370
-2
48
1
60
0
100
AcDbLine
10
-27.87
20
2.425
30
0
11
-27.87
21
31.927884
31
0
39
0
210
0
220
0
230
1
0
LINE
5
230
100
AcDbEntity
8
0
62
256
6
ByLayer
370
-2
48
1
60
0
100
AcDbLine
10
-27.87
20
-5.925
30
0
11
-27.87
21
-9.425
31
0
39
0
210
0
220
0
230
1
0
LINE
5
231
100
AcDbEntity
8
0
62
256
6
ByLayer
370
-2
48
1
60
0
100
AcDbLine
10
-27.87
20
5.925
30
0
11
-27.87
21
9.425
31
0
39
0
210
0
220
0
230
1
0
SOLID
5
232
100
AcDbEntity
8
0
62
256
6
ByLayer
370
-1
48
1
60
0
100
AcDbTrace
10
-27.286667
20
-5.925
30
0
11
-28.453333
21
-5.925
31
0
12
-27.87
22
-2.425
32
0
13
-27.87
23
-2.425
33
0
39
0
210
0
220
0
230
1
0
SOLID
5
233
100
AcDbEntity
8
0
62
256
6
ByLayer
370
-1
48
1
60
0
100
AcDbTrace
10
-28.453333
20
5.925
30
0
11
-27.286667
21
5.925
31
0
12
-27.87
22
2.425
32
0
13
-27.87
23
2.425
33
0
39
0
210
0
220
0
230
1
0
MTEXT
5
234
100
AcDbEntity
8
0
62
256
6
ByLayer
370
18
48
1
60
0
100
AcDbMText
10
-33.87
20
22.856455
30
0
210
0
220
0
230
1
1
\A1;4.85
40
3
41
0
44
1
50
90
71
5
72
5
7
iso_b_vert
0
POINT
5
235
100
AcDbEntity
8
Defpoints
62
0
6
ByLayer
370
-1
48
1
60
0
100
AcDbPoint
10
-21.87
20
-2.425
30
0
39
0
210
0
220
0
230
1
50
360
0
POINT
5
236
100
AcDbEntity
8
Defpoints
62
0
6
ByLayer
370
-1
48
1
60
0
100
AcDbPoint
10
-21.87
20
2.425
30
0
39
0
210
0
220
0
230
1
50
360
0
POINT
5
237
100
AcDbEntity
8
Defpoints
62
0
6
ByLayer
370
-1
48
1
60
0
100
AcDbPoint
10
-27.87
20
2.425
30
0
39
0
210
0
220
0
230
1
50
360
0
ENDBLK
5
22C
100
AcDbEntity
8
0
100
AcDbBlockEnd
0
BLOCK
5
23F
100
AcDbEntity
8
0
100
AcDbBlockBegin
2
_U1
70
0
10
0
20
0
30
0
3
_U1
0
MTEXT
5
239
100
AcDbEntity
8
SK2
62
256
6
ByLayer
370
18
48
1
60
0
100
AcDbMText
10
-28.461114
20
11.135
30
0
210
0
220
0
230
1
1
\W0.7671;6.477 x 4.85
40
3
41
0
44
1.084337
50
90
71
7
72
5
7
iso_b_vert
0
LINE
5
23A
100
AcDbEntity
8
SK2
62
256
6
ByLayer
370
13
48
1
60
0
100
AcDbLine
10
-23.4575
20
-2.425
30
0
11
-29.87
21
-2.425
31
0
39
0
210
0
220
0
230
1
0
LINE
5
23B
100
AcDbEntity
8
SK2
62
256
6
ByLayer
370
13
48
1
60
0
100
AcDbLine
10
-23.4575
20
2.425
30
0
11
-29.87
21
2.425
31
0
39
0
210
0
220
0
230
1
0
LINE
5
23C
100
AcDbEntity
8
SK2
62
256
6
ByLayer
370
13
48
1
60
0
100
AcDbLine
10
-27.87
20
34.71291
30
0
11
-27.87
21
-9.925
31
0
39
0
210
0
220
0
230
1
0
SOLID
5
23D
100
AcDbEntity
8
SK2
62
256
6
ByLayer
370
18
48
1
60
0
100
AcDbTrace
10
-27.87
20
-2.425
30
0
11
-27.409216
21
-5.924998
31
0
12
-28.330784
22
-5.925002
32
0
13
-28.330784
23
-5.925002
33
0
39
0
210
0
220
0
230
1
0
SOLID
5
23E
100
AcDbEntity
8
SK2
62
256
6
ByLayer
370
18
48
1
60
0
100
AcDbTrace
10
-27.87
20
2.425
30
0
11
-28.330784
21
5.924998
31
0
12
-27.409216
22
5.925002
32
0
13
-27.409216
23
5.925002
33
0
39
0
210
0
220
0
230
1
0
ENDBLK
5
240
100
AcDbEntity
8
0
100
AcDbBlockEnd
0
BLOCK
5
245
100
AcDbEntity
8
0
100
AcDbBlockBegin
2
*D5
70
1
10
0
20
0
30
0
3
*D5
0
LINE
5
247
100
AcDbEntity
8
0
62
256
6
ByLayer
370
-2
48
1
60
0
100
AcDbLine
10
40.63
20
4.64456
30
0
11
40.63
21
14.0885
31
0
39
0
210
0
220
0
230
1
0
LINE
5
248
100
AcDbEntity
8
0
62
256
6
ByLayer
370
-2
48
1
60
0
100
AcDbLine
10
38.38
20
1.5875
30
0
11
38.38
21
14.0885
31
0
39
0
210
0
220
0
230
1
0
LINE
5
249
100
AcDbEntity
8
0
62
256
6
ByLayer
370
-2
48
1
60
0
100
AcDbLine
10
44.13
20
12.0885
30
0
11
47.63
21
12.0885
31
0
39
0
210
0
220
0
230
1
0
LINE
5
24A
100
AcDbEntity
8
0
62
256
6
ByLayer
370
-2
48
1
60
0
100
AcDbLine
10
34.88
20
12.0885
30
0
11
31.38
21
12.0885
31
0
39
0
210
0
220
0
230
1
0
SOLID
5
24B
100
AcDbEntity
8
0
62
256
6
ByLayer
370
-1
48
1
60
0
100
AcDbTrace
10
44.13
20
12.671833
30
0
11
44.13
21
11.505167
31
0
12
40.63
22
12.0885
32
0
13
40.63
23
12.0885
33
0
39
0
210
0
220
0
230
1
0
SOLID
5
24C
100
AcDbEntity
8
0
62
256
6
ByLayer
370
-1
48
1
60
0
100
AcDbTrace
10
34.88
20
11.505167
30
0
11
34.88
21
12.671833
31
0
12
38.38
22
12.0885
32
0
13
38.38
23
12.0885
33
0
39
0
210
0
220
0
230
1
0
MTEXT
5
24D
100
AcDbEntity
8
0
62
256
6
ByLayer
370
18
48
1
60
0
100
AcDbMText
10
39.505
20
18.0885
30
0
210
0
220
0
230
1
1
\A1;2.25
40
3
41
0
44
1
50
0
71
5
72
5
7
iso_b_vert
0
POINT
5
24E
100
AcDbEntity
8
Defpoints
62
0
6
ByLayer
370
-1
48
1
60
0
100
AcDbPoint
10
40.63
20
3.05706
30
0
39
0
210
0
220
0
230
1
50
360
0
POINT
5
24F
100
AcDbEntity
8
Defpoints
62
0
6
ByLayer
370
-1
48
1
60
0
100
AcDbPoint
10
38.38
20
0
30
0
39
0
210
0
220
0
230
1
50
360
0
POINT
5
250
100
AcDbEntity
8
Defpoints
62
0
6
ByLayer
370
-1
48
1
60
0
100
AcDbPoint
10
38.38
20
12.0885
30
0
39
0
210
0
220
0
230
1
50
360
0
ENDBLK
5
246
100
AcDbEntity
8
0
100
AcDbBlockEnd
0
BLOCK
5
259
100
AcDbEntity
8
0
100
AcDbBlockBegin
2
_U2
70
0
10
0
20
0
30
0
3
_U2
0
MTEXT
5
252
100
AcDbEntity
8
SK2
62
256
6
ByLayer
370
18
48
1
60
0
100
AcDbMText
10
36.170044
20
12.871134
30
0
210
0
220
0
230
1
1
\W0.6474;'C'
40
3.5
41
0
44
1.084337
50
0
71
7
72
5
7
iso_b_vert
0
MTEXT
5
253
100
AcDbEntity
8
SK2
62
256
6
ByLayer
370
18
48
1
60
0
100
AcDbMText
10
36.143544
20
19.973614
30
0
210
0
220
0
230
1
1
\W0.7346;2.25
40
3
41
0
44
1.084337
50
0
71
7
72
5
7
iso_b_vert
0
LINE
5
254
100
AcDbEntity
8
SK2
62
256
6
ByLayer
370
13
48
1
60
0
100
AcDbLine
10
40.63
20
4.64456
30
0
11
40.63
21
14.0885
31
0
39
0
210
0
220
0
230
1
0
LINE
5
255
100
AcDbEntity
8
SK2
62
256
6
ByLayer
370
13
48
1
60
0
100
AcDbLine
10
38.38
20
1.5875
30
0
11
38.38
21
14.0885
31
0
39
0
210
0
220
0
230
1
0
LINE
5
256
100
AcDbEntity
8
SK2
62
256
6
ByLayer
370
13
48
1
60
0
100
AcDbLine
10
48.13
20
12.0885
30
0
11
30.88
21
12.0885
31
0
39
0
210
0
220
0
230
1
0
SOLID
5
257
100
AcDbEntity
8
SK2
62
256
6
ByLayer
370
18
48
1
60
0
100
AcDbTrace
10
40.63
20
12.0885
30
0
11
44.129998
21
12.549284
31
0
12
44.130002
22
11.627716
32
0
13
44.130002
23
11.627716
33
0
39
0
210
0
220
0
230
1
0
SOLID
5
258
100
AcDbEntity
8
SK2
62
256
6
ByLayer
370
18
48
1
60
0
100
AcDbTrace
10
38.38
20
12.0885
30
0
11
34.880002
21
11.627716
31
0
12
34.879998
22
12.549284
32
0
13
34.879998
23
12.549284
33
0
39
0
210
0
220
0
230
1
0
ENDBLK
5
25A
100
AcDbEntity
8
0
100
AcDbBlockEnd
0
BLOCK
5
25F
100
AcDbEntity
8
0
100
AcDbBlockBegin
2
*D7
70
1
10
0
20
0
30
0
3
*D7
0
LINE
5
261
100
AcDbEntity
8
0
62
256
6
ByLayer
370
-2
48
1
60
0
100
AcDbLine
10
40.63
20
-4.64456
30
0
11
40.63
21
-12.05706
31
0
39
0
210
0
220
0
230
1
0
LINE
5
262
100
AcDbEntity
8
0
62
256
6
ByLayer
370
-2
48
1
60
0
100
AcDbLine
10
30.63
20
-4.64456
30
0
11
30.63
21
-12.05706
31
0
39
0
210
0
220
0
230
1
0
LINE
5
263
100
AcDbEntity
8
0
62
256
6
ByLayer
370
-2
48
1
60
0
100
AcDbLine
10
44.13
20
-10.05706
30
0
11
47.63
21
-10.05706
31
0
39
0
210
0
220
0
230
1
0
LINE
5
264
100
AcDbEntity
8
0
62
256
6
ByLayer
370
-2
48
1
60
0
100
AcDbLine
10
27.13
20
-10.05706
30
0
11
23.63
21
-10.05706
31
0
39
0
210
0
220
0
230
1
0
SOLID
5
265
100
AcDbEntity
8
0
62
256
6
ByLayer
370
-1
48
1
60
0
100
AcDbTrace
10
44.13
20
-9.473727
30
0
11
44.13
21
-10.640394
31
0
12
40.63
22
-10.05706
32
0
13
40.63
23
-10.05706
33
0
39
0
210
0
220
0
230
1
0
SOLID
5
266
100
AcDbEntity
8
0
62
256
6
ByLayer
370
-1
48
1
60
0
100
AcDbTrace
10
27.13
20
-10.640394
30
0
11
27.13
21
-9.473727
31
0
12
30.63
22
-10.05706
32
0
13
30.63
23
-10.05706
33
0
39
0
210
0
220
0
230
1
0
MTEXT
5
267
100
AcDbEntity
8
0
62
256
6
ByLayer
370
18
48
1
60
0
100
AcDbMText
10
33.08283
20
-4.05706
30
0
210
0
220
0
230
1
1
\A1;10
40
3
41
0
44
1
50
0
71
5
72
5
7
iso_b_vert
0
POINT
5
268
100
AcDbEntity
8
Defpoints
62
0
6
ByLayer
370
-1
48
1
60
0
100
AcDbPoint
10
40.63
20
-3.05706
30
0
39
0
210
0
220
0
230
1
50
360
0
POINT
5
269
100
AcDbEntity
8
Defpoints
62
0
6
ByLayer
370
-1
48
1
60
0
100
AcDbPoint
10
30.63
20
-3.05706
30
0
39
0
210
0
220
0
230
1
50
360
0
POINT
5
26A
100
AcDbEntity
8
Defpoints
62
0
6
ByLayer
370
-1
48
1
60
0
100
AcDbPoint
10
30.63
20
-10.05706
30
0
39
0
210
0
220
0
230
1
50
360
0
ENDBLK
5
260
100
AcDbEntity
8
0
100
AcDbBlockEnd
0
BLOCK
5
272
100
AcDbEntity
8
0
100
AcDbBlockBegin
2
_U3
70
0
10
0
20
0
30
0
3
_U3
0
MTEXT
5
26C
100
AcDbEntity
8
SK2
62
256
6
ByLayer
370
18
48
1
60
0
100
AcDbMText
10
31.824945
20
-9.171946
30
0
210
0
220
0
230
1
1
\W0.5321;10
40
3
41
0
44
1.084337
50
0
71
7
72
5
7
iso_b_vert
0
LINE
5
26D
100
AcDbEntity
8
SK2
62
256
6
ByLayer
370
13
48
1
60
0
100
AcDbLine
10
40.63
20
-4.64456
30
0
11
40.63
21
-12.05706
31
0
39
0
210
0
220
0
230
1
0
LINE
5
26E
100
AcDbEntity
8
SK2
62
256
6
ByLayer
370
13
48
1
60
0
100
AcDbLine
10
30.63
20
-4.64456
30
0
11
30.63
21
-12.05706
31
0
39
0
210
0
220
0
230
1
0
LINE
5
26F
100
AcDbEntity
8
SK2
62
256
6
ByLayer
370
13
48
1
60
0
100
AcDbLine
10
40.63
20
-10.05706
30
0
11
30.63
21
-10.05706
31
0
39
0
210
0
220
0
230
1
0
SOLID
5
270
100
AcDbEntity
8
SK2
62
256
6
ByLayer
370
18
48
1
60
0
100
AcDbTrace
10
40.63
20
-10.05706
30
0
11
37.130002
21
-10.517844
31
0
12
37.129998
22
-9.596276
32
0
13
37.129998
23
-9.596276
33
0
39
0
210
0
220
0
230
1
0
SOLID
5
271
100
AcDbEntity
8
SK2
62
256
6
ByLayer
370
18
48
1
60
0
100
AcDbTrace
10
30.63
20
-10.05706
30
0
11
34.129998
21
-9.596276
31
0
12
34.130002
22
-10.517844
32
0
13
34.130002
23
-10.517844
33
0
39
0
210
0
220
0
230
1
0
ENDBLK
5
273
100
AcDbEntity
8
0
100
AcDbBlockEnd
0
BLOCK
5
278
100
AcDbEntity
8
0
100
AcDbBlockBegin
2
*D9
70
1
10
0
20
0
30
0
3
*D9
0
LINE
5
27A
100
AcDbEntity
8
0
62
256
6
ByLayer
370
-2
48
1
60
0
100
AcDbLine
10
40.63
20
-4.64456
30
0
11
40.63
21
-34.55706
31
0
39
0
210
0
220
0
230
1
0
LINE
5
27B
100
AcDbEntity
8
0
62
256
6
ByLayer
370
-2
48
1
60
0
100
AcDbLine
10
13.63
20
-3.8625
30
0
11
13.63
21
-34.55706
31
0
39
0
210
0
220
0
230
1
0
LINE
5
27C
100
AcDbEntity
8
0
62
256
6
ByLayer
370
-2
48
1
60
0
100
AcDbLine
10
37.13
20
-32.55706
30
0
11
17.13
21
-32.55706
31
0
39
0
210
0
220
0
230
1
0
SOLID
5
27D
100
AcDbEntity
8
0
62
256
6
ByLayer
370
-1
48
1
60
0
100
AcDbTrace
10
37.13
20
-33.140394
30
0
11
37.13
21
-31.973727
31
0
12
40.63
22
-32.55706
32
0
13
40.63
23
-32.55706
33
0
39
0
210
0
220
0
230
1
0
SOLID
5
27E
100
AcDbEntity
8
0
62
256
6
ByLayer
370
-1
48
1
60
0
100
AcDbTrace
10
17.13
20
-31.973727
30
0
11
17.13
21
-33.140394
31
0
12
13.63
22
-32.55706
32
0
13
13.63
23
-32.55706
33
0
39
0
210
0
220
0
230
1
0
MTEXT
5
27F
100
AcDbEntity
8
0
62
256
6
ByLayer
370
18
48
1
60
0
100
AcDbMText
10
27.13
20
-26.55706
30
0
210
0
220
0
230
1
1
\A1;27
40
3
41
0
44
1
50
0
71
5
72
5
7
iso_b_vert
0
POINT
5
280
100
AcDbEntity
8
Defpoints
62
0
6
ByLayer
370
-1
48
1
60
0
100
AcDbPoint
10
40.63
20
-3.05706
30
0
39
0
210
0
220
0
230
1
50
360
0
POINT
5
281
100
AcDbEntity
8
Defpoints
62
0
6
ByLayer
370
-1
48
1
60
0
100
AcDbPoint
10
13.63
20
-2.275
30
0
39
0
210
0
220
0
230
1
50
360
0
POINT
5
282
100
AcDbEntity
8
Defpoints
62
0
6
ByLayer
370
-1
48
1
60
0
100
AcDbPoint
10
13.63
20
-32.55706
30
0
39
0
210
0
220
0
230
1
50
360
0
ENDBLK
5
279
100
AcDbEntity
8
0
100
AcDbBlockEnd
0
BLOCK
5
28A
100
AcDbEntity
8
0
100
AcDbBlockBegin
2
_U4
70
0
10
0
20
0
30
0
3
_U4
0
MTEXT
5
284
100
AcDbEntity
8
SK2
62
256
6
ByLayer
370
18
48
1
60
0
100
AcDbMText
10
25.497172
20
-31.671946
30
0
210
0
220
0
230
1
1
\W0.6740;27
40
3
41
0
44
1.084337
50
0
71
7
72
5
7
iso_b_vert
0
LINE
5
285
100
AcDbEntity
8
SK2
62
256
6
ByLayer
370
13
48
1
60
0
100
AcDbLine
10
40.63
20
-4.64456
30
0
11
40.63
21
-34.55706
31
0
39
0
210
0
220
0
230
1
0
LINE
5
286
100
AcDbEntity
8
SK2
62
256
6
ByLayer
370
13
48
1
60
0
100
AcDbLine
10
13.63
20
-3.8625
30
0
11
13.63
21
-34.55706
31
0
39
0
210
0
220
0
230
1
0
LINE
5
287
100
AcDbEntity
8
SK2
62
256
6
ByLayer
370
13
48
1
60
0
100
AcDbLine
10
40.63
20
-32.55706
30
0
11
13.63
21
-32.55706
31
0
39
0
210
0
220
0
230
1
0
SOLID
5
288
100
AcDbEntity
8
SK2
62
256
6
ByLayer
370
18
48
1
60
0
100
AcDbTrace
10
40.63
20
-32.55706
30
0
11
37.130002
21
-33.017844
31
0
12
37.129998
22
-32.096276
32
0
13
37.129998
23
-32.096276
33
0
39
0
210
0
220
0
230
1
0
SOLID
5
289
100
AcDbEntity
8
SK2
62
256
6
ByLayer
370
18
48
1
60
0
100
AcDbTrace
10
13.63
20
-32.55706
30
0
11
17.129998
21
-32.096276
31
0
12
17.130002
22
-33.017844
32
0
13
17.130002
23
-33.017844
33
0
39
0
210
0
220
0
230
1
0
ENDBLK
5
28B
100
AcDbEntity
8
0
100
AcDbBlockEnd
0
BLOCK
5
290
100
AcDbEntity
8
0
100
AcDbBlockBegin
2
*D11
70
1
10
0
20
0
30
0
3
*D11
0
LINE
5
292
100
AcDbEntity
8
0
62
256
6
ByLayer
370
-2
48
1
60
0
100
AcDbLine
10
40.63
20
-4.64456
30
0
11
40.63
21
-23.55706
31
0
39
0
210
0
220
0
230
1
0
LINE
5
293
100
AcDbEntity
8
0
62
256
6
ByLayer
370
-2
48
1
60
0
100
AcDbLine
10
15.13
20
-1.5875
30
0
11
15.13
21
-23.55706
31
0
39
0
210
0
220
0
230
1
0
LINE
5
294
100
AcDbEntity
8
0
62
256
6
ByLayer
370
-2
48
1
60
0
100
AcDbLine
10
37.13
20
-21.55706
30
0
11
18.63
21
-21.55706
31
0
39
0
210
0
220
0
230
1
0
SOLID
5
295
100
AcDbEntity
8
0
62
256
6
ByLayer
370
-1
48
1
60
0
100
AcDbTrace
10
37.13
20
-22.140394
30
0
11
37.13
21
-20.973727
31
0
12
40.63
22
-21.55706
32
0
13
40.63
23
-21.55706
33
0
39
0
210
0
220
0
230
1
0
SOLID
5
296
100
AcDbEntity
8
0
62
256
6
ByLayer
370
-1
48
1
60
0
100
AcDbTrace
10
18.63
20
-20.973727
30
0
11
18.63
21
-22.140394
31
0
12
15.13
22
-21.55706
32
0
13
15.13
23
-21.55706
33
0
39
0
210
0
220
0
230
1
0
MTEXT
5
297
100
AcDbEntity
8
0
62
256
6
ByLayer
370
18
48
1
60
0
100
AcDbMText
10
27.88
20
-15.55706
30
0
210
0
220
0
230
1
1
\A1;25.5
40
3
41
0
44
1
50
0
71
5
72
5
7
iso_b_vert
0
POINT
5
298
100
AcDbEntity
8
Defpoints
62
0
6
ByLayer
370
-1
48
1
60
0
100
AcDbPoint
10
40.63
20
-3.05706
30
0
39
0
210
0
220
0
230
1
50
360
0
POINT
5
299
100
AcDbEntity
8
Defpoints
62
0
6
ByLayer
370
-1
48
1
60
0
100
AcDbPoint
10
15.13
20
0
30
0
39
0
210
0
220
0
230
1
50
360
0
POINT
5
29A
100
AcDbEntity
8
Defpoints
62
0
6
ByLayer
370
-1
48
1
60
0
100
AcDbPoint
10
15.13
20
-21.55706
30
0
39
0
210
0
220
0
230
1
50
360
0
ENDBLK
5
291
100
AcDbEntity
8
0
100
AcDbBlockEnd
0
BLOCK
5
2A2
100
AcDbEntity
8
0
100
AcDbBlockBegin
2
_U5
70
0
10
0
20
0
30
0
3
_U5
0
MTEXT
5
29C
100
AcDbEntity
8
2
62
256
6
ByLayer
370
18
48
1
60
0
100
AcDbMText
10
24.518544
20
-20.671946
30
0
210
0
220
0
230
1
1
\W0.7346;25.5
40
3
41
0
44
1.084337
50
0
71
7
72
5
7
iso_b_vert
0
LINE
5
29D
100
AcDbEntity
8
2
62
256
6
ByLayer
370
13
48
1
60
0
100
AcDbLine
10
40.63
20
-4.64456
30
0
11
40.63
21
-23.55706
31
0
39
0
210
0
220
0
230
1
0
LINE
5
29E
100
AcDbEntity
8
2
62
256
6
ByLayer
370
13
48
1
60
0
100
AcDbLine
10
15.13
20
-1.5875
30
0
11
15.13
21
-23.55706
31
0
39
0
210
0
220
0
230
1
0
LINE
5
29F
100
AcDbEntity
8
2
62
256
6
ByLayer
370
13
48
1
60
0
100
AcDbLine
10
40.63
20
-21.55706
30
0
11
15.13
21
-21.55706
31
0
39
0
210
0
220
0
230
1
0
SOLID
5
2A0
100
AcDbEntity
8
2
62
256
6
ByLayer
370
18
48
1
60
0
100
AcDbTrace
10
40.63
20
-21.55706
30
0
11
37.130002
21
-22.017844
31
0
12
37.129998
22
-21.096276
32
0
13
37.129998
23
-21.096276
33
0
39
0
210
0
220
0
230
1
0
SOLID
5
2A1
100
AcDbEntity
8
2
62
256
6
ByLayer
370
18
48
1
60
0
100
AcDbTrace
10
15.13
20
-21.55706
30
0
11
18.629998
21
-21.096276
31
0
12
18.630002
22
-22.017844
32
0
13
18.630002
23
-22.017844
33
0
39
0
210
0
220
0
230
1
0
ENDBLK
5
2A3
100
AcDbEntity
8
0
100
AcDbBlockEnd
0
ENDSEC
0
SECTION
2
ENTITIES
0
ARC
5
D2
100
AcDbEntity
8
SK1
62
256
6
ByLayer
370
18
48
1
60
0
100
AcDbCircle
39
0
10
-17.425
20
0
30
0
40
3.1089600000001
210
0
220
0
230
1
100
AcDbArc
50
321.260905
51
38.739095
0
ARC
5
D3
100
AcDbEntity
8
1
62
256
6
ByLayer
370
18
48
1
60
0
100
AcDbCircle
39
0
10
29.13582
20
3.175
30
0
40
0.9
210
0
220
0
230
1
100
AcDbArc
50
270
51
301
0
ARC
5
D4
100
AcDbEntity
8
1
62
256
6
ByLayer
370
18
48
1
60
0
100
AcDbCircle
39
0
10
13.924744
20
-3.375
30
0
40
1.1
210
0
220
0
230
1
100
AcDbArc
50
90
51
120
0
ARC
5
D5
100
AcDbEntity
8
1
62
256
6
ByLayer
370
18
48
1
60
0
100
AcDbCircle
39
0
10
13.924744
20
3.375
30
0
40
1.1
210
0
220
0
230
1
100
AcDbArc
50
240
51
270
0
POINT
5
70
100
AcDbEntity
8
80
62
256
6
ByLayer
370
18
48
1
60
0
100
AcDbPoint
10
0
20
0
30
0
39
0
210
0
220
0
230
1
50
360
0
POINT
5
72
100
AcDbEntity
8
81
62
256
6
ByLayer
370
18
48
1
60
0
100
AcDbPoint
10
42.03
20
0
30
0
39
0
210
0
220
0
230
1
50
360
0
POINT
5
74
100
AcDbEntity
8
1
62
256
6
ByLayer
370
18
48
1
60
1
100
AcDbPoint
10
40.63
20
3.05706
30
0
39
0
210
0
220
0
230
1
50
360
0
POINT
5
76
100
AcDbEntity
8
1
62
256
6
ByLayer
370
18
48
1
60
1
100
AcDbPoint
10
40.63
20
-3.05706
30
0
39
0
210
0
220
0
230
1
50
360
0
POINT
5
77
100
AcDbEntity
8
1
62
256
6
ByLayer
370
18
48
1
60
1
100
AcDbPoint
10
-21.87
20
-2.425
30
0
39
0
210
0
220
0
230
1
50
360
0
POINT
5
78
100
AcDbEntity
8
1
62
256
6
ByLayer
370
18
48
1
60
1
100
AcDbPoint
10
-21.87
20
2.425
30
0
39
0
210
0
220
0
230
1
50
360
0
POINT
5
79
100
AcDbEntity
8
1
62
256
6
ByLayer
370
18
48
1
60
1
100
AcDbPoint
10
40.63
20
3.05706
30
0
39
0
210
0
220
0
230
1
50
360
0
POINT
5
7A
100
AcDbEntity
8
1
62
256
6
ByLayer
370
18
48
1
60
1
100
AcDbPoint
10
38.38
20
0
30
0
39
0
210
0
220
0
230
1
50
360
0
POINT
5
7B
100
AcDbEntity
8
1
62
256
6
ByLayer
370
18
48
1
60
1
100
AcDbPoint
10
40.63
20
-3.05706
30
0
39
0
210
0
220
0
230
1
50
360
0
POINT
5
7C
100
AcDbEntity
8
1
62
256
6
ByLayer
370
18
48
1
60
1
100
AcDbPoint
10
30.63
20
-3.05706
30
0
39
0
210
0
220
0
230
1
50
360
0
POINT
5
7D
100
AcDbEntity
8
1
62
256
6
ByLayer
370
18
48
1
60
1
100
AcDbPoint
10
40.63
20
-3.05706
30
0
39
0
210
0
220
0
230
1
50
360
0
POINT
5
7E
100
AcDbEntity
8
1
62
256
6
ByLayer
370
18
48
1
60
1
100
AcDbPoint
10
13.63
20
-2.275
30
0
39
0
210
0
220
0
230
1
50
360
0
POINT
5
7F
100
AcDbEntity
8
1
62
256
6
ByLayer
370
18
48
1
60
1
100
AcDbPoint
10
40.63
20
-3.05706
30
0
39
0
210
0
220
0
230
1
50
360
0
POINT
5
80
100
AcDbEntity
8
1
62
256
6
ByLayer
370
18
48
1
60
1
100
AcDbPoint
10
15.13
20
0
30
0
39
0
210
0
220
0
230
1
50
360
0
SPLINE
5
D6
100
AcDbEntity
8
1
62
256
6
ByLayer
370
18
48
1
60
0
100
AcDbSpline
70
4
71
3
72
10
73
6
40
0
40
0
40
0
40
0
40
0.682308805492911
40
0.682308805492911
40
1
40
1
40
1
40
1
41
1
10
39.2401957388839
20
-2.70288671064134
30
0
41
1
10
39.2454174258257
20
-2.70567807119315
30
0
41
1
10
39.2506157385404
20
-2.70405975098637
30
0
41
1
10
39.2581965236228
20
-2.69538603196835
30
0
41
1
10
39.2605995504054
20
-2.69169874910793
30
0
41
1
10
39.2630013350536
20
-2.68708081806491
30
0
0
SPLINE
5
D7
100
AcDbEntity
8
1
62
256
6
ByLayer
370
18
48
1
60
0
100
AcDbSpline
70
4
71
3
72
10
73
6
40
0
40
0
40
0
40
0
40
0.17798448655444
40
0.17798448655444
40
1
40
1
40
1
40
1
41
1
10
33.9348621149221
20
3.044587319475
30
0
41
1
10
33.9354653269934
20
3.04562876708465
30
0
41
1
10
33.9360687807514
20
3.04660604415417
30
0
41
1
10
33.9394607710852
20
3.05173458962477
30
0
41
1
10
33.9422346829263
20
3.0545423394247
30
0
41
1
10
33.9449913284333
20
3.05596320637841
30
0
0
SPLINE
5
D8
100
AcDbEntity
8
1
62
256
6
ByLayer
370
13
48
1
60
0
100
AcDbSpline
70
4
71
3
72
9
73
5
40
0
40
0
40
0
40
0
40
0.524423730443052
40
1
40
1
40
1
40
1
41
1.04
10
38.8849558212919
20
-2.47552796970943
30
0
41
1.04
10
38.8780280963788
20
-2.48610881354001
30
0
41
1.04
10
38.8647830875966
20
-2.49299923606338
30
0
41
1.04
10
38.8514919559748
20
-2.47340780623094
30
0
41
1.04
10
38.8451556145461
20
-2.45819751794213
30
0
0
SPLINE
5
D9
100
AcDbEntity
8
1
62
256
6
ByLayer
370
13
48
1
60
0
100
AcDbSpline
70
4
71
3
72
9
73
5
40
0
40
0
40
0
40
0
40
0.207756991288191
40
1
40
1
40
1
40
1
41
1.04
10
32.8872154521095
20
-2.47179988445586
30
0
41
1.04
10
32.8847958264417
20
-2.47593037636287
30
0
41
1.04
10
32.8731849831832
20
-2.49167023102717
30
0
41
1.04
10
32.8617481745426
20
-2.48786615407012
30
0
41
1.04
10
32.8527893536999
20
-2.47332037274118
30
0
0
SPLINE
5
DA
100
AcDbEntity
8
1
62
256
6
ByLayer
370
13
48
1
60
0
100
AcDbSpline
70
4
71
3
72
8
73
4
40
0
40
0
40
0
40
0
40
1
40
1
40
1
40
1
41
1
10
34.6456709155889
20
2.45535159966553
30
0
41
1
10
34.6321011861033
20
2.48924485340009
30
0
41
1
10
34.6184773946667
20
2.49640008960043
30
0
41
1
10
34.6046982392257
20
2.47558670754222
30
0
0
SPLINE
5
DB
100
AcDbEntity
8
1
62
256
6
ByLayer
370
18
48
1
60
0
100
AcDbSpline
70
4
71
3
72
15
73
11
40
0
40
0
40
0
40
0
40
0.29022055723614
40
0.29022055723614
40
0.378942987581622
40
0.378942987581622
40
0.467665417927104
40
0.645110278618069
40
0.645110278618069
40
1
40
1
40
1
40
1
41
1
10
38.6234837244897
20
-2.91742675192572
30
0
41
1
10
38.6190854002917
20
-2.91895944521451
30
0
41
1
10
38.6146790131936
20
-2.91709201324437
30
0
41
1
10
38.6088802897717
20
-2.91011654482887
30
0
41
1
10
38.6075207587261
20
-2.9081559623325
30
0
41
1
10
38.6048108923819
20
-2.90360022736368
30
0
41
1
10
38.6007546716441
20
-2.89580916372992
30
0
41
1
10
38.5967238471974
20
-2.88517239109029
30
0
41
1
10
38.5886805226346
20
-2.86016470564408
30
0
41
1
10
38.5833465599285
20
-2.83851872461039
30
0
41
1
10
38.5779422466715
20
-2.81201339990338
30
0
0
SPLINE
5
DC
100
AcDbEntity
8
1
62
256
6
ByLayer
370
18
48
1
60
0
100
AcDbSpline
70
4
71
3
72
16
73
12
40
0
40
0
40
0
40
0
40
0.280041409545289
40
0.280041409545289
40
0.560082819090577
40
0.560082819090577
40
0.700103523863222
40
0.700103523863222
40
0.840124228635866
40
0.840124228635866
40
1
40
1
40
1
40
1
41
1
10
38.3541544920418
20
-2.80831858313263
30
0
41
1
10
38.3595810209807
20
-2.84342786109923
30
0
41
1
10
38.3649907239658
20
-2.87345748571818
30
0
41
1
10
38.3759691710322
20
-2.92360325272315
30
0
41
1
10
38.3815340334458
20
-2.94369077630233
30
0
41
1
10
38.3899364137736
20
-2.96603938809176
30
0
41
1
10
38.3927460582334
20
-2.9721936628537
30
0
41
1
10
38.3983638866413
20
-2.98182478990333
30
0
41
1
10
38.4011499988224
20
-2.98526530810838
30
0
41
1
10
38.4070675854342
20
-2.98975132038828
30
0
41
1
10
38.4101909247123
20
-2.99039044074942
30
0
41
1
10
38.4132903705622
20
-2.98930270515496
30
0
0
SPLINE
5
DD
100
AcDbEntity
8
1
62
256
6
ByLayer
370
13
48
1
60
0
100
AcDbSpline
70
4
71
3
72
8
73
4
40
0
40
0
40
0
40
0
40
1
40
1
40
1
40
1
41
1
10
32.1026676333505
20
-2.47227735162358
30
0
41
1
10
32.0886625762711
20
-2.4483856462432
30
0
41
1
10
32.0745917438821
20
-2.39585851142689
30
0
41
1
10
32.0603761502865
20
-2.31449454117461
30
0
0
SPLINE
5
DE
100
AcDbEntity
8
1
62
256
6
ByLayer
370
13
48
1
60
0
100
AcDbSpline
70
4
71
3
72
9
73
5
40
0
40
0
40
0
40
0
40
0.235617062163041
40
1
40
1
40
1
40
1
41
1
10
38.1006745730852
20
-2.46895504145059
30
0
41
1
10
38.0968889982529
20
-2.46183429129712
30
0
41
1
10
38.0808321406203
20
-2.4227135572103
30
0
41
1
10
38.0648148834584
20
-2.34581974783609
30
0
41
1
10
38.0525574716311
20
-2.2667957948976
30
0
0
SPLINE
5
DF
100
AcDbEntity
8
1
62
256
6
ByLayer
370
13
48
1
60
0
100
AcDbSpline
70
4
71
3
72
9
73
5
40
0
40
0
40
0
40
0
40
0.116798265506482
40
1
40
1
40
1
40
1
41
1.04
10
35.4383353200425
20
2.25854865244259
30
0
41
1.04
10
35.4363926645731
20
2.27126117632783
30
0
41
1.04
10
35.4197382070821
20
2.37589796883193
30
0
41
1.04
10
35.4029045450617
20
2.44339099106287
30
0
41
1.04
10
35.3878760402906
20
2.47054517491221
30
0
0
SPLINE
5
E0
100
AcDbEntity
8
1
62
256
6
ByLayer
370
13
48
1
60
0
100
AcDbSpline
70
4
71
3
72
9
73
5
40
0
40
0
40
0
40
0
40
0.93909411913007
40
1
40
1
40
1
40
1
41
1.04
10
31.8834690760385
20
-2.47782527998192
30
0
41
1.04
10
31.8561726721728
20
-2.51491522060903
30
0
41
1.04
10
31.8270711858355
20
-2.43783257453196
30
0
41
1.04
10
31.7972625318821
20
-2.23541280520491
30
0
41
1.04
10
31.7954443725467
20
-2.22262660004676
30
0
0
SPLINE
5
E1
100
AcDbEntity
8
1
62
256
6
ByLayer
370
18
48
1
60
0
100
AcDbSpline
70
4
71
3
72
8
73
4
40
0
40
0
40
0
40
0
40
1
40
1
40
1
40
1
41
1
10
31.1047961835631
20
-2.47574981973531
30
0
41
1
10
31.1025821068781
20
-2.47244576010152
30
0
41
1
10
31.1003645018284
20
-2.46841909417779
30
0
41
1
10
31.0981429000109
20
-2.4636643692221
30
0
0
SPLINE
5
E2
100
AcDbEntity
8
1
62
256
6
ByLayer
370
13
48
1
60
0
100
AcDbSpline
70
4
71
3
72
9
73
5
40
0
40
0
40
0
40
0
40
0.467838398705226
40
1
40
1
40
1
40
1
41
1
10
31.0981424767016
20
-2.46366346323691
30
0
41
1
10
31.0837781143667
20
-2.43291992296827
30
0
41
1
10
31.0527172757502
20
-2.3021463652064
30
0
41
1
10
31.02031454315
20
-2.02557451640982
30
0
41
1
10
31.002799204535
20
-1.84187854844819
30
0
0
SPLINE
5
E3
100
AcDbEntity
8
1
62
256
6
ByLayer
370
18
48
1
60
0
100
AcDbSpline
70
4
71
3
72
21
73
17
40
0
40
0
40
0
40
0
40
0.164940582850024
40
0.164940582850024
40
0.248446524565022
40
0.248446524565022
40
0.33195246628002
40
0.33195246628002
40
0.498964349710015
40
0.665976233140011
40
0.665976233140011
40
0.749482174855008
40
0.749482174855008
40
0.832988116570005
40
0.832988116570005
40
1
40
1
40
1
40
1
41
1
10
31.5400503355235
20
-3.05706005919302
30
0
41
1
10
31.5345858133238
20
-3.05707174492255
30
0
41
1
10
31.529126264976
20
-3.05178227245716
30
0
41
1
10
31.5208769182047
20
-3.03560654185318
30
0
41
1
10
31.5180927504252
20
-3.02874443686741
30
0
41
1
10
31.5125656422176
20
-3.01234778933943
30
0
41
1
10
31.5098171057007
20
-3.00280910495167
30
0
41
1
10
31.5015990305083
20
-2.97024562373608
30
0
41
1
10
31.4907160618867
20
-2.91632159461332
30
0
41
1
10
31.4797706227559
20
-2.84165006266022
30
0
41
1
10
31.4714523612848
20
-2.77771401667866
30
0
41
1
10
31.4686597952547
20
-2.75507736708056
30
0
41
1
10
31.4630433246794
20
-2.70709526652863
30
0
41
1
10
31.4602417724243
20
-2.68193529269985
30
0
41
1
10
31.4518795267115
20
-2.60314513452312
30
0
41
1
10
31.4463573939438
20
-2.54616117420972
30
0
41
1
10
31.4408785871119
20
-2.48481115053269
30
0
0
SPLINE
5
E4
100
AcDbEntity
8
1
62
256
6
ByLayer
370
18
48
1
60
0
100
AcDbSpline
70
4
71
3
72
8
73
4
40
0
40
0
40
0
40
0
40
1
40
1
40
1
40
1
41
1.04
10
37.8862981205994
20
-2.47311716252488
30
0
41
1.04
10
37.8841216503891
20
-2.47667591568232
30
0
41
1.04
10
37.8819460446041
20
-2.47954793366439
30
0
41
1.04
10
37.8797712832528
20
-2.4817330342286
30
0
0
SPLINE
5
E5
100
AcDbEntity
8
1
62
256
6
ByLayer
370
13
48
1
60
0
100
AcDbSpline
70
4
71
3
72
9
73
5
40
0
40
0
40
0
40
0
40
0.434544469952654
40
1
40
1
40
1
40
1
41
1.04
10
37.8797719886686
20
-2.481732325435
30
0
41
1.04
10
37.8663830869986
20
-2.4951857937533
30
0
41
1.04
10
37.8356453916566
20
-2.46623054286775
30
0
41
1.04
10
37.8050524899743
20
-2.29916963935206
30
0
41
1.04
10
37.7876945190307
20
-2.16558738622111
30
0
0
SPLINE
5
E6
100
AcDbEntity
8
1
62
256
6
ByLayer
370
13
48
1
60
0
100
AcDbSpline
70
4
71
3
72
9
73
5
40
0
40
0
40
0
40
0
40
0.233582224009028
40
1
40
1
40
1
40
1
41
1
10
35.7032954533497
20
2.1552481574243
30
0
41
1
10
35.6962755792178
20
2.21006075151305
30
0
41
1
10
35.6660606973482
20
2.41910392873635
30
0
41
1
10
35.6352519083475
20
2.50427246652018
30
0
41
1
10
35.6112072557069
20
2.48362435624381
30
0
0
SPLINE
5
E7
100
AcDbEntity
8
1
62
256
6
ByLayer
370
18
48
1
60
0
100
AcDbSpline
70
4
71
3
72
8
73
4
40
0
40
0
40
0
40
0
40
1
40
1
40
1
40
1
41
1
10
35.6112072972935
20
2.48362439195586
30
0
41
1
10
35.6086286144562
20
2.48140998387038
30
0
41
1
10
35.6060449600564
20
2.47820732492039
30
0
41
1
10
35.6034562312322
20
2.47400018314377
30
0
0
SPLINE
5
E8
100
AcDbEntity
8
1
62
256
6
ByLayer
370
18
48
1
60
0
100
AcDbSpline
70
4
71
3
72
8
73
4
40
0
40
0
40
0
40
0
40
1
40
1
40
1
40
1
41
1
10
37.1038939753987
20
-2.47429927922588
30
0
41
1
10
37.1011889919133
20
-2.47001292862259
30
0
41
1
10
37.0984768974057
20
-2.46465448098607
30
0
41
1
10
37.0957580735407
20
-2.45821205405124
30
0
0
SPLINE
5
E9
100
AcDbEntity
8
1
62
256
6
ByLayer
370
13
48
1
60
0
100
AcDbSpline
70
4
71
3
72
9
73
5
40
0
40
0
40
0
40
0
40
0.235314236928854
40
1
40
1
40
1
40
1
41
1
10
37.0957576847305
20
-2.45821113273334
30
0
41
1
10
37.0880606179326
20
-2.43997215269454
30
0
41
1
10
37.0551216821271
20
-2.32554315941968
30
0
41
1
10
37.0213651276997
20
-2.04934882303525
30
0
41
1
10
36.9950149257356
20
-1.75820556236411
30
0
0
SPLINE
5
EA
100
AcDbEntity
8
1
62
256
6
ByLayer
370
18
48
1
60
0
100
AcDbSpline
70
4
71
3
72
23
73
19
40
0
40
0
40
0
40
0
40
0.0672322273789795
40
0.0672322273789795
40
0.138983594503673
40
0.138983594503673
40
0.282486328753061
40
0.282486328753061
40
0.425989063002448
40
0.425989063002448
40
0.497740430127142
40
0.497740430127142
40
0.569491797251836
40
0.569491797251836
40
0.712994531501224
40
0.856497265750612
40
0.856497265750612
40
1
40
1
40
1
40
1
41
1
10
37.5489722891215
20
-3.05188579472758
30
0
41
1
10
37.5463827071744
20
-3.05477787029747
30
0
41
1
10
37.543794932632
20
-3.05646772264731
30
0
41
1
10
37.5384409378312
20
-3.05742331236414
30
0
41
1
10
37.5356962635182
20
-3.05651317848512
30
0
41
1
10
37.5275107684295
20
-3.04966446054399
30
0
41
1
10
37.5221146418309
20
-3.03961942716913
30
0
41
1
10
37.5112898017452
20
-3.00879525175125
30
0
41
1
10
37.5058444743902
20
-2.98801607512269
30
0
41
1
10
37.4975986676127
20
-2.94870398690386
30
0
41
1
10
37.4948387630681
20
-2.93424003666169
30
0
41
1
10
37.4892943738051
20
-2.90254292837156
30
0
41
1
10
37.4865029795023
20
-2.88525857504502
30
0
41
1
10
37.4781750956737
20
-2.82977690167399
30
0
41
1
10
37.4671539309321
20
-2.74595241827694
30
0
41
1
10
37.4561602190823
20
-2.64298934276874
30
0
41
1
10
37.4450746643688
20
-2.5304261578286
30
0
41
1
10
37.439479541179
20
-2.46934586821072
30
0
41
1
10
37.4338652664833
20
-2.40328955758938
30
0
0
SPLINE
5
EB
100
AcDbEntity
8
1
62
256
6
ByLayer
370
18
48
1
60
0
100
AcDbSpline
70
4
71
3
72
28
73
24
40
0
40
0
40
0
40
0
40
0.12499999999972
40
0.12499999999972
40
0.187499999999611
40
0.187499999999611
40
0.249999999999502
40
0.249999999999502
40
0.281249999999516
40
0.281249999999516
40
0.31249999999953
40
0.31249999999953
40
0.343749999999544
40
0.343749999999544
40
0.374999999999558
40
0.374999999999558
40
0.437499999999587
40
0.437499999999587
40
0.499999999999616
40
0.499999999999616
40
0.749999999999808
40
0.749999999999808
40
1
40
1
40
1
40
1
41
1
10
29.6409688107858
20
2.08693839727678
30
0
41
1
10
29.6418646415514
20
2.08948666162166
30
0
41
1
10
29.6428721763039
20
2.09207327153521
30
0
41
1
10
29.6447876245931
20
2.09606495460588
30
0
41
1
10
29.6454941200418
20
2.09741505527828
30
0
41
1
10
29.6471720681278
20
2.10016739533992
30
0
41
1
10
29.6481301380837
20
2.10158077953446
30
0
41
1
10
29.6500780752881
20
2.10371035049707
30
0
41
1
10
29.6508201322998
20
2.10441959056701
30
0
41
1
10
29.6525031015357
20
2.10567408753462
30
0
41
1
10
29.6534494339109
20
2.10620017914189
30
0
41
1
10
29.6552062436195
20
2.10685073251986
30
0
41
1
10
29.6560060554895
20
2.10699378619412
30
0
41
1
10
29.6574262708758
20
2.10708535860479
30
0
41
1
10
29.6580657811342
20
2.10703619126525
30
0
41
1
10
29.6598202394849
20
2.10674494888497
30
0
41
1
10
29.6607896384812
20
2.1063677231237
30
0
41
1
10
29.6625765159612
20
2.1054711336183
30
0
41
1
10
29.6633861754286
20
2.10494156168858
30
0
41
1
10
29.6671508721443
20
2.10209992883259
30
0
41
1
10
29.6694064014643
20
2.09925222927583
30
0
41
1
10
29.6735833139574
20
2.0932427782316
30
0
41
1
10
29.6754395531004
20
2.0900301581942
30
0
41
1
10
29.6771764335569
20
2.0867045063992
30
0
0
SPLINE
5
EC
100
AcDbEntity
8
1
62
256
6
ByLayer
370
13
48
1
60
0
100
AcDbSpline
70
4
71
3
72
9
73
5
40
0
40
0
40
0
40
0
40
0.0897957190199426
40
1
40
1
40
1
40
1
41
1.04
10
30.5029219520178
20
1.66373652002553
30
0
41
1.04
10
30.4997894249181
20
1.70018238807224
30
0
41
1.04
10
30.4649314267464
20
2.09495824128027
30
0
41
1.04
10
30.430768552024
20
2.35187271842701
30
0
41
1.04
10
30.3994915888174
20
2.44346621841615
30
0
0
SPLINE
5
ED
100
AcDbEntity
8
1
62
256
6
ByLayer
370
18
48
1
60
0
100
AcDbSpline
70
4
71
3
72
9
73
5
40
0
40
0
40
0
40
0
40
0.694816291019217
40
1
40
1
40
1
40
1
41
1.04
10
30.3994916886625
20
2.44346592602282
30
0
41
1.04
10
30.3962508432362
20
2.45295666073234
30
0
41
1.04
10
30.3915837146193
20
2.46441787551612
30
0
41
1.04
10
30.3869107975973
20
2.47265086955568
30
0
41
1.04
10
30.3854841420833
20
2.47486287685124
30
0
0
SPLINE
5
EE
100
AcDbEntity
8
1
62
256
6
ByLayer
370
13
48
1
60
0
100
AcDbSpline
70
4
71
3
72
9
73
5
40
0
40
0
40
0
40
0
40
0.887315989117998
40
1
40
1
40
1
40
1
41
1.04
10
36.4958581442449
20
1.7437752667464
30
0
41
1.04
10
36.4674502140993
20
2.06051618839619
30
0
41
1.04
10
36.4345313540965
20
2.33418507549735
30
0
41
1.04
10
36.4000513317503
20
2.44212227744003
30
0
41
1.04
10
36.396158078523
20
2.45214960077707
30
0
0
SPLINE
5
EF
100
AcDbEntity
8
1
62
256
6
ByLayer
370
18
48
1
60
0
100
AcDbSpline
70
4
71
3
72
8
73
4
40
0
40
0
40
0
40
0
40
1
40
1
40
1
40
1
41
1.04
10
36.3961581210725
20
2.45214949118823
30
0
41
1.04
10
36.3932720868827
20
2.45958266895103
30
0
41
1.04
10
36.3903817082148
20
2.46584237718903
30
0
41
1.04
10
36.3874918395
20
2.47091596179332
30
0
0
SPLINE
5
F0
100
AcDbEntity
8
1
62
256
6
ByLayer
370
18
48
1
60
0
100
AcDbSpline
70
4
71
3
72
27
73
23
40
0
40
0
40
0
40
0
40
0.105513091320874
40
0.105513091320874
40
0.254594242767394
40
0.254594242767394
40
0.291864530629024
40
0.291864530629024
40
0.329134818490654
40
0.403675394213914
40
0.403675394213914
40
0.552756545660434
40
0.552756545660434
40
0.701837697106954
40
0.701837697106954
40
0.739107984968584
40
0.739107984968584
40
0.776378272830215
40
0.776378272830215
40
0.850918848553476
40
0.850918848553476
40
1
40
1
40
1
40
1
41
1
10
35.9490725588694
20
3.05706208465068
30
0
41
1
10
35.9529850842786
20
3.05705566622933
30
0
41
1
10
35.9568938398071
20
3.05431613781121
30
0
41
1
10
35.966318306335
20
3.04111704949668
30
0
41
1
10
35.9718304519047
20
3.02793769375322
30
0
41
1
10
35.9787449711077
20
3.00443493570282
30
0
41
1
10
35.9801312926231
20
2.99937365064221
30
0
41
1
10
35.9828956540755
20
2.98858709396455
30
0
41
1
10
35.9870299929596
20
2.97141447372812
30
0
41
1
10
35.9911350556028
20
2.95130020874962
30
0
41
1
10
35.9993303034857
20
2.90721559255812
30
0
41
1
10
36.0047719518641
20
2.8726943997431
30
0
41
1
10
36.0157845623258
20
2.79348852587228
30
0
41
1
10
36.0213539044885
20
2.74880439955808
30
0
41
1
10
36.0283410402309
20
2.68645004424994
30
0
41
1
10
36.0297399880728
20
2.67365337638719
30
0
41
1
10
36.0325406443988
20
2.64740130450369
30
0
41
1
10
36.0339444330914
20
2.63392513381521
30
0
41
1
10
36.0381415338127
20
2.59268131399568
30
0
41
1
10
36.0409203315101
20
2.56410406726124
30
0
41
1
10
36.049211103371
20
2.4751960294378
30
0
41
1
10
36.054680694003
20
2.41169737067864
30
0
41
1
10
36.0601445467805
20
2.34404664126271
30
0
0
SPLINE
5
F1
100
AcDbEntity
8
1
62
256
6
ByLayer
370
13
48
1
60
0
100
AcDbSpline
70
4
71
3
72
10
73
6
40
0
40
0
40
0
40
0
40
0.442219114115166
40
0.962258320789311
40
1
40
1
40
1
40
1
41
1.04
10
30.8554984189612
20
-2.47744807905368
30
0
41
1.04
10
30.838861088942
20
-2.45471141027626
30
0
41
1.04
10
30.8022279031406
20
-2.31650392782683
30
0
41
1.04
10
30.7622048269901
20
-1.96029141296191
30
0
41
1.04
10
30.7394655256526
20
-1.70215611257417
30
0
41
1.04
10
30.7379249290791
20
-1.68442461409369
30
0
0
SPLINE
5
F2
100
AcDbEntity
8
1
62
256
6
ByLayer
370
18
48
1
60
0
100
AcDbSpline
70
4
71
3
72
11
73
7
40
0
40
0
40
0
40
0
40
0.0853105812330204
40
0.471981572838978
40
0.925948582169869
40
1
40
1
40
1
40
1
41
1
10
40.63
20
0.11865062820732
30
0
41
1
10
40.63
20
0.0790931564496873
30
0
41
1
10
40.63
20
-0.140455041036347
30
0
41
1
10
40.6300000000001
20
-0.574934143175682
30
0
41
1
10
40.6299999999999
20
-0.974996480517888
30
0
41
1
10
40.6299999999999
20
-1.18287106053469
30
0
41
1
10
40.6299999999999
20
-1.21154250962294
30
0
0
SPLINE
5
F3
100
AcDbEntity
8
1
62
256
6
ByLayer
370
13
48
1
60
0
100
AcDbSpline
70
4
71
3
72
10
73
6
40
0
40
0
40
0
40
0
40
0.221044394695916
40
0.920014981354948
40
1
40
1
40
1
40
1
41
1.04
10
36.8484322298788
20
-2.46536652865132
30
0
41
1.04
10
36.839979007325
20
-2.44800211385037
30
0
41
1.04
10
36.8045197656306
20
-2.33209545048617
30
0
41
1.04
10
36.7649470154186
20
-2.00150318758317
30
0
41
1.04
10
36.7333516248717
20
-1.63147332120983
30
0
41
1.04
10
36.7300980088228
20
-1.59235118646566
30
0
0
SPLINE
5
F4
100
AcDbEntity
8
1
62
256
6
ByLayer
370
13
48
1
60
0
100
AcDbSpline
70
4
71
3
72
9
73
5
40
0
40
0
40
0
40
0
40
0.188931481842484
40
1
40
1
40
1
40
1
41
1
10
39.9335904814917
20
-0.966191514430761
30
0
41
1
10
39.9258770212348
20
-0.854976534182839
30
0
41
1
10
39.8854247103812
20
-0.253538046927872
30
0
41
1
10
39.8465359893452
20
0.380252984485395
30
0
41
1
10
39.8149493597226
20
0.84485528619777
30
0
0
SPLINE
5
F5
100
AcDbEntity
8
1
62
256
6
ByLayer
370
18
48
1
60
0
100
AcDbSpline
70
4
71
3
72
10
73
6
40
0
40
0
40
0
40
0
40
0.383001622947095
40
0.765262100693209
40
1
40
1
40
1
40
1
41
1
10
40.3300000100055
20
-1.19297710732238
30
0
41
1
10
40.3300000114456
20
-1.01144141501177
30
0
41
1
10
40.3299999983584
20
-0.622250178496699
30
0
41
1
10
40.3299999711047
20
-0.0791362807293865
30
0
41
1
10
40.3299999667793
20
0.252700882608082
30
0
41
1
10
40.3299999661164
20
0.376902749190094
30
0
0
SPLINE
5
F6
100
AcDbEntity
8
1
62
256
6
ByLayer
370
18
48
1
60
0
100
AcDbSpline
70
4
71
3
72
24
73
20
40
0
40
0
40
0
40
0
40
0.124999999999998
40
0.249999999999996
40
0.374999999999995
40
0.374999999999995
40
0.406249999999994
40
0.406249999999994
40
0.437499999999994
40
0.499999999999994
40
0.499999999999994
40
0.624999999999995
40
0.749999999999996
40
0.749999999999996
40
0.812499999999998
40
0.812499999999998
40
0.874999999999999
40
0.874999999999999
40
1
40
1
40
1
40
1
41
1
10
39.8305340307514
20
0.845002823559781
30
0
41
1
10
39.835534710936
20
0.770468295588131
30
0
41
1
10
39.8455024555556
20
0.619912970145293
30
0
41
1
10
39.8604838703391
20
0.38976212378526
30
0
41
1
10
39.8705311654361
20
0.233440741459134
30
0
41
1
10
39.8768294138161
20
0.134802280770259
30
0
41
1
10
39.8780914170151
20
0.115004491664848
30
0
41
1
10
39.8806056022387
20
0.07549302444869
30
0
41
1
10
39.8843654398095
20
0.0163122405024012
30
0
41
1
10
39.8880847278007
20
-0.0426103311511099
30
0
41
1
10
39.8954888779058
20
-0.160117012957556
30
0
41
1
10
39.90527813016
20
-0.315892689872811
30
0
41
1
10
39.9151144951256
20
-0.469895971834006
30
0
41
1
10
39.922550676678
20
-0.584722228593819
30
0
41
1
10
39.9250389049316
20
-0.622884703502763
30
0
41
1
10
39.9300355650296
20
-0.69897910824298
30
0
41
1
10
39.9325483726625
20
-0.736977851256455
30
0
41
1
10
39.940072919585
20
-0.849828719217129
30
0
41
1
10
39.9450819099474
20
-0.92370567537634
30
0
41
1
10
39.9501034128472
20
-0.996234263643657
30
0
0
SPLINE
5
F7
100
AcDbEntity
8
1
62
256
6
ByLayer
370
13
48
1
60
0
100
AcDbSpline
70
4
71
3
72
9
73
5
40
0
40
0
40
0
40
0
40
0.879576511364346
40
1
40
1
40
1
40
1
41
1
10
36.7608742516927
20
1.57593392664651
30
0
41
1
10
36.7276384997418
20
1.97781142466101
30
0
41
1
10
36.6887031973181
20
2.33232108719037
30
0
41
1
10
36.6475508390018
20
2.4512184580075
30
0
41
1
10
36.6425875960091
20
2.46205636496435
30
0
0
SPLINE
5
F8
100
AcDbEntity
8
1
62
256
6
ByLayer
370
13
48
1
60
0
100
AcDbSpline
70
4
71
3
72
10
73
6
40
0
40
0
40
0
40
0
40
0.172392774481361
40
0.698770678717164
40
1
40
1
40
1
40
1
41
1
10
36.0557900254041
20
-2.28697626533207
30
0
41
1
10
36.0487798162001
20
-2.2438578998825
30
0
41
1
10
36.0205393267426
20
-2.04329980794236
30
0
41
1
10
35.9812759853575
20
-1.62303598721189
30
0
41
1
10
35.9493216385582
20
-1.19052565722634
30
0
41
1
10
35.9377354827986
20
-1.02554977599806
30
0
0
SPLINE
5
F9
100
AcDbEntity
8
1
62
256
6
ByLayer
370
18
48
1
60
0
100
AcDbSpline
70
4
71
3
72
26
73
22
40
0
40
0
40
0
40
0
40
0.125000000000001
40
0.125000000000001
40
0.250000000000003
40
0.250000000000003
40
0.312500000000003
40
0.312500000000003
40
0.343750000000003
40
0.343750000000003
40
0.375000000000003
40
0.500000000000004
40
0.625000000000004
40
0.625000000000004
40
0.687500000000004
40
0.718750000000004
40
0.718750000000004
40
0.750000000000004
40
0.750000000000004
40
0.875000000000002
40
1
40
1
40
1
40
1
41
1
10
36.508757467068
20
-2.99813458488947
30
0
41
1
10
36.5032949059043
20
-2.97742090638889
30
0
41
1
10
36.4978568400729
20
-2.95142155044874
30
0
41
1
10
36.4868376078933
20
-2.88901239015402
30
0
41
1
10
36.4812749998515
20
-2.85260257747123
30
0
41
1
10
36.4728977905227
20
-2.79004389969217
30
0
41
1
10
36.4700992060646
20
-2.76786437921072
30
0
41
1
10
36.4658923586728
20
-2.73256292343419
30
0
41
1
10
36.4644882528465
20
-2.72045311027731
30
0
41
1
10
36.4616932311778
20
-2.69569859837966
30
0
41
1
10
36.4547277866989
20
-2.63238678845698
30
0
41
1
10
36.4423823389283
20
-2.50579209600758
30
0
41
1
10
36.43152951409
20
-2.37570965750061
30
0
41
1
10
36.4233477585662
20
-2.27150618788221
30
0
41
1
10
36.4192460227615
20
-2.21774085282453
30
0
41
1
10
36.4151086202485
20
-2.16143838640861
30
0
41
1
10
36.4123400987302
20
-2.1233326805345
30
0
41
1
10
36.4109503167325
20
-2.10399061302982
30
0
41
1
10
36.4040139781122
20
-2.00642574012304
30
0
41
1
10
36.3929423523411
20
-1.84397222738221
30
0
41
1
10
36.3819372714019
20
-1.66920702978285
30
0
41
1
10
36.3764301783879
20
-1.57874346334171
30
0
0
SPLINE
5
FA
100
AcDbEntity
8
1
62
256
6
ByLayer
370
18
48
1
60
0
100
AcDbSpline
70
4
71
3
72
30
73
26
40
0
40
0
40
0
40
0
40
0.124999999999998
40
0.124999999999998
40
0.156249999999998
40
0.156249999999998
40
0.187499999999998
40
0.187499999999998
40
0.249999999999997
40
0.249999999999997
40
0.374999999999997
40
0.499999999999997
40
0.499999999999997
40
0.562499999999996
40
0.562499999999996
40
0.593749999999996
40
0.593749999999996
40
0.624999999999997
40
0.749999999999998
40
0.874999999999999
40
0.874999999999999
40
0.937499999999999
40
0.96875
40
0.96875
40
1
40
1
40
1
40
1
41
1
10
36.280221094775
20
-1.49221416996852
30
0
41
1
10
36.2857112242274
20
-1.58419740897489
30
0
41
1
10
36.2912168855026
20
-1.67365995362559
30
0
41
1
10
36.29816044042
20
-1.78225613816076
30
0
41
1
10
36.299552243527
20
-1.80381335747717
30
0
41
1
10
36.3023431447668
20
-1.84660000465297
30
0
41
1
10
36.30374317052
20
-1.86784303192238
30
0
41
1
10
36.3079292484822
20
-1.93070922698263
30
0
41
1
10
36.3107089245617
20
-1.97159009249268
30
0
41
1
10
36.3190162336385
20
-2.0912040929382
30
0
41
1
10
36.3300048041264
20
-2.2426292200677
30
0
41
1
10
36.340914526427
20
-2.37817704045025
30
0
41
1
10
36.3491346984388
20
-2.4737812632483
30
0
41
1
10
36.3518813650963
20
-2.50463789509286
30
0
41
1
10
36.3560220705959
20
-2.54937369942667
30
0
41
1
10
36.3574067933899
20
-2.56403700799706
30
0
41
1
10
36.3601689983633
20
-2.5926761077306
30
0
41
1
10
36.3670666065688
20
-2.66265592514
30
0
41
1
10
36.3794374977378
20
-2.7742835501731
30
0
41
1
10
36.3903739673504
20
-2.85359607478986
30
0
41
1
10
36.3986156789005
20
-2.90554786546593
30
0
41
1
10
36.4027472312102
20
-2.92963688903995
30
0
41
1
10
36.4069136822216
20
-2.95084827753587
30
0
41
1
10
36.4096994800283
20
-2.96434190859526
30
0
41
1
10
36.4110974586624
20
-2.97076904089872
30
0
41
1
10
36.4124913525218
20
-2.97683489913993
30
0
0
SPLINE
5
FB
100
AcDbEntity
8
1
62
256
6
ByLayer
370
13
48
1
60
0
100
AcDbSpline
70
4
71
3
72
10
73
6
40
0
40
0
40
0
40
0
40
0.563684400194068
40
0.914232099569458
40
1
40
1
40
1
40
1
41
1.04
10
37.5533913487525
20
1.00391461332578
30
0
41
1.04
10
37.5311603327596
20
1.32179667274121
30
0
41
1.04
10
37.4954038926183
20
1.78582449023372
30
0
41
1.04
10
37.455908170189
20
2.14066715938542
30
0
41
1.04
10
37.4386383189683
20
2.25687105867137
30
0
41
1.04
10
37.4352413142065
20
2.27817746728442
30
0
0
SPLINE
5
FC
100
AcDbEntity
8
1
62
256
6
ByLayer
370
18
48
1
60
0
100
AcDbSpline
70
4
71
3
72
26
73
22
40
0
40
0
40
0
40
0
40
0.125
40
0.125
40
0.25
40
0.25
40
0.375
40
0.375
40
0.5
40
0.5
40
0.5625
40
0.5625
40
0.625
40
0.625
40
0.75
40
0.75
40
0.875
40
0.875
40
0.9375
40
0.9375
40
1
40
1
40
1
40
1
41
1
10
36.9850574117701
20
2.97912527384347
30
0
41
1
10
36.9904356857807
20
2.95540826810824
30
0
41
1
10
36.99591515593
20
2.92628080126056
30
0
41
1
10
37.0070738449052
20
2.85682686125352
30
0
41
1
10
37.0126534809071
20
2.81711183357987
30
0
41
1
10
37.0237923451145
20
2.72806382170333
30
0
41
1
10
37.0293507352064
20
2.67872973703984
30
0
41
1
10
37.0404409973794
20
2.57047832689023
30
0
41
1
10
37.0459719906403
20
2.51156158799608
30
0
41
1
10
37.0542752778865
20
2.41579233356998
30
0
41
1
10
37.0570504630975
20
2.3825559690053
30
0
41
1
10
37.0625527265537
20
2.31433850060148
30
0
41
1
10
37.065286291644
20
2.27928755447258
30
0
41
1
10
37.0734576128816
20
2.17135972560473
30
0
41
1
10
37.0788633787431
20
2.09571498833185
30
0
41
1
10
37.0897708417272
20
1.93713398699313
30
0
41
1
10
37.0953006000368
20
1.85419911332124
30
0
41
1
10
37.1036881802184
20
1.72421760432613
30
0
41
1
10
37.1064976531615
20
1.67994765996755
30
0
41
1
10
37.1121321468635
20
1.58954534019867
30
0
41
1
10
37.1149333547864
20
1.54379454461394
30
0
41
1
10
37.117717695505
20
1.49750620245661
30
0
0
SPLINE
5
FD
100
AcDbEntity
8
1
62
256
6
ByLayer
370
13
48
1
60
0
100
AcDbSpline
70
4
71
3
72
9
73
5
40
0
40
0
40
0
40
0
40
0.208666380943586
40
1
40
1
40
1
40
1
41
1
10
30.767926340423
20
1.48913471596819
30
0
41
1
10
30.7596716744048
20
1.59254370406475
30
0
41
1
10
30.7200204033634
20
2.06103273105688
30
0
41
1
10
30.6812631932577
20
2.35108342603317
30
0
41
1
10
30.6504268280675
20
2.44249563095011
30
0
0
SPLINE
5
FE
100
AcDbEntity
8
1
62
256
6
ByLayer
370
13
48
1
60
0
100
AcDbSpline
70
4
71
3
72
10
73
6
40
0
40
0
40
0
40
0
40
0.243829122521684
40
0.771352652697648
40
1
40
1
40
1
40
1
41
1.04
10
31.5604886010188
20
0.901776772794021
30
0
41
1.04
10
31.5506648381661
20
1.04486856946149
30
0
41
1.04
10
31.5196684976844
20
1.48017052778763
30
0
41
1.04
10
31.4801222328486
20
1.93739143695565
30
0
41
1.04
10
31.451404073304
20
2.1686728338007
30
0
41
1.04
10
31.442815623684
20
2.22823714104749
30
0
0
SPLINE
5
FF
100
AcDbEntity
8
1
62
256
6
ByLayer
370
13
48
1
60
0
100
AcDbSpline
70
4
71
3
72
9
73
5
40
0
40
0
40
0
40
0
40
0.0628689285461839
40
1
40
1
40
1
40
1
41
1.04
10
39.6686530810521
20
-0.755281253014864
30
0
41
1.04
10
39.6661019112088
20
-0.717258976339499
30
0
41
1.04
10
39.6256309754463
20
-0.109579578473283
30
0
41
1.04
10
39.5867403988084
20
0.532167737412227
30
0
41
1.04
10
39.5499996176967
20
1.05256262319949
30
0
0
SPLINE
5
100
100
AcDbEntity
8
1
62
256
6
ByLayer
370
13
48
1
60
0
100
AcDbSpline
70
4
71
3
72
10
73
6
40
0
40
0
40
0
40
0
40
0.10775104965736
40
0.643638345535963
40
1
40
1
40
1
40
1
41
1
10
38.8759786669051
20
-0.0917502682591191
30
0
41
1
10
38.8719253918454
20
-0.028415134624197
30
0
41
1
10
38.8475967936489
20
0.352201290246114
30
0
41
1
10
38.8088070391564
20
0.95328688355761
30
0
41
1
10
38.7725253397518
20
1.43832961091215
30
0
41
1
10
38.7576336866965
20
1.61526203476163
30
0
0
SPLINE
5
101
100
AcDbEntity
8
1
62
256
6
ByLayer
370
18
48
1
60
0
100
AcDbSpline
70
4
71
3
72
24
73
20
40
0
40
0
40
0
40
0
40
0.25
40
0.25
40
0.3125
40
0.34375
40
0.34375
40
0.374999999999999
40
0.374999999999999
40
0.5
40
0.625
40
0.625
40
0.75
40
0.75
40
0.8125
40
0.8125
40
0.875
40
0.875
40
1
40
1
40
1
40
1
41
1
10
38.9450423909714
20
1.71810079746697
30
0
41
1
10
38.9557838180599
20
1.57139979012734
30
0
41
1
10
38.9662825275268
20
1.41497089857998
30
0
41
1
10
38.9793307722165
20
1.20738267903369
30
0
41
1
10
38.9832450435521
20
1.14419693385253
30
0
41
1
10
38.9871786862012
20
1.07963410138356
30
0
41
1
10
38.9898074117448
20
1.03628406822165
30
0
41
1
10
38.9911244927105
20
1.01446202331977
30
0
41
1
10
38.997693130997
20
0.905190992692241
30
0
41
1
10
39.0081584252804
20
0.72837480913617
30
0
41
1
10
39.0186818716323
20
0.547736808234106
30
0
41
1
10
39.0292759103122
20
0.365182496870972
30
0
41
1
10
39.0346075668765
20
0.272947413254286
30
0
41
1
10
39.0426787780178
20
0.13309563392383
30
0
41
1
10
39.0453850244469
20
0.0861934804721614
30
0
41
1
10
39.0507633378699
20
-0.0072288438968826
30
0
41
1
10
39.0534384319183
20
-0.0538576911451401
30
0
41
1
10
39.0614275494128
20
-0.193500934727325
30
0
41
1
10
39.066708149805
20
-0.286273157295085
30
0
41
1
10
39.071983300063
20
-0.378722170638582
30
0
0
SPLINE
5
102
100
AcDbEntity
8
1
62
256
6
ByLayer
370
18
48
1
60
0
100
AcDbSpline
70
4
71
3
72
24
73
20
40
0
40
0
40
0
40
0
40
0.125
40
0.125
40
0.250000000000001
40
0.250000000000001
40
0.312500000000001
40
0.312500000000001
40
0.375
40
0.375
40
0.500000000000001
40
0.625000000000001
40
0.750000000000001
40
0.750000000000001
40
0.812500000000001
40
0.812500000000001
40
0.875000000000001
40
0.875000000000001
40
1
40
1
40
1
40
1
41
1
10
39.5819803691492
20
-0.764482336425829
30
0
41
1
10
39.5768578662088
20
-0.68307653994691
30
0
41
1
10
39.5717449797398
20
-0.60096163975291
30
0
41
1
10
39.5614657435238
20
-0.435353433891379
30
0
41
1
10
39.5562982801164
20
-0.351861597468485
30
0
41
1
10
39.5485109754501
20
-0.225578858216466
30
0
41
1
10
39.5459098428228
20
-0.183309927577284
30
0
41
1
10
39.5407050986581
20
-0.0984139842396416
30
0
41
1
10
39.5380955609886
20
-0.0556884004807898
30
0
41
1
10
39.5303547899352
20
0.0718471188053229
30
0
41
1
10
39.5202470062209
20
0.240691131879743
30
0
41
1
10
39.5052631739006
20
0.490507518968059
30
0
41
1
10
39.4951692549255
20
0.6547748367324
30
0
41
1
10
39.4875027806978
20
0.777098632445956
30
0
41
1
10
39.4849260159992
20
0.817812114372373
30
0
41
1
10
39.479776371062
20
0.898290638581784
30
0
41
1
10
39.4772006788621
20
0.938102465306685
30
0
41
1
10
39.4694670345238
20
1.05626194598983
30
0
41
1
10
39.4643040858818
20
1.13333582531641
30
0
41
1
10
39.459133941242
20
1.20868143362904
30
0
0
SPLINE
5
103
100
AcDbEntity
8
1
62
256
6
ByLayer
370
13
48
1
60
0
100
AcDbSpline
70
4
71
3
72
10
73
6
40
0
40
0
40
0
40
0
40
0.410749048437305
40
0.760538477006186
40
1
40
1
40
1
40
1
41
1.04
10
34.7332146385317
20
-1.62921878435691
30
0
41
1.04
10
34.7174009698215
20
-1.44240893024071
30
0
41
1.04
10
34.6879906618186
20
-1.05048573446531
30
0
41
1.04
10
34.6483174142342
20
-0.450806321980852
30
0
41
1.04
10
34.6248780045749
20
-0.0836706252337047
30
0
41
1.04
10
34.6153378681431
20
0.0654208366165621
30
0
0
SPLINE
5
104
100
AcDbEntity
8
1
62
256
6
ByLayer
370
13
48
1
60
0
100
AcDbSpline
70
4
71
3
72
10
73
6
40
0
40
0
40
0
40
0
40
0.541320836737069
40
0.889322867271493
40
1
40
1
40
1
40
1
41
1
10
34.9982275616832
20
-1.79305338827427
30
0
41
1
10
34.9773190327539
20
-1.56646542107376
30
0
41
1
10
34.9429094397069
20
-1.11721968428958
30
0
41
1
10
34.9030321054309
20
-0.513086966286266
30
0
41
1
10
34.8847034160139
20
-0.22800662222906
30
0
41
1
10
34.880278132612
20
-0.158989456545953
30
0
0
SPLINE
5
105
100
AcDbEntity
8
1
62
256
6
ByLayer
370
18
48
1
60
0
100
AcDbSpline
70
4
71
3
72
27
73
23
40
0
40
0
40
0
40
0
40
0.0625
40
0.0625
40
0.125
40
0.125
40
0.25
40
0.25
40
0.375
40
0.375
40
0.4375
40
0.4375
40
0.5
40
0.5
40
0.625
40
0.75
40
0.75
40
0.8125
40
0.8125
40
0.875
40
0.875
40
1
40
1
40
1
40
1
41
1
10
35.2225663190249
20
-0.449570264573424
30
0
41
1
10
35.2253466417598
20
-0.502196318916702
30
0
41
1
10
35.2281539793092
20
-0.554951537633826
30
0
41
1
10
35.2337348287226
20
-0.65935052956317
30
0
41
1
10
35.236512426781
20
-0.711073400912227
30
0
41
1
10
35.2448012335679
20
-0.864839131098194
30
0
41
1
10
35.2502631381103
20
-0.965483046372242
30
0
41
1
10
35.2611572433381
20
-1.16308160329498
30
0
41
1
10
35.2666075906938
20
-1.26003540496475
30
0
41
1
10
35.2748825444068
20
-1.4026404824298
30
0
41
1
10
35.2776544916267
20
-1.44970378267175
30
0
41
1
10
35.2832297909442
20
-1.54286594359954
30
0
41
1
10
35.2860151529644
20
-1.58866245014548
30
0
41
1
10
35.2943398686032
20
-1.72325240071356
30
0
41
1
10
35.3053814241387
20
-1.89568752672741
30
0
41
1
10
35.3163735062707
20
-2.05437897356893
30
0
41
1
10
35.3246358068682
20
-2.16818573651207
30
0
41
1
10
35.3273930985313
20
-2.2052509679217
30
0
41
1
10
35.332922476169
20
-2.27760940232545
30
0
41
1
10
35.3357021848937
20
-2.31299352278927
30
0
41
1
10
35.3439930047704
20
-2.4153758286792
30
0
41
1
10
35.3494737727955
20
-2.47884358719557
30
0
41
1
10
35.3549442281487
20
-2.53766259756708
30
0
0
SPLINE
5
106
100
AcDbEntity
8
1
62
256
6
ByLayer
370
18
48
1
60
0
100
AcDbSpline
70
4
71
3
72
28
73
24
40
0
40
0
40
0
40
0
40
0.124999999999999
40
0.124999999999999
40
0.249999999999998
40
0.249999999999998
40
0.281249999999998
40
0.281249999999998
40
0.312499999999997
40
0.374999999999998
40
0.374999999999998
40
0.499999999999998
40
0.624999999999998
40
0.624999999999998
40
0.656249999999998
40
0.656249999999998
40
0.687499999999998
40
0.687499999999998
40
0.749999999999998
40
0.749999999999998
40
0.874999999999999
40
0.874999999999999
40
1
40
1
40
1
40
1
41
1
10
38.0427312983085
20
2.54309337324872
30
0
41
1
10
38.0482367175288
20
2.4844277843672
30
0
41
1
10
38.0537136706358
20
2.4213530476795
30
0
41
1
10
38.0647007371429
20
2.28637286527444
30
0
41
1
10
38.070222960938
20
2.21446871603723
30
0
41
1
10
38.0771998709944
20
2.1188797743842
30
0
41
1
10
38.0785979393353
20
2.09948519455648
30
0
41
1
10
38.081384991197
20
2.06035257994662
30
0
41
1
10
38.0855580252822
20
2.00105559955176
30
0
41
1
10
38.0897111092165
20
1.93998520745538
30
0
41
1
10
38.0979990307012
20
1.81551618845543
30
0
41
1
10
38.1089999210797
20
1.64336075837159
30
0
41
1
10
38.1200139226518
20
1.45889441447858
30
0
41
1
10
38.1269480034109
20
1.33965575736357
30
0
41
1
10
38.128337380937
20
1.315610154317
30
0
41
1
10
38.1311225953265
20
1.26711858006183
30
0
41
1
10
38.1325173636543
20
1.24269077011061
30
0
41
1
10
38.1366888316518
20
1.16923627081658
30
0
41
1
10
38.1394605746891
20
1.11990214267368
30
0
41
1
10
38.1477639707124
20
0.970828103201313
30
0
41
1
10
38.153296412192
20
0.870020008972404
30
0
41
1
10
38.1643002286439
20
0.665590132824093
30
0
41
1
10
38.1697617269987
20
0.561967852759267
30
0
41
1
10
38.175223772727
20
0.456914332907218
30
0
0
SPLINE
5
107
100
AcDbEntity
8
1
62
256
6
ByLayer
370
13
48
1
60
0
100
AcDbSpline
70
4
71
3
72
9
73
5
40
0
40
0
40
0
40
0
40
0.693070902569762
40
1
40
1
40
1
40
1
41
1
10
37.8184351741384
20
0.793334301167562
30
0
41
1
10
37.790950970866
20
1.20042253229147
30
0
41
1
10
37.7518592142619
20
1.72752699715389
30
0
41
1
10
37.7123465268782
20
2.08727544135041
30
0
41
1
10
37.7001977948018
20
2.1788648487242
30
0
0
SPLINE
5
108
100
AcDbEntity
8
1
62
256
6
ByLayer
370
13
48
1
60
0
100
AcDbSpline
70
4
71
3
72
10
73
6
40
0
40
0
40
0
40
0
40
0.534755527331818
40
0.891239228122908
40
1
40
1
40
1
40
1
41
1
10
33.9406709854101
20
-1.0674829609672
30
0
41
1
10
33.9188990835817
20
-0.760310041674899
30
0
41
1
10
33.883521771123
20
-0.210204332775589
30
0
41
1
10
33.844675774851
20
0.398428655225757
30
0
41
1
10
33.8268408817379
20
0.667789291287505
30
0
41
1
10
33.8226832421715
20
0.72985606971659
30
0
0
SPLINE
5
109
100
AcDbEntity
8
1
62
256
6
ByLayer
370
18
48
1
60
0
100
AcDbSpline
70
4
71
3
72
23
73
19
40
0
40
0
40
0
40
0
40
0.125
40
0.25
40
0.25
40
0.3125
40
0.3125
40
0.375
40
0.375
40
0.499999999999999
40
0.624999999999999
40
0.624999999999999
40
0.687499999999999
40
0.687499999999999
40
0.749999999999999
40
0.749999999999999
40
0.875
40
1
40
1
40
1
40
1
41
1
10
34.1648194605809
20
0.6502767365061
30
0
41
1
10
34.1703355001113
20
0.546791110367849
30
0
41
1
10
34.1813787784583
20
0.338424781533831
30
0
41
1
10
34.1924271379453
20
0.127298291601107
30
0
41
1
10
34.2007670965896
20
-0.0321011287719557
30
0
41
1
10
34.2035598502069
20
-0.0854680174934401
30
0
41
1
10
34.2091659013125
20
-0.192317785107974
30
0
41
1
10
34.2119594270201
20
-0.245445637393203
30
0
41
1
10
34.2203100127194
20
-0.403957539136712
30
0
41
1
10
34.2313610089563
20
-0.612987159058207
30
0
41
1
10
34.242308796871
20
-0.817461614790375
30
0
41
1
10
34.2505339617648
20
-0.969083730071674
30
0
41
1
10
34.2532783473172
20
-1.01933489584798
30
0
41
1
10
34.2587841835822
20
-1.11924651811555
30
0
41
1
10
34.2615496648214
20
-1.1689751326038
30
0
41
1
10
34.2697948198044
20
-1.31554726956904
30
0
41
1
10
34.2807128682542
20
-1.50513187391564
30
0
41
1
10
34.2916773551354
20
-1.68332934728917
30
0
41
1
10
34.2972084596661
20
-1.76956487511572
30
0
0
SPLINE
5
10A
100
AcDbEntity
8
1
62
256
6
ByLayer
370
18
48
1
60
0
100
AcDbSpline
70
4
71
3
72
30
73
26
40
0
40
0
40
0
40
0
40
0.03125
40
0.03125
40
0.0625
40
0.0625
40
0.125000000000001
40
0.125000000000001
40
0.250000000000002
40
0.375000000000003
40
0.375000000000003
40
0.437500000000003
40
0.437500000000003
40
0.468750000000003
40
0.468750000000003
40
0.500000000000003
40
0.625000000000002
40
0.750000000000001
40
0.750000000000001
40
0.812500000000001
40
0.843750000000001
40
0.843750000000001
40
0.875000000000001
40
0.875000000000001
40
1
40
1
40
1
40
1
41
1
10
35.4510981980961
20
-2.59236282419707
30
0
41
1
10
35.4497062165665
20
-2.57828606370936
30
0
41
1
10
35.4483115969009
20
-2.5638926289644
30
0
41
1
10
35.4455168761853
20
-2.53446543639691
30
0
41
1
10
35.444114721009
20
-2.51940882673353
30
0
41
1
10
35.4399196799222
20
-2.47348800237538
30
0
41
1
10
35.4371364548354
20
-2.4418583805772
30
0
41
1
10
35.428821831519
20
-2.34398543035158
30
0
41
1
10
35.4178309534279
20
-2.20554633387678
30
0
41
1
10
35.4069299201003
20
-2.0514956306223
30
0
41
1
10
35.3987149507779
20
-1.93001712085061
30
0
41
1
10
35.3959694962877
20
-1.88853227422285
30
0
41
1
10
35.3918279900564
20
-1.82478774843881
30
0
41
1
10
35.3904417558043
20
-1.80325435074511
30
0
41
1
10
35.3876745537746
20
-1.75988242022297
30
0
41
1
10
35.3807674313825
20
-1.65066054632467
30
0
41
1
10
35.3684247765446
20
-1.44704673681238
30
0
41
1
10
35.3574783822365
20
-1.25633443817381
30
0
41
1
10
35.3492152035999
20
-1.10963188296213
30
0
41
1
10
35.3450707439529
20
-1.03536169576191
30
0
41
1
10
35.3409035460354
20
-0.959691515361897
30
0
41
1
10
35.3381198015617
20
-0.908929966076983
30
0
41
1
10
35.3367230738574
20
-0.883353931329879
30
0
41
1
10
35.3297568322259
20
-0.75528446360164
30
0
41
1
10
35.3242342078376
20
-0.652122156520107
30
0
41
1
10
35.3187359017926
20
-0.548277688708652
30
0
0
SPLINE
5
10B
100
AcDbEntity
8
1
62
256
6
ByLayer
370
13
48
1
60
0
100
AcDbSpline
70
4
71
3
72
11
73
7
40
0
40
0
40
0
40
0
40
0.0456388109836159
40
0.567997656365763
40
0.923764110288743
40
1
40
1
40
1
40
1
41
1.04
10
35.7908135791289
20
-2.18906445161319
30
0
41
1.04
10
35.7889611141398
20
-2.17532636584599
30
0
41
1.04
10
35.7659482361267
20
-1.99915143223963
30
0
41
1.04
10
35.7293990611588
20
-1.61074009907275
30
0
41
1.04
10
35.6923108672076
20
-1.10273107615159
30
0
41
1.04
10
35.6756044683696
20
-0.858321136565338
30
0
41
1.04
10
35.6726580008789
20
-0.814797217034223
30
0
0
SPLINE
5
10C
100
AcDbEntity
8
1
62
256
6
ByLayer
370
13
48
1
60
0
100
AcDbSpline
70
4
71
3
72
9
73
5
40
0
40
0
40
0
40
0
40
0.515223650829342
40
1
40
1
40
1
40
1
41
1.04
10
38.6110191113001
20
0.133187232387044
30
0
41
1.04
10
38.5916683309436
20
0.435245007606474
30
0
41
1.04
10
38.5533229033918
20
1.02770377952063
30
0
41
1.04
10
38.5129316664154
20
1.55859220257639
30
0
41
1.04
10
38.4925452537717
20
1.78067400095882
30
0
0
SPLINE
5
10D
100
AcDbEntity
8
1
62
256
6
ByLayer
370
18
48
1
60
0
100
AcDbSpline
70
4
71
3
72
28
73
24
40
0
40
0
40
0
40
0
40
0.125
40
0.125
40
0.1875
40
0.21875
40
0.21875
40
0.25
40
0.25
40
0.375
40
0.375
40
0.5
40
0.5
40
0.625
40
0.625
40
0.65625
40
0.65625
40
0.6875
40
0.75
40
0.75
40
0.875
40
0.875
40
1
40
1
40
1
40
1
41
1
10
38.2715249733591
20
0.357092898750693
30
0
41
1
10
38.2660082691044
20
0.462029536701607
30
0
41
1
10
38.2604884894815
20
0.566181760881904
30
0
41
1
10
38.2521822254972
20
0.721223202676413
30
0
41
1
10
38.2480220147528
20
0.798446589999799
30
0
41
1
10
38.2438439381227
20
0.875216350032503
30
0
41
1
10
38.2410536228343
20
0.92629411945498
30
0
41
1
10
38.2396542921135
20
0.951812922700753
30
0
41
1
10
38.2326810384324
20
1.07845753309391
30
0
41
1
10
38.2271544895236
20
1.17715161805415
30
0
41
1
10
38.2161491213303
20
1.36946256899543
30
0
41
1
10
38.2106730349385
20
1.46307910524388
30
0
41
1
10
38.1997079721446
20
1.64523167744085
30
0
41
1
10
38.1942182590259
20
1.73376811793781
30
0
41
1
10
38.1872885747225
20
1.84115655801864
30
0
41
1
10
38.1858976544796
20
1.86249299952351
30
0
41
1
10
38.1831229414413
20
1.90459871811115
30
0
41
1
10
38.1789669775339
20
1.96697934322071
30
0
41
1
10
38.1748226532777
20
2.02705386500827
30
0
41
1
10
38.1665346731925
20
2.1441772348108
30
0
41
1
10
38.1610086460641
20
2.2182331670291
30
0
41
1
10
38.1499084144596
20
2.3583551368834
30
0
41
1
10
38.1443316077647
20
2.42442148888287
30
0
41
1
10
38.1387415617331
20
2.48639495320978
30
0
0
SPLINE
5
10E
100
AcDbEntity
8
1
62
256
6
ByLayer
370
13
48
1
60
0
100
AcDbSpline
70
4
71
3
72
10
73
6
40
0
40
0
40
0
40
0
40
0.37565675016397
40
0.726785413165633
40
1
40
1
40
1
40
1
41
1
10
32.8830740547739
20
-0.202556130330663
30
0
41
1
10
32.8684531702278
20
0.0253095020114245
30
0
41
1
10
32.8401648111794
20
0.471158731584666
30
0
41
1
10
32.8006839487103
20
1.06075816812824
30
0
41
1
10
32.7760044444893
20
1.38955154505393
30
0
41
1
10
32.7652084096685
20
1.52298043236021
30
0
0
SPLINE
5
10F
100
AcDbEntity
8
1
62
256
6
ByLayer
370
13
48
1
60
0
100
AcDbSpline
70
4
71
3
72
10
73
6
40
0
40
0
40
0
40
0
40
0.405324861630094
40
0.759477563611378
40
1
40
1
40
1
40
1
41
1.04
10
33.675648299814
20
-0.859280691453507
30
0
41
1.04
10
33.6592228045527
20
-0.618199404032155
30
0
41
1.04
10
33.628969452693
20
-0.147709623844277
30
0
41
1.04
10
33.5898678342067
20
0.465010376488505
30
0
41
1.04
10
33.567009062758
20
0.807043515349849
30
0
41
1.04
10
33.5578130323757
20
0.940093269289805
30
0
0
SPLINE
5
110
100
AcDbEntity
8
1
62
256
6
ByLayer
370
18
48
1
60
0
100
AcDbSpline
70
4
71
3
72
27
73
23
40
0
40
0
40
0
40
0
40
0.125000000000001
40
0.250000000000001
40
0.250000000000001
40
0.312500000000001
40
0.312500000000001
40
0.343750000000002
40
0.343750000000002
40
0.375000000000002
40
0.375000000000002
40
0.500000000000002
40
0.500000000000002
40
0.625000000000002
40
0.625000000000002
40
0.687500000000002
40
0.718750000000002
40
0.718750000000002
40
0.750000000000002
40
0.750000000000002
40
0.875000000000001
40
1
40
1
40
1
40
1
41
1
10
33.3357544281722
20
-0.869350285720373
30
0
41
1
10
33.3302465237564
20
-0.767923222155503
30
0
41
1
10
33.3193436402224
20
-0.56296562640145
30
0
41
1
10
33.30850640484
20
-0.353866906571142
30
0
41
1
10
33.3003000535206
20
-0.195466741804921
30
0
41
1
10
33.2975493208302
20
-0.142403596808975
30
0
41
1
10
33.2933920736522
20
-0.062406112587496
30
0
41
1
10
33.2920028768749
20
-0.0356985500262681
30
0
41
1
10
33.2892313258606
20
0.0175414110202894
30
0
41
1
10
33.2878470754432
20
0.044110316813601
30
0
41
1
10
33.2809334573067
20
0.176702191027942
30
0
41
1
10
33.2754296143438
20
0.281969405846667
30
0
41
1
10
33.2644359972253
20
0.490924503390886
30
0
41
1
10
33.2589438427212
20
0.594612203132357
30
0
41
1
10
33.2506397798015
20
0.748943284470073
30
0
41
1
10
33.2464739195313
20
0.825808256688703
30
0
41
1
10
33.2422866446413
20
0.902214513551712
30
0
41
1
10
33.239490124893
20
0.953048782871804
30
0
41
1
10
33.2380904798628
20
0.978393813554618
30
0
41
1
10
33.2311199009468
20
1.10412346592167
30
0
41
1
10
33.2200830372968
20
1.30007698818383
30
0
41
1
10
33.2092008587713
20
1.4859090175031
30
0
41
1
10
33.2037606482678
20
1.57628781613278
30
0
0
SPLINE
5
111
100
AcDbEntity
8
1
62
256
6
ByLayer
370
13
48
1
60
0
100
AcDbSpline
70
4
71
3
72
10
73
6
40
0
40
0
40
0
40
0
40
0.374214009383465
40
0.906738012371184
40
1
40
1
40
1
40
1
41
1
10
31.8254687380514
20
0.688381260040785
30
0
41
1
10
31.8105025638222
20
0.913200555836113
30
0
41
1
10
31.7743139080596
20
1.43493083761282
30
0
41
1
10
31.7351388519712
20
1.88500189022597
30
0
41
1
10
31.711420495801
20
2.08964065037156
30
0
41
1
10
31.7079025357031
20
2.11843428971434
30
0
0
SPLINE
5
112
100
AcDbEntity
8
1
62
256
6
ByLayer
370
18
48
1
60
0
100
AcDbSpline
70
4
71
3
72
30
73
26
40
0
40
0
40
0
40
0
40
0.0312500000000002
40
0.0312500000000002
40
0.0625000000000005
40
0.0625000000000005
40
0.125000000000001
40
0.125000000000001
40
0.250000000000003
40
0.375000000000005
40
0.375000000000005
40
0.437500000000006
40
0.437500000000006
40
0.468750000000006
40
0.468750000000006
40
0.500000000000006
40
0.625000000000005
40
0.750000000000004
40
0.750000000000004
40
0.812500000000003
40
0.843750000000003
40
0.843750000000003
40
0.875000000000002
40
0.875000000000002
40
1
40
1
40
1
40
1
41
1
10
32.2783862267434
20
0.224433692737193
30
0
41
1
10
32.2770050168953
20
0.250880217844013
30
0
41
1
10
32.2756209552472
20
0.277346153159982
30
0
41
1
10
32.2728458150173
20
0.330317215925589
30
0
41
1
10
32.2714531757021
20
0.356851881199276
30
0
41
1
10
32.2672859113922
20
0.436074483870101
30
0
41
1
10
32.2645157629003
20
0.488499130659107
30
0
41
1
10
32.2562142400171
20
0.644624650482854
30
0
41
1
10
32.2451750422539
20
0.849735957069555
30
0
41
1
10
32.2342563758984
20
1.04883597669297
30
0
41
1
10
32.226035274576
20
1.19586663581177
30
0
41
1
10
32.223288535396
20
1.24449366084764
30
0
41
1
10
32.2191396173716
20
1.3168467636385
30
0
41
1
10
32.2177496993481
20
1.34089574401028
30
0
41
1
10
32.2149746993021
20
1.3885378300549
30
0
41
1
10
32.2080424806249
20
1.50661954476442
30
0
41
1
10
32.1956422290524
20
1.71010134913408
30
0
41
1
10
32.1847341576094
20
1.87839312414971
30
0
41
1
10
32.1765435786114
20
1.99985537714576
30
0
41
1
10
32.1724450672709
20
2.05939499004106
30
0
41
1
10
32.1683238697377
20
2.11711781060896
30
0
41
1
10
32.1655687827119
20
2.15519103738714
30
0
41
1
10
32.1641856049943
20
2.17404776686072
30
0
41
1
10
32.157280124536
20
2.26681291856102
30
0
41
1
10
32.1517478737637
20
2.33643093021397
30
0
41
1
10
32.1462388794621
20
2.401605025203
30
0
0
SPLINE
5
113
100
AcDbEntity
8
1
62
256
6
ByLayer
370
13
48
1
60
0
100
AcDbSpline
70
4
71
3
72
10
73
6
40
0
40
0
40
0
40
0
40
0.244914182223801
40
0.596738892757045
40
1
40
1
40
1
40
1
41
1.04
10
32.6181188688216
20
0.022038942389758
30
0
41
1.04
10
32.6085966106028
20
0.170889879467058
30
0
41
1.04
10
32.5853558941625
20
0.533880229926135
30
0
41
1.04
10
32.5459529115774
20
1.12391035471576
30
0
41
1.04
10
32.5161571291863
20
1.51235444893886
30
0
41
1.04
10
32.500262326165
20
1.69429922572313
30
0
0
SPLINE
5
114
100
AcDbEntity
8
1
62
256
6
ByLayer
370
18
48
1
60
0
100
AcDbSpline
70
4
71
3
72
24
73
20
40
0
40
0
40
0
40
0
40
0.142311359033206
40
0.142311359033206
40
0.3138490872266
40
0.3138490872266
40
0.485386815419994
40
0.485386815419994
40
0.571155679516661
40
0.571155679516661
40
0.656924543613329
40
0.656924543613329
40
0.742693407709997
40
0.742693407709997
40
0.828462271806665
40
0.828462271806665
40
0.914231135903332
40
0.914231135903332
40
1
40
1
40
1
40
1
41
1
10
37.0533127634652
20
-2.42691269236707
30
0
41
1
10
37.0443568661301
20
-2.4217353025804
30
0
41
1
10
37.0350465880548
20
-2.41739425408926
30
0
41
1
10
37.0137757067745
20
-2.40961342929896
30
0
41
1
10
37.0015500206342
20
-2.40653973746572
30
0
41
1
10
36.9769366215199
20
-2.4031528061675
30
0
41
1
10
36.9644911023662
20
-2.40279020356195
30
0
41
1
10
36.945631913014
20
-2.40452355625482
30
0
41
1
10
36.9393134214491
20
-2.40548454546277
30
0
41
1
10
36.9266107044754
20
-2.40828863888504
30
0
41
1
10
36.9202562363823
20
-2.41013143786031
30
0
41
1
10
36.9078163488746
20
-2.41472316694262
30
0
41
1
10
36.9016946441327
20
-2.41747809672242
30
0
41
1
10
36.8896848095426
20
-2.42405051423231
30
0
41
1
10
36.8837546482788
20
-2.42790502722261
30
0
41
1
10
36.8725240443099
20
-2.43665003807914
30
0
41
1
10
36.8671951820968
20
-2.44154498961791
30
0
41
1
10
36.8572070681813
20
-2.4525557241968
30
0
41
1
10
36.8525432454472
20
-2.45869840788711
30
0
41
1
10
36.8484322298817
20
-2.46536652864592
30
0
0
SPLINE
5
115
100
AcDbEntity
8
1
62
256
6
ByLayer
370
18
48
1
60
0
100
AcDbSpline
70
4
71
3
72
12
73
8
40
0
40
0
40
0
40
0
40
0.499999999999993
40
0.499999999999993
40
0.749999999999996
40
0.749999999999996
40
1
40
1
40
1
40
1
41
1
10
36.848432229879
20
-2.46536652865169
30
0
41
1
10
36.7909942731822
20
-2.55853164207275
30
0
41
1
10
36.7339064376877
20
-2.64974036275072
30
0
41
1
10
36.6489166330172
20
-2.78315426720241
30
0
41
1
10
36.6207030575386
20
-2.82704205051283
30
0
41
1
10
36.5645533798464
20
-2.91352478193673
30
0
41
1
10
36.5366040297868
20
-2.95614016627849
30
0
41
1
10
36.508757467068
20
-2.99813458488947
30
0
0
SPLINE
5
116
100
AcDbEntity
8
1
62
256
6
ByLayer
370
18
48
1
60
0
100
AcDbSpline
70
4
71
3
72
8
73
4
40
0
40
0
40
0
40
0
40
1
40
1
40
1
40
1
41
1
10
36.4124913525111
20
-2.97683489913987
30
0
41
1
10
36.4445743670181
20
-2.98447357166432
30
0
41
1
10
36.4766599958944
20
-2.99157427142677
30
0
41
1
10
36.508757467068
20
-2.99813458488947
30
0
0
SPLINE
5
117
100
AcDbEntity
8
1
62
256
6
ByLayer
370
18
48
1
60
0
100
AcDbSpline
70
4
71
3
72
10
73
6
40
0
40
0
40
0
40
0
40
0.5
40
0.5
40
1
40
1
40
1
40
1
41
1
10
36.4124913525129
20
-2.97683489912473
30
0
41
1
10
36.3539691966453
20
-2.86660966099734
30
0
41
1
10
36.2950686855509
20
-2.75385723738773
30
0
41
1
10
36.1760825998849
20
-2.5233823077678
30
0
41
1
10
36.1162450556388
20
-2.40615283066518
30
0
41
1
10
36.055790025404
20
-2.2869762653315
30
0
0
SPLINE
5
118
100
AcDbEntity
8
1
62
256
6
ByLayer
370
18
48
1
60
0
100
AcDbSpline
70
4
71
3
72
28
73
24
40
0
40
0
40
0
40
0
40
0.125
40
0.125
40
0.249999999999999
40
0.249999999999999
40
0.374999999999999
40
0.374999999999999
40
0.499999999999998
40
0.499999999999998
40
0.624999999999998
40
0.624999999999998
40
0.687499999999998
40
0.687499999999998
40
0.749999999999999
40
0.749999999999999
40
0.812499999999999
40
0.812499999999999
40
0.874999999999999
40
0.874999999999999
40
0.9375
40
0.9375
40
1
40
1
40
1
40
1
41
1
10
36.055790025404
20
-2.2869762653315
30
0
41
1
10
36.0486372797448
20
-2.27287587274125
30
0
41
1
10
36.0403473067024
20
-2.26000514848872
30
0
41
1
10
36.0220060023041
20
-2.23614610337057
30
0
41
1
10
36.0118607451291
20
-2.22511293980165
30
0
41
1
10
35.990652336792
20
-2.20546609566739
30
0
41
1
10
35.9795278234557
20
-2.1967547876676
30
0
41
1
10
35.9563035715755
20
-2.1814703015026
30
0
41
1
10
35.9440887320666
20
-2.17486151254718
30
0
41
1
10
35.9194829259547
20
-2.16438550231851
30
0
41
1
10
35.9070375877137
20
-2.1604534501493
30
0
41
1
10
35.8881723669959
20
-2.15677357799848
30
0
41
1
10
35.8818508294469
20
-2.15592020069715
30
0
41
1
10
35.8691399020157
20
-2.15506960002074
30
0
41
1
10
35.8627705794557
20
-2.15508050455824
30
0
41
1
10
35.8503065670946
20
-2.15607540618873
30
0
41
1
10
35.8441730613728
20
-2.15705456403259
30
0
41
1
10
35.8321408006809
20
-2.16012399869135
30
0
41
1
10
35.82619853658
20
-2.1622390807598
30
0
41
1
10
35.8149432657279
20
-2.16766462799518
30
0
41
1
10
35.8096041038526
20
-2.17097037366253
30
0
41
1
10
35.7995997202464
20
-2.17896493010096
30
0
41
1
10
35.7949289638248
20
-2.18367969195415
30
0
41
1
10
35.7908135791314
20
-2.1890644516067
30
0
0
SPLINE
5
119
100
AcDbEntity
8
1
62
256
6
ByLayer
370
18
48
1
60
0
100
AcDbSpline
70
4
71
3
72
12
73
8
40
0
40
0
40
0
40
0
40
0.5
40
0.5
40
0.75
40
0.75
40
1
40
1
40
1
40
1
41
1
10
35.790813579129
20
-2.18906445161318
30
0
41
1
10
35.7333662866677
20
-2.26423114578009
30
0
41
1
10
35.6762607106164
20
-2.33557072648227
30
0
41
1
10
35.5912555665537
20
-2.4365202038434
30
0
41
1
10
35.5630393875448
20
-2.46914393206208
30
0
41
1
10
35.5068898645255
20
-2.53229093961309
30
0
41
1
10
35.4789424675918
20
-2.56283073742017
30
0
41
1
10
35.4510981980961
20
-2.59236282419704
30
0
0
SPLINE
5
11A
100
AcDbEntity
8
1
62
256
6
ByLayer
370
18
48
1
60
0
100
AcDbSpline
70
4
71
3
72
8
73
4
40
0
40
0
40
0
40
0
40
1
40
1
40
1
40
1
41
1
10
35.3549442281449
20
-2.53766259756736
30
0
41
1
10
35.386991207369
20
-2.55635419817267
30
0
41
1
10
35.4190395515303
20
-2.5745893500044
30
0
41
1
10
35.4510981980961
20
-2.59236282419707
30
0
0
SPLINE
5
11B
100
AcDbEntity
8
1
62
256
6
ByLayer
370
18
48
1
60
0
100
AcDbSpline
70
4
71
3
72
10
73
6
40
0
40
0
40
0
40
0
40
0.5
40
0.5
40
1
40
1
40
1
40
1
41
1
10
35.3549442281456
20
-2.5376625975625
30
0
41
1
10
35.29644413063
20
-2.41376623378386
30
0
41
1
10
35.2375411090157
20
-2.28955078000064
30
0
41
1
10
35.1185324206423
20
-2.04073941079588
30
0
41
1
10
35.0586754713789
20
-1.91666883552239
30
0
41
1
10
34.998227561684
20
-1.79305338828306
30
0
0
SPLINE
5
11C
100
AcDbEntity
8
1
62
256
6
ByLayer
370
18
48
1
60
0
100
AcDbSpline
70
4
71
3
72
28
73
24
40
0
40
0
40
0
40
0
40
0.124999999999984
40
0.124999999999984
40
0.249999999999968
40
0.249999999999968
40
0.374999999999952
40
0.374999999999952
40
0.499999999999936
40
0.499999999999936
40
0.62499999999992
40
0.62499999999992
40
0.687499999999933
40
0.687499999999933
40
0.749999999999946
40
0.749999999999946
40
0.81249999999996
40
0.81249999999996
40
0.874999999999973
40
0.874999999999973
40
0.937499999999987
40
0.937499999999987
40
1
40
1
40
1
40
1
41
1
10
34.9982275616837
20
-1.79305338828243
30
0
41
1
10
34.9910626820944
20
-1.77840127211635
30
0
41
1
10
34.9827582784843
20
-1.76454744847158
30
0
41
1
10
34.9643890033828
20
-1.73807048173501
30
0
41
1
10
34.9542303598713
20
-1.72538172392174
30
0
41
1
10
34.9330022375803
20
-1.70194139850759
30
0
41
1
10
34.9218705729632
20
-1.69108429618288
30
0
41
1
10
34.8986394278871
20
-1.67101326540055
30
0
41
1
10
34.8864256492669
20
-1.66173620774828
30
0
41
1
10
34.8618275540349
20
-1.6455459455419
30
0
41
1
10
34.8493886857351
20
-1.63856030825886
30
0
41
1
10
34.8305368623449
20
-1.62994463286662
30
0
41
1
10
34.8242204050644
20
-1.62738616559153
30
0
41
1
10
34.8115208236094
20
-1.62298431024738
30
0
41
1
10
34.8051570698517
20
-1.62115339011916
30
0
41
1
10
34.7927027395699
20
-1.6183998631013
30
0
41
1
10
34.786573545913
20
-1.61746195451525
30
0
41
1
10
34.7745484782788
20
-1.61659636813871
30
0
41
1
10
34.7686089175862
20
-1.61667706001896
30
0
41
1
10
34.7573549671918
20
-1.61803214006954
30
0
41
1
10
34.7520152260803
20
-1.61929492618924
30
0
41
1
10
34.7420075887901
20
-1.62318725217304
30
0
41
1
10
34.737333588364
20
-1.62583739239722
30
0
41
1
10
34.7332146385341
20
-1.62921878435017
30
0
0
SPLINE
5
11D
100
AcDbEntity
8
1
62
256
6
ByLayer
370
18
48
1
60
0
100
AcDbSpline
70
4
71
3
72
12
73
8
40
0
40
0
40
0
40
0
40
0.500000000000001
40
0.500000000000001
40
0.75
40
0.75
40
1
40
1
40
1
40
1
41
1
10
34.7332146385317
20
-1.62921878435688
30
0
41
1
10
34.6757815227995
20
-1.67636766536319
30
0
41
1
10
34.6186879440173
20
-1.71841518641898
30
0
41
1
10
34.533686201296
20
-1.77383462002862
30
0
41
1
10
34.505468227352
20
-1.79102335056498
30
0
41
1
10
34.4493129169053
20
-1.82281254855155
30
0
41
1
10
34.4213621893522
20
-1.83742070076218
30
0
41
1
10
34.3935168515925
20
-1.85075661623978
30
0
0
SPLINE
5
11E
100
AcDbEntity
8
1
62
256
6
ByLayer
370
18
48
1
60
0
100
AcDbSpline
70
4
71
3
72
10
73
6
40
0
40
0
40
0
40
0
40
0.5
40
0.5
40
1
40
1
40
1
40
1
41
1
10
34.2972084596571
20
-1.7695648751079
30
0
41
1
10
34.2387579757637
20
-1.64815019394456
30
0
41
1
10
34.1798930358863
20
-1.52870260715281
30
0
41
1
10
34.0609358230848
20
-1.29406670886993
30
0
41
1
10
34.0011006316223
20
-1.1793832914118
30
0
41
1
10
33.9406709854101
20
-1.0674829609672
30
0
0
SPLINE
5
11F
100
AcDbEntity
8
1
62
256
6
ByLayer
370
18
48
1
60
0
100
AcDbSpline
70
4
71
3
72
28
73
24
40
0
40
0
40
0
40
0
40
0.124999999999984
40
0.124999999999984
40
0.249999999999968
40
0.249999999999968
40
0.374999999999952
40
0.374999999999952
40
0.499999999999937
40
0.499999999999937
40
0.624999999999921
40
0.624999999999921
40
0.687499999999934
40
0.687499999999934
40
0.749999999999947
40
0.749999999999947
40
0.81249999999996
40
0.81249999999996
40
0.874999999999974
40
0.874999999999974
40
0.937499999999987
40
0.937499999999987
40
1
40
1
40
1
40
1
41
1
10
33.9406709854101
20
-1.0674829609672
30
0
41
1
10
33.9335027779326
20
-1.05420926443409
30
0
41
1
10
33.9251932016899
20
-1.0411918481557
30
0
41
1
10
33.9068107577464
20
-1.01556861074624
30
0
41
1
10
33.8966436564556
20
-1.00288388736064
30
0
41
1
10
33.8753990378029
20
-0.97871301029042
30
0
41
1
10
33.8642592522527
20
-0.967127761817068
30
0
41
1
10
33.8410133244828
20
-0.944891454044296
30
0
41
1
10
33.828793661564
20
-0.934158506139113
30
0
41
1
10
33.8041904054055
20
-0.914377172831053
30
0
41
1
10
33.7917504511342
20
-0.905256605469532
30
0
41
1
10
33.7728996006759
20
-0.892843776993743
30
0
41
1
10
33.7665839005398
20
-0.888919497735316
30
0
41
1
10
33.7538867558419
20
-0.881553183278356
30
0
41
1
10
33.7475293943005
20
-0.878128968548111
30
0
41
1
10
33.7350855514691
20
-0.872003822761684
30
0
41
1
10
33.7289615669076
20
-0.869279877785885
30
0
41
1
10
33.7169466274877
20
-0.864608464108528
30
0
41
1
10
33.7110126401815
20
-0.862652182191198
30
0
41
1
10
33.699770338323
20
-0.859771691028925
30
0
41
1
10
33.6944355982782
20
-0.858830553946149
30
0
41
1
10
33.684436065168
20
-0.85811431859284
30
0
41
1
10
33.6797653702453
20
-0.858351204955056
30
0
41
1
10
33.6756482998164
20
-0.859280691447339
30
0
0
SPLINE
5
120
100
AcDbEntity
8
1
62
256
6
ByLayer
370
18
48
1
60
0
100
AcDbSpline
70
4
71
3
72
10
73
6
40
0
40
0
40
0
40
0
40
0.5
40
0.5
40
1
40
1
40
1
40
1
41
1
10
33.675648299814
20
-0.859280691453506
30
0
41
1
10
33.618178638768
20
-0.872255274862511
30
0
41
1
10
33.5610550499934
20
-0.879417003514163
30
0
41
1
10
33.4476600601076
20
-0.882619757218578
30
0
41
1
10
33.3914840231161
20
-0.878655284144969
30
0
41
1
10
33.3357544281722
20
-0.869350285720373
30
0
0
SPLINE
5
121
100
AcDbEntity
8
1
62
256
6
ByLayer
370
18
48
1
60
0
100
AcDbSpline
70
4
71
3
72
8
73
4
40
0
40
0
40
0
40
0
40
1
40
1
40
1
40
1
41
1
10
33.2396336389704
20
-0.772481681208802
30
0
41
1
10
33.2716686771461
20
-0.8049120995436
30
0
41
1
10
33.30370590643
20
-0.837204489111599
30
0
41
1
10
33.3357544281722
20
-0.869350285720373
30
0
0
SPLINE
5
122
100
AcDbEntity
8
1
62
256
6
ByLayer
370
18
48
1
60
0
100
AcDbSpline
70
4
71
3
72
10
73
6
40
0
40
0
40
0
40
0
40
0.5
40
0.5
40
1
40
1
40
1
40
1
41
1
10
33.2396336389704
20
-0.772481681208831
30
0
41
1
10
33.1811897168291
20
-0.669100796390751
30
0
41
1
10
33.1223584233443
20
-0.569623272891505
30
0
41
1
10
33.0034322065841
20
-0.379027365537127
30
0
41
1
10
32.9435880540694
20
-0.288342127442377
30
0
41
1
10
32.8830740547739
20
-0.202556130330663
30
0
0
SPLINE
5
123
100
AcDbEntity
8
1
62
256
6
ByLayer
370
18
48
1
60
0
100
AcDbSpline
70
4
71
3
72
28
73
24
40
0
40
0
40
0
40
0
40
0.125
40
0.125
40
0.25
40
0.25
40
0.375
40
0.375
40
0.5
40
0.5
40
0.625
40
0.625
40
0.6875
40
0.6875
40
0.75
40
0.75
40
0.8125
40
0.8125
40
0.875
40
0.875
40
0.9375
40
0.9375
40
1
40
1
40
1
40
1
41
1
10
32.8830740547739
20
-0.202556130330663
30
0
41
1
10
32.875911384773
20
-0.192402169343694
30
0
41
1
10
32.867606129703
20
-0.181934749966558
30
0
41
1
10
32.8492261166089
20
-0.160546703556321
30
0
41
1
10
32.839055952811
20
-0.149543644442275
30
0
41
1
10
32.8177998130553
20
-0.127844111434825
30
0
41
1
10
32.8066524431302
20
-0.117068629117568
30
0
41
1
10
32.7833890076908
20
-0.0956242394926221
30
0
41
1
10
32.7711601253542
20
-0.0848657830229058
30
0
41
1
10
32.7465456478514
20
-0.0641399707121764
30
0
41
1
10
32.734101031202
20
-0.0541091542208108
30
0
41
1
10
32.7152456706627
20
-0.0395736848423383
30
0
41
1
10
32.7089288811422
20
-0.0348144266586132
30
0
41
1
10
32.6962305807516
20
-0.0254835503407094
30
0
41
1
10
32.6898818975059
20
-0.0209376016428564
30
0
41
1
10
32.6774518707814
20
-0.0122879072310127
30
0
41
1
10
32.6713351878907
20
-0.0081577035095393
30
0
41
1
10
32.6593355667364
20
-0.0003394658265279
30
0
41
1
10
32.6534109438394
20
0.0033724258070151
30
0
41
1
10
32.6421912037881
20
0.0100586616995031
30
0
41
1
10
32.6368673566568
20
0.0130544717145824
30
0
41
1
10
32.6268881846176
20
0.0182349234069648
30
0
41
1
10
32.6222277925493
20
0.020417176349838
30
0
41
1
10
32.6181188688242
20
0.0220389423934364
30
0
0
SPLINE
5
124
100
AcDbEntity
8
1
62
256
6
ByLayer
370
18
48
1
60
0
100
AcDbSpline
70
4
71
3
72
12
73
8
40
0
40
0
40
0
40
0
40
0.5
40
0.5
40
0.75
40
0.75
40
1
40
1
40
1
40
1
41
1
10
32.6181188688212
20
0.0220389423897132
30
0
41
1
10
32.5606682940235
20
0.0447143186238179
30
0
41
1
10
32.5035701534056
20
0.0732452548063236
30
0
41
1
10
32.4185668997836
20
0.124098723187785
30
0
41
1
10
32.3903491715443
20
0.142388887206977
30
0
41
1
10
32.3341910197703
20
0.181509656928284
30
0
41
1
10
32.3062373648079
20
0.202349545156352
30
0
41
1
10
32.2783862267434
20
0.224433692737222
30
0
0
SPLINE
5
125
100
AcDbEntity
8
1
62
256
6
ByLayer
370
18
48
1
60
0
100
AcDbSpline
70
4
71
3
72
10
73
6
40
0
40
0
40
0
40
0
40
0.5
40
0.5
40
1
40
1
40
1
40
1
41
1
10
32.1820267277297
20
0.324808845379607
30
0
41
1
10
32.1235308351296
20
0.396600770792503
30
0
41
1
10
32.0646514793575
20
0.46302688130578
30
0
41
1
10
31.9457186201045
20
0.584639054707196
30
0
41
1
10
31.8859091056991
20
0.639573717036313
30
0
41
1
10
31.8254687380513
20
0.688381260041609
30
0
0
SPLINE
5
126
100
AcDbEntity
8
1
62
256
6
ByLayer
370
18
48
1
60
0
100
AcDbSpline
70
4
71
3
72
28
73
24
40
0
40
0
40
0
40
0
40
0.125000000000016
40
0.125000000000016
40
0.250000000000032
40
0.250000000000032
40
0.375000000000048
40
0.375000000000048
40
0.500000000000064
40
0.500000000000064
40
0.62500000000008
40
0.62500000000008
40
0.687500000000067
40
0.687500000000067
40
0.750000000000054
40
0.750000000000054
40
0.81250000000004
40
0.81250000000004
40
0.875000000000027
40
0.875000000000027
40
0.937500000000013
40
0.937500000000013
40
1
40
1
40
1
40
1
41
1
10
31.8254687380513
20
0.688381260041609
30
0
41
1
10
31.818308378871
20
0.694163480637343
30
0
41
1
10
31.8100086776353
20
0.700794690511998
30
0
41
1
10
31.7916464890243
20
0.715324139834962
30
0
41
1
10
31.7814896500462
20
0.723296183681498
30
0
41
1
10
31.760261436848
20
0.739865862226281
30
0
41
1
10
31.7491282911769
20
0.748513196933885
30
0
41
1
10
31.7258903637264
20
0.766540719706711
30
0
41
1
10
31.7136715586699
20
0.77600916104862
30
0
41
1
10
31.6890656592656
20
0.795149845726911
30
0
41
1
10
31.6766221606188
20
0.804864855124407
30
0
41
1
10
31.6577625113799
20
0.819740952275566
30
0
41
1
10
31.6514433018508
20
0.824750801337018
30
0
41
1
10
31.6387380231121
20
0.834898341003935
30
0
41
1
10
31.6323768716594
20
0.84001678674386
30
0
41
1
10
31.6199262371901
20
0.850135831737703
30
0
41
1
10
31.6137991721999
20
0.855166225222035
30
0
41
1
10
31.6017790817103
20
0.865168438786185
30
0
41
1
10
31.5958432051164
20
0.870177626620915
30
0
41
1
10
31.5846004583835
20
0.879840522856568
30
0
41
1
10
31.5792664904305
20
0.88451554058372
30
0
41
1
10
31.5692703248506
20
0.893501780439294
30
0
41
1
10
31.564602545094
20
0.897820858335336
30
0
41
1
10
31.5604886010212
20
0.901776772796694
30
0
0
SPLINE
5
127
100
AcDbEntity
8
1
62
256
6
ByLayer
370
18
48
1
60
0
100
AcDbSpline
70
4
71
3
72
12
73
8
40
0
40
0
40
0
40
0
40
0.500000000000008
40
0.500000000000008
40
0.750000000000004
40
0.750000000000004
40
1
40
1
40
1
40
1
41
1
10
31.5604886010184
20
0.90177677279479
30
0
41
1
10
31.5030387641996
20
0.9570197795681
30
0
41
1
10
31.4459358551842
20
1.01725320016124
30
0
41
1
10
31.3609504802991
20
1.11447511284439
30
0
41
1
10
31.3327430280364
20
1.14801239630842
30
0
41
1
10
31.2766146871426
20
1.21714556504614
30
0
41
1
10
31.2486799370333
20
1.25275848343861
30
0
41
1
10
31.2208500420824
20
1.28937766039385
30
0
0
SPLINE
5
128
100
AcDbEntity
8
1
62
256
6
ByLayer
370
18
48
1
60
0
100
AcDbSpline
70
4
71
3
72
10
73
6
40
0
40
0
40
0
40
0
40
0.5
40
0.5
40
1
40
1
40
1
40
1
41
1
10
31.1244768445711
20
1.38004817984776
30
0
41
1
10
31.0659765958931
20
1.41088726524086
30
0
41
1
10
31.0070877682555
20
1.4355273373813
30
0
41
1
10
30.8881497301935
20
1.47206580113342
30
0
41
1
10
30.8283427755446
20
1.48389677481399
30
0
41
1
10
30.7679263404233
20
1.48913471596433
30
0
0
SPLINE
5
129
100
AcDbEntity
8
1
62
256
6
ByLayer
370
18
48
1
60
0
100
AcDbSpline
70
4
71
3
72
28
73
24
40
0
40
0
40
0
40
0
40
0.125
40
0.125
40
0.250000000000001
40
0.250000000000001
40
0.375000000000001
40
0.375000000000001
40
0.500000000000001
40
0.500000000000001
40
0.625000000000002
40
0.625000000000002
40
0.687500000000001
40
0.687500000000001
40
0.750000000000001
40
0.750000000000001
40
0.812500000000001
40
0.812500000000001
40
0.875000000000001
40
0.875000000000001
40
0.9375
40
0.9375
40
1
40
1
40
1
40
1
41
1
10
30.7679263404233
20
1.48913471596435
30
0
41
1
10
30.7607559495844
20
1.48975636941287
30
0
41
1
10
30.7524438751736
20
1.49165810094152
30
0
41
1
10
30.7340568000723
20
1.49738734269701
30
0
41
1
10
30.7238874377075
20
1.50127146607531
30
0
41
1
10
30.7026398413016
20
1.51052525608458
30
0
41
1
10
30.6914991223655
20
1.51590885006053
30
0
41
1
10
30.6682519960609
20
1.52816349302242
30
0
41
1
10
30.6560325053046
20
1.53510835667706
30
0
41
1
10
30.631431441076
20
1.55017835904064
30
0
41
1
10
30.6189926448771
20
1.55832258392221
30
0
41
1
10
30.6001434986761
20
1.57162809455835
30
0
41
1
10
30.5938283628005
20
1.57624659446526
30
0
41
1
10
30.5811323885185
20
1.58591392903048
30
0
41
1
10
30.5747777155519
20
1.59094573982162
30
0
41
1
10
30.5623380166254
20
1.60124110433639
30
0
41
1
10
30.5562160091421
20
1.60653187011502
30
0
41
1
10
30.5442049161989
20
1.61745178281353
30
0
41
1
10
30.5382730718459
20
1.6231263300246
30
0
41
1
10
30.5270354599824
20
1.634553019295
30
0
41
1
10
30.5217028403728
20
1.64032437755631
30
0
41
1
10
30.5117071033055
20
1.65200345653491
30
0
41
1
10
30.5070380027624
20
1.657928582636
30
0
41
1
10
30.5029219520194
20
1.66373652002324
30
0
0
SPLINE
5
12A
100
AcDbEntity
8
1
62
256
6
ByLayer
370
18
48
1
60
0
100
AcDbSpline
70
4
71
3
72
8
73
4
40
0
40
0
40
0
40
0
40
1
40
1
40
1
40
1
41
1
10
30.5029219520182
20
1.6637365200211
30
0
41
1
10
30.4353024789396
20
1.75915071443555
30
0
41
1
10
30.3681678820224
20
1.85937120777317
30
0
41
1
10
30.301644888332
20
1.96355307259958
30
0
0
SPLINE
5
12B
100
AcDbEntity
8
1
62
256
6
ByLayer
370
18
48
1
60
0
100
AcDbSpline
70
4
71
3
72
26
73
22
40
0
40
0
40
0
40
0
40
0.125
40
0.125
40
0.25
40
0.25
40
0.375
40
0.375
40
0.5
40
0.5
40
0.625
40
0.625
40
0.75
40
0.75
40
0.8125
40
0.8125
40
0.875
40
0.875
40
0.9375
40
0.9375
40
1
40
1
40
1
40
1
41
1
10
30.7379249290791
20
-1.68442461409387
30
0
41
1
10
30.7452968049421
20
-1.68261650772015
30
0
41
1
10
30.7538712636099
20
-1.68241094265707
30
0
41
1
10
30.7728241841962
20
-1.6843525338854
30
0
41
1
10
30.7833164822692
20
-1.68655934728392
30
0
41
1
10
30.8051271421223
20
-1.6929078715028
30
0
41
1
10
30.816513031485
20
-1.69704599898805
30
0
41
1
10
30.8401539997305
20
-1.70716237439601
30
0
41
1
10
30.8524896305918
20
-1.71319655757509
30
0
41
1
10
30.8771438815859
20
-1.7268012799201
30
0
41
1
10
30.8895550308518
20
-1.73440060168301
30
0
41
1
10
30.914506541854
20
-1.75143654795974
30
0
41
1
10
30.9271217029781
20
-1.76095022006916
30
0
41
1
10
30.9452484673814
20
-1.77631083701706
30
0
41
1
10
30.9511888161764
20
-1.78163368278368
30
0
41
1
10
30.9628300040665
20
-1.79275024291582
30
0
41
1
10
30.9685596789127
20
-1.79857936665141
30
0
41
1
10
30.979404037772
20
-1.81045416964639
30
0
41
1
10
30.9845544146026
20
-1.81652921968916
30
0
41
1
10
30.9942237038479
20
-1.82899896904058
30
0
41
1
10
30.9987625725341
20
-1.83543058895336
30
0
41
1
10
31.0027992045351
20
-1.84187854844976
30
0
0
SPLINE
5
12C
100
AcDbEntity
8
1
62
256
6
ByLayer
370
18
48
1
60
0
100
AcDbSpline
70
4
71
3
72
12
73
8
40
0
40
0
40
0
40
0
40
0.499999999999993
40
0.499999999999993
40
0.749999999999996
40
0.749999999999996
40
1
40
1
40
1
40
1
41
1
10
31.0027992045351
20
-1.84187854844922
30
0
41
1
10
31.0608581311845
20
-1.9346196274839
30
0
41
1
10
31.1184558811484
20
-2.02992015398928
30
0
41
1
10
31.204044272279
20
-2.17586417807129
30
0
41
1
10
31.2324614924631
20
-2.22505313500554
30
0
41
1
10
31.2889731348512
20
-2.32423455199699
30
0
41
1
10
31.3170774789894
20
-2.37424324075366
30
0
41
1
10
31.3450526393062
20
-2.42465734323446
30
0
0
SPLINE
5
12D
100
AcDbEntity
8
1
62
256
6
ByLayer
370
18
48
1
60
0
100
AcDbSpline
70
4
71
3
72
8
73
4
40
0
40
0
40
0
40
0
40
1
40
1
40
1
40
1
41
1
10
31.4408785871187
20
-2.4848111505317
30
0
41
1
10
31.4089605943263
20
-2.46516102571098
30
0
41
1
10
31.3770169998824
20
-2.44510880118827
30
0
41
1
10
31.3450526393062
20
-2.42465734323446
30
0
0
SPLINE
5
12E
100
AcDbEntity
8
1
62
256
6
ByLayer
370
18
48
1
60
0
100
AcDbSpline
70
4
71
3
72
12
73
8
40
0
40
0
40
0
40
0
40
0.249999999999997
40
0.249999999999997
40
0.499999999999994
40
0.499999999999994
40
1
40
1
40
1
40
1
41
1
10
31.4408785871185
20
-2.4848111505232
30
0
41
1
10
31.4698126300532
20
-2.46881805622749
30
0
41
1
10
31.4988369616571
20
-2.45150919218051
30
0
41
1
10
31.5572531905154
20
-2.41376465441633
30
0
41
1
10
31.5866597208504
20
-2.39329299809185
30
0
41
1
10
31.6754031939519
20
-2.32755684207731
30
0
41
1
10
31.7350393519398
20
-2.27804477938551
30
0
41
1
10
31.7954443725467
20
-2.22262660004677
30
0
0
SPLINE
5
12F
100
AcDbEntity
8
1
62
256
6
ByLayer
370
18
48
1
60
0
100
AcDbSpline
70
4
71
3
72
26
73
22
40
0
40
0
40
0
40
0
40
0.12500000000001
40
0.12500000000001
40
0.250000000000019
40
0.250000000000019
40
0.375000000000029
40
0.375000000000029
40
0.500000000000039
40
0.500000000000039
40
0.625000000000049
40
0.625000000000049
40
0.750000000000059
40
0.750000000000059
40
0.812500000000044
40
0.812500000000044
40
0.875000000000029
40
0.875000000000029
40
0.937500000000015
40
0.937500000000015
40
1
40
1
40
1
40
1
41
1
10
31.7954443725467
20
-2.22262660004679
30
0
41
1
10
31.8028290159228
20
-2.21585160871567
30
0
41
1
10
31.8114169510404
20
-2.21089304788379
30
0
41
1
10
31.8303942813847
20
-2.20364287496275
30
0
41
1
10
31.8408971322695
20
-2.20138133542747
30
0
41
1
10
31.862722539152
20
-2.19938796839153
30
0
41
1
10
31.8741138425528
20
-2.19961387553093
30
0
41
1
10
31.897761581361
20
-2.20237784705216
30
0
41
1
10
31.9100975916024
20
-2.20495726492734
30
0
41
1
10
31.9347501951336
20
-2.21237066306554
30
0
41
1
10
31.947159489969
20
-2.21720007675879
30
0
41
1
10
31.9721045825543
20
-2.22940341865518
30
0
41
1
10
31.9847146988906
20
-2.23685011548176
30
0
41
1
10
32.0028346213102
20
-2.24989666582144
30
0
41
1
10
32.0087726611874
20
-2.25457323244137
30
0
41
1
10
32.0204089848577
20
-2.26468268827637
30
0
41
1
10
32.0261369355278
20
-2.27015211129336
30
0
41
1
10
32.0369798354347
20
-2.2816639862728
30
0
41
1
10
32.0421296191949
20
-2.28773004400651
30
0
41
1
10
32.0517978965208
20
-2.30058277959168
30
0
41
1
10
32.0563374108428
20
-2.30741254108841
30
0
41
1
10
32.0603761502865
20
-2.31449454117492
30
0
0
SPLINE
5
130
100
AcDbEntity
8
1
62
256
6
ByLayer
370
18
48
1
60
0
100
AcDbSpline
70
4
71
3
72
12
73
8
40
0
40
0
40
0
40
0
40
0.5
40
0.5
40
0.75
40
0.75
40
1
40
1
40
1
40
1
41
1
10
32.0603761502865
20
-2.31449454117467
30
0
41
1
10
32.1183496780758
20
-2.41615213373206
30
0
41
1
10
32.1758718868307
20
-2.51834877413953
30
0
41
1
10
32.2613932555784
20
-2.67164690672649
30
0
41
1
10
32.2897944070786
20
-2.72278599740582
30
0
41
1
10
32.3462981719287
20
-2.82488025933435
30
0
41
1
10
32.3744098877806
20
-2.87585153017605
30
0
41
1
10
32.4024041622591
20
-2.92673608018359
30
0
0
SPLINE
5
131
100
AcDbEntity
8
1
62
256
6
ByLayer
370
18
48
1
60
0
100
AcDbSpline
70
4
71
3
72
10
73
6
40
0
40
0
40
0
40
0
40
0.5
40
0.5
40
1
40
1
40
1
40
1
41
1
10
32.4987539495621
20
-2.9540881617385
30
0
41
1
10
32.5567121830176
20
-2.88274798645426
30
0
41
1
10
32.6151095975059
20
-2.80694870390775
30
0
41
1
10
32.7331953162648
20
-2.64638683140055
30
0
41
1
10
32.7926486172706
20
-2.56194253310613
30
0
41
1
10
32.8527893537
20
-2.4733203727412
30
0
0
SPLINE
5
132
100
AcDbEntity
8
1
62
256
6
ByLayer
370
18
48
1
60
0
100
AcDbSpline
70
4
71
3
72
26
73
22
40
0
40
0
40
0
40
0
40
0.12500000000001
40
0.12500000000001
40
0.25000000000002
40
0.25000000000002
40
0.37500000000003
40
0.37500000000003
40
0.50000000000004
40
0.50000000000004
40
0.62500000000005
40
0.62500000000005
40
0.75000000000006
40
0.75000000000006
40
0.812500000000045
40
0.812500000000045
40
0.87500000000003
40
0.87500000000003
40
0.937500000000015
40
0.937500000000015
40
1
40
1
40
1
40
1
41
1
10
32.8527893537
20
-2.4733203727412
30
0
41
1
10
32.8601910831002
20
-2.46241333553428
30
0
41
1
10
32.8687977930362
20
-2.45330144921749
30
0
41
1
10
32.8878063847166
20
-2.43771555345819
30
0
41
1
10
32.8983198119207
20
-2.4312392230544
30
0
41
1
10
32.9201531212994
20
-2.42108602862675
30
0
41
1
10
32.9315442096976
20
-2.41733211388467
30
0
41
1
10
32.9551844873605
20
-2.41230626065931
30
0
41
1
10
32.9675127878067
20
-2.41105565384598
30
0
41
1
10
32.9921537384651
20
-2.41123305626434
30
0
41
1
10
33.0045583994506
20
-2.41262377475599
30
0
41
1
10
33.0294953375164
20
-2.41832661654945
30
0
41
1
10
33.0421064497081
20
-2.42269889162742
30
0
41
1
10
33.0602347300495
20
-2.4316820309387
30
0
41
1
10
33.066176053168
20
-2.4350872345635
30
0
41
1
10
33.0778197775867
20
-2.44284243471904
30
0
41
1
10
33.0835538342109
20
-2.44722571677951
30
0
41
1
10
33.0944135760034
20
-2.45685227009491
30
0
41
1
10
33.0995721559665
20
-2.46210942278484
30
0
41
1
10
33.1092582764191
20
-2.47365571912013
30
0
41
1
10
33.1138082495281
20
-2.47998864530152
30
0
41
1
10
33.1178581701567
20
-2.48678082305926
30
0
0
SPLINE
5
133
100
AcDbEntity
8
1
62
256
6
ByLayer
370
18
48
1
60
0
100
AcDbSpline
70
4
71
3
72
12
73
8
40
0
40
0
40
0
40
0
40
0.499999999999992
40
0.499999999999992
40
0.749999999999996
40
0.749999999999996
40
1
40
1
40
1
40
1
41
1
10
33.1178581701567
20
-2.48678082305926
30
0
41
1
10
33.1759095845138
20
-2.58413965093655
30
0
41
1
10
33.233483304549
20
-2.67999063987935
30
0
41
1
10
33.3190667253004
20
-2.82089826356631
30
0
41
1
10
33.3474855065138
20
-2.86742219687565
30
0
41
1
10
33.4040264962635
20
-2.95936761624634
30
0
41
1
10
33.4321577458753
20
-3.00480430251807
30
0
41
1
10
33.4601736849692
20
-3.04970239485638
30
0
0
SPLINE
5
134
100
AcDbEntity
8
1
62
256
6
ByLayer
370
18
48
1
60
0
100
AcDbSpline
70
4
71
3
72
8
73
4
40
0
40
0
40
0
40
0
40
1
40
1
40
1
40
1
41
1
10
33.5561776551012
20
-3.04116467454338
30
0
41
1
10
33.5241348830059
20
-3.04455237817189
30
0
41
1
10
33.492133954806
20
-3.04739786157179
30
0
41
1
10
33.4601736849692
20
-3.04970239485641
30
0
0
SPLINE
5
135
100
AcDbEntity
8
1
62
256
6
ByLayer
370
18
48
1
60
0
100
AcDbSpline
70
4
71
3
72
10
73
6
40
0
40
0
40
0
40
0
40
0.5
40
0.5
40
1
40
1
40
1
40
1
41
1
10
33.5561776551012
20
-3.04116467454352
30
0
41
1
10
33.6140644309709
20
-2.94067801773613
30
0
41
1
10
33.6724366183522
20
-2.8374060778998
30
0
41
1
10
33.7905403615578
20
-2.62545086742099
30
0
41
1
10
33.8500308731484
20
-2.51720171573214
30
0
41
1
10
33.9101927969008
20
-2.40673963567284
30
0
0
SPLINE
5
136
100
AcDbEntity
8
1
62
256
6
ByLayer
370
18
48
1
60
0
100
AcDbSpline
70
4
71
3
72
28
73
24
40
0
40
0
40
0
40
0
40
0.125000000000016
40
0.125000000000016
40
0.250000000000031
40
0.250000000000031
40
0.375000000000047
40
0.375000000000047
40
0.500000000000063
40
0.500000000000063
40
0.625000000000079
40
0.625000000000079
40
0.687500000000066
40
0.687500000000066
40
0.750000000000052
40
0.750000000000052
40
0.812500000000039
40
0.812500000000039
40
0.875000000000026
40
0.875000000000026
40
0.937500000000013
40
0.937500000000013
40
1
40
1
40
1
40
1
41
1
10
33.9101927969005
20
-2.40673963567306
30
0
41
1
10
33.917595921142
20
-2.39314691038041
30
0
41
1
10
33.9262099068238
20
-2.38108053227054
30
0
41
1
10
33.9452449071246
20
-2.35920335041521
30
0
41
1
10
33.9557805509659
20
-2.34935460416966
30
0
41
1
10
33.9776619700576
20
-2.33236902244212
30
0
41
1
10
33.9890775421357
20
-2.32513094436769
30
0
41
1
10
34.0127624655275
20
-2.31299397189625
30
0
41
1
10
34.0251075279618
20
-2.30809593637255
30
0
41
1
10
34.0497630448298
20
-2.30105940363921
30
0
41
1
10
34.0621681506101
20
-2.29885478934085
30
0
41
1
10
34.080861769699
20
-2.29773414013582
30
0
41
1
10
34.0871354227812
20
-2.29773076906025
30
0
41
1
10
34.0995744727908
20
-2.29854720041081
30
0
41
1
10
34.1057026506923
20
-2.29936075898868
30
0
41
1
10
34.1177546932169
20
-2.30186483753147
30
0
41
1
10
34.1236787841312
20
-2.30355439362211
30
0
41
1
10
34.1352877001613
20
-2.30793724538972
30
0
41
1
10
34.1410013653162
20
-2.31065346212282
30
0
41
1
10
34.1518190927168
20
-2.31710413929292
30
0
41
1
10
34.156958080255
20
-2.32084431422734
30
0
41
1
10
34.1666089868761
20
-2.32952232856672
30
0
41
1
10
34.1711426162643
20
-2.33449643362869
30
0
41
1
10
34.1751794689052
20
-2.34006681262761
30
0
0
SPLINE
5
137
100
AcDbEntity
8
1
62
256
6
ByLayer
370
18
48
1
60
0
100
AcDbSpline
70
4
71
3
72
14
73
10
40
0
40
0
40
0
40
0
40
0.25
40
0.25
40
0.5
40
0.5
40
0.75
40
0.75
40
1
40
1
40
1
40
1
41
1
10
34.1751794689071
20
-2.34006681263062
30
0
41
1
10
34.204273590895
20
-2.38021325852432
30
0
41
1
10
34.2332292727836
20
-2.41945756762013
30
0
41
1
10
34.2909098736743
20
-2.49613249875807
30
0
41
1
10
34.3195925622876
20
-2.53347909227088
30
0
41
1
10
34.3766872881607
20
-2.60629706321703
30
0
41
1
10
34.4051243397431
20
-2.641828100596
30
0
41
1
10
34.4617002534831
20
-2.71101692584787
30
0
41
1
10
34.4898470543454
20
-2.74468127103353
30
0
41
1
10
34.5178746677114
20
-2.77741766468662
30
0
0
SPLINE
5
138
100
AcDbEntity
8
1
62
256
6
ByLayer
370
18
48
1
60
0
100
AcDbSpline
70
4
71
3
72
8
73
4
40
0
40
0
40
0
40
0
40
1
40
1
40
1
40
1
41
1
10
34.613718910061
20
-2.73391131994984
30
0
41
1
10
34.5817149653159
20
-2.74891063177361
30
0
41
1
10
34.5497693156194
20
-2.76341370429697
30
0
41
1
10
34.5178746677111
20
-2.77741766468716
30
0
0
SPLINE
5
139
100
AcDbEntity
8
1
62
256
6
ByLayer
370
18
48
1
60
0
100
AcDbSpline
70
4
71
3
72
10
73
6
40
0
40
0
40
0
40
0
40
0.5
40
0.5
40
1
40
1
40
1
40
1
41
1
10
34.613718910061
20
-2.73391131994998
30
0
41
1
10
34.6715127821925
20
-2.61729147505227
30
0
41
1
10
34.729828406378
20
-2.49995620237812
30
0
41
1
10
34.8479388983411
20
-2.26412731155051
30
0
41
1
10
34.9074796054547
20
-2.14615073118401
30
0
41
1
10
34.967747829747
20
-2.02823013546055
30
0
0
SPLINE
5
13A
100
AcDbEntity
8
1
62
256
6
ByLayer
370
18
48
1
60
0
100
AcDbSpline
70
4
71
3
72
14
73
10
40
0
40
0
40
0
40
0
40
0.326944993393711
40
0.326944993393711
40
0.653889986787421
40
0.653889986787421
40
0.980834980181138
40
0.980834980181138
40
1
40
1
40
1
40
1
41
1
10
34.967747829747
20
-2.02823013545958
30
0
41
1
10
34.975148033708
20
-2.0137509224117
30
0
41
1
10
34.9837594793022
20
-2.00033196925796
30
0
41
1
10
35.0027925960906
20
-1.97507122565747
30
0
41
1
10
35.013330718531
20
-1.96316082095686
30
0
41
1
10
35.035220789881
20
-1.94160422729536
30
0
41
1
10
35.046641384459
20
-1.93184674221743
30
0
41
1
10
35.0591846084779
20
-1.92251738060699
30
0
41
1
10
35.0598808848456
20
-1.92200397057113
30
0
41
1
10
35.0605787812994
20
-1.92149380573397
30
0
0
SPLINE
5
13B
100
AcDbEntity
8
1
62
256
6
ByLayer
370
18
48
1
60
0
100
AcDbSpline
70
4
71
3
72
8
73
4
40
0
40
0
40
0
40
0
40
1
40
1
40
1
40
1
41
1
10
38.7576336852333
20
1.61526205214616
30
0
41
1
10
38.8207011581901
20
1.65571416242398
30
0
41
1
10
38.883173115531
20
1.68990293800263
30
0
41
1
10
38.9450423909714
20
1.71810079746695
30
0
0
SPLINE
5
13C
100
AcDbEntity
8
1
62
256
6
ByLayer
370
18
48
1
60
0
100
AcDbSpline
70
4
71
3
72
13
73
9
40
0
40
0
40
0
40
0
40
0.49999999999999
40
0.49999999999999
40
0.624999999999993
40
0.624999999999993
40
0.749999999999995
40
1
40
1
40
1
40
1
41
1
10
38.9450423909716
20
1.71810079746703
30
0
41
1
10
39.0290020026143
20
1.63501700245507
30
0
41
1
10
39.1139498827283
20
1.5507079013062
30
0
41
1
10
39.221558446541
20
1.4439426221567
30
0
41
1
10
39.2431429048438
20
1.42252812937684
30
0
41
1
10
39.2862837911897
20
1.3797416113905
30
0
41
1
10
39.3510176407087
20
1.31556147444616
30
0
41
1
10
39.4158476349888
20
1.25141060237647
30
0
41
1
10
39.4591339412423
20
1.20868143362904
30
0
0
SPLINE
5
13D
100
AcDbEntity
8
1
62
256
6
ByLayer
370
18
48
1
60
0
100
AcDbSpline
70
4
71
3
72
8
73
4
40
0
40
0
40
0
40
0
40
1
40
1
40
1
40
1
41
1
10
39.459133941242
20
1.20868143362901
30
0
41
1
10
39.4892662842824
20
1.15583750833755
30
0
41
1
10
39.5195458215568
20
1.10379575731764
30
0
41
1
10
39.5499996176968
20
1.05256262319949
30
0
0
SPLINE
5
13E
100
AcDbEntity
8
1
62
256
6
ByLayer
370
18
48
1
60
0
100
AcDbSpline
70
4
71
3
72
27
73
23
40
0
40
0
40
0
40
0
40
0.124999999999927
40
0.124999999999927
40
0.249999999999854
40
0.249999999999854
40
0.37499999999978
40
0.37499999999978
40
0.499999999999707
40
0.499999999999707
40
0.624999999999717
40
0.624999999999717
40
0.687499999999764
40
0.687499999999764
40
0.749999999999811
40
0.812499999999858
40
0.812499999999858
40
0.874999999999906
40
0.874999999999906
40
0.937499999999953
40
0.937499999999953
40
1
40
1
40
1
40
1
41
1
10
39.5499996176967
20
1.05256262319949
30
0
41
1
10
39.5574315294007
20
1.04005974417137
30
0
41
1
10
39.5660840150812
20
1.02771852177156
30
0
41
1
10
39.5852042680596
20
1.00329377063258
30
0
41
1
10
39.595789935383
20
0.991115079924441
30
0
41
1
10
39.6177599280517
20
0.967877875280578
30
0
41
1
10
39.6292149812459
20
0.956715899195245
30
0
41
1
10
39.6529658534934
20
0.935206666243033
30
0
41
1
10
39.6653299493795
20
0.924820577914147
30
0
41
1
10
39.6899968389832
20
0.905570485134575
30
0
41
1
10
39.7023983706542
20
0.896608058077106
30
0
41
1
10
39.7210714674229
20
0.884222193492946
30
0
41
1
10
39.7273400785531
20
0.880252661005699
30
0
41
1
10
39.7397270610599
20
0.872809176424624
30
0
41
1
10
39.7519290195484
20
0.865877943498106
30
0
41
1
10
39.7637190998282
20
0.860038324786132
30
0
41
1
10
39.7752687199983
20
0.85481971701762
30
0
41
1
10
39.7809495183333
20
0.852514697533138
30
0
41
1
10
39.791704469514
20
0.848759274432638
30
0
41
1
10
39.7968144856352
20
0.847289323215534
30
0
41
1
10
39.806413827999
20
0.845298704851587
30
0
41
1
10
39.8109258030477
20
0.844780774408719
30
0
41
1
10
39.8149493597226
20
0.844855286197344
30
0
0
SPLINE
5
13F
100
AcDbEntity
8
1
62
256
6
ByLayer
370
18
48
1
60
0
100
AcDbSpline
70
4
71
3
72
8
73
4
40
0
40
0
40
0
40
0
40
1
40
1
40
1
40
1
41
1
10
39.8149493597226
20
0.84485528619777
30
0
41
1
10
39.8201486938698
20
0.844951572075729
30
0
41
1
10
39.8253434961977
20
0.84500034378226
30
0
41
1
10
39.8305340307514
20
0.84500282355981
30
0
0
SPLINE
5
140
100
AcDbEntity
8
1
62
256
6
ByLayer
370
18
48
1
60
0
100
AcDbSpline
70
4
71
3
72
14
73
10
40
0
40
0
40
0
40
0
40
0.25
40
0.25
40
0.5
40
0.5
40
0.75
40
0.75
40
1
40
1
40
1
40
1
41
1
10
39.8305340307514
20
0.845002823559781
30
0
41
1
10
39.871442048725
20
0.805358535589676
30
0
41
1
10
39.9124933617396
20
0.765836599629552
30
0
41
1
10
39.994761166697
20
0.686914604282123
30
0
41
1
10
40.0359805432915
20
0.647517362750648
30
0
41
1
10
40.118966707973
20
0.569235493551474
30
0
41
1
10
40.1606794920855
20
0.530295764262718
30
0
41
1
10
40.2447671393567
20
0.453047564162233
30
0
41
1
10
40.2871839607072
20
0.414782037095591
30
0
41
1
10
40.3299999661164
20
0.376902749190094
30
0
0
SPLINE
5
141
100
AcDbEntity
8
1
62
256
6
ByLayer
370
18
48
1
60
0
100
AcDbSpline
70
4
71
3
72
10
73
6
40
0
40
0
40
0
40
0
40
0.5
40
0.5
40
1
40
1
40
1
40
1
41
1
10
40.3299999661164
20
0.376902749190094
30
0
41
1
10
40.3775941336467
20
0.325847786231947
30
0
41
1
10
40.4261963513027
20
0.278366559881505
30
0
41
1
10
40.526265944351
20
0.191590651617219
30
0
41
1
10
40.5774828863009
20
0.152488105332964
30
0
41
1
10
40.63
20
0.11865062820732
30
0
0
SPLINE
5
142
100
AcDbEntity
8
1
62
256
6
ByLayer
370
18
48
1
60
0
100
AcDbSpline
70
4
71
3
72
22
73
18
40
0
40
0
40
0
40
0
40
0.0624999999999996
40
0.0624999999999996
40
0.124999999999999
40
0.124999999999999
40
0.249999999999999
40
0.249999999999999
40
0.499999999999998
40
0.499999999999998
40
0.624999999999998
40
0.624999999999998
40
0.687499999999998
40
0.687499999999998
40
0.749999999999998
40
0.749999999999998
40
1
40
1
40
1
40
1
41
1
10
40.63
20
0.118650628207291
30
0
41
1
10
40.63
20
0.119455705381142
30
0
41
1
10
40.6299999999999
20
0.120562605411663
30
0
41
1
10
40.6299999999999
20
0.123391224327577
30
0
41
1
10
40.6299999999999
20
0.125115038600683
30
0
41
1
10
40.6299999999999
20
0.131151523097742
30
0
41
1
10
40.6300000000001
20
0.136338180510222
30
0
41
1
10
40.6300000000001
20
0.155286961083078
30
0
41
1
10
40.63
20
0.172454339352726
30
0
41
1
10
40.63
20
0.204987103835606
30
0
41
1
10
40.63
20
0.216957389081273
30
0
41
1
10
40.63
20
0.236653430359667
30
0
41
1
10
40.63
20
0.243509667859371
30
0
41
1
10
40.6299999999999
20
0.257820397795854
30
0
41
1
10
40.6299999999999
20
0.265220984431039
30
0
41
1
10
40.6299999999999
20
0.302830202308996
30
0
41
1
10
40.63
20
0.334826464774238
30
0
41
1
10
40.63
20
0.368801952650131
30
0
0
SPLINE
5
143
100
AcDbEntity
8
1
62
256
6
ByLayer
370
18
48
1
60
0
100
AcDbSpline
70
4
71
3
72
18
73
14
40
0
40
0
40
0
40
0
40
0.5
40
0.5
40
0.625
40
0.625
40
0.75
40
0.75
40
0.8125
40
0.8125
40
0.875000000000001
40
0.875000000000001
40
1
40
1
40
1
40
1
41
1
10
40.63
20
1.32335821095066
30
0
41
1
10
40.63
20
1.44165695646942
30
0
41
1
10
40.6299999999999
20
1.5644181626287
30
0
41
1
10
40.6299999999999
20
1.72349450823521
30
0
41
1
10
40.6299999999999
20
1.75559226686013
30
0
41
1
10
40.6299999999999
20
1.82036212264384
30
0
41
1
10
40.6299999999999
20
1.85309963121344
30
0
41
1
10
40.63
20
1.90241194622251
30
0
41
1
10
40.63
20
1.91885847330883
30
0
41
1
10
40.63
20
1.95185844736923
30
0
41
1
10
40.6300000000001
20
1.96843336044981
30
0
41
1
10
40.6300000000001
20
2.01841724303563
30
0
41
1
10
40.6300000000001
20
2.05207294481897
30
0
41
1
10
40.6300000000001
20
2.08605854266614
30
0
0
SPLINE
5
144
100
AcDbEntity
8
1
62
256
6
ByLayer
370
18
48
1
60
0
100
AcDbSpline
70
4
71
3
72
12
73
8
40
0
40
0
40
0
40
0
40
0.499999999999973
40
0.499999999999973
40
0.749999999999986
40
0.749999999999986
40
1
40
1
40
1
40
1
41
1
10
40.6299999999999
20
2.08605854266619
30
0
41
1
10
40.5820910929299
20
2.13649460191888
30
0
41
1
10
40.533089994066
20
2.18681204877385
30
0
41
1
10
40.4580417964136
20
2.26263168452954
30
0
41
1
10
40.4327797925171
20
2.28794953925268
30
0
41
1
10
40.3817503279054
20
2.33878872822029
30
0
41
1
10
40.3560143503786
20
2.36427717785898
30
0
41
1
10
40.330000010006
20
2.38994586551871
30
0
0
SPLINE
5
145
100
AcDbEntity
8
1
62
256
6
ByLayer
370
18
48
1
60
0
100
AcDbSpline
70
4
71
3
72
16
73
12
40
0
40
0
40
0
40
0
40
0.125
40
0.125
40
0.25
40
0.25
40
0.5
40
0.5
40
0.75
40
0.75
40
1
40
1
40
1
40
1
41
1
10
40.3300000100055
20
2.38994586551866
30
0
41
1
10
40.301326154926
20
2.39924622303914
30
0
41
1
10
40.2726482558456
20
2.40827900226944
30
0
41
1
10
40.2154931277371
20
2.42573113137129
30
0
41
1
10
40.1870196841712
20
2.43414772454517
30
0
41
1
10
40.1018897756489
20
2.45846429161307
30
0
41
1
10
40.0455180116237
20
2.47343396271196
30
0
41
1
10
39.9334535287291
20
2.50084760540091
30
0
41
1
10
39.8777903157767
20
2.5132774305867
30
0
41
1
10
39.7671783345638
20
2.53547802563017
30
0
41
1
10
39.7122061690078
20
2.5452609699376
30
0
41
1
10
39.6574995484533
20
2.55370454954104
30
0
0
SPLINE
5
146
100
AcDbEntity
8
1
62
256
6
ByLayer
370
18
48
1
60
0
100
AcDbSpline
70
4
71
3
72
8
73
4
40
0
40
0
40
0
40
0
40
1
40
1
40
1
40
1
41
1
10
39.6574995484533
20
2.55370454954101
30
0
41
1
10
39.6321281106165
20
2.50732653674911
30
0
41
1
10
39.6066664236683
20
2.46042384333708
30
0
41
1
10
39.5811011984787
20
2.41300364606124
30
0
0
SPLINE
5
147
100
AcDbEntity
8
1
62
256
6
ByLayer
370
18
48
1
60
0
100
AcDbSpline
70
4
71
3
72
28
73
24
40
0
40
0
40
0
40
0
40
0.125
40
0.125
40
0.25
40
0.25
40
0.375
40
0.375
40
0.5
40
0.5
40
0.625
40
0.625
40
0.6875
40
0.6875
40
0.75
40
0.75
40
0.8125
40
0.8125
40
0.875
40
0.875
40
0.9375
40
0.9375
40
1
40
1
40
1
40
1
41
1
10
39.5811011984787
20
2.41300364606124
30
0
41
1
10
39.5739383857447
20
2.39971755175239
30
0
41
1
10
39.5656362666261
20
2.38780916504459
30
0
41
1
10
39.5472706802146
20
2.36609462079409
30
0
41
1
10
39.537113520375
20
2.35625562485049
30
0
41
1
10
39.5158868441624
20
2.33911737954486
30
0
41
1
10
39.5047552421743
20
2.33172717379554
30
0
41
1
10
39.4815231203551
20
2.31921598045764
30
0
41
1
10
39.4693082608292
20
2.31407357767773
30
0
41
1
10
39.444707947091
20
2.30657670781736
30
0
41
1
10
39.4322677880752
20
2.30416363140841
30
0
41
1
10
39.4134135709315
20
2.30281986901284
30
0
41
1
10
39.4070962355875
20
2.30275491190463
30
0
41
1
10
39.3943946377344
20
2.30350497052277
30
0
41
1
10
39.3880301538671
20
2.30432568414906
30
0
41
1
10
39.3755741147713
20
2.30692603193572
30
0
41
1
10
39.3694439865173
20
2.30870565412431
30
0
41
1
10
39.3574167814908
20
2.31337339264675
30
0
41
1
10
39.3514761785094
20
2.31629239408468
30
0
41
1
10
39.3402208726805
20
2.32327951044482
30
0
41
1
10
39.3348803490775
20
2.32734595015583
30
0
41
1
10
39.3248710161904
20
2.33681770225689
30
0
41
1
10
39.3201967983752
20
2.34225032636183
30
0
41
1
10
39.3160779805569
20
2.34830294983291
30
0
0
SPLINE
5
148
100
AcDbEntity
8
1
62
256
6
ByLayer
370
18
48
1
60
0
100
AcDbSpline
70
4
71
3
72
8
73
4
40
0
40
0
40
0
40
0
40
1
40
1
40
1
40
1
41
1
10
39.3160779805544
20
2.34830294983925
30
0
41
1
10
39.258553209344
20
2.43283589006677
30
0
41
1
10
39.2013714268353
20
2.51435704867453
30
0
41
1
10
39.1446113279566
20
2.59265215444933
30
0
0
SPLINE
5
149
100
AcDbEntity
8
1
62
256
6
ByLayer
370
18
48
1
60
0
100
AcDbSpline
70
4
71
3
72
12
73
8
40
0
40
0
40
0
40
0
40
0.25
40
0.25
40
0.5
40
0.5
40
1
40
1
40
1
40
1
41
1
10
39.1446113279567
20
2.59265215444938
30
0
41
1
10
39.1138667619675
20
2.59246644591144
30
0
41
1
10
39.0831557059127
20
2.5918098598616
30
0
41
1
10
39.0217825490396
20
2.58954120305037
30
0
41
1
10
38.9910954137488
20
2.58792633600106
30
0
41
1
10
38.8995414661413
20
2.58166247941605
30
0
41
1
10
38.8390445607483
20
2.57559361405538
30
0
41
1
10
38.7790102872613
20
2.56764383389398
30
0
0
SPLINE
5
14A
100
AcDbEntity
8
1
62
256
6
ByLayer
370
18
48
1
60
0
100
AcDbSpline
70
4
71
3
72
10
73
6
40
0
40
0
40
0
40
0
40
0.5
40
0.5
40
1
40
1
40
1
40
1
41
1
10
38.7790102872614
20
2.56764383389395
30
0
41
1
10
38.7369620453907
20
2.48121651826986
30
0
41
1
10
38.6945915391689
20
2.39404830872786
30
0
41
1
10
38.6094288455446
20
2.21910770876121
30
0
41
1
10
38.5666116410391
20
2.13129393244091
30
0
41
1
10
38.5234873215311
20
2.04316818808044
30
0
0
SPLINE
5
14B
100
AcDbEntity
8
1
62
256
6
ByLayer
370
18
48
1
60
0
100
AcDbSpline
70
4
71
3
72
14
73
10
40
0
40
0
40
0
40
0
40
0.289740411406197
40
0.289740411406197
40
0.579480822812395
40
0.579480822812395
40
0.869221234218592
40
0.869221234218592
40
1
40
1
40
1
40
1
41
1
10
38.5234873215311
20
2.04316818808041
30
0
41
1
10
38.5163297339955
20
2.02854145920463
30
0
41
1
10
38.5080318563262
20
2.01491900257767
30
0
41
1
10
38.4896711539528
20
1.98921836910227
30
0
41
1
10
38.4795138155738
20
1.97708205979779
30
0
41
1
10
38.4582831927472
20
1.95499569492176
30
0
41
1
10
38.4471485582944
20
1.94494240065359
30
0
41
1
10
38.4302842100442
20
1.93172490569242
30
0
41
1
10
38.4249174080896
20
1.92779668821296
30
0
41
1
10
38.4194759297184
20
1.92408668724224
30
0
0
SPLINE
5
14C
100
AcDbEntity
8
1
62
256
6
ByLayer
370
18
48
1
60
0
100
AcDbSpline
70
4
71
3
72
22
73
18
40
0
40
0
40
0
40
0
40
0.174192311764368
40
0.174192311764368
40
0.380644233823224
40
0.380644233823224
40
0.483870194852687
40
0.483870194852687
40
0.587096155882149
40
0.587096155882149
40
0.690322116911612
40
0.690322116911612
40
0.793548077941075
40
0.793548077941075
40
0.896774038970537
40
0.896774038970537
40
1
40
1
40
1
40
1
41
1
10
31.0268881808544
20
-2.41831236188941
30
0
41
1
10
31.0169300799091
20
-2.41543749726819
30
0
41
1
10
31.006606310414
20
-2.41342714477227
30
0
41
1
10
30.9839249825042
20
-2.41115907226015
30
0
41
1
10
30.9714867481781
20
-2.41124844149343
30
0
41
1
10
30.9526417494545
20
-2.41364182318262
30
0
41
1
10
30.9463285483966
20
-2.41481981001451
30
0
41
1
10
30.9336376440369
20
-2.41805114308724
30
0
41
1
10
30.9272889249777
20
-2.42010330376314
30
0
41
1
10
30.9148597751728
20
-2.42509618732959
30
0
41
1
10
30.9087431813737
20
-2.42804411993777
30
0
41
1
10
30.8967430199681
20
-2.43498554331976
30
0
41
1
10
30.8908170459285
20
-2.43901737098741
30
0
41
1
10
30.8795909758313
20
-2.44808982274833
30
0
41
1
10
30.8742636286431
20
-2.45313505205053
30
0
41
1
10
30.8642771481706
20
-2.4644154001461
30
0
41
1
10
30.859611859416
20
-2.47067921581467
30
0
41
1
10
30.8554984189639
20
-2.47744807904897
30
0
0
SPLINE
5
14D
100
AcDbEntity
8
1
62
256
6
ByLayer
370
18
48
1
60
0
100
AcDbSpline
70
4
71
3
72
12
73
8
40
0
40
0
40
0
40
0
40
0.500000000000001
40
0.500000000000001
40
0.75
40
0.75
40
1
40
1
40
1
40
1
41
1
10
30.8554984189615
20
-2.47744807905406
30
0
41
1
10
30.8058133192832
20
-2.55920728973226
30
0
41
1
10
30.7563866774505
20
-2.63971154997651
30
0
41
1
10
30.6827308488253
20
-2.75821125192869
30
0
41
1
10
30.6582473581465
20
-2.79735376797558
30
0
41
1
10
30.6094987826221
20
-2.87475208856767
30
0
41
1
10
30.5852255013484
20
-2.91302126184124
30
0
41
1
10
30.561039061432
20
-2.95086100603606
30
0
0
SPLINE
5
14E
100
AcDbEntity
8
1
62
256
6
ByLayer
370
18
48
1
60
0
100
AcDbSpline
70
4
71
3
72
8
73
4
40
0
40
0
40
0
40
0
40
1
40
1
40
1
40
1
41
1
10
29.7979266586088
20
-2.23963941368393
30
0
41
1
10
29.792725838009
20
-2.24666623940669
30
0
41
1
10
29.7875283157424
20
-2.2536626552621
30
0
41
1
10
29.7823339792628
20
-2.26062886449489
30
0
0
SPLINE
5
14F
100
AcDbEntity
8
1
62
256
6
ByLayer
370
18
48
1
60
0
100
AcDbSpline
70
4
71
3
72
24
73
20
40
0
40
0
40
0
40
0
40
0.165465921850697
40
0.165465921850697
40
0.332372737480557
40
0.332372737480557
40
0.499279553110418
40
0.499279553110418
40
0.582732960925348
40
0.582732960925348
40
0.666186368740278
40
0.666186368740278
40
0.749639776555209
40
0.749639776555209
40
0.833093184370139
40
0.833093184370139
40
0.91654659218507
40
0.91654659218507
40
1
40
1
40
1
40
1
41
1
10
36.4345572143513
20
2.42706352192528
30
0
41
1
10
36.4454168319089
20
2.42047116444206
30
0
41
1
10
36.4567435657996
20
2.41517929313363
30
0
41
1
10
36.480341961498
20
2.40699656661406
30
0
41
1
10
36.4926934048506
20
2.4041418209309
30
0
41
1
10
36.5173551637185
20
2.40120554358001
30
0
41
1
10
36.5297629335549
20
2.40107285149665
30
0
41
1
10
36.5484596455659
20
2.40310592871163
30
0
41
1
10
36.5547376290913
20
2.40416737371481
30
0
41
1
10
36.567159540091
20
2.40710257786654
30
0
41
1
10
36.5732786941854
20
2.40896590326443
30
0
41
1
10
36.5853117821645
20
2.41354942177682
30
0
41
1
10
36.5912259425347
20
2.41626868245569
30
0
41
1
10
36.6028140343591
20
2.4226881075478
30
0
41
1
10
36.6085135267733
20
2.42641467998249
30
0
41
1
10
36.6192994308403
20
2.43479553017585
30
0
41
1
10
36.62442283794
20
2.43946325984385
30
0
41
1
10
36.6340440941428
20
2.44990688137358
30
0
41
1
10
36.6385629384315
20
2.45572246639108
30
0
41
1
10
36.6425875960093
20
2.46205636496401
30
0
0
SPLINE
5
150
100
AcDbEntity
8
1
62
256
6
ByLayer
370
18
48
1
60
0
100
AcDbSpline
70
4
71
3
72
12
73
8
40
0
40
0
40
0
40
0
40
0.5
40
0.5
40
0.75
40
0.75
40
1
40
1
40
1
40
1
41
1
10
36.6425875960092
20
2.4620563649641
30
0
41
1
10
36.7007232259838
20
2.55354866626445
30
0
41
1
10
36.7583644487601
20
2.64265346437764
30
0
41
1
10
36.8439965635096
20
2.77211689483855
30
0
41
1
10
36.8724246119265
20
2.81460351547673
30
0
41
1
10
36.9289567874292
20
2.89801650084266
30
0
41
1
10
36.957070655621
20
2.93895820335072
30
0
41
1
10
36.9850574117701
20
2.97912527384349
30
0
0
SPLINE
5
151
100
AcDbEntity
8
1
62
256
6
ByLayer
370
18
48
1
60
0
100
AcDbSpline
70
4
71
3
72
8
73
4
40
0
40
0
40
0
40
0
40
1
40
1
40
1
40
1
41
1
10
37.0812899788733
20
2.954805205642
30
0
41
1
10
37.0493184611727
20
2.96347111957351
30
0
41
1
10
37.0172119208767
20
2.97156931154257
30
0
41
1
10
36.9850574117701
20
2.97912527384347
30
0
0
SPLINE
5
152
100
AcDbEntity
8
1
62
256
6
ByLayer
370
18
48
1
60
0
100
AcDbSpline
70
4
71
3
72
12
73
8
40
0
40
0
40
0
40
0
40
0.249999999999997
40
0.249999999999997
40
0.499999999999993
40
0.499999999999993
40
1
40
1
40
1
40
1
41
1
10
37.0812899788722
20
2.95480520562944
30
0
41
1
10
37.1101867159396
20
2.90018432719691
30
0
41
1
10
37.1391709193001
20
2.8451147326966
30
0
41
1
10
37.1974667736392
20
2.73399751529735
30
0
41
1
10
37.2267973483362
20
2.67792996781387
30
0
41
1
10
37.3153937746851
20
2.50830447306672
30
0
41
1
10
37.3749449018963
20
2.39386686579192
30
0
41
1
10
37.4352413142065
20
2.27817746728442
30
0
0
SPLINE
5
153
100
AcDbEntity
8
1
62
256
6
ByLayer
370
18
48
1
60
0
100
AcDbSpline
70
4
71
3
72
28
73
24
40
0
40
0
40
0
40
0
40
0.125000000000016
40
0.125000000000016
40
0.250000000000032
40
0.250000000000032
40
0.375000000000048
40
0.375000000000048
40
0.500000000000064
40
0.500000000000064
40
0.625000000000079
40
0.625000000000079
40
0.687500000000066
40
0.687500000000066
40
0.750000000000053
40
0.750000000000053
40
0.81250000000004
40
0.81250000000004
40
0.875000000000027
40
0.875000000000027
40
0.937500000000013
40
0.937500000000013
40
1
40
1
40
1
40
1
41
1
10
37.4352413142065
20
2.27817746728442
30
0
41
1
10
37.4426574063643
20
2.26394837457167
30
0
41
1
10
37.4512859905219
20
2.25107149031277
30
0
41
1
10
37.4703495439315
20
2.22731351516256
30
0
41
1
10
37.4809004580411
20
2.21638068886753
30
0
41
1
10
37.50280718497
20
2.19707855364737
30
0
41
1
10
37.5142332093503
20
2.18860093854548
30
0
41
1
10
37.5379362218388
20
2.1738256801338
30
0
41
1
10
37.5502861119146
20
2.16752134038191
30
0
41
1
10
37.5749444686521
20
2.15759674115577
30
0
41
1
10
37.5873493813328
20
2.15389976679549
30
0
41
1
10
37.6060395846874
20
2.15044988664099
30
0
41
1
10
37.612313743236
20
2.14965120075377
30
0
41
1
10
37.6247368662372
20
2.14885823317616
30
0
41
1
10
37.6308567127287
20
2.14886172288607
30
0
41
1
10
37.642891166673
20
2.14973206370982
30
0
41
1
10
37.648806000915
20
2.15059798209677
30
0
41
1
10
37.6603951936677
20
2.15331572544628
30
0
41
1
10
37.6660972336456
20
2.15518546012018
30
0
41
1
10
37.6768907641444
20
2.15996717043848
30
0
41
1
10
37.6820177469309
20
2.16288055469877
30
0
41
1
10
37.6916453815151
20
2.16992013607296
30
0
41
1
10
37.6961682509218
20
2.17407814782223
30
0
41
1
10
37.7001977948019
20
2.17886484872389
30
0
0
SPLINE
5
154
100
AcDbEntity
8
1
62
256
6
ByLayer
370
18
48
1
60
0
100
AcDbSpline
70
4
71
3
72
12
73
8
40
0
40
0
40
0
40
0
40
0.5
40
0.5
40
0.75
40
0.75
40
1
40
1
40
1
40
1
41
1
10
37.7001977948018
20
2.17886484872412
30
0
41
1
10
37.7582950916632
20
2.24787871023071
30
0
41
1
10
37.8159153759201
20
2.31286181526886
30
0
41
1
10
37.9015610253538
20
2.40401809520708
30
0
41
1
10
37.9299995406676
20
2.43336728187538
30
0
41
1
10
37.9865700394172
20
2.48986442604712
30
0
41
1
10
38.0147112220062
20
2.51702310709328
30
0
41
1
10
38.0427312983085
20
2.54309337324872
30
0
0
SPLINE
5
155
100
AcDbEntity
8
1
62
256
6
ByLayer
370
18
48
1
60
0
100
AcDbSpline
70
4
71
3
72
8
73
4
40
0
40
0
40
0
40
0
40
1
40
1
40
1
40
1
41
1
10
38.1387415617331
20
2.48639495320964
30
0
41
1
10
38.1067970672234
20
2.50572123498094
30
0
41
1
10
38.0747937398676
20
2.52462155499055
30
0
41
1
10
38.0427312983085
20
2.54309337324872
30
0
0
SPLINE
5
156
100
AcDbEntity
8
1
62
256
6
ByLayer
370
18
48
1
60
0
100
AcDbSpline
70
4
71
3
72
10
73
6
40
0
40
0
40
0
40
0
40
0.5
40
0.5
40
1
40
1
40
1
40
1
41
1
10
38.138741561733
20
2.48639495320987
30
0
41
1
10
38.1966359266618
20
2.36783917367393
30
0
41
1
10
38.2549850238172
20
2.24953341919979
30
0
41
1
10
38.3730067291618
20
2.0137163688365
30
0
41
1
10
38.4324602326082
20
1.8967037860196
30
0
41
1
10
38.4925452526093
20
1.78067401362139
30
0
0
SPLINE
5
157
100
AcDbEntity
8
1
62
256
6
ByLayer
370
18
48
1
60
0
100
AcDbSpline
70
4
71
3
72
27
73
23
40
0
40
0
40
0
40
0
40
0.125
40
0.125
40
0.25
40
0.25
40
0.375
40
0.375
40
0.5
40
0.5
40
0.625
40
0.625
40
0.6875
40
0.6875
40
0.75
40
0.8125
40
0.8125
40
0.875
40
0.875
40
0.9375
40
0.9375
40
1
40
1
40
1
40
1
41
1
10
38.4925452526093
20
1.78067401362139
30
0
41
1
10
38.4999814659146
20
1.76631399281561
30
0
41
1
10
38.5086313852984
20
1.75276836951846
30
0
41
1
10
38.5277216844943
20
1.72687874395189
30
0
41
1
10
38.5382758823112
20
1.71445835310206
30
0
41
1
10
38.5601736514864
20
1.69158447629553
30
0
41
1
10
38.571589480159
20
1.68101571680177
30
0
41
1
10
38.5952840003724
20
1.66149125353482
30
0
41
1
10
38.6076398334051
20
1.65250827351033
30
0
41
1
10
38.6323172663111
20
1.6368066141803
30
0
41
1
10
38.644733155006
20
1.62999585103509
30
0
41
1
10
38.6634275806175
20
1.62146586150371
30
0
41
1
10
38.6696982926981
20
1.61889686936061
30
0
41
1
10
38.6821308165318
20
1.61444082767514
30
0
41
1
10
38.694376786021
20
1.61068879497259
30
0
41
1
10
38.7062068730033
20
1.60844843032521
30
0
41
1
10
38.7177941698346
20
1.60706768543147
30
0
41
1
10
38.7234983802338
20
1.6068127026783
30
0
41
1
10
38.7343023969926
20
1.60732128480152
30
0
41
1
10
38.7394335673678
20
1.6080749605386
30
0
41
1
10
38.7490679647407
20
1.61074102903686
30
0
41
1
10
38.7535958501383
20
1.61267214418089
30
0
41
1
10
38.7576336852333
20
1.61526205214594
30
0
0
SPLINE
5
158
100
AcDbEntity
8
1
62
256
6
ByLayer
370
18
48
1
60
0
100
AcDbSpline
70
4
71
3
72
8
73
4
40
0
40
0
40
0
40
0
40
1
40
1
40
1
40
1
41
1
10
39.6686530810516
20
-0.755281253007723
30
0
41
1
10
39.6396690833332
20
-0.759851751172363
30
0
41
1
10
39.6107849564661
20
-0.762894627008194
30
0
41
1
10
39.5819803691492
20
-0.764482336425829
30
0
0
SPLINE
5
159
100
AcDbEntity
8
1
62
256
6
ByLayer
370
18
48
1
60
0
100
AcDbSpline
70
4
71
3
72
8
73
4
40
0
40
0
40
0
40
0
40
1
40
1
40
1
40
1
41
1
10
39.5819803691492
20
-0.7644823364258
30
0
41
1
10
39.4101324075517
20
-0.646810245260895
30
0
41
1
10
39.2406716158505
20
-0.517853068847643
30
0
41
1
10
39.071983300063
20
-0.378722170638554
30
0
0
SPLINE
5
15A
100
AcDbEntity
8
1
62
256
6
ByLayer
370
18
48
1
60
0
100
AcDbSpline
70
4
71
3
72
10
73
6
40
0
40
0
40
0
40
0
40
0.5
40
0.5
40
1
40
1
40
1
40
1
41
1
10
39.071983300063
20
-0.378722170638582
30
0
41
1
10
39.0395988580878
20
-0.328066992190827
30
0
41
1
10
39.007070197781
20
-0.27875206275084
30
0
41
1
10
38.9417611065115
20
-0.183062219401165
30
0
41
1
10
38.9089611202447
20
-0.136664326249928
30
0
41
1
10
38.8759786666097
20
-0.091750263644002
30
0
0
SPLINE
5
15B
100
AcDbEntity
8
1
62
256
6
ByLayer
370
18
48
1
60
0
100
AcDbSpline
70
4
71
3
72
28
73
24
40
0
40
0
40
0
40
0
40
0.125000000000016
40
0.125000000000016
40
0.250000000000031
40
0.250000000000031
40
0.375000000000047
40
0.375000000000047
40
0.500000000000063
40
0.500000000000063
40
0.625000000000079
40
0.625000000000079
40
0.687500000000066
40
0.687500000000066
40
0.750000000000052
40
0.750000000000052
40
0.812500000000039
40
0.812500000000039
40
0.875000000000026
40
0.875000000000026
40
0.937500000000013
40
0.937500000000013
40
1
40
1
40
1
40
1
41
1
10
38.8759786666097
20
-0.091750263644002
30
0
41
1
10
38.8688274935537
20
-0.0820121089905683
30
0
41
1
10
38.8605400502168
20
-0.0718958713637505
30
0
41
1
10
38.8422048761096
20
-0.0511143633488587
30
0
41
1
10
38.8320632820902
20
-0.0403680858754285
30
0
41
1
10
38.8108617439774
20
-0.0190769973192459
30
0
41
1
10
38.799740635813
20
-0.0084564214731699
30
0
41
1
10
38.7765227847166
20
0.0127693628440113
30
0
41
1
10
38.7643105560451
20
0.0234671281283454
30
0
41
1
10
38.7397071994391
20
0.0441791680733559
30
0
41
1
10
38.7272626139414
20
0.0542507787015722
30
0
41
1
10
38.7083976420442
20
0.0689285623488161
30
0
41
1
10
38.702076040753
20
0.0737489303351992
30
0
41
1
10
38.6893646627736
20
0.0832337548721682
30
0
41
1
10
38.6829929480365
20
0.0878831674701814
30
0
41
1
10
38.6705251216013
20
0.0967623110340412
30
0
41
1
10
38.6643897459189
20
0.101021851307308
30
0
41
1
10
38.6523538885755
20
0.109133671279551
30
0
41
1
10
38.646409675
20
0.113012611855709
30
0
41
1
10
38.6351508806225
20
0.120067580990963
30
0
41
1
10
38.6298104184915
20
0.12326357791224
30
0
41
1
10
38.6198045513331
20
0.128884177742179
30
0
41
1
10
38.6151337887805
20
0.131307539874029
30
0
41
1
10
38.6110191136751
20
0.133187195357266
30
0
0
SPLINE
5
15C
100
AcDbEntity
8
1
62
256
6
ByLayer
370
18
48
1
60
0
100
AcDbSpline
70
4
71
3
72
12
73
8
40
0
40
0
40
0
40
0
40
0.499999999999999
40
0.499999999999999
40
0.75
40
0.75
40
1
40
1
40
1
40
1
41
1
10
38.6110191136727
20
0.133187195352661
30
0
41
1
10
38.5536128825702
20
0.159411364768601
30
0
41
1
10
38.4965473808792
20
0.191495657473439
30
0
41
1
10
38.4116001669944
20
0.247759394787352
30
0
41
1
10
38.3834016320924
20
0.267859178988061
30
0
41
1
10
38.3272852833122
20
0.310585741751282
30
0
41
1
10
38.2993535994726
20
0.333222795153489
30
0
41
1
10
38.2715249733591
20
0.357092898750693
30
0
0
SPLINE
5
15D
100
AcDbEntity
8
1
62
256
6
ByLayer
370
18
48
1
60
0
100
AcDbSpline
70
4
71
3
72
10
73
6
40
0
40
0
40
0
40
0
40
0.5
40
0.5
40
1
40
1
40
1
40
1
41
1
10
38.175223772727
20
0.456914332907218
30
0
41
1
10
38.116730251288
20
0.524428539106935
30
0
41
1
10
38.0578275351666
20
0.586420756012416
30
0
41
1
10
37.9387891050376
20
0.69895195856796
30
0
41
1
10
37.8789013950518
20
0.749243254691947
30
0
41
1
10
37.8184351741381
20
0.793334301172592
30
0
0
SPLINE
5
15E
100
AcDbEntity
8
1
62
256
6
ByLayer
370
18
48
1
60
0
100
AcDbSpline
70
4
71
3
72
28
73
24
40
0
40
0
40
0
40
0
40
0.125000000000016
40
0.125000000000016
40
0.250000000000031
40
0.250000000000031
40
0.375000000000047
40
0.375000000000047
40
0.500000000000063
40
0.500000000000063
40
0.625000000000078
40
0.625000000000078
40
0.687500000000065
40
0.687500000000065
40
0.750000000000052
40
0.750000000000052
40
0.812500000000039
40
0.812500000000039
40
0.875000000000026
40
0.875000000000026
40
0.937500000000013
40
0.937500000000013
40
1
40
1
40
1
40
1
41
1
10
37.8184351741381
20
0.793334301172592
30
0
41
1
10
37.8112730007126
20
0.798556848846886
30
0
41
1
10
37.8029729058073
20
0.804684490710457
30
0
41
1
10
37.7846140589675
20
0.818291653279744
30
0
41
1
10
37.7744620137339
20
0.825842746893244
30
0
41
1
10
37.753245747756
20
0.841675656333308
30
0
41
1
10
37.7421194769854
20
0.850003536801921
30
0
41
1
10
37.7188972594407
20
0.86748583963174
30
0
41
1
10
37.7066862303394
20
0.876728366896657
30
0
41
1
10
37.6820878757237
20
0.895539793636374
30
0
41
1
10
37.6696476597052
20
0.905146335970358
30
0
41
1
10
37.6507916885238
20
0.919954967972899
30
0
41
1
10
37.6444734924943
20
0.924958351309527
30
0
41
1
10
37.6317696309825
20
0.935129646370001
30
0
41
1
10
37.6253991761417
20
0.940286371139621
30
0
41
1
10
37.6129334246043
20
0.950518867557008
30
0
41
1
10
37.6067986162828
20
0.955625928536222
30
0
41
1
10
37.5947626135153
20
0.965827315244951
30
0
41
1
10
37.5888171805215
20
0.970961400098162
30
0
41
1
10
37.5775512026283
20
0.980924971711488
30
0
41
1
10
37.5722062050479
20
0.985773397960287
30
0
41
1
10
37.5621897741173
20
0.995159819294742
30
0
41
1
10
37.5575122868391
20
0.999707262498674
30
0
41
1
10
37.5533913487549
20
1.00391461332825
30
0
0
SPLINE
5
15F
100
AcDbEntity
8
1
62
256
6
ByLayer
370
18
48
1
60
0
100
AcDbSpline
70
4
71
3
72
12
73
8
40
0
40
0
40
0
40
0
40
0.500000000000007
40
0.500000000000007
40
0.750000000000003
40
0.750000000000003
40
1
40
1
40
1
40
1
41
1
10
37.5533913487525
20
1.00391461332578
30
0
41
1
10
37.4959570209934
20
1.06255329258198
30
0
41
1
10
37.4388597145485
20
1.12599433981836
30
0
41
1
10
37.3538490304516
20
1.2275951322909
30
0
41
1
10
37.3256276149311
20
1.26252774667975
30
0
41
1
10
37.2694657938818
20
1.33436610093688
30
0
41
1
10
37.2415120252418
20
1.37128928588203
30
0
41
1
10
37.2136643382086
20
1.40919684054739
30
0
0
SPLINE
5
160
100
AcDbEntity
8
1
62
256
6
ByLayer
370
18
48
1
60
0
100
AcDbSpline
70
4
71
3
72
10
73
6
40
0
40
0
40
0
40
0
40
0.5
40
0.5
40
1
40
1
40
1
40
1
41
1
10
37.117717695505
20
1.49750620245661
30
0
41
1
10
37.0592343331144
20
1.5234544355547
30
0
41
1
10
37.0003151682388
20
1.54308186324948
30
0
41
1
10
36.8812347239795
20
1.56937904583413
30
0
41
1
10
36.8213318734627
20
1.57599396102847
30
0
41
1
10
36.7608742516927
20
1.57593392664651
30
0
0
SPLINE
5
161
100
AcDbEntity
8
1
62
256
6
ByLayer
370
18
48
1
60
0
100
AcDbSpline
70
4
71
3
72
28
73
24
40
0
40
0
40
0
40
0
40
0.125
40
0.125
40
0.25
40
0.25
40
0.375000000000001
40
0.375000000000001
40
0.500000000000001
40
0.500000000000001
40
0.625000000000001
40
0.625000000000001
40
0.687500000000001
40
0.687500000000001
40
0.750000000000001
40
0.750000000000001
40
0.8125
40
0.8125
40
0.875
40
0.875
40
0.9375
40
0.9375
40
1
40
1
40
1
40
1
41
1
10
36.7608742516926
20
1.57593392664651
30
0
41
1
10
36.7537080176076
20
1.5759268105804
30
0
41
1
10
36.7454018066169
20
1.5772329132075
30
0
41
1
10
36.7270291254019
20
1.58182220221133
30
0
41
1
10
36.7168689002954
20
1.58515886454145
30
0
41
1
10
36.6956382857778
20
1.59340120242976
30
0
41
1
10
36.6845057739864
20
1.59831619746134
30
0
41
1
10
36.6612744580188
20
1.609705562432
30
0
41
1
10
36.6490611267578
20
1.61625176378058
30
0
41
1
10
36.6244639888586
20
1.63063392263871
30
0
41
1
10
36.6120263718898
20
1.63848384183342
30
0
41
1
10
36.5931776542691
20
1.65143224786684
30
0
41
1
10
36.5868624353083
20
1.65594590578837
30
0
41
1
10
36.574165723352
20
1.66543608634021
30
0
41
1
10
36.5678018518
20
1.67040281027656
30
0
41
1
10
36.5553480955209
20
1.68060610647717
30
0
41
1
10
36.5492192901352
20
1.68587062854513
30
0
41
1
10
36.5371950904285
20
1.69678362542609
30
0
41
1
10
36.53125572976
20
1.70247902053353
30
0
41
1
10
36.5200009224221
20
1.71400409337195
30
0
41
1
10
36.5146607867407
20
1.71985033401808
30
0
41
1
10
36.5046523678373
20
1.73173905705622
30
0
41
1
10
36.4999776650816
20
1.73780050454033
30
0
41
1
10
36.4958581442473
20
1.74377526674652
30
0
0
SPLINE
5
162
100
AcDbEntity
8
1
62
256
6
ByLayer
370
18
48
1
60
0
100
AcDbSpline
70
4
71
3
72
10
73
6
40
0
40
0
40
0
40
0
40
0.5
40
0.5
40
1
40
1
40
1
40
1
41
1
10
36.4958581442449
20
1.74377526674641
30
0
41
1
10
36.4383987644503
20
1.827111689746
30
0
41
1
10
36.3812817801826
20
1.91373609385241
30
0
41
1
10
36.2678942300494
20
2.09240360044131
30
0
41
1
10
36.2117184634019
20
2.18429897268084
30
0
41
1
10
36.1559894155718
20
2.27842484821056
30
0
0
SPLINE
5
163
100
AcDbEntity
8
1
62
256
6
ByLayer
370
18
48
1
60
0
100
AcDbSpline
70
4
71
3
72
8
73
4
40
0
40
0
40
0
40
0
40
1
40
1
40
1
40
1
41
1
10
36.0601445467805
20
2.34404664126271
30
0
41
1
10
36.0921048280736
20
2.32258137347071
30
0
41
1
10
36.1240500402747
20
2.30070525722252
30
0
41
1
10
36.1559894155719
20
2.27842484821051
30
0
0
SPLINE
5
164
100
AcDbEntity
8
1
62
256
6
ByLayer
370
18
48
1
60
0
100
AcDbSpline
70
4
71
3
72
10
73
6
40
0
40
0
40
0
40
0
40
0.5
40
0.5
40
1
40
1
40
1
40
1
41
1
10
36.0601445467805
20
2.34404664126271
30
0
41
1
10
36.0016771480547
20
2.32504556434978
30
0
41
1
10
35.9428062354157
20
2.29993136361864
30
0
41
1
10
35.8237685024368
20
2.23700924850184
30
0
41
1
10
35.7638543211173
20
2.19932501484357
30
0
41
1
10
35.7032954533497
20
2.15524815742433
30
0
0
SPLINE
5
165
100
AcDbEntity
8
1
62
256
6
ByLayer
370
18
48
1
60
0
100
AcDbSpline
70
4
71
3
72
28
73
24
40
0
40
0
40
0
40
0
40
0.125000000000016
40
0.125000000000016
40
0.250000000000032
40
0.250000000000032
40
0.375000000000048
40
0.375000000000048
40
0.500000000000064
40
0.500000000000064
40
0.625000000000079
40
0.625000000000079
40
0.687500000000066
40
0.687500000000066
40
0.750000000000053
40
0.750000000000053
40
0.81250000000004
40
0.81250000000004
40
0.875000000000027
40
0.875000000000027
40
0.937500000000013
40
0.937500000000013
40
1
40
1
40
1
40
1
41
1
10
35.7032954533497
20
2.1552481574243
30
0
41
1
10
35.6961335969781
20
2.15003550841376
30
0
41
1
10
35.6878300758616
20
2.14636595538664
30
0
41
1
10
35.6694551983437
20
2.14136430964942
30
0
41
1
10
35.6592886625867
20
2.14006001205956
30
0
41
1
10
35.6380386024397
20
2.13965318001729
30
0
41
1
10
35.6268937404457
20
2.14052207245112
30
0
41
1
10
35.6036354302276
20
2.14435176040357
30
0
41
1
10
35.5914086986687
20
2.14735935615479
30
0
41
1
10
35.5667965068168
20
2.1554601201027
30
0
41
1
10
35.5543535241487
20
2.16054186129313
30
0
41
1
10
35.5355008896973
20
2.16995921377713
30
0
41
1
10
35.5291850520844
20
2.17340037038949
30
0
41
1
10
35.5164886295804
20
2.18098322933369
30
0
41
1
10
35.5101362194694
20
2.18511298332535
30
0
41
1
10
35.4977011584936
20
2.19395673997795
30
0
41
1
10
35.4915819690912
20
2.19869098888654
30
0
41
1
10
35.4795773414398
20
2.20888704215039
30
0
41
1
10
35.4736495418444
20
2.21439575626638
30
0
41
1
10
35.4624219850706
20
2.22595917877584
30
0
41
1
10
35.4570945948169
20
2.23202866660267
30
0
41
1
10
35.4471092810153
20
2.2448403107974
30
0
41
1
10
35.4424460362527
20
2.25160650349923
30
0
41
1
10
35.438335320045
20
2.2585486524402
30
0
0
SPLINE
5
166
100
AcDbEntity
8
1
62
256
6
ByLayer
370
18
48
1
60
0
100
AcDbSpline
70
4
71
3
72
12
73
8
40
0
40
0
40
0
40
0
40
0.499999999999992
40
0.499999999999992
40
0.749999999999996
40
0.749999999999996
40
1
40
1
40
1
40
1
41
1
10
35.4383353200425
20
2.25854865244256
30
0
41
1
10
35.380885516152
20
2.35556948168926
30
0
41
1
10
35.3237871103719
20
2.45395761206063
30
0
41
1
10
35.2387789626262
20
2.60276021417744
30
0
41
1
10
35.210558750974
20
2.65254844713186
30
0
41
1
10
35.1543947448513
20
2.75231288118687
30
0
41
1
10
35.1264377645199
20
2.80231254824622
30
0
41
1
10
35.0985834943476
20
2.85241603721928
30
0
0
SPLINE
5
167
100
AcDbEntity
8
1
62
256
6
ByLayer
370
18
48
1
60
0
100
AcDbSpline
70
4
71
3
72
10
73
6
40
0
40
0
40
0
40
0
40
0.5
40
0.5
40
1
40
1
40
1
40
1
41
1
10
35.0023494894677
20
2.88707516709903
30
0
41
1
10
34.9438401936924
20
2.82548144275864
30
0
41
1
10
34.8849450160571
20
2.75869933462746
30
0
41
1
10
34.7659627665616
20
2.61455114876955
30
0
41
1
10
34.706123789278
20
2.53749386204876
30
0
41
1
10
34.6456709155889
20
2.45535159966551
30
0
0
SPLINE
5
168
100
AcDbEntity
8
1
62
256
6
ByLayer
370
18
48
1
60
0
100
AcDbSpline
70
4
71
3
72
28
73
24
40
0
40
0
40
0
40
0
40
0.125
40
0.125
40
0.250000000000001
40
0.250000000000001
40
0.375000000000001
40
0.375000000000001
40
0.500000000000001
40
0.500000000000001
40
0.625000000000001
40
0.625000000000001
40
0.687500000000001
40
0.687500000000001
40
0.750000000000001
40
0.750000000000001
40
0.812500000000001
40
0.812500000000001
40
0.875
40
0.875
40
0.9375
40
0.9375
40
1
40
1
40
1
40
1
41
1
10
34.6456709155889
20
2.45535159966551
30
0
41
1
10
34.6385154956765
20
2.44562894557092
30
0
41
1
10
34.6302222533444
20
2.43748389857211
30
0
41
1
10
34.6118750257398
20
2.42358986129705
30
0
41
1
10
34.6017270257161
20
2.41783970288586
30
0
41
1
10
34.580515337883
20
2.40887898340071
30
0
41
1
10
34.5693901956384
20
2.4056061478496
30
0
41
1
10
34.5461673189722
20
2.40140011611553
30
0
41
1
10
34.533954617068
20
2.40048241571481
30
0
41
1
10
34.5093544563794
20
2.40125140899724
30
0
41
1
10
34.4969128548805
20
2.40290139506777
30
0
41
1
10
34.4780545743172
20
2.40755681519593
30
0
41
1
10
34.4717355738393
20
2.40947555240319
30
0
41
1
10
34.4590301707375
20
2.4141603189035
30
0
41
1
10
34.4526632340529
20
2.41692570854693
30
0
41
1
10
34.4402037618766
20
2.42327694398608
30
0
41
1
10
34.4340723917779
20
2.42687493706705
30
0
41
1
10
34.4220440039448
20
2.43505010906401
30
0
41
1
10
34.4161033410883
20
2.4396703091935
30
0
41
1
10
34.4048497628626
20
2.44980855325386
30
0
41
1
10
34.3995111185045
20
2.45533298332498
30
0
41
1
10
34.3895072083897
20
2.46744465366223
30
0
41
1
10
34.3848360308739
20
2.47406019677749
30
0
41
1
10
34.3807200134171
20
2.48109020779552
30
0
0
SPLINE
5
169
100
AcDbEntity
8
1
62
256
6
ByLayer
370
18
48
1
60
0
100
AcDbSpline
70
4
71
3
72
12
73
8
40
0
40
0
40
0
40
0
40
0.500000000000001
40
0.500000000000001
40
0.75
40
0.75
40
1
40
1
40
1
40
1
41
1
10
34.3807200134148
20
2.48109020779984
30
0
41
1
10
34.3232463561218
20
2.57925316466265
30
0
41
1
10
34.2661142239841
20
2.67665579639564
30
0
41
1
10
34.1810821800965
20
2.82091748167343
30
0
41
1
10
34.152858234333
20
2.8686812860756
30
0
41
1
10
34.0966957254017
20
2.963408137795
30
0
41
1
10
34.0687433065682
20
3.01039455874826
30
0
41
1
10
34.0408957903515
20
3.05700490455885
30
0
0
SPLINE
5
16A
100
AcDbEntity
8
1
62
256
6
ByLayer
370
18
48
1
60
0
100
AcDbSpline
70
4
71
3
72
8
73
4
40
0
40
0
40
0
40
0
40
1
40
1
40
1
40
1
41
1
10
33.9449913284333
20
3.05596320637841
30
0
41
1
10
33.9769712088477
20
3.05685906618359
30
0
41
1
10
34.0089365910454
20
3.05720597370646
30
0
41
1
10
34.0408957903516
20
3.0570049045588
30
0
0
SPLINE
5
16B
100
AcDbEntity
8
1
62
256
6
ByLayer
370
18
48
1
60
0
100
AcDbSpline
70
4
71
3
72
10
73
6
40
0
40
0
40
0
40
0
40
0.5
40
0.5
40
1
40
1
40
1
40
1
41
1
10
33.9449913284333
20
3.05596320637838
30
0
41
1
10
33.8864890270929
20
2.95985312390701
30
0
41
1
10
33.8275753365841
20
2.86013572505914
30
0
41
1
10
33.7085196543688
20
2.65352826786653
30
0
41
1
10
33.6486271360818
20
2.547071703569
30
0
41
1
10
33.5881429497755
20
2.43745779733411
30
0
0
SPLINE
5
16C
100
AcDbEntity
8
1
62
256
6
ByLayer
370
18
48
1
60
0
100
AcDbSpline
70
4
71
3
72
28
73
24
40
0
40
0
40
0
40
0
40
0.125
40
0.125
40
0.25
40
0.25
40
0.375000000000001
40
0.375000000000001
40
0.500000000000001
40
0.500000000000001
40
0.625000000000001
40
0.625000000000001
40
0.687500000000001
40
0.687500000000001
40
0.750000000000001
40
0.750000000000001
40
0.8125
40
0.8125
40
0.875
40
0.875
40
0.9375
40
0.9375
40
1
40
1
40
1
40
1
41
1
10
33.5881429497755
20
2.43745779733411
30
0
41
1
10
33.5809704913443
20
2.42445933882834
30
0
41
1
10
33.5726570762964
20
2.41287951740665
30
0
41
1
10
33.5542695741369
20
2.39187906620566
30
0
41
1
10
33.5441014060625
20
2.38242908767091
30
0
41
1
10
33.5228573378326
20
2.36609358199169
30
0
41
1
10
33.5117190475949
20
2.3591193622041
30
0
41
1
10
33.4884782579467
20
2.34746659941726
30
0
41
1
10
33.4762618889747
20
2.34277090512765
30
0
41
1
10
33.4516625779297
20
2.33616523042727
30
0
41
1
10
33.4392246591914
20
2.33419879350697
30
0
41
1
10
33.4203767535831
20
2.33352817224537
30
0
41
1
10
33.4140620203545
20
2.33368813567427
30
0
41
1
10
33.4013668069595
20
2.33488946139744
30
0
41
1
10
33.3950066833925
20
2.33593569741066
30
0
41
1
10
33.3825589414485
20
2.33897692790191
30
0
41
1
10
33.3764330504267
20
2.34097328303449
30
0
41
1
10
33.3644145760298
20
2.34606613733843
30
0
41
1
10
33.3584783598722
20
2.34919506047436
30
0
41
1
10
33.3472300717603
20
2.35658131963481
30
0
41
1
10
33.3418928255713
20
2.36083756239043
30
0
41
1
10
33.3318894900555
20
2.37066582553624
30
0
41
1
10
33.3272167364482
20
2.37626659715272
30
0
41
1
10
33.3230983552245
20
2.38246952125579
30
0
0
SPLINE
5
16D
100
AcDbEntity
8
1
62
256
6
ByLayer
370
18
48
1
60
0
100
AcDbSpline
70
4
71
3
72
12
73
8
40
0
40
0
40
0
40
0
40
0.499999999999999
40
0.499999999999999
40
0.75
40
0.75
40
1
40
1
40
1
40
1
41
1
10
33.3230983552221
20
2.38246952126153
30
0
41
1
10
33.2656791216341
20
2.46895183766023
30
0
41
1
10
33.2086009302326
20
2.55267040597866
30
0
41
1
10
33.1236219521501
20
2.6736542471694
30
0
41
1
10
33.0954113963648
20
2.71320125706885
30
0
41
1
10
33.0392699106961
20
2.79061649261865
30
0
41
1
10
33.0113255655109
20
2.82850362306149
30
0
41
1
10
32.9834861855534
20
2.8655729389518
30
0
0
SPLINE
5
16E
100
AcDbEntity
8
1
62
256
6
ByLayer
370
18
48
1
60
0
100
AcDbSpline
70
4
71
3
72
8
73
4
40
0
40
0
40
0
40
0
40
1
40
1
40
1
40
1
41
1
10
32.8873277282083
20
2.82897266935541
30
0
41
1
10
32.9193928499358
20
2.84169043547948
30
0
41
1
10
32.9514420334112
20
2.85389145797532
30
0
41
1
10
32.9834861855534
20
2.86557293895171
30
0
0
SPLINE
5
16F
100
AcDbEntity
8
1
62
256
6
ByLayer
370
18
48
1
60
0
100
AcDbSpline
70
4
71
3
72
10
73
6
40
0
40
0
40
0
40
0
40
0.5
40
0.5
40
1
40
1
40
1
40
1
41
1
10
32.8873277282083
20
2.82897266935538
30
0
41
1
10
32.8288853999034
20
2.71094497380068
30
0
41
1
10
32.7700087703209
20
2.59133527439576
30
0
41
1
10
32.6509845626278
20
2.34916153372163
30
0
41
1
10
32.5910935184955
20
2.22711987627093
30
0
41
1
10
32.5306017555203
20
2.10420775819017
30
0
0
SPLINE
5
170
100
AcDbEntity
8
1
62
256
6
ByLayer
370
18
48
1
60
0
100
AcDbSpline
70
4
71
3
72
18
73
14
40
0
40
0
40
0
40
0
40
0.195160137551336
40
0.195160137551336
40
0.390320275102672
40
0.390320275102672
40
0.585480412654008
40
0.585480412654008
40
0.780640550205344
40
0.780640550205344
40
0.97580068775668
40
0.97580068775668
40
1
40
1
40
1
40
1
41
1
10
32.5306017555201
20
2.10420775818997
30
0
41
1
10
32.5234272925406
20
2.08963009674417
30
0
41
1
10
32.5151097026823
20
2.07611721937576
30
0
41
1
10
32.496710496808
20
2.05072215064683
30
0
41
1
10
32.4865341622746
20
2.03878501344866
30
0
41
1
10
32.4652740636371
20
2.01716289253207
30
0
41
1
10
32.4541278975197
20
2.00737449365064
30
0
41
1
10
32.4308729990773
20
1.9897511720452
30
0
41
1
10
32.4186513131445
20
1.98186924589174
30
0
41
1
10
32.3940487188236
20
1.9687166640301
30
0
41
1
10
32.3816107848066
20
1.96337570527524
30
0
41
1
10
32.3674895771323
20
1.9589350311733
30
0
41
1
10
32.3659298078351
20
1.95846672387498
30
0
41
1
10
32.3643680824138
20
1.95802076507775
30
0
0
SPLINE
5
171
100
AcDbEntity
8
1
62
256
6
ByLayer
370
18
48
1
60
0
100
AcDbSpline
70
4
71
3
72
24
73
20
40
0
40
0
40
0
40
0
40
0.071205923818642
40
0.071205923818642
40
0.226004936515535
40
0.226004936515535
40
0.380803949212429
40
0.380803949212429
40
0.535602961909322
40
0.535602961909322
40
0.690401974606215
40
0.690401974606215
40
0.767801480954662
40
0.767801480954662
40
0.845200987303108
40
0.845200987303108
40
0.922600493651554
40
0.922600493651554
40
1
40
1
40
1
40
1
41
1
10
30.4270591483205
20
2.42693937976963
30
0
41
1
10
30.4318411301444
20
2.42308799471883
30
0
41
1
10
30.4367687264513
20
2.41951168401184
30
0
41
1
10
30.4526851581275
20
2.40909308636489
30
0
41
1
10
30.4640669703738
20
2.40325460560018
30
0
41
1
10
30.4876995270996
20
2.39401273097846
30
0
41
1
10
30.5000314320944
20
2.39061763762825
30
0
41
1
10
30.5246821623553
20
2.3866027626562
30
0
41
1
10
30.5370926818765
20
2.38592815239255
30
0
41
1
10
30.5620455712576
20
2.38755617890152
30
0
41
1
10
30.5746672020302
20
2.38990755667916
30
0
41
1
10
30.592808026366
20
2.39603893088815
30
0
41
1
10
30.5987533375855
20
2.39851860760032
30
0
41
1
10
30.610404787707
20
2.40447937869868
30
0
41
1
10
30.6161409764541
20
2.40798836177657
30
0
41
1
10
30.6269996792907
20
2.41597660666011
30
0
41
1
10
30.6321569790188
20
2.42046579756726
30
0
41
1
10
30.6418391039223
20
2.43059489609848
30
0
41
1
10
30.6463844527848
20
2.43627393949669
30
0
41
1
10
30.6504268280676
20
2.44249563094982
30
0
0
SPLINE
5
172
100
AcDbEntity
8
1
62
256
6
ByLayer
370
18
48
1
60
0
100
AcDbSpline
70
4
71
3
72
12
73
8
40
0
40
0
40
0
40
0
40
0.5
40
0.5
40
0.75
40
0.75
40
1
40
1
40
1
40
1
41
1
10
30.6504268280676
20
2.44249563094996
30
0
41
1
10
30.7083859181601
20
2.53170149389626
30
0
41
1
10
30.7659010527169
20
2.61839037532764
30
0
41
1
10
30.8514145885456
20
2.74410603413921
30
0
41
1
10
30.879813493529
20
2.78532003457852
30
0
41
1
10
30.9363113324683
20
2.86616808432879
30
0
41
1
10
30.9644193823727
20
2.90581602513134
30
0
41
1
10
30.9924091960683
20
2.94468731466793
30
0
0
SPLINE
5
173
100
AcDbEntity
8
1
62
256
6
ByLayer
370
18
48
1
60
0
100
AcDbSpline
70
4
71
3
72
8
73
4
40
0
40
0
40
0
40
0
40
1
40
1
40
1
40
1
41
1
10
31.0885707009576
20
2.91626248930785
30
0
41
1
10
31.0565207875226
20
2.92626705487325
30
0
41
1
10
31.0244675422543
20
2.93574138419137
30
0
41
1
10
30.9924091960683
20
2.94468731466799
30
0
0
SPLINE
5
174
100
AcDbEntity
8
1
62
256
6
ByLayer
370
18
48
1
60
0
100
AcDbSpline
70
4
71
3
72
10
73
6
40
0
40
0
40
0
40
0
40
0.5
40
0.5
40
1
40
1
40
1
40
1
41
1
10
31.0885707009576
20
2.91626248930797
30
0
41
1
10
31.1465380979278
20
2.80457377619641
30
0
41
1
10
31.2049578388648
20
2.69121335956396
30
0
41
1
10
31.3231245864548
20
2.4613426434658
30
0
41
1
10
31.3826359252778
20
2.34529932841733
30
0
41
1
10
31.4428156236841
20
2.22823714104749
30
0
0
SPLINE
5
175
100
AcDbEntity
8
1
62
256
6
ByLayer
370
18
48
1
60
0
100
AcDbSpline
70
4
71
3
72
26
73
22
40
0
40
0
40
0
40
0
40
0.12499999999999
40
0.12499999999999
40
0.24999999999998
40
0.24999999999998
40
0.374999999999971
40
0.374999999999971
40
0.499999999999961
40
0.499999999999961
40
0.624999999999951
40
0.624999999999951
40
0.749999999999941
40
0.749999999999941
40
0.812499999999956
40
0.812499999999956
40
0.874999999999971
40
0.874999999999971
40
0.937499999999985
40
0.937499999999985
40
1
40
1
40
1
40
1
41
1
10
31.4428156236841
20
2.22823714104749
30
0
41
1
10
31.4502104237498
20
2.21385269755936
30
0
41
1
10
31.4588058399141
20
2.20074945471723
30
0
41
1
10
31.4777806144272
20
2.17643525571427
30
0
41
1
10
31.4882704930516
20
2.16517136930074
30
0
41
1
10
31.5100628695795
20
2.14512186043203
30
0
41
1
10
31.5214365877413
20
2.13622643886288
30
0
41
1
10
31.5450704269588
20
2.12055149896582
30
0
41
1
10
31.5574123955271
20
2.11375649347721
30
0
41
1
10
31.5820868375092
20
2.10282795159307
30
0
41
1
10
31.5945085550106
20
2.09861585168139
30
0
41
1
10
31.6194659554668
20
2.09294490159525
30
0
41
1
10
31.6320906209201
20
2.09150741889124
30
0
41
1
10
31.6502363092946
20
2.09198928396458
30
0
41
1
10
31.6561821868245
20
2.09258256732593
30
0
41
1
10
31.6678330350506
20
2.09476004396029
30
0
41
1
10
31.6735718886327
20
2.09636194466546
30
0
41
1
10
31.6844429489764
20
2.10063795386762
30
0
41
1
10
31.68960579693
20
2.10330978955119
30
0
41
1
10
31.6992979395334
20
2.10989422468819
30
0
41
1
10
31.7038505402658
20
2.11383848495973
30
0
41
1
10
31.7079025357016
20
2.1184342897123
30
0
0
SPLINE
5
176
100
AcDbEntity
8
1
62
256
6
ByLayer
370
18
48
1
60
0
100
AcDbSpline
70
4
71
3
72
12
73
8
40
0
40
0
40
0
40
0
40
0.499999999999993
40
0.499999999999993
40
0.749999999999996
40
0.749999999999996
40
1
40
1
40
1
40
1
41
1
10
31.7079025357031
20
2.11843428971434
30
0
41
1
10
31.7659011355844
20
2.18421675300178
30
0
41
1
10
31.823442616258
20
2.2458340038157
30
0
41
1
10
31.9090022555465
20
2.33182861731956
30
0
41
1
10
31.9374170563291
20
2.35943684855286
30
0
41
1
10
31.9939545515742
20
2.41243751976268
30
0
41
1
10
32.0220861552597
20
2.4378393249749
30
0
41
1
10
32.0501033576021
20
2.46215443610547
30
0
0
SPLINE
5
177
100
AcDbEntity
8
1
62
256
6
ByLayer
370
18
48
1
60
0
100
AcDbSpline
70
4
71
3
72
10
73
6
40
0
40
0
40
0
40
0
40
0.5
40
0.5
40
1
40
1
40
1
40
1
41
1
10
32.146238879462
20
2.40160502520311
30
0
41
1
10
32.2041341643691
20
2.28227305710644
30
0
41
1
10
32.2625122587161
20
2.16344196140943
30
0
41
1
10
32.3806116891979
20
1.92706950981451
30
0
41
1
10
32.4400904542393
20
1.81003548354039
30
0
41
1
10
32.5002623261651
20
1.69429922572314
30
0
0
SPLINE
5
178
100
AcDbEntity
8
1
62
256
6
ByLayer
370
18
48
1
60
0
100
AcDbSpline
70
4
71
3
72
27
73
23
40
0
40
0
40
0
40
0
40
0.124999999999999
40
0.124999999999999
40
0.249999999999999
40
0.249999999999999
40
0.374999999999998
40
0.374999999999998
40
0.499999999999998
40
0.499999999999998
40
0.624999999999997
40
0.624999999999997
40
0.687499999999998
40
0.687499999999998
40
0.749999999999998
40
0.812499999999999
40
0.812499999999999
40
0.874999999999999
40
0.874999999999999
40
0.9375
40
0.9375
40
1
40
1
40
1
40
1
41
1
10
32.5002623261651
20
1.69429922572314
30
0
41
1
10
32.5076535941718
20
1.68008265455376
30
0
41
1
10
32.5162528596466
20
1.66659604583643
30
0
41
1
10
32.5352588849756
20
1.64071757880527
30
0
41
1
10
32.5457796983929
20
1.62824601865978
30
0
41
1
10
32.5676382317323
20
1.60517339337602
30
0
41
1
10
32.5790452994976
20
1.59446039629094
30
0
41
1
10
32.6027201456388
20
1.57454983815563
30
0
41
1
10
32.6150643054903
20
1.56532000977339
30
0
41
1
10
32.6397224045592
20
1.54904597499896
30
0
41
1
10
32.6521310834775
20
1.54190823616085
30
0
41
1
10
32.6708334624505
20
1.53283612329523
30
0
41
1
10
32.6771106465702
20
1.53007653144348
30
0
41
1
10
32.689558045361
20
1.52522661893406
30
0
41
1
10
32.7018226102877
20
1.52107044031607
30
0
41
1
10
32.7136794462469
20
1.51840242013333
30
0
41
1
10
32.7252971630261
20
1.51658417657148
30
0
41
1
10
32.7310147757826
20
1.51610441293272
30
0
41
1
10
32.741838703763
20
1.51616387401035
30
0
41
1
10
32.7469805363046
20
1.51669201363106
30
0
41
1
10
32.7566365184898
20
1.51890860807771
30
0
41
1
10
32.7611716657805
20
1.52061431149303
30
0
41
1
10
32.7652084096685
20
1.52298043235964
30
0
0
SPLINE
5
179
100
AcDbEntity
8
1
62
256
6
ByLayer
370
18
48
1
60
0
100
AcDbSpline
70
4
71
3
72
12
73
8
40
0
40
0
40
0
40
0
40
0.500000000000007
40
0.500000000000007
40
0.750000000000004
40
0.750000000000004
40
1
40
1
40
1
40
1
41
1
10
32.7652084096685
20
1.52298043236024
30
0
41
1
10
32.8233286270018
20
1.55704735927495
30
0
41
1
10
32.8809356088997
20
1.5854505736805
30
0
41
1
10
32.966514271419
20
1.61992060719203
30
0
41
1
10
32.9949276280068
20
1.63008923638131
30
0
41
1
10
33.0514595745242
20
1.64787940426842
30
0
41
1
10
33.0795857925085
20
1.65549452366653
30
0
41
1
10
33.1075954790444
20
1.66184427950901
30
0
0
SPLINE
5
17A
100
AcDbEntity
8
1
62
256
6
ByLayer
370
18
48
1
60
0
100
AcDbSpline
70
4
71
3
72
8
73
4
40
0
40
0
40
0
40
0
40
1
40
1
40
1
40
1
41
1
10
33.2037606482677
20
1.57628781613275
30
0
41
1
10
33.1716693403311
20
1.60508906250774
30
0
41
1
10
33.1396170143241
20
1.63361031496314
30
0
41
1
10
33.1075954790444
20
1.66184427950904
30
0
0
SPLINE
5
17B
100
AcDbEntity
8
1
62
256
6
ByLayer
370
18
48
1
60
0
100
AcDbSpline
70
4
71
3
72
10
73
6
40
0
40
0
40
0
40
0
40
0.5
40
0.5
40
1
40
1
40
1
40
1
41
1
10
33.2037606482677
20
1.57628781613286
30
0
41
1
10
33.2615726295513
20
1.46443731447033
30
0
41
1
10
33.3198918456545
20
1.3552502242616
30
0
41
1
10
33.4380032404839
20
1.14258970822078
30
0
41
1
10
33.4975409034595
20
1.03959867340868
30
0
41
1
10
33.5578130323756
20
0.940093269289775
30
0
0
SPLINE
5
17C
100
AcDbEntity
8
1
62
256
6
ByLayer
370
18
48
1
60
0
100
AcDbSpline
70
4
71
3
72
27
73
23
40
0
40
0
40
0
40
0
40
0.125
40
0.125
40
0.25
40
0.25
40
0.374999999999999
40
0.374999999999999
40
0.499999999999999
40
0.499999999999999
40
0.624999999999999
40
0.624999999999999
40
0.687499999999999
40
0.687499999999999
40
0.749999999999999
40
0.812499999999999
40
0.812499999999999
40
0.875
40
0.875
40
0.9375
40
0.9375
40
1
40
1
40
1
40
1
41
1
10
33.5578130323756
20
0.940093269289804
30
0
41
1
10
33.5652001242914
20
0.927897656167175
30
0
41
1
10
33.5737953260067
20
0.915788261253311
30
0
41
1
10
33.5927957271458
20
0.891719498777178
30
0
41
1
10
33.6033166801622
20
0.87966482196282
30
0
41
1
10
33.6251792892652
20
0.856560105114852
30
0
41
1
10
33.6365890922759
20
0.845411135987092
30
0
41
1
10
33.660272151244
20
0.823834097289449
30
0
41
1
10
33.6726206416021
20
0.8133588779543
30
0
41
1
10
33.6972848993839
20
0.793849231069487
30
0
41
1
10
33.709696766015
20
0.784718547979594
30
0
41
1
10
33.7284044039656
20
0.772018386679719
30
0
41
1
10
33.7346854501171
20
0.767934206267597
30
0
41
1
10
33.747126924435
20
0.76022859325937
30
0
41
1
10
33.759385160438
20
0.753020464859048
30
0
41
1
10
33.7712338120079
20
0.746874848590352
30
0
41
1
10
33.7828427068383
20
0.741331547236996
30
0
41
1
10
33.7885533026718
20
0.738854170388464
30
0
41
1
10
33.7993596955219
20
0.734743095363285
30
0
41
1
10
33.8044924925385
20
0.733088541214926
30
0
41
1
10
33.8141303275806
20
0.730711308116668
30
0
41
1
10
33.818655563504
20
0.72999098241425
30
0
41
1
10
33.8226832421713
20
0.729856069720938
30
0
0
SPLINE
5
17D
100
AcDbEntity
8
1
62
256
6
ByLayer
370
18
48
1
60
0
100
AcDbSpline
70
4
71
3
72
12
73
8
40
0
40
0
40
0
40
0
40
0.5
40
0.5
40
0.75
40
0.75
40
1
40
1
40
1
40
1
41
1
10
33.8226832421732
20
0.729856069716647
30
0
41
1
10
33.8807376243401
20
0.727911457520861
30
0
41
1
10
33.9383141006577
20
0.720195429638807
30
0
41
1
10
34.023864545871
20
0.700225913992824
30
0
41
1
10
34.0522684121785
20
0.692159470585068
30
0
41
1
10
34.1087566620649
20
0.673277246842588
30
0
41
1
10
34.1368509551222
20
0.662460555186186
30
0
41
1
10
34.1648194605809
20
0.650276736505901
30
0
0
SPLINE
5
17E
100
AcDbEntity
8
1
62
256
6
ByLayer
370
18
48
1
60
0
100
AcDbSpline
70
4
71
3
72
12
73
8
40
0
40
0
40
0
40
0
40
0.25
40
0.25
40
0.5
40
0.5
40
1
40
1
40
1
40
1
41
1
10
34.2611948395052
20
0.550887115097197
30
0
41
1
10
34.2901168540953
20
0.505780222444002
30
0
41
1
10
34.3191349364309
20
0.461692884684197
30
0
41
1
10
34.3774721347096
20
0.375762903052532
30
0
41
1
10
34.4068096710385
20
0.333961561651023
30
0
41
1
10
34.4954100630991
20
0.212189753584198
30
0
41
1
10
34.5549896247439
20
0.136166880861168
30
0
41
1
10
34.6153378681432
20
0.0654208366165108
30
0
0
SPLINE
5
17F
100
AcDbEntity
8
1
62
256
6
ByLayer
370
18
48
1
60
0
100
AcDbSpline
70
4
71
3
72
28
73
24
40
0
40
0
40
0
40
0
40
0.125
40
0.125
40
0.25
40
0.25
40
0.375
40
0.375
40
0.5
40
0.5
40
0.625
40
0.625
40
0.6875
40
0.6875
40
0.75
40
0.75
40
0.8125
40
0.8125
40
0.875
40
0.875
40
0.9375
40
0.9375
40
1
40
1
40
1
40
1
41
1
10
34.6153378681432
20
0.0654208366165392
30
0
41
1
10
34.6227359361254
20
0.0567481062219315
30
0
41
1
10
34.6313419956589
20
0.0474991934104878
30
0
41
1
10
34.650359523483
20
0.0281793902937295
30
0
41
1
10
34.6608859472516
20
0.0180117960692314
30
0
41
1
10
34.6827528912938
20
-0.0023163343954309
30
0
41
1
10
34.6941627162871
20
-0.0125526093768258
30
0
41
1
10
34.7178419396013
20
-0.0331980874041733
30
0
41
1
10
34.7301870362572
20
-0.0436653064384984
30
0
41
1
10
34.7548459668654
20
-0.0640964114659539
30
0
41
1
10
34.7672549749147
20
-0.0741459510118148
30
0
41
1
10
34.7859575381388
20
-0.0889963738059976
30
0
41
1
10
34.7922354488836
20
-0.0939311963907983
30
0
41
1
10
34.8046791047269
20
-0.103616982571282
30
0
41
1
10
34.8108094800568
20
-0.108340952722614
30
0
41
1
10
34.8228654513357
20
-0.117539598003333
30
0
41
1
10
34.8287912751427
20
-0.122014539271561
30
0
41
1
10
34.8404028249256
20
-0.130685886061457
30
0
41
1
10
34.8461166500549
20
-0.134902278130568
30
0
41
1
10
34.8569319461209
20
-0.142771883384825
30
0
41
1
10
34.8620690052953
20
-0.146452395250066
30
0
41
1
10
34.8717146904789
20
-0.153223052233187
30
0
41
1
10
34.8762447972686
20
-0.156327002132628
30
0
41
1
10
34.880278132612
20
-0.15898945654655
30
0
0
SPLINE
5
180
100
AcDbEntity
8
1
62
256
6
ByLayer
370
18
48
1
60
0
100
AcDbSpline
70
4
71
3
72
12
73
8
40
0
40
0
40
0
40
0
40
0.500000000000007
40
0.500000000000007
40
0.750000000000004
40
0.750000000000004
40
1
40
1
40
1
40
1
41
1
10
34.880278132612
20
-0.158989456545953
30
0
41
1
10
34.9383203653403
20
-0.19730385035831
30
0
41
1
10
34.9958967006237
20
-0.240926154131614
30
0
41
1
10
35.0814819417049
20
-0.31373482074136
30
0
41
1
10
35.1099016909824
20
-0.339258491747927
30
0
41
1
10
35.1664367885066
20
-0.392652328841962
30
0
41
1
10
35.1945614170961
20
-0.420529128828378
30
0
41
1
10
35.2225663190247
20
-0.449570264573794
30
0
0
SPLINE
5
181
100
AcDbEntity
8
1
62
256
6
ByLayer
370
18
48
1
60
0
100
AcDbSpline
70
4
71
3
72
12
73
8
40
0
40
0
40
0
40
0
40
0.500000000000006
40
0.500000000000006
40
0.750000000000003
40
0.750000000000003
40
1
40
1
40
1
40
1
41
1
10
35.3187359018004
20
-0.548277688706605
30
0
41
1
10
35.3766264389594
20
-0.604004558904336
30
0
41
1
10
35.4349448342238
20
-0.654405561700912
30
0
41
1
10
35.5234655178478
20
-0.721393563475175
30
0
41
1
10
35.5530851945891
20
-0.742234416850067
30
0
41
1
10
35.6126357309224
20
-0.780803309102225
30
0
41
1
10
35.6425896206507
20
-0.798442384374027
30
0
41
1
10
35.6726580008789
20
-0.814797217034055
30
0
0
SPLINE
5
182
100
AcDbEntity
8
1
62
256
6
ByLayer
370
18
48
1
60
0
100
AcDbSpline
70
4
71
3
72
26
73
22
40
0
40
0
40
0
40
0
40
0.12499999999999
40
0.12499999999999
40
0.249999999999981
40
0.249999999999981
40
0.374999999999971
40
0.374999999999971
40
0.499999999999961
40
0.499999999999961
40
0.624999999999951
40
0.624999999999951
40
0.749999999999942
40
0.749999999999942
40
0.812499999999956
40
0.812499999999956
40
0.874999999999971
40
0.874999999999971
40
0.937499999999985
40
0.937499999999985
40
1
40
1
40
1
40
1
41
1
10
35.6726580008789
20
-0.814797217034055
30
0
41
1
10
35.6800837174162
20
-0.818836222475142
30
0
41
1
10
35.6887157934901
20
-0.824071471474383
30
0
41
1
10
35.707753931388
20
-0.836280741977845
30
0
41
1
10
35.7182720945339
20
-0.843339657932091
30
0
41
1
10
35.7400998092369
20
-0.858444376125249
30
0
41
1
10
35.7514842651482
20
-0.866529984213457
30
0
41
1
10
35.7751263273748
20
-0.88370676856016
30
0
41
1
10
35.7874620668733
20
-0.892866510414763
30
0
41
1
10
35.8121191419328
20
-0.911665244916577
30
0
41
1
10
35.8245315783184
20
-0.921366852386967
30
0
41
1
10
35.8494745032801
20
-0.94152567767992
30
0
41
1
10
35.8620866975509
20
-0.952059255717927
30
0
41
1
10
35.8802036060493
20
-0.967905269212167
30
0
41
1
10
35.8861387110774
20
-0.97321879298633
30
0
41
1
10
35.8977648282347
20
-0.983925482779824
30
0
41
1
10
35.9034899517532
20
-0.989353334443251
30
0
41
1
10
35.9143344290478
20
-1.00000611140632
30
0
41
1
10
35.9194835844538
20
-1.00525618912965
30
0
41
1
10
35.9291488697097
20
-1.01557925933503
30
0
41
1
10
35.9336896156985
20
-1.02068325654801
30
0
41
1
10
35.9377354827986
20
-1.02554977599834
30
0
0
SPLINE
5
183
100
AcDbEntity
8
1
62
256
6
ByLayer
370
18
48
1
60
0
100
AcDbSpline
70
4
71
3
72
12
73
8
40
0
40
0
40
0
40
0
40
0.499999999999993
40
0.499999999999993
40
0.749999999999997
40
0.749999999999997
40
1
40
1
40
1
40
1
41
1
10
35.9377354827986
20
-1.02554977599806
30
0
41
1
10
35.9958343383851
20
-1.09543324071799
30
0
41
1
10
36.0534437423101
20
-1.16966632282669
30
0
41
1
10
36.1390687463318
20
-1.28659859925367
30
0
41
1
10
36.1674996879549
20
-1.32654121029029
30
0
41
1
10
36.2240604052619
20
-1.40810989869198
30
0
41
1
10
36.2521992639587
20
-1.44974771698139
30
0
41
1
10
36.280221094775
20
-1.49221416996852
30
0
0
SPLINE
5
184
100
AcDbEntity
8
1
62
256
6
ByLayer
370
18
48
1
60
0
100
AcDbSpline
70
4
71
3
72
8
73
4
40
0
40
0
40
0
40
0
40
1
40
1
40
1
40
1
41
1
10
36.3764301783878
20
-1.57874346334174
30
0
41
1
10
36.3443369683566
20
-1.55017634226294
30
0
41
1
10
36.3122685270475
20
-1.52133222372979
30
0
41
1
10
36.280221094775
20
-1.49221416996852
30
0
0
SPLINE
5
185
100
AcDbEntity
8
1
62
256
6
ByLayer
370
18
48
1
60
0
100
AcDbSpline
70
4
71
3
72
10
73
6
40
0
40
0
40
0
40
0
40
0.5
40
0.5
40
1
40
1
40
1
40
1
41
1
10
36.3764301783878
20
-1.57874346334179
30
0
41
1
10
36.4342574124456
20
-1.59316973746465
30
0
41
1
10
36.4925618393224
20
-1.60160198144874
30
0
41
1
10
36.6105419350231
20
-1.60624723208303
30
0
41
1
10
36.6699768554879
20
-1.60242529904508
30
0
41
1
10
36.7300980088228
20
-1.59235118646566
30
0
0
SPLINE
5
186
100
AcDbEntity
8
1
62
256
6
ByLayer
370
18
48
1
60
0
100
AcDbSpline
70
4
71
3
72
28
73
24
40
0
40
0
40
0
40
0
40
0.124999999999985
40
0.124999999999985
40
0.249999999999969
40
0.249999999999969
40
0.374999999999954
40
0.374999999999954
40
0.499999999999939
40
0.499999999999939
40
0.624999999999923
40
0.624999999999923
40
0.687499999999936
40
0.687499999999936
40
0.749999999999949
40
0.749999999999949
40
0.812499999999962
40
0.812499999999962
40
0.874999999999974
40
0.874999999999974
40
0.937499999999987
40
0.937499999999987
40
1
40
1
40
1
40
1
41
1
10
36.7300980088228
20
-1.59235118646566
30
0
41
1
10
36.7375107362026
20
-1.59110908371144
30
0
41
1
10
36.7461378346805
20
-1.59147366079137
30
0
41
1
10
36.765202632338
20
-1.59455034972498
30
0
41
1
10
36.7757567281682
20
-1.59732791489796
30
0
41
1
10
36.7976715268701
20
-1.60476313442157
30
0
41
1
10
36.8091021387391
20
-1.60942218632616
30
0
41
1
10
36.8328134965363
20
-1.62053167927951
30
0
41
1
10
36.8451662505143
20
-1.62703594357504
30
0
41
1
10
36.8698262638484
20
-1.64148521002659
30
0
41
1
10
36.8822304540996
20
-1.64946634404649
30
0
41
1
10
36.9009175123504
20
-1.66274380552863
30
0
41
1
10
36.9071909320032
20
-1.66741394695592
30
0
41
1
10
36.9196063180145
20
-1.67713747027457
30
0
41
1
10
36.9257221750033
20
-1.68216789245221
30
0
41
1
10
36.9377486076798
20
-1.69260042172897
30
0
41
1
10
36.9436594087147
20
-1.69800212231752
30
0
41
1
10
36.955240786428
20
-1.7092362910285
30
0
41
1
10
36.9609382483599
20
-1.71510219736882
30
0
41
1
10
36.9717228989976
20
-1.72700333550833
30
0
41
1
10
36.9768460373239
20
-1.73306917309534
30
0
41
1
10
36.9864674735801
20
-1.74546808415292
30
0
41
1
10
36.9909876625423
20
-1.75183954192437
30
0
41
1
10
36.9950149257357
20
-1.75820556236448
30
0
0
SPLINE
5
187
100
AcDbEntity
8
1
62
256
6
ByLayer
370
18
48
1
60
0
100
AcDbSpline
70
4
71
3
72
14
73
10
40
0
40
0
40
0
40
0
40
0.25
40
0.25
40
0.5
40
0.5
40
0.75
40
0.75
40
1
40
1
40
1
40
1
41
1
10
36.9950149257356
20
-1.75820556236411
30
0
41
1
10
37.0241181659817
20
-1.80420996122805
30
0
41
1
10
37.0530771923299
20
-1.8509166337239
30
0
41
1
10
37.1107382867378
20
-1.94578945629868
30
0
41
1
10
37.1394078631127
20
-1.99387321452551
30
0
41
1
10
37.1964943492311
20
-2.09106984025655
30
0
41
1
10
37.2249352175033
20
-2.14019314458724
30
0
41
1
10
37.2815250598628
20
-2.23925590836768
30
0
41
1
10
37.3096744985242
20
-2.28922991133035
30
0
41
1
10
37.3377032332557
20
-2.3396276913507
30
0
0
SPLINE
5
188
100
AcDbEntity
8
1
62
256
6
ByLayer
370
18
48
1
60
0
100
AcDbSpline
70
4
71
3
72
8
73
4
40
0
40
0
40
0
40
0
40
1
40
1
40
1
40
1
41
1
10
37.4338652664832
20
-2.4032895575894
30
0
41
1
10
37.4017791579638
20
-2.38250542824989
30
0
41
1
10
37.3697290934634
20
-2.36128261899506
30
0
41
1
10
37.3377032332556
20
-2.3396276913507
30
0
0
SPLINE
5
189
100
AcDbEntity
8
1
62
256
6
ByLayer
370
18
48
1
60
0
100
AcDbSpline
70
4
71
3
72
10
73
6
40
0
40
0
40
0
40
0
40
0.5
40
0.5
40
1
40
1
40
1
40
1
41
1
10
37.4338652664832
20
-2.40328955758952
30
0
41
1
10
37.4916625238234
20
-2.37528602891507
30
0
41
1
10
37.549965911525
20
-2.34149073343411
30
0
41
1
10
37.6680090603982
20
-2.26214136472402
30
0
41
1
10
37.7274905753163
20
-2.21673940596278
30
0
41
1
10
37.7876945190308
20
-2.16558738622109
30
0
0
SPLINE
5
18A
100
AcDbEntity
8
1
62
256
6
ByLayer
370
18
48
1
60
0
100
AcDbSpline
70
4
71
3
72
27
73
23
40
0
40
0
40
0
40
0
40
0.125
40
0.125
40
0.25
40
0.25
40
0.375000000000001
40
0.375000000000001
40
0.500000000000001
40
0.500000000000001
40
0.625000000000001
40
0.625000000000001
40
0.687500000000001
40
0.687500000000001
40
0.750000000000001
40
0.8125
40
0.8125
40
0.875
40
0.875
40
0.9375
40
0.9375
40
1
40
1
40
1
40
1
41
1
10
37.7876945190308
20
-2.16558738622109
30
0
41
1
10
37.7951050739053
20
-2.15929104040293
30
0
41
1
10
37.8037299030069
20
-2.15483269082452
30
0
41
1
10
37.8227913772337
20
-2.14860778988003
30
0
41
1
10
37.8333456277547
20
-2.14687622907931
30
0
41
1
10
37.8552631544827
20
-2.14592712761899
30
0
41
1
10
37.8666954369693
20
-2.14667063656884
30
0
41
1
10
37.8904119164599
20
-2.15045556941391
30
0
41
1
10
37.9027674452998
20
-2.15353956584082
30
0
41
1
10
37.9274315787325
20
-2.16189855494863
30
0
41
1
10
37.9398379788701
20
-2.16717532857484
30
0
41
1
10
37.9585282442473
20
-2.17695201266486
30
0
41
1
10
37.9648036922277
20
-2.18054478978419
30
0
41
1
10
37.9772151035127
20
-2.18834140510478
30
0
41
1
10
37.9894419894082
20
-2.19671393348233
30
0
41
1
10
38.0012576393228
20
-2.20633849634913
30
0
41
1
10
38.0128322867263
20
-2.21668422496546
30
0
41
1
10
38.0185247255456
20
-2.22225089600846
30
0
41
1
10
38.0292972269665
20
-2.23390570468371
30
0
41
1
10
38.0344140463054
20
-2.24002081206672
30
0
41
1
10
38.0440227442878
20
-2.25291845531345
30
0
41
1
10
38.0485361757131
20
-2.25974410670227
30
0
41
1
10
38.0525574716312
20
-2.26679579489783
30
0
0
SPLINE
5
18B
100
AcDbEntity
8
1
62
256
6
ByLayer
370
18
48
1
60
0
100
AcDbSpline
70
4
71
3
72
8
73
4
40
0
40
0
40
0
40
0
40
1
40
1
40
1
40
1
41
1
10
38.0525574716311
20
-2.2667957948976
30
0
41
1
10
38.1547033440419
20
-2.44591736600012
30
0
41
1
10
38.2553449801833
20
-2.62745130420601
30
0
41
1
10
38.3541544920418
20
-2.80831858313263
30
0
0
SPLINE
5
18C
100
AcDbEntity
8
1
62
256
6
ByLayer
370
18
48
1
60
0
100
AcDbSpline
70
4
71
3
72
10
73
6
40
0
40
0
40
0
40
0
40
0.5
40
0.5
40
1
40
1
40
1
40
1
41
1
10
38.3541544920418
20
-2.80831858313263
30
0
41
1
10
38.3914094920055
20
-2.81064634304627
30
0
41
1
10
38.4287010156067
20
-2.81209588102129
30
0
41
1
10
38.5033000373045
20
-2.81331485443101
30
0
41
1
10
38.540546989916
20
-2.81312229368834
30
0
41
1
10
38.5779422466716
20
-2.81201339990335
30
0
0
SPLINE
5
18D
100
AcDbEntity
8
1
62
256
6
ByLayer
370
18
48
1
60
0
100
AcDbSpline
70
4
71
3
72
12
73
8
40
0
40
0
40
0
40
0
40
0.249999999999996
40
0.249999999999996
40
0.499999999999992
40
0.499999999999992
40
1
40
1
40
1
40
1
41
1
10
38.5779422466716
20
-2.81201339990335
30
0
41
1
10
38.5998345133219
20
-2.78518739889949
30
0
41
1
10
38.6218337384035
20
-2.75763632997743
30
0
41
1
10
38.6660436749552
20
-2.70116914694444
30
0
41
1
10
38.6882485111267
20
-2.67226512631245
30
0
41
1
10
38.7550519998856
20
-2.58373752629248
30
0
41
1
10
38.7998946072324
20
-2.52222208377907
30
0
41
1
10
38.8451556145461
20
-2.45819751794212
30
0
0
SPLINE
5
18E
100
AcDbEntity
8
1
62
256
6
ByLayer
370
18
48
1
60
0
100
AcDbSpline
70
4
71
3
72
28
73
24
40
0
40
0
40
0
40
0
40
0.124999999999984
40
0.124999999999984
40
0.249999999999968
40
0.249999999999968
40
0.374999999999952
40
0.374999999999952
40
0.499999999999936
40
0.499999999999936
40
0.624999999999921
40
0.624999999999921
40
0.687499999999934
40
0.687499999999934
40
0.749999999999947
40
0.749999999999947
40
0.81249999999996
40
0.81249999999996
40
0.874999999999973
40
0.874999999999973
40
0.937499999999987
40
0.937499999999987
40
1
40
1
40
1
40
1
41
1
10
38.8451556145461
20
-2.45819751794212
30
0
41
1
10
38.8525818974809
20
-2.44769256966762
30
0
41
1
10
38.86122326548
20
-2.43903184296357
30
0
41
1
10
38.8803129004496
20
-2.42440868428625
30
0
41
1
10
38.8908779618084
20
-2.4184476194757
30
0
41
1
10
38.9128078780785
20
-2.4093470861813
30
0
41
1
10
38.9242432871879
20
-2.40613370296745
30
0
41
1
10
38.9479604694681
20
-2.40220929455884
30
0
41
1
10
38.9603135055656
20
-2.40152438072926
30
0
41
1
10
38.9849721656756
20
-2.40280364965153
30
0
41
1
10
38.9973749292902
20
-2.40473533725029
30
0
41
1
10
39.0160577900585
20
-2.40980108217022
30
0
41
1
10
39.0223295004269
20
-2.41186736608154
30
0
41
1
10
39.0347401037626
20
-2.41676562165469
30
0
41
1
10
39.0408534500676
20
-2.41958318543456
30
0
41
1
10
39.0528744000513
20
-2.42601774714171
30
0
41
1
10
39.0587822297335
20
-2.42963388359027
30
0
41
1
10
39.0703568939754
20
-2.43778236627534
30
0
41
1
10
39.0760513245147
20
-2.44234605163248
30
0
41
1
10
39.0868307471292
20
-2.45228313836958
30
0
41
1
10
39.0919510308492
20
-2.45767423605022
30
0
41
1
10
39.101566337508
20
-2.46943684746151
30
0
41
1
10
39.1060841296186
20
-2.47585235212915
30
0
41
1
10
39.1101110312994
20
-2.48269908197321
30
0
0
SPLINE
5
18F
100
AcDbEntity
8
1
62
256
6
ByLayer
370
18
48
1
60
0
100
AcDbSpline
70
4
71
3
72
8
73
4
40
0
40
0
40
0
40
0
40
1
40
1
40
1
40
1
41
1
10
39.1101110312994
20
-2.48269908197318
30
0
41
1
10
39.1537478816657
20
-2.55689253127801
30
0
41
1
10
39.1971189857136
20
-2.63035852947934
30
0
41
1
10
39.2401957388839
20
-2.70288671064134
30
0
0
SPLINE
5
190
100
AcDbEntity
8
1
62
256
6
ByLayer
370
18
48
1
60
0
100
AcDbSpline
70
4
71
3
72
12
73
8
40
0
40
0
40
0
40
0
40
0.499999999999992
40
0.499999999999992
40
0.749999999999996
40
0.749999999999996
40
1
40
1
40
1
40
1
41
1
10
39.2401957388839
20
-2.70288671064134
30
0
41
1
10
39.3494626446894
20
-2.67099435675414
30
0
41
1
10
39.4589058688672
20
-2.63264266790267
30
0
41
1
10
39.6238479087089
20
-2.56619163847995
30
0
41
1
10
39.6789492257091
20
-2.54255601807844
30
0
41
1
10
39.7893922938104
20
-2.49242897652746
30
0
41
1
10
39.8447487351277
20
-2.46593187492161
30
0
41
1
10
39.9003645200058
20
-2.43802734837021
30
0
0
SPLINE
5
191
100
AcDbEntity
8
1
62
256
6
ByLayer
370
18
48
1
60
0
100
AcDbSpline
70
4
71
3
72
8
73
4
40
0
40
0
40
0
40
0
40
1
40
1
40
1
40
1
41
1
10
39.9003645200058
20
-2.43802734837021
30
0
41
1
10
39.9010756044073
20
-2.43674779931203
30
0
41
1
10
39.901786780024
20
-2.43546791674419
30
0
41
1
10
39.9024980470192
20
-2.43418770110668
30
0
0
SPLINE
5
192
100
AcDbEntity
8
1
62
256
6
ByLayer
370
18
48
1
60
0
100
AcDbSpline
70
4
71
3
72
22
73
18
40
0
40
0
40
0
40
0
40
0.125
40
0.125
40
0.25
40
0.25
40
0.375
40
0.375
40
0.5
40
0.5
40
0.625
40
0.625
40
0.75
40
0.75
40
0.875
40
0.875
40
1
40
1
40
1
40
1
41
1
10
39.9024980470192
20
-2.43418770110668
30
0
41
1
10
39.9079045019204
20
-2.42445657600996
30
0
41
1
10
39.9139612877626
20
-2.41558253279595
30
0
41
1
10
39.927094277309
20
-2.39916698509489
30
0
41
1
10
39.9341746287721
20
-2.3916312180115
30
0
41
1
10
39.9492472994671
20
-2.37775417239632
30
0
41
1
10
39.9571274040042
20
-2.37152421443383
30
0
41
1
10
39.9733028008646
20
-2.36044184077622
30
0
41
1
10
39.9816279736818
20
-2.35556418380284
30
0
41
1
10
39.9987198380575
20
-2.34707129852083
30
0
41
1
10
40.0075434641517
20
-2.3434393650619
30
0
41
1
10
40.0253395273477
20
-2.33758212571038
30
0
41
1
10
40.0342806280613
20
-2.33535632676845
30
0
41
1
10
40.0522339504952
20
-2.33232869294909
30
0
41
1
10
40.061245956208
20
-2.33152567265029
30
0
41
1
10
40.0793253049861
20
-2.33149648223738
30
0
41
1
10
40.088430107328
20
-2.33228780769505
30
0
41
1
10
40.097267139465
20
-2.33396556112228
30
0
0
SPLINE
5
193
100
AcDbEntity
8
1
62
256
6
ByLayer
370
18
48
1
60
0
100
AcDbSpline
70
4
71
3
72
10
73
6
40
0
40
0
40
0
40
0
40
0.5
40
0.5
40
1
40
1
40
1
40
1
41
1
10
40.0972671394655
20
-2.33396556112305
30
0
41
1
10
40.1355364346226
20
-2.3127863038375
30
0
41
1
10
40.1739939160055
20
-2.29097197841153
30
0
41
1
10
40.2515066421922
20
-2.24610360711233
30
0
41
1
10
40.2905858931439
20
-2.22305104736799
30
0
41
1
10
40.3299999661164
20
-2.19940228419367
30
0
0
SPLINE
5
194
100
AcDbEntity
8
1
62
256
6
ByLayer
370
18
48
1
60
0
100
AcDbSpline
70
4
71
3
72
10
73
6
40
0
40
0
40
0
40
0
40
0.5
40
0.5
40
1
40
1
40
1
40
1
41
1
10
40.3299999661164
20
-2.19940228419367
30
0
41
1
10
40.3775941336467
20
-2.14024524206533
30
0
41
1
10
40.4261963513027
20
-2.08036974407025
30
0
41
1
10
40.5262659443509
20
-1.95961832314677
30
0
41
1
10
40.5774828863009
20
-1.89903116260746
30
0
41
1
10
40.6299999999999
20
-1.83899219755688
30
0
0
SPLINE
5
195
100
AcDbEntity
8
1
62
256
6
ByLayer
370
18
48
1
60
0
100
AcDbSpline
70
4
71
3
72
23
73
19
40
0
40
0
40
0
40
0
40
0.125000000000001
40
0.187500000000001
40
0.187500000000001
40
0.250000000000002
40
0.250000000000002
40
0.500000000000001
40
0.500000000000001
40
0.625000000000001
40
0.625000000000001
40
0.687500000000001
40
0.687500000000001
40
0.750000000000001
40
0.750000000000001
40
0.875
40
0.875
40
1
40
1
40
1
40
1
41
1
10
40.6300000000001
20
-1.83899219755688
30
0
41
1
10
40.6300000000001
20
-1.81265112483425
30
0
41
1
10
40.6299999999999
20
-1.77402869609472
30
0
41
1
10
40.6299999999999
20
-1.7367520606789
30
0
41
1
10
40.6299999999999
20
-1.7122044843523
30
0
41
1
10
40.63
20
-1.70009317456498
30
0
41
1
10
40.63
20
-1.64084239401041
30
0
41
1
10
40.63
20
-1.59718232235332
30
0
41
1
10
40.63
20
-1.53711499362575
30
0
41
1
10
40.63
20
-1.51799332126714
30
0
41
1
10
40.63
20
-1.49068243916773
30
0
41
1
10
40.63
20
-1.48180815950997
30
0
41
1
10
40.63
20
-1.46452672048835
30
0
41
1
10
40.63
20
-1.45610051307119
30
0
41
1
10
40.63
20
-1.43115627910274
30
0
41
1
10
40.6300000000001
20
-1.41495388155008
30
0
41
1
10
40.63
20
-1.38366870962659
30
0
41
1
10
40.63
20
-1.36857322403967
30
0
41
1
10
40.63
20
-1.35401152680373
30
0
0
SPLINE
5
196
100
AcDbEntity
8
1
62
256
6
ByLayer
370
18
48
1
60
0
100
AcDbSpline
70
4
71
3
72
12
73
8
40
0
40
0
40
0
40
0
40
0.5
40
0.5
40
0.75
40
0.75
40
1
40
1
40
1
40
1
41
1
10
40.6299999999999
20
-1.21154250962306
30
0
41
1
10
40.5820910929299
20
-1.20540951630218
30
0
41
1
10
40.533089994066
20
-1.20040278511547
30
0
41
1
10
40.4580417964136
20
-1.19538892782535
30
0
41
1
10
40.4327797925171
20
-1.1941365415536
30
0
41
1
10
40.3817503279054
20
-1.19270239866887
30
0
41
1
10
40.3560143503785
20
-1.19245284590252
30
0
41
1
10
40.3300000100059
20
-1.19297710732238
30
0
0
SPLINE
5
197
100
AcDbEntity
8
1
62
256
6
ByLayer
370
18
48
1
60
0
100
AcDbSpline
70
4
71
3
72
12
73
8
40
0
40
0
40
0
40
0
40
0.25
40
0.25
40
0.5
40
0.5
40
1
40
1
40
1
40
1
41
1
10
40.3300000100055
20
-1.19297710732209
30
0
41
1
10
40.2979622000921
20
-1.1779565868371
30
0
41
1
10
40.2659201110988
20
-1.16272187696185
30
0
41
1
10
40.2021138165468
20
-1.13145855660397
30
0
41
1
10
40.1703399012966
20
-1.1154412719039
30
0
41
1
10
40.0753734047482
20
-1.06626193922966
30
0
41
1
10
40.0125206164332
20
-1.03199380969895
30
0
41
1
10
39.9501034128476
20
-0.99623426364343
30
0
0
SPLINE
5
198
100
AcDbEntity
8
1
62
256
6
ByLayer
370
18
48
1
60
0
100
AcDbSpline
70
4
71
3
72
8
73
4
40
0
40
0
40
0
40
0
40
1
40
1
40
1
40
1
41
1
10
39.9501034128472
20
-0.996234263643657
30
0
41
1
10
39.9446041532965
20
-0.986194546115343
30
0
41
1
10
39.9390998461873
20
-0.97618035934272
30
0
41
1
10
39.9335904814918
20
-0.966191514432467
30
0
0
SPLINE
5
199
100
AcDbEntity
8
1
62
256
6
ByLayer
370
18
48
1
60
0
100
AcDbSpline
70
4
71
3
72
28
73
24
40
0
40
0
40
0
40
0
40
0.125
40
0.125
40
0.25
40
0.25
40
0.375
40
0.375
40
0.5
40
0.5
40
0.625
40
0.625
40
0.6875
40
0.6875
40
0.75
40
0.75
40
0.8125
40
0.8125
40
0.875
40
0.875
40
0.9375
40
0.9375
40
1
40
1
40
1
40
1
41
1
10
39.9335904814916
20
-0.966191514433717
30
0
41
1
10
39.9264346089829
20
-0.953217441262353
30
0
41
1
10
39.9181384703714
20
-0.940435562554057
30
0
41
1
10
39.8997797529993
20
-0.915186815608337
30
0
41
1
10
39.8896225837044
20
-0.902639564094784
30
0
41
1
10
39.8683918290113
20
-0.878644686483909
30
0
41
1
10
39.8572568536013
20
-0.867100724157581
30
0
41
1
10
39.8340162350558
20
-0.844856173060862
30
0
41
1
10
39.8217966516826
20
-0.834072006548041
30
0
41
1
10
39.7971915690081
20
-0.814095107332065
30
0
41
1
10
39.7847496408883
20
-0.804830847038886
30
0
41
1
10
39.7658938058717
20
-0.792123304751613
30
0
41
1
10
39.7595761085021
20
-0.788087459553054
30
0
41
1
10
39.7468741641873
20
-0.78046728693468
30
0
41
1
10
39.7405157224347
20
-0.776902042220627
30
0
41
1
10
39.7280697535999
20
-0.770467249088171
30
0
41
1
10
39.7219449068634
20
-0.767574147920755
30
0
41
1
10
39.7099287336052
20
-0.762530968053539
30
0
41
1
10
39.7039949039577
20
-0.760370545925582
30
0
41
1
10
39.6927566592427
20
-0.757054177611224
30
0
41
1
10
39.6874244549026
20
-0.755880418026237
30
0
41
1
10
39.6774308313295
20
-0.754664213324475
30
0
41
1
10
39.6727650050744
20
-0.754632842062591
30
0
41
1
10
39.6686530810566
20
-0.755281253000902
30
0
0
SPLINE
5
19A
100
AcDbEntity
8
1
62
256
6
ByLayer
370
18
48
1
60
0
100
AcDbSpline
70
4
71
3
72
18
73
14
40
0
40
0
40
0
40
0
40
0.11094882808984
40
0.11094882808984
40
0.185036425749019
40
0.185036425749019
40
0.259124023408199
40
0.259124023408199
40
0.407299218726558
40
0.407299218726558
40
0.703649609363279
40
0.703649609363279
40
1
40
1
40
1
40
1
41
1
10
32.5542878358433
20
-3.04456950240797
30
0
41
1
10
32.5521983172408
20
-3.0481455888827
30
0
41
1
10
32.5501099940471
20
-3.05096025547664
30
0
41
1
10
32.5466299850323
20
-3.05437404412973
30
0
41
1
10
32.5452371394957
20
-3.05539768072595
30
0
41
1
10
32.5424519253734
20
-3.05675109334393
30
0
41
1
10
32.5410576289082
20
-3.0570806510276
30
0
41
1
10
32.5368890623317
20
-3.05701643621205
30
0
41
1
10
32.5341340507417
20
-3.05557527380014
30
0
41
1
10
32.5259224039245
20
-3.04714544648533
30
0
41
1
10
32.5205224359952
20
-3.03606117701864
30
0
41
1
10
32.5097025886544
20
-3.00316081044204
30
0
41
1
10
32.5042630720607
20
-2.98134483150488
30
0
41
1
10
32.4987539495622
20
-2.95408816173836
30
0
0
SPLINE
5
19B
100
AcDbEntity
8
1
62
256
6
ByLayer
370
18
48
1
60
0
100
AcDbSpline
70
4
71
3
72
14
73
10
40
0
40
0
40
0
40
0
40
0.354642990020586
40
0.354642990020586
40
0.531964485030879
40
0.531964485030879
40
0.709285980041171
40
0.709285980041171
40
1
40
1
40
1
40
1
41
1
10
32.4024041622593
20
-2.92673608018376
30
0
41
1
10
32.4079589654579
20
-2.95717579132048
30
0
41
1
10
32.4135194443908
20
-2.98239238729835
30
0
41
1
10
32.4218678988761
20
-3.01228850082299
30
0
41
1
10
32.4246521608721
20
-3.02092979165838
30
0
41
1
10
32.4302259614415
20
-3.03551547991589
30
0
41
1
10
32.4330218783991
20
-3.04146446339013
30
0
41
1
10
32.440333657609
20
-3.05341006524628
30
0
41
1
10
32.4448216621248
20
-3.05707168474513
30
0
41
1
10
32.4492746533139
20
-3.05706121804573
30
0
0
SPLINE
5
19C
100
AcDbEntity
8
1
62
256
6
ByLayer
370
18
48
1
60
0
100
AcDbSpline
70
4
71
3
72
18
73
14
40
0
40
0
40
0
40
0
40
0.06932914720586
40
0.06932914720586
40
0.146885051605372
40
0.146885051605372
40
0.224440956004885
40
0.224440956004885
40
0.379552764803908
40
0.379552764803908
40
0.689776382401954
40
0.689776382401954
40
1
40
1
40
1
40
1
41
1
10
34.9492600999889
20
3.05706159902155
30
0
41
1
10
34.9504946550584
20
3.0570588610691
30
0
41
1
10
34.9517298332192
20
3.05678061341448
30
0
41
1
10
34.9543486509284
20
3.05560410462289
30
0
41
1
10
34.9557325830407
20
3.05463529103005
30
0
41
1
10
34.958503888641
20
3.05199437871642
30
0
41
1
10
34.9598916509803
20
3.05032045821048
30
0
41
1
10
34.9640372895766
20
3.04427275912775
30
0
41
1
10
34.9667856499018
20
3.03886767005719
30
0
41
1
10
34.9750013968023
20
3.01861332097732
30
0
41
1
10
34.980438494472
20
2.99973555244176
30
0
41
1
10
34.9913425531822
20
2.95139166922388
30
0
41
1
10
34.9968203854782
20
2.9219257953007
30
0
41
1
10
35.0023494894677
20
2.88707516709903
30
0
0
SPLINE
5
19D
100
AcDbEntity
8
1
62
256
6
ByLayer
370
18
48
1
60
0
100
AcDbSpline
70
4
71
3
72
17
73
13
40
0
40
0
40
0
40
0
40
0.282366305548996
40
0.282366305548996
40
0.423549458323493
40
0.494141034710742
40
0.494141034710742
40
0.56473261109799
40
0.56473261109799
40
0.847098916646986
40
0.847098916646986
40
1
40
1
40
1
40
1
41
1
10
35.0985834943476
20
2.8524160372192
30
0
41
1
10
35.0930703501672
20
2.89034186701693
30
0
41
1
10
35.087547082778
20
2.92314638920982
30
0
41
1
10
35.079258687064
20
2.96460361742177
30
0
41
1
10
35.0751128037936
20
2.98339099159136
30
0
41
1
10
35.0709595413495
20
2.99921751211548
30
0
41
1
10
35.0681880517952
20
3.00910243073068
30
0
41
1
10
35.0668001883362
20
3.01371340163013
30
0
41
1
10
35.0598921136557
20
3.03496640648535
30
0
41
1
10
35.0544354632011
20
3.04633787850924
30
0
41
1
10
35.046053832474
20
3.05545690985167
30
0
41
1
10
35.0431150737499
20
3.05706022372465
30
0
41
1
10
35.0401718635123
20
3.05706290691555
30
0
0
SPLINE
5
19E
100
AcDbEntity
8
1
62
256
6
ByLayer
370
18
48
1
60
0
100
AcDbSpline
70
4
71
3
72
25
73
21
40
0
40
0
40
0
40
0
40
0.0792346465804455
40
0.0792346465804455
40
0.118851969870669
40
0.118851969870669
40
0.158469293160892
40
0.316938586321784
40
0.316938586321784
40
0.475407879482675
40
0.475407879482675
40
0.554642526063121
40
0.594259849353344
40
0.594259849353344
40
0.633877172643567
40
0.633877172643567
40
0.792346465804457
40
0.792346465804457
40
0.950815758965348
40
1
40
1
40
1
40
1
41
1
10
31.3450526393062
20
-2.42465734323449
30
0
41
1
10
31.3478279177593
20
-2.45685930283457
30
0
41
1
10
31.3506018109002
20
-2.48805645794593
30
0
41
1
10
31.3547621945717
20
-2.53331523620218
30
0
41
1
10
31.3561509770978
20
-2.54816618254287
30
0
41
1
10
31.3589182584761
20
-2.57723268795655
30
0
41
1
10
31.3658088938142
20
-2.64828079480796
30
0
41
1
10
31.3725677044719
20
-2.71136746321258
30
0
41
1
10
31.3833732920667
20
-2.80237326980799
30
0
41
1
10
31.3887907914794
20
-2.84290884957687
30
0
41
1
10
31.3970021919508
20
-2.89621421627714
30
0
41
1
10
31.4011267590617
20
-2.92098876737077
30
0
41
1
10
31.405284079292
20
-2.94290280249831
30
0
41
1
10
31.4080633434614
20
-2.95686912465453
30
0
41
1
10
31.4094588226927
20
-2.96353966797977
30
0
41
1
10
31.4164302872643
20
-2.99514707233263
30
0
41
1
10
31.4219732516148
20
-3.0148136146382
30
0
41
1
10
31.4330172681824
20
-3.04328768496381
30
0
41
1
10
31.4402252907934
20
-3.05482686449244
30
0
41
1
10
31.4474303438
20
-3.05706031509911
30
0
41
1
10
31.4491378100249
20
-3.05706227492229
30
0
0
SPLINE
5
19F
100
AcDbEntity
8
1
62
256
6
ByLayer
370
18
48
1
60
0
100
AcDbSpline
70
4
71
3
72
27
73
23
40
0
40
0
40
0
40
0
40
0.148748948170565
40
0.29749789634113
40
0.29749789634113
40
0.334685133383771
40
0.334685133383771
40
0.371872370426412
40
0.371872370426412
40
0.446246844511692
40
0.446246844511692
40
0.594995792682254
40
0.594995792682254
40
0.743744740852815
40
0.743744740852815
40
0.818119214938096
40
0.818119214938096
40
0.855306451980737
40
0.855306451980737
40
0.892493689023377
40
0.892493689023377
40
1
40
1
40
1
40
1
41
1
10
37.3377032332558
20
-2.3396276913507
30
0
41
1
10
37.3432648449609
20
-2.40775881263227
30
0
41
1
10
37.3543493941155
20
-2.53503726482708
30
0
41
1
10
37.3653709220845
20
-2.64452589449857
30
0
41
1
10
37.3722746611599
20
-2.7072700496623
30
0
41
1
10
37.3736563179669
20
-2.71953383343157
30
0
41
1
10
37.3764229598624
20
-2.74348509766247
30
0
41
1
10
37.3778099340616
20
-2.7551887201584
30
0
41
1
10
37.3819625355022
20
-2.78929341262372
30
0
41
1
10
37.3847163873318
20
-2.81066586063201
30
0
41
1
10
37.3929606071271
20
-2.87077703055979
30
0
41
1
10
37.3984368430849
20
-2.90552003333337
30
0
41
1
10
37.4095005458618
20
-2.96453188790713
30
0
41
1
10
37.4150656445161
20
-2.98880115949152
30
0
41
1
10
37.4234065295866
20
-3.01723773640498
30
0
41
1
10
37.4261863758756
20
-3.02538604829755
30
0
41
1
10
37.4303554270695
20
-3.03557339701183
30
0
41
1
10
37.4317470528804
20
-3.03863349167617
30
0
41
1
10
37.4345199558798
20
-3.04404574416591
30
0
41
1
10
37.4359005072455
20
-3.04639771362491
30
0
41
1
10
37.4412517513508
20
-3.05418708844064
30
0
41
1
10
37.44518129947
20
-3.0570565480123
30
0
41
1
10
37.4490945814627
20
-3.05706204326708
30
0
0
SPLINE
5
1A0
100
AcDbEntity
8
1
62
256
6
ByLayer
370
18
48
1
60
0
100
AcDbSpline
70
4
71
3
72
27
73
23
40
0
40
0
40
0
40
0
40
0.125000000000001
40
0.125000000000001
40
0.250000000000002
40
0.250000000000002
40
0.312500000000003
40
0.343750000000003
40
0.343750000000003
40
0.375000000000003
40
0.375000000000003
40
0.500000000000002
40
0.625000000000002
40
0.750000000000001
40
0.750000000000001
40
0.781250000000001
40
0.781250000000001
40
0.812500000000001
40
0.812500000000001
40
0.875000000000001
40
0.875000000000001
40
1
40
1
40
1
40
1
41
1
10
30.3016448883321
20
1.96355307259949
30
0
41
1
10
30.297860931244
20
2.02759668949156
30
0
41
1
10
30.2940641040552
20
2.08813512706067
30
0
41
1
10
30.2864298964076
20
2.20232087847239
30
0
41
1
10
30.2825959277714
20
2.25596978008167
30
0
41
1
10
30.2768175988432
20
2.33122434420983
30
0
41
1
10
30.2739214570577
20
2.36754460275807
30
0
41
1
10
30.2710129109158
20
2.40187227690223
30
0
41
1
10
30.2690707726035
20
2.42430938681093
30
0
41
1
10
30.2680968623852
20
2.43531795247415
30
0
41
1
10
30.2632418676587
20
2.48897235161363
30
0
41
1
10
30.2555501474267
20
2.56618581045481
30
0
41
1
10
30.2441324872347
20
2.65687293575465
30
0
41
1
10
30.236495836553
20
2.70057736470596
30
0
41
1
10
30.2316706803919
20
2.72250052995975
30
0
41
1
10
30.230702984214
20
2.7266148865568
30
0
41
1
10
30.2287609419719
20
2.73429639688104
30
0
41
1
10
30.2277855952984
20
2.73786626968337
30
0
41
1
10
30.2248632997001
20
2.74769398620643
30
0
41
1
10
30.2229153980096
20
2.75308975250022
30
0
41
1
10
30.2170603941129
20
2.76586986878226
30
0
41
1
10
30.2131482251796
20
2.76985907918038
30
0
41
1
10
30.2092410228422
20
2.76940397931219
30
0
0
SPLINE
5
1A1
100
AcDbEntity
8
1
62
256
6
ByLayer
370
18
48
1
60
0
100
AcDbSpline
70
4
71
3
72
24
73
20
40
0
40
0
40
0
40
0
40
0.0711086570974314
40
0.0711086570974314
40
0.142217314194863
40
0.142217314194863
40
0.284434628389726
40
0.426651942584589
40
0.426651942584589
40
0.568869256779452
40
0.568869256779452
40
0.639977913876884
40
0.639977913876884
40
0.711086570974315
40
0.711086570974315
40
0.853303885169179
40
0.995521199364042
40
0.995521199364042
40
1
40
1
40
1
40
1
41
1
10
36.1559894155719
20
2.27842484821053
30
0
41
1
10
36.1532269789202
20
2.3136522054489
30
0
41
1
10
36.1504661888529
20
2.34794004916986
30
0
41
1
10
36.1449421386168
20
2.41460262020186
30
0
41
1
10
36.1421716648888
20
2.44705533487775
30
0
41
1
10
36.1339291210107
20
2.54049564581413
30
0
41
1
10
36.1230866740382
20
2.6551588593388
30
0
41
1
10
36.1123102464309
20
2.75053436069197
30
0
41
1
10
36.1014355084801
20
2.83623307845477
30
0
41
1
10
36.0959483986448
20
2.87424504651366
30
0
41
1
10
36.0875441485874
20
2.92374350477007
30
0
41
1
10
36.0847328340529
20
2.93887197785375
30
0
41
1
10
36.0790953214589
20
2.96634816905851
30
0
41
1
10
36.0762618533151
20
2.9787123358839
30
0
41
1
10
36.0677827077958
20
3.01174399082856
30
0
41
1
10
36.0565762309898
20
3.04497888062221
30
0
41
1
10
36.045826203259
20
3.05670692344742
30
0
41
1
10
36.0402486677023
20
3.05705542542717
30
0
41
1
10
36.04007828012
20
3.05706052739745
30
0
41
1
10
36.0399077996461
20
3.05706009406839
30
0
0
SPLINE
5
1A2
100
AcDbEntity
8
1
62
256
6
ByLayer
370
18
48
1
60
0
100
AcDbSpline
70
4
71
3
72
26
73
22
40
0
40
0
40
0
40
0
40
0.175099971917449
40
0.175099971917449
40
0.262649957876174
40
0.262649957876174
40
0.350199943834899
40
0.350199943834899
40
0.393974936814261
40
0.393974936814261
40
0.437749929793623
40
0.437749929793623
40
0.525299915752348
40
0.525299915752348
40
0.700399887669789
40
0.700399887669789
40
0.875499859587229
40
0.875499859587229
40
0.963049845545945
40
0.963049845545945
40
1
40
1
40
1
40
1
41
1
10
18.4632886200172
20
-2.24464558221419
30
0
41
1
10
18.3592107466647
20
-2.23029732755541
30
0
41
1
10
18.2520381319515
20
-2.21177280774765
30
0
41
1
10
18.0848522846246
20
-2.18122347229314
30
0
41
1
10
18.0280614830674
20
-2.17057977891761
30
0
41
1
10
17.9119493274335
20
-2.14906350344214
30
0
41
1
10
17.8525366739773
20
-2.13824128050106
30
0
41
1
10
17.7613461782779
20
-2.12232351145383
30
0
41
1
10
17.7306055363973
20
-2.11706898797485
30
0
41
1
10
17.6684467620929
20
-2.1067155807323
30
0
41
1
10
17.6369508580794
20
-2.10163543190274
30
0
41
1
10
17.5422727855768
20
-2.08645282248923
30
0
41
1
10
17.4788207092898
20
-2.07646873652772
30
0
41
1
10
17.2873799081792
20
-2.04745572856603
30
0
41
1
10
17.1583164751003
20
-2.0293524534251
30
0
41
1
10
16.8966917786704
20
-1.99864820610369
30
0
41
1
10
16.7641150854872
20
-1.98609153137096
30
0
41
1
10
16.5621161479842
20
-1.97349982517835
30
0
41
1
10
16.4942569228135
20
-1.97034685018565
30
0
41
1
10
16.3968740350457
20
-1.96770420079085
30
0
41
1
10
16.367829078822
20
-1.96715483723128
30
0
41
1
10
16.3388173857636
20
-1.96685623780857
30
0
0
SPLINE
5
1A3
100
AcDbEntity
8
1
62
256
6
ByLayer
370
18
48
1
60
0
100
AcDbSpline
70
4
71
3
72
14
73
10
40
0
40
0
40
0
40
0
40
0.500000000000001
40
0.500000000000001
40
0.75
40
0.75
40
0.875
40
0.875
40
1
40
1
40
1
40
1
41
1
10
29.7823339792629
20
-2.26062886449472
30
0
41
1
10
29.775104496463
20
-2.18904472860618
30
0
41
1
10
29.7679007325126
20
-2.10578548743081
30
0
41
1
10
29.7570226385177
20
-1.96381742281119
30
0
41
1
10
29.7533890181469
20
-1.91363210124427
30
0
41
1
10
29.7478957360377
20
-1.83393981354288
30
0
41
1
10
29.7460546546345
20
-1.80660029669849
30
0
41
1
10
29.7423600447161
20
-1.75059827291389
30
0
41
1
10
29.740509199106
20
-1.72197651622349
30
0
41
1
10
29.7386551336234
20
-1.69273372454143
30
0
0
SPLINE
5
1A4
100
AcDbEntity
8
1
62
256
6
ByLayer
370
18
48
1
60
0
100
AcDbSpline
70
4
71
3
72
14
73
10
40
0
40
0
40
0
40
0
40
0.249999999999999
40
0.249999999999999
40
0.374999999999999
40
0.374999999999999
40
0.499999999999999
40
0.499999999999999
40
1
40
1
40
1
40
1
41
1
10
29.7386551336306
20
-1.69273372460569
30
0
41
1
10
29.7351057874361
20
-1.63675253497434
30
0
41
1
10
29.7316103785199
20
-1.57873173247654
30
0
41
1
10
29.7264482445682
20
-1.48865106258799
30
0
41
1
10
29.7247383591763
20
-1.45806502529081
30
0
41
1
10
29.7213642050604
20
-1.3962269842954
30
0
41
1
10
29.7196986766108
20
-1.36495530112111
30
0
41
1
10
29.7114715041284
20
-1.206862034653
30
0
41
1
10
29.7052375802459
20
-1.07488204836454
30
0
41
1
10
29.6990861662219
20
-0.937389413759519
30
0
0
SPLINE
5
1A5
100
AcDbEntity
8
1
62
256
6
ByLayer
370
13
48
1
60
0
100
AcDbSpline
70
4
71
3
72
10
73
6
40
0
40
0
40
0
40
0
40
0.164676986279594
40
0.865713533201113
40
1
40
1
40
1
40
1
41
1.04
10
29.797926658609
20
-2.23963941368473
30
0
41
1.04
10
29.7945956054609
20
-2.21701222568772
30
0
41
1.04
10
29.7771489219109
20
-2.09076694334301
30
0
41
1.04
10
29.7573682056853
20
-1.90285410651904
30
0
41
1.04
10
29.7412382146972
20
-1.72231720455531
30
0
41
1.04
10
29.7386551336306
20
-1.692733724606
30
0
0
SPLINE
5
1A6
100
AcDbEntity
8
1
62
256
6
ByLayer
370
13
48
1
60
0
100
AcDbSpline
70
4
71
3
72
10
73
6
40
0
40
0
40
0
40
0
40
0.206631975366758
40
0.555312946064132
40
1
40
1
40
1
40
1
41
1
10
30.0628600407046
20
-2.32811748669838
30
0
41
1
10
30.0543579534367
20
-2.281395071861
30
0
41
1
10
30.031737153934
20
-2.13037359991728
30
0
41
1
10
29.9919672405983
20
-1.74945746232959
30
0
41
1
10
29.9618493085623
20
-1.36196403210752
30
0
41
1
10
29.9453627423566
20
-1.13243890255359
30
0
0
SPLINE
5
1A7
100
AcDbEntity
8
1
62
256
6
ByLayer
370
18
48
1
60
0
100
AcDbSpline
70
4
71
3
72
26
73
22
40
0
40
0
40
0
40
0
40
0.124999999999999
40
0.124999999999999
40
0.249999999999998
40
0.249999999999998
40
0.312499999999998
40
0.312499999999998
40
0.374999999999998
40
0.374999999999998
40
0.499999999999998
40
0.499999999999998
40
0.624999999999999
40
0.624999999999999
40
0.749999999999999
40
0.749999999999999
40
0.812499999999999
40
0.812499999999999
40
0.874999999999999
40
0.874999999999999
40
1
40
1
40
1
40
1
41
1
10
30.061725703282
20
-1.28356407844913
30
0
41
1
10
30.070222837397
20
-1.36764752241118
30
0
41
1
10
30.0785966683236
20
-1.44903391242212
30
0
41
1
10
30.0951937457112
20
-1.6065764144461
30
0
41
1
10
30.103418257704
20
-1.68273233780107
30
0
41
1
10
30.11576619778
20
-1.79305402782631
30
0
41
1
10
30.1198844441952
20
-1.82917475025508
30
0
41
1
10
30.1281495179784
20
-1.90009743111401
30
0
41
1
10
30.1323026875471
20
-1.93494056472559
30
0
41
1
10
30.1448012599288
20
-2.03719376483309
30
0
41
1
10
30.1530708077157
20
-2.10152393424292
30
0
41
1
10
30.1695007415828
20
-2.22276746031074
30
0
41
1
10
30.1776626630286
20
-2.27968053259968
30
0
41
1
10
30.1939986756248
20
-2.38616023491196
30
0
41
1
10
30.2021892103438
20
-2.43573438147663
30
0
41
1
10
30.2145419243963
20
-2.504458906286
30
0
41
1
10
30.2186764503905
20
-2.52646033789949
30
0
41
1
10
30.2268790129636
20
-2.56810249598624
30
0
41
1
10
30.2309565406005
20
-2.58779966180143
30
0
41
1
10
30.2431302819002
20
-2.64358313801469
30
0
41
1
10
30.2511666899087
20
-2.67636879093411
30
0
41
1
10
30.2591728027761
20
-2.70482911586069
30
0
0
SPLINE
5
1A8
100
AcDbEntity
8
1
62
256
6
ByLayer
370
18
48
1
60
0
100
AcDbSpline
70
4
71
3
72
31
73
27
40
0
40
0
40
0
40
0
40
0.0625000000000001
40
0.0937500000000001
40
0.0937500000000001
40
0.125
40
0.125
40
0.25
40
0.25
40
0.375
40
0.375
40
0.5
40
0.5
40
0.53125
40
0.53125
40
0.562500000000001
40
0.562500000000001
40
0.625000000000001
40
0.625000000000001
40
0.75
40
0.75
40
0.875
40
0.875
40
0.9375
40
0.9375
40
1
40
1
40
1
40
1
41
1
10
30.5610390614185
20
-2.95086100605968
30
0
41
1
10
30.5591029346704
20
-2.94266757124657
30
0
41
1
10
30.5561893213215
20
-2.92854112246081
30
0
41
1
10
30.5532523060502
20
-2.91161270347405
30
0
41
1
10
30.5512880652099
20
-2.8996968344577
30
0
41
1
10
30.5503015292672
20
-2.89341506601858
30
0
41
1
10
30.5453672313836
20
-2.86052139024488
30
0
41
1
10
30.5414294866146
20
-2.82958587653113
30
0
41
1
10
30.5335256523091
20
-2.758762742519
30
0
41
1
10
30.5295550008817
20
-2.71887193096231
30
0
41
1
10
30.5215876481908
20
-2.63017627067475
30
0
41
1
10
30.5176000141544
20
-2.58137665459873
30
0
41
1
10
30.5126153315721
20
-2.51466930239943
30
0
41
1
10
30.5116182007976
20
-2.50104164990023
30
0
41
1
10
30.5096229373079
20
-2.47320715097538
30
0
41
1
10
30.5086245107936
20
-2.45899508371173
30
0
41
1
10
30.5056436127966
20
-2.41573358015222
30
0
41
1
10
30.5036698934069
20
-2.38598087310137
30
0
41
1
10
30.497774258847
20
-2.29403460730526
30
0
41
1
10
30.4938789856783
20
-2.22916000379877
30
0
41
1
10
30.4860466339684
20
-2.09232589328369
30
0
41
1
10
30.4820962619783
20
-2.02036117734804
30
0
41
1
10
30.4760914420206
20
-1.9070050375706
30
0
41
1
10
30.4740792680391
20
-1.86831751270824
30
0
41
1
10
30.4700362464574
20
-1.78910492317493
30
0
41
1
10
30.4680025273816
20
-1.74851732855828
30
0
41
1
10
30.4659825217163
20
-1.70746859657132
30
0
0
SPLINE
5
1A9
100
AcDbEntity
8
1
62
256
6
ByLayer
370
18
48
1
60
0
100
AcDbSpline
70
4
71
3
72
92
73
88
40
0
40
0
40
0
40
0
40
0.062499999999997
40
0.062499999999997
40
0.0937499999999942
40
0.0937499999999942
40
0.124999999999991
40
0.124999999999991
40
0.140624999999989
40
0.140624999999989
40
0.156249999999986
40
0.156249999999986
40
0.18749999999998
40
0.18749999999998
40
0.249999999999969
40
0.249999999999969
40
0.312499999999957
40
0.312499999999957
40
0.343749999999951
40
0.343749999999951
40
0.359374999999947
40
0.359374999999947
40
0.374999999999943
40
0.374999999999943
40
0.406249999999934
40
0.406249999999934
40
0.421874999999929
40
0.421874999999929
40
0.437499999999925
40
0.437499999999925
40
0.468749999999916
40
0.468749999999916
40
0.476562499999916
40
0.476562499999916
40
0.484374999999916
40
0.484374999999916
40
0.499999999999916
40
0.499999999999916
40
0.515624999999916
40
0.515624999999916
40
0.523437499999917
40
0.523437499999917
40
0.531249999999918
40
0.531249999999918
40
0.546874999999918
40
0.546874999999918
40
0.554687499999919
40
0.554687499999919
40
0.562499999999919
40
0.562499999999919
40
0.57812499999992
40
0.57812499999992
40
0.585937499999921
40
0.585937499999921
40
0.593749999999922
40
0.593749999999922
40
0.609374999999923
40
0.609374999999923
40
0.617187499999924
40
0.617187499999924
40
0.624999999999925
40
0.624999999999925
40
0.640624999999928
40
0.640624999999928
40
0.648437499999928
40
0.648437499999928
40
0.656249999999929
40
0.656249999999929
40
0.687499999999934
40
0.687499999999934
40
0.718749999999938
40
0.718749999999938
40
0.73437499999994
40
0.73437499999994
40
0.749999999999943
40
0.749999999999943
40
0.781249999999949
40
0.781249999999949
40
0.812499999999956
40
0.812499999999956
40
0.874999999999971
40
0.874999999999971
40
0.906249999999979
40
0.906249999999979
40
0.937499999999987
40
0.937499999999987
40
1
40
1
40
1
40
1
41
1
10
18.4632886200172
20
1.44309281415269
30
0
41
1
10
18.3592107466646
20
1.51122204464613
30
0
41
1
10
18.2520381319514
20
1.57180151701826
30
0
41
1
10
18.0848522846245
20
1.65141024034111
30
0
41
1
10
18.0280614830674
20
1.6760824492109
30
0
41
1
10
17.9119493274336
20
1.7216351629103
30
0
41
1
10
17.8525366739773
20
1.7424226864311
30
0
41
1
10
17.7613461782778
20
1.77087604045906
30
0
41
1
10
17.7306055363973
20
1.77990700752278
30
0
41
1
10
17.6684467620928
20
1.79711596651805
30
0
41
1
10
17.6369508580794
20
1.80526625312009
30
0
41
1
10
17.5422727855768
20
1.82888827329256
30
0
41
1
10
17.4788207092897
20
1.84342289066984
30
0
41
1
10
17.2873799081791
20
1.88353539940931
30
0
41
1
10
17.1583164751002
20
1.90564900053039
30
0
41
1
10
16.8966917786703
20
1.94091320134811
30
0
41
1
10
16.7641150854871
20
1.95404286082263
30
0
41
1
10
16.5621161479841
20
1.96692676718814
30
0
41
1
10
16.4942569228134
20
1.97007393978737
30
0
41
1
10
16.3915357078603
20
1.97284691575811
30
0
41
1
10
16.3570947696652
20
1.97343977934318
30
0
41
1
10
16.2883975891163
20
1.97392138183642
30
0
41
1
10
16.2540861446228
20
1.97381504538058
30
0
41
1
10
16.1512718029782
20
1.97237289318659
30
0
41
1
10
16.082887385532
20
1.96993374493527
30
0
41
1
10
15.9805959533017
20
1.96352578757421
30
0
41
1
10
15.9464824603146
20
1.9609188134153
30
0
41
1
10
15.8789086597577
20
1.95469451966227
30
0
41
1
10
15.8454031079699
20
1.9510769990064
30
0
41
1
10
15.7458321031759
20
1.93845945644927
30
0
41
1
10
15.6807097273326
20
1.92771800427934
30
0
41
1
10
15.6013633432497
20
1.91007995762442
30
0
41
1
10
15.5855980406495
20
1.90633827551071
30
0
41
1
10
15.5542932944616
20
1.89837671823631
30
0
41
1
10
15.5387619881317
20
1.89415721128179
30
0
41
1
10
15.4929699545522
20
1.88082821847306
30
0
41
1
10
15.4633665413996
20
1.87101765855567
30
0
41
1
10
15.4062478211587
20
1.84917001893137
30
0
41
1
10
15.3787287784561
20
1.8371378940931
30
0
41
1
10
15.3393359443229
20
1.81695744925153
30
0
41
1
10
15.3265487329953
20
1.809883375742
30
0
41
1
10
15.30204520926
20
1.79513508061081
30
0
41
1
10
15.2902831773527
20
1.78744005020354
30
0
41
1
10
15.2565298117159
20
1.76331272787903
30
0
41
1
10
15.2360630502165
20
1.74584539329587
30
0
41
1
10
15.2087961542387
20
1.71714419162242
30
0
41
1
10
15.2002745246377
20
1.70713481274763
30
0
41
1
10
15.1847779007308
20
1.68665000625481
30
0
41
1
10
15.1777523709707
20
1.67612655646357
30
0
41
1
10
15.1588180400437
20
1.64368599371878
30
0
41
1
10
15.1490466550015
20
1.62090041226099
30
0
41
1
10
15.1386574061702
20
1.58484564958582
30
0
41
1
10
15.1359013235506
20
1.57245343615799
30
0
41
1
10
15.1318827851041
20
1.54746606046211
30
0
41
1
10
15.1305829215089
20
1.53484301167268
30
0
41
1
10
15.1286739000849
20
1.49658635114801
30
0
41
1
10
15.1301534875555
20
1.47056531465756
30
0
41
1
10
15.1365891963236
20
1.43075686453665
30
0
41
1
10
15.1394385787485
20
1.41737218104464
30
0
41
1
10
15.1463572980712
20
1.3908226731653
30
0
41
1
10
15.1504346158996
20
1.37759687702291
30
0
41
1
10
15.164342792272
20
1.33804318832915
30
0
41
1
10
15.1757587625632
20
1.31181670939051
30
0
41
1
10
15.195191513274
20
1.27251739041208
30
0
41
1
10
15.2020658607279
20
1.2594271649169
30
0
41
1
10
15.2165195156638
20
1.23325027358041
30
0
41
1
10
15.2241018605064
20
1.22016170246735
30
0
41
1
10
15.2632423003316
20
1.15525395922805
30
0
41
1
10
15.2986405831564
20
1.10450826815654
30
0
41
1
10
15.3744345974288
20
1.0040365610557
30
0
41
1
10
15.4148780848284
20
0.954330765486901
30
0
41
1
10
15.4781686641366
20
0.880056172939931
30
0
41
1
10
15.4997492410545
20
0.855306150457068
30
0
41
1
10
15.5434283220761
20
0.806122522125634
30
0
41
1
10
15.5655337186228
20
0.781679022305553
30
0
41
1
10
15.6325065786095
20
0.708684234698069
30
0
41
1
10
15.6780240021995
20
0.660463622442933
30
0
41
1
10
15.7702771723863
20
0.564500948204341
30
0
41
1
10
15.8170164312597
20
0.516761594475696
30
0
41
1
10
15.9585668093066
20
0.373864110798905
30
0
41
1
10
16.0546803637042
20
0.279005067835016
30
0
41
1
10
16.200319910558
20
0.136339966339676
30
0
41
1
10
16.2491204738882
20
0.0887287814339572
30
0
41
1
10
16.3471268754979
20
-0.0067062220122409
30
0
41
1
10
16.3961525663656
20
-0.0543545909649765
30
0
41
1
10
16.5430486169391
20
-0.197035074490515
30
0
41
1
10
16.6407876000873
20
-0.29188994508533
30
0
41
1
10
16.7383209122156
20
-0.386482307089267
30
0
0
SPLINE
5
1AA
100
AcDbEntity
8
1
62
256
6
ByLayer
370
18
48
1
60
0
100
AcDbSpline
70
4
71
3
72
27
73
23
40
0
40
0
40
0
40
0
40
0.125
40
0.249999999999999
40
0.249999999999999
40
0.312499999999999
40
0.343749999999999
40
0.343749999999999
40
0.374999999999999
40
0.374999999999999
40
0.5
40
0.5
40
0.625000000000001
40
0.625000000000001
40
0.750000000000002
40
0.750000000000002
40
0.781250000000002
40
0.781250000000002
40
0.812500000000002
40
0.875000000000001
40
0.875000000000001
40
1
40
1
40
1
40
1
41
1
10
37.2136643382086
20
1.40919684054734
30
0
41
1
10
37.2081242111836
20
1.50377153153872
30
0
41
1
10
37.1971528354239
20
1.68643014369371
30
0
41
1
10
37.186271637341
20
1.85644443760816
30
0
41
1
10
37.1780766619781
20
1.97918456029919
30
0
41
1
10
37.1739703211901
20
2.03935960391124
30
0
41
1
10
37.1698346885074
20
2.09771450761534
30
0
41
1
10
37.16706906505
20
2.13620860286034
30
0
41
1
10
37.1656803334219
20
2.15527354923097
30
0
41
1
10
37.1587299319334
20
2.24929506829753
30
0
41
1
10
37.1531704444634
20
2.31987768910028
30
0
41
1
10
37.1420611781678
20
2.45209447538832
30
0
41
1
10
37.1365194955455
20
2.51372796667994
30
0
41
1
10
37.1254474038462
20
2.62806654882439
30
0
41
1
10
37.1199159399651
20
2.68077222762889
30
0
41
1
10
37.1129538359866
20
2.74090329198131
30
0
41
1
10
37.111557453688
20
2.75265547725726
30
0
41
1
10
37.1087684032056
20
2.77550619785075
30
0
41
1
10
37.1045962222197
20
2.80875607074401
30
0
41
1
10
37.1004555503069
20
2.83896609812848
30
0
41
1
10
37.0922054135567
20
2.89540304062075
30
0
41
1
10
37.0867480960795
20
2.92772733074943
30
0
41
1
10
37.0812899788648
20
2.95480520564172
30
0
0
SPLINE
5
1AB
100
AcDbEntity
8
1
62
256
6
ByLayer
370
18
48
1
60
0
100
AcDbSpline
70
4
71
3
72
31
73
27
40
0
40
0
40
0
40
0
40
0.125
40
0.125
40
0.15625
40
0.15625
40
0.1875
40
0.1875
40
0.25
40
0.25
40
0.374999999999999
40
0.499999999999998
40
0.499999999999998
40
0.562499999999998
40
0.562499999999998
40
0.593749999999999
40
0.593749999999999
40
0.624999999999999
40
0.749999999999999
40
0.749999999999999
40
0.875
40
0.875
40
0.9375
40
0.96875
40
0.96875
40
1
40
1
40
1
40
1
41
1
10
31.2208500420824
20
1.28937766039382
30
0
41
1
10
31.2154283137676
20
1.38487045436202
30
0
41
1
10
31.2100013676315
20
1.47816369851665
30
0
41
1
10
31.2030699166286
20
1.59196408299061
30
0
41
1
10
31.2016753828625
20
1.61458295718438
30
0
41
1
10
31.198870682875
20
1.65953535857065
30
0
41
1
10
31.1974590839026
20
1.68189646698937
30
0
41
1
10
31.1932189388296
20
1.74834573509207
30
0
41
1
10
31.1903934529335
20
1.79167579584146
30
0
41
1
10
31.1819480147446
20
1.91882106373936
30
0
41
1
10
31.1707777357704
20
2.08077721149303
30
0
41
1
10
31.1598827532512
20
2.22787113587143
30
0
41
1
10
31.151740304024
20
2.33253827431818
30
0
41
1
10
31.1490297607019
20
2.3664832041992
30
0
41
1
10
31.1449475303629
20
2.41595643339485
30
0
41
1
10
31.1435823279161
20
2.43222561476557
30
0
41
1
10
31.1408490993802
20
2.46418577594363
30
0
41
1
10
31.1340172753672
20
2.54251121650236
30
0
41
1
10
31.1271727470316
20
2.61308999024337
30
0
41
1
10
31.1161969968612
20
2.71636438849904
30
0
41
1
10
31.1106978023129
20
2.76317522910543
30
0
41
1
10
31.1024245685191
20
2.82611262313074
30
0
41
1
10
31.0982816968904
20
2.85575800684202
30
0
41
1
10
31.0941253904537
20
2.88262730627244
30
0
41
1
10
31.0913507865711
20
2.89991621898074
30
0
41
1
10
31.0899600675857
20
2.90825772977513
30
0
41
1
10
31.0885707009577
20
2.91626248930785
30
0
0
SPLINE
5
1AC
100
AcDbEntity
8
1
62
256
6
ByLayer
370
18
48
1
60
0
100
AcDbSpline
70
4
71
3
72
25
73
21
40
0
40
0
40
0
40
0
40
0.125
40
0.250000000000001
40
0.250000000000001
40
0.312500000000001
40
0.312500000000001
40
0.375000000000001
40
0.375000000000001
40
0.500000000000001
40
0.500000000000001
40
0.625000000000002
40
0.625000000000002
40
0.687500000000001
40
0.687500000000001
40
0.750000000000001
40
0.750000000000001
40
0.875000000000001
40
0.875000000000001
40
1
40
1
40
1
40
1
41
1
10
30.9924091960684
20
2.94468731466799
30
0
41
1
10
30.9979723615735
20
2.91627312580408
30
0
41
1
10
31.0090315213094
20
2.84916086556097
30
0
41
1
10
31.0200048543515
20
2.76172128684425
30
0
41
1
10
31.0282496819719
20
2.68836192129751
30
0
41
1
10
31.0310015941909
20
2.66260119309979
30
0
41
1
10
31.0365192273242
20
2.60845629835691
30
0
41
1
10
31.039262156428
20
2.58029711962229
30
0
41
1
10
31.0474641969386
20
2.49263186919373
30
0
41
1
10
31.0528962219006
20
2.42994645593413
30
0
41
1
10
31.0638095730109
20
2.29626275051376
30
0
41
1
10
31.0692978253299
20
2.22526454050509
30
0
41
1
10
31.0776418118114
20
2.11245858343892
30
0
41
1
10
31.0804351583019
20
2.07380285218855
30
0
41
1
10
31.086027705708
20
1.99434408332482
30
0
41
1
10
31.0888327125361
20
1.95344896238166
30
0
41
1
10
31.0971591843945
20
1.82889038081839
30
0
41
1
10
31.1026111865712
20
1.74299986285297
30
0
41
1
10
31.1134929298599
20
1.56568072082842
30
0
41
1
10
31.1189573304056
20
1.47425331672272
30
0
41
1
10
31.1244768445711
20
1.38004817984782
30
0
0
SPLINE
5
1AD
100
AcDbEntity
8
1
62
256
6
ByLayer
370
18
48
1
60
0
100
AcDbSpline
70
4
71
3
72
27
73
23
40
0
40
0
40
0
40
0
40
0.125
40
0.125
40
0.1875
40
0.1875
40
0.25
40
0.25
40
0.375
40
0.375
40
0.500000000000001
40
0.500000000000001
40
0.562500000000001
40
0.562500000000001
40
0.625000000000001
40
0.625000000000001
40
0.750000000000001
40
0.875000000000001
40
0.875000000000001
40
0.9375
40
0.9375
40
1
40
1
40
1
40
1
41
1
10
34.3935168515925
20
-1.85075661623978
30
0
41
1
10
34.3880206852597
20
-1.76686000466799
30
0
41
1
10
34.3825224615557
20
-1.67960756418941
30
0
41
1
10
34.3742201086595
20
-1.54359184338946
30
0
41
1
10
34.3714416886509
20
-1.49736602963338
30
0
41
1
10
34.3658643940872
20
-1.40328040578922
30
0
41
1
10
34.3630867639228
20
-1.35578055304205
30
0
41
1
10
34.3547743412845
20
-1.2119404985587
30
0
41
1
10
34.349255722005
20
-1.11426357001184
30
0
41
1
10
34.3382963635628
20
-0.915409953916537
30
0
41
1
10
34.3328578635421
20
-0.814233049684589
30
0
41
1
10
34.324677244267
20
-0.659813251899578
30
0
41
1
10
34.3219453530515
20
-0.607896768024318
30
0
41
1
10
34.3164426404257
20
-0.503162248741035
30
0
41
1
10
34.3136630633426
20
-0.450243386956032
30
0
41
1
10
34.3053371427825
20
-0.291925507595863
30
0
41
1
10
34.2942389056633
20
-0.0809524745397425
30
0
41
1
10
34.2832200432765
20
0.129795872153835
30
0
41
1
10
34.2749676690755
20
0.287771531576198
30
0
41
1
10
34.2722183727324
20
0.340415765058935
30
0
41
1
10
34.2667140430464
20
0.445674716761772
30
0
41
1
10
34.2639574327164
20
0.498319586675109
30
0
41
1
10
34.2611948395052
20
0.55088711509714
30
0
0
SPLINE
5
1AE
100
AcDbEntity
8
1
62
256
6
ByLayer
370
18
48
1
60
0
100
AcDbSpline
70
4
71
3
72
32
73
28
40
0
40
0
40
0
40
0
40
0.124999999999999
40
0.124999999999999
40
0.156249999999999
40
0.156249999999999
40
0.187499999999999
40
0.187499999999999
40
0.249999999999999
40
0.249999999999999
40
0.374999999999999
40
0.374999999999999
40
0.499999999999998
40
0.499999999999998
40
0.562499999999998
40
0.562499999999998
40
0.593749999999998
40
0.593749999999998
40
0.624999999999998
40
0.624999999999998
40
0.749999999999998
40
0.874999999999999
40
0.874999999999999
40
0.937499999999999
40
0.96875
40
0.96875
40
1
40
1
40
1
40
1
41
1
10
33.1075954790444
20
1.66184427950907
30
0
41
1
10
33.1130688613618
20
1.57350066138235
30
0
41
1
10
33.1185348605851
20
1.48209321308369
30
0
41
1
10
33.1254495419028
20
1.36391505118996
30
0
41
1
10
33.126837117368
20
1.34008299968238
30
0
41
1
10
33.1296218649523
20
1.29202166356043
30
0
41
1
10
33.1310204718687
20
1.26776291648375
30
0
41
1
10
33.1352054273036
20
1.19478490388798
30
0
41
1
10
33.1379863792399
20
1.14576709404335
30
0
41
1
10
33.1462968209391
20
0.997638153339523
30
0
41
1
10
33.1517905053021
20
0.897454157653584
30
0
41
1
10
33.1627382999601
20
0.694272148172814
30
0
41
1
10
33.1681998291432
20
0.591274492463953
30
0
41
1
10
33.1764571984949
20
0.434638798151809
30
0
41
1
10
33.1792182882899
20
0.382069549672508
30
0
41
1
10
33.1833761596938
20
0.302668899809845
30
0
41
1
10
33.1847666203986
20
0.276076545218189
30
0
41
1
10
33.187538827011
20
0.222991341583594
30
0
41
1
10
33.1889218043537
20
0.19647507615008
30
0
41
1
10
33.1958229205171
20
0.0640240383855257
30
0
41
1
10
33.2067754563245
20
-0.147066021656883
30
0
41
1
10
33.2176626316695
20
-0.356527382921229
30
0
41
1
10
33.2258603780028
20
-0.51300503652908
30
0
41
1
10
33.2299675858583
20
-0.591088956282647
30
0
41
1
10
33.2341003394754
20
-0.668936118234484
30
0
41
1
10
33.2368628113031
20
-0.720780905267958
30
0
41
1
10
33.2382495801992
20
-0.746711645117387
30
0
41
1
10
33.2396336389703
20
-0.772481681208802
30
0
0
SPLINE
5
1AF
100
AcDbEntity
8
1
62
256
6
ByLayer
370
18
48
1
60
0
100
AcDbSpline
70
4
71
3
72
30
73
26
40
0
40
0
40
0
40
0
40
0.03125
40
0.03125
40
0.0625000000000001
40
0.0625000000000001
40
0.125
40
0.125
40
0.25
40
0.374999999999999
40
0.374999999999999
40
0.437499999999999
40
0.437499999999999
40
0.468749999999999
40
0.468749999999999
40
0.499999999999998
40
0.624999999999998
40
0.749999999999998
40
0.749999999999998
40
0.812499999999998
40
0.843749999999999
40
0.843749999999999
40
0.874999999999999
40
0.874999999999999
40
1
40
1
40
1
40
1
41
1
10
32.0501033576023
20
2.46215443610581
30
0
41
1
10
32.0515054598426
20
2.44642497319902
30
0
41
1
10
32.0529110482888
20
2.43038906774612
30
0
41
1
10
32.0557271931764
20
2.39769701238916
30
0
41
1
10
32.0571358838528
20
2.38106166968768
30
0
41
1
10
32.0613432550434
20
2.33051184483165
30
0
41
1
10
32.0641301306521
20
2.29587105609417
30
0
41
1
10
32.0724326532639
20
2.18917907834844
30
0
41
1
10
32.0833398269359
20
2.03955160074963
30
0
41
1
10
32.0940844920049
20
1.8753871247911
30
0
41
1
10
32.1022272370892
20
1.74671789713773
30
0
41
1
10
32.1049563562598
20
1.70290206479029
30
0
41
1
10
32.1090978577185
20
1.6357603065295
30
0
41
1
10
32.1104856550118
20
1.61316348105018
30
0
41
1
10
32.1132607378735
20
1.56775945968104
30
0
41
1
10
32.12020684192
20
1.45356898067632
30
0
41
1
10
32.1327066912964
20
1.24199134278365
30
0
41
1
10
32.1436708650831
20
1.04552091835268
30
0
41
1
10
32.1518736951472
20
0.894987463209532
30
0
41
1
10
32.1559713555493
20
0.818924078707227
30
0
41
1
10
32.1600820888959
20
0.741645921803183
30
0
41
1
10
32.1628284453445
20
0.689853954436984
30
0
41
1
10
32.1642037398597
20
0.663835932109038
30
0
41
1
10
32.1710623026
20
0.533825905132545
30
0
41
1
10
32.1765456864783
20
0.429480802724072
30
0
41
1
10
32.1820267277332
20
0.324808845380147
30
0
0
SPLINE
5
1B0
100
AcDbEntity
8
1
62
256
6
ByLayer
370
18
48
1
60
0
100
AcDbSpline
70
4
71
3
72
8
73
4
40
0
40
0
40
0
40
0
40
1
40
1
40
1
40
1
41
1
10
34.2972084596553
20
-1.76956487511839
30
0
41
1
10
34.3293070389197
20
-1.79694974726451
30
0
41
1
10
34.3614065083706
20
-1.82401636567312
30
0
41
1
10
34.3935168515925
20
-1.85075661623978
30
0
0
SPLINE
5
1B1
100
AcDbEntity
8
1
62
256
6
ByLayer
370
18
48
1
60
0
100
AcDbSpline
70
4
71
3
72
8
73
4
40
0
40
0
40
0
40
0
40
1
40
1
40
1
40
1
41
1
10
32.182026727729
20
0.324808845379636
30
0
41
1
10
32.2141409664625
20
0.291407343666634
30
0
41
1
10
32.2462577979898
20
0.257946109738242
30
0
41
1
10
32.2783862267434
20
0.224433692737222
30
0
0
SPLINE
5
1B2
100
AcDbEntity
8
1
62
256
6
ByLayer
370
18
48
1
60
0
100
AcDbSpline
70
4
71
3
72
8
73
4
40
0
40
0
40
0
40
0
40
1
40
1
40
1
40
1
41
1
10
31.1244768445711
20
1.38004817984779
30
0
41
1
10
31.1565966913113
20
1.35007378616379
30
0
41
1
10
31.1887182419657
20
1.31984792041936
30
0
41
1
10
31.2208500420824
20
1.28937766039385
30
0
0
SPLINE
5
1B3
100
AcDbEntity
8
1
62
256
6
ByLayer
370
18
48
1
60
0
100
AcDbSpline
70
4
71
3
72
14
73
10
40
0
40
0
40
0
40
0
40
0.5
40
0.5
40
0.75
40
0.75
40
0.875
40
0.875
40
1
40
1
40
1
40
1
41
1
10
30.3016448883321
20
1.96355307259947
30
0
41
1
10
30.2002888765483
20
2.00238149259997
30
0
41
1
10
30.0979950943293
20
2.032292588399
30
0
41
1
10
29.9420175980496
20
2.0632073624478
30
0
41
1
10
29.8896182073222
20
2.0712052185938
30
0
41
1
10
29.8103145045162
20
2.07969532331384
30
0
41
1
10
29.7837571335566
20
2.08193726957933
30
0
41
1
10
29.7305642947532
20
2.0852188318145
30
0
41
1
10
29.7039059810243
20
2.08626124298016
30
0
41
1
10
29.6771764335657
20
2.08670450640463
30
0
0
SPLINE
5
1B4
100
AcDbEntity
8
1
62
256
6
ByLayer
370
18
48
1
60
0
100
AcDbSpline
70
4
71
3
72
10
73
6
40
0
40
0
40
0
40
0
40
0.5
40
0.5
40
1
40
1
40
1
40
1
41
1
10
29.6771764335646
20
2.08670450640614
30
0
41
1
10
29.6715714609284
20
2.08600421978141
30
0
41
1
10
29.6656701649272
20
2.08568983987323
30
0
41
1
10
29.6535770344951
20
2.08578639872863
30
0
41
1
10
29.6473548358438
20
2.08619240821199
30
0
41
1
10
29.6409688107997
20
2.08693839727008
30
0
0
SPLINE
5
1B5
100
AcDbEntity
8
1
62
256
6
ByLayer
370
18
48
1
60
0
100
AcDbSpline
70
4
71
3
72
8
73
4
40
0
40
0
40
0
40
0
40
1
40
1
40
1
40
1
41
1
10
29.6409688107999
20
2.08693839727707
30
0
41
1
10
29.6271178467375
20
2.08688792115305
30
0
41
1
10
29.6132466707412
20
2.08667708296022
30
0
41
1
10
29.5993538862503
20
2.08630546816241
30
0
0
SPLINE
5
1B6
100
AcDbEntity
8
1
62
256
6
ByLayer
370
18
48
1
60
0
100
AcDbSpline
70
4
71
3
72
14
73
10
40
0
40
0
40
0
40
0
40
0.25
40
0.25
40
0.5
40
0.5
40
0.75
40
0.75
40
1
40
1
40
1
40
1
41
1
10
29.599353886251
20
2.08630546816241
30
0
41
1
10
29.564760371858
20
2.0853801344494
30
0
41
1
10
29.5291306628927
20
2.08575867766334
30
0
41
1
10
29.4556939378766
20
2.08888026774233
30
0
41
1
10
29.4177617191889
20
2.09152595275927
30
0
41
1
10
29.3399524851425
20
2.09969931711743
30
0
41
1
10
29.300097436918
20
2.10524178760485
30
0
41
1
10
29.218950358878
20
2.11984354018594
30
0
41
1
10
29.1776612966308
20
2.12889858842652
30
0
41
1
10
29.1358196188312
20
2.13998889425744
30
0
0
SPLINE
5
1B7
100
AcDbEntity
8
1
62
256
6
ByLayer
370
18
48
1
60
0
100
AcDbSpline
70
4
71
3
72
36
73
32
40
0
40
0
40
0
40
0
40
0.107129461584053
40
0.107129461584053
40
0.160694192376079
40
0.160694192376079
40
0.214258923168106
40
0.214258923168106
40
0.321388384752159
40
0.321388384752159
40
0.428517846336212
40
0.428517846336212
40
0.455300211732222
40
0.455300211732222
40
0.482082577128232
40
0.482082577128232
40
0.535647307920248
40
0.535647307920248
40
0.589212038712264
40
0.589212038712264
40
0.64277676950428
40
0.64277676950428
40
0.85703569267234
40
0.85703569267234
40
0.910600423464357
40
0.910600423464357
40
0.937382788860363
40
0.937382788860363
40
0.964165154256369
40
0.964165154256369
40
1
40
1
40
1
40
1
41
1
10
29.1358196188312
20
2.13998889425744
30
0
41
1
10
29.0237645648427
20
2.16968953926005
30
0
41
1
10
28.9122573893034
20
2.19445167604837
30
0
41
1
10
28.7452157998358
20
2.22422521641749
30
0
41
1
10
28.6895729445647
20
2.23292266252312
30
0
41
1
10
28.5782965373878
20
2.24788088109858
30
0
41
1
10
28.5226880291488
20
2.25414937291373
30
0
41
1
10
28.3561093797161
20
2.26934594007793
30
0
41
1
10
28.2452657348265
20
2.27463627922691
30
0
41
1
10
28.0232891404759
20
2.27532748660374
30
0
41
1
10
27.9121721269643
20
2.27072584085161
30
0
41
1
10
27.7725953006986
20
2.25868895461576
30
0
41
1
10
27.7446460599064
20
2.25596754797954
30
0
41
1
10
27.6886686906461
20
2.24989456846558
30
0
41
1
10
27.6606334867545
20
2.24654144033997
30
0
41
1
10
27.5766929868478
20
2.23557669662529
30
0
41
1
10
27.5208548206337
20
2.22704995016358
30
0
41
1
10
27.4093331619986
20
2.20762593037023
30
0
41
1
10
27.3536520615339
20
2.1967275157073
30
0
41
1
10
27.2423243782181
20
2.17263623265794
30
0
41
1
10
27.1866614269385
20
2.15945228493774
30
0
41
1
10
26.9086918545921
20
2.08775417275498
30
0
41
1
10
26.6875732563346
20
2.011778959982
30
0
41
1
10
26.4092077624602
20
1.89486167348105
30
0
41
1
10
26.3534385791197
20
1.87038003309942
30
0
41
1
10
26.2695621577566
20
1.83204706610235
30
0
41
1
10
26.241542109542
20
1.81898958287118
30
0
41
1
10
26.1855361650361
20
1.79240307803633
30
0
41
1
10
26.157568828533
20
1.77888339557552
30
0
41
1
10
26.0922487826782
20
1.74676283493861
30
0
41
1
10
26.054915143884
20
1.72799253598629
30
0
41
1
10
26.0176191170839
20
1.70884745959665
30
0
0
SPLINE
5
1B8
100
AcDbEntity
8
1
62
256
6
ByLayer
370
18
48
1
60
0
100
AcDbSpline
70
4
71
3
72
10
73
6
40
0
40
0
40
0
40
0
40
0.306277880607907
40
0.306277880607907
40
1
40
1
40
1
40
1
41
1
10
18.9431984559336
20
-2.27499970289844
30
0
41
1
10
18.8943663987456
20
-2.27500151456257
30
0
41
1
10
18.8455066626964
20
-2.27405102060547
30
0
41
1
10
18.6857896837158
20
-2.26785118225948
30
0
41
1
10
18.5746140452168
20
-2.25871883897429
30
0
41
1
10
18.4632878332378
20
-2.2446454855594
30
0
0
SPLINE
5
1B9
100
AcDbEntity
8
1
62
256
6
ByLayer
370
18
48
1
60
0
100
AcDbSpline
70
4
71
3
72
64
73
60
40
0
40
0
40
0
40
0
40
0.0355009725174112
40
0.0355009725174112
40
0.072597088959057
40
0.072597088959057
40
0.0818711180694673
40
0.0818711180694673
40
0.0911451471798774
40
0.0911451471798774
40
0.109693205400698
40
0.109693205400698
40
0.146789321842336
40
0.146789321842336
40
0.183885438283975
40
0.183885438283975
40
0.258077671167252
40
0.258077671167252
40
0.332269904050529
40
0.332269904050529
40
0.350817962271349
40
0.350817962271349
40
0.36936602049217
40
0.36936602049217
40
0.38791407871299
40
0.38791407871299
40
0.406462136933811
40
0.443558253375452
40
0.443558253375452
40
0.462106311596271
40
0.462106311596271
40
0.48065436981709
40
0.48065436981709
40
0.554846602700365
40
0.554846602700365
40
0.591942719142002
40
0.591942719142002
40
0.610490777362819
40
0.610490777362819
40
0.629038835583636
40
0.629038835583636
40
0.647586893804454
40
0.647586893804454
40
0.666134952025271
40
0.666134952025271
40
0.703231068466906
40
0.703231068466906
40
0.740327184908541
40
0.758875243129359
40
0.758875243129359
40
0.777423301350178
40
0.777423301350178
40
0.851615534233453
40
0.851615534233453
40
0.88871165067509
40
0.88871165067509
40
0.925807767116728
40
0.925807767116728
40
1
40
1
40
1
40
1
41
1
10
23.9109046741686
20
2.27499986441995
30
0
41
1
10
23.9725201692077
20
2.27501623490755
30
0
41
1
10
24.0340806956365
20
2.27354003123855
30
0
41
1
10
24.1599768346031
20
2.26743359258211
30
0
41
1
10
24.2243654759035
20
2.26267152864398
30
0
41
1
10
24.3048968107146
20
2.25463252222315
30
0
41
1
10
24.3209900215315
20
2.25291783107093
30
0
41
1
10
24.3531049269346
20
2.24926162398594
30
0
41
1
10
24.3691355093543
20
2.24732128434042
30
0
41
1
10
24.4172879771554
20
2.24118870056449
30
0
41
1
10
24.4495149938247
20
2.23669633754051
30
0
41
1
10
24.5464765624933
20
2.22200375330024
30
0
41
1
10
24.6114280262233
20
2.21055277693694
30
0
41
1
10
24.7416645621871
20
2.18435067161033
30
0
41
1
10
24.8066204709753
20
2.16968398141299
30
0
41
1
10
25.0011768881483
20
2.12117714499837
30
0
41
1
10
25.1304450620879
20
2.08284118210111
30
0
41
1
10
25.3883017006052
20
1.99455601360549
30
0
41
1
10
25.5168096092028
20
1.94454624911239
30
0
41
1
10
25.6773645530069
20
1.87488193944901
30
0
41
1
10
25.709471256137
20
1.860591430943
30
0
41
1
10
25.773595696033
20
1.83122438564845
30
0
41
1
10
25.8055631232219
20
1.81610653539732
30
0
41
1
10
25.8696723811075
20
1.78527921592257
30
0
41
1
10
25.9019045199063
20
1.76964676461944
30
0
41
1
10
25.9663817355956
20
1.73767371623481
30
0
41
1
10
26.0631602758217
20
1.68868186229921
30
0
41
1
10
26.160298918116
20
1.63671110957228
30
0
41
1
10
26.257884650774
20
1.58292524923203
30
0
41
1
10
26.2905204953624
20
1.56467148945279
30
0
41
1
10
26.3556902074873
20
1.52770178974944
30
0
41
1
10
26.3882382957413
20
1.50897866714033
30
0
41
1
10
26.5508023314732
20
1.41419259607338
30
0
41
1
10
26.6802883648186
20
1.3346307558393
30
0
41
1
10
26.8736818055334
20
1.20979836794925
30
0
41
1
10
26.9380172559084
20
1.16728094368639
30
0
41
1
10
27.0343657502008
20
1.10218207302915
30
0
41
1
10
27.0664607001561
20
1.08026730257629
30
0
41
1
10
27.130551490416
20
1.03593886362597
30
0
41
1
10
27.1625249182172
20
1.01349886239117
30
0
41
1
10
27.2263984261001
20
0.968142386688726
30
0
41
1
10
27.2584176208246
20
0.945366297733671
30
0
41
1
10
27.3226060224943
20
0.89960837811725
30
0
41
1
10
27.3546965207287
20
0.876532151113793
30
0
41
1
10
27.4510385062676
20
0.806807120683629
30
0
41
1
10
27.5154290222418
20
0.759746155931254
30
0
41
1
10
27.64461678037
20
0.664573726474401
30
0
41
1
10
27.7417795406795
20
0.592364857896911
30
0
41
1
10
27.8394513427917
20
0.519027558682751
30
0
41
1
10
27.9046884410782
20
0.469894982850519
30
0
41
1
10
27.9373701578774
20
0.445206760455107
30
0
41
1
10
28.1004437030989
20
0.321670767686214
30
0
41
1
10
28.2303447570697
20
0.222133599340623
30
0
41
1
10
28.4244102374227
20
0.0718307507378029
30
0
41
1
10
28.488970992483
20
0.0215678820865435
30
0
41
1
10
28.6178215590498
20
-0.0793016347800517
30
0
41
1
10
28.6821263155012
20
-0.129888877525758
30
0
41
1
10
28.8756665359063
20
-0.280827316711765
30
0
41
1
10
29.0053017327296
20
-0.380648682793236
30
0
41
1
10
29.1358196188312
20
-0.479310133001917
30
0
0
SPLINE
5
1BA
100
AcDbEntity
8
1
62
256
6
ByLayer
370
18
48
1
60
0
100
AcDbSpline
70
4
71
3
72
16
73
12
40
0
40
0
40
0
40
0
40
0.25
40
0.25
40
0.5
40
0.5
40
0.75
40
0.75
40
0.875
40
0.875
40
1
40
1
40
1
40
1
41
1
10
29.1358196188312
20
-0.479310133001917
30
0
41
1
10
29.1755427631764
20
-0.509337764807782
30
0
41
1
10
29.2151411981744
20
-0.53938597846701
30
0
41
1
10
29.2938217341435
20
-0.59985852485471
30
0
41
1
10
29.3329042608952
20
-0.630282566065915
30
0
41
1
10
29.4103659205709
20
-0.691728229953895
30
0
41
1
10
29.4487455140583
20
-0.722749688529916
30
0
41
1
10
29.5056952579489
20
-0.769818473908515
30
0
41
1
10
29.5245751057784
20
-0.785597497236068
30
0
41
1
10
29.5621304667212
20
-0.817322251343967
30
0
41
1
10
29.5808179888864
20
-0.833251986072412
30
0
41
1
10
29.599353886251
20
-0.84932466781828
30
0
0
SPLINE
5
1BB
100
AcDbEntity
8
1
62
256
6
ByLayer
370
18
48
1
60
0
100
AcDbSpline
70
4
71
3
72
8
73
4
40
0
40
0
40
0
40
0
40
1
40
1
40
1
40
1
41
1
10
29.5993538862503
20
-0.849324667817712
30
0
41
1
10
29.6328383441808
20
-0.878359411869354
30
0
41
1
10
29.6660823057394
20
-0.907713475347322
30
0
41
1
10
29.6990861662221
20
-0.937389413759433
30
0
0
SPLINE
5
1BC
100
AcDbEntity
8
1
62
256
6
ByLayer
370
18
48
1
60
0
100
AcDbSpline
70
4
71
3
72
29
73
25
40
0
40
0
40
0
40
0
40
0.0625000000000096
40
0.0625000000000096
40
0.125000000000019
40
0.125000000000019
40
0.250000000000036
40
0.250000000000036
40
0.375000000000053
40
0.375000000000053
40
0.50000000000007
40
0.50000000000007
40
0.625000000000087
40
0.625000000000087
40
0.687500000000072
40
0.687500000000072
40
0.750000000000058
40
0.812500000000043
40
0.812500000000043
40
0.875000000000029
40
0.875000000000029
40
0.937500000000014
40
0.937500000000014
40
1
40
1
40
1
40
1
41
1
10
29.6990861662221
20
-0.937389413759405
30
0
41
1
10
29.703170537662
20
-0.939686443605524
30
0
41
1
10
29.7074533471641
20
-0.942177382746081
30
0
41
1
10
29.7163856397931
20
-0.947516967382711
30
0
41
1
10
29.7210581809764
20
-0.950380286073766
30
0
41
1
10
29.7354081794724
20
-0.959365406426826
30
0
41
1
10
29.7453965423024
20
-0.965862720427481
30
0
41
1
10
29.7661001654914
20
-0.979778147036001
30
0
41
1
10
29.7768212644818
20
-0.987200684281959
30
0
41
1
10
29.7989564828285
20
-1.00301434955668
30
0
41
1
10
29.8101032855765
20
-1.01121519781077
30
0
41
1
10
29.8325202899581
20
-1.02825388238449
30
0
41
1
10
29.843790684025
20
-1.03708995753067
30
0
41
1
10
29.8607738009582
20
-1.05093573723099
30
0
41
1
10
29.8664472810796
20
-1.05565151579285
30
0
41
1
10
29.877582509245
20
-1.06511222064168
30
0
41
1
10
29.8885626886387
20
-1.07464772212657
30
0
41
1
10
29.8991941797405
20
-1.08435751587552
30
0
41
1
10
29.9096201937317
20
-1.09417247083854
30
0
41
1
10
29.9147043429271
20
-1.09911031590687
30
0
41
1
10
29.9243535475331
20
-1.10883465817042
30
0
41
1
10
29.928950637827
20
-1.11365063595378
30
0
41
1
10
29.9376174877712
20
-1.12317518512185
30
0
41
1
10
29.941698387559
20
-1.12790031493495
30
0
41
1
10
29.9453627423538
20
-1.13243890255103
30
0
0
SPLINE
5
1BD
100
AcDbEntity
8
1
62
256
6
ByLayer
370
18
48
1
60
0
100
AcDbSpline
70
4
71
3
72
10
73
6
40
0
40
0
40
0
40
0
40
0.5
40
0.5
40
1
40
1
40
1
40
1
41
1
10
29.9453627423566
20
-1.13243890255359
30
0
41
1
10
29.9648789373267
20
-1.15661122367695
30
0
41
1
10
29.9843345532805
20
-1.18126034957837
30
0
41
1
10
30.0231196203405
20
-1.23164276771755
30
0
41
1
10
30.0424537453421
20
-1.25739381238154
30
0
41
1
10
30.061725703282
20
-1.28356407844913
30
0
0
SPLINE
5
1BE
100
AcDbEntity
8
1
62
256
6
ByLayer
370
18
48
1
60
0
100
AcDbSpline
70
4
71
3
72
10
73
6
40
0
40
0
40
0
40
0
40
0.5
40
0.5
40
1
40
1
40
1
40
1
41
1
10
30.061725703282
20
-1.28356407844916
30
0
41
1
10
30.1299868453237
20
-1.35262081563721
30
0
41
1
10
30.1978183008962
20
-1.42244220362721
30
0
41
1
10
30.332498338119
20
-1.5638095104091
30
0
41
1
10
30.3993892141087
20
-1.63530675731303
30
0
41
1
10
30.4659825217163
20
-1.70746859657135
30
0
0
SPLINE
5
1BF
100
AcDbEntity
8
1
62
256
6
ByLayer
370
18
48
1
60
0
100
AcDbSpline
70
4
71
3
72
12
73
8
40
0
40
0
40
0
40
0
40
0.250000000000001
40
0.250000000000001
40
0.500000000000001
40
0.500000000000001
40
1
40
1
40
1
40
1
41
1
10
30.4659825217163
20
-1.70746859657135
30
0
41
1
10
30.4882917033604
20
-1.70923860478086
30
0
41
1
10
30.510682562695
20
-1.71009536361396
30
0
41
1
10
30.5556536198204
20
-1.70997002076834
30
0
41
1
10
30.5782451442267
20
-1.70898720465604
30
0
41
1
10
30.6462519007157
20
-1.70325429820704
30
0
41
1
10
30.6918869930234
20
-1.69571637851897
30
0
41
1
10
30.7379249290791
20
-1.68442461409387
30
0
0
SPLINE
5
1C0
100
AcDbEntity
8
1
62
256
6
ByLayer
370
18
48
1
60
0
100
AcDbSpline
70
4
71
3
72
8
73
4
40
0
40
0
40
0
40
0
40
1
40
1
40
1
40
1
41
1
10
32.4987539495621
20
-2.95408816173836
30
0
41
1
10
32.4666229529462
20
-2.94548655035049
30
0
41
1
10
32.4345063449393
20
-2.93636798004843
30
0
41
1
10
32.4024041622588
20
-2.92673608018379
30
0
0
SPLINE
5
1C1
100
AcDbEntity
8
1
62
256
6
ByLayer
370
18
48
1
60
0
100
AcDbSpline
70
4
71
3
72
34
73
30
40
0
40
0
40
0
40
0
40
0.124999999999999
40
0.124999999999999
40
0.249999999999997
40
0.249999999999997
40
0.312499999999996
40
0.312499999999996
40
0.374999999999996
40
0.374999999999996
40
0.499999999999995
40
0.499999999999995
40
0.531249999999993
40
0.531249999999993
40
0.562499999999992
40
0.562499999999992
40
0.62499999999999
40
0.687499999999988
40
0.687499999999988
40
0.718749999999983
40
0.718749999999983
40
0.749999999999979
40
0.81249999999997
40
0.81249999999997
40
0.843749999999972
40
0.843749999999972
40
0.874999999999974
40
0.874999999999974
40
1
40
1
40
1
40
1
41
1
10
40.63
20
1.32335821095066
30
0
41
1
10
40.6581425543577
20
1.28214294594207
30
0
41
1
10
40.6850997496726
20
1.24004460413832
30
0
41
1
10
40.7357225014316
20
1.15391754917022
30
0
41
1
10
40.759399689961
20
1.10988862846227
30
0
41
1
10
40.7913305227411
20
1.04224625489172
30
0
41
1
10
40.8013711234636
20
1.01943197975709
30
0
41
1
10
40.8199687408322
20
0.973241288355126
30
0
41
1
10
40.8285441440234
20
0.949808834516205
30
0
41
1
10
40.8513636732231
20
0.879039966817572
30
0
41
1
10
40.8626814040611
20
0.831447745018835
30
0
41
1
10
40.8697765257919
20
0.771996945608606
30
0
41
1
10
40.8708397247073
20
0.760110381792884
30
0
41
1
10
40.8721856316168
20
0.736366197059311
30
0
41
1
10
40.8724674867585
20
0.724475279961865
30
0
41
1
10
40.8720344687507
20
0.689143524410184
30
0
41
1
10
40.8680666765243
20
0.643113280767977
30
0
41
1
10
40.85685369138
20
0.599851990514196
30
0
41
1
10
40.8456017631345
20
0.568684473970706
30
0
41
1
10
40.8413597471164
20
0.558471667745295
30
0
41
1
10
40.8320034603885
20
0.538699481780071
30
0
41
1
10
40.8167171359484
20
0.51010950346901
30
0
41
1
10
40.7979136790022
20
0.484712502416784
30
0
41
1
10
40.7770470630942
20
0.461424930305668
30
0
41
1
10
40.7697472979711
20
0.454013864564871
30
0
41
1
10
40.7545010616326
20
0.43989084176269
30
0
41
1
10
40.7465348677409
20
0.433164002085505
30
0
41
1
10
40.7054143421844
20
0.401450797064854
30
0
41
1
10
40.6689085643519
20
0.38244034092611
30
0
41
1
10
40.63
20
0.368801952650131
30
0
0
SPLINE
5
1C2
100
AcDbEntity
8
1
62
256
6
ByLayer
370
18
48
1
60
0
100
AcDbSpline
70
4
71
3
72
8
73
4
40
0
40
0
40
0
40
0
40
1
40
1
40
1
40
1
41
1
10
30.5610390614202
20
-2.95086100605951
30
0
41
1
10
30.4610308719456
20
-2.87484768584582
30
0
41
1
10
30.3606278914336
20
-2.79272263222316
30
0
41
1
10
30.2591728027761
20
-2.70482911586069
30
0
0
SPLINE
5
1C3
100
AcDbEntity
8
1
62
256
6
ByLayer
370
18
48
1
60
0
100
AcDbSpline
70
4
71
3
72
10
73
6
40
0
40
0
40
0
40
0
40
0.5
40
0.5
40
1
40
1
40
1
40
1
41
1
10
30.2591728027761
20
-2.70482911586069
30
0
41
1
10
30.2267489153166
20
-2.6434200774433
30
0
41
1
10
30.1941771887911
20
-2.58126179117599
30
0
41
1
10
30.1287684005297
20
-2.45568532823958
30
0
41
1
10
30.0959130488045
20
-2.3922325330484
30
0
41
1
10
30.0628600407046
20
-2.32811748669838
30
0
0
SPLINE
5
1C4
100
AcDbEntity
8
1
62
256
6
ByLayer
370
18
48
1
60
0
100
AcDbSpline
70
4
71
3
72
28
73
24
40
0
40
0
40
0
40
0
40
0.125000000000016
40
0.125000000000016
40
0.250000000000031
40
0.250000000000031
40
0.375000000000047
40
0.375000000000047
40
0.500000000000063
40
0.500000000000063
40
0.625000000000078
40
0.625000000000078
40
0.687500000000065
40
0.687500000000065
40
0.750000000000052
40
0.750000000000052
40
0.812500000000039
40
0.812500000000039
40
0.875000000000026
40
0.875000000000026
40
0.937500000000013
40
0.937500000000013
40
1
40
1
40
1
40
1
41
1
10
30.0628600407046
20
-2.32811748669838
30
0
41
1
10
30.0556941896735
20
-2.31421742442257
30
0
41
1
10
30.0473853584083
20
-2.30159703595624
30
0
41
1
10
30.028998193215
20
-2.27831361007554
30
0
41
1
10
30.0188241428572
20
-2.26760799622352
30
0
41
1
10
29.9975602090063
20
-2.24866893764445
30
0
41
1
10
29.9864088250563
20
-2.24033933109129
30
0
41
1
10
29.9631378583736
20
-2.22586937308446
30
0
41
1
10
29.9509056858565
20
-2.21969943410585
30
0
41
1
10
29.9262881362512
20
-2.21012250365675
30
0
41
1
10
29.9138434667995
20
-2.20665047779696
30
0
41
1
10
29.8949919320968
20
-2.2036737261349
30
0
41
1
10
29.8886770417624
20
-2.20305693025114
30
0
41
1
10
29.8759838557763
20
-2.20268391906322
30
0
41
1
10
29.8696394843043
20
-2.20293461583984
30
0
41
1
10
29.8572177514751
20
-2.20439731299209
30
0
41
1
10
29.8511054699163
20
-2.20560640694114
30
0
41
1
10
29.8391150292954
20
-2.20912751091004
30
0
41
1
10
29.8331951551862
20
-2.21146549369439
30
0
41
1
10
29.8219838325808
20
-2.21731264772492
30
0
41
1
10
29.8166639736975
20
-2.22081928638431
30
0
41
1
10
29.8066920667727
20
-2.22919471413149
30
0
41
1
10
29.8020341287134
20
-2.2340898131844
30
0
41
1
10
29.7979266586112
20
-2.23963941367768
30
0
0
SPLINE
5
1C5
100
AcDbEntity
8
1
62
256
6
ByLayer
370
18
48
1
60
0
100
AcDbSpline
70
4
71
3
72
8
73
4
40
0
40
0
40
0
40
0
40
1
40
1
40
1
40
1
41
1
10
29.7823339792628
20
-2.26062886449469
30
0
41
1
10
29.7217016471702
20
-2.20072703216064
30
0
41
1
10
29.6607178104875
20
-2.13937393919488
30
0
41
1
10
29.5993538862503
20
-2.07673123361499
30
0
0
SPLINE
5
1C6
100
AcDbEntity
8
1
62
256
6
ByLayer
370
18
48
1
60
0
100
AcDbSpline
70
4
71
3
72
14
73
10
40
0
40
0
40
0
40
0
40
0.250000000000001
40
0.250000000000001
40
0.5
40
0.5
40
0.75
40
0.75
40
1
40
1
40
1
40
1
41
1
10
29.5993538862503
20
-2.07673123361499
30
0
41
1
10
29.5647603718573
20
-2.04141681453188
30
0
41
1
10
29.5291306628927
20
-2.00788523684551
30
0
41
1
10
29.4556939378766
20
-1.94433924613739
30
0
41
1
10
29.4177617191889
20
-1.91438467654066
30
0
41
1
10
29.3399524851425
20
-1.85808705300445
30
0
41
1
10
29.300097436918
20
-1.83173210098022
30
0
41
1
10
29.2189503588781
20
-1.7825374209929
30
0
41
1
10
29.1776612966308
20
-1.75969228217514
30
0
41
1
10
29.1358196188312
20
-1.73861571461961
30
0
0
SPLINE
5
1C7
100
AcDbEntity
8
1
62
256
6
ByLayer
370
18
48
1
60
0
100
AcDbSpline
70
4
71
3
72
80
73
76
40
0
40
0
40
0
40
0
40
0.0360900080471394
40
0.0360900080471394
40
0.0541350120707099
40
0.0541350120707099
40
0.0721800160942803
40
0.0721800160942803
40
0.108270024141423
40
0.108270024141423
40
0.144360032188565
40
0.144360032188565
40
0.15338253420035
40
0.15338253420035
40
0.162405036212136
40
0.162405036212136
40
0.180450040235707
40
0.180450040235707
40
0.198495044259278
40
0.198495044259278
40
0.216540048282849
40
0.216540048282849
40
0.288720064377131
40
0.288720064377131
40
0.306765068400702
40
0.306765068400702
40
0.315787570412488
40
0.315787570412488
40
0.324810072424274
40
0.324810072424274
40
0.360900080471414
40
0.360900080471414
40
0.378945084494985
40
0.378945084494985
40
0.396990088518555
40
0.396990088518555
40
0.433080096565698
40
0.433080096565698
40
0.46917010461284
40
0.46917010461284
40
0.487215108636411
40
0.487215108636411
40
0.505260112659982
40
0.505260112659982
40
0.541350120707123
40
0.541350120707123
40
0.577440128754264
40
0.577440128754264
40
0.649620144848546
40
0.649620144848546
40
0.658642646860331
40
0.658642646860331
40
0.667665148872117
40
0.667665148872117
40
0.685710152895687
40
0.685710152895687
40
0.721800160942826
40
0.721800160942826
40
0.793980177037104
40
0.793980177037104
40
0.812025181060672
40
0.812025181060672
40
0.830070185084241
40
0.830070185084241
40
0.848115189107809
40
0.848115189107809
40
0.866160193131378
40
0.866160193131378
40
0.93834020922565
40
0.93834020922565
40
0.974430217272785
40
0.974430217272785
40
0.992475221296352
40
0.992475221296352
40
1
40
1
40
1
40
1
41
1
10
29.1358196188312
20
-1.73861571461961
30
0
41
1
10
29.0237645648427
20
-1.6821711349676
30
0
41
1
10
28.9122573893034
20
-1.62221862054071
30
0
41
1
10
28.7452157998357
20
-1.52773077748671
30
0
41
1
10
28.6895729445646
20
-1.49547439888076
30
0
41
1
10
28.5782965373878
20
-1.42952557815698
30
0
41
1
10
28.5226880291487
20
-1.39580937135148
30
0
41
1
10
28.3561093797161
20
-1.2922705996927
30
0
41
1
10
28.2452657348264
20
-1.22017695730955
30
0
41
1
10
28.0232891404758
20
-1.07053061228163
30
0
41
1
10
27.9121721269641
20
-0.992958443008462
30
0
41
1
10
27.7725953006985
20
-0.893084868510385
30
0
41
1
10
27.7446460599062
20
-0.872964687398593
30
0
41
1
10
27.6886686906458
20
-0.832444735918671
30
0
41
1
10
27.6606334867543
20
-0.812039586201621
30
0
41
1
10
27.5766929868476
20
-0.750642628429887
30
0
41
1
10
27.5208548206335
20
-0.709398030601676
30
0
41
1
10
27.4093331619985
20
-0.626400134067978
30
0
41
1
10
27.3536520615338
20
-0.584643764383969
30
0
41
1
10
27.242324378218
20
-0.500779120363603
30
0
41
1
10
27.1866614269384
20
-0.458692011018115
30
0
41
1
10
26.908691854592
20
-0.24705529606797
30
0
41
1
10
26.6875732563345
20
-0.0736992520502895
30
0
41
1
10
26.4092077624599
20
0.143560446148058
30
0
41
1
10
26.3534385791193
20
0.187043499440904
30
0
41
1
10
26.2695621577561
20
0.252214034648091
30
0
41
1
10
26.2415421095415
20
0.273947053603052
30
0
41
1
10
26.1855361650356
20
0.31728324948071
30
0
41
1
10
26.1575688285327
20
0.338872116647281
30
0
41
1
10
26.0178767771041
20
0.446382296009489
30
0
41
1
10
25.9065520979621
20
0.53095794621396
30
0
41
1
10
25.7397923254419
20
0.65524244982555
30
0
41
1
10
25.6842704285337
20
0.696274920906063
30
0
41
1
10
25.573401428989
20
0.777607771291969
30
0
41
1
10
25.5180552807749
20
0.817908641418569
30
0
41
1
10
25.3521363567276
20
0.937530466048997
30
0
41
1
10
25.2416778551387
20
1.01556359672915
30
0
41
1
10
25.0203134269941
20
1.16726569553373
30
0
41
1
10
24.9094011032504
20
1.24092822012955
30
0
41
1
10
24.7421781912516
20
1.34751626391557
30
0
41
1
10
24.6862961697275
20
1.38239603971377
30
0
41
1
10
24.5741432202171
20
1.45072984028531
30
0
41
1
10
24.5181520131778
20
1.48400972584506
30
0
41
1
10
24.3505202612468
20
1.58096718913205
30
0
41
1
10
24.2390995679075
20
1.64182526186707
30
0
41
1
10
24.0172664749394
20
1.7564450704372
30
0
41
1
10
23.9067437399252
20
1.81008848528103
30
0
41
1
10
23.575257352093
20
1.95910485890622
30
0
41
1
10
23.3544423779759
20
2.04258972712199
30
0
41
1
10
23.1028476448645
20
2.11613137368687
30
0
41
1
10
23.0748496541982
20
2.1240206504539
30
0
41
1
10
23.0187545158649
20
2.13922629951739
30
0
41
1
10
22.9906438512246
20
2.14654524248599
30
0
41
1
10
22.9064690258652
20
2.16755173069765
30
0
41
1
10
22.8504718945733
20
2.18032635868639
30
0
41
1
10
22.6830437011193
20
2.21508745128796
30
0
41
1
10
22.5720906270284
20
2.23346584037088
30
0
41
1
10
22.2400497209092
20
2.27399255606377
30
0
41
1
10
22.0197692649484
20
2.28152593796668
30
0
41
1
10
21.7423193988464
20
2.26630368778987
30
0
41
1
10
21.6867267438036
20
2.26202746977682
30
0
41
1
10
21.5751979875409
20
2.25102006079172
30
0
41
1
10
21.5192357714271
20
2.24429720656633
30
0
41
1
10
21.4070796230157
20
2.22835345102274
30
0
41
1
10
21.3508459443024
20
2.21911604578625
30
0
41
1
10
21.238946749489
20
2.19828124617265
30
0
41
1
10
21.1831736666743
20
2.18667138840505
30
0
41
1
10
20.9049630895579
20
2.12279122721964
30
0
41
1
10
20.684583962353
20
2.05295914375859
30
0
41
1
10
20.3528179222912
20
1.92291758077909
30
0
41
1
10
20.2420402501543
20
1.87535578316272
30
0
41
1
10
20.0750800730411
20
1.79805034100931
30
0
41
1
10
20.0192844816229
20
1.77129881820204
30
0
41
1
10
19.9401316458118
20
1.73188732350422
30
0
41
1
10
19.9168229957419
20
1.72010758045172
30
0
41
1
10
19.8934959214572
20
1.70814728646985
30
0
0
SPLINE
5
1C8
100
AcDbEntity
8
1
62
256
6
ByLayer
370
18
48
1
60
0
100
AcDbSpline
70
4
71
3
72
130
73
126
40
0
40
0
40
0
40
0
40
0.0110995707733637
40
0.0110995707733637
40
0.0281495781738231
40
0.0281495781738231
40
0.0451995855742824
40
0.0451995855742824
40
0.0622495929747418
40
0.0622495929747418
40
0.070774596674972
40
0.070774596674972
40
0.0792996003752022
40
0.0792996003752022
40
0.0878246040754325
40
0.0878246040754325
40
0.0963496077756627
40
0.0963496077756627
40
0.113399615176124
40
0.113399615176124
40
0.147499629977048
40
0.147499629977048
40
0.16454963737751
40
0.16454963737751
40
0.173074641077741
40
0.173074641077741
40
0.181599644777973
40
0.181599644777973
40
0.198649652178435
40
0.198649652178435
40
0.207174655878666
40
0.207174655878666
40
0.215699659578896
40
0.215699659578896
40
0.232749666979357
40
0.232749666979357
40
0.249799674379818
40
0.249799674379818
40
0.28389968918074
40
0.28389968918074
40
0.317999703981663
40
0.317999703981663
40
0.326524707681893
40
0.326524707681893
40
0.335049711382124
40
0.335049711382124
40
0.343574715082354
40
0.343574715082354
40
0.352099718782585
40
0.352099718782585
40
0.386199733583506
40
0.386199733583506
40
0.420299748384427
40
0.420299748384427
40
0.437349755784887
40
0.437349755784887
40
0.454399763185348
40
0.454399763185348
40
0.462924766885578
40
0.462924766885578
40
0.471449770585809
40
0.471449770585809
40
0.488499777986271
40
0.488499777986271
40
0.522599792787195
40
0.522599792787195
40
0.539649800187658
40
0.539649800187658
40
0.556699807588121
40
0.556699807588121
40
0.573749814988584
40
0.573749814988584
40
0.578012316838699
40
0.578012316838699
40
0.582274818688814
40
0.582274818688814
40
0.590799822389043
40
0.590799822389043
40
0.607849829789501
40
0.607849829789501
40
0.62489983718996
40
0.62489983718996
40
0.658999851990876
40
0.658999851990876
40
0.693099866791793
40
0.693099866791793
40
0.701624870492021
40
0.701624870492021
40
0.71014987419225
40
0.71014987419225
40
0.718674877892478
40
0.718674877892478
40
0.727199881592707
40
0.744249888993164
40
0.744249888993164
40
0.752774892693392
40
0.752774892693392
40
0.761299896393621
40
0.761299896393621
40
0.795399911194535
40
0.795399911194535
40
0.812449918594993
40
0.812449918594993
40
0.820974922295221
40
0.820974922295221
40
0.829499925995449
40
0.829499925995449
40
0.838024929695677
40
0.838024929695677
40
0.846549933395905
40
0.846549933395905
40
0.86359994079636
40
0.86359994079636
40
0.880649948196815
40
0.889174951897042
40
0.889174951897042
40
0.89769995559727
40
0.89769995559727
40
0.931799970398179
40
0.931799970398179
40
0.948849977798634
40
0.948849977798634
40
0.965899985199089
40
0.965899985199089
40
1
40
1
40
1
40
1
41
1
10
17.7707640588474
20
2.27500143056176
30
0
41
1
10
17.8127808706362
20
2.27499383820569
30
0
41
1
10
17.8548603047929
20
2.27428877699151
30
0
41
1
10
17.9617644787331
20
2.27072969352483
30
0
41
1
10
18.0266984378661
20
2.26692557795454
30
0
41
1
10
18.1569673366737
20
2.25598452260172
30
0
41
1
10
18.2224034222453
20
2.24882828128568
30
0
41
1
10
18.3525313167806
20
2.23127463650417
30
0
41
1
10
18.4173307618852
20
2.22086873883481
30
0
41
1
10
18.5141550314278
20
2.20282535359891
30
0
41
1
10
18.5463810025875
20
2.19640853966919
30
0
41
1
10
18.6108434981624
20
2.18281376946032
30
0
41
1
10
18.6430791524511
20
2.17563897496333
30
0
41
1
10
18.7071468803698
20
2.16036453835312
30
0
41
1
10
18.7390921120795
20
2.15230512588209
30
0
41
1
10
18.8031176492025
20
2.13547722840116
30
0
41
1
10
18.8351584067522
20
2.12669355662615
30
0
41
1
10
18.931349959231
20
2.09924262604002
30
0
41
1
10
18.9955637174248
20
2.07947413489148
30
0
41
1
10
19.1883778993701
20
2.0157817782399
30
0
41
1
10
19.3172327246031
20
1.96752235634818
30
0
41
1
10
19.511279198737
20
1.88660573667911
30
0
41
1
10
19.5760842642158
20
1.85820638799274
30
0
41
1
10
19.6735060888644
20
1.81345235607304
30
0
41
1
10
19.7060162387448
20
1.79817535951761
30
0
41
1
10
19.7711126708797
20
1.76689710120652
30
0
41
1
10
19.8037334153867
20
1.75087841079412
30
0
41
1
10
19.9014457599495
20
1.70185216981207
30
0
41
1
10
19.966302603446
20
1.66793758324627
30
0
41
1
10
20.063158696772
20
1.61522181228469
30
0
41
1
10
20.0953595753548
20
1.59733034382577
30
0
41
1
10
20.1595917356052
20
1.56090393421869
30
0
41
1
10
20.1916981079934
20
1.54244021681274
30
0
41
1
10
20.2881118620636
20
1.48643049020129
30
0
41
1
10
20.3524099630444
20
1.44816730853586
30
0
41
1
10
20.4809439727487
20
1.36972434162013
30
0
41
1
10
20.5451963486457
20
1.32955955256148
30
0
41
1
10
20.7380946342087
20
1.20645720834506
30
0
41
1
10
20.8669251099422
20
1.12096785955998
30
0
41
1
10
21.1254371344109
20
0.943595860487221
30
0
41
1
10
21.2551165450304
20
0.85172946073078
30
0
41
1
10
21.4173641094354
20
0.732189161005465
30
0
41
1
10
21.449850175138
20
0.708013966252651
30
0
41
1
10
21.5145350395601
20
0.659344442115525
30
0
41
1
10
21.5467446748386
20
0.634818983787483
30
0
41
1
10
21.6114818945174
20
0.586139103809131
30
0
41
1
10
21.643880847096
20
0.561819237554488
30
0
41
1
10
21.7084430223101
20
0.512837709060648
30
0
41
1
10
21.7406586256647
20
0.488243502217983
30
0
41
1
10
21.9017340184808
20
0.365175428303701
30
0
41
1
10
22.0305600156605
20
0.266378786992192
30
0
41
1
10
22.2882198074558
20
0.0682215837637727
30
0
41
1
10
22.4170694385602
20
-0.0311184262706377
30
0
41
1
10
22.6104185207986
20
-0.180466830865356
30
0
41
1
10
22.6748490352977
20
-0.230347759884978
30
0
41
1
10
22.8039350910162
20
-0.329963799304295
30
0
41
1
10
22.8686025124011
20
-0.379682993761151
30
0
41
1
10
22.9656147938327
20
-0.454362435871218
30
0
41
1
10
22.9979417854466
20
-0.479288671006373
30
0
41
1
10
23.062812959926
20
-0.528894272478624
30
0
41
1
10
23.0953224319981
20
-0.553576924004489
30
0
41
1
10
23.1926491362433
20
-0.627032279487082
30
0
41
1
10
23.2573875945886
20
-0.67534560279671
30
0
41
1
10
23.451344539868
20
-0.818148770137554
30
0
41
1
10
23.5803755982563
20
-0.910421688846213
30
0
41
1
10
23.7737774154621
20
-1.04426951827685
30
0
41
1
10
23.8382094253774
20
-1.0881368762048
30
0
41
1
10
23.9669880536288
20
-1.17438785671226
30
0
41
1
10
24.0313144351151
20
-1.21679335628545
30
0
41
1
10
24.1599768346031
20
-1.29999209182847
30
0
41
1
10
24.2243654759035
20
-1.34072924499634
30
0
41
1
10
24.3048968107146
20
-1.39058596496292
30
0
41
1
10
24.3209900215315
20
-1.40052014389514
30
0
41
1
10
24.3531049269346
20
-1.42035912008348
30
0
41
1
10
24.3691355093542
20
-1.43025444977897
30
0
41
1
10
24.4172879771553
20
-1.45972054058839
30
0
41
1
10
24.4495149938247
20
-1.47902680017768
30
0
41
1
10
24.5464765624933
20
-1.53603841620566
30
0
41
1
10
24.6114280262233
20
-1.57296434715812
30
0
41
1
10
24.7416645621871
20
-1.64453284593569
30
0
41
1
10
24.8066204709753
20
-1.67894517905168
30
0
41
1
10
25.0011768881483
20
-1.77802813152863
30
0
41
1
10
25.1304450620879
20
-1.83858339878123
30
0
41
1
10
25.3883017006052
20
-1.94882874946649
30
0
41
1
10
25.5168096092028
20
-1.99856330281611
30
0
41
1
10
25.6773645530069
20
-2.05359537279028
30
0
41
1
10
25.709471256137
20
-2.0642453177027
30
0
41
1
10
25.773595696033
20
-2.0848662251581
30
0
41
1
10
25.8055631232219
20
-2.09486142435691
30
0
41
1
10
25.8696723811075
20
-2.11402382373507
30
0
41
1
10
25.9019045199063
20
-2.12315041179247
30
0
41
1
10
25.9663817355956
20
-2.14066964096415
30
0
41
1
10
26.0631602758216
20
-2.16582100205025
30
0
41
1
10
26.160298918116
20
-2.18748352868585
30
0
41
1
10
26.257884650774
20
-2.20672126414922
30
0
41
1
10
26.2905204953624
20
-2.21273686138537
30
0
41
1
10
26.3556902074873
20
-2.22391611196824
30
0
41
1
10
26.3882382957412
20
-2.22908361436538
30
0
41
1
10
26.5508023314732
20
-2.25283732673085
30
0
41
1
10
26.6802883648186
20
-2.26520062525162
30
0
41
1
10
26.8736818055334
20
-2.27399225216919
30
0
41
1
10
26.9380172559084
20
-2.27529020455049
30
0
41
1
10
27.0343657502008
20
-2.2747737003892
30
0
41
1
10
27.0664607001562
20
-2.27419126434006
30
0
41
1
10
27.130551490416
20
-2.27219629635101
30
0
41
1
10
27.1625249182172
20
-2.27078169035522
30
0
41
1
10
27.2263984261001
20
-2.26710793125233
30
0
41
1
10
27.2584176208246
20
-2.26486073730416
30
0
41
1
10
27.3226060224943
20
-2.25956029436148
30
0
41
1
10
27.3546965207287
20
-2.25649563941968
30
0
41
1
10
27.4510385062677
20
-2.24606502570603
30
0
41
1
10
27.5154290222418
20
-2.2374766211708
30
0
41
1
10
27.64461678037
20
-2.21705685222196
30
0
41
1
10
27.7417795406795
20
-2.19930077833635
30
0
41
1
10
27.8394513427917
20
-2.17788590531109
30
0
41
1
10
27.9046884410782
20
-2.16279417815133
30
0
41
1
10
27.9373701578774
20
-2.15483938659128
30
0
41
1
10
28.1004437030989
20
-2.11319271568308
30
0
41
1
10
28.2303447570697
20
-2.07378513329121
30
0
41
1
10
28.4244102374227
20
-2.0056201780514
30
0
41
1
10
28.488970992483
20
-1.9813873830617
30
0
41
1
10
28.6178215590498
20
-1.92984410362121
30
0
41
1
10
28.6821263155011
20
-1.90253514966679
30
0
41
1
10
28.8756665359062
20
-1.81667930027084
30
0
41
1
10
29.0053017327296
20
-1.75407488721041
30
0
41
1
10
29.1358196188312
20
-1.68632912276462
30
0
0
SPLINE
5
1C9
100
AcDbEntity
8
1
62
256
6
ByLayer
370
18
48
1
60
0
100
AcDbSpline
70
4
71
3
72
8
73
4
40
0
40
0
40
0
40
0
40
1
40
1
40
1
40
1
41
1
10
38.1752237727269
20
0.456914332907218
30
0
41
1
10
38.207335930253
20
0.423704716606096
30
0
41
1
10
38.2394333911438
20
0.390428078854654
30
0
41
1
10
38.2715249733591
20
0.357092898750693
30
0
0
SPLINE
5
1CA
100
AcDbEntity
8
1
62
256
6
ByLayer
370
18
48
1
60
0
100
AcDbSpline
70
4
71
3
72
8
73
4
40
0
40
0
40
0
40
0
40
1
40
1
40
1
40
1
41
1
10
37.117717695505
20
1.49750620245663
30
0
41
1
10
37.1497127884937
20
1.46832371367316
30
0
41
1
10
37.1816917535373
20
1.43888437733244
30
0
41
1
10
37.2136643382086
20
1.40919684054737
30
0
0
SPLINE
5
1CB
100
AcDbEntity
8
1
62
256
6
ByLayer
370
18
48
1
60
0
100
AcDbSpline
70
4
71
3
72
8
73
4
40
0
40
0
40
0
40
0
40
1
40
1
40
1
40
1
41
1
10
35.0023494894677
20
2.88707516709903
30
0
41
1
10
35.0344387657333
20
2.87603753732878
30
0
41
1
10
35.0665137739345
20
2.86448315690728
30
0
41
1
10
35.0985834943476
20
2.8524160372192
30
0
0
SPLINE
5
1CC
100
AcDbEntity
8
1
62
256
6
ByLayer
370
18
48
1
60
0
100
AcDbSpline
70
4
71
3
72
55
73
51
40
0
40
0
40
0
40
0
40
0.0402344062747977
40
0.0402344062747977
40
0.0654913955833559
40
0.0654913955833559
40
0.090748384891914
40
0.090748384891914
40
0.141262363509028
40
0.141262363509028
40
0.191776342126143
40
0.191776342126143
40
0.292804299360369
40
0.292804299360369
40
0.305432794014649
40
0.305432794014649
40
0.318061288668928
40
0.318061288668928
40
0.343318277977485
40
0.343318277977485
40
0.393832256594598
40
0.393832256594598
40
0.494860213828824
40
0.494860213828824
40
0.520117203137382
40
0.520117203137382
40
0.545374192445939
40
0.545374192445939
40
0.570631181754497
40
0.570631181754497
40
0.595888171063055
40
0.595888171063055
40
0.696916128297281
40
0.696916128297281
40
0.747430106914395
40
0.747430106914395
40
0.772687096222952
40
0.772687096222952
40
0.79794408553151
40
0.79794408553151
40
0.810572580185789
40
0.810572580185789
40
0.823201074840069
40
0.848458064148631
40
0.848458064148631
40
0.898972042765754
40
0.898972042765754
40
0.949486021382877
40
0.949486021382877
40
1
40
1
40
1
40
1
41
1
10
25.0633928469008
20
-2.27499997588103
30
0
41
1
10
24.9751486201416
20
-2.27500181468975
30
0
41
1
10
24.8867145774182
20
-2.2718713154716
30
0
41
1
10
24.7421781912518
20
-2.26161430064587
30
0
41
1
10
24.6862961697277
20
-2.2564087333632
30
0
41
1
10
24.5741432202173
20
-2.24348411293238
30
0
41
1
10
24.518152013178
20
-2.23579692020422
30
0
41
1
10
24.3505202612469
20
-2.2092028236475
30
0
41
1
10
24.2390995679075
20
-2.18678119759699
30
0
41
1
10
24.0172664749394
20
-2.1326009152063
30
0
41
1
10
23.9067437399252
20
-2.10086270319403
30
0
41
1
10
23.575257352093
20
-1.99220389955559
30
0
41
1
10
23.354442377976
20
-1.90177536961215
30
0
41
1
10
23.1028476448647
20
-1.78164275181371
30
0
41
1
10
23.0748496541984
20
-1.76803871665101
30
0
41
1
10
23.0187545158651
20
-1.74032695739405
30
0
41
1
10
22.9906438512247
20
-1.72621231403534
30
0
41
1
10
22.9064690258653
20
-1.68329548544025
30
0
41
1
10
22.8504718945734
20
-1.65386139644437
30
0
41
1
10
22.6830437011193
20
-1.56292954927025
30
0
41
1
10
22.5720906270284
20
-1.49887318434148
30
0
41
1
10
22.2400497209092
20
-1.29760713536268
30
0
41
1
10
22.0197692649484
20
-1.15130922912496
30
0
41
1
10
21.7423193988465
20
-0.957026167115515
30
0
41
1
10
21.6867267438037
20
-0.917596541751948
30
0
41
1
10
21.575197987541
20
-0.837752114293011
30
0
41
1
10
21.5192357714272
20
-0.797371490544094
30
0
41
1
10
21.4070796230159
20
-0.715474694545378
30
0
41
1
10
21.3508459443025
20
-0.673921962177445
30
0
41
1
10
21.2389467494891
20
-0.590411355263399
30
0
41
1
10
21.1831736666744
20
-0.548378314363646
30
0
41
1
10
20.9049630895578
20
-0.337120342657386
30
0
41
1
10
20.684583962353
20
-0.164494488073387
30
0
41
1
10
20.3528179222911
20
0.0940410203343163
30
0
41
1
10
20.2420402501543
20
0.180165727300505
30
0
41
1
10
20.0750800730412
20
0.308606292830206
30
0
41
1
10
20.0192844816229
20
0.35128228480815
30
0
41
1
10
19.9075656409958
20
0.436565851962257
30
0
41
1
10
19.8516186100584
20
0.479142351795616
30
0
41
1
10
19.7675006660909
20
0.542824193659669
30
0
41
1
10
19.7394532993964
20
0.56400258679119
30
0
41
1
10
19.6834961365441
20
0.606121278402441
30
0
41
1
10
19.5996948545399
20
0.668997049026615
30
0
41
1
10
19.5162385364833
20
0.730898584758563
30
0
41
1
10
19.3496399058466
20
0.853238379527028
30
0
41
1
10
19.2390024809978
20
0.932859083469424
30
0
41
1
10
19.0178895175252
20
1.08745806205096
30
0
41
1
10
18.9073880860385
20
1.16240581408965
30
0
41
1
10
18.6857896837159
20
1.30684747255887
30
0
41
1
10
18.5746140452168
20
1.37626946491267
30
0
41
1
10
18.4632878332378
20
1.44309327309406
30
0
0
SPLINE
5
1CD
100
AcDbEntity
8
1
62
256
6
ByLayer
370
18
48
1
60
0
100
AcDbSpline
70
4
71
3
72
34
73
30
40
0
40
0
40
0
40
0
40
0.0001248050778394
40
0.0001248050778394
40
0.0305114616957082
40
0.0305114616957082
40
0.0912847749314459
40
0.0912847749314459
40
0.152058088167183
40
0.152058088167183
40
0.273604714638659
40
0.273604714638659
40
0.395151341110134
40
0.395151341110134
40
0.455924654345872
40
0.455924654345872
40
0.51669796758161
40
0.51669796758161
40
0.577471280817347
40
0.577471280817347
40
0.638244594053085
40
0.638244594053085
40
0.759791220524562
40
0.759791220524562
40
0.820564533760301
40
0.820564533760301
40
0.88133784699604
40
0.88133784699604
40
1
40
1
40
1
40
1
41
1
10
18.463288477568
20
1.44309271783502
30
0
41
1
10
18.4632455528294
20
1.4430636940842
30
0
41
1
10
18.4632026100162
20
1.44303465032735
30
0
41
1
10
18.4526998151198
20
1.43592932379886
30
0
41
1
10
18.4410789335109
20
1.42756840012845
30
0
41
1
10
18.4028272102456
20
1.3987357255163
30
0
41
1
10
18.3723852169324
20
1.37415561383472
30
0
41
1
10
18.3032960309681
20
1.31538283631835
30
0
41
1
10
18.2648233825728
20
1.28124000528104
30
0
41
1
10
18.1399022663546
20
1.16730421918805
30
0
41
1
10
18.0496542473698
20
1.08283941952379
30
0
41
1
10
17.8615289690031
20
0.902003847842622
30
0
41
1
10
17.7608861210871
20
0.802947119112673
30
0
41
1
10
17.6102610106713
20
0.650814157766774
30
0
41
1
10
17.5599767849889
20
0.59939979641976
30
0
41
1
10
17.4592411430082
20
0.495020790583311
30
0
41
1
10
17.4093286792799
20
0.442599267216167
30
0
41
1
10
17.3133883899506
20
0.340384363895083
30
0
41
1
10
17.2669338265422
20
0.290143079334371
30
0
41
1
10
17.1770168039293
20
0.19137052226759
30
0
41
1
10
17.1339210389073
20
0.143239615377922
30
0
41
1
10
17.013647228001
20
0.0066038363174243
30
0
41
1
10
16.9432651136769
20
-0.0767252016186433
30
0
41
1
10
16.8569147679705
20
-0.183842956103035
30
0
41
1
10
16.8308094876776
20
-0.217099850212492
30
0
41
1
10
16.7887283201243
20
-0.274350916819486
30
0
41
1
10
16.7726510220078
20
-0.298223374704747
30
0
41
1
10
16.7382479748896
20
-0.355684563120803
30
0
41
1
10
16.7317471481497
20
-0.377893911987741
30
0
41
1
10
16.7383209097935
20
-0.386482303924908
30
0
0
SPLINE
5
1CE
100
AcDbEntity
8
1
62
256
6
ByLayer
370
18
48
1
60
0
100
AcDbSpline
70
4
71
3
72
70
73
66
40
0
40
0
40
0
40
0
40
0.0623091771625418
40
0.0623091771625418
40
0.0934637657438127
40
0.0934637657438127
40
0.124618354325084
40
0.124618354325084
40
0.186927531487627
40
0.186927531487627
40
0.218082120068899
40
0.218082120068899
40
0.249236708650171
40
0.249236708650171
40
0.280391297231443
40
0.280391297231443
40
0.295968591522079
40
0.295968591522079
40
0.311545885812715
40
0.311545885812715
40
0.327123180103351
40
0.327123180103351
40
0.342700474393987
40
0.342700474393987
40
0.373855062975261
40
0.373855062975261
40
0.436164240137809
40
0.436164240137809
40
0.467318828719084
40
0.467318828719084
40
0.482896123009722
40
0.482896123009722
40
0.498473417300359
40
0.498473417300359
40
0.529628005881632
40
0.529628005881632
40
0.545205300172268
40
0.545205300172268
40
0.560782594462903
40
0.560782594462903
40
0.591937183044174
40
0.591937183044174
40
0.623091771625445
40
0.623091771625445
40
0.685400948787988
40
0.685400948787988
40
0.747710125950532
40
0.747710125950532
40
0.763287420241168
40
0.763287420241168
40
0.778864714531803
40
0.778864714531803
40
0.794442008822438
40
0.794442008822438
40
0.810019303113074
40
0.810019303113074
40
0.872328480275613
40
0.872328480275613
40
0.934637657438153
40
0.934637657438153
40
0.965792246019422
40
0.965792246019422
40
0.996946834600692
40
0.996946834600692
40
1
40
1
40
1
40
1
41
1
10
16.7383214134702
20
-0.386482985690805
30
0
41
1
10
16.8682992783367
20
-0.485215050135679
30
0
41
1
10
16.9974182098178
20
-0.582518072666346
30
0
41
1
10
17.1900253190347
20
-0.726044146469377
30
0
41
1
10
17.2539933776051
20
-0.77354717670579
30
0
41
1
10
17.3819647654966
20
-0.867245061211122
30
0
41
1
10
17.4460565714361
20
-0.913334703285045
30
0
41
1
10
17.6387036047153
20
-1.04929059851403
30
0
41
1
10
17.767511092885
20
-1.13698723896698
30
0
41
1
10
17.9617644787331
20
-1.26356184247641
30
0
41
1
10
18.0266984378661
20
-1.30491429651491
30
0
41
1
10
18.1569673366737
20
-1.38588696221839
30
0
41
1
10
18.2224034222453
20
-1.4255656988303
30
0
41
1
10
18.3525313167806
20
-1.50251438193169
30
0
41
1
10
18.4173307618852
20
-1.5398742757643
30
0
41
1
10
18.5141550314278
20
-1.59422342499138
30
0
41
1
10
18.5463810025876
20
-1.61204408485858
30
0
41
1
10
18.6108434981624
20
-1.64699868294491
30
0
41
1
10
18.6430791524511
20
-1.6641364965426
30
0
41
1
10
18.7071468803698
20
-1.69809310662592
30
0
41
1
10
18.7390921120795
20
-1.71480744752893
30
0
41
1
10
18.8031176492025
20
-1.74744136762797
30
0
41
1
10
18.8351584067522
20
-1.76339645592736
30
0
41
1
10
18.9313499592311
20
-1.81020247480319
30
0
41
1
10
18.9955637174248
20
-1.84000081199258
30
0
41
1
10
19.1883778993701
20
-1.92529913700065
30
0
41
1
10
19.317232724603
20
-1.9766469964371
30
0
41
1
10
19.511279198737
20
-2.04517548440543
30
0
41
1
10
19.5760842642159
20
-2.06660307357726
30
0
41
1
10
19.6735060888644
20
-2.09657197876956
30
0
41
1
10
19.7060162387448
20
-2.10619907162629
30
0
41
1
10
19.7711126708797
20
-2.12471800377185
30
0
41
1
10
19.8037334153867
20
-2.13361873493585
30
0
41
1
10
19.9014457599495
20
-2.15913351740144
30
0
41
1
10
19.966302603446
20
-2.17453482112432
30
0
41
1
10
20.0631586967721
20
-2.19523124840208
30
0
41
1
10
20.0953595753548
20
-2.20173348243759
30
0
41
1
10
20.1595917356052
20
-2.21393828918713
30
0
41
1
10
20.1916981079934
20
-2.21961629314984
30
0
41
1
10
20.2881118620635
20
-2.23536421473844
30
0
41
1
10
20.3524099630444
20
-2.24418198601043
30
0
41
1
10
20.4809439727487
20
-2.25854631137966
30
0
41
1
10
20.5451963486457
20
-2.26408637377014
30
0
41
1
10
20.7380946342087
20
-2.27580197650616
30
0
41
1
10
20.8669251099422
20
-2.2770853276036
30
0
41
1
10
21.1254371344109
20
-2.26661469099898
30
0
41
1
10
21.2551165450303
20
-2.25489379118994
30
0
41
1
10
21.4173641094354
20
-2.23160388179153
30
0
41
1
10
21.449850175138
20
-2.22650375099104
30
0
41
1
10
21.5145350395601
20
-2.21544942368774
30
0
41
1
10
21.5467446748386
20
-2.20948538764509
30
0
41
1
10
21.6114818945174
20
-2.19688894070052
30
0
41
1
10
21.643880847096
20
-2.19021958149923
30
0
41
1
10
21.7084430223102
20
-2.17603946512978
30
0
41
1
10
21.7406586256647
20
-2.16854543704909
30
0
41
1
10
21.9017340184808
20
-2.12919730715558
30
0
41
1
10
22.0305600156605
20
-2.09173552908726
30
0
41
1
10
22.2882198074558
20
-2.00531107863361
30
0
41
1
10
22.4170694385603
20
-1.95635662673135
30
0
41
1
10
22.6104185207986
20
-1.87424041779397
30
0
41
1
10
22.6748490352977
20
-1.84539056984823
30
0
41
1
10
22.8039350910162
20
-1.7848773127034
30
0
41
1
10
22.8686025124011
20
-1.75323005923272
30
0
41
1
10
22.9396155350392
20
-1.71679669964755
30
0
41
1
10
22.9459533024942
20
-1.71352963426847
30
0
41
1
10
22.952291565317
20
-1.71024808666763
30
0
0
SPLINE
5
1CF
100
AcDbEntity
8
1
62
256
6
ByLayer
370
18
48
1
60
0
100
AcDbSpline
70
4
71
3
72
8
73
4
40
0
40
0
40
0
40
0
40
1
40
1
40
1
40
1
41
1
10
30.132988467252
20
2.72418104754473
30
0
41
1
10
30.1584582715939
20
2.73953891210729
30
0
41
1
10
30.1838768576011
20
2.75461682752186
30
0
41
1
10
30.209241022842
20
2.76940397931213
30
0
0
SPLINE
5
1D0
100
AcDbEntity
8
1
62
256
6
ByLayer
370
18
48
1
60
0
100
AcDbSpline
70
4
71
3
72
8
73
4
40
0
40
0
40
0
40
0
40
1
40
1
40
1
40
1
41
1
10
32.146238879462
20
2.401605025203
30
0
41
1
10
32.1141715607305
20
2.42222108867199
30
0
41
1
10
32.0821278378834
20
2.44240507017136
30
0
41
1
10
32.0501033576019
20
2.46215443610581
30
0
0
SPLINE
5
1D1
100
AcDbEntity
8
1
62
256
6
ByLayer
370
18
48
1
60
0
100
AcDbSpline
70
4
71
3
72
8
73
4
40
0
40
0
40
0
40
0
40
1
40
1
40
1
40
1
41
1
10
34.2611948395052
20
0.55088711509714
30
0
41
1
10
34.2291012869453
20
0.584177334684227
30
0
41
1
10
34.1969739498927
20
0.617304748644756
30
0
41
1
10
34.1648194605808
20
0.6502767365061
30
0
0
SPLINE
5
1D2
100
AcDbEntity
8
1
62
256
6
ByLayer
370
18
48
1
60
0
100
AcDbSpline
70
4
71
3
72
8
73
4
40
0
40
0
40
0
40
0
40
1
40
1
40
1
40
1
41
1
10
35.3187359018009
20
-0.548277688707742
30
0
41
1
10
35.2866902102952
20
-0.515433989789614
30
0
41
1
10
35.2546326063756
20
-0.482532413138074
30
0
41
1
10
35.2225663190244
20
-0.449570264573453
30
0
0
SPLINE
5
1D3
100
AcDbEntity
8
1
62
256
6
ByLayer
370
18
48
1
60
0
100
AcDbSpline
70
4
71
3
72
35
73
31
40
0
40
0
40
0
40
0
40
0.0512173462705081
40
0.0512173462705081
40
0.18675772537473
40
0.18675772537473
40
0.254527914926841
40
0.254527914926841
40
0.322298104478952
40
0.322298104478952
40
0.457838483583165
40
0.457838483583165
40
0.491723578359218
40
0.491723578359218
40
0.52560867313527
40
0.52560867313527
40
0.593378862687375
40
0.593378862687375
40
0.66114905223948
40
0.66114905223948
40
0.695034147015532
40
0.695034147015532
40
0.728919241791585
40
0.796689431343701
40
0.796689431343701
40
0.83057452611976
40
0.83057452611976
40
0.864459620895818
40
0.864459620895818
40
1
40
1
40
1
40
1
41
1
10
40.6810373297061
20
-1.07161963528475
30
0
41
1
10
40.6910470377121
20
-1.07435185050181
30
0
41
1
10
40.7008465846325
20
-1.07699101221564
30
0
41
1
10
40.7357225014368
20
-1.08630354661889
30
0
41
1
10
40.7593996899656
20
-1.09245771555294
30
0
41
1
10
40.791330522745
20
-1.10122351219931
30
0
41
1
10
40.8013711234673
20
-1.10407070616682
30
0
41
1
10
40.8199687408352
20
-1.10973764338121
30
0
41
1
10
40.8285441440261
20
-1.11256338907663
30
0
41
1
10
40.8513636732249
20
-1.12121789876721
30
0
41
1
10
40.8626814040624
20
-1.12715127980488
30
0
41
1
10
40.8697765257925
20
-1.13617779115799
30
0
41
1
10
40.8708397247078
20
-1.1380669951302
30
0
41
1
10
40.872185631617
20
-1.14206457102691
30
0
41
1
10
40.8724674867586
20
-1.14417936999823
30
0
41
1
10
40.8720344687503
20
-1.15089318912075
30
0
41
1
10
40.8700501908967
20
-1.15584117979
30
0
41
1
10
40.8624601839512
20
-1.16708590602661
30
0
41
1
10
40.8568536913789
20
-1.1733835638326
30
0
41
1
10
40.8456017631333
20
-1.18417308131021
30
0
41
1
10
40.841359747115
20
-1.18800921869118
30
0
41
1
10
40.8320034603871
20
-1.19611115170025
30
0
41
1
10
40.8167171359469
20
-1.20886374104572
30
0
41
1
10
40.7979136790008
20
-1.22352628182199
30
0
41
1
10
40.7770470630929
20
-1.23958696763899
30
0
41
1
10
40.7697472979697
20
-1.24517322880055
30
0
41
1
10
40.7545010616313
20
-1.25682853212481
30
0
41
1
10
40.7465348677397
20
-1.26291267590321
30
0
41
1
10
40.7054143421835
20
-1.29440226991153
30
0
41
1
10
40.6689085643514
20
-1.3226758062813
30
0
41
1
10
40.6299999999999
20
-1.35401152680373
30
0
0
SPLINE
5
1D4
100
AcDbEntity
8
SK1
62
256
6
ByLayer
370
18
48
1
60
0
100
AcDbSpline
70
4
71
3
72
23
73
19
40
0
40
0
40
0
40
0
40
0.124962253972404
40
0.124962253972404
40
0.187443380958605
40
0.187443380958605
40
0.249924507944807
40
0.249924507944807
40
0.499849015889614
40
0.499849015889614
40
0.624811269862018
40
0.624811269862018
40
0.749773523834421
40
0.749773523834421
40
0.874735777806825
40
0.874735777806825
40
0.999698031779228
40
1
40
1
40
1
40
1
41
1
10
-21.87
20
2.42499999999998
30
0
41
1
10
-21.9161286994883
20
2.42499999999998
30
0
41
1
10
-21.9611809603311
20
2.42499999999998
30
0
41
1
10
-22.0267735041401
20
2.42499999999998
30
0
41
1
10
-22.0483224129895
20
2.42499999999998
30
0
41
1
10
-22.0905995560873
20
2.42499999999998
30
0
41
1
10
-22.1113088348484
20
2.42499999999998
30
0
41
1
10
-22.2125001674621
20
2.42499999999998
30
0
41
1
10
-22.2860194291454
20
2.42499999999998
30
0
41
1
10
-22.3799881112948
20
2.42499999999998
30
0
41
1
10
-22.4085719462844
20
2.42499999999998
30
0
41
1
10
-22.4591338700697
20
2.42499999999998
30
0
41
1
10
-22.4811148066356
20
2.42499999999998
30
0
41
1
10
-22.5171473245934
20
2.42499999999998
30
0
41
1
10
-22.5308921377331
20
2.42499999999998
30
0
41
1
10
-22.5493033979172
20
2.42499999999998
30
0
41
1
10
-22.55397895307
20
2.42499999999998
30
0
41
1
10
-22.5539602396981
20
2.42499999999998
30
0
41
1
10
-22.5539592395981
20
2.42499999999998
30
0
0
SPLINE
5
1D5
100
AcDbEntity
8
SK1
62
256
6
ByLayer
370
18
48
1
60
0
100
AcDbSpline
70
4
71
3
72
22
73
18
40
0
40
0
40
0
40
0
40
0.124551075290646
40
0.124551075290646
40
0.249615207391982
40
0.249615207391982
40
0.374679339493318
40
0.374679339493318
40
0.499743471594654
40
0.499743471594654
40
0.749871735797327
40
0.749871735797327
40
0.812403801847995
40
0.812403801847995
40
0.874935867898664
40
0.874935867898664
40
1
40
1
40
1
40
1
41
1
10
-22.553959999977
20
-2.42500000000004
30
0
41
1
10
-22.5539296318266
20
-2.42500000000004
30
0
41
1
10
-22.5492656332029
20
-2.42500000000001
30
0
41
1
10
-22.5308921377331
20
-2.42500000000004
30
0
41
1
10
-22.5171473245934
20
-2.42500000000004
30
0
41
1
10
-22.4811148066356
20
-2.42500000000004
30
0
41
1
10
-22.4591338700697
20
-2.42500000000004
30
0
41
1
10
-22.4085719462844
20
-2.42500000000004
30
0
41
1
10
-22.3799881112948
20
-2.42500000000004
30
0
41
1
10
-22.2860194291454
20
-2.42500000000004
30
0
41
1
10
-22.2125001674621
20
-2.42500000000004
30
0
41
1
10
-22.1113088348484
20
-2.42500000000004
30
0
41
1
10
-22.0905995560873
20
-2.42500000000004
30
0
41
1
10
-22.0483224129895
20
-2.42500000000004
30
0
41
1
10
-22.0267735041401
20
-2.42500000000004
30
0
41
1
10
-21.9611809603311
20
-2.42500000000004
30
0
41
1
10
-21.9161286994882
20
-2.42500000000004
30
0
41
1
10
-21.87
20
-2.42500000000001
30
0
0
SPLINE
5
1D6
100
AcDbEntity
8
SK1
62
256
6
ByLayer
370
18
48
1
60
0
100
AcDbSpline
70
4
71
3
72
39
73
35
40
0
40
0
40
0
40
0
40
0.125
40
0.125
40
0.15625
40
0.15625
40
0.1875
40
0.1875
40
0.25
40
0.25
40
0.374999999999999
40
0.374999999999999
40
0.406249999999999
40
0.406249999999999
40
0.421874999999999
40
0.421874999999999
40
0.4375
40
0.4375
40
0.5
40
0.5625
40
0.5625
40
0.625
40
0.625
40
0.6875
40
0.6875
40
0.75
40
0.75
40
0.875
40
0.875
40
0.90625
40
0.90625
40
0.9375
40
0.9375
40
1
40
1
40
1
40
1
41
1
10
-21.8700000000001
20
-1.94550951722172
30
0
41
1
10
-21.9617651518119
20
-1.79886711642567
30
0
41
1
10
-22.0492873517802
20
-1.64913452522694
30
0
41
1
10
-22.1505892647162
20
-1.45606885388207
30
0
41
1
10
-22.1704385682289
20
-1.41715632601688
30
0
41
1
10
-22.2092172904702
20
-1.33866130766719
30
0
41
1
10
-22.2280943359419
20
-1.2991823626638
30
0
41
1
10
-22.2829175461676
20
-1.18024215816848
30
0
41
1
10
-22.3171107315207
20
-1.100177554439
30
0
41
1
10
-22.4112462683972
20
-0.857219516933043
30
0
41
1
10
-22.4628058776618
20
-0.691581916396188
30
0
41
1
10
-22.5076299776698
20
-0.478110359126191
30
0
41
1
10
-22.5156089333792
20
-0.435093316048409
30
0
41
1
10
-22.5259821127037
20
-0.370045530477853
30
0
41
1
10
-22.5291781080732
20
-0.348242856020761
30
0
41
1
10
-22.534994808535
20
-0.304643440516486
30
0
41
1
10
-22.537615614096
20
-0.282853877047046
30
0
41
1
10
-22.5492720364585
20
-0.173957129743428
30
0
41
1
10
-22.5586325615654
20
-5.00669868018E-05
30
0
41
1
10
-22.5493033979172
20
0.173197642612138
30
0
41
1
10
-22.5308921377331
20
0.346124945108073
30
0
41
1
10
-22.5171473245934
20
0.432428458607632
30
0
41
1
10
-22.4811148066356
20
0.604734101101201
30
0
41
1
10
-22.4591338700697
20
0.689343813069286
30
0
41
1
10
-22.4085719462844
20
0.855900645063912
30
0
41
1
10
-22.3799881112948
20
0.937864176391628
30
0
41
1
10
-22.2860194291454
20
1.18048348504715
30
0
41
1
10
-22.2125001674621
20
1.33790092513371
30
0
41
1
10
-22.1113088348484
20
1.53097344768682
30
0
41
1
10
-22.0905995560873
20
1.56940044067244
30
0
41
1
10
-22.0483224129895
20
1.64591262089519
30
0
41
1
10
-22.0267735041401
20
1.68396212476608
30
0
41
1
10
-21.9611809603311
20
1.79726421471696
30
0
41
1
10
-21.9161286994883
20
1.87179500681108
30
0
41
1
10
-21.87
20
1.94550951722161
30
0
0
SPLINE
5
1D7
100
AcDbEntity
8
1
62
256
6
ByLayer
370
18
48
1
60
0
100
AcDbSpline
70
4
71
1
72
4
73
2
40
0
40
0
40
1
40
1
41
1
10
33.9369635490514
20
3.048212545371
30
0
41
1
10
33.7924342973653
20
2.79903306602335
30
0
0
SPLINE
5
1D8
100
AcDbEntity
8
1
62
256
6
ByLayer
370
18
48
1
60
0
100
AcDbSpline
70
4
71
1
72
4
73
2
40
0
40
0
40
1
40
1
41
1
10
40.63
20
2.08736163434767
30
0
41
1
10
40.3300000101907
20
2.38701784419595
30
0
0
SPLINE
5
1D9
100
AcDbEntity
8
1
62
256
6
ByLayer
370
18
48
1
60
0
100
AcDbSpline
70
4
71
3
72
10
73
6
40
0
40
0
40
0
40
0
40
0.567073900922187
40
0.86873049977121
40
1
40
1
40
1
40
1
41
1
10
32.8865725001683
20
-2.47287750086127
30
0
41
1
10
32.8967084119584
20
-2.45473574319462
30
0
41
1
10
32.91858780356
20
-2.43310624347637
30
0
41
1
10
32.9567331358727
20
-2.41696340489045
30
0
41
1
10
32.9745707941057
20
-2.41363212272373
30
0
41
1
10
32.9800500949375
20
-2.41296101434938
30
0
0
SPLINE
5
1DA
100
AcDbEntity
8
1
62
256
6
ByLayer
370
18
48
1
60
0
100
AcDbSpline
70
4
71
3
72
11
73
7
40
0
40
0
40
0
40
0
40
0.242427713417857
40
0.500325468576086
40
0.758004393467245
40
1
40
1
40
1
40
1
41
1
10
38.8849637242104
20
-2.47551589639974
30
0
41
1
10
38.8953603988896
20
-2.45686083395651
30
0
41
1
10
38.923787269486
20
-2.42809792208212
30
0
41
1
10
38.9998328664128
20
-2.40543890640555
30
0
41
1
10
39.0759328973405
20
-2.43318998587074
30
0
41
1
10
39.104356287579
20
-2.46568626611463
30
0
41
1
10
39.1147579860865
20
-2.48619158568724
30
0
0
SPLINE
5
1DB
100
AcDbEntity
8
1
62
256
6
ByLayer
370
18
48
1
60
0
100
AcDbSpline
70
4
71
3
72
11
73
7
40
0
40
0
40
0
40
0
40
0.242972445196854
40
0.499820034975049
40
0.756847095170398
40
1
40
1
40
1
40
1
41
1
10
34.6045362392227
20
2.47534072912862
30
0
41
1
10
34.5943786110158
20
2.45688495734626
30
0
41
1
10
34.5663838743172
20
2.42851082089368
30
0
41
1
10
34.4904743372712
20
2.40555420351603
30
0
41
1
10
34.4146274400417
20
2.43306355979837
30
0
41
1
10
34.3865974848979
20
2.46475509806811
30
0
41
1
10
34.3764227441165
20
2.48487495677117
30
0
0
SPLINE
5
1DC
100
AcDbEntity
8
1
62
256
6
ByLayer
370
18
48
1
60
0
100
AcDbSpline
70
4
71
2
72
6
73
3
40
0
40
0
40
0
40
1
40
1
40
1
41
1
10
38.633817481841
20
-2.90771507407609
30
0
41
1
10
38.7607773157572
20
-2.68896857128294
30
0
41
1
10
38.8882555356694
20
-2.46996003719715
30
0
0
SPLINE
5
1DD
100
AcDbEntity
8
1
62
256
6
ByLayer
370
18
48
1
60
0
100
AcDbSpline
70
4
71
2
72
6
73
3
40
0
40
0
40
0
40
1
40
1
40
1
41
1
10
32.5520451117598
20
-3.0484299808397
30
0
41
1
10
32.7193881264486
20
-2.75999395196737
30
0
41
1
10
32.8872086640756
20
-2.47181146994112
30
0
0
SPLINE
5
1DE
100
AcDbEntity
8
1
62
256
6
ByLayer
370
18
48
1
60
0
100
AcDbSpline
70
4
71
2
72
6
73
3
40
0
40
0
40
0
40
1
40
1
40
1
41
1
10
32.1009744117486
20
-2.4692499016021
30
0
41
1
10
32.2681267509863
20
-2.75654830273933
30
0
41
1
10
32.4350101902734
20
-3.04438938214764
30
0
0
SPLINE
5
1DF
100
AcDbEntity
8
1
62
256
6
ByLayer
370
18
48
1
60
0
100
AcDbSpline
70
4
71
2
72
6
73
3
40
0
40
0
40
0
40
1
40
1
40
1
41
1
10
34.9368937560268
20
3.0481777366021
30
0
41
1
10
34.7699018385277
20
2.76002145068631
30
0
41
1
10
34.6025447871605
20
2.47210824337952
30
0
0
SPLINE
5
1E0
100
AcDbEntity
8
1
62
256
6
ByLayer
370
18
48
1
60
0
100
AcDbSpline
70
4
71
1
72
4
73
2
40
0
40
0
40
1
40
1
41
1
10
38.4160309449325
20
-2.98836402376668
30
0
41
1
10
38.62679647445
20
-2.9162707193183
30
0
0
SPLINE
5
1E1
100
AcDbEntity
8
1
62
256
6
ByLayer
370
18
48
1
60
0
100
AcDbSpline
70
4
71
2
72
6
73
3
40
0
40
0
40
0
40
1
40
1
40
1
41
1
10
38.1006422890175
20
-2.4688942634661
30
0
41
1
10
38.2495453331195
20
-2.72512090990642
30
0
41
1
10
38.3976516280431
20
-2.98062518985404
30
0
0
SPLINE
5
1E2
100
AcDbEntity
8
1
62
256
6
ByLayer
370
18
48
1
60
0
100
AcDbSpline
70
4
71
2
72
6
73
3
40
0
40
0
40
0
40
1
40
1
40
1
41
1
10
35.3878976863513
20
2.47050604118334
30
0
41
1
10
35.2197816189397
20
2.75939741387299
30
0
41
1
10
35.0520373027497
20
3.04866233463929
30
0
0
SPLINE
5
1E3
100
AcDbEntity
8
1
62
256
6
ByLayer
370
18
48
1
60
0
100
AcDbSpline
70
4
71
3
72
11
73
7
40
0
40
0
40
0
40
0
40
0.247622267947274
40
0.500231296875851
40
0.75262285597636
40
1
40
1
40
1
40
1
41
1
10
31.8890549977257
20
-2.46870780558885
30
0
41
1
10
31.8975169013103
20
-2.45332174340646
30
0
41
1
10
31.9224505678834
20
-2.43006436885085
30
0
41
1
10
31.9957734604712
20
-2.40702353491432
30
0
41
1
10
32.0691736596182
20
-2.4316354272909
30
0
41
1
10
32.0940805792357
20
-2.45606339248531
30
0
41
1
10
32.102532015507
20
-2.47204510499486
30
0
0
SPLINE
5
1E4
100
AcDbEntity
8
1
62
256
6
ByLayer
370
18
48
1
60
0
100
AcDbSpline
70
4
71
3
72
11
73
7
40
0
40
0
40
0
40
0
40
0.247959804282874
40
0.500974339639578
40
0.753454463810537
40
1
40
1
40
1
40
1
41
1
10
37.8874925672814
20
-2.47109532834992
30
0
41
1
10
37.8960603136334
20
-2.45504585317016
30
0
41
1
10
37.9212142193217
20
-2.43067807852188
30
0
41
1
10
37.9947919065232
20
-2.40675101024976
30
0
41
1
10
38.0684801921548
20
-2.43099005200835
30
0
41
1
10
38.0936870709476
20
-2.45571010170335
30
0
41
1
10
38.1023142413928
20
-2.47190792372012
30
0
0
SPLINE
5
1E5
100
AcDbEntity
8
1
62
256
6
ByLayer
370
18
48
1
60
0
100
AcDbSpline
70
4
71
3
72
11
73
7
40
0
40
0
40
0
40
0
40
0.247829349510543
40
0.501063079967265
40
0.753848385692434
40
1
40
1
40
1
40
1
41
1
10
35.6028684079577
20
2.47302774229789
30
0
41
1
10
35.5942078755335
20
2.45659938641242
30
0
41
1
10
35.5688769483465
20
2.43155145559595
30
0
41
1
10
35.4950620614686
20
2.40700312758835
30
0
41
1
10
35.4211947674769
20
2.43088159554682
30
0
41
1
10
35.3957289084599
20
2.45581092261108
30
0
41
1
10
35.3869553051471
20
2.47216781723634
30
0
0
SPLINE
5
1E6
100
AcDbEntity
8
1
62
256
6
ByLayer
370
18
48
1
60
0
100
AcDbSpline
70
4
71
2
72
6
73
3
40
0
40
0
40
0
40
1
40
1
40
1
41
1
10
31.5504958712335
20
-3.05139935764643
30
0
41
1
10
31.7169554954166
20
-2.7643289347794
30
0
41
1
10
31.8835514538914
20
-2.47771301370341
30
0
0
SPLINE
5
1E7
100
AcDbEntity
8
1
62
256
6
ByLayer
370
18
48
1
60
0
100
AcDbSpline
70
4
71
2
72
6
73
3
40
0
40
0
40
0
40
1
40
1
40
1
41
1
10
31.0253184976673
20
-2.42289931563215
30
0
41
1
10
31.0830773082309
20
-2.42726798249407
30
0
41
1
10
31.0966868782809
20
-2.46044517353627
30
0
0
SPLINE
5
1E8
100
AcDbEntity
8
1
62
256
6
ByLayer
370
18
48
1
60
0
100
AcDbSpline
70
4
71
2
72
6
73
3
40
0
40
0
40
0
40
1
40
1
40
1
41
1
10
31.104656251571
20
-2.47554004457658
30
0
41
1
10
31.2718815348712
20
-2.76338641571829
30
0
41
1
10
31.4387841401232
20
-3.05139977433595
30
0
0
SPLINE
5
1E9
100
AcDbEntity
8
1
62
256
6
ByLayer
370
18
48
1
60
0
100
AcDbSpline
70
4
71
2
72
6
73
3
40
0
40
0
40
0
40
1
40
1
40
1
41
1
10
37.5469403529439
20
-3.05538053027235
30
0
41
1
10
37.7133596748955
20
-2.76835212824972
30
0
41
1
10
37.8798922797904
20
-2.48161075456716
30
0
0
SPLINE
5
1EA
100
AcDbEntity
8
1
62
256
6
ByLayer
370
18
48
1
60
0
100
AcDbSpline
70
4
71
2
72
6
73
3
40
0
40
0
40
0
40
1
40
1
40
1
41
1
10
37.0526640148152
20
-2.42827030635613
30
0
41
1
10
37.0642549522761
20
-2.43243915010498
30
0
41
1
10
37.0721376408692
20
-2.4363214479647
30
0
0
SPLINE
5
1EB
100
AcDbEntity
8
1
62
256
6
ByLayer
370
18
48
1
60
0
100
AcDbSpline
70
4
71
1
72
4
73
2
40
0
40
0
40
1
40
1
41
1
10
37.0870681781967
20
-2.4467973660081
30
0
41
1
10
37.0928192516345
20
-2.45083250975202
30
0
0
SPLINE
5
1EC
100
AcDbEntity
8
1
62
256
6
ByLayer
370
18
48
1
60
0
100
AcDbSpline
70
4
71
2
72
6
73
3
40
0
40
0
40
0
40
1
40
1
40
1
41
1
10
36.4349093353391
20
2.42803485465805
30
0
41
1
10
36.4237542878236
20
2.43227107822068
30
0
41
1
10
36.4162821547242
20
2.43562241406204
30
0
0
SPLINE
5
1ED
100
AcDbEntity
8
1
62
256
6
ByLayer
370
18
48
1
60
0
100
AcDbSpline
70
4
71
1
72
4
73
2
40
0
40
0
40
1
40
1
41
1
10
36.4028103116172
20
2.44306625280979
30
0
41
1
10
36.3986817541286
20
2.44534747124231
30
0
0
SPLINE
5
1EE
100
AcDbEntity
8
1
62
256
6
ByLayer
370
18
48
1
60
0
100
AcDbSpline
70
4
71
2
72
6
73
3
40
0
40
0
40
0
40
1
40
1
40
1
41
1
10
35.9436691369188
20
3.05749666447784
30
0
41
1
10
35.7775217836775
20
2.77051189193935
30
0
41
1
10
35.6112795675696
20
2.48368619543018
30
0
0
SPLINE
5
1EF
100
AcDbEntity
8
1
62
256
6
ByLayer
370
18
48
1
60
0
100
AcDbSpline
70
4
71
2
72
6
73
3
40
0
40
0
40
0
40
1
40
1
40
1
41
1
10
37.103749017443
20
-2.4740685615659
30
0
41
1
10
37.2705232466238
20
-2.76099602996817
30
0
41
1
10
37.437080287043
20
-3.04836400768849
30
0
0
SPLINE
5
1F0
100
AcDbEntity
8
1
62
256
6
ByLayer
370
18
48
1
60
0
100
AcDbSpline
70
4
71
2
72
6
73
3
40
0
40
0
40
0
40
1
40
1
40
1
41
1
10
30.4272862142508
20
2.42739576095681
30
0
41
1
10
30.4196618404208
20
2.43008857890521
30
0
41
1
10
30.4146320474912
20
2.4315918909254
30
0
0
SPLINE
5
1F1
100
AcDbEntity
8
1
62
256
6
ByLayer
370
18
48
1
60
0
100
AcDbSpline
70
4
71
1
72
4
73
2
40
0
40
0
40
1
40
1
41
1
10
30.4065108891154
20
2.4334753106312
30
0
41
1
10
30.4024367545255
20
2.43442017767487
30
0
0
SPLINE
5
1F2
100
AcDbEntity
8
1
62
256
6
ByLayer
370
18
48
1
60
0
100
AcDbSpline
70
4
71
2
72
6
73
3
40
0
40
0
40
0
40
1
40
1
40
1
41
1
10
30.3871761507972
20
2.47209806520371
30
0
41
1
10
30.3047534329436
20
2.61364977878736
30
0
41
1
10
30.2224954315752
20
2.75526936159648
30
0
0
SPLINE
5
1F3
100
AcDbEntity
8
1
62
256
6
ByLayer
370
18
48
1
60
0
100
AcDbSpline
70
4
71
2
72
6
73
3
40
0
40
0
40
0
40
1
40
1
40
1
41
1
10
36.3876043096673
20
2.47071790566693
30
0
41
1
10
36.2207903969259
20
2.75708141599776
30
0
41
1
10
36.0541518127937
20
3.04413150885765
30
0
0
LINE
5
81
100
AcDbEntity
8
SK4
62
256
6
ByLayer
370
18
48
0.05
60
0
100
AcDbLine
10
-22.87
20
0
30
0
11
42.03
21
0
31
0
39
0
210
0
220
0
230
1
0
LINE
5
83
100
AcDbEntity
8
80
62
256
6
ByLayer
370
18
48
1
60
0
100
AcDbLine
10
0
20
0
30
0
11
-5
21
0
31
0
39
0
210
0
220
0
230
1
0
LINE
5
84
100
AcDbEntity
8
4
62
256
6
ByLayer
370
18
48
0.05
60
0
100
AcDbLine
10
0
20
0
30
0
11
42.03
21
0
31
0
39
0
210
0
220
0
230
1
0
LINE
5
86
100
AcDbEntity
8
81
62
256
6
ByLayer
370
18
48
1
60
0
100
AcDbLine
10
42.03
20
0
30
0
11
47.03
21
0
31
0
39
0
210
0
220
0
230
1
0
LINE
5
87
100
AcDbEntity
8
1
62
256
6
ByLayer
370
18
48
1
60
0
100
AcDbLine
10
0
20
3.2385
30
0
11
0
21
-3.2385
31
0
39
0
210
0
220
0
230
1
0
LINE
5
88
100
AcDbEntity
8
1
62
256
6
ByLayer
370
18
48
1
60
0
100
AcDbLine
10
40.33
20
2.389946
30
0
11
40.33
21
2.387031
31
0
39
0
210
0
220
0
230
1
0
LINE
5
89
100
AcDbEntity
8
1
62
256
6
ByLayer
370
18
48
1
60
0
100
AcDbLine
10
39.115136
20
-2.486381
30
0
11
39.110111
21
-2.482699
31
0
39
0
210
0
220
0
230
1
0
LINE
5
8A
100
AcDbEntity
8
1
62
256
6
ByLayer
370
18
48
1
60
0
100
AcDbLine
10
34.38072
20
2.48109
30
0
11
34.375985
21
2.485159
31
0
39
0
210
0
220
0
230
1
0
LINE
5
8B
100
AcDbEntity
8
1
62
256
6
ByLayer
370
18
48
1
60
0
100
AcDbLine
10
38.887987
20
-2.470452
30
0
11
38.884956
21
-2.475528
31
0
39
0
210
0
220
0
230
1
0
LINE
5
8C
100
AcDbEntity
8
1
62
256
6
ByLayer
370
18
48
1
60
0
100
AcDbLine
10
34.604698
20
2.475587
30
0
11
34.602574
21
2.472158
31
0
39
0
210
0
220
0
230
1
0
LINE
5
8D
100
AcDbEntity
8
1
62
256
6
ByLayer
370
18
48
1
60
0
100
AcDbLine
10
38.103371
20
-2.473672
30
0
11
38.100674
21
-2.468955
31
0
39
0
210
0
220
0
230
1
0
LINE
5
8E
100
AcDbEntity
8
1
62
256
6
ByLayer
370
18
48
1
60
0
100
AcDbLine
10
35.387876
20
2.470545
30
0
11
35.385558
21
2.474474
31
0
39
0
210
0
220
0
230
1
0
LINE
5
8F
100
AcDbEntity
8
1
62
256
6
ByLayer
370
18
48
1
60
0
100
AcDbLine
10
31.888443
20
-2.469856
30
0
11
31.883469
21
-2.477825
31
0
39
0
210
0
220
0
230
1
0
LINE
5
90
100
AcDbEntity
8
1
62
256
6
ByLayer
370
18
48
1
60
0
100
AcDbLine
10
31.552843
20
-3.047357
30
0
11
31.546695
21
-3.054434
31
0
39
0
210
0
220
0
230
1
0
LINE
5
91
100
AcDbEntity
8
1
62
256
6
ByLayer
370
13
48
1
60
0
100
AcDbLine
10
29.599354
20
2.403549
30
0
11
29.599354
21
2.086305
31
0
39
0
210
0
220
0
230
1
0
LINE
5
92
100
AcDbEntity
8
1
62
256
6
ByLayer
370
13
48
1
60
0
100
AcDbLine
10
29.13582
20
2.139989
30
0
11
29.13582
21
2.275
31
0
39
0
210
0
220
0
230
1
0
LINE
5
93
100
AcDbEntity
8
1
62
256
6
ByLayer
370
13
48
1
60
0
100
AcDbLine
10
29.13582
20
-1.738616
30
0
11
29.13582
21
-0.47931
31
0
39
0
210
0
220
0
230
1
0
LINE
5
94
100
AcDbEntity
8
1
62
256
6
ByLayer
370
13
48
1
60
0
100
AcDbLine
10
29.599354
20
-0.849325
30
0
11
29.599354
21
-2.076731
31
0
39
0
210
0
220
0
230
1
0
LINE
5
95
100
AcDbEntity
8
1
62
256
6
ByLayer
370
13
48
1
60
0
100
AcDbLine
10
13.924744
20
-2.275
30
0
11
13.924744
21
2.275
31
0
39
0
210
0
220
0
230
1
0
LINE
5
96
100
AcDbEntity
8
1
62
256
6
ByLayer
370
13
48
1
60
0
100
AcDbLine
10
13.374744
20
2.422372
30
0
11
13.374744
21
-2.422372
31
0
39
0
210
0
220
0
230
1
0
LINE
5
97
100
AcDbEntity
8
1
62
256
6
ByLayer
370
18
48
1
60
0
100
AcDbLine
10
11.961169
20
3.2385
30
0
11
11.961169
21
-3.2385
31
0
39
0
210
0
220
0
230
1
0
LINE
5
98
100
AcDbEntity
8
SK1
62
256
6
ByLayer
370
18
48
1
60
0
100
AcDbLine
10
-22.87
20
2.10896
30
0
11
-22.87
21
-2.10896
31
0
39
0
210
0
220
0
230
1
0
LINE
5
9A
100
AcDbEntity
8
SK1
62
256
6
ByLayer
370
18
48
1
60
0
100
AcDbLine
10
-15
20
1.94551
30
0
11
-15
21
-1.94551
31
0
39
0
210
0
220
0
230
1
0
LINE
5
9B
100
AcDbEntity
8
SK1
62
256
6
ByLayer
370
18
48
1
60
0
100
AcDbLine
10
-15
20
2.425
30
0
11
-14.31604
21
3.10896
31
0
39
0
210
0
220
0
230
1
0
LINE
5
9C
100
AcDbEntity
8
SK1
62
256
6
ByLayer
370
18
48
1
60
0
100
AcDbLine
10
-21.87
20
2.425
30
0
11
-15
21
2.425
31
0
39
0
210
0
220
0
230
1
0
LINE
5
9D
100
AcDbEntity
8
SK1
62
256
6
ByLayer
370
18
48
1
60
0
100
AcDbLine
10
-21.87
20
1.94551
30
0
11
-21.87
21
2.425
31
0
39
0
210
0
220
0
230
1
0
LINE
5
9E
100
AcDbEntity
8
SK1
62
256
6
ByLayer
370
18
48
1
60
0
100
AcDbLine
10
-15
20
1.94551
30
0
11
-21.87
21
1.94551
31
0
39
0
210
0
220
0
230
1
0
LINE
5
9F
100
AcDbEntity
8
SK1
62
256
6
ByLayer
370
18
48
1
60
0
100
AcDbLine
10
-21.87
20
-1.94551
30
0
11
-15
21
-1.94551
31
0
39
0
210
0
220
0
230
1
0
LINE
5
A0
100
AcDbEntity
8
SK1
62
256
6
ByLayer
370
18
48
1
60
0
100
AcDbLine
10
-21.87
20
-2.425
30
0
11
-21.87
21
-1.94551
31
0
39
0
210
0
220
0
230
1
0
LINE
5
A1
100
AcDbEntity
8
SK1
62
256
6
ByLayer
370
18
48
1
60
0
100
AcDbLine
10
-15
20
-2.425
30
0
11
-21.87
21
-2.425
31
0
39
0
210
0
220
0
230
1
0
LINE
5
A2
100
AcDbEntity
8
SK1
62
256
6
ByLayer
370
18
48
1
60
0
100
AcDbLine
10
-15
20
-2.425
30
0
11
-14.31604
21
-3.10896
31
0
39
0
210
0
220
0
230
1
0
LINE
5
A3
100
AcDbEntity
8
SK1
62
256
6
ByLayer
370
18
48
1
60
0
100
AcDbLine
10
0
20
3.2385
30
0
11
0
21
-3.2385
31
0
39
0
210
0
220
0
230
1
0
LINE
5
A4
100
AcDbEntity
8
SK1
62
256
6
ByLayer
370
18
48
1
60
0
100
AcDbLine
10
-14.213
20
3.10896
30
0
11
-14.213
21
-3.10896
31
0
39
0
210
0
220
0
230
1
0
LINE
5
A5
100
AcDbEntity
8
SK1
62
256
6
ByLayer
370
18
48
1
60
0
100
AcDbLine
10
-14.08346
20
-3.2385
30
0
11
-14.08346
21
3.2385
31
0
39
0
210
0
220
0
230
1
0
LINE
5
A6
100
AcDbEntity
8
1
62
256
6
ByLayer
370
18
48
1
60
0
100
AcDbLine
10
30.128609
20
2.721558
30
0
11
29.599354
21
2.403549
31
0
39
0
210
0
220
0
230
1
0
LINE
5
A7
100
AcDbEntity
8
1
62
256
6
ByLayer
370
18
48
1
60
0
100
AcDbLine
10
11.961169
20
3.2385
30
0
11
0
21
3.2385
31
0
39
0
210
0
220
0
230
1
0
LINE
5
A8
100
AcDbEntity
8
1
62
256
6
ByLayer
370
18
48
1
60
0
100
AcDbLine
10
0
20
-3.2385
30
0
11
11.961169
21
-3.2385
31
0
39
0
210
0
220
0
230
1
0
LINE
5
A9
100
AcDbEntity
8
1
62
256
6
ByLayer
370
18
48
1
60
0
100
AcDbLine
10
32.449203
20
-3.05706
30
0
11
32.539809
21
-3.05706
31
0
39
0
210
0
220
0
230
1
0
LINE
5
AA
100
AcDbEntity
8
1
62
256
6
ByLayer
370
18
48
1
60
0
100
AcDbLine
10
35.040154
20
3.05706
30
0
11
34.949218
21
3.05706
31
0
39
0
210
0
220
0
230
1
0
LINE
5
AB
100
AcDbEntity
8
1
62
256
6
ByLayer
370
18
48
1
60
0
100
AcDbLine
10
42.03
20
0
30
0
11
40.63
21
1.4
31
0
39
0
210
0
220
0
230
1
0
LINE
5
AC
100
AcDbEntity
8
1
62
256
6
ByLayer
370
18
48
1
60
0
100
AcDbLine
10
40.848249
20
-1.181751
30
0
11
42.03
21
0
31
0
39
0
210
0
220
0
230
1
0
LINE
5
AD
100
AcDbEntity
8
1
62
256
6
ByLayer
370
18
48
1
60
0
100
AcDbLine
10
31.449117
20
-3.05706
30
0
11
31.540066
21
-3.05706
31
0
39
0
210
0
220
0
230
1
0
LINE
5
AE
100
AcDbEntity
8
1
62
256
6
ByLayer
370
18
48
1
60
0
100
AcDbLine
10
37.449091
20
-3.05706
30
0
11
37.539756
21
-3.05706
31
0
39
0
210
0
220
0
230
1
0
LINE
5
AF
100
AcDbEntity
8
1
62
256
6
ByLayer
370
18
48
1
60
0
100
AcDbLine
10
36.039962
20
3.05706
30
0
11
35.949073
21
3.05706
31
0
39
0
210
0
220
0
230
1
0
LINE
5
B0
100
AcDbEntity
8
1
62
256
6
ByLayer
370
18
48
1
60
0
100
AcDbLine
10
13.924744
20
-2.275
30
0
11
15.290852
21
-2.275
31
0
39
0
210
0
220
0
230
1
0
LINE
5
B1
100
AcDbEntity
8
1
62
256
6
ByLayer
370
18
48
1
60
0
100
AcDbLine
10
18.942641
20
-2.275
30
0
11
20.840013
21
-2.275
31
0
39
0
210
0
220
0
230
1
0
LINE
5
B2
100
AcDbEntity
8
1
62
256
6
ByLayer
370
18
48
1
60
0
100
AcDbLine
10
25.063396
20
-2.275
30
0
11
26.981789
21
-2.275
31
0
39
0
210
0
220
0
230
1
0
LINE
5
B3
100
AcDbEntity
8
1
62
256
6
ByLayer
370
18
48
1
60
0
100
AcDbLine
10
29.13582
20
2.275
30
0
11
28.123377
21
2.275
31
0
39
0
210
0
220
0
230
1
0
LINE
5
B4
100
AcDbEntity
8
1
62
256
6
ByLayer
370
18
48
1
60
0
100
AcDbLine
10
23.911058
20
2.275
30
0
11
22.003287
21
2.275
31
0
39
0
210
0
220
0
230
1
0
LINE
5
B5
100
AcDbEntity
8
1
62
256
6
ByLayer
370
18
48
1
60
0
100
AcDbLine
10
17.771089
20
2.275
30
0
11
13.924744
21
2.275
31
0
39
0
210
0
220
0
230
1
0
LINE
5
B6
100
AcDbEntity
8
1
62
256
6
ByLayer
370
18
48
1
60
0
100
AcDbLine
10
13.374744
20
2.422372
30
0
11
11.961169
21
3.2385
31
0
39
0
210
0
220
0
230
1
0
LINE
5
B7
100
AcDbEntity
8
1
62
256
6
ByLayer
370
18
48
1
60
0
100
AcDbLine
10
11.961169
20
-3.2385
30
0
11
13.374744
21
-2.422372
31
0
39
0
210
0
220
0
230
1
0
LINE
5
B8
100
AcDbEntity
8
SK1
62
256
6
ByLayer
370
18
48
1
60
0
100
AcDbLine
10
-22.87
20
-2.10896
30
0
11
-22.55396
21
-2.425
31
0
39
0
210
0
220
0
230
1
0
LINE
5
B9
100
AcDbEntity
8
SK1
62
256
6
ByLayer
370
18
48
1
60
0
100
AcDbLine
10
-22.55396
20
2.425
30
0
11
-22.87
21
2.10896
31
0
39
0
210
0
220
0
230
1
0
LINE
5
BA
100
AcDbEntity
8
SK1
62
256
6
ByLayer
370
18
48
1
60
0
100
AcDbLine
10
-14.213
20
3.10896
30
0
11
-14.31604
21
3.10896
31
0
39
0
210
0
220
0
230
1
0
LINE
5
BB
100
AcDbEntity
8
SK1
62
256
6
ByLayer
370
18
48
1
60
0
100
AcDbLine
10
-14.31604
20
-3.10896
30
0
11
-14.213
21
-3.10896
31
0
39
0
210
0
220
0
230
1
0
LINE
5
BC
100
AcDbEntity
8
SK1
62
256
6
ByLayer
370
18
48
1
60
0
100
AcDbLine
10
0
20
3.2385
30
0
11
-14.08346
21
3.2385
31
0
39
0
210
0
220
0
230
1
0
LINE
5
BD
100
AcDbEntity
8
SK1
62
256
6
ByLayer
370
18
48
1
60
0
100
AcDbLine
10
-14.08346
20
-3.2385
30
0
11
0
21
-3.2385
31
0
39
0
210
0
220
0
230
1
0
LINE
5
BE
100
AcDbEntity
8
SK1
62
256
6
ByLayer
370
18
48
1
60
0
100
AcDbLine
10
-14.213
20
-3.10896
30
0
11
-14.08346
21
-3.2385
31
0
39
0
210
0
220
0
230
1
0
LINE
5
BF
100
AcDbEntity
8
SK1
62
256
6
ByLayer
370
18
48
1
60
0
100
AcDbLine
10
-14.08346
20
3.2385
30
0
11
-14.213
21
3.10896
31
0
39
0
210
0
220
0
230
1
0
LINE
5
C0
100
AcDbEntity
8
SK2
62
256
6
ByLayer
370
18
48
1
60
0
100
AcDbLine
10
6.938855
20
26.337127
30
0
11
6.938855
21
-10.7385
31
0
39
0
210
0
220
0
230
1
0
LINE
5
C2
100
AcDbEntity
8
1
62
256
6
ByLayer
370
18
48
1
60
1
100
AcDbLine
10
6.938855
20
3.2385
30
0
11
6.478071
21
6.738498
31
0
39
0
210
0
220
0
230
1
0
LINE
5
C3
100
AcDbEntity
8
1
62
256
6
ByLayer
370
18
48
1
60
1
100
AcDbLine
10
6.478071
20
6.738498
30
0
11
7.399638
21
6.738502
31
0
39
0
210
0
220
0
230
1
0
LINE
5
C4
100
AcDbEntity
8
1
62
256
6
ByLayer
370
18
48
1
60
1
100
AcDbLine
10
7.399638
20
6.738502
30
0
11
6.938855
21
3.2385
31
0
39
0
210
0
220
0
230
1
0
LINE
5
C5
100
AcDbEntity
8
1
62
256
6
ByLayer
370
18
48
1
60
1
100
AcDbLine
10
6.938855
20
-3.2385
30
0
11
7.399638
21
-6.738498
31
0
39
0
210
0
220
0
230
1
0
LINE
5
C6
100
AcDbEntity
8
1
62
256
6
ByLayer
370
18
48
1
60
1
100
AcDbLine
10
7.399638
20
-6.738498
30
0
11
6.478071
21
-6.738502
31
0
39
0
210
0
220
0
230
1
0
LINE
5
C7
100
AcDbEntity
8
1
62
256
6
ByLayer
370
18
48
1
60
1
100
AcDbLine
10
6.478071
20
-6.738502
30
0
11
6.938855
21
-3.2385
31
0
39
0
210
0
220
0
230
1
0
LINE
5
C8
100
AcDbEntity
8
2
62
256
6
ByLayer
370
18
48
1
60
0
100
AcDbLine
10
40.63
20
-40.55706
30
0
11
-22.87
21
-40.55706
31
0
39
0
210
0
220
0
230
1
0
LINE
5
CA
100
AcDbEntity
8
2
62
256
6
ByLayer
370
18
48
1
60
0
100
AcDbLine
10
-22.87
20
-3.69646
30
0
11
-22.87
21
-42.55706
31
0
39
0
210
0
220
0
230
1
0
LINE
5
CB
100
AcDbEntity
8
2
62
256
6
ByLayer
370
18
48
1
60
0
100
AcDbLine
10
40.63
20
-4.64456
30
0
11
40.63
21
-42.55706
31
0
39
0
210
0
220
0
230
1
0
LINE
5
CC
100
AcDbEntity
8
1
62
256
6
ByLayer
370
18
48
1
60
1
100
AcDbLine
10
-22.87
20
-40.55706
30
0
11
-19.370002
21
-40.096276
31
0
39
0
210
0
220
0
230
1
0
LINE
5
CD
100
AcDbEntity
8
1
62
256
6
ByLayer
370
18
48
1
60
1
100
AcDbLine
10
-19.370002
20
-40.096276
30
0
11
-19.369998
21
-41.017844
31
0
39
0
210
0
220
0
230
1
0
LINE
5
CE
100
AcDbEntity
8
1
62
256
6
ByLayer
370
18
48
1
60
1
100
AcDbLine
10
-19.369998
20
-41.017844
30
0
11
-22.87
21
-40.55706
31
0
39
0
210
0
220
0
230
1
0
LINE
5
CF
100
AcDbEntity
8
1
62
256
6
ByLayer
370
18
48
1
60
1
100
AcDbLine
10
40.63
20
-40.55706
30
0
11
37.130002
21
-41.017844
31
0
39
0
210
0
220
0
230
1
0
LINE
5
D0
100
AcDbEntity
8
1
62
256
6
ByLayer
370
18
48
1
60
1
100
AcDbLine
10
37.130002
20
-41.017844
30
0
11
37.129998
21
-40.096276
31
0
39
0
210
0
220
0
230
1
0
LINE
5
D1
100
AcDbEntity
8
1
62
256
6
ByLayer
370
18
48
1
60
1
100
AcDbLine
10
37.129998
20
-40.096276
30
0
11
40.63
21
-40.55706
31
0
39
0
210
0
220
0
230
1
0
LINE
5
1F8
100
AcDbEntity
8
1
62
256
6
ByLayer
370
18
48
1
60
1
100
AcDbLine
10
6.938855
20
3.2385
30
0
11
6.478071
21
6.738498
31
0
39
0
210
0
220
0
230
1
0
LINE
5
1F9
100
AcDbEntity
8
1
62
256
6
ByLayer
370
18
48
1
60
1
100
AcDbLine
10
6.478071
20
6.738498
30
0
11
7.399638
21
6.738502
31
0
39
0
210
0
220
0
230
1
0
LINE
5
1FA
100
AcDbEntity
8
1
62
256
6
ByLayer
370
18
48
1
60
1
100
AcDbLine
10
7.399638
20
6.738502
30
0
11
6.938855
21
3.2385
31
0
39
0
210
0
220
0
230
1
0
LINE
5
1FC
100
AcDbEntity
8
1
62
256
6
ByLayer
370
18
48
1
60
1
100
AcDbLine
10
6.938855
20
-3.2385
30
0
11
7.399638
21
-6.738498
31
0
39
0
210
0
220
0
230
1
0
LINE
5
1FD
100
AcDbEntity
8
1
62
256
6
ByLayer
370
18
48
1
60
1
100
AcDbLine
10
7.399638
20
-6.738498
30
0
11
6.478071
21
-6.738502
31
0
39
0
210
0
220
0
230
1
0
LINE
5
1FE
100
AcDbEntity
8
1
62
256
6
ByLayer
370
18
48
1
60
1
100
AcDbLine
10
6.478071
20
-6.738502
30
0
11
6.938855
21
-3.2385
31
0
39
0
210
0
220
0
230
1
0
LINE
5
201
100
AcDbEntity
8
1
62
256
6
ByLayer
370
18
48
1
60
1
100
AcDbLine
10
-22.87
20
-40.55706
30
0
11
-19.370002
21
-40.096276
31
0
39
0
210
0
220
0
230
1
0
LINE
5
202
100
AcDbEntity
8
1
62
256
6
ByLayer
370
18
48
1
60
1
100
AcDbLine
10
-19.370002
20
-40.096276
30
0
11
-19.369998
21
-41.017844
31
0
39
0
210
0
220
0
230
1
0
LINE
5
203
100
AcDbEntity
8
1
62
256
6
ByLayer
370
18
48
1
60
1
100
AcDbLine
10
-19.369998
20
-41.017844
30
0
11
-22.87
21
-40.55706
31
0
39
0
210
0
220
0
230
1
0
LINE
5
205
100
AcDbEntity
8
1
62
256
6
ByLayer
370
18
48
1
60
1
100
AcDbLine
10
40.63
20
-40.55706
30
0
11
37.130002
21
-41.017844
31
0
39
0
210
0
220
0
230
1
0
LINE
5
206
100
AcDbEntity
8
1
62
256
6
ByLayer
370
18
48
1
60
1
100
AcDbLine
10
37.130002
20
-41.017844
30
0
11
37.129998
21
-40.096276
31
0
39
0
210
0
220
0
230
1
0
LINE
5
207
100
AcDbEntity
8
1
62
256
6
ByLayer
370
18
48
1
60
1
100
AcDbLine
10
37.129998
20
-40.096276
30
0
11
40.63
21
-40.55706
31
0
39
0
210
0
220
0
230
1
0
MTEXT
5
1F4
100
AcDbEntity
8
SK2
62
256
6
ByLayer
370
18
48
1
60
0
100
AcDbMText
10
5.59774
20
10.896937
30
0
210
0
220
0
230
1
1
%%c
40
3
41
0
44
1.084337
50
90
71
7
72
5
7
iso_b_vert
0
MTEXT
5
1F7
100
AcDbEntity
8
SK2
62
256
6
ByLayer
370
18
48
1
60
0
100
AcDbMText
10
5.59774
20
16.8735
30
0
210
0
220
0
230
1
1
\W0.7694;6.477
40
3
41
0
44
1.084337
50
90
71
7
72
5
7
iso_b_vert
0
MTEXT
5
200
100
AcDbEntity
8
2
62
256
6
ByLayer
370
18
48
1
60
0
100
AcDbMText
10
5.518544
20
-39.671946
30
0
210
0
220
0
230
1
1
\W0.7346;63.5
40
3
41
0
44
1.084337
50
0
71
7
72
5
7
iso_b_vert
0
MTEXT
5
209
100
AcDbEntity
8
SK6
62
256
6
ByLayer
370
18
48
1
60
0
100
AcDbMText
10
-10.267917
20
-82.114886
30
0
210
0
220
0
230
1
1
\W0.7463;T300-MM100AA-M6     C145
40
3
41
0
44
1.084337
50
0
71
7
72
5
7
iso_b_vert
0
HATCH
5
1FB
100
AcDbEntity
8
SK2
62
256
6
ByLayer
370
13
48
1
60
0
100
AcDbHatch
10
0
20
0
30
0
210
0
220
0
230
1
2
ANSI31
70
0
71
0
91
1
92
5
93
3
72
1
10
6.93885452345367
20
3.23850000000002
11
6.4780707819009
21
6.73849830744683
72
1
10
6.4780707819009
20
6.73849830744683
11
7.39963826500644
21
6.7385016925532
72
1
10
7.39963826500644
20
6.7385016925532
11
6.93885452345367
21
3.23850000000002
97
0
75
0
76
1
52
0
41
0.0062
77
0
78
1
53
45
43
0
44
0
45
-0.0139193969876572
46
0.0139193969876572
79
0
47
0
98
1
10
0
20
0
0
HATCH
5
1FF
100
AcDbEntity
8
SK2
62
256
6
ByLayer
370
13
48
1
60
0
100
AcDbHatch
10
0
20
0
30
0
210
0
220
0
230
1
2
ANSI31
70
0
71
0
91
1
92
5
93
3
72
1
10
6.93885452345367
20
-3.23849999999999
11
7.39963826500644
21
-6.7384983074468
72
1
10
7.39963826500644
20
-6.7384983074468
11
6.4780707819009
21
-6.73850169255317
72
1
10
6.4780707819009
20
-6.73850169255317
11
6.93885452345367
21
-3.23849999999999
97
0
75
0
76
1
52
0
41
0.0062
77
0
78
1
53
45
43
0
44
0
45
-0.0139193969876572
46
0.0139193969876572
79
0
47
0
98
1
10
0
20
0
0
HATCH
5
204
100
AcDbEntity
8
2
62
256
6
ByLayer
370
13
48
1
60
0
100
AcDbHatch
10
0
20
0
30
0
210
0
220
0
230
1
2
ANSI31
70
0
71
0
91
1
92
5
93
3
72
1
10
-22.87
20
-40.5570602281852
11
-19.3700016925532
21
-40.0962764866324
72
1
10
-19.3700016925532
20
-40.0962764866324
11
-19.3699983074468
21
-41.0178439697379
72
1
10
-19.3699983074468
20
-41.0178439697379
11
-22.87
21
-40.5570602281852
97
0
75
0
76
1
52
0
41
0.0062
77
0
78
1
53
45
43
0
44
0
45
-0.0139193969876572
46
0.0139193969876572
79
0
47
0
98
1
10
0
20
0
0
HATCH
5
208
100
AcDbEntity
8
2
62
256
6
ByLayer
370
13
48
1
60
0
100
AcDbHatch
10
0
20
0
30
0
210
0
220
0
230
1
2
ANSI31
70
0
71
0
91
1
92
5
93
3
72
1
10
40.63
20
-40.5570602281852
11
37.1300016925532
21
-41.0178439697379
72
1
10
37.1300016925532
20
-41.0178439697379
11
37.1299983074468
21
-40.0962764866324
72
1
10
37.1299983074468
20
-40.0962764866324
11
40.63
21
-40.5570602281852
97
0
75
0
76
1
52
0
41
0.0062
77
0
78
1
53
45
43
0
44
0
45
-0.0139193969876572
46
0.0139193969876572
79
0
47
0
98
1
10
0
20
0
0
DIMENSION
5
20C
100
AcDbEntity
8
2
62
256
6
ByLayer
370
18
48
1
60
0
100
AcDbDimension
2
_U0
10
60.13
20
-3.05706
30
0
11
60.13
21
20.55706
31
0
70
32
71
1
72
1
41
1
210
0
220
0
230
1
3
Standard
100
AcDbAlignedDimension
13
40.63
23
3.05706
33
0
14
40.63
24
-3.05706
34
0
50
90
100
AcDbRotatedDimension
1001
ACAD
1000
DSTYLE
1002
{
1070
   371
1070
    13
1070
   372
1070
    13
1070
     3
1000

1070
   170
1070
     0
1070
   144
1040
1.0
1070
   277
1070
     2
1070
   284
1070
     8
1070
   278
1070
    46
1070
   146
1040
1.166667
1070
   345
1005
16
1070
   347
1005
16
1070
   346
1005
16
1070
   344
1005
0
1070
   343
1005
0
1070
   172
1070
     1
1070
    76
1070
     0
1070
    75
1070
     0
1070
   282
1070
     0
1070
   281
1070
     0
1070
    71
1070
     0
1070
    74
1070
     0
1070
   279
1070
     0
1070
   173
1070
     1
1070
   340
1005
1F5
1070
   271
1070
     3
1070
   272
1070
     3
1070
    77
1070
     1
1070
    73
1070
     0
1070
   171
1070
     3
1070
   274
1070
     4
1070
   177
1070
     2
1070
   176
1070
     2
1070
   178
1070
     2
1070
    78
1070
     8
1070
    48
1040
-0.1
1070
    41
1040
3.5
1070
   147
1040
1.5
1070
    42
1040
1.5875
1070
    44
1040
2.0
1070
   140
1040
3.0
1002
}
1001
ACAD_DSTYLE_DIM_LINETYPE
1070
   380
1005
16
1001
ACAD_DSTYLE_DIM_EXT1_LINETYPE
1070
   381
1005
16
1001
ACAD_DSTYLE_DIM_EXT2_LINETYPE
1070
   382
1005
16
0
DIMENSION
5
227
100
AcDbEntity
8
SK2
62
256
6
ByLayer
370
18
48
1
60
0
100
AcDbDimension
2
_U1
10
-27.87
20
2.425
30
0
11
-27.87
21
22.856455
31
0
70
32
71
1
72
1
41
1
210
0
220
0
230
1
3
Standard
100
AcDbAlignedDimension
13
-21.87
23
-2.425
33
0
14
-21.87
24
2.425
34
0
50
90
100
AcDbRotatedDimension
1001
ACAD
1000
DSTYLE
1002
{
1070
   371
1070
    13
1070
   372
1070
    13
1070
     3
1000

1070
   170
1070
     0
1070
   144
1040
1.0
1070
   277
1070
     2
1070
   284
1070
     8
1070
   278
1070
    46
1070
   146
1040
1.166667
1070
   345
1005
16
1070
   347
1005
16
1070
   346
1005
16
1070
   344
1005
0
1070
   343
1005
0
1070
   172
1070
     1
1070
    76
1070
     0
1070
    75
1070
     0
1070
   282
1070
     0
1070
   281
1070
     0
1070
    71
1070
     0
1070
    74
1070
     0
1070
   279
1070
     0
1070
   173
1070
     1
1070
   340
1005
1F5
1070
   271
1070
     3
1070
   272
1070
     3
1070
    77
1070
     1
1070
    73
1070
     0
1070
   171
1070
     3
1070
   274
1070
     4
1070
   177
1070
     2
1070
   176
1070
     2
1070
   178
1070
     2
1070
    78
1070
     8
1070
    48
1040
-0.1
1070
    41
1040
3.5
1070
   147
1040
1.5
1070
    42
1040
1.5875
1070
    44
1040
2.0
1070
   140
1040
3.0
1002
}
1001
ACAD_DSTYLE_DIM_LINETYPE
1070
   380
1005
16
1001
ACAD_DSTYLE_DIM_EXT1_LINETYPE
1070
   381
1005
16
1001
ACAD_DSTYLE_DIM_EXT2_LINETYPE
1070
   382
1005
16
0
DIMENSION
5
241
100
AcDbEntity
8
SK2
62
256
6
ByLayer
370
18
48
1
60
0
100
AcDbDimension
2
_U2
10
38.38
20
12.0885
30
0
11
39.505
21
12.0885
31
0
70
32
71
1
72
1
41
1
210
0
220
0
230
1
3
Standard
100
AcDbAlignedDimension
13
40.63
23
3.05706
33
0
14
38.38
24
0
34
0
50
0
100
AcDbRotatedDimension
1001
ACAD
1000
DSTYLE
1002
{
1070
   371
1070
    13
1070
   372
1070
    13
1070
   170
1070
     0
1070
   144
1040
1.0
1070
   277
1070
     2
1070
   284
1070
     8
1070
   278
1070
    46
1070
   146
1040
1.166667
1070
   345
1005
16
1070
   347
1005
16
1070
   346
1005
16
1070
   344
1005
0
1070
   343
1005
0
1070
   172
1070
     1
1070
    76
1070
     0
1070
    75
1070
     0
1070
   282
1070
     0
1070
   281
1070
     0
1070
    71
1070
     0
1070
    74
1070
     0
1070
   279
1070
     0
1070
   173
1070
     1
1070
   340
1005
1F5
1070
   271
1070
     3
1070
   272
1070
     3
1070
    77
1070
     1
1070
    73
1070
     1
1070
   171
1070
     3
1070
   274
1070
     4
1070
   177
1070
     2
1070
   176
1070
     2
1070
   178
1070
     2
1070
    78
1070
     8
1070
    48
1040
-0.1
1070
    41
1040
3.5
1070
   147
1040
1.5
1070
    42
1040
1.5875
1070
    44
1040
2.0
1070
   140
1040
3.0
1002
}
1001
ACAD_DSTYLE_DIM_LINETYPE
1070
   380
1005
16
1001
ACAD_DSTYLE_DIM_EXT1_LINETYPE
1070
   381
1005
16
1001
ACAD_DSTYLE_DIM_EXT2_LINETYPE
1070
   382
1005
16
0
DIMENSION
5
25B
100
AcDbEntity
8
SK2
62
256
6
ByLayer
370
18
48
1
60
0
100
AcDbDimension
2
_U3
10
30.63
20
-10.05706
30
0
11
33.08283
21
-10.05706
31
0
70
32
71
1
72
1
41
1
210
0
220
0
230
1
3
Standard
100
AcDbAlignedDimension
13
40.63
23
-3.05706
33
0
14
30.63
24
-3.05706
34
0
50
0
100
AcDbRotatedDimension
1001
ACAD
1000
DSTYLE
1002
{
1070
   371
1070
    13
1070
   372
1070
    13
1070
   170
1070
     0
1070
   144
1040
1.0
1070
   277
1070
     2
1070
   284
1070
     8
1070
   278
1070
    46
1070
   146
1040
1.166667
1070
   345
1005
16
1070
   347
1005
16
1070
   346
1005
16
1070
   344
1005
0
1070
   343
1005
0
1070
   172
1070
     1
1070
    76
1070
     0
1070
    75
1070
     0
1070
   282
1070
     0
1070
   281
1070
     0
1070
    71
1070
     0
1070
    74
1070
     0
1070
   279
1070
     0
1070
   173
1070
     1
1070
   340
1005
1F5
1070
   271
1070
     1
1070
   272
1070
     3
1070
    77
1070
     1
1070
    73
1070
     1
1070
   171
1070
     3
1070
   274
1070
     4
1070
   177
1070
     2
1070
   176
1070
     2
1070
   178
1070
     2
1070
    78
1070
     8
1070
    48
1040
-0.1
1070
    41
1040
3.5
1070
   147
1040
1.5
1070
    42
1040
1.5875
1070
    44
1040
2.0
1070
   140
1040
3.0
1002
}
1001
ACAD_DSTYLE_DIM_LINETYPE
1070
   380
1005
16
1001
ACAD_DSTYLE_DIM_EXT1_LINETYPE
1070
   381
1005
16
1001
ACAD_DSTYLE_DIM_EXT2_LINETYPE
1070
   382
1005
16
0
DIMENSION
5
274
100
AcDbEntity
8
SK2
62
256
6
ByLayer
370
18
48
1
60
0
100
AcDbDimension
2
_U4
10
13.63
20
-32.55706
30
0
11
27.13
21
-32.55706
31
0
70
32
71
1
72
1
41
1
210
0
220
0
230
1
3
Standard
100
AcDbAlignedDimension
13
40.63
23
-3.05706
33
0
14
13.63
24
-2.275
34
0
50
0
100
AcDbRotatedDimension
1001
ACAD
1000
DSTYLE
1002
{
1070
   371
1070
    13
1070
   372
1070
    13
1070
   170
1070
     0
1070
   144
1040
1.0
1070
   277
1070
     2
1070
   284
1070
     8
1070
   278
1070
    46
1070
   146
1040
1.166667
1070
   345
1005
16
1070
   347
1005
16
1070
   346
1005
16
1070
   344
1005
0
1070
   343
1005
0
1070
   172
1070
     1
1070
    76
1070
     0
1070
    75
1070
     0
1070
   282
1070
     0
1070
   281
1070
     0
1070
    71
1070
     0
1070
    74
1070
     0
1070
   279
1070
     0
1070
   173
1070
     1
1070
   340
1005
1F5
1070
   271
1070
     1
1070
   272
1070
     3
1070
    77
1070
     1
1070
    73
1070
     1
1070
   171
1070
     3
1070
   274
1070
     4
1070
   177
1070
     2
1070
   176
1070
     2
1070
   178
1070
     2
1070
    78
1070
     8
1070
    48
1040
-0.1
1070
    41
1040
3.5
1070
   147
1040
1.5
1070
    42
1040
1.5875
1070
    44
1040
2.0
1070
   140
1040
3.0
1002
}
1001
ACAD_DSTYLE_DIM_LINETYPE
1070
   380
1005
16
1001
ACAD_DSTYLE_DIM_EXT1_LINETYPE
1070
   381
1005
16
1001
ACAD_DSTYLE_DIM_EXT2_LINETYPE
1070
   382
1005
16
0
DIMENSION
5
28C
100
AcDbEntity
8
2
62
256
6
ByLayer
370
18
48
1
60
0
100
AcDbDimension
2
_U5
10
15.13
20
-21.55706
30
0
11
27.88
21
-21.55706
31
0
70
32
71
1
72
1
41
1
210
0
220
0
230
1
3
Standard
100
AcDbAlignedDimension
13
40.63
23
-3.05706
33
0
14
15.13
24
0
34
0
50
0
100
AcDbRotatedDimension
1001
ACAD
1000
DSTYLE
1002
{
1070
   371
1070
    13
1070
   372
1070
    13
1070
   170
1070
     0
1070
   144
1040
1.0
1070
   277
1070
     2
1070
   284
1070
     8
1070
   278
1070
    46
1070
   146
1040
1.166667
1070
   345
1005
16
1070
   347
1005
16
1070
   346
1005
16
1070
   344
1005
0
1070
   343
1005
0
1070
   172
1070
     1
1070
    76
1070
     0
1070
    75
1070
     0
1070
   282
1070
     0
1070
   281
1070
     0
1070
    71
1070
     0
1070
    74
1070
     0
1070
   279
1070
     0
1070
   173
1070
     1
1070
   340
1005
1F5
1070
   271
1070
     1
1070
   272
1070
     3
1070
    77
1070
     1
1070
    73
1070
     1
1070
   171
1070
     3
1070
   274
1070
     4
1070
   177
1070
     2
1070
   176
1070
     2
1070
   178
1070
     2
1070
    78
1070
     8
1070
    48
1040
-0.1
1070
    41
1040
3.5
1070
   147
1040
1.5
1070
    42
1040
1.5875
1070
    44
1040
2.0
1070
   140
1040
3.0
1002
}
1001
ACAD_DSTYLE_DIM_LINETYPE
1070
   380
1005
16
1001
ACAD_DSTYLE_DIM_EXT1_LINETYPE
1070
   381
1005
16
1001
ACAD_DSTYLE_DIM_EXT2_LINETYPE
1070
   382
1005
16
0
ENDSEC
0
SECTION
2
OBJECTS
0
DICTIONARY
5
314
330
0
100
AcDbDictionary
280
0
281
1
3
ACAD_GROUP
350
315
3
ACAD_MLINESTYLE
350
316
0
DICTIONARY
5
315
330
0
100
AcDbDictionary
280
0
281
1
0
DICTIONARY
5
316
330
0
100
AcDbDictionary
280
0
281
1
3
Standard
350
18
0
MLINESTYLE
5
18
330
316
100
AcDbMlineStyle
2
Standard
70
0
3

62
256
51
90
52
90
71
2
49
-0.5
62
256
6
ByLayer
49
0.5
62
256
6
ByLayer
0
RASTERVARIABLES
5
302
330

100
AcDbRasterVariables
90
0
70
1
71
1
72
1
0
ENDSEC
0
EOF
