0
SECTION
2
HEADER
9
$ACADVER
1
AC1015
9
$DWGCODEPAGE
3
ANSI_1252
9
$HANDSEED
5
2e8
9
$ANGBASE
50
0
9
$ANGDIR
70
0
9
$ATTMODE
70
1
9
$AUNITS
70
0
9
$AUPREC
70
0
9
$CECOLOR
62
256
9
$CELTSCALE
40
1
9
$CELTYPE
6
ByLayer
9
$CELWEIGHT
370
18
9
$CLAYER
8
0
9
$CMLJUST
70
0
9
$CMLSCALE
40
1
9
$CMLSTYLE
2
Standard
9
$DIMSTYLE
2
Standard
9
$TEXTSIZE
40
0.2
9
$TEXTSTYLE
7
Standard
9
$LUNITS
70
2
9
$LUPREC
70
4
9
$EXTNAMES
290
1
9
$INSUNITS
70
4
9
$LTSCALE
40
1
9
$LWDISPLAY
290
1
9
$PDMODE
70
0
9
$PDSIZE
40
0
9
$PLINEGEN
70
0
0
ENDSEC
0
SECTION
2
CLASSES
0
CLASS
1
RASTERVARIABLES
2
AcDbRasterVariables
3
ISM
90
0
280
0
281
0
0
ENDSEC
0
SECTION
2
TABLES
0
TABLE
2
VPORT
5
2de
100
AcDbSymbolTable
0
VPORT
5
1
100
AcDbSymbolTableRecord
100
AcDbViewportTableRecord
2
*Active
70
0
10
0
20
0
11
1
21
1
12
-1
22
1
13
0
23
0
14
0.5
24
0.5
15
10
25
10
16
0
26
0
36
1
17
0
27
0
37
0
0
ENDTAB
0
TABLE
2
LTYPE
5
2df
100
AcDbSymbolTable
0
LTYPE
5
14
100
AcDbSymbolTableRecord
100
AcDbLinetypeTableRecord
70
0
2
ByBlock
3

72
65
73
0
40
0
0
LTYPE
5
15
100
AcDbSymbolTableRecord
100
AcDbLinetypeTableRecord
70
0
2
ByLayer
3

72
65
73
0
40
0
0
LTYPE
5
16
100
AcDbSymbolTableRecord
100
AcDbLinetypeTableRecord
70
0
2
Continuous
3
Solid line
72
65
73
0
40
0
0
LTYPE
5
6E
100
AcDbSymbolTableRecord
100
AcDbLinetypeTableRecord
70
0
2
CENTER
3
____ _ ____ _ ____ _ ____
72
65
73
4
40
47.5
49
22
74
0
49
-8.5
74
0
49
8.5
74
0
49
-8.5
74
0
0
LTYPE
5
6F
100
AcDbSymbolTableRecord
100
AcDbLinetypeTableRecord
70
0
2
DASHED
3
__ __ __ __ __ __ __ __ __
72
65
73
2
40
25.72
49
12.86
74
0
49
-12.86
74
0
0
ENDTAB
0
TABLE
2
LAYER
5
2e0
100
AcDbSymbolTable
0
LAYER
5
10
100
AcDbSymbolTableRecord
100
AcDbLayerTableRecord
2
0
70
0
62
7
6
Continuous
290
1
370
-3
390
0
0
LAYER
5
71
100
AcDbSymbolTableRecord
100
AcDbLayerTableRecord
2
81
70
0
62
-3
6
Continuous
290
1
370
-3
390
0
0
LAYER
5
73
100
AcDbSymbolTableRecord
100
AcDbLayerTableRecord
2
80
70
0
62
-6
6
Continuous
290
1
370
-3
390
0
0
LAYER
5
75
100
AcDbSymbolTableRecord
100
AcDbLayerTableRecord
2
1
70
0
62
4
6
Continuous
290
1
370
-3
390
0
0
LAYER
5
83
100
AcDbSymbolTableRecord
100
AcDbLayerTableRecord
2
4
70
0
62
-2
6
CENTER
290
1
370
-3
390
0
0
LAYER
5
C5
100
AcDbSymbolTableRecord
100
AcDbLayerTableRecord
2
2
70
0
62
7
6
Continuous
290
1
370
-3
390
0
0
LAYER
5
1D6
100
AcDbSymbolTableRecord
100
AcDbLayerTableRecord
2
Defpoints
70
0
62
7
6
Continuous
290
0
370
-3
390
0
0
LAYER
5
2ca
100
AcDbSymbolTableRecord
100
AcDbLayerTableRecord
2
SK4
70
0
62
2
6
CENTER
290
1
370
-3
390
0
0
LAYER
5
2cb
100
AcDbSymbolTableRecord
100
AcDbLayerTableRecord
2
SK1
70
0
62
4
6
Continuous
290
1
370
-3
390
0
0
LAYER
5
2cc
100
AcDbSymbolTableRecord
100
AcDbLayerTableRecord
2
SK2
70
0
62
7
6
Continuous
290
1
370
-3
390
0
0
LAYER
5
2cd
100
AcDbSymbolTableRecord
100
AcDbLayerTableRecord
2
SK6
70
0
62
5
6
Continuous
290
1
370
-3
390
0
0
ENDTAB
0
TABLE
2
STYLE
5
2e1
100
AcDbSymbolTable
0
STYLE
5
11
100
AcDbSymbolTableRecord
100
AcDbTextStyleTableRecord
2
Standard
3
txt
70
0
71
0
40
0
41
1
42
0
50
0
0
STYLE
5
1BC
100
AcDbSymbolTableRecord
100
AcDbTextStyleTableRecord
2
iso_b_vert
3
simplex.shx
70
0
71
0
40
0
41
1
42
0
50
0
0
STYLE
5
1BD
100
AcDbSymbolTableRecord
100
AcDbTextStyleTableRecord
2
DWGDirectTextStyle
3
simplex
70
0
71
0
40
0
41
1
42
0
50
0
0
ENDTAB
0
TABLE
2
DIMSTYLE
5
2e2
100
AcDbSymbolTable
100
AcDbDimStyleTable
0
DIMSTYLE
105
27
100
AcDbSymbolTableRecord
100
AcDbDimStyleTableRecord
2
Standard
70
0
3
<>
41
0.18
42
0.0625
44
0.18
140
0.18
147
0.09
73
0
74
0
77
1
271
2
275
0
278
52
280
0
340
11
0
ENDTAB
0
TABLE
2
VIEW
5
2e3
100
AcDbSymbolTable
0
ENDTAB
0
TABLE
2
UCS
5
2e4
100
AcDbSymbolTable
0
ENDTAB
0
TABLE
2
APPID
5
2e5
100
AcDbSymbolTable
0
APPID
5
12
100
AcDbSymbolTableRecord
100
AcDbRegAppTableRecord
2
ACAD
70
0
0
APPID
5
1D2
100
AcDbSymbolTableRecord
100
AcDbRegAppTableRecord
2
ACAD_DSTYLE_DIMBREAK
70
0
0
APPID
5
289
100
AcDbSymbolTableRecord
100
AcDbRegAppTableRecord
2
ACAD_DSTYLE_DIM_LINETYPE
70
0
0
APPID
5
28A
100
AcDbSymbolTableRecord
100
AcDbRegAppTableRecord
2
ACAD_DSTYLE_DIM_EXT1_LINETYPE
70
0
0
APPID
5
28B
100
AcDbSymbolTableRecord
100
AcDbRegAppTableRecord
2
ACAD_DSTYLE_DIM_EXT2_LINETYPE
70
0
0
APPID
5
2C6
100
AcDbSymbolTableRecord
100
AcDbRegAppTableRecord
2
ACAD_MLEADERVER
70
0
0
ENDTAB
0
TABLE
2
BLOCK_RECORD
5
2e6
100
AcDbSymbolTable
0
BLOCK_RECORD
5
1F
100
AcDbSymbolTableRecord
100
AcDbBlockTableRecord
2
*Model_Space
340
0
70
0
0
BLOCK_RECORD
5
1B
100
AcDbSymbolTableRecord
100
AcDbBlockTableRecord
2
*Paper_Space
340
0
70
0
0
BLOCK_RECORD
5
23
100
AcDbSymbolTableRecord
100
AcDbBlockTableRecord
2
*Paper_Space0
340
0
70
0
0
BLOCK_RECORD
5
1D7
100
AcDbSymbolTableRecord
100
AcDbBlockTableRecord
2
*D1
340
0
70
0
0
BLOCK_RECORD
5
1E5
100
AcDbSymbolTableRecord
100
AcDbBlockTableRecord
2
_U0
340
0
70
0
0
BLOCK_RECORD
5
1F1
100
AcDbSymbolTableRecord
100
AcDbBlockTableRecord
2
*D3
340
0
70
0
0
BLOCK_RECORD
5
1FF
100
AcDbSymbolTableRecord
100
AcDbBlockTableRecord
2
_U1
340
0
70
0
0
BLOCK_RECORD
5
20B
100
AcDbSymbolTableRecord
100
AcDbBlockTableRecord
2
*D5
340
0
70
0
0
BLOCK_RECORD
5
218
100
AcDbSymbolTableRecord
100
AcDbBlockTableRecord
2
_U2
340
0
70
0
0
BLOCK_RECORD
5
225
100
AcDbSymbolTableRecord
100
AcDbBlockTableRecord
2
*D7
340
0
70
0
0
BLOCK_RECORD
5
232
100
AcDbSymbolTableRecord
100
AcDbBlockTableRecord
2
_U3
340
0
70
0
0
BLOCK_RECORD
5
23E
100
AcDbSymbolTableRecord
100
AcDbBlockTableRecord
2
*D9
340
0
70
0
0
BLOCK_RECORD
5
24A
100
AcDbSymbolTableRecord
100
AcDbBlockTableRecord
2
_U4
340
0
70
0
0
BLOCK_RECORD
5
256
100
AcDbSymbolTableRecord
100
AcDbBlockTableRecord
2
*D11
340
0
70
0
0
BLOCK_RECORD
5
262
100
AcDbSymbolTableRecord
100
AcDbBlockTableRecord
2
_U5
340
0
70
0
0
ENDTAB
0
ENDSEC
0
SECTION
2
BLOCKS
0
BLOCK
5
20
100
AcDbEntity
8
0
100
AcDbBlockBegin
2
*Model_Space
70
0
10
0
20
0
30
0
3
*Model_Space
0
ENDBLK
5
21
100
AcDbEntity
8
0
100
AcDbBlockEnd
0
BLOCK
5
1C
100
AcDbEntity
8
0
100
AcDbBlockBegin
2
*Paper_Space
70
0
10
0
20
0
30
0
3
*Paper_Space
0
ENDBLK
5
1D
100
AcDbEntity
8
0
100
AcDbBlockEnd
0
BLOCK
5
24
100
AcDbEntity
8
0
100
AcDbBlockBegin
2
*Paper_Space0
70
0
10
0
20
0
30
0
3
*Paper_Space0
0
ENDBLK
5
25
100
AcDbEntity
8
0
100
AcDbBlockEnd
0
BLOCK
5
1D8
100
AcDbEntity
8
0
100
AcDbBlockBegin
2
*D1
70
1
10
0
20
0
30
0
3
*D1
0
LINE
5
1DA
100
AcDbEntity
8
0
62
256
6
ByLayer
370
-2
48
1
60
0
100
AcDbLine
10
39.7975
20
2.791803
30
0
11
59.71
21
2.791803
31
0
39
0
210
0
220
0
230
1
0
LINE
5
1DB
100
AcDbEntity
8
0
62
256
6
ByLayer
370
-2
48
1
60
0
100
AcDbLine
10
39.7975
20
-2.791803
30
0
11
59.71
21
-2.791803
31
0
39
0
210
0
220
0
230
1
0
LINE
5
1DC
100
AcDbEntity
8
0
62
256
6
ByLayer
370
-2
48
1
60
0
100
AcDbLine
10
57.71
20
2.791803
30
0
11
57.71
21
32.883344
31
0
39
0
210
0
220
0
230
1
0
LINE
5
1DD
100
AcDbEntity
8
0
62
256
6
ByLayer
370
-2
48
1
60
0
100
AcDbLine
10
57.71
20
6.291803
30
0
11
57.71
21
9.791803
31
0
39
0
210
0
220
0
230
1
0
LINE
5
1DE
100
AcDbEntity
8
0
62
256
6
ByLayer
370
-2
48
1
60
0
100
AcDbLine
10
57.71
20
-6.291803
30
0
11
57.71
21
-9.791803
31
0
39
0
210
0
220
0
230
1
0
SOLID
5
1DF
100
AcDbEntity
8
0
62
256
6
ByLayer
370
-1
48
1
60
0
100
AcDbTrace
10
57.126667
20
6.291803
30
0
11
58.293333
21
6.291803
31
0
12
57.71
22
2.791803
32
0
13
57.71
23
2.791803
33
0
39
0
210
0
220
0
230
1
0
SOLID
5
1E0
100
AcDbEntity
8
0
62
256
6
ByLayer
370
-1
48
1
60
0
100
AcDbTrace
10
58.293333
20
-6.291803
30
0
11
57.126667
21
-6.291803
31
0
12
57.71
22
-2.791803
32
0
13
57.71
23
-2.791803
33
0
39
0
210
0
220
0
230
1
0
MTEXT
5
1E1
100
AcDbEntity
8
0
62
256
6
ByLayer
370
18
48
1
60
0
100
AcDbMText
10
51.71
20
22.311916
30
0
210
0
220
0
230
1
1
\A1;5.584
40
3
41
0
44
1
50
90
71
5
72
5
7
iso_b_vert
0
POINT
5
1E2
100
AcDbEntity
8
Defpoints
62
0
6
ByLayer
370
-1
48
1
60
0
100
AcDbPoint
10
38.21
20
2.791803
30
0
39
0
210
0
220
0
230
1
50
360
0
POINT
5
1E3
100
AcDbEntity
8
Defpoints
62
0
6
ByLayer
370
-1
48
1
60
0
100
AcDbPoint
10
38.21
20
-2.791803
30
0
39
0
210
0
220
0
230
1
50
360
0
POINT
5
1E4
100
AcDbEntity
8
Defpoints
62
0
6
ByLayer
370
-1
48
1
60
0
100
AcDbPoint
10
57.71
20
-2.791803
30
0
39
0
210
0
220
0
230
1
50
360
0
ENDBLK
5
1D9
100
AcDbEntity
8
0
100
AcDbBlockEnd
0
BLOCK
5
1EC
100
AcDbEntity
8
0
100
AcDbBlockBegin
2
_U0
70
0
10
0
20
0
30
0
3
_U0
0
MTEXT
5
1E6
100
AcDbEntity
8
2
62
256
6
ByLayer
370
18
48
1
60
0
100
AcDbMText
10
57.118886
20
12.926803
30
0
210
0
220
0
230
1
1
\W0.7012;UNC 12-24
40
3
41
0
44
1.084337
50
90
71
7
72
5
7
iso_b_vert
0
LINE
5
1E7
100
AcDbEntity
8
2
62
256
6
ByLayer
370
13
48
1
60
0
100
AcDbLine
10
39.7975
20
2.791803
30
0
11
59.71
21
2.791803
31
0
39
0
210
0
220
0
230
1
0
LINE
5
1E8
100
AcDbEntity
8
2
62
256
6
ByLayer
370
13
48
1
60
0
100
AcDbLine
10
39.7975
20
-2.791803
30
0
11
59.71
21
-2.791803
31
0
39
0
210
0
220
0
230
1
0
LINE
5
1E9
100
AcDbEntity
8
2
62
256
6
ByLayer
370
13
48
1
60
0
100
AcDbLine
10
57.71
20
-10.291803
30
0
11
57.71
21
31.832029
31
0
39
0
210
0
220
0
230
1
0
SOLID
5
1EA
100
AcDbEntity
8
2
62
256
6
ByLayer
370
18
48
1
60
0
100
AcDbTrace
10
57.71
20
2.791803
30
0
11
57.249216
21
6.291801
31
0
12
58.170784
22
6.291805
32
0
13
58.170784
23
6.291805
33
0
39
0
210
0
220
0
230
1
0
SOLID
5
1EB
100
AcDbEntity
8
2
62
256
6
ByLayer
370
18
48
1
60
0
100
AcDbTrace
10
57.71
20
-2.791803
30
0
11
58.170784
21
-6.291801
31
0
12
57.249216
22
-6.291805
32
0
13
57.249216
23
-6.291805
33
0
39
0
210
0
220
0
230
1
0
ENDBLK
5
1ED
100
AcDbEntity
8
0
100
AcDbBlockEnd
0
BLOCK
5
1F2
100
AcDbEntity
8
0
100
AcDbBlockBegin
2
*D3
70
1
10
0
20
0
30
0
3
*D3
0
LINE
5
1F4
100
AcDbEntity
8
0
62
256
6
ByLayer
370
-2
48
1
60
0
100
AcDbLine
10
-22.8275
20
-2.095
30
0
11
-29.24
21
-2.095
31
0
39
0
210
0
220
0
230
1
0
LINE
5
1F5
100
AcDbEntity
8
0
62
256
6
ByLayer
370
-2
48
1
60
0
100
AcDbLine
10
-22.8275
20
2.095
30
0
11
-29.24
21
2.095
31
0
39
0
210
0
220
0
230
1
0
LINE
5
1F6
100
AcDbEntity
8
0
62
256
6
ByLayer
370
-2
48
1
60
0
100
AcDbLine
10
-27.24
20
2.095
30
0
11
-27.24
21
31.323569
31
0
39
0
210
0
220
0
230
1
0
LINE
5
1F7
100
AcDbEntity
8
0
62
256
6
ByLayer
370
-2
48
1
60
0
100
AcDbLine
10
-27.24
20
-5.595
30
0
11
-27.24
21
-9.095
31
0
39
0
210
0
220
0
230
1
0
LINE
5
1F8
100
AcDbEntity
8
0
62
256
6
ByLayer
370
-2
48
1
60
0
100
AcDbLine
10
-27.24
20
5.595
30
0
11
-27.24
21
9.095
31
0
39
0
210
0
220
0
230
1
0
SOLID
5
1F9
100
AcDbEntity
8
0
62
256
6
ByLayer
370
-1
48
1
60
0
100
AcDbTrace
10
-26.656667
20
-5.595
30
0
11
-27.823333
21
-5.595
31
0
12
-27.24
22
-2.095
32
0
13
-27.24
23
-2.095
33
0
39
0
210
0
220
0
230
1
0
SOLID
5
1FA
100
AcDbEntity
8
0
62
256
6
ByLayer
370
-1
48
1
60
0
100
AcDbTrace
10
-27.823333
20
5.595
30
0
11
-26.656667
21
5.595
31
0
12
-27.24
22
2.095
32
0
13
-27.24
23
2.095
33
0
39
0
210
0
220
0
230
1
0
MTEXT
5
1FB
100
AcDbEntity
8
0
62
256
6
ByLayer
370
18
48
1
60
0
100
AcDbMText
10
-33.24
20
22.323569
30
0
210
0
220
0
230
1
1
\A1;4.19
40
3
41
0
44
1
50
90
71
5
72
5
7
iso_b_vert
0
POINT
5
1FC
100
AcDbEntity
8
Defpoints
62
0
6
ByLayer
370
-1
48
1
60
0
100
AcDbPoint
10
-21.24
20
-2.095
30
0
39
0
210
0
220
0
230
1
50
360
0
POINT
5
1FD
100
AcDbEntity
8
Defpoints
62
0
6
ByLayer
370
-1
48
1
60
0
100
AcDbPoint
10
-21.24
20
2.095
30
0
39
0
210
0
220
0
230
1
50
360
0
POINT
5
1FE
100
AcDbEntity
8
Defpoints
62
0
6
ByLayer
370
-1
48
1
60
0
100
AcDbPoint
10
-27.24
20
2.095
30
0
39
0
210
0
220
0
230
1
50
360
0
ENDBLK
5
1F3
100
AcDbEntity
8
0
100
AcDbBlockEnd
0
BLOCK
5
206
100
AcDbEntity
8
0
100
AcDbBlockBegin
2
_U1
70
0
10
0
20
0
30
0
3
_U1
0
MTEXT
5
200
100
AcDbEntity
8
SK2
62
256
6
ByLayer
370
18
48
1
60
0
100
AcDbMText
10
-27.831114
20
11.135
30
0
210
0
220
0
230
1
1
\W0.7371;5.588 x 4.19
40
3
41
0
44
1.084337
50
90
71
7
72
5
7
iso_b_vert
0
LINE
5
201
100
AcDbEntity
8
SK2
62
256
6
ByLayer
370
13
48
1
60
0
100
AcDbLine
10
-22.8275
20
-2.095
30
0
11
-29.24
21
-2.095
31
0
39
0
210
0
220
0
230
1
0
LINE
5
202
100
AcDbEntity
8
SK2
62
256
6
ByLayer
370
13
48
1
60
0
100
AcDbLine
10
-22.8275
20
2.095
30
0
11
-29.24
21
2.095
31
0
39
0
210
0
220
0
230
1
0
LINE
5
203
100
AcDbEntity
8
SK2
62
256
6
ByLayer
370
13
48
1
60
0
100
AcDbLine
10
-27.24
20
33.647139
30
0
11
-27.24
21
-9.595
31
0
39
0
210
0
220
0
230
1
0
SOLID
5
204
100
AcDbEntity
8
SK2
62
256
6
ByLayer
370
18
48
1
60
0
100
AcDbTrace
10
-27.24
20
-2.095
30
0
11
-26.779216
21
-5.594998
31
0
12
-27.700784
22
-5.595002
32
0
13
-27.700784
23
-5.595002
33
0
39
0
210
0
220
0
230
1
0
SOLID
5
205
100
AcDbEntity
8
SK2
62
256
6
ByLayer
370
18
48
1
60
0
100
AcDbTrace
10
-27.24
20
2.095
30
0
11
-27.700784
21
5.594998
31
0
12
-26.779216
22
5.595002
32
0
13
-26.779216
23
5.595002
33
0
39
0
210
0
220
0
230
1
0
ENDBLK
5
207
100
AcDbEntity
8
0
100
AcDbBlockEnd
0
BLOCK
5
20C
100
AcDbEntity
8
0
100
AcDbBlockBegin
2
*D5
70
1
10
0
20
0
30
0
3
*D5
0
LINE
5
20E
100
AcDbEntity
8
0
62
256
6
ByLayer
370
-2
48
1
60
0
100
AcDbLine
10
38.21
20
4.379303
30
0
11
38.21
21
13.705521
31
0
39
0
210
0
220
0
230
1
0
LINE
5
20F
100
AcDbEntity
8
0
62
256
6
ByLayer
370
-2
48
1
60
0
100
AcDbLine
10
35.83
20
1.5875
30
0
11
35.83
21
13.705521
31
0
39
0
210
0
220
0
230
1
0
LINE
5
210
100
AcDbEntity
8
0
62
256
6
ByLayer
370
-2
48
1
60
0
100
AcDbLine
10
41.71
20
11.705521
30
0
11
45.21
21
11.705521
31
0
39
0
210
0
220
0
230
1
0
LINE
5
211
100
AcDbEntity
8
0
62
256
6
ByLayer
370
-2
48
1
60
0
100
AcDbLine
10
32.33
20
11.705521
30
0
11
28.83
21
11.705521
31
0
39
0
210
0
220
0
230
1
0
SOLID
5
212
100
AcDbEntity
8
0
62
256
6
ByLayer
370
-1
48
1
60
0
100
AcDbTrace
10
41.71
20
12.288854
30
0
11
41.71
21
11.122188
31
0
12
38.21
22
11.705521
32
0
13
38.21
23
11.705521
33
0
39
0
210
0
220
0
230
1
0
SOLID
5
213
100
AcDbEntity
8
0
62
256
6
ByLayer
370
-1
48
1
60
0
100
AcDbTrace
10
32.33
20
11.122188
30
0
11
32.33
21
12.288854
31
0
12
35.83
22
11.705521
32
0
13
35.83
23
11.705521
33
0
39
0
210
0
220
0
230
1
0
MTEXT
5
214
100
AcDbEntity
8
0
62
256
6
ByLayer
370
18
48
1
60
0
100
AcDbMText
10
37.02
20
17.705521
30
0
210
0
220
0
230
1
1
\A1;2.38
40
3
41
0
44
1
50
0
71
5
72
5
7
iso_b_vert
0
POINT
5
215
100
AcDbEntity
8
Defpoints
62
0
6
ByLayer
370
-1
48
1
60
0
100
AcDbPoint
10
38.21
20
2.791803
30
0
39
0
210
0
220
0
230
1
50
360
0
POINT
5
216
100
AcDbEntity
8
Defpoints
62
0
6
ByLayer
370
-1
48
1
60
0
100
AcDbPoint
10
35.83
20
0
30
0
39
0
210
0
220
0
230
1
50
360
0
POINT
5
217
100
AcDbEntity
8
Defpoints
62
0
6
ByLayer
370
-1
48
1
60
0
100
AcDbPoint
10
35.83
20
11.705521
30
0
39
0
210
0
220
0
230
1
50
360
0
ENDBLK
5
20D
100
AcDbEntity
8
0
100
AcDbBlockEnd
0
BLOCK
5
220
100
AcDbEntity
8
0
100
AcDbBlockBegin
2
_U2
70
0
10
0
20
0
30
0
3
_U2
0
MTEXT
5
219
100
AcDbEntity
8
SK2
62
256
6
ByLayer
370
18
48
1
60
0
100
AcDbMText
10
33.685044
20
12.488154
30
0
210
0
220
0
230
1
1
\W0.6474;'C'
40
3.5
41
0
44
1.084337
50
0
71
7
72
5
7
iso_b_vert
0
MTEXT
5
21A
100
AcDbEntity
8
SK2
62
256
6
ByLayer
370
18
48
1
60
0
100
AcDbMText
10
33.658544
20
19.590635
30
0
210
0
220
0
230
1
1
\W0.7346;2.38
40
3
41
0
44
1.084337
50
0
71
7
72
5
7
iso_b_vert
0
LINE
5
21B
100
AcDbEntity
8
SK2
62
256
6
ByLayer
370
13
48
1
60
0
100
AcDbLine
10
38.21
20
4.379303
30
0
11
38.21
21
13.705521
31
0
39
0
210
0
220
0
230
1
0
LINE
5
21C
100
AcDbEntity
8
SK2
62
256
6
ByLayer
370
13
48
1
60
0
100
AcDbLine
10
35.83
20
1.5875
30
0
11
35.83
21
13.705521
31
0
39
0
210
0
220
0
230
1
0
LINE
5
21D
100
AcDbEntity
8
SK2
62
256
6
ByLayer
370
13
48
1
60
0
100
AcDbLine
10
45.71
20
11.705521
30
0
11
28.33
21
11.705521
31
0
39
0
210
0
220
0
230
1
0
SOLID
5
21E
100
AcDbEntity
8
SK2
62
256
6
ByLayer
370
18
48
1
60
0
100
AcDbTrace
10
38.21
20
11.705521
30
0
11
41.709998
21
12.166305
31
0
12
41.710002
22
11.244737
32
0
13
41.710002
23
11.244737
33
0
39
0
210
0
220
0
230
1
0
SOLID
5
21F
100
AcDbEntity
8
SK2
62
256
6
ByLayer
370
18
48
1
60
0
100
AcDbTrace
10
35.83
20
11.705521
30
0
11
32.330002
21
11.244737
31
0
12
32.329998
22
12.166305
32
0
13
32.329998
23
12.166305
33
0
39
0
210
0
220
0
230
1
0
ENDBLK
5
221
100
AcDbEntity
8
0
100
AcDbBlockEnd
0
BLOCK
5
226
100
AcDbEntity
8
0
100
AcDbBlockBegin
2
*D7
70
1
10
0
20
0
30
0
3
*D7
0
LINE
5
228
100
AcDbEntity
8
0
62
256
6
ByLayer
370
-2
48
1
60
0
100
AcDbLine
10
38.21
20
-4.379303
30
0
11
38.21
21
-11.791803
31
0
39
0
210
0
220
0
230
1
0
LINE
5
229
100
AcDbEntity
8
0
62
256
6
ByLayer
370
-2
48
1
60
0
100
AcDbLine
10
30.21
20
-4.379303
30
0
11
30.21
21
-11.791803
31
0
39
0
210
0
220
0
230
1
0
LINE
5
22A
100
AcDbEntity
8
0
62
256
6
ByLayer
370
-2
48
1
60
0
100
AcDbLine
10
41.71
20
-9.791803
30
0
11
45.21
21
-9.791803
31
0
39
0
210
0
220
0
230
1
0
LINE
5
22B
100
AcDbEntity
8
0
62
256
6
ByLayer
370
-2
48
1
60
0
100
AcDbLine
10
26.71
20
-9.791803
30
0
11
23.21
21
-9.791803
31
0
39
0
210
0
220
0
230
1
0
SOLID
5
22C
100
AcDbEntity
8
0
62
256
6
ByLayer
370
-1
48
1
60
0
100
AcDbTrace
10
41.71
20
-9.20847
30
0
11
41.71
21
-10.375136
31
0
12
38.21
22
-9.791803
32
0
13
38.21
23
-9.791803
33
0
39
0
210
0
220
0
230
1
0
SOLID
5
22D
100
AcDbEntity
8
0
62
256
6
ByLayer
370
-1
48
1
60
0
100
AcDbTrace
10
26.71
20
-10.375136
30
0
11
26.71
21
-9.20847
31
0
12
30.21
22
-9.791803
32
0
13
30.21
23
-9.791803
33
0
39
0
210
0
220
0
230
1
0
MTEXT
5
22E
100
AcDbEntity
8
0
62
256
6
ByLayer
370
18
48
1
60
0
100
AcDbMText
10
31.931387
20
-3.791803
30
0
210
0
220
0
230
1
1
\A1;8
40
3
41
0
44
1
50
0
71
5
72
5
7
iso_b_vert
0
POINT
5
22F
100
AcDbEntity
8
Defpoints
62
0
6
ByLayer
370
-1
48
1
60
0
100
AcDbPoint
10
38.21
20
-2.791803
30
0
39
0
210
0
220
0
230
1
50
360
0
POINT
5
230
100
AcDbEntity
8
Defpoints
62
0
6
ByLayer
370
-1
48
1
60
0
100
AcDbPoint
10
30.21
20
-2.791803
30
0
39
0
210
0
220
0
230
1
50
360
0
POINT
5
231
100
AcDbEntity
8
Defpoints
62
0
6
ByLayer
370
-1
48
1
60
0
100
AcDbPoint
10
30.21
20
-9.791803
30
0
39
0
210
0
220
0
230
1
50
360
0
ENDBLK
5
227
100
AcDbEntity
8
0
100
AcDbBlockEnd
0
BLOCK
5
239
100
AcDbEntity
8
0
100
AcDbBlockBegin
2
_U3
70
0
10
0
20
0
30
0
3
_U3
0
MTEXT
5
233
100
AcDbEntity
8
SK2
62
256
6
ByLayer
370
18
48
1
60
0
100
AcDbMText
10
31.419472
20
-8.906689
30
0
210
0
220
0
230
1
1
\W0.5404;8
40
3
41
0
44
1.084337
50
0
71
7
72
5
7
iso_b_vert
0
LINE
5
234
100
AcDbEntity
8
SK2
62
256
6
ByLayer
370
13
48
1
60
0
100
AcDbLine
10
38.21
20
-4.379303
30
0
11
38.21
21
-11.791803
31
0
39
0
210
0
220
0
230
1
0
LINE
5
235
100
AcDbEntity
8
SK2
62
256
6
ByLayer
370
13
48
1
60
0
100
AcDbLine
10
30.21
20
-4.379303
30
0
11
30.21
21
-11.791803
31
0
39
0
210
0
220
0
230
1
0
LINE
5
236
100
AcDbEntity
8
SK2
62
256
6
ByLayer
370
13
48
1
60
0
100
AcDbLine
10
38.21
20
-9.791803
30
0
11
30.21
21
-9.791803
31
0
39
0
210
0
220
0
230
1
0
SOLID
5
237
100
AcDbEntity
8
SK2
62
256
6
ByLayer
370
18
48
1
60
0
100
AcDbTrace
10
38.21
20
-9.791803
30
0
11
34.710002
21
-10.252587
31
0
12
34.709998
22
-9.331019
32
0
13
34.709998
23
-9.331019
33
0
39
0
210
0
220
0
230
1
0
SOLID
5
238
100
AcDbEntity
8
SK2
62
256
6
ByLayer
370
18
48
1
60
0
100
AcDbTrace
10
30.21
20
-9.791803
30
0
11
33.709998
21
-9.331019
31
0
12
33.710002
22
-10.252587
32
0
13
33.710002
23
-10.252587
33
0
39
0
210
0
220
0
230
1
0
ENDBLK
5
23A
100
AcDbEntity
8
0
100
AcDbBlockEnd
0
BLOCK
5
23F
100
AcDbEntity
8
0
100
AcDbBlockBegin
2
*D9
70
1
10
0
20
0
30
0
3
*D9
0
LINE
5
241
100
AcDbEntity
8
0
62
256
6
ByLayer
370
-2
48
1
60
0
100
AcDbLine
10
38.21
20
-4.379303
30
0
11
38.21
21
-34.291803
31
0
39
0
210
0
220
0
230
1
0
LINE
5
242
100
AcDbEntity
8
0
62
256
6
ByLayer
370
-2
48
1
60
0
100
AcDbLine
10
15.21
20
-3.5825
30
0
11
15.21
21
-34.291803
31
0
39
0
210
0
220
0
230
1
0
LINE
5
243
100
AcDbEntity
8
0
62
256
6
ByLayer
370
-2
48
1
60
0
100
AcDbLine
10
34.71
20
-32.291803
30
0
11
18.71
21
-32.291803
31
0
39
0
210
0
220
0
230
1
0
SOLID
5
244
100
AcDbEntity
8
0
62
256
6
ByLayer
370
-1
48
1
60
0
100
AcDbTrace
10
34.71
20
-32.875136
30
0
11
34.71
21
-31.70847
31
0
12
38.21
22
-32.291803
32
0
13
38.21
23
-32.291803
33
0
39
0
210
0
220
0
230
1
0
SOLID
5
245
100
AcDbEntity
8
0
62
256
6
ByLayer
370
-1
48
1
60
0
100
AcDbTrace
10
18.71
20
-31.70847
30
0
11
18.71
21
-32.875136
31
0
12
15.21
22
-32.291803
32
0
13
15.21
23
-32.291803
33
0
39
0
210
0
220
0
230
1
0
MTEXT
5
246
100
AcDbEntity
8
0
62
256
6
ByLayer
370
18
48
1
60
0
100
AcDbMText
10
26.71
20
-26.291803
30
0
210
0
220
0
230
1
1
\A1;23
40
3
41
0
44
1
50
0
71
5
72
5
7
iso_b_vert
0
POINT
5
247
100
AcDbEntity
8
Defpoints
62
0
6
ByLayer
370
-1
48
1
60
0
100
AcDbPoint
10
38.21
20
-2.791803
30
0
39
0
210
0
220
0
230
1
50
360
0
POINT
5
248
100
AcDbEntity
8
Defpoints
62
0
6
ByLayer
370
-1
48
1
60
0
100
AcDbPoint
10
15.21
20
-1.995
30
0
39
0
210
0
220
0
230
1
50
360
0
POINT
5
249
100
AcDbEntity
8
Defpoints
62
0
6
ByLayer
370
-1
48
1
60
0
100
AcDbPoint
10
15.21
20
-32.291803
30
0
39
0
210
0
220
0
230
1
50
360
0
ENDBLK
5
240
100
AcDbEntity
8
0
100
AcDbBlockEnd
0
BLOCK
5
251
100
AcDbEntity
8
0
100
AcDbBlockBegin
2
_U4
70
0
10
0
20
0
30
0
3
_U4
0
MTEXT
5
24B
100
AcDbEntity
8
SK2
62
256
6
ByLayer
370
18
48
1
60
0
100
AcDbMText
10
25.077172
20
-31.406689
30
0
210
0
220
0
230
1
1
\W0.6740;23
40
3
41
0
44
1.084337
50
0
71
7
72
5
7
iso_b_vert
0
LINE
5
24C
100
AcDbEntity
8
SK2
62
256
6
ByLayer
370
13
48
1
60
0
100
AcDbLine
10
38.21
20
-4.379303
30
0
11
38.21
21
-34.291803
31
0
39
0
210
0
220
0
230
1
0
LINE
5
24D
100
AcDbEntity
8
SK2
62
256
6
ByLayer
370
13
48
1
60
0
100
AcDbLine
10
15.21
20
-3.5825
30
0
11
15.21
21
-34.291803
31
0
39
0
210
0
220
0
230
1
0
LINE
5
24E
100
AcDbEntity
8
SK2
62
256
6
ByLayer
370
13
48
1
60
0
100
AcDbLine
10
38.21
20
-32.291803
30
0
11
15.21
21
-32.291803
31
0
39
0
210
0
220
0
230
1
0
SOLID
5
24F
100
AcDbEntity
8
SK2
62
256
6
ByLayer
370
18
48
1
60
0
100
AcDbTrace
10
38.21
20
-32.291803
30
0
11
34.710002
21
-32.752587
31
0
12
34.709998
22
-31.831019
32
0
13
34.709998
23
-31.831019
33
0
39
0
210
0
220
0
230
1
0
SOLID
5
250
100
AcDbEntity
8
SK2
62
256
6
ByLayer
370
18
48
1
60
0
100
AcDbTrace
10
15.21
20
-32.291803
30
0
11
18.709998
21
-31.831019
31
0
12
18.710002
22
-32.752587
32
0
13
18.710002
23
-32.752587
33
0
39
0
210
0
220
0
230
1
0
ENDBLK
5
252
100
AcDbEntity
8
0
100
AcDbBlockEnd
0
BLOCK
5
257
100
AcDbEntity
8
0
100
AcDbBlockBegin
2
*D11
70
1
10
0
20
0
30
0
3
*D11
0
LINE
5
259
100
AcDbEntity
8
0
62
256
6
ByLayer
370
-2
48
1
60
0
100
AcDbLine
10
38.21
20
-4.379303
30
0
11
38.21
21
-23.291803
31
0
39
0
210
0
220
0
230
1
0
LINE
5
25A
100
AcDbEntity
8
0
62
256
6
ByLayer
370
-2
48
1
60
0
100
AcDbLine
10
16.71
20
-1.5875
30
0
11
16.71
21
-23.291803
31
0
39
0
210
0
220
0
230
1
0
LINE
5
25B
100
AcDbEntity
8
0
62
256
6
ByLayer
370
-2
48
1
60
0
100
AcDbLine
10
34.71
20
-21.291803
30
0
11
20.21
21
-21.291803
31
0
39
0
210
0
220
0
230
1
0
SOLID
5
25C
100
AcDbEntity
8
0
62
256
6
ByLayer
370
-1
48
1
60
0
100
AcDbTrace
10
34.71
20
-21.875136
30
0
11
34.71
21
-20.70847
31
0
12
38.21
22
-21.291803
32
0
13
38.21
23
-21.291803
33
0
39
0
210
0
220
0
230
1
0
SOLID
5
25D
100
AcDbEntity
8
0
62
256
6
ByLayer
370
-1
48
1
60
0
100
AcDbTrace
10
20.21
20
-20.70847
30
0
11
20.21
21
-21.875136
31
0
12
16.71
22
-21.291803
32
0
13
16.71
23
-21.291803
33
0
39
0
210
0
220
0
230
1
0
MTEXT
5
25E
100
AcDbEntity
8
0
62
256
6
ByLayer
370
18
48
1
60
0
100
AcDbMText
10
27.46
20
-15.291803
30
0
210
0
220
0
230
1
1
\A1;21.5
40
3
41
0
44
1
50
0
71
5
72
5
7
iso_b_vert
0
POINT
5
25F
100
AcDbEntity
8
Defpoints
62
0
6
ByLayer
370
-1
48
1
60
0
100
AcDbPoint
10
38.21
20
-2.791803
30
0
39
0
210
0
220
0
230
1
50
360
0
POINT
5
260
100
AcDbEntity
8
Defpoints
62
0
6
ByLayer
370
-1
48
1
60
0
100
AcDbPoint
10
16.71
20
0
30
0
39
0
210
0
220
0
230
1
50
360
0
POINT
5
261
100
AcDbEntity
8
Defpoints
62
0
6
ByLayer
370
-1
48
1
60
0
100
AcDbPoint
10
16.71
20
-21.291803
30
0
39
0
210
0
220
0
230
1
50
360
0
ENDBLK
5
258
100
AcDbEntity
8
0
100
AcDbBlockEnd
0
BLOCK
5
269
100
AcDbEntity
8
0
100
AcDbBlockBegin
2
_U5
70
0
10
0
20
0
30
0
3
_U5
0
MTEXT
5
263
100
AcDbEntity
8
2
62
256
6
ByLayer
370
18
48
1
60
0
100
AcDbMText
10
24.473486
20
-20.406689
30
0
210
0
220
0
230
1
1
\W0.6563;21.5
40
3
41
0
44
1.084337
50
0
71
7
72
5
7
iso_b_vert
0
LINE
5
264
100
AcDbEntity
8
2
62
256
6
ByLayer
370
13
48
1
60
0
100
AcDbLine
10
38.21
20
-4.379303
30
0
11
38.21
21
-23.291803
31
0
39
0
210
0
220
0
230
1
0
LINE
5
265
100
AcDbEntity
8
2
62
256
6
ByLayer
370
13
48
1
60
0
100
AcDbLine
10
16.71
20
-1.5875
30
0
11
16.71
21
-23.291803
31
0
39
0
210
0
220
0
230
1
0
LINE
5
266
100
AcDbEntity
8
2
62
256
6
ByLayer
370
13
48
1
60
0
100
AcDbLine
10
38.21
20
-21.291803
30
0
11
16.71
21
-21.291803
31
0
39
0
210
0
220
0
230
1
0
SOLID
5
267
100
AcDbEntity
8
2
62
256
6
ByLayer
370
18
48
1
60
0
100
AcDbTrace
10
38.21
20
-21.291803
30
0
11
34.710002
21
-21.752587
31
0
12
34.709998
22
-20.831019
32
0
13
34.709998
23
-20.831019
33
0
39
0
210
0
220
0
230
1
0
SOLID
5
268
100
AcDbEntity
8
2
62
256
6
ByLayer
370
18
48
1
60
0
100
AcDbTrace
10
16.71
20
-21.291803
30
0
11
20.209998
21
-20.831019
31
0
12
20.210002
22
-21.752587
32
0
13
20.210002
23
-21.752587
33
0
39
0
210
0
220
0
230
1
0
ENDBLK
5
26A
100
AcDbEntity
8
0
100
AcDbBlockEnd
0
ENDSEC
0
SECTION
2
ENTITIES
0
ARC
5
CE
100
AcDbEntity
8
SK1
62
256
6
ByLayer
370
18
48
1
60
0
100
AcDbCircle
39
0
10
-17.095
20
0
30
0
40
2.68224000000003
210
0
220
0
230
1
100
AcDbArc
50
321.35806
51
38.64194
0
ARC
5
CF
100
AcDbEntity
8
1
62
256
6
ByLayer
370
18
48
1
60
0
100
AcDbCircle
39
0
10
15.424359
20
-2.795
30
0
40
0.8
210
0
220
0
230
1
100
AcDbArc
50
90
51
120
0
ARC
5
D0
100
AcDbEntity
8
1
62
256
6
ByLayer
370
18
48
1
60
0
100
AcDbCircle
39
0
10
15.424359
20
2.795
30
0
40
0.8
210
0
220
0
230
1
100
AcDbArc
50
240
51
270
0
POINT
5
70
100
AcDbEntity
8
81
62
256
6
ByLayer
370
18
48
1
60
0
100
AcDbPoint
10
38.31
20
0
30
0
39
0
210
0
220
0
230
1
50
360
0
POINT
5
72
100
AcDbEntity
8
80
62
256
6
ByLayer
370
18
48
1
60
0
100
AcDbPoint
10
0
20
0
30
0
39
0
210
0
220
0
230
1
50
360
0
POINT
5
74
100
AcDbEntity
8
1
62
256
6
ByLayer
370
18
48
1
60
1
100
AcDbPoint
10
38.21
20
2.791803
30
0
39
0
210
0
220
0
230
1
50
360
0
POINT
5
76
100
AcDbEntity
8
1
62
256
6
ByLayer
370
18
48
1
60
1
100
AcDbPoint
10
38.21
20
-2.791803
30
0
39
0
210
0
220
0
230
1
50
360
0
POINT
5
77
100
AcDbEntity
8
1
62
256
6
ByLayer
370
18
48
1
60
1
100
AcDbPoint
10
-21.24
20
-2.095
30
0
39
0
210
0
220
0
230
1
50
360
0
POINT
5
78
100
AcDbEntity
8
1
62
256
6
ByLayer
370
18
48
1
60
1
100
AcDbPoint
10
-21.24
20
2.095
30
0
39
0
210
0
220
0
230
1
50
360
0
POINT
5
79
100
AcDbEntity
8
1
62
256
6
ByLayer
370
18
48
1
60
1
100
AcDbPoint
10
38.21
20
2.791803
30
0
39
0
210
0
220
0
230
1
50
360
0
POINT
5
7A
100
AcDbEntity
8
1
62
256
6
ByLayer
370
18
48
1
60
1
100
AcDbPoint
10
35.83
20
0
30
0
39
0
210
0
220
0
230
1
50
360
0
POINT
5
7B
100
AcDbEntity
8
1
62
256
6
ByLayer
370
18
48
1
60
1
100
AcDbPoint
10
38.21
20
-2.791803
30
0
39
0
210
0
220
0
230
1
50
360
0
POINT
5
7C
100
AcDbEntity
8
1
62
256
6
ByLayer
370
18
48
1
60
1
100
AcDbPoint
10
30.21
20
-2.791803
30
0
39
0
210
0
220
0
230
1
50
360
0
POINT
5
7D
100
AcDbEntity
8
1
62
256
6
ByLayer
370
18
48
1
60
1
100
AcDbPoint
10
38.21
20
-2.791803
30
0
39
0
210
0
220
0
230
1
50
360
0
POINT
5
7E
100
AcDbEntity
8
1
62
256
6
ByLayer
370
18
48
1
60
1
100
AcDbPoint
10
15.21
20
-1.995
30
0
39
0
210
0
220
0
230
1
50
360
0
POINT
5
7F
100
AcDbEntity
8
1
62
256
6
ByLayer
370
18
48
1
60
1
100
AcDbPoint
10
38.21
20
-2.791803
30
0
39
0
210
0
220
0
230
1
50
360
0
POINT
5
80
100
AcDbEntity
8
1
62
256
6
ByLayer
370
18
48
1
60
1
100
AcDbPoint
10
16.71
20
0
30
0
39
0
210
0
220
0
230
1
50
360
0
SPLINE
5
D1
100
AcDbEntity
8
1
62
256
6
ByLayer
370
18
48
1
60
0
100
AcDbSpline
70
4
71
3
72
8
73
4
40
0
40
0
40
0
40
0
40
1
40
1
40
1
40
1
41
1
10
33.3155549526974
20
-1.67706810142002
30
0
41
1
10
33.3198353132507
20
-1.66880110032898
30
0
41
1
10
33.324488269517
20
-1.66082320379115
30
0
41
1
10
33.3294629696479
20
-1.65309458574234
30
0
0
SPLINE
5
D2
100
AcDbEntity
8
1
62
256
6
ByLayer
370
18
48
1
60
0
100
AcDbSpline
70
4
71
3
72
8
73
4
40
0
40
0
40
0
40
0
40
1
40
1
40
1
40
1
41
1
10
36.758028687272
20
-2.4163311815644
30
0
41
1
10
36.7676727015151
20
-2.42878864331087
30
0
41
1
10
36.7772764954249
20
-2.42859921312586
30
0
41
1
10
36.7869242946419
20
-2.4160701570211
30
0
0
SPLINE
5
D3
100
AcDbEntity
8
1
62
256
6
ByLayer
370
18
48
1
60
0
100
AcDbSpline
70
4
71
3
72
8
73
4
40
0
40
0
40
0
40
0
40
1
40
1
40
1
40
1
41
1
10
29.2888566492532
20
0.761513024203396
30
0
41
1
10
29.2866014740364
20
0.762076850568008
30
0
41
1
10
29.2843469305179
20
0.762630631796043
30
0
41
1
10
29.2820930133859
20
0.763174328190303
30
0
0
SPLINE
5
D4
100
AcDbEntity
8
1
62
256
6
ByLayer
370
18
48
1
60
0
100
AcDbSpline
70
4
71
3
72
8
73
4
40
0
40
0
40
0
40
0
40
1
40
1
40
1
40
1
41
1
10
29.2820930133859
20
0.763174328190331
30
0
41
1
10
29.2150860818246
20
0.685202716625753
30
0
41
1
10
29.1473824445621
20
0.608502048403182
30
0
41
1
10
29.0790024617544
20
0.533025737990101
30
0
0
SPLINE
5
D5
100
AcDbEntity
8
1
62
256
6
ByLayer
370
18
48
1
60
0
100
AcDbSpline
70
4
71
3
72
12
73
8
40
0
40
0
40
0
40
0
40
0.25
40
0.25
40
0.5
40
0.5
40
1
40
1
40
1
40
1
41
1
10
29.0790024617544
20
0.53302573799013
30
0
41
1
10
29.0559230274567
20
0.507551169619461
30
0
41
1
10
29.0321137750238
20
0.482754479150771
30
0
41
1
10
28.982946873538
20
0.43462814880246
30
0
41
1
10
28.957630976143
20
0.411246625713801
30
0
41
1
10
28.8799072521708
20
0.342628698876212
30
0
41
1
10
28.825758723431
20
0.298884258861932
30
0
41
1
10
28.7699796168084
20
0.256221310437894
30
0
0
SPLINE
5
D6
100
AcDbEntity
8
1
62
256
6
ByLayer
370
18
48
1
60
0
100
AcDbSpline
70
4
71
3
72
10
73
6
40
0
40
0
40
0
40
0
40
0.328239764848788
40
0.328239764848788
40
1
40
1
40
1
40
1
41
1
10
32.1913226305808
20
2.74602143959387
30
0
41
1
10
32.1941582301164
20
2.75457739691805
30
0
41
1
10
32.1969978377364
20
2.76194377533358
30
0
41
1
10
32.2056791904544
20
2.78075881223941
30
0
41
1
10
32.2115533071679
20
2.78841259593554
30
0
41
1
10
32.2175138159319
20
2.79090592805505
30
0
0
SPLINE
5
D7
100
AcDbEntity
8
1
62
256
6
ByLayer
370
18
48
1
60
0
100
AcDbSpline
70
4
71
3
72
8
73
4
40
0
40
0
40
0
40
0
40
1
40
1
40
1
40
1
41
1
10
36.6233287018363
20
-2.18386074273653
30
0
41
1
10
36.6211239400621
20
-2.18131182305473
30
0
41
1
10
36.6189186388131
20
-2.17819451843209
30
0
41
1
10
36.6167130251889
20
-2.1745166562616
30
0
0
SPLINE
5
D8
100
AcDbEntity
8
1
62
256
6
ByLayer
370
13
48
1
60
0
100
AcDbSpline
70
4
71
3
72
9
73
5
40
0
40
0
40
0
40
0
40
0.434333425307766
40
1
40
1
40
1
40
1
41
1.04
10
36.3946189770241
20
-2.17327124111864
30
0
41
1.04
10
36.3857258210334
20
-2.1884870538632
30
0
41
1.04
10
36.3652321223982
20
-2.20264879822717
30
0
41
1.04
10
36.344666016856
20
-2.16661004715832
30
0
41
1.04
10
36.3330425326459
20
-2.1312715584188
30
0
0
SPLINE
5
D9
100
AcDbEntity
8
1
62
256
6
ByLayer
370
13
48
1
60
0
100
AcDbSpline
70
4
71
3
72
9
73
5
40
0
40
0
40
0
40
0
40
0.836531255806566
40
1
40
1
40
1
40
1
41
1.04
10
31.103044848325
20
-2.17313397586239
30
0
41
1.04
10
31.0889866476421
20
-2.19692881991698
30
0
41
1.04
10
31.0721189186872
20
-2.19851914538671
30
0
41
1.04
10
31.055136019753
20
-2.16621719897423
30
0
41
1.04
10
31.0523565031059
20
-2.16003865105421
30
0
0
SPLINE
5
DA
100
AcDbEntity
8
1
62
256
6
ByLayer
370
13
48
1
60
0
100
AcDbSpline
70
4
71
3
72
9
73
5
40
0
40
0
40
0
40
0
40
0.547437337410255
40
1
40
1
40
1
40
1
41
1
10
32.9680426538185
20
2.14704533387766
30
0
41
1
10
32.9578964857973
20
2.17367892184441
30
0
41
1
10
32.9392503591399
20
2.20154262992858
30
0
41
1
10
32.9204690268093
20
2.18787433314955
30
0
41
1
10
32.9119312436899
20
2.17323786669496
30
0
0
SPLINE
5
DB
100
AcDbEntity
8
1
62
256
6
ByLayer
370
18
48
1
60
0
100
AcDbSpline
70
4
71
3
72
8
73
4
40
0
40
0
40
0
40
0
40
1
40
1
40
1
40
1
41
1
10
36.1289058935313
20
-2.62914401910427
30
0
41
1
10
36.1247488985962
20
-2.63635207670021
30
0
41
1
10
36.120599576026
20
-2.64124778873492
30
0
41
1
10
36.1164449281845
20
-2.64383178939315
30
0
0
SPLINE
5
DC
100
AcDbEntity
8
1
62
256
6
ByLayer
370
18
48
1
60
0
100
AcDbSpline
70
4
71
3
72
17
73
13
40
0
40
0
40
0
40
0
40
0.219384291217223
40
0.219384291217223
40
0.349486909347684
40
0.349486909347684
40
0.414538218412915
40
0.414538218412915
40
0.479589527478146
40
0.739794763739073
40
0.739794763739073
40
1
40
1
40
1
40
1
41
1
10
36.1132667055977
20
-2.64535680658551
30
0
41
1
10
36.1083094171458
20
-2.64703135313209
30
0
41
1
10
36.1033265393752
20
-2.64542270957298
30
0
41
1
10
36.095335703537
20
-2.63754321707754
30
0
41
1
10
36.0923549268099
20
-2.63343291936195
30
0
41
1
10
36.0878807985986
20
-2.62546951387259
30
0
41
1
10
36.0863867933847
20
-2.622510556723
30
0
41
1
10
36.0834104170875
20
-2.61601680897286
30
0
41
1
10
36.0759954474387
20
-2.59834295071764
30
0
41
1
10
36.0687108851591
20
-2.5735918440156
30
0
41
1
10
36.0570422658896
20
-2.52535587670104
30
0
41
1
10
36.05122099395
20
-2.49688863544492
30
0
41
1
10
36.045407698572
20
-2.46393124523169
30
0
0
SPLINE
5
DD
100
AcDbEntity
8
1
62
256
6
ByLayer
370
18
48
1
60
0
100
AcDbSpline
70
4
71
3
72
17
73
13
40
0
40
0
40
0
40
0
40
0.211578512814904
40
0.211578512814904
40
0.317367769222357
40
0.370262397426084
40
0.370262397426084
40
0.423157025629811
40
0.423157025629811
40
0.846314051259624
40
0.846314051259624
40
1
40
1
40
1
40
1
41
1
10
35.80701115181
20
-2.42601785019261
30
0
41
1
10
35.8127561806454
20
-2.46840954175892
30
0
41
1
10
35.8184661731067
20
-2.50640787599556
30
0
41
1
10
35.8269926771786
20
-2.55678257082454
30
0
41
1
10
35.8312482090487
20
-2.58031287468472
30
0
41
1
10
35.8355125923961
20
-2.60133845472663
30
0
41
1
10
35.838361041774
20
-2.61479578603638
30
0
41
1
10
35.8397898233814
20
-2.62125218618792
30
0
41
1
10
35.8526311374447
20
-2.67657405094553
30
0
41
1
10
35.8639622856822
20
-2.70636614893448
30
0
41
1
10
35.8795687491805
20
-2.72051646917848
30
0
41
1
10
35.8837345256247
20
-2.72171845710724
30
0
41
1
10
35.8879147384429
20
-2.72030262107171
30
0
0
SPLINE
5
DE
100
AcDbEntity
8
1
62
256
6
ByLayer
370
13
48
1
60
0
100
AcDbSpline
70
4
71
3
72
9
73
5
40
0
40
0
40
0
40
0
40
0.296971101335017
40
1
40
1
40
1
40
1
41
1
10
30.2679732760279
20
-2.17623702375568
30
0
41
1
10
30.2618438623342
20
-2.16669432595893
30
0
41
1
10
30.241064085311
20
-2.11972752215195
30
0
41
1
10
30.2197446312963
20
-2.02098877848348
30
0
41
1
10
30.2044003686641
20
-1.92567477885282
30
0
0
SPLINE
5
DF
100
AcDbEntity
8
1
62
256
6
ByLayer
370
13
48
1
60
0
100
AcDbSpline
70
4
71
3
72
9
73
5
40
0
40
0
40
0
40
0
40
0.493759791580598
40
1
40
1
40
1
40
1
41
1.04
10
33.815955453486
20
1.89243900508809
30
0
41
1.04
10
33.8046977236438
20
1.96644337535652
30
0
41
1.04
10
33.7818935935926
20
2.09083912224942
30
0
41
1.04
10
33.7591650326094
20
2.15630474541901
30
0
41
1.04
10
33.7477383732357
20
2.17459410516507
30
0
0
SPLINE
5
E0
100
AcDbEntity
8
1
62
256
6
ByLayer
370
13
48
1
60
0
100
AcDbSpline
70
4
71
3
72
9
73
5
40
0
40
0
40
0
40
0
40
0.0134188068422448
40
1
40
1
40
1
40
1
41
1
10
35.5590936012235
20
-2.17584566102133
30
0
41
1
10
35.5587708743578
20
-2.17532762739523
30
0
41
1
10
35.5347132414701
20
-2.13579831770727
30
0
41
1
10
35.5101081764088
20
-2.0272525721997
30
0
41
1
10
35.4851722252022
20
-1.85511436206826
30
0
0
SPLINE
5
E1
100
AcDbEntity
8
1
62
256
6
ByLayer
370
13
48
1
60
0
100
AcDbSpline
70
4
71
3
72
9
73
5
40
0
40
0
40
0
40
0
40
0.460138563033686
40
1
40
1
40
1
40
1
41
1.04
10
30.037992826875
20
-2.1828348082113
30
0
41
1.04
10
30.0207773722436
20
-2.20304444497445
30
0
41
1.04
10
29.9828203399
20
-2.17352327636536
30
0
41
1.04
10
29.943009538835
20
-1.96605674816663
30
0
41
1.04
10
29.9207193783356
20
-1.80110891101543
30
0
0
SPLINE
5
E2
100
AcDbEntity
8
1
62
256
6
ByLayer
370
18
48
1
60
0
100
AcDbSpline
70
4
71
3
72
11
73
7
40
0
40
0
40
0
40
0
40
0.066487009187693
40
0.456592164620355
40
0.914590718939198
40
1
40
1
40
1
40
1
41
1
10
38.2099999999999
20
0.0787509610695452
30
0
41
1
10
38.2099999999999
20
0.0524307976941145
30
0
41
1
10
38.21
20
-0.128729854751555
30
0
41
1
10
38.2100000000002
20
-0.494886054204329
30
0
41
1
10
38.21
20
-0.843599010605033
30
0
41
1
10
38.21
20
-1.02606505139559
30
0
41
1
10
38.21
20
-1.05420051498581
30
0
0
SPLINE
5
E3
100
AcDbEntity
8
1
62
256
6
ByLayer
370
13
48
1
60
0
100
AcDbSpline
70
4
71
3
72
10
73
6
40
0
40
0
40
0
40
0
40
0.431513661326079
40
0.978072593252939
40
1
40
1
40
1
40
1
41
1
10
34.0998096300033
20
1.76027446655814
30
0
41
1
10
34.0819469013217
20
1.89879464439855
30
0
41
1
10
34.0413786893475
20
2.14644091828526
30
0
41
1
10
34.0001450578972
20
2.20864102222742
30
0
41
1
10
33.9772757716643
20
2.18328549125974
30
0
41
1
10
33.9763944999408
20
2.18221785869446
30
0
0
SPLINE
5
E4
100
AcDbEntity
8
1
62
256
6
ByLayer
370
13
48
1
60
0
100
AcDbSpline
70
4
71
3
72
9
73
5
40
0
40
0
40
0
40
0
40
0.257094621272572
40
1
40
1
40
1
40
1
41
1.04
10
35.3249690436885
20
-2.1876767459237
30
0
41
1.04
10
35.3147736773695
20
-2.19617785636794
30
0
41
1.04
10
35.2748133730017
20
-2.18261045186848
30
0
41
1.04
10
35.2333135510814
20
-1.974964272407
30
0
41
1.04
10
35.2013753088158
20
-1.71733870592278
30
0
0
SPLINE
5
E5
100
AcDbEntity
8
1
62
256
6
ByLayer
370
13
48
1
60
0
100
AcDbSpline
70
4
71
3
72
9
73
5
40
0
40
0
40
0
40
0
40
0.464813820006612
40
1
40
1
40
1
40
1
41
1.04
10
34.9476684416444
20
1.24891963533454
30
0
41
1.04
10
34.9290144726825
20
1.44852131541212
30
0
41
1.04
10
34.8883976535763
20
1.83347244743586
30
0
41
1.04
10
34.8463849053038
20
2.06663208122652
30
0
41
1.04
10
34.8243433172063
20
2.13320623023251
30
0
0
SPLINE
5
E6
100
AcDbEntity
8
1
62
256
6
ByLayer
370
13
48
1
60
0
100
AcDbSpline
70
4
71
3
72
9
73
5
40
0
40
0
40
0
40
0
40
0.217204531235715
40
1
40
1
40
1
40
1
41
1
10
34.4769556302721
20
-2.11598518406046
30
0
41
1
10
34.4677269029521
20
-2.08443597529958
30
0
41
1
10
34.4253190331091
20
-1.89504176334773
30
0
41
1
10
34.3851537741378
20
-1.53581912388989
30
0
41
1
10
34.3535792432195
20
-1.19040662236381
30
0
0
SPLINE
5
E7
100
AcDbEntity
8
1
62
256
6
ByLayer
370
13
48
1
60
0
100
AcDbSpline
70
4
71
3
72
9
73
5
40
0
40
0
40
0
40
0
40
0.200238455725039
40
1
40
1
40
1
40
1
41
1
10
37.4949544705646
20
-0.803026476432024
30
0
41
1
10
37.4866563799918
20
-0.702529418484914
30
0
41
1
10
37.445211291271
20
-0.186150396260501
30
0
41
1
10
37.404439437919
20
0.366553064166879
30
0
41
1
10
37.3712972113679
20
0.770258928784614
30
0
0
SPLINE
5
E8
100
AcDbEntity
8
1
62
256
6
ByLayer
370
18
48
1
60
0
100
AcDbSpline
70
4
71
3
72
10
73
6
40
0
40
0
40
0
40
0
40
0.39304576997529
40
0.785312505156502
40
1
40
1
40
1
40
1
41
1
10
37.9100000171588
20
-1.0482359320448
30
0
41
1
10
37.9100000196134
20
-0.888620574419946
30
0
41
1
10
37.9099999984167
20
-0.546554329956393
30
0
41
1
10
37.9099999567611
20
-0.0816875504332302
30
0
41
1
10
37.9099999492405
20
0.197692216851379
30
0
41
1
10
37.9099999479142
20
0.295187803754601
30
0
0
SPLINE
5
E9
100
AcDbEntity
8
1
62
256
6
ByLayer
370
18
48
1
60
0
100
AcDbSpline
70
4
71
3
72
23
73
19
40
0
40
0
40
0
40
0
40
0.125000000000001
40
0.250000000000001
40
0.375000000000001
40
0.375000000000001
40
0.437500000000002
40
0.437500000000002
40
0.500000000000002
40
0.500000000000002
40
0.625000000000001
40
0.750000000000001
40
0.750000000000001
40
0.875
40
0.875
40
0.9375
40
0.9375
40
1
40
1
40
1
40
1
41
1
10
37.3927012381359
20
0.77113393042859
30
0
41
1
10
37.3978033349422
20
0.706125879469624
30
0
41
1
10
37.4079938015613
20
0.574873745249448
30
0
41
1
10
37.4233460898574
20
0.374427013708669
30
0
41
1
10
37.4336519755253
20
0.238425389273971
30
0
41
1
10
37.4414066130269
20
0.135507512915751
30
0
41
1
10
37.4439955930357
20
0.101048452707687
30
0
41
1
10
37.449180490101
20
0.031815306975119
30
0
41
1
10
37.4517659967806
20
-0.0028304383648674
30
0
41
1
10
37.4594583186113
20
-0.106204832872919
30
0
41
1
10
37.4695971389191
20
-0.243071327486092
30
0
41
1
10
37.4797193352162
20
-0.378057891362118
30
0
41
1
10
37.4899068261049
20
-0.512098479339585
30
0
41
1
10
37.4950372581831
20
-0.57864450574391
30
0
41
1
10
37.5027727895666
20
-0.677733971401551
30
0
41
1
10
37.5053622811755
20
-0.710687438453874
30
0
41
1
10
37.5105256114774
20
-0.775909021786134
30
0
41
1
10
37.5131028185715
20
-0.808220887876672
30
0
41
1
10
37.515678639563
20
-0.840234607239893
30
0
0
SPLINE
5
EA
100
AcDbEntity
8
1
62
256
6
ByLayer
370
13
48
1
60
0
100
AcDbSpline
70
4
71
3
72
10
73
6
40
0
40
0
40
0
40
0
40
0.0404732255598841
40
0.855222883581047
40
1
40
1
40
1
40
1
41
1.04
10
37.2111010305085
20
-0.575236668310043
30
0
41
1.04
10
37.2094281482645
20
-0.554234221169818
30
0
41
1.04
10
37.1740976016019
20
-0.108887227735229
30
0
41
1.04
10
37.1333611524201
20
0.443981884362161
30
0
41
1.04
10
37.093479986933
20
0.919606918134155
30
0
41
1.04
10
37.0874478749556
20
0.989655730803344
30
0
0
SPLINE
5
EB
100
AcDbEntity
8
1
62
256
6
ByLayer
370
13
48
1
60
0
100
AcDbSpline
70
4
71
3
72
10
73
6
40
0
40
0
40
0
40
0
40
0.401472759466189
40
0.81001495526281
40
1
40
1
40
1
40
1
41
1
10
36.3632402244438
20
0.13305625385928
30
0
41
1
10
36.3464985600441
20
0.350497839185721
30
0
41
1
10
36.3130565265394
20
0.781066574680494
30
0
41
1
10
36.2720767284802
20
1.25239972255773
30
0
41
1
10
36.247494790784
20
1.49239523384395
30
0
41
1
10
36.2396809486684
20
1.5636628459643
30
0
0
SPLINE
5
EC
100
AcDbEntity
8
1
62
256
6
ByLayer
370
18
48
1
60
0
100
AcDbSpline
70
4
71
3
72
21
73
17
40
0
40
0
40
0
40
0
40
0.250000000000001
40
0.250000000000001
40
0.312500000000002
40
0.312500000000002
40
0.343750000000002
40
0.343750000000002
40
0.375000000000002
40
0.500000000000001
40
0.500000000000001
40
0.625000000000001
40
0.625000000000001
40
0.750000000000001
40
0.750000000000001
40
1
40
1
40
1
40
1
41
1
10
36.4408915074266
20
1.70221471203092
30
0
41
1
10
36.4519792866964
20
1.57813589811826
30
0
41
1
10
36.4630151711855
20
1.44411346848332
30
0
41
1
10
36.4768085668089
20
1.26389467533829
30
0
41
1
10
36.4795676143893
20
1.22721315402933
30
0
41
1
10
36.4837132512046
20
1.17121846174072
30
0
41
1
10
36.4850972013497
20
1.1523793109011
30
0
41
1
10
36.4878537816818
20
1.11458465143434
30
0
41
1
10
36.4947256831131
20
1.01968380326386
30
0
41
1
10
36.5015270659232
20
0.922751586610644
30
0
41
1
10
36.5124410695497
20
0.765160508996047
30
0
41
1
10
36.5179102653829
20
0.685114836350976
30
0
41
1
10
36.5289276183209
20
0.522521210889551
30
0
41
1
10
36.5344786941848
20
0.439929073952442
30
0
41
1
10
36.5512869594295
20
0.188513985419405
30
0
41
1
10
36.5623615486755
20
0.0206657863855639
30
0
41
1
10
36.573434305877
20
-0.147413231343819
30
0
0
SPLINE
5
ED
100
AcDbEntity
8
1
62
256
6
ByLayer
370
18
48
1
60
0
100
AcDbSpline
70
4
71
3
72
25
73
21
40
0
40
0
40
0
40
0
40
0.125
40
0.125
40
0.249999999999999
40
0.249999999999999
40
0.374999999999999
40
0.374999999999999
40
0.437499999999998
40
0.437499999999998
40
0.499999999999998
40
0.499999999999998
40
0.624999999999999
40
0.749999999999999
40
0.749999999999999
40
0.812499999999999
40
0.812499999999999
40
0.875
40
0.875
40
1
40
1
40
1
40
1
41
1
10
37.1167593710022
20
-0.579345703846428
30
0
41
1
10
37.1112105323764
20
-0.505950213731126
30
0
41
1
10
37.1056731572327
20
-0.432158951443966
30
0
41
1
10
37.0945879859697
20
-0.283811057627645
30
0
41
1
10
37.0890417072847
20
-0.209254212339289
30
0
41
1
10
37.0779709378883
20
-0.0593621801785389
30
0
41
1
10
37.0724589629114
20
0.0159761736502446
30
0
41
1
10
37.0642148786439
20
0.129592319163805
30
0
41
1
10
37.0614601550278
20
0.167654313936794
30
0
41
1
10
37.0559852237534
20
0.243225102710795
30
0
41
1
10
37.0532602480375
20
0.280799262208035
30
0
41
1
10
37.0450960068087
20
0.39290300596349
30
0
41
1
10
37.034236119995
20
0.540728399106229
30
0
41
1
10
37.0232111921668
20
0.685326430540982
30
0
41
1
10
37.0148322536901
20
0.792544200281867
30
0
41
1
10
37.0120204475817
20
0.828077873111596
30
0
41
1
10
37.0063610674871
20
0.898724620016139
30
0
41
1
10
37.0035097935649
20
0.933899624471167
30
0
41
1
10
36.9950002370575
20
1.03793715330937
30
0
41
1
10
36.9893749898128
20
1.10552279388247
30
0
41
1
10
36.9838187317136
20
1.17132636148713
30
0
0
SPLINE
5
EE
100
AcDbEntity
8
1
62
256
6
ByLayer
370
13
48
1
60
0
100
AcDbSpline
70
4
71
3
72
9
73
5
40
0
40
0
40
0
40
0
40
0.626061269751475
40
1
40
1
40
1
40
1
41
1
10
35.2315476282368
20
1.04427266348864
30
0
41
1
10
35.2064447486183
20
1.33172486231888
30
0
41
1
10
35.1657658990542
20
1.74189034688729
30
0
41
1
10
35.1236707755536
20
1.99687293989189
30
0
41
1
10
35.1080255567339
20
2.06548242998932
30
0
0
SPLINE
5
EF
100
AcDbEntity
8
1
62
256
6
ByLayer
370
13
48
1
60
0
100
AcDbSpline
70
4
71
3
72
10
73
6
40
0
40
0
40
0
40
0
40
0.241733340636648
40
0.650139468056283
40
1
40
1
40
1
40
1
41
1.04
10
36.0793386373036
20
0.37186804697133
30
0
41
1.04
10
36.0693245888197
20
0.500344042709299
30
0
41
1.04
10
36.0425134193113
20
0.83913485734924
30
0
41
1.04
10
36.0015199448653
20
1.31285598169733
30
0
41
1.04
10
35.9703485772682
20
1.60506061259358
30
0
41
1.04
10
35.9559130307188
20
1.72143221368209
30
0
0
SPLINE
5
F0
100
AcDbEntity
8
1
62
256
6
ByLayer
370
18
48
1
60
0
100
AcDbSpline
70
4
71
3
72
17
73
13
40
0
40
0
40
0
40
0
40
0.25
40
0.25
40
0.375
40
0.375
40
0.4375
40
0.4375
40
0.5
40
0.5
40
0.75
40
1
40
1
40
1
40
1
41
1
10
35.660553103724
20
1.56747751680913
30
0
41
1
10
35.6536747832338
20
1.66163543067893
30
0
41
1
10
35.6467708597112
20
1.75179307882408
30
0
41
1
10
35.6363576287351
20
1.88093458646497
30
0
41
1
10
35.6328784916353
20
1.92296320953991
30
0
41
1
10
35.6276439366333
20
1.98443952385694
30
0
41
1
10
35.6259015820128
20
2.00460865546609
30
0
41
1
10
35.6224321355566
20
2.0441748245004
30
0
41
1
10
35.6207032365617
20
2.06359312006799
30
0
41
1
10
35.6120836605331
20
2.1588816622488
30
0
41
1
10
35.5984577905677
20
2.29984501153774
30
0
41
1
10
35.5848511477662
20
2.41821574149719
30
0
41
1
10
35.5779384658385
20
2.47159647591005
30
0
0
SPLINE
5
F1
100
AcDbEntity
8
1
62
256
6
ByLayer
370
18
48
1
60
0
100
AcDbSpline
70
4
71
3
72
15
73
11
40
0
40
0
40
0
40
0
40
0.250000000000001
40
0.250000000000001
40
0.500000000000002
40
0.500000000000002
40
0.625000000000001
40
0.625000000000001
40
0.75
40
1
40
1
40
1
40
1
41
1
10
35.7213562867206
20
0.678793146024645
30
0
41
1
10
35.7163478152877
20
0.757792632478044
30
0
41
1
10
35.711321935554
20
0.835763161040319
30
0
41
1
10
35.7011861000959
20
0.989643990798839
30
0
41
1
10
35.6960735434459
20
1.06555482321878
30
0
41
1
10
35.6883695985248
20
1.1778219800118
30
0
41
1
10
35.6857906956552
20
1.21505694754705
30
0
41
1
10
35.6806684172045
20
1.28837755312409
30
0
41
1
10
35.6730286492946
20
1.39676361846574
30
0
41
1
10
35.6655241353025
20
1.50042968194327
30
0
41
1
10
35.6605531037239
20
1.56747751680916
30
0
0
SPLINE
5
F2
100
AcDbEntity
8
1
62
256
6
ByLayer
370
13
48
1
60
0
100
AcDbSpline
70
4
71
3
72
9
73
5
40
0
40
0
40
0
40
0
40
0.587114461745063
40
1
40
1
40
1
40
1
41
1
10
33.3451887276482
20
-1.67584931031237
30
0
41
1
10
33.3214916967503
20
-1.47663639146535
30
0
41
1
10
33.2807505852561
20
-1.05006596920967
30
0
41
1
10
33.2393355020932
20
-0.527164052188141
30
0
41
1
10
33.2221389426092
20
-0.305447883436415
30
0
0
SPLINE
5
F3
100
AcDbEntity
8
1
62
256
6
ByLayer
370
13
48
1
60
0
100
AcDbSpline
70
4
71
3
72
10
73
6
40
0
40
0
40
0
40
0
40
0.119454247775499
40
0.941513324605462
40
1
40
1
40
1
40
1
41
1
10
32.2134975197773
20
-0.922896045106285
30
0
41
1
10
32.2083987940835
20
-0.862702511506939
30
0
41
1
10
32.1684066540964
20
-0.380727582260107
30
0
41
1
10
32.1276502532889
20
0.173764049066619
30
0
41
1
10
32.0928573408602
20
0.609309794406045
30
0
41
1
10
32.0905517279201
20
0.637984341090032
30
0
0
SPLINE
5
F4
100
AcDbEntity
8
1
62
256
6
ByLayer
370
13
48
1
60
0
100
AcDbSpline
70
4
71
3
72
10
73
6
40
0
40
0
40
0
40
0
40
0.0613446243504771
40
0.878388099588394
40
1
40
1
40
1
40
1
41
1.04
10
34.1932129999706
20
-2.04073454549706
30
0
41
1.04
10
34.1906047756493
20
-2.02834100913392
30
0
41
1.04
10
34.1533515283169
20
-1.84101291161163
30
0
41
1.04
10
34.1129435110257
20
-1.47525362355959
30
0
41
1.04
10
34.0747037112583
20
-1.03987748180588
30
0
41
1.04
10
34.069746915869
20
-0.982186949661896
30
0
0
SPLINE
5
F5
100
AcDbEntity
8
1
62
256
6
ByLayer
370
18
48
1
60
0
100
AcDbSpline
70
4
71
3
72
26
73
22
40
0
40
0
40
0
40
0
40
0.125
40
0.25
40
0.25
40
0.3125
40
0.34375
40
0.34375
40
0.374999999999999
40
0.374999999999999
40
0.499999999999999
40
0.624999999999999
40
0.624999999999999
40
0.749999999999999
40
0.749999999999999
40
0.781249999999998
40
0.781249999999998
40
0.812499999999998
40
0.874999999999999
40
0.874999999999999
40
1
40
1
40
1
40
1
41
1
10
32.4536516148694
20
0.541916177837038
30
0
41
1
10
32.4596645870183
20
0.445800044871845
30
0
41
1
10
32.4716200476807
20
0.252855077373084
30
0
41
1
10
32.4833968659717
20
0.058514984763633
30
0
41
1
10
32.4922028353098
20
-0.0877657943651684
30
0
41
1
10
32.4965999316804
20
-0.161037827477884
30
0
41
1
10
32.5010021842365
20
-0.234509895953863
30
0
41
1
10
32.5039401307843
20
-0.283536172100554
30
0
41
1
10
32.5054100408581
20
-0.308061649550638
30
0
41
1
10
32.5127286161286
20
-0.430071852872373
30
0
41
1
10
32.5243085341716
20
-0.622506570873725
30
0
41
1
10
32.5359188275428
20
-0.809528955790483
30
0
41
1
10
32.5476873083577
20
-0.993831245276425
30
0
41
1
10
32.5536557878055
20
-1.08462239496095
30
0
41
1
10
32.561166691072
20
-1.19635369598006
30
0
41
1
10
32.5626689407742
20
-1.21857158652847
30
0
41
1
10
32.5656616709787
20
-1.26258192665404
30
0
41
1
10
32.5701384181151
20
-1.32803673577814
30
0
41
1
10
32.5745782661908
20
-1.3918285365707
30
0
41
1
10
32.5834175625138
20
-1.51722710907782
30
0
41
1
10
32.5892542733885
20
-1.59791871978601
30
0
41
1
10
32.5950893966629
20
-1.67571447513868
30
0
0
SPLINE
5
F6
100
AcDbEntity
8
1
62
256
6
ByLayer
370
13
48
1
60
0
100
AcDbSpline
70
4
71
3
72
9
73
5
40
0
40
0
40
0
40
0
40
0.42582563531753
40
1
40
1
40
1
40
1
41
1.04
10
33.0614350968587
20
-1.51197889042348
30
0
41
1.04
10
33.0442155677041
20
-1.34973091331235
30
0
41
1.04
10
33.0035010681075
20
-0.911522969497069
30
0
41
1.04
10
32.9621171224664
20
-0.37628616239867
30
0
41
1.04
10
32.9381827844981
20
-0.0650856785693048
30
0
0
SPLINE
5
F7
100
AcDbEntity
8
1
62
256
6
ByLayer
370
13
48
1
60
0
100
AcDbSpline
70
4
71
3
72
9
73
5
40
0
40
0
40
0
40
0
40
0.774993444878322
40
1
40
1
40
1
40
1
41
1.04
10
31.9296634735554
20
-0.700382604813043
30
0
41
1.04
10
31.8965689221409
20
-0.29264835799437
30
0
41
1.04
10
31.8553061405723
20
0.266922507104949
30
0
41
1.04
10
31.8154945565644
20
0.757944729506422
30
0
41
1.04
10
31.806641849137
20
0.863636873719779
30
0
0
SPLINE
5
F8
100
AcDbEntity
8
1
62
256
6
ByLayer
370
18
48
1
60
0
100
AcDbSpline
70
4
71
3
72
28
73
24
40
0
40
0
40
0
40
0
40
0.125
40
0.125
40
0.25
40
0.25
40
0.312499999999999
40
0.312499999999999
40
0.374999999999999
40
0.374999999999999
40
0.499999999999999
40
0.499999999999999
40
0.624999999999999
40
0.624999999999999
40
0.656249999999999
40
0.656249999999999
40
0.687499999999999
40
0.687499999999999
40
0.749999999999999
40
0.749999999999999
40
0.875
40
0.875
40
1
40
1
40
1
40
1
41
1
10
31.5696350731438
20
-0.686639412098856
30
0
41
1
10
31.563667733524
20
-0.592157801897258
30
0
41
1
10
31.5577021033107
20
-0.496748117908197
30
0
41
1
10
31.5457972966665
20
-0.304078907938646
30
0
41
1
10
31.5398589541265
20
-0.206819449721422
30
0
41
1
10
31.5309560872053
20
-0.0595032619677909
30
0
41
1
10
31.527982987232
20
-0.0100614451078229
30
0
41
1
10
31.5220961143806
20
0.0881758813533509
30
0
41
1
10
31.51917490376
20
0.137093761508083
30
0
41
1
10
31.5104563934391
20
0.283254606279939
30
0
41
1
10
31.5047069025021
20
0.379906514993053
30
0
41
1
10
31.493161685027
20
0.571640555642659
30
0
41
1
10
31.4873504427859
20
0.666721815595025
30
0
41
1
10
31.4799432728236
20
0.784564500823251
30
0
41
1
10
31.4784561208717
20
0.808082547350381
30
0
41
1
10
31.4754710443174
20
0.855016629283796
30
0
41
1
10
31.4739713304122
20
0.878460460732157
30
0
41
1
10
31.4694692659325
20
0.948438913592327
30
0
41
1
10
31.4664742702627
20
0.994465664724316
30
0
41
1
10
31.4575065478976
20
1.13070984939716
30
0
41
1
10
31.4515444994769
20
1.21909579799046
30
0
41
1
10
31.4396419787649
20
1.39106983143284
30
0
41
1
10
31.4337114950056
20
1.47465841051846
30
0
41
1
10
31.4278053429825
20
1.55581379333972
30
0
0
SPLINE
5
F9
100
AcDbEntity
8
1
62
256
6
ByLayer
370
13
48
1
60
0
100
AcDbSpline
70
4
71
3
72
9
73
5
40
0
40
0
40
0
40
0
40
0.224721393004194
40
1
40
1
40
1
40
1
41
1
10
31.0817692249672
20
0.0028279289261661
30
0
41
1
10
31.073276851874
20
0.113006069787076
30
0
41
1
10
31.0348217037965
20
0.611687579725441
30
0
41
1
10
30.9931629853336
20
1.13121041624908
30
0
41
1
10
30.9589273287296
20
1.46259609946361
30
0
0
SPLINE
5
FA
100
AcDbEntity
8
1
62
256
6
ByLayer
370
18
48
1
60
0
100
AcDbSpline
70
4
71
3
72
30
73
26
40
0
40
0
40
0
40
0
40
0.124999999999999
40
0.124999999999999
40
0.249999999999999
40
0.249999999999999
40
0.281249999999999
40
0.281249999999999
40
0.312499999999999
40
0.312499999999999
40
0.374999999999999
40
0.374999999999999
40
0.499999999999999
40
0.499999999999999
40
0.624999999999999
40
0.624999999999999
40
0.6875
40
0.6875
40
0.71875
40
0.71875
40
0.75
40
0.75
40
0.875
40
0.875
40
1
40
1
40
1
40
1
41
1
10
31.3217097193879
20
1.6486554761874
30
0
41
1
10
31.3276893350242
20
1.56988755835604
30
0
41
1
10
31.3336829658795
20
1.48846469575173
30
0
41
1
10
31.3456473899188
20
1.32036384832682
30
0
41
1
10
31.3516169132966
20
1.23368594014627
30
0
41
1
10
31.3590536069288
20
1.1219800778764
30
0
41
1
10
31.3605398276872
20
1.09947054794142
30
0
41
1
10
31.3635104671743
20
1.05411113695268
30
0
41
1
10
31.3649969377313
20
1.03122929905325
30
0
41
1
10
31.3694390211827
20
0.962312630494353
30
0
41
1
10
31.3723715703381
20
0.916095274561087
30
0
41
1
10
31.3811013841763
20
0.776642855463507
30
0
41
1
10
31.3868265323062
20
0.682609312032866
30
0
41
1
10
31.3982731305429
20
0.492460100250099
30
0
41
1
10
31.4040127894806
20
0.396345476468639
30
0
41
1
10
31.4127896371895
20
0.250598987348695
30
0
41
1
10
31.4157393610454
20
0.201753648052943
30
0
41
1
10
31.4202038149023
20
0.128083156601832
30
0
41
1
10
31.4217008212384
20
0.103422485398283
30
0
41
1
10
31.4246941075814
20
0.0542002454683654
30
0
41
1
10
31.4261907667262
20
0.0296322422287005
30
0
41
1
10
31.4336741266195
20
-0.0929946903152086
30
0
41
1
10
31.4396616703451
20
-0.190416132930153
30
0
41
1
10
31.4516223501805
20
-0.383933905447123
30
0
41
1
10
31.4575942011668
20
-0.48003024799894
30
0
41
1
10
31.4635521100249
20
-0.575459285368652
30
0
0
SPLINE
5
FB
100
AcDbEntity
8
1
62
256
6
ByLayer
370
13
48
1
60
0
100
AcDbSpline
70
4
71
3
72
10
73
6
40
0
40
0
40
0
40
0
40
0.05254442475818
40
0.878045119704505
40
1
40
1
40
1
40
1
41
1.04
10
30.7978238477644
20
0.242720610560208
30
0
41
1.04
10
30.7958346294885
20
0.268400005237104
30
0
41
1.04
10
30.7624558559058
20
0.69866277620512
30
0
41
1.04
10
30.7217699715224
20
1.2074005088129
30
0
41
1.04
10
30.6804719080292
20
1.58515414596689
30
0
41
1.04
10
30.675152928931
20
1.63142769377058
30
0
0
SPLINE
5
FC
100
AcDbEntity
8
1
62
256
6
ByLayer
370
18
48
1
60
0
100
AcDbSpline
70
4
71
3
72
10
73
6
40
0
40
0
40
0
40
0
40
0.5
40
0.5
40
1
40
1
40
1
40
1
41
1
10
35.3249690436885
20
-2.18767674592371
30
0
41
1
10
35.2639571771703
20
-2.29127884805484
30
0
41
1
10
35.2035114995201
20
-2.39359937603027
30
0
41
1
10
35.0833242767258
20
-2.59559021884161
30
0
41
1
10
35.0239856400424
20
-2.69457991846863
30
0
41
1
10
34.9651341526936
20
-2.79154902495856
30
0
0
SPLINE
5
FD
100
AcDbEntity
8
1
62
256
6
ByLayer
370
18
48
1
60
0
100
AcDbSpline
70
4
71
3
72
8
73
4
40
0
40
0
40
0
40
0
40
1
40
1
40
1
40
1
41
1
10
34.8586243555319
20
-2.78765024603891
30
0
41
1
10
34.8941190184353
20
-2.78973324675798
30
0
41
1
10
34.929616782848
20
-2.79103345854207
30
0
41
1
10
34.9651341526937
20
-2.79154902495858
30
0
0
SPLINE
5
FE
100
AcDbEntity
8
1
62
256
6
ByLayer
370
18
48
1
60
0
100
AcDbSpline
70
4
71
3
72
10
73
6
40
0
40
0
40
0
40
0
40
0.290465609811977
40
0.290465609811977
40
1
40
1
40
1
40
1
41
1
10
34.7475412204984
20
-2.59986584258951
30
0
41
1
10
34.7217238689851
20
-2.55540099601242
30
0
41
1
10
34.6957901072458
20
-2.51018757279641
30
0
41
1
10
34.606029980688
20
-2.35194717132944
30
0
41
1
10
34.5419375947942
20
-2.23589706744642
30
0
41
1
10
34.4769556302721
20
-2.11598518406055
30
0
0
SPLINE
5
FF
100
AcDbEntity
8
1
62
256
6
ByLayer
370
18
48
1
60
0
100
AcDbSpline
70
4
71
3
72
30
73
26
40
0
40
0
40
0
40
0
40
0.125000000000007
40
0.125000000000007
40
0.250000000000014
40
0.250000000000014
40
0.375000000000021
40
0.375000000000021
40
0.437500000000007
40
0.437500000000007
40
0.499999999999992
40
0.499999999999992
40
0.624999999999964
40
0.624999999999964
40
0.68749999999997
40
0.68749999999997
40
0.749999999999976
40
0.749999999999976
40
0.812499999999982
40
0.812499999999982
40
0.874999999999988
40
0.874999999999988
40
0.937499999999994
40
0.937499999999994
40
1
40
1
40
1
40
1
41
1
10
34.4769556302714
20
-2.11598518406026
30
0
41
1
10
34.4692797012819
20
-2.10182071383173
30
0
41
1
10
34.4603981147994
20
-2.08907012400098
30
0
41
1
10
34.4407616681552
20
-2.06572897941902
30
0
41
1
10
34.4299129535443
20
-2.05510602396851
30
0
41
1
10
34.4072315404587
20
-2.03648857280285
30
0
41
1
10
34.3953320341727
20
-2.02839810982309
30
0
41
1
10
34.3767013397946
20
-2.01802889947467
30
0
41
1
10
34.3703596682669
20
-2.01486995429124
30
0
41
1
10
34.3574087537304
20
-2.00917433097598
30
0
41
1
10
34.3508328585516
20
-2.00665558407545
30
0
41
1
10
34.3310668672038
20
-2.00020009096318
30
0
41
1
10
34.3177405671835
20
-1.99730131730593
30
0
41
1
10
34.29755554682
20
-1.99534537583608
30
0
41
1
10
34.2907943763839
20
-1.99509587242176
30
0
41
1
10
34.277207219063
20
-1.99551969887179
30
0
41
1
10
34.2703636933223
20
-1.99620256756694
30
0
41
1
10
34.2569841311214
20
-1.99859468061894
30
0
41
1
10
34.2504053111956
20
-2.00030114882884
30
0
41
1
10
34.2375117421487
20
-2.00488948544782
30
0
41
1
10
34.2311454197045
20
-2.00780300544818
30
0
41
1
10
34.2190586066137
20
-2.01488770701167
30
0
41
1
10
34.2133327463438
20
-2.01904495927431
30
0
41
1
10
34.2026198559606
20
-2.02879289212962
30
0
41
1
10
34.197615414579
20
-2.03442356430935
30
0
41
1
10
34.1932129999718
20
-2.04073454549393
30
0
0
SPLINE
5
100
100
AcDbEntity
8
1
62
256
6
ByLayer
370
18
48
1
60
0
100
AcDbSpline
70
4
71
3
72
10
73
6
40
0
40
0
40
0
40
0
40
0.5
40
0.5
40
1
40
1
40
1
40
1
41
1
10
34.1932129999706
20
-2.04073454549706
30
0
41
1
10
34.132093735956
20
-2.12835067429182
30
0
41
1
10
34.0715517793753
20
-2.21161669532992
30
0
41
1
10
33.9511920057661
20
-2.36976971699838
30
0
41
1
10
33.8917868327463
20
-2.44413056499491
30
0
41
1
10
33.8328773778951
20
-2.51400154716242
30
0
0
SPLINE
5
101
100
AcDbEntity
8
1
62
256
6
ByLayer
370
18
48
1
60
0
100
AcDbSpline
70
4
71
3
72
8
73
4
40
0
40
0
40
0
40
0
40
1
40
1
40
1
40
1
41
1
10
33.7266177459709
20
-2.46217933256685
30
0
41
1
10
33.7620286343149
20
-2.48014325622427
30
0
41
1
10
33.7974430985635
20
-2.4974199937148
30
0
41
1
10
33.8328773778951
20
-2.51400154716239
30
0
0
SPLINE
5
102
100
AcDbEntity
8
1
62
256
6
ByLayer
370
18
48
1
60
0
100
AcDbSpline
70
4
71
3
72
10
73
6
40
0
40
0
40
0
40
0
40
0.5
40
0.5
40
1
40
1
40
1
40
1
41
1
10
33.7266177459709
20
-2.46217933256685
30
0
41
1
10
33.6642536656083
20
-2.33303701537201
30
0
41
1
10
33.601433021592
20
-2.20260635959136
30
0
41
1
10
33.4741828937355
20
-1.93956402677844
30
0
41
1
10
33.4101384948564
20
-1.80774921770885
30
0
41
1
10
33.3451887276484
20
-1.67584931031365
30
0
0
SPLINE
5
103
100
AcDbEntity
8
1
62
256
6
ByLayer
370
18
48
1
60
0
100
AcDbSpline
70
4
71
3
72
30
73
26
40
0
40
0
40
0
40
0
40
0.125000000000005
40
0.125000000000005
40
0.25000000000001
40
0.25000000000001
40
0.375000000000014
40
0.375000000000014
40
0.437500000000017
40
0.437500000000017
40
0.50000000000002
40
0.50000000000002
40
0.624999999999985
40
0.624999999999985
40
0.687499999999987
40
0.687499999999987
40
0.74999999999999
40
0.74999999999999
40
0.812499999999992
40
0.812499999999992
40
0.874999999999995
40
0.874999999999995
40
0.937499999999998
40
0.937499999999998
40
1
40
1
40
1
40
1
41
1
10
33.3451887276484
20
-1.67584931031365
30
0
41
1
10
33.3375113201563
20
-1.66025804061743
30
0
41
1
10
33.3286302330341
20
-1.64560506529486
30
0
41
1
10
33.3090011144471
20
-1.61774618776903
30
0
41
1
10
33.2981594675192
20
-1.60448018975453
30
0
41
1
10
33.2754971913475
20
-1.58009210178594
30
0
41
1
10
33.2636095868922
20
-1.5688595873622
30
0
41
1
10
33.2449973709201
20
-1.55339011685777
30
0
41
1
10
33.2386619389881
20
-1.54846583595395
30
0
41
1
10
33.225722836737
20
-1.53909958926471
30
0
41
1
10
33.2191502573028
20
-1.53468319698442
30
0
41
1
10
33.1993933020355
20
-1.52241905879055
30
0
41
1
10
33.1860694675459
20
-1.51546656507014
30
0
41
1
10
33.1658823136638
20
-1.50709260815108
30
0
41
1
10
33.1591194684352
20
-1.50464694325322
30
0
41
1
10
33.1455270647924
20
-1.50054271050712
30
0
41
1
10
33.1386758885037
20
-1.49888559739858
30
0
41
1
10
33.1252795289789
20
-1.49656440600262
30
0
41
1
10
33.118692372266
20
-1.49588381474876
30
0
41
1
10
33.1057829006982
20
-1.49562255938636
30
0
41
1
10
33.0994087094492
20
-1.4960521045829
30
0
41
1
10
33.0873046253554
20
-1.49820216473017
30
0
41
1
10
33.0815717273753
20
-1.49990882252109
30
0
41
1
10
33.0708485618459
20
-1.50479057478239
30
0
41
1
10
33.0658400898317
20
-1.50799451168342
30
0
41
1
10
33.0614350968585
20
-1.51197889042197
30
0
0
SPLINE
5
104
100
AcDbEntity
8
1
62
256
6
ByLayer
370
18
48
1
60
0
100
AcDbSpline
70
4
71
3
72
12
73
8
40
0
40
0
40
0
40
0
40
0.249999999999996
40
0.249999999999996
40
0.499999999999992
40
0.499999999999992
40
1
40
1
40
1
40
1
41
1
10
33.0614350968587
20
-1.51197889042351
30
0
41
1
10
33.0308721633483
20
-1.53962349807853
30
0
41
1
10
33.000452582802
20
-1.56562087995528
30
0
41
1
10
32.9398592893416
20
-1.61427713919406
30
0
41
1
10
32.9096829963959
20
-1.63696589530284
30
0
41
1
10
32.8194236250187
20
-1.7003215870339
30
0
41
1
10
32.7600344608251
20
-1.73600111381836
30
0
41
1
10
32.7011465090566
20
-1.76554340337356
30
0
0
SPLINE
5
105
100
AcDbEntity
8
1
62
256
6
ByLayer
370
18
48
1
60
0
100
AcDbSpline
70
4
71
3
72
10
73
6
40
0
40
0
40
0
40
0
40
0.5
40
0.5
40
1
40
1
40
1
40
1
41
1
10
32.5950893966564
20
-1.67571447513248
30
0
41
1
10
32.532767041259
20
-1.54515174478436
30
0
41
1
10
32.4699340809541
20
-1.41675926441008
30
0
41
1
10
32.3425918300924
20
-1.16488764146663
30
0
41
1
10
32.2784708402509
20
-1.04213066607355
30
0
41
1
10
32.2134975197773
20
-0.922896045106285
30
0
0
SPLINE
5
106
100
AcDbEntity
8
1
62
256
6
ByLayer
370
18
48
1
60
0
100
AcDbSpline
70
4
71
3
72
30
73
26
40
0
40
0
40
0
40
0
40
0.125000000000035
40
0.125000000000035
40
0.250000000000069
40
0.250000000000069
40
0.375000000000103
40
0.375000000000103
40
0.437500000000121
40
0.437500000000121
40
0.500000000000138
40
0.500000000000138
40
0.625000000000134
40
0.625000000000134
40
0.687500000000112
40
0.687500000000112
40
0.750000000000089
40
0.750000000000089
40
0.812500000000067
40
0.812500000000067
40
0.875000000000045
40
0.875000000000045
40
0.937500000000022
40
0.937500000000022
40
1
40
1
40
1
40
1
41
1
10
32.2134975197773
20
-0.922896045106285
30
0
41
1
10
32.205804279568
20
-0.908777933646348
30
0
41
1
10
32.1969052454477
20
-0.894944042899425
30
0
41
1
10
32.1772431652486
20
-0.867737145395978
30
0
41
1
10
32.1663862818158
20
-0.854288187828672
30
0
41
1
10
32.1437020810383
20
-0.828653057611916
30
0
41
1
10
32.1318070791304
20
-0.816361878515096
30
0
41
1
10
32.1131908174571
20
-0.79866104881873
30
0
41
1
10
32.1068552089604
20
-0.792884593301636
30
0
41
1
10
32.0939184007974
20
-0.781584094527403
30
0
41
1
10
32.0873470735493
20
-0.776088332492691
30
0
41
1
10
32.0675962482755
20
-0.760283521345912
30
0
41
1
10
32.0542791241022
20
-0.750557550400885
30
0
41
1
10
32.0341052750439
20
-0.737293941089774
30
0
41
1
10
32.0273474053728
20
-0.733095642243455
30
0
41
1
10
32.013765943833
20
-0.725200050708423
30
0
41
1
10
32.0069184298586
20
-0.721494122780456
30
0
41
1
10
31.9935260260761
20
-0.714850727307351
30
0
41
1
10
31.9869403282989
20
-0.711886873905286
30
0
41
1
10
31.9740326547912
20
-0.706775197631259
30
0
41
1
10
31.9676588080502
20
-0.704613972213679
30
0
41
1
10
31.9555498663606
20
-0.701371864617755
30
0
41
1
10
31.949813930275
20
-0.70028152289521
30
0
41
1
10
31.9390844128623
20
-0.699334251244437
30
0
41
1
10
31.9340719765895
20
-0.699488941916599
30
0
41
1
10
31.9296634735575
20
-0.700382604807288
30
0
0
SPLINE
5
107
100
AcDbEntity
8
1
62
256
6
ByLayer
370
18
48
1
60
0
100
AcDbSpline
70
4
71
3
72
10
73
6
40
0
40
0
40
0
40
0
40
0.5
40
0.5
40
1
40
1
40
1
40
1
41
1
10
31.9296634735552
20
-0.700382604810329
30
0
41
1
10
31.8686114209853
20
-0.712758677460727
30
0
41
1
10
31.8081173897663
20
-0.717679328477942
30
0
41
1
10
31.6878446592552
20
-0.712773292223744
30
0
41
1
10
31.6284934417078
20
-0.703052662078449
30
0
41
1
10
31.5696350731438
20
-0.686639412098856
30
0
0
SPLINE
5
108
100
AcDbEntity
8
1
62
256
6
ByLayer
370
18
48
1
60
0
100
AcDbSpline
70
4
71
3
72
8
73
4
40
0
40
0
40
0
40
0
40
1
40
1
40
1
40
1
41
1
10
31.4635521100201
20
-0.57545928537013
30
0
41
1
10
31.4989055230832
20
-0.612681369892897
30
0
41
1
10
31.5342613082025
20
-0.649746248948219
30
0
41
1
10
31.5696350731438
20
-0.686639412098856
30
0
0
SPLINE
5
109
100
AcDbEntity
8
1
62
256
6
ByLayer
370
18
48
1
60
0
100
AcDbSpline
70
4
71
3
72
10
73
6
40
0
40
0
40
0
40
0
40
0.5
40
0.5
40
1
40
1
40
1
40
1
41
1
10
31.4635521100209
20
-0.575459285367998
30
0
41
1
10
31.4011845274003
20
-0.467983907288271
30
0
41
1
10
31.3382881910414
20
-0.365704016285491
30
0
41
1
10
31.210859770371
20
-0.172155216238735
30
0
41
1
10
31.1467177702394
20
-0.0814316376521447
30
0
41
1
10
31.0817692249672
20
0.0028279289261661
30
0
0
SPLINE
5
10A
100
AcDbEntity
8
1
62
256
6
ByLayer
370
18
48
1
60
0
100
AcDbSpline
70
4
71
3
72
30
73
26
40
0
40
0
40
0
40
0
40
0.125000000000038
40
0.125000000000038
40
0.250000000000076
40
0.250000000000076
40
0.375000000000114
40
0.375000000000114
40
0.437500000000114
40
0.437500000000114
40
0.500000000000115
40
0.500000000000115
40
0.625000000000116
40
0.625000000000116
40
0.687500000000097
40
0.687500000000097
40
0.750000000000077
40
0.750000000000077
40
0.812500000000058
40
0.812500000000058
40
0.875000000000039
40
0.875000000000039
40
0.937500000000019
40
0.937500000000019
40
1
40
1
40
1
40
1
41
1
10
31.0817692249672
20
0.0028279289261661
30
0
41
1
10
31.0740659953238
20
0.0128215444611044
30
0
41
1
10
31.0651557028567
20
0.0232480648518845
30
0
41
1
10
31.0454724114982
20
0.0447226385502404
30
0
41
1
10
31.0346059782845
20
0.055848548074124
30
0
41
1
10
31.0119059141932
20
0.0779605938433861
30
0
41
1
10
31.0000042375403
20
0.0890266989920008
30
0
41
1
10
30.9813813131222
20
0.105672771877693
30
0
41
1
10
30.9750440446708
20
0.111229510479518
30
0
41
1
10
30.9621053233407
20
0.122367987984489
30
0
41
1
10
30.9555327238532
20
0.127924001731628
30
0
41
1
10
30.9357800871812
20
0.144338949051246
30
0
41
1
10
30.9224636681893
20
0.155035571624723
30
0
41
1
10
30.9022938599291
20
0.170730922228216
30
0
41
1
10
30.895537831677
20
0.175903987856998
30
0
41
1
10
30.881960954131
20
0.186128239789639
30
0
41
1
10
30.8751141635173
20
0.191197367136368
30
0
41
1
10
30.8617209011193
20
0.20093669501739
30
0
41
1
10
30.8551346310132
20
0.205637726860005
30
0
41
1
10
30.8422251617341
20
0.21466124481492
30
0
41
1
10
30.8358500969617
20
0.219018088088859
30
0
41
1
10
30.8237334955362
20
0.227070260338309
30
0
41
1
10
30.8179933865549
20
0.230767347970641
30
0
41
1
10
30.8072550958063
20
0.237396664123821
30
0
41
1
10
30.8022373544585
20
0.240337624364287
30
0
41
1
10
30.7978238477642
20
0.242720610562259
30
0
0
SPLINE
5
10B
100
AcDbEntity
8
1
62
256
6
ByLayer
370
18
48
1
60
0
100
AcDbSpline
70
4
71
3
72
26
73
22
40
0
40
0
40
0
40
0
40
0.125
40
0.125
40
0.25
40
0.25
40
0.375000000000001
40
0.375000000000001
40
0.500000000000001
40
0.500000000000001
40
0.625000000000001
40
0.625000000000001
40
0.750000000000001
40
0.750000000000001
40
0.812500000000001
40
0.812500000000001
40
0.875000000000001
40
0.875000000000001
40
0.9375
40
0.9375
40
1
40
1
40
1
40
1
41
1
10
29.9207193783357
20
-1.80110891101543
30
0
41
1
10
29.928641964834
20
-1.79597767431955
30
0
41
1
10
29.9378437245187
20
-1.79266738344467
30
0
41
1
10
29.9581644421023
20
-1.78871248594689
30
0
41
1
10
29.9693986793761
20
-1.78811107794442
30
0
41
1
10
29.9927454543382
20
-1.78932036882932
30
0
41
1
10
30.004933308777
20
-1.79110369463328
30
0
41
1
10
30.0302308965814
20
-1.79692052378263
30
0
41
1
10
30.0434346772336
20
-1.80100512410078
30
0
41
1
10
30.0698311584347
20
-1.81129310911254
30
0
41
1
10
30.0831145336817
20
-1.81750161635512
30
0
41
1
10
30.1097978896913
20
-1.83235100197214
30
0
41
1
10
30.1233107200185
20
-1.84108973347566
30
0
41
1
10
30.1427374669786
20
-1.85593198840363
30
0
41
1
10
30.1491007598751
20
-1.86118296168249
30
0
41
1
10
30.1615633602852
20
-1.87238663039383
30
0
41
1
10
30.1677031802813
20
-1.87838594220233
30
0
41
1
10
30.1793384429044
20
-1.89089232524364
30
0
41
1
10
30.1848600064856
20
-1.89741475193929
30
0
41
1
10
30.1952158875687
20
-1.91108465584156
30
0
41
1
10
30.2000771312444
20
-1.91828208693943
30
0
41
1
10
30.2044003686642
20
-1.92567477885336
30
0
0
SPLINE
5
10C
100
AcDbEntity
8
1
62
256
6
ByLayer
370
18
48
1
60
0
100
AcDbSpline
70
4
71
3
72
12
73
8
40
0
40
0
40
0
40
0
40
0.5
40
0.5
40
0.75
40
0.75
40
1
40
1
40
1
40
1
41
1
10
30.2044003686642
20
-1.92567477885319
30
0
41
1
10
30.2662680220379
20
-2.03146783540345
30
0
41
1
10
30.3275428822156
20
-2.13891429844662
30
0
41
1
10
30.4183951323509
20
-2.30120469924728
30
0
41
1
10
30.4485434673275
20
-2.35555125220858
30
0
41
1
10
30.5083769035457
20
-2.46431529537577
30
0
41
1
10
30.5380566426721
20
-2.51876596096994
30
0
41
1
10
30.5676043545261
20
-2.57324248028709
30
0
0
SPLINE
5
10D
100
AcDbEntity
8
1
62
256
6
ByLayer
370
18
48
1
60
0
100
AcDbSpline
70
4
71
3
72
10
73
6
40
0
40
0
40
0
40
0
40
0.5
40
0.5
40
1
40
1
40
1
40
1
41
1
10
30.6735756533059
20
-2.61568396700713
30
0
41
1
10
30.7351221764632
20
-2.55234691745454
30
0
41
1
10
30.7973319216686
20
-2.48258916757319
30
0
41
1
10
30.9237529718398
20
-2.33021356694365
30
0
41
1
10
30.9875652635857
20
-2.24808080921619
30
0
41
1
10
31.0523565031059
20
-2.16003865105421
30
0
0
SPLINE
5
10E
100
AcDbEntity
8
1
62
256
6
ByLayer
370
18
48
1
60
0
100
AcDbSpline
70
4
71
3
72
26
73
22
40
0
40
0
40
0
40
0
40
0.12500000000001
40
0.12500000000001
40
0.25000000000002
40
0.25000000000002
40
0.37500000000003
40
0.37500000000003
40
0.50000000000004
40
0.50000000000004
40
0.62500000000005
40
0.62500000000005
40
0.75000000000006
40
0.75000000000006
40
0.812500000000045
40
0.812500000000045
40
0.87500000000003
40
0.87500000000003
40
0.937500000000015
40
0.937500000000015
40
1
40
1
40
1
40
1
41
1
10
31.0523565031059
20
-2.16003865105421
30
0
41
1
10
31.0602892660407
20
-2.14925914484098
30
0
41
1
10
31.069502685714
20
-2.14036750417262
30
0
41
1
10
31.0898450770591
20
-2.12535274480584
30
0
41
1
10
31.1010899691541
20
-2.11923358402481
30
0
41
1
10
31.1244524107202
20
-2.10988019939549
30
0
41
1
10
31.1366454949922
20
-2.10657236229949
30
0
41
1
10
31.1619481289667
20
-2.10253852100172
30
0
41
1
10
31.1751513535271
20
-2.10183660904346
30
0
41
1
10
31.2015439759586
20
-2.1031943838546
30
0
41
1
10
31.2148239128647
20
-2.10521947973055
30
0
41
1
10
31.2414974165952
20
-2.11229480471917
30
0
41
1
10
31.2550034839417
20
-2.11741888449711
30
0
41
1
10
31.2744195343023
20
-2.12760867820242
30
0
41
1
10
31.2807790766109
20
-2.1314286564172
30
0
41
1
10
31.2932335894769
20
-2.1400421519117
30
0
41
1
10
31.2993692879434
20
-2.1448762968902
30
0
41
1
10
31.3109973598017
20
-2.15543479757247
30
0
41
1
10
31.3165151596369
20
-2.16116661117979
30
0
41
1
10
31.3268632728334
20
-2.17368079347648
30
0
41
1
10
31.3317208990302
20
-2.18051358359708
30
0
41
1
10
31.3360421852552
20
-2.18781394949045
30
0
0
SPLINE
5
10F
100
AcDbEntity
8
1
62
256
6
ByLayer
370
18
48
1
60
0
100
AcDbSpline
70
4
71
3
72
12
73
8
40
0
40
0
40
0
40
0
40
0.499999999999993
40
0.499999999999993
40
0.749999999999997
40
0.749999999999997
40
1
40
1
40
1
40
1
41
1
10
31.3360421852552
20
-2.18781394949042
30
0
41
1
10
31.3978568405288
20
-2.29224341275128
30
0
41
1
10
31.4590920274699
20
-2.39509689646016
30
0
41
1
10
31.5499100757644
20
-2.54592897185302
30
0
41
1
10
31.5800454049188
20
-2.59568997626161
30
0
41
1
10
31.6399013890579
20
-2.69381346776296
30
0
41
1
10
31.6696376253178
20
-2.7422036978966
30
0
41
1
10
31.6992118781077
20
-2.7898985061733
30
0
0
SPLINE
5
110
100
AcDbEntity
8
1
62
256
6
ByLayer
370
18
48
1
60
0
100
AcDbSpline
70
4
71
3
72
8
73
4
40
0
40
0
40
0
40
0
40
1
40
1
40
1
40
1
41
1
10
31.8053757105682
20
-2.78326703227538
30
0
41
1
10
31.7700571533724
20
-2.78628157866879
30
0
41
1
10
31.7346580283938
20
-2.78848509261098
30
0
41
1
10
31.6992118781076
20
-2.78989850617325
30
0
0
SPLINE
5
111
100
AcDbEntity
8
1
62
256
6
ByLayer
370
18
48
1
60
0
100
AcDbSpline
70
4
71
3
72
14
73
10
40
0
40
0
40
0
40
0
40
0.124999999999999
40
0.124999999999999
40
0.249999999999998
40
0.249999999999998
40
0.499999999999995
40
0.499999999999995
40
1
40
1
40
1
40
1
41
1
10
31.8053757105682
20
-2.7832670322754
30
0
41
1
10
31.8207348911027
20
-2.75729780482109
30
0
41
1
10
31.8361275453126
20
-2.73109703130967
30
0
41
1
10
31.867039160941
20
-2.67815289881904
30
0
41
1
10
31.8825569145745
20
-2.65141258582142
30
0
41
1
10
31.9292722996105
20
-2.5704671248011
30
0
41
1
10
31.9606233668569
20
-2.51555002211822
30
0
41
1
10
32.0553932974353
20
-2.34804318524573
30
0
41
1
10
32.1191591021814
20
-2.23334776299649
30
0
41
1
10
32.183961972141
20
-2.11568728395497
30
0
0
SPLINE
5
112
100
AcDbEntity
8
1
62
256
6
ByLayer
370
18
48
1
60
0
100
AcDbSpline
70
4
71
3
72
26
73
22
40
0
40
0
40
0
40
0
40
0.125
40
0.125
40
0.25
40
0.25
40
0.375
40
0.375
40
0.5
40
0.5
40
0.624999999999999
40
0.624999999999999
40
0.749999999999999
40
0.749999999999999
40
0.812499999999999
40
0.812499999999999
40
0.875
40
0.875
40
0.9375
40
0.9375
40
1
40
1
40
1
40
1
41
1
10
32.183961972141
20
-2.115687283955
30
0
41
1
10
32.1918999602274
20
-2.10127453523899
30
0
41
1
10
32.2011191353731
20
-2.08845703938832
30
0
41
1
10
32.2214727589286
20
-2.0651712475925
30
0
41
1
10
32.2327233734138
20
-2.05466669177898
30
0
41
1
10
32.2560951057318
20
-2.03647949011733
30
0
41
1
10
32.268292260396
20
-2.02869029454638
30
0
41
1
10
32.2936027413679
20
-2.01555000809589
30
0
41
1
10
32.306808386569
20
-2.01019258763065
30
0
41
1
10
32.3332026596362
20
-2.00237412280379
30
0
41
1
10
32.3464830620214
20
-1.99984478777606
30
0
41
1
10
32.3731557967239
20
-1.99784497933078
30
0
41
1
10
32.3866568956319
20
-1.99841115240568
30
0
41
1
10
32.4060614326629
20
-2.00206332846497
30
0
41
1
10
32.4124170270765
20
-2.00374458163341
30
0
41
1
10
32.4248632755871
20
-2.00816942973378
30
0
41
1
10
32.4309943599349
20
-2.01093980546767
30
0
41
1
10
32.442613064923
20
-2.0175824513104
30
0
41
1
10
32.4481263846226
20
-2.02145379195628
30
0
41
1
10
32.4584661069902
20
-2.03047246111024
30
0
41
1
10
32.463320033627
20
-2.03566083034767
30
0
41
1
10
32.4676395493669
20
-2.04149829487002
30
0
0
SPLINE
5
113
100
AcDbEntity
8
1
62
256
6
ByLayer
370
18
48
1
60
0
100
AcDbSpline
70
4
71
3
72
12
73
8
40
0
40
0
40
0
40
0
40
0.500000000000007
40
0.500000000000007
40
0.750000000000003
40
0.750000000000003
40
1
40
1
40
1
40
1
41
1
10
32.4676395493669
20
-2.04149829487011
30
0
41
1
10
32.5293960087084
20
-2.12495698842375
30
0
41
1
10
32.5905827090154
20
-2.20400559119756
30
0
41
1
10
32.6813527791983
20
-2.31528806548906
30
0
41
1
10
32.7114753328169
20
-2.35120932789175
30
0
41
1
10
32.7713137706753
20
-2.42045763691556
30
0
41
1
10
32.8010435679004
20
-2.45380307095905
30
0
41
1
10
32.8306178372559
20
-2.48586396944072
30
0
0
SPLINE
5
114
100
AcDbEntity
8
1
62
256
6
ByLayer
370
18
48
1
60
0
100
AcDbSpline
70
4
71
3
72
8
73
4
40
0
40
0
40
0
40
0
40
1
40
1
40
1
40
1
41
1
10
32.9370055617363
20
-2.43162616091703
30
0
41
1
10
32.9015409914926
20
-2.45044061350529
30
0
41
1
10
32.8660913307368
20
-2.46852194701023
30
0
41
1
10
32.8306178372559
20
-2.48586396944077
30
0
0
SPLINE
5
115
100
AcDbEntity
8
1
62
256
6
ByLayer
370
18
48
1
60
0
100
AcDbSpline
70
4
71
3
72
14
73
10
40
0
40
0
40
0
40
0
40
0.250000000000004
40
0.250000000000004
40
0.375000000000005
40
0.375000000000005
40
0.500000000000006
40
0.500000000000006
40
1
40
1
40
1
40
1
41
1
10
32.9370055617362
20
-2.43162616091709
30
0
41
1
10
32.967826098954
20
-2.36901183555835
30
0
41
1
10
32.9987937863737
20
-2.30624832377413
30
0
41
1
10
33.0455685976164
20
-2.21190995358126
30
0
41
1
10
33.0612083096761
20
-2.18043169061781
30
0
41
1
10
33.0925419194479
20
-2.11741275422102
30
0
41
1
10
33.1082391274672
20
-2.08586653153293
30
0
41
1
10
33.187015235637
20
-1.92805059875548
30
0
41
1
10
33.2507439195297
20
-1.80224280930776
30
0
41
1
10
33.3155549526974
20
-1.67706810142002
30
0
0
SPLINE
5
116
100
AcDbEntity
8
1
62
256
6
ByLayer
370
18
48
1
60
0
100
AcDbSpline
70
4
71
3
72
20
73
16
40
0
40
0
40
0
40
0
40
0.250000000000003
40
0.250000000000003
40
0.312500000000003
40
0.312500000000003
40
0.375000000000003
40
0.375000000000003
40
0.500000000000003
40
0.500000000000003
40
0.625000000000002
40
0.625000000000002
40
0.750000000000002
40
0.750000000000002
40
1
40
1
40
1
40
1
41
1
10
38.21
20
1.36621375541961
30
0
41
1
10
38.21
20
1.39965934498096
30
0
41
1
10
38.21
20
1.43338547787431
30
0
41
1
10
38.2099999999999
20
1.47596521499275
30
0
41
1
10
38.21
20
1.48451967102915
30
0
41
1
10
38.21
20
1.50179369928242
30
0
41
1
10
38.21
20
1.51050416486382
30
0
41
1
10
38.21
20
1.53683370687662
30
0
41
1
10
38.21
20
1.55465478928164
30
0
41
1
10
38.21
20
1.59085429209907
30
0
41
1
10
38.21
20
1.60926476170357
30
0
41
1
10
38.21
20
1.64651599051535
30
0
41
1
10
38.21
20
1.66516225608993
30
0
41
1
10
38.21
20
1.72116122764893
30
0
41
1
10
38.21
20
1.75857376154576
30
0
41
1
10
38.21
20
1.79606405174601
30
0
0
SPLINE
5
117
100
AcDbEntity
8
1
62
256
6
ByLayer
370
18
48
1
60
0
100
AcDbSpline
70
4
71
3
72
12
73
8
40
0
40
0
40
0
40
0
40
0.500000000000014
40
0.500000000000014
40
0.750000000000007
40
0.750000000000007
40
1
40
1
40
1
40
1
41
1
10
38.21
20
1.79606405174601
30
0
41
1
10
38.1617462772274
20
1.84681496246995
30
0
41
1
10
38.1125777279327
20
1.8972970672325
30
0
41
1
10
38.037541700935
20
1.97311392129075
30
0
41
1
10
38.0123214277162
20
1.99839538480973
30
0
41
1
10
37.9614685276495
20
2.04906838030018
30
0
41
1
10
37.9358457866236
20
2.07444934483996
30
0
41
1
10
37.9100000171591
20
2.09995207456649
30
0
0
SPLINE
5
118
100
AcDbEntity
8
1
62
256
6
ByLayer
370
18
48
1
60
0
100
AcDbSpline
70
4
71
3
72
14
73
10
40
0
40
0
40
0
40
0
40
0.125
40
0.125
40
0.25
40
0.25
40
0.5
40
0.5
40
1
40
1
40
1
40
1
41
1
10
37.9100000171588
20
2.09995207456612
30
0
41
1
10
37.8795737867322
20
2.10951343887251
30
0
41
1
10
37.8492132411267
20
2.11871692492454
30
0
41
1
10
37.7888244384782
20
2.13632285036448
30
0
41
1
10
37.7587803053447
20
2.14473012998832
30
0
41
1
10
37.6690389876261
20
2.16876408242697
30
0
41
1
10
37.6097263537393
20
2.18320550063541
30
0
41
1
10
37.4329828656379
20
2.22175645544564
30
0
41
1
10
37.3167555014467
20
2.24109966162479
30
0
41
1
10
37.2015563204659
20
2.25379613280722
30
0
0
SPLINE
5
119
100
AcDbEntity
8
1
62
256
6
ByLayer
370
18
48
1
60
0
100
AcDbSpline
70
4
71
3
72
8
73
4
40
0
40
0
40
0
40
0
40
1
40
1
40
1
40
1
41
1
10
37.2015563204659
20
2.25379613280717
30
0
41
1
10
37.1737416516254
20
2.2026075613698
30
0
41
1
10
37.1458053945881
20
2.15075609540162
30
0
41
1
10
37.117693690447
20
2.09822421984791
30
0
0
SPLINE
5
11A
100
AcDbEntity
8
1
62
256
6
ByLayer
370
18
48
1
60
0
100
AcDbSpline
70
4
71
3
72
30
73
26
40
0
40
0
40
0
40
0
40
0.125000000000007
40
0.125000000000007
40
0.250000000000014
40
0.250000000000014
40
0.375000000000021
40
0.375000000000021
40
0.437500000000007
40
0.437500000000007
40
0.499999999999993
40
0.499999999999993
40
0.624999999999965
40
0.624999999999965
40
0.687499999999971
40
0.687499999999971
40
0.749999999999977
40
0.749999999999977
40
0.812499999999982
40
0.812499999999982
40
0.874999999999988
40
0.874999999999988
40
0.937499999999994
40
0.937499999999994
40
1
40
1
40
1
40
1
41
1
10
37.117693690447
20
2.09822421984791
30
0
41
1
10
37.1100200161252
20
2.08388455184038
30
0
41
1
10
37.1011427610889
20
2.07093373318321
30
0
41
1
10
37.0815222768655
20
2.04715459638317
30
0
41
1
10
37.0706856320744
20
2.0362914447349
30
0
41
1
10
37.0480278556642
20
2.01716819368079
30
0
41
1
10
37.036139729488
20
2.00881099719024
30
0
41
1
10
37.0175224472484
20
1.99802222971681
30
0
41
1
10
37.0111846718611
20
1.99472016147053
30
0
41
1
10
36.9982396885498
20
1.98873175517412
30
0
41
1
10
36.9916629217736
20
1.9860629434649
30
0
41
1
10
36.9718945264738
20
1.97915805717605
30
0
41
1
10
36.9585636207619
20
1.97595667589752
30
0
41
1
10
36.9383690110192
20
1.97354119042717
30
0
41
1
10
36.9316042139105
20
1.97313754375071
30
0
41
1
10
36.9180098003349
20
1.97325001179723
30
0
41
1
10
36.9111578448318
20
1.9737755107935
30
0
41
1
10
36.8977614587146
20
1.97585944489123
30
0
41
1
10
36.8911752414262
20
1.97741378508721
30
0
41
1
10
36.8782693963523
20
1.98170086513665
30
0
41
1
10
36.8718979350365
20
1.98446383923042
30
0
41
1
10
36.8597977195316
20
1.99126152084497
30
0
41
1
10
36.8540673823035
20
1.99528031784663
30
0
41
1
10
36.8433495804515
20
2.00476101921348
30
0
41
1
10
36.8383432231541
20
2.01026406297456
30
0
41
1
10
36.8339399189175
20
2.01645947019486
30
0
0
SPLINE
5
11B
100
AcDbEntity
8
1
62
256
6
ByLayer
370
18
48
1
60
0
100
AcDbSpline
70
4
71
3
72
8
73
4
40
0
40
0
40
0
40
0
40
1
40
1
40
1
40
1
41
1
10
36.8339399189177
20
2.01645947019568
30
0
41
1
10
36.7726833190814
20
2.10264692409848
30
0
41
1
10
36.7119951668046
20
2.1842742084539
30
0
41
1
10
36.6516655082994
20
2.26150952713297
30
0
0
SPLINE
5
11C
100
AcDbEntity
8
1
62
256
6
ByLayer
370
18
48
1
60
0
100
AcDbSpline
70
4
71
3
72
8
73
4
40
0
40
0
40
0
40
0
40
1
40
1
40
1
40
1
41
1
10
36.6516655082996
20
2.26150952713243
30
0
41
1
10
36.5181349599559
20
2.24973966195569
30
0
41
1
10
36.3875816120187
20
2.2277983134081
30
0
41
1
10
36.2589081019057
20
2.19599787829031
30
0
0
SPLINE
5
11D
100
AcDbEntity
8
1
62
256
6
ByLayer
370
18
48
1
60
0
100
AcDbSpline
70
4
71
3
72
10
73
6
40
0
40
0
40
0
40
0
40
0.5
40
0.5
40
1
40
1
40
1
40
1
41
1
10
36.2589081019057
20
2.19599787829023
30
0
41
1
10
36.2140823292561
20
2.10269032404497
30
0
41
1
10
36.1688433468614
20
2.00877357822722
30
0
41
1
10
36.0778759598712
20
1.8210633858946
30
0
41
1
10
36.0321264795824
20
1.72720023905555
30
0
41
1
10
35.9859291571049
20
1.63340921354848
30
0
0
SPLINE
5
11E
100
AcDbEntity
8
1
62
256
6
ByLayer
370
18
48
1
60
0
100
AcDbSpline
70
4
71
3
72
10
73
6
40
0
40
0
40
0
40
0
40
0.5
40
0.5
40
1
40
1
40
1
40
1
41
1
10
30.0435177616998
20
-2.17518009200788
30
0
41
1
10
30.0088001354691
20
-2.23452441034718
30
0
41
1
10
29.9742680610998
20
-2.29358828208177
30
0
41
1
10
29.9055015713358
20
-2.41113205717528
30
0
41
1
10
29.8712254098805
20
-2.46968271878183
30
0
41
1
10
29.8371575164144
20
-2.52775312020034
30
0
0
SPLINE
5
11F
100
AcDbEntity
8
1
62
256
6
ByLayer
370
18
48
1
60
0
100
AcDbSpline
70
4
71
3
72
12
73
8
40
0
40
0
40
0
40
0
40
0.500000000000008
40
0.500000000000008
40
0.750000000000004
40
0.750000000000004
40
1
40
1
40
1
40
1
41
1
10
33.9763944999407
20
2.18221785869449
30
0
41
1
10
34.0383360829345
20
2.28761612742233
30
0
41
1
10
34.0996841146844
20
2.39161697001455
30
0
41
1
10
34.1906216460176
20
2.5443241192319
30
0
41
1
10
34.2207906169947
20
2.59474048340181
30
0
41
1
10
34.28069633821
20
2.69421916577403
30
0
41
1
10
34.3104481560489
20
2.74330726090895
30
0
41
1
10
34.3400348400901
20
2.79173451183394
30
0
0
SPLINE
5
120
100
AcDbEntity
8
1
62
256
6
ByLayer
370
18
48
1
60
0
100
AcDbSpline
70
4
71
3
72
8
73
4
40
0
40
0
40
0
40
0
40
1
40
1
40
1
40
1
41
1
10
34.44623755636
20
2.78853804341347
30
0
41
1
10
34.4107957331654
20
2.79040312878158
30
0
41
1
10
34.3754241800074
20
2.79146564325379
30
0
41
1
10
34.3400348400901
20
2.79173451183394
30
0
0
SPLINE
5
121
100
AcDbEntity
8
1
62
256
6
ByLayer
370
18
48
1
60
0
100
AcDbSpline
70
4
71
3
72
8
73
4
40
0
40
0
40
0
40
0
40
1
40
1
40
1
40
1
41
1
10
34.7447359738584
20
2.27529397982889
30
0
41
1
10
34.7711255411992
20
2.22847441004336
30
0
41
1
10
34.7976527088417
20
2.18110906650344
30
0
41
1
10
34.8243433172062
20
2.1332062302325
30
0
0
SPLINE
5
122
100
AcDbEntity
8
1
62
256
6
ByLayer
370
18
48
1
60
0
100
AcDbSpline
70
4
71
3
72
26
73
22
40
0
40
0
40
0
40
0
40
0.125000000000009
40
0.125000000000009
40
0.250000000000019
40
0.250000000000019
40
0.375000000000028
40
0.375000000000028
40
0.500000000000037
40
0.500000000000037
40
0.625000000000047
40
0.625000000000047
40
0.750000000000056
40
0.750000000000056
40
0.812500000000042
40
0.812500000000042
40
0.875000000000028
40
0.875000000000028
40
0.937500000000014
40
0.937500000000014
40
1
40
1
40
1
40
1
41
1
10
34.8243433172062
20
2.1332062302325
30
0
41
1
10
34.8322911192122
20
2.11894195221348
30
0
41
1
10
34.8415250643109
20
2.10631035625127
30
0
41
1
10
34.8619113983746
20
2.08344624965534
30
0
41
1
10
34.8731811004634
20
2.07317974036567
30
0
41
1
10
34.8965860432905
20
2.05549750079248
30
0
41
1
10
34.9087976215077
20
2.04797641879321
30
0
41
1
10
34.9341309305479
20
2.03540002006304
30
0
41
1
10
34.9473430481911
20
2.03034149326092
30
0
41
1
10
34.9737402239784
20
2.02312787962762
30
0
41
1
10
34.9870186188164
20
2.02090621350175
30
0
41
1
10
35.013679972547
20
2.01953275926792
30
0
41
1
10
35.0271658275409
20
2.02042039518955
30
0
41
1
10
35.046541390343
20
2.02453778372478
30
0
41
1
10
35.0528870578254
20
2.02637215284028
30
0
41
1
10
35.0653132219087
20
2.03109833554959
30
0
41
1
10
35.0714336847027
20
2.03401775145514
30
0
41
1
10
35.0830323016011
20
2.04094395770906
30
0
41
1
10
35.0885364960562
20
2.04495069106125
30
0
41
1
10
35.0988606555664
20
2.05422483686155
30
0
41
1
10
35.1037084079658
20
2.05953391885564
30
0
41
1
10
35.1080255567339
20
2.06548242998923
30
0
0
SPLINE
5
123
100
AcDbEntity
8
1
62
256
6
ByLayer
370
18
48
1
60
0
100
AcDbSpline
70
4
71
3
72
12
73
8
40
0
40
0
40
0
40
0
40
0.500000000000006
40
0.500000000000006
40
0.750000000000003
40
0.750000000000003
40
1
40
1
40
1
40
1
41
1
10
35.1080255567339
20
2.06548242998932
30
0
41
1
10
35.1700081739111
20
2.15088701254254
30
0
41
1
10
35.2313906782164
20
2.2319851097817
30
0
41
1
10
35.3223913757554
20
2.34645070548368
30
0
41
1
10
35.3525798262389
20
2.38344782580285
30
0
41
1
10
35.4125280067904
20
2.45488332880961
30
0
41
1
10
35.4423038422867
20
2.48934794459916
30
0
41
1
10
35.4719215399873
20
2.52258687361001
30
0
0
SPLINE
5
124
100
AcDbEntity
8
1
62
256
6
ByLayer
370
18
48
1
60
0
100
AcDbSpline
70
4
71
3
72
8
73
4
40
0
40
0
40
0
40
0
40
1
40
1
40
1
40
1
41
1
10
35.5779384658384
20
2.47159647591008
30
0
41
1
10
35.5425472322486
20
2.48930897862562
30
0
41
1
10
35.5072221224072
20
2.50630971721319
30
0
41
1
10
35.4719215399873
20
2.52258687361004
30
0
0
SPLINE
5
125
100
AcDbEntity
8
1
62
256
6
ByLayer
370
18
48
1
60
0
100
AcDbSpline
70
4
71
3
72
16
73
12
40
0
40
0
40
0
40
0
40
0.249999999999997
40
0.249999999999997
40
0.375000000000002
40
0.375000000000002
40
0.500000000000006
40
0.500000000000006
40
0.750000000000003
40
0.750000000000003
40
1
40
1
40
1
40
1
41
1
10
35.5779384658385
20
2.47159647591002
30
0
41
1
10
35.6087298525814
20
2.40955270724257
30
0
41
1
10
35.6396896881757
20
2.34730820794425
30
0
41
1
10
35.6862484103118
20
2.25368375920141
30
0
41
1
10
35.7017986078402
20
2.22243110059045
30
0
41
1
10
35.7330395875466
20
2.15983669711429
30
0
41
1
10
35.7487320399379
20
2.12848922837688
30
0
41
1
10
35.7960070436587
20
2.03436235370981
30
0
41
1
10
35.8277002994193
20
1.97167021138742
30
0
41
1
10
35.8914791333311
20
1.84642821837357
30
0
41
1
10
35.9235675478192
20
1.7838795637652
30
0
41
1
10
35.9559130307188
20
1.72143221368208
30
0
0
SPLINE
5
126
100
AcDbEntity
8
1
62
256
6
ByLayer
370
18
48
1
60
0
100
AcDbSpline
70
4
71
3
72
26
73
22
40
0
40
0
40
0
40
0
40
0.125
40
0.125
40
0.25
40
0.25
40
0.375
40
0.375
40
0.5
40
0.5
40
0.625
40
0.625
40
0.75
40
0.75
40
0.8125
40
0.8125
40
0.875
40
0.875
40
0.9375
40
0.9375
40
1
40
1
40
1
40
1
41
1
10
35.9559130307188
20
1.72143221368208
30
0
41
1
10
35.963880990842
20
1.70604898391835
30
0
41
1
10
35.9731386401681
20
1.69171811849745
30
0
41
1
10
35.9935724216945
20
1.66461498469962
30
0
41
1
10
36.004866004131
20
1.65177459117862
30
0
41
1
10
36.028308218156
20
1.62838479998325
30
0
41
1
10
36.0405348107045
20
1.61771426930085
30
0
41
1
10
36.0658898016552
20
1.59825976888112
30
0
41
1
10
36.079105627034
20
1.58944517228483
30
0
41
1
10
36.1055016491749
20
1.57433876591949
30
0
41
1
10
36.1187767473907
20
1.56795731428645
30
0
41
1
10
36.1454259889945
20
1.55775048453458
30
0
41
1
10
36.1588972363575
20
1.55392504192429
30
0
41
1
10
36.1782501755665
20
1.55077637517906
30
0
41
1
10
36.1845886079171
20
1.55014649311448
30
0
41
1
10
36.1970008640392
20
1.54984406767179
30
0
41
1
10
36.2031143729797
20
1.5501806418857
30
0
41
1
10
36.2147014659797
20
1.55195903738661
30
0
41
1
10
36.2202009732057
20
1.55339207142237
30
0
41
1
10
36.2305177640309
20
1.55751933147917
30
0
41
1
10
36.2353632015992
20
1.56023811302722
30
0
41
1
10
36.2396809486684
20
1.56366284596416
30
0
0
SPLINE
5
127
100
AcDbEntity
8
1
62
256
6
ByLayer
370
18
48
1
60
0
100
AcDbSpline
70
4
71
3
72
8
73
4
40
0
40
0
40
0
40
0
40
1
40
1
40
1
40
1
41
1
10
36.2396809486684
20
1.5636628459643
30
0
41
1
10
36.3075089415602
20
1.61746237557526
30
0
41
1
10
36.3746026760184
20
1.6636689336818
30
0
41
1
10
36.4408915074266
20
1.70221471203101
30
0
0
SPLINE
5
128
100
AcDbEntity
8
1
62
256
6
ByLayer
370
18
48
1
60
0
100
AcDbSpline
70
4
71
3
72
16
73
12
40
0
40
0
40
0
40
0
40
0.25
40
0.25
40
0.5
40
0.5
40
0.75
40
0.75
40
0.875
40
0.875
40
1
40
1
40
1
40
1
41
1
10
36.4408915074266
20
1.70221471203101
30
0
41
1
10
36.4858282841612
20
1.65924351127234
30
0
41
1
10
36.5311560318529
20
1.61560914110697
30
0
41
1
10
36.6216211888486
20
1.52799105041112
30
0
41
1
10
36.666844215365
20
1.48392739091716
30
0
41
1
10
36.7573294881145
20
1.39535391712556
30
0
41
1
10
36.8025952593595
20
1.35084714064732
30
0
41
1
10
36.8705477791231
20
1.28378272889478
30
0
41
1
10
36.8932044619255
20
1.26137454873594
30
0
41
1
10
36.9385091539848
20
1.21643498602577
30
0
41
1
10
36.9611390876512
20
1.19388787611717
30
0
41
1
10
36.9838187317136
20
1.1713263614871
30
0
0
SPLINE
5
129
100
AcDbEntity
8
1
62
256
6
ByLayer
370
18
48
1
60
0
100
AcDbSpline
70
4
71
3
72
8
73
4
40
0
40
0
40
0
40
0
40
1
40
1
40
1
40
1
41
1
10
36.9838187317137
20
1.17132636148699
30
0
41
1
10
37.0180782603214
20
1.10962679163583
30
0
41
1
10
37.0526199165611
20
1.04910233719693
30
0
41
1
10
37.0874478749562
20
0.989655730796187
30
0
0
SPLINE
5
12A
100
AcDbEntity
8
1
62
256
6
ByLayer
370
18
48
1
60
0
100
AcDbSpline
70
4
71
3
72
26
73
22
40
0
40
0
40
0
40
0
40
0.125000000000009
40
0.125000000000009
40
0.250000000000019
40
0.250000000000019
40
0.375000000000028
40
0.375000000000028
40
0.500000000000038
40
0.500000000000038
40
0.625000000000047
40
0.625000000000047
40
0.750000000000057
40
0.750000000000057
40
0.812500000000043
40
0.812500000000043
40
0.875000000000028
40
0.875000000000028
40
0.937500000000014
40
0.937500000000014
40
1
40
1
40
1
40
1
41
1
10
37.0874478749562
20
0.989655730796187
30
0
41
1
10
37.0954318758819
20
0.976028122908531
30
0
41
1
10
37.1047080147848
20
0.962659214137517
30
0
41
1
10
37.1251761183882
20
0.936327907848636
30
0
41
1
10
37.1364853656903
20
0.92327506742177
30
0
41
1
10
37.1599502637488
20
0.898460460137187
30
0
41
1
10
37.1721850251638
20
0.886584447278551
30
0
41
1
10
37.197552668202
20
0.863784026242996
30
0
41
1
10
37.2107723117857
20
0.852806704934267
30
0
41
1
10
37.2371723228423
20
0.832525135650542
30
0
41
1
10
37.2504477262925
20
0.823124744924257
30
0
41
1
10
37.2770910969664
20
0.805889458193633
30
0
41
1
10
37.2905552785571
20
0.798015151195358
30
0
41
1
10
37.3098960674988
20
0.788114752402009
30
0
41
1
10
37.3162300148142
20
0.785113704568374
30
0
41
1
10
37.3286324780985
20
0.779789872940398
30
0
41
1
10
37.3347413160056
20
0.777455655054837
30
0
41
1
10
37.3463233008253
20
0.773703183416387
30
0
41
1
10
37.3518204449987
20
0.77226963806001
30
0
41
1
10
37.3621331112494
20
0.770429179121862
30
0
41
1
10
37.3669773907457
20
0.770024613653959
30
0
41
1
10
37.3712972113679
20
0.770258928784472
30
0
0
SPLINE
5
12B
100
AcDbEntity
8
1
62
256
6
ByLayer
370
18
48
1
60
0
100
AcDbSpline
70
4
71
3
72
8
73
4
40
0
40
0
40
0
40
0
40
1
40
1
40
1
40
1
41
1
10
37.3712972113679
20
0.770258928784585
30
0
41
1
10
37.3784406728326
20
0.770646403462763
30
0
41
1
10
37.3855752420879
20
0.770938323606714
30
0
41
1
10
37.3927012381359
20
0.77113393042859
30
0
0
SPLINE
5
12C
100
AcDbEntity
8
1
62
256
6
ByLayer
370
18
48
1
60
0
100
AcDbSpline
70
4
71
3
72
14
73
10
40
0
40
0
40
0
40
0
40
0.25
40
0.25
40
0.5
40
0.5
40
0.75
40
0.75
40
1
40
1
40
1
40
1
41
1
10
37.392701238136
20
0.771133930428675
30
0
41
1
10
37.4347943760834
20
0.730742112397593
30
0
41
1
10
37.4771456794309
20
0.690412519196059
30
0
41
1
10
37.5624380758472
20
0.60995203638214
30
0
41
1
10
37.6054427759087
20
0.569762634833978
30
0
41
1
10
37.691770320927
20
0.489974507917282
30
0
41
1
10
37.7350535386767
20
0.450376866347796
30
0
41
1
10
37.8220176306149
20
0.371954643139276
30
0
41
1
10
37.8657959295694
20
0.333246942307966
30
0
41
1
10
37.909999947914
20
0.295187803754743
30
0
0
SPLINE
5
12D
100
AcDbEntity
8
1
62
256
6
ByLayer
370
18
48
1
60
0
100
AcDbSpline
70
4
71
3
72
12
73
8
40
0
40
0
40
0
40
0
40
0.5
40
0.5
40
0.75
40
0.75
40
1
40
1
40
1
40
1
41
1
10
37.9099999479142
20
0.295187803754601
30
0
41
1
10
37.9565969739623
20
0.247195844088026
30
0
41
1
10
38.0045990604713
20
0.20421522162772
30
0
41
1
10
38.0797476230888
20
0.14885274205534
30
0
41
1
10
38.1051786150832
20
0.132036724382118
30
0
41
1
10
38.1570173366994
20
0.102243699888874
30
0
41
1
10
38.1832889098017
20
0.0893892600730339
30
0
41
1
10
38.2099999999999
20
0.0787509610695736
30
0
0
SPLINE
5
12E
100
AcDbEntity
8
1
62
256
6
ByLayer
370
18
48
1
60
0
100
AcDbSpline
70
4
71
3
72
16
73
12
40
0
40
0
40
0
40
0
40
0.125000000000001
40
0.125000000000001
40
0.250000000000001
40
0.250000000000001
40
0.500000000000001
40
0.500000000000001
40
0.75
40
0.75
40
1
40
1
40
1
40
1
41
1
10
38.21
20
0.0787509610695452
30
0
41
1
10
38.21
20
0.0838024580828858
30
0
41
1
10
38.21
20
0.0895140871634794
30
0
41
1
10
38.21
20
0.102204890582414
30
0
41
1
10
38.21
20
0.109236589825457
30
0
41
1
10
38.21
20
0.130432756170137
30
0
41
1
10
38.21
20
0.145219827544537
30
0
41
1
10
38.21
20
0.17609954368578
30
0
41
1
10
38.21
20
0.192196011506781
30
0
41
1
10
38.21
20
0.225714960938802
30
0
41
1
10
38.21
20
0.243170089611311
30
0
41
1
10
38.21
20
0.261189145978932
30
0
0
SPLINE
5
12F
100
AcDbEntity
8
1
62
256
6
ByLayer
370
18
48
1
60
0
100
AcDbSpline
70
4
71
3
72
12
73
8
40
0
40
0
40
0
40
0
40
0.500000000000014
40
0.500000000000014
40
0.750000000000007
40
0.750000000000007
40
1
40
1
40
1
40
1
41
1
10
38.21
20
-1.05420051498581
30
0
41
1
10
38.1617462772274
20
-1.05099044305726
30
0
41
1
10
38.1125777279327
20
-1.0484977219194
30
0
41
1
10
38.037541700935
20
-1.04664805805894
30
0
41
1
10
38.0123214277162
20
-1.04635454184864
30
0
41
1
10
37.9614685276495
20
-1.04658849336687
30
0
41
1
10
37.9358457866237
20
-1.04710908387276
30
0
41
1
10
37.9100000171591
20
-1.048235932045
30
0
0
SPLINE
5
130
100
AcDbEntity
8
1
62
256
6
ByLayer
370
18
48
1
60
0
100
AcDbSpline
70
4
71
3
72
12
73
8
40
0
40
0
40
0
40
0
40
0.25
40
0.25
40
0.5
40
0.5
40
1
40
1
40
1
40
1
41
1
10
37.9100000171588
20
-1.04823593204452
30
0
41
1
10
37.8765456379303
20
-1.03270820423467
30
0
41
1
10
37.8431748639471
20
-1.01681906202793
30
0
41
1
10
37.7768412497521
20
-0.984002810440359
30
0
41
1
10
37.743853638297
20
-0.967106355522446
30
0
41
1
10
37.6453497602849
20
-0.915032809344439
30
0
41
1
10
37.58028347031
20
-0.878483380883011
30
0
41
1
10
37.515678639563
20
-0.840234607239893
30
0
0
SPLINE
5
131
100
AcDbEntity
8
1
62
256
6
ByLayer
370
18
48
1
60
0
100
AcDbSpline
70
4
71
3
72
8
73
4
40
0
40
0
40
0
40
0
40
1
40
1
40
1
40
1
41
1
10
37.515678639563
20
-0.840234607239893
30
0
41
1
10
37.5087803900924
20
-0.827786448477127
30
0
41
1
10
37.5018725870362
20
-0.815383438860209
30
0
41
1
10
37.4949544705646
20
-0.803026476432024
30
0
0
SPLINE
5
132
100
AcDbEntity
8
1
62
256
6
ByLayer
370
18
48
1
60
0
100
AcDbSpline
70
4
71
3
72
30
73
26
40
0
40
0
40
0
40
0
40
0.125000000000057
40
0.125000000000057
40
0.250000000000114
40
0.250000000000114
40
0.375000000000171
40
0.375000000000171
40
0.437500000000181
40
0.437500000000181
40
0.500000000000191
40
0.500000000000191
40
0.625000000000173
40
0.625000000000173
40
0.687500000000144
40
0.687500000000144
40
0.750000000000115
40
0.750000000000115
40
0.812500000000087
40
0.812500000000087
40
0.875000000000058
40
0.875000000000058
40
0.937500000000029
40
0.937500000000029
40
1
40
1
40
1
40
1
41
1
10
37.4949544705645
20
-0.803026476431995
30
0
41
1
10
37.4872685846777
20
-0.789298143941579
30
0
41
1
10
37.4783786554059
20
-0.775758762735421
30
0
41
1
10
37.4587393745883
20
-0.748991642562203
30
0
41
1
10
37.4478976805341
20
-0.735687234636913
30
0
41
1
10
37.4252426239917
20
-0.710196592203829
30
0
41
1
10
37.4133614759566
20
-0.697907692616923
30
0
41
1
10
37.3947619051124
20
-0.680110969795976
30
0
41
1
10
37.3884311511642
20
-0.674285839575504
30
0
41
1
10
37.3755017321701
20
-0.662853571715516
30
0
41
1
10
37.3689309980209
20
-0.657273140308234
30
0
41
1
10
37.3491816135565
20
-0.641167102848016
30
0
41
1
10
37.3358629600805
20
-0.631174321138531
30
0
41
1
10
37.3156806574931
20
-0.617398735985034
30
0
41
1
10
37.3089187700396
20
-0.613011198565459
30
0
41
1
10
37.2953272441814
20
-0.604693317094643
30
0
41
1
10
37.288470096382
20
-0.60075099690647
30
0
41
1
10
37.2750567415632
20
-0.593596247874558
30
0
41
1
10
37.2684608723153
20
-0.590356924244986
30
0
41
1
10
37.2555339439703
20
-0.584646829170083
30
0
41
1
10
37.2491508434354
20
-0.582159511642999
30
0
41
1
10
37.2370215316672
20
-0.578221372434456
30
0
41
1
10
37.2312769795558
20
-0.576762473879768
30
0
41
1
10
37.2205328142237
20
-0.575032429673541
30
0
41
1
10
37.2155139372492
20
-0.574770857284904
30
0
41
1
10
37.2111010305086
20
-0.575236668311305
30
0
0
SPLINE
5
133
100
AcDbEntity
8
1
62
256
6
ByLayer
370
18
48
1
60
0
100
AcDbSpline
70
4
71
3
72
8
73
4
40
0
40
0
40
0
40
0
40
1
40
1
40
1
40
1
41
1
10
37.2111010305088
20
-0.575236668313607
30
0
41
1
10
37.1795172441541
20
-0.578570542516076
30
0
41
1
10
37.1480774997124
20
-0.579946836219875
30
0
41
1
10
37.1167593710022
20
-0.579345703846428
30
0
0
SPLINE
5
134
100
AcDbEntity
8
1
62
256
6
ByLayer
370
18
48
1
60
0
100
AcDbSpline
70
4
71
3
72
14
73
10
40
0
40
0
40
0
40
0
40
0.5
40
0.5
40
0.75
40
0.75
40
0.875
40
0.875
40
1
40
1
40
1
40
1
41
1
10
37.1167593710022
20
-0.579345703846428
30
0
41
1
10
37.025212207755
20
-0.51393357083316
30
0
41
1
10
36.9342085264842
20
-0.445267462166186
30
0
41
1
10
36.7984327029306
20
-0.337135112974494
30
0
41
1
10
36.7532811215573
20
-0.300256205788685
30
0
41
1
10
36.6856509208702
20
-0.24372681280957
30
0
41
1
10
36.6631005835819
20
-0.224661847548902
30
0
41
1
10
36.6181439906253
20
-0.186238353775764
30
0
41
1
10
36.5957499675138
20
-0.166890823064307
30
0
41
1
10
36.573434305877
20
-0.147413231343791
30
0
0
SPLINE
5
135
100
AcDbEntity
8
1
62
256
6
ByLayer
370
18
48
1
60
0
100
AcDbSpline
70
4
71
3
72
10
73
6
40
0
40
0
40
0
40
0
40
0.582760257258145
40
0.582760257258145
40
1
40
1
40
1
40
1
41
1
10
36.573434305877
20
-0.147413231343819
30
0
41
1
10
36.5387524056359
20
-0.0968442081222634
30
0
41
1
10
36.5038890782548
20
-0.0480975267724091
30
0
41
1
10
36.4438088229105
20
0.0321481508711372
30
0
41
1
10
36.4186527275979
20
0.0646406324655686
30
0
41
1
10
36.3933779482803
20
0.0961024281059792
30
0
0
SPLINE
5
136
100
AcDbEntity
8
1
62
256
6
ByLayer
370
18
48
1
60
0
100
AcDbSpline
70
4
71
3
72
30
73
26
40
0
40
0
40
0
40
0
40
0.125000000000019
40
0.125000000000019
40
0.250000000000038
40
0.250000000000038
40
0.375000000000057
40
0.375000000000057
40
0.437500000000066
40
0.437500000000066
40
0.500000000000076
40
0.500000000000076
40
0.625000000000057
40
0.625000000000057
40
0.687500000000047
40
0.687500000000047
40
0.750000000000038
40
0.750000000000038
40
0.812500000000028
40
0.812500000000028
40
0.875000000000019
40
0.875000000000019
40
0.937500000000009
40
0.937500000000009
40
1
40
1
40
1
40
1
41
1
10
36.3632402244434
20
0.13305625386019
30
0
41
1
10
36.3555465414002
20
0.142345989774668
30
0
41
1
10
36.3466471438131
20
0.152157156264167
30
0
41
1
10
36.3269878094657
20
0.172543166121784
30
0
41
1
10
36.316135831722
20
0.183195618561484
30
0
41
1
10
36.2934642917513
20
0.204520553699439
30
0
41
1
10
36.2815764810395
20
0.215267917321569
30
0
41
1
10
36.262970818466
20
0.231541738411181
30
0
41
1
10
36.2566387123056
20
0.23699223536309
30
0
41
1
10
36.2437085837163
20
0.247955296000043
30
0
41
1
10
36.2371385021995
20
0.253443449970433
30
0
41
1
10
36.2173917752601
20
0.269714264420401
30
0
41
1
10
36.2040758446571
20
0.280392628002687
30
0
41
1
10
36.1839005903634
20
0.296193873174644
30
0
41
1
10
36.1771417223505
20
0.301424682303036
30
0
41
1
10
36.1635570758838
20
0.311816422224098
30
0
41
1
10
36.1567035914128
20
0.316997435683732
30
0
41
1
10
36.1432960960362
20
0.327014984897431
30
0
41
1
10
36.1367027550399
20
0.331882221789584
30
0
41
1
10
36.1237797511063
20
0.341301971437616
30
0
41
1
10
36.1173981343589
20
0.345891286035254
30
0
41
1
10
36.10526896982
20
0.354475653817957
30
0
41
1
10
36.0995235339179
20
0.358470948485461
30
0
41
1
10
36.0887759229277
20
0.365768984086401
30
0
41
1
10
36.0837543645246
20
0.369082409962942
30
0
41
1
10
36.0793386373031
20
0.371868046978307
30
0
0
SPLINE
5
137
100
AcDbEntity
8
1
62
256
6
ByLayer
370
18
48
1
60
0
100
AcDbSpline
70
4
71
3
72
10
73
6
40
0
40
0
40
0
40
0
40
0.5
40
0.5
40
1
40
1
40
1
40
1
41
1
10
36.0793386373032
20
0.371868046976232
30
0
41
1
10
36.0186554294963
20
0.41014971189702
30
0
41
1
10
35.9585130399104
20
0.455100202970954
30
0
41
1
10
35.8389299445224
20
0.557975123485818
30
0
41
1
10
35.7798882881394
20
0.615502174616807
30
0
41
1
10
35.7213562867206
20
0.678793146024674
30
0
0
SPLINE
5
138
100
AcDbEntity
8
1
62
256
6
ByLayer
370
18
48
1
60
0
100
AcDbSpline
70
4
71
3
72
10
73
6
40
0
40
0
40
0
40
0
40
0.5
40
0.5
40
1
40
1
40
1
40
1
41
1
10
35.6130133316843
20
0.791331308109477
30
0
41
1
10
35.5506929622962
20
0.849032701485157
30
0
41
1
10
35.4878408027672
20
0.899146438706339
30
0
41
1
10
35.3605350699035
20
0.98382864773788
30
0
41
1
10
35.296464668318
20
1.01820166587584
30
0
41
1
10
35.2315476282368
20
1.04427266348864
30
0
0
SPLINE
5
139
100
AcDbEntity
8
1
62
256
6
ByLayer
370
18
48
1
60
0
100
AcDbSpline
70
4
71
3
72
30
73
26
40
0
40
0
40
0
40
0
40
0.12500000000002
40
0.12500000000002
40
0.25000000000004
40
0.25000000000004
40
0.37500000000006
40
0.37500000000006
40
0.43750000000007
40
0.43750000000007
40
0.50000000000008
40
0.50000000000008
40
0.62500000000006
40
0.62500000000006
40
0.68750000000005
40
0.68750000000005
40
0.75000000000004
40
0.75000000000004
40
0.81250000000003
40
0.81250000000003
40
0.87500000000002
40
0.87500000000002
40
0.93750000000001
40
0.93750000000001
40
1
40
1
40
1
40
1
41
1
10
35.2315476282368
20
1.04427266348864
30
0
41
1
10
35.2238519201841
20
1.04736329710377
30
0
41
1
10
35.2149490156376
20
1.05159045869385
30
0
41
1
10
35.1952792848604
20
1.06174243870103
30
0
41
1
10
35.1844200137381
20
1.06773182636937
30
0
41
1
10
35.1617341515479
20
1.0808675196792
30
0
41
1
10
35.1498391847676
20
1.08804639659147
30
0
41
1
10
35.1312239624455
20
1.09972852753248
30
0
41
1
10
35.1248888663104
20
1.10377662541012
30
0
41
1
10
35.1119533709752
20
1.11220282711926
30
0
41
1
10
35.1053829961641
20
1.11656214639731
30
0
41
1
10
35.0856347445906
20
1.12992504334397
30
0
41
1
10
35.0723192896213
20
1.13927247784036
30
0
41
1
10
35.052147582203
20
1.15411320991333
30
0
41
1
10
35.0453903683252
20
1.15919812570297
30
0
41
1
10
35.0318100451351
20
1.16969770476874
30
0
41
1
10
35.0249624913071
20
1.17513414797665
30
0
41
1
10
35.0115687402325
20
1.18611013902984
30
0
41
1
10
35.0049820151281
20
1.19167959448242
30
0
41
1
10
34.9920714020403
20
1.20301703829091
30
0
41
1
10
34.9856957154368
20
1.2088350303961
30
0
41
1
10
34.9735801426023
20
1.22042850919266
30
0
41
1
10
34.9678401919997
20
1.22619853453531
30
0
41
1
10
34.9571008073032
20
1.2376751476267
30
0
41
1
10
34.9520824454293
20
1.24341060847124
30
0
41
1
10
34.9476684416443
20
1.24891963533625
30
0
0
SPLINE
5
13A
100
AcDbEntity
8
1
62
256
6
ByLayer
370
18
48
1
60
0
100
AcDbSpline
70
4
71
3
72
10
73
6
40
0
40
0
40
0
40
0
40
0.5
40
0.5
40
1
40
1
40
1
40
1
41
1
10
34.9476684416445
20
1.24891963533446
30
0
41
1
10
34.8866199074916
20
1.32511304863883
30
0
41
1
10
34.8261286053986
20
1.40622310674939
30
0
41
1
10
34.705859408355
20
1.57778036373341
30
0
41
1
10
34.6464864451902
20
1.66760215834063
30
0
41
1
10
34.5876163441205
20
1.7611708226851
30
0
0
SPLINE
5
13B
100
AcDbEntity
8
1
62
256
6
ByLayer
370
18
48
1
60
0
100
AcDbSpline
70
4
71
3
72
10
73
6
40
0
40
0
40
0
40
0
40
0.5
40
0.5
40
1
40
1
40
1
40
1
41
1
10
34.4812597506187
20
1.8484778159301
30
0
41
1
10
34.4190261652526
20
1.85007562393201
30
0
41
1
10
34.3562384539592
20
1.84359748243767
30
0
41
1
10
34.2289104091857
20
1.81417335160307
30
0
41
1
10
34.1647892937688
20
1.79137943609658
30
0
41
1
10
34.0998096293726
20
1.76027447144921
30
0
0
SPLINE
5
13C
100
AcDbEntity
8
1
62
256
6
ByLayer
370
18
48
1
60
0
100
AcDbSpline
70
4
71
3
72
30
73
26
40
0
40
0
40
0
40
0
40
0.125000000000015
40
0.125000000000015
40
0.250000000000029
40
0.250000000000029
40
0.375000000000044
40
0.375000000000044
40
0.437500000000052
40
0.437500000000052
40
0.50000000000006
40
0.50000000000006
40
0.625000000000076
40
0.625000000000076
40
0.687500000000063
40
0.687500000000063
40
0.75000000000005
40
0.75000000000005
40
0.812500000000038
40
0.812500000000038
40
0.875000000000025
40
0.875000000000025
40
0.937500000000013
40
0.937500000000013
40
1
40
1
40
1
40
1
41
1
10
34.0998096293726
20
1.76027447144921
30
0
41
1
10
34.0921103889432
20
1.75658893992798
30
0
41
1
10
34.0832017920148
20
1.75444138646014
30
0
41
1
10
34.0635158884721
20
1.75246086260805
30
0
41
1
10
34.052645105395
20
1.75266676233207
30
0
41
1
10
34.0299356196028
20
1.75515975755854
30
0
41
1
10
34.0180286150635
20
1.75743070825737
30
0
41
1
10
33.9993967333215
20
1.76234329515353
30
0
41
1
10
33.9930563195699
20
1.76423459670602
30
0
41
1
10
33.9801110020258
20
1.76855408232774
30
0
41
1
10
33.9735389637899
20
1.77097331654349
30
0
41
1
10
33.9537851865543
20
1.77894033010355
30
0
41
1
10
33.9404686223103
20
1.78521610325021
30
0
41
1
10
33.9202999729491
20
1.79632977262781
30
0
41
1
10
33.9135445599072
20
1.8003204292589
30
0
41
1
10
33.8999695014789
20
1.80896822034981
30
0
41
1
10
33.8931304121859
20
1.81364393138512
30
0
41
1
10
33.8797562419502
20
1.82352312155501
30
0
41
1
10
33.8731792589703
20
1.82875039864967
30
0
41
1
10
33.8602876382945
20
1.83987632283006
30
0
41
1
10
33.8539214784845
20
1.8458288160426
30
0
41
1
10
33.8418283433965
20
1.85824449857114
30
0
41
1
10
33.8360981819265
20
1.86469900515553
30
0
41
1
10
33.8253753899832
20
1.87818288501697
30
0
41
1
10
33.820364366716
20
1.8852529269044
30
0
41
1
10
33.8159554529042
20
1.89243900891307
30
0
0
SPLINE
5
13D
100
AcDbEntity
8
1
62
256
6
ByLayer
370
18
48
1
60
0
100
AcDbSpline
70
4
71
3
72
10
73
6
40
0
40
0
40
0
40
0
40
0.5
40
0.5
40
1
40
1
40
1
40
1
41
1
10
33.8159554529036
20
1.8924390089127
30
0
41
1
10
33.7549036968735
20
1.99194717448938
30
0
41
1
10
33.6944189617188
20
2.09359721526744
30
0
41
1
10
33.5741650454517
20
2.30078093628617
30
0
41
1
10
33.5147978425725
20
2.40559794491983
30
0
41
1
10
33.4559279468993
20
2.51145053271253
30
0
0
SPLINE
5
13E
100
AcDbEntity
8
1
62
256
6
ByLayer
370
18
48
1
60
0
100
AcDbSpline
70
4
71
3
72
10
73
6
40
0
40
0
40
0
40
0
40
0.5
40
0.5
40
1
40
1
40
1
40
1
41
1
10
33.3495958936618
20
2.55931274788935
30
0
41
1
10
33.2873581898818
20
2.50452979228575
30
0
41
1
10
33.2246093021554
20
2.4427774691741
30
0
41
1
10
33.0972996596206
20
2.30502216119123
30
0
41
1
10
33.0331170705368
20
2.22940958395458
30
0
41
1
10
32.9680426538185
20
2.14704533387766
30
0
0
SPLINE
5
13F
100
AcDbEntity
8
1
62
256
6
ByLayer
370
18
48
1
60
0
100
AcDbSpline
70
4
71
3
72
30
73
26
40
0
40
0
40
0
40
0
40
0.124999999999978
40
0.124999999999978
40
0.249999999999955
40
0.249999999999955
40
0.374999999999933
40
0.374999999999933
40
0.437499999999939
40
0.437499999999939
40
0.499999999999946
40
0.499999999999946
40
0.62499999999996
40
0.62499999999996
40
0.687499999999967
40
0.687499999999967
40
0.749999999999973
40
0.749999999999973
40
0.81249999999998
40
0.81249999999998
40
0.874999999999987
40
0.874999999999987
40
0.937499999999993
40
0.937499999999993
40
1
40
1
40
1
40
1
41
1
10
32.9680426538185
20
2.14704533387766
30
0
41
1
10
32.9603410645285
20
2.13729748428841
30
0
41
1
10
32.9514281637961
20
2.12920227760762
30
0
41
1
10
32.9317302780082
20
2.11551415192497
30
0
41
1
10
32.9208504199266
20
2.10992599377389
30
0
41
1
10
32.8981227132871
20
2.10136792878728
30
0
41
1
10
32.8862067920924
20
2.09833632146319
30
0
41
1
10
32.8675627806429
20
2.09560515389998
30
0
41
1
10
32.8612185199803
20
2.09500069921054
30
0
41
1
10
32.8482661298235
20
2.09443464030775
30
0
41
1
10
32.8416932842385
20
2.09447737368868
30
0
41
1
10
32.8219363567663
20
2.09560254141283
30
0
41
1
10
32.8086196148259
20
2.09765946279188
30
0
41
1
10
32.7884540993935
20
2.10300155823836
30
0
41
1
10
32.7817002962153
20
2.10516198637907
30
0
41
1
10
32.7681296680904
20
2.11035927806981
30
0
41
1
10
32.7612981560862
20
2.11340996277522
30
0
41
1
10
32.7479408665005
20
2.12036183426912
30
0
41
1
10
32.7413723247178
20
2.12427576748891
30
0
41
1
10
32.7284973821279
20
2.13311800568013
30
0
41
1
10
32.7221397501636
20
2.13809405652626
30
0
41
1
10
32.7100674506821
20
2.14900994623872
30
0
41
1
10
32.7043467848869
20
2.15493918671402
30
0
41
1
10
32.6936411370779
20
2.16789671490452
30
0
41
1
10
32.6886382285622
20
2.17496957308089
30
0
41
1
10
32.6842354812944
20
2.18247561442982
30
0
0
SPLINE
5
140
100
AcDbEntity
8
1
62
256
6
ByLayer
370
18
48
1
60
0
100
AcDbSpline
70
4
71
3
72
10
73
6
40
0
40
0
40
0
40
0
40
0.5
40
0.5
40
1
40
1
40
1
40
1
41
1
10
32.6842354812932
20
2.18247561443189
30
0
41
1
10
32.6231995043188
20
2.28653304473423
30
0
41
1
10
32.5627369780802
20
2.38951884561081
30
0
41
1
10
32.4425190239892
20
2.59323325955964
30
0
41
1
10
32.3831678622147
20
2.69326811294653
30
0
41
1
10
32.3243005455888
20
2.7914537459273
30
0
0
SPLINE
5
141
100
AcDbEntity
8
1
62
256
6
ByLayer
370
18
48
1
60
0
100
AcDbSpline
70
4
71
3
72
10
73
6
40
0
40
0
40
0
40
0
40
0.5
40
0.5
40
1
40
1
40
1
40
1
41
1
10
32.2175138159319
20
2.79090592805505
30
0
41
1
10
32.1552316326299
20
2.69007691642298
30
0
41
1
10
32.0924677218054
20
2.58459660126013
30
0
41
1
10
31.9652571128852
20
2.36432881662753
30
0
41
1
10
31.9012048569488
20
2.25022147504626
30
0
41
1
10
31.8362284417765
20
2.13210167427457
30
0
0
SPLINE
5
142
100
AcDbEntity
8
1
62
256
6
ByLayer
370
18
48
1
60
0
100
AcDbSpline
70
4
71
3
72
30
73
26
40
0
40
0
40
0
40
0
40
0.12500000000002
40
0.12500000000002
40
0.25000000000004
40
0.25000000000004
40
0.37500000000006
40
0.37500000000006
40
0.43750000000007
40
0.43750000000007
40
0.50000000000008
40
0.50000000000008
40
0.62500000000006
40
0.62500000000006
40
0.68750000000005
40
0.68750000000005
40
0.75000000000004
40
0.75000000000004
40
0.81250000000003
40
0.81250000000003
40
0.87500000000002
40
0.87500000000002
40
0.93750000000001
40
0.93750000000001
40
1
40
1
40
1
40
1
41
1
10
31.8362284417765
20
2.13210167427457
30
0
41
1
10
31.828541577127
20
2.1181278205531
30
0
41
1
10
31.819645994952
20
2.10559923526299
30
0
41
1
10
31.7999806153036
20
2.08274645103913
30
0
41
1
10
31.7891157296774
20
2.07239177978593
30
0
41
1
10
31.7664077066827
20
2.05433424583691
30
0
41
1
10
31.7544975295971
20
2.04653661862818
30
0
41
1
10
31.7358565595273
20
2.03662238520638
30
0
41
1
10
31.729512387169
20
2.03361775516618
30
0
41
1
10
31.7165583352814
20
2.02823601003328
30
0
41
1
10
31.7099831688949
20
2.02587649072765
30
0
41
1
10
31.6902190412714
20
2.01989667769064
30
0
41
1
10
31.676895905131
20
2.01731575481571
30
0
41
1
10
31.6567196673431
20
2.01583806557531
30
0
41
1
10
31.649962095433
20
2.01574822626361
30
0
41
1
10
31.6363836298997
20
2.01649199413208
30
0
41
1
10
31.6295475290719
20
2.01733527288923
30
0
41
1
10
31.6161822747768
20
2.02003991836753
30
0
41
1
10
31.6096102158086
20
2.02189968273015
30
0
41
1
10
31.5967289849432
20
2.02678905944907
30
0
41
1
10
31.5903684471453
20
2.02985149372938
30
0
41
1
10
31.5782920399537
20
2.03722069692313
30
0
41
1
10
31.5725700530485
20
2.04151411708841
30
0
41
1
10
31.5618629268994
20
2.05151966845006
30
0
41
1
10
31.5568601726947
20
2.05727241828703
30
0
41
1
10
31.552458065337
20
2.06369389178729
30
0
0
SPLINE
5
143
100
AcDbEntity
8
1
62
256
6
ByLayer
370
18
48
1
60
0
100
AcDbSpline
70
4
71
3
72
10
73
6
40
0
40
0
40
0
40
0
40
0.5
40
0.5
40
1
40
1
40
1
40
1
41
1
10
31.552458065334
20
2.06369389179295
30
0
41
1
10
31.4913164357346
20
2.15288284662267
30
0
41
1
10
31.4307562666811
20
2.23788329942332
30
0
41
1
10
31.3103560165504
20
2.39987649346261
30
0
41
1
10
31.250925980449
20
2.47632947444697
30
0
41
1
10
31.1919937011101
20
2.54843040581463
30
0
0
SPLINE
5
144
100
AcDbEntity
8
1
62
256
6
ByLayer
370
18
48
1
60
0
100
AcDbSpline
70
4
71
3
72
8
73
4
40
0
40
0
40
0
40
0
40
1
40
1
40
1
40
1
41
1
10
31.085941255891
20
2.49971388995559
30
0
41
1
10
31.121311467969
20
2.51666359061352
30
0
41
1
10
31.1566570188973
20
2.53290377599117
30
0
41
1
10
31.1919937011101
20
2.54843040581463
30
0
0
SPLINE
5
145
100
AcDbEntity
8
1
62
256
6
ByLayer
370
18
48
1
60
0
100
AcDbSpline
70
4
71
3
72
10
73
6
40
0
40
0
40
0
40
0
40
0.5
40
0.5
40
1
40
1
40
1
40
1
41
1
10
31.085941255891
20
2.49971388995559
30
0
41
1
10
31.0236324608854
20
2.37163421773232
30
0
41
1
10
30.9608327785048
20
2.2420730560417
30
0
41
1
10
30.8335545393956
20
1.98035548258676
30
0
41
1
10
30.7694688924636
20
1.84898303091487
30
0
41
1
10
30.7044853819903
20
1.71727424725103
30
0
0
SPLINE
5
146
100
AcDbEntity
8
1
62
256
6
ByLayer
370
18
48
1
60
0
100
AcDbSpline
70
4
71
3
72
10
73
6
40
0
40
0
40
0
40
0
40
0.574133542444734
40
0.574133542444734
40
1
40
1
40
1
40
1
41
1
10
30.7044853819903
20
1.71727424725103
30
0
41
1
10
30.6968018539346
20
1.70170124839183
30
0
41
1
10
30.6879129564133
20
1.68710945097055
30
0
41
1
10
30.6708037081718
20
1.66300933002992
30
0
41
1
10
30.6629513200071
20
1.65312901212599
30
0
41
1
10
30.6547529350158
20
1.64379578640953
30
0
0
SPLINE
5
147
100
AcDbEntity
8
1
62
256
6
ByLayer
370
18
48
1
60
0
100
AcDbSpline
70
4
71
3
72
26
73
22
40
0
40
0
40
0
40
0
40
0.125
40
0.125
40
0.25
40
0.25
40
0.375
40
0.375
40
0.5
40
0.5
40
0.625
40
0.625
40
0.75
40
0.75
40
0.8125
40
0.8125
40
0.875
40
0.875
40
0.9375
40
0.9375
40
1
40
1
40
1
40
1
41
1
10
30.675152928931
20
1.63142769377058
30
0
41
1
10
30.6830911430369
20
1.61608080495927
30
0
41
1
10
30.6923082329512
20
1.60167876560286
30
0
41
1
10
30.7126543278777
20
1.57428421615708
30
0
41
1
10
30.7238976859959
20
1.56122108696459
30
0
41
1
10
30.7472540158539
20
1.53726055514426
30
0
41
1
10
30.7594438619532
20
1.5262427828246
30
0
41
1
10
30.7847403396139
20
1.50598234648766
30
0
41
1
10
30.7979403486364
20
1.49670038624856
30
0
41
1
10
30.8243299100636
20
1.48057563686595
30
0
41
1
10
30.8376096664687
20
1.4736431579033
30
0
41
1
10
30.8642851453512
20
1.46224148685235
30
0
41
1
10
30.8777951418439
20
1.45775978866183
30
0
41
1
10
30.8972244129137
20
1.45359424788532
30
0
41
1
10
30.9035889974245
20
1.45261908920241
30
0
41
1
10
30.9160545378281
20
1.45161271243757
30
0
41
1
10
30.9221968570409
20
1.45158793528785
30
0
41
1
10
30.9338414888307
20
1.45265008143187
30
0
41
1
10
30.9393677328986
20
1.45372674348698
30
0
41
1
10
30.9497321666973
20
1.45714729719273
30
0
41
1
10
30.954598149362
20
1.45951395393468
30
0
41
1
10
30.9589273287296
20
1.46259609946344
30
0
0
SPLINE
5
148
100
AcDbEntity
8
1
62
256
6
ByLayer
370
18
48
1
60
0
100
AcDbSpline
70
4
71
3
72
12
73
8
40
0
40
0
40
0
40
0
40
0.500000000000001
40
0.500000000000001
40
0.75
40
0.75
40
1
40
1
40
1
40
1
41
1
10
30.9589273287295
20
1.46259609946364
30
0
41
1
10
31.020608591743
20
1.50650987915705
30
0
41
1
10
31.0817284487369
20
1.54393257741063
30
0
41
1
10
31.172441077745
20
1.59041753345946
30
0
41
1
10
31.2025498192239
20
1.60432030782312
30
0
41
1
10
31.2623821896827
20
1.62889307634546
30
0
41
1
10
31.2921189446619
20
1.63957159449484
30
0
41
1
10
31.3217097193879
20
1.64865547618749
30
0
0
SPLINE
5
149
100
AcDbEntity
8
1
62
256
6
ByLayer
370
18
48
1
60
0
100
AcDbSpline
70
4
71
3
72
8
73
4
40
0
40
0
40
0
40
0
40
1
40
1
40
1
40
1
41
1
10
31.4278053429827
20
1.55581379333975
30
0
41
1
10
31.3924426900222
20
1.5872323121358
30
0
41
1
10
31.3570764924206
20
1.61817787584346
30
0
41
1
10
31.3217097193879
20
1.6486554761874
30
0
0
SPLINE
5
14A
100
AcDbEntity
8
1
62
256
6
ByLayer
370
18
48
1
60
0
100
AcDbSpline
70
4
71
3
72
12
73
8
40
0
40
0
40
0
40
0
40
0.5
40
0.5
40
0.75
40
0.75
40
1
40
1
40
1
40
1
41
1
10
31.4278053429825
20
1.55581379333981
30
0
41
1
10
31.4895133062036
20
1.43410363194107
30
0
41
1
10
31.5518040543519
20
1.31518333566925
30
0
41
1
10
31.6466297881707
20
1.14151907739719
30
0
41
1
10
31.6783835004553
20
1.08459881923537
30
0
41
1
10
31.742245027057
20
0.972695291886737
30
0
41
1
10
31.7743369208291
20
0.91767572278718
30
0
41
1
10
31.8066418491371
20
0.86363687371869
30
0
0
SPLINE
5
14B
100
AcDbEntity
8
1
62
256
6
ByLayer
370
18
48
1
60
0
100
AcDbSpline
70
4
71
3
72
26
73
22
40
0
40
0
40
0
40
0
40
0.125000000000009
40
0.125000000000009
40
0.250000000000019
40
0.250000000000019
40
0.375000000000029
40
0.375000000000029
40
0.500000000000038
40
0.500000000000038
40
0.625000000000048
40
0.625000000000048
40
0.750000000000057
40
0.750000000000057
40
0.812500000000043
40
0.812500000000043
40
0.875000000000029
40
0.875000000000029
40
0.937500000000014
40
0.937500000000014
40
1
40
1
40
1
40
1
41
1
10
31.8066418491367
20
0.863636873718832
30
0
41
1
10
31.8145866417717
20
0.850347029953639
30
0
41
1
10
31.8238039716505
20
0.837203349453119
30
0
41
1
10
31.8441520332896
20
0.811187892248114
30
0
41
1
10
31.8554008322822
20
0.798233198446525
30
0
41
1
10
31.8787953093475
20
0.773487163192669
30
0
41
1
10
31.8910164308765
20
0.761583999370743
30
0
41
1
10
31.9163679452106
20
0.738581209566206
30
0
41
1
10
31.9295886983135
20
0.727417824327176
30
0
41
1
10
31.9560033395822
20
0.706615786243219
30
0
41
1
10
31.9692883239937
20
0.696884120798927
30
0
41
1
10
31.9959611575786
20
0.678832569570829
30
0
41
1
10
32.0094619257926
20
0.670457378099513
30
0
41
1
10
32.0288757195147
20
0.659705352518387
30
0
41
1
10
32.0352347672507
20
0.656404096542843
30
0
41
1
10
32.0476891130052
20
0.650443904150194
30
0
41
1
10
32.0538262031947
20
0.647770322712006
30
0
41
1
10
32.0654654359476
20
0.643316817165754
30
0
41
1
10
32.0709897778135
20
0.641521470098667
30
0
41
1
10
32.0813522904212
20
0.638933769360762
30
0
41
1
10
32.0862189488416
20
0.63814162031079
30
0
41
1
10
32.0905517279202
20
0.637984341089862
30
0
0
SPLINE
5
14C
100
AcDbEntity
8
1
62
256
6
ByLayer
370
18
48
1
60
0
100
AcDbSpline
70
4
71
3
72
12
73
8
40
0
40
0
40
0
40
0
40
0.499999999999993
40
0.499999999999993
40
0.749999999999996
40
0.749999999999996
40
1
40
1
40
1
40
1
41
1
10
32.0905517279201
20
0.637984341090061
30
0
41
1
10
32.1522891587535
20
0.635743281749626
30
0
41
1
10
32.2134508116775
20
0.626281136610828
30
0
41
1
10
32.3042398326862
20
0.602064939204183
30
0
41
1
10
32.3343746032105
20
0.592306426362114
30
0
41
1
10
32.3942630795057
20
0.569539361704813
30
0
41
1
10
32.424029628342
20
0.556528731300091
30
0
41
1
10
32.4536516148694
20
0.541916177837038
30
0
0
SPLINE
5
14D
100
AcDbEntity
8
1
62
256
6
ByLayer
370
18
48
1
60
0
100
AcDbSpline
70
4
71
3
72
12
73
8
40
0
40
0
40
0
40
0
40
0.5
40
0.5
40
0.75
40
0.75
40
1
40
1
40
1
40
1
41
1
10
32.5601727026772
20
0.430026738468058
30
0
41
1
10
32.6218167710598
20
0.335851656605854
30
0
41
1
10
32.6840024681454
20
0.247232184133452
30
0
41
1
10
32.7785927765684
20
0.122995376851321
30
0
41
1
10
32.8102532063112
20
0.0831545511546494
30
0
41
1
10
32.8739264508827
20
0.0066374519153101
30
0
41
1
10
32.9059315175181
20
-0.0300653421114134
30
0
41
1
10
32.9381827844981
20
-0.0650856785692895
30
0
0
SPLINE
5
14E
100
AcDbEntity
8
1
62
256
6
ByLayer
370
18
48
1
60
0
100
AcDbSpline
70
4
71
3
72
26
73
22
40
0
40
0
40
0
40
0
40
0.125
40
0.125
40
0.25
40
0.25
40
0.375
40
0.375
40
0.5
40
0.5
40
0.625
40
0.625
40
0.75
40
0.75
40
0.8125
40
0.8125
40
0.875
40
0.875
40
0.9375
40
0.9375
40
1
40
1
40
1
40
1
41
1
10
32.9381827844981
20
-0.0650856785692611
30
0
41
1
10
32.9461484688344
20
-0.0737352905596538
30
0
41
1
10
32.9554017118211
20
-0.0830649538295916
30
0
41
1
10
32.9758328547242
20
-0.102678741071941
30
0
41
1
10
32.9871248671283
20
-0.113055724915228
30
0
41
1
10
33.0105906395811
20
-0.133908515036751
30
0
41
1
10
33.0228493209754
20
-0.144457539024131
30
0
41
1
10
33.0482749749493
20
-0.165888488114149
30
0
41
1
10
33.0615247727982
20
-0.176841851221013
30
0
41
1
10
33.0879070186861
20
-0.198523056351149
30
0
41
1
10
33.1011383400549
20
-0.209328300405758
30
0
41
1
10
33.1277033245816
20
-0.230844192811418
30
0
41
1
10
33.1411405387354
20
-0.241623388134855
30
0
41
1
10
33.1604961774383
20
-0.257019913920146
30
0
41
1
10
33.1668422485911
20
-0.262048441740319
30
0
41
1
10
33.1792817882826
20
-0.271877591051975
30
0
41
1
10
33.1854131954599
20
-0.27670800212158
30
0
41
1
10
33.1970383242674
20
-0.285845658921517
30
0
41
1
10
33.2025614763737
20
-0.290176430910861
30
0
41
1
10
33.2129305202437
20
-0.298285891398336
30
0
41
1
10
33.2178028133472
20
-0.302085215285104
30
0
41
1
10
33.2221389426097
20
-0.30544788344244
30
0
0
SPLINE
5
14F
100
AcDbEntity
8
1
62
256
6
ByLayer
370
18
48
1
60
0
100
AcDbSpline
70
4
71
3
72
12
73
8
40
0
40
0
40
0
40
0
40
0.500000000000007
40
0.500000000000007
40
0.750000000000003
40
0.750000000000003
40
1
40
1
40
1
40
1
41
1
10
33.2221389426097
20
-0.305447883441985
30
0
41
1
10
33.2840128652572
20
-0.353431109231423
30
0
41
1
10
33.3453091838608
20
-0.407816095600197
30
0
41
1
10
33.4362056851299
20
-0.498396004607542
30
0
41
1
10
33.4663643717139
20
-0.530106273453498
30
0
41
1
10
33.5262815766094
20
-0.596235737822525
30
0
41
1
10
33.5560538079011
20
-0.630666854278843
30
0
41
1
10
33.5856775468637
20
-0.666415186496863
30
0
0
SPLINE
5
150
100
AcDbEntity
8
1
62
256
6
ByLayer
370
18
48
1
60
0
100
AcDbSpline
70
4
71
3
72
10
73
6
40
0
40
0
40
0
40
0
40
0.5
40
0.5
40
1
40
1
40
1
40
1
41
1
10
33.6916346718514
20
-0.775972500244848
30
0
41
1
10
33.7531362178181
20
-0.825222652432757
30
0
41
1
10
33.8152611609491
20
-0.867230769572927
30
0
41
1
10
33.9414410911451
20
-0.936275890692968
30
0
41
1
10
34.0051229256381
20
-0.963121965379401
30
0
41
1
10
34.069746915869
20
-0.982186949661894
30
0
0
SPLINE
5
151
100
AcDbEntity
8
1
62
256
6
ByLayer
370
18
48
1
60
0
100
AcDbSpline
70
4
71
3
72
26
73
22
40
0
40
0
40
0
40
0
40
0.125000000000009
40
0.125000000000009
40
0.250000000000019
40
0.250000000000019
40
0.375000000000029
40
0.375000000000029
40
0.500000000000038
40
0.500000000000038
40
0.625000000000048
40
0.625000000000048
40
0.750000000000057
40
0.750000000000057
40
0.812500000000043
40
0.812500000000043
40
0.875000000000029
40
0.875000000000029
40
0.937500000000014
40
0.937500000000014
40
1
40
1
40
1
40
1
41
1
10
34.069746915869
20
-0.982186949661894
30
0
41
1
10
34.0777218223532
20
-0.984539659023113
30
0
41
1
10
34.0869904216239
20
-0.988282555568389
30
0
41
1
10
34.1074513332904
20
-0.997781614982927
30
0
41
1
10
34.1187606880524
20
-1.00361883155875
30
0
41
1
10
34.1422302283305
20
-1.01666455997548
30
0
41
1
10
34.1544692265091
20
-1.02390518977202
30
0
41
1
10
34.1798420047061
20
-1.03977828916268
30
0
41
1
10
34.193061619904
20
-1.0484766190169
30
0
41
1
10
34.2194570287851
20
-1.06679060141457
30
0
41
1
10
34.2327283228279
20
-1.07645925473
30
0
41
1
10
34.2593633728929
20
-1.09701441305529
30
0
41
1
10
34.2728214719829
20
-1.10799043089693
30
0
41
1
10
34.2921582012264
20
-1.12492023177464
30
0
41
1
10
34.2984917935263
20
-1.13066377273364
30
0
41
1
10
34.3108960867329
20
-1.14238773258776
30
0
41
1
10
34.3170063021371
20
-1.14841074315697
30
0
41
1
10
34.328590214301
20
-1.16042089041852
30
0
41
1
10
34.3340897777165
20
-1.16642840204588
30
0
41
1
10
34.3444097096484
20
-1.17844807660916
30
0
41
1
10
34.3492582917558
20
-1.18450034182666
30
0
41
1
10
34.3535792432195
20
-1.19040662236401
30
0
0
SPLINE
5
152
100
AcDbEntity
8
1
62
256
6
ByLayer
370
18
48
1
60
0
100
AcDbSpline
70
4
71
3
72
12
73
8
40
0
40
0
40
0
40
0
40
0.5
40
0.5
40
0.75
40
0.75
40
1
40
1
40
1
40
1
41
1
10
34.3535792432195
20
-1.19040662236381
30
0
41
1
10
34.4154857594622
20
-1.2750262379931
30
0
41
1
10
34.4767368024332
20
-1.36467264675699
30
0
41
1
10
34.5676087257858
20
-1.50475497429332
30
0
41
1
10
34.5977631776677
20
-1.55244290890599
30
0
41
1
10
34.6576817161865
20
-1.64942311119953
30
0
41
1
10
34.6874590520715
20
-1.69873453278024
30
0
41
1
10
34.7170909855903
20
-1.74883340213373
30
0
0
SPLINE
5
153
100
AcDbEntity
8
1
62
256
6
ByLayer
370
18
48
1
60
0
100
AcDbSpline
70
4
71
3
72
10
73
6
40
0
40
0
40
0
40
0
40
0.5
40
0.5
40
1
40
1
40
1
40
1
41
1
10
34.8235419406298
20
-1.83643900893785
30
0
41
1
10
34.8850146549137
20
-1.8318559184853
30
0
41
1
10
34.9471251604851
20
-1.81968643498337
30
0
41
1
10
35.0732384542602
20
-1.77992976284136
30
0
41
1
10
35.1368523589335
20
-1.75246086092352
30
0
41
1
10
35.2013753088158
20
-1.71733870592286
30
0
0
SPLINE
5
154
100
AcDbEntity
8
1
62
256
6
ByLayer
370
18
48
1
60
0
100
AcDbSpline
70
4
71
3
72
26
73
22
40
0
40
0
40
0
40
0
40
0.125
40
0.125
40
0.25
40
0.25
40
0.375
40
0.375
40
0.5
40
0.5
40
0.625
40
0.625
40
0.75
40
0.75
40
0.8125
40
0.8125
40
0.875
40
0.875
40
0.9375
40
0.9375
40
1
40
1
40
1
40
1
41
1
10
35.2013753088158
20
-1.71733870592283
30
0
41
1
10
35.2093432549566
20
-1.71300146715887
30
0
41
1
10
35.2186038187498
20
-1.71049965455384
30
0
41
1
10
35.2390485600602
20
-1.70816563976294
30
0
41
1
10
35.2503504243365
20
-1.7083841647669
30
0
41
1
10
35.2738096617424
20
-1.71117082650005
30
0
41
1
10
35.286044899389
20
-1.71371814219128
30
0
41
1
10
35.3114127998358
20
-1.72100790283216
30
0
41
1
10
35.3246322115053
20
-1.72580310449723
30
0
41
1
10
35.3510274253083
20
-1.73739426380811
30
0
41
1
10
35.3642980090103
20
-1.74420372187558
30
0
41
1
10
35.3909339948818
20
-1.76013232852281
30
0
41
1
10
35.4043949143226
20
-1.76934093932835
30
0
41
1
10
35.4237374671998
20
-1.78473275765185
30
0
41
1
10
35.4300732688278
20
-1.79014383756535
30
0
41
1
10
35.4424825753778
20
-1.80161482033554
30
0
41
1
10
35.4485952727616
20
-1.80772054721038
30
0
41
1
10
35.4601818250278
20
-1.82037321916076
30
0
41
1
10
35.4656825257047
20
-1.8269375197782
30
0
41
1
10
35.4760041236058
20
-1.84061903216281
30
0
41
1
10
35.480852794382
20
-1.84778622611114
30
0
41
1
10
35.4851722252023
20
-1.85511436206929
30
0
0
SPLINE
5
155
100
AcDbEntity
8
1
62
256
6
ByLayer
370
18
48
1
60
0
100
AcDbSpline
70
4
71
3
72
14
73
10
40
0
40
0
40
0
40
0
40
0.249999999999999
40
0.249999999999999
40
0.5
40
0.5
40
0.75
40
0.75
40
1
40
1
40
1
40
1
41
1
10
35.4851722252023
20
-1.85511436206915
30
0
41
1
10
35.5125259906847
20
-1.90152142836189
30
0
41
1
10
35.5397491808238
20
-1.94828731201892
30
0
41
1
10
35.5939831561506
20
-2.04249917483813
30
0
41
1
10
35.6209896509121
20
-2.08990283807753
30
0
41
1
10
35.6746151180852
20
-2.18524245291252
30
0
41
1
10
35.7012518433277
20
-2.23323480726694
30
0
41
1
10
35.7543332087953
20
-2.32948096345211
30
0
41
1
10
35.7807365451444
20
-2.37770204972497
30
0
41
1
10
35.80701115181
20
-2.42601785019261
30
0
0
SPLINE
5
156
100
AcDbEntity
8
1
62
256
6
ByLayer
370
18
48
1
60
0
100
AcDbSpline
70
4
71
3
72
8
73
4
40
0
40
0
40
0
40
0
40
1
40
1
40
1
40
1
41
1
10
35.80701115181
20
-2.42601785019261
30
0
41
1
10
35.8859260472015
20
-2.44337689280729
30
0
41
1
10
35.9653145520938
20
-2.45600334217107
30
0
41
1
10
36.045407698572
20
-2.46393124523166
30
0
0
SPLINE
5
157
100
AcDbEntity
8
1
62
256
6
ByLayer
370
18
48
1
60
0
100
AcDbSpline
70
4
71
3
72
12
73
8
40
0
40
0
40
0
40
0
40
0.25
40
0.25
40
0.500000000000001
40
0.500000000000001
40
1
40
1
40
1
40
1
41
1
10
36.045407698572
20
-2.46393124523161
30
0
41
1
10
36.0688981346291
20
-2.43981519518493
30
0
41
1
10
36.0925057400723
20
-2.41477180440711
30
0
41
1
10
36.1399992971686
20
-2.36281989527532
30
0
41
1
10
36.1638840040975
20
-2.33591107046269
30
0
41
1
10
36.2357864700795
20
-2.25264901075772
30
0
41
1
10
36.2841249955544
20
-2.19369211944323
30
0
41
1
10
36.3330425326459
20
-2.1312715584188
30
0
0
SPLINE
5
158
100
AcDbEntity
8
1
62
256
6
ByLayer
370
18
48
1
60
0
100
AcDbSpline
70
4
71
3
72
26
73
22
40
0
40
0
40
0
40
0
40
0.125
40
0.125
40
0.25
40
0.25
40
0.375
40
0.375
40
0.5
40
0.5
40
0.625
40
0.625
40
0.75
40
0.75
40
0.8125
40
0.8125
40
0.875
40
0.875
40
0.9375
40
0.9375
40
1
40
1
40
1
40
1
41
1
10
36.3330425326459
20
-2.1312715584188
30
0
41
1
10
36.3410101416542
20
-2.12110459879878
30
0
41
1
10
36.3502712058076
20
-2.11288133602471
30
0
41
1
10
36.3707206498302
20
-2.09927317307847
30
0
41
1
10
36.3820288522404
20
-2.09389911748204
30
0
41
1
10
36.405503399062
20
-2.08605002983617
30
0
41
1
10
36.4177467918345
20
-2.08350561540826
30
0
41
1
10
36.4431342671786
20
-2.0810136919836
30
0
41
1
10
36.4563625041527
20
-2.08109632365742
30
0
41
1
10
36.4827700848948
20
-2.08397109827331
30
0
41
1
10
36.4960473358838
20
-2.0867356063703
30
0
41
1
10
36.5226921647534
20
-2.09523950981298
30
0
41
1
10
36.5361438218644
20
-2.10104790423756
30
0
41
1
10
36.5554554150344
20
-2.11214195999494
30
0
41
1
10
36.5617795285731
20
-2.11624665443313
30
0
41
1
10
36.5741625247982
20
-2.12539021216227
30
0
41
1
10
36.5802591577059
20
-2.13046911449135
30
0
41
1
10
36.5918090765999
20
-2.14145139048864
30
0
41
1
10
36.597291134922
20
-2.14736690518109
30
0
41
1
10
36.6075763816573
20
-2.16018232484029
30
0
41
1
10
36.6124072380544
20
-2.16713281386112
30
0
41
1
10
36.6167130251889
20
-2.17451665626163
30
0
0
SPLINE
5
159
100
AcDbEntity
8
1
62
256
6
ByLayer
370
18
48
1
60
0
100
AcDbSpline
70
4
71
3
72
10
73
6
40
0
40
0
40
0
40
0
40
0.5
40
0.5
40
1
40
1
40
1
40
1
41
1
10
36.6167130251889
20
-2.1745166562616
30
0
41
1
10
36.6404558786659
20
-2.21523243777514
30
0
41
1
10
36.6640967289449
20
-2.25575311138582
30
0
41
1
10
36.7112049307017
20
-2.33638668339722
30
0
41
1
10
36.7346774346296
20
-2.37650828426501
30
0
41
1
10
36.758028687272
20
-2.4163311815644
30
0
0
SPLINE
5
15A
100
AcDbEntity
8
1
62
256
6
ByLayer
370
18
48
1
60
0
100
AcDbSpline
70
4
71
3
72
16
73
12
40
0
40
0
40
0
40
0
40
0.250000000000011
40
0.250000000000011
40
0.375000000000009
40
0.375000000000009
40
0.500000000000007
40
0.500000000000007
40
0.750000000000004
40
0.750000000000004
40
1
40
1
40
1
40
1
41
1
10
36.758028687272
20
-2.41633118156437
30
0
41
1
10
36.8152451919439
20
-2.40356935557236
30
0
41
1
10
36.8725317420806
20
-2.38873529138161
30
0
41
1
10
36.9584186247164
20
-2.36352266381445
30
0
41
1
10
36.9870155426761
20
-2.35463040703044
30
0
41
1
10
37.0445372041993
20
-2.33575413065276
30
0
41
1
10
37.0734104834195
20
-2.32579125066772
30
0
41
1
10
37.1601762709192
20
-2.29442677134352
30
0
41
1
10
37.2183449736262
20
-2.27150462131857
30
0
41
1
10
37.3356663170036
20
-2.2217482933481
30
0
41
1
10
37.3947721743421
20
-2.1949285008572
30
0
41
1
10
37.4544166530964
20
-2.16622318488942
30
0
0
SPLINE
5
15B
100
AcDbEntity
8
1
62
256
6
ByLayer
370
18
48
1
60
0
100
AcDbSpline
70
4
71
3
72
8
73
4
40
0
40
0
40
0
40
0
40
1
40
1
40
1
40
1
41
1
10
37.4544166530964
20
-2.16622318488936
30
0
41
1
10
37.457839410035
20
-2.16017942317791
30
0
41
1
10
37.4612649220316
20
-2.15412639438941
30
0
41
1
10
37.464693290879
20
-2.14806406787142
30
0
0
SPLINE
5
15C
100
AcDbEntity
8
1
62
256
6
ByLayer
370
18
48
1
60
0
100
AcDbSpline
70
4
71
3
72
22
73
18
40
0
40
0
40
0
40
0
40
0.125
40
0.125
40
0.25
40
0.25
40
0.375
40
0.375
40
0.5
40
0.5
40
0.625
40
0.625
40
0.75
40
0.75
40
0.875
40
0.875
40
1
40
1
40
1
40
1
41
1
10
37.464693290879
20
-2.14806406787142
30
0
41
1
10
37.4708603095079
20
-2.13715903336836
30
0
41
1
10
37.4778089594532
20
-2.12727247468837
30
0
41
1
10
37.4929232571313
20
-2.10906404247521
30
0
41
1
10
37.5011101699347
20
-2.10073618164012
30
0
41
1
10
37.5185155312416
20
-2.08554668239682
30
0
41
1
10
37.5275543349241
20
-2.07883759012554
30
0
41
1
10
37.5462065809273
20
-2.06696595414678
30
0
41
1
10
37.5558209325249
20
-2.06180582537502
30
0
41
1
10
37.5755892150327
20
-2.05299603831159
30
0
41
1
10
37.5857959767298
20
-2.0493415452587
30
0
41
1
10
37.6061921935192
20
-2.04377326219574
30
0
41
1
10
37.6164374662745
20
-2.0418259926104
30
0
41
1
10
37.6369948829499
20
-2.03968368434096
30
0
41
1
10
37.6473070930434
20
-2.0394853769894
30
0
41
1
10
37.6679756417551
20
-2.04112737366702
30
0
41
1
10
37.6781055422991
20
-2.04295274664307
30
0
41
1
10
37.6879352708533
20
-2.04591685105447
30
0
0
SPLINE
5
15D
100
AcDbEntity
8
1
62
256
6
ByLayer
370
18
48
1
60
0
100
AcDbSpline
70
4
71
3
72
10
73
6
40
0
40
0
40
0
40
0
40
0.5
40
0.5
40
1
40
1
40
1
40
1
41
1
10
37.6879352708548
20
-2.04591685106314
30
0
41
1
10
37.7246248569502
20
-2.02583042143965
30
0
41
1
10
37.7613927498838
20
-2.00515499864935
30
0
41
1
10
37.8353029058526
20
-1.96267693256078
30
0
41
1
10
37.872504959129
20
-1.94088019793256
30
0
41
1
10
37.909999947914
20
-1.9185626183791
30
0
0
SPLINE
5
15E
100
AcDbEntity
8
1
62
256
6
ByLayer
370
18
48
1
60
0
100
AcDbSpline
70
4
71
3
72
12
73
8
40
0
40
0
40
0
40
0
40
0.5
40
0.5
40
0.75
40
0.75
40
1
40
1
40
1
40
1
41
1
10
37.9099999479142
20
-1.91856261837907
30
0
41
1
10
37.9565969739623
20
-1.86074500873858
30
0
41
1
10
38.0045990604713
20
-1.80239651339772
30
0
41
1
10
38.0797476230888
20
-1.71475833498511
30
0
41
1
10
38.1051786150832
20
-1.68569961573166
30
0
41
1
10
38.1570173366995
20
-1.62811905263231
30
0
41
1
10
38.1832889098017
20
-1.59976876594433
30
0
41
1
10
38.2099999999999
20
-1.57194753601698
30
0
0
SPLINE
5
15F
100
AcDbEntity
8
1
62
256
6
ByLayer
370
18
48
1
60
0
100
AcDbSpline
70
4
71
3
72
14
73
10
40
0
40
0
40
0
40
0
40
0.125
40
0.125
40
0.250000000000001
40
0.250000000000001
40
0.500000000000001
40
0.500000000000001
40
1
40
1
40
1
40
1
41
1
10
38.21
20
-1.57194753601695
30
0
41
1
10
38.21
20
-1.55943420806105
30
0
41
1
10
38.21
20
-1.54743011339599
30
0
41
1
10
38.21
20
-1.52442361678232
30
0
41
1
10
38.21
20
-1.51346796738176
30
0
41
1
10
38.21
20
-1.48068948615969
30
0
41
1
10
38.21
20
-1.45934507299376
30
0
41
1
10
38.21
20
-1.39722078850241
30
0
41
1
10
38.21
20
-1.35825836434086
30
0
41
1
10
38.21
20
-1.32174325074425
30
0
0
SPLINE
5
160
100
AcDbEntity
8
1
62
256
6
ByLayer
370
18
48
1
60
0
100
AcDbSpline
70
4
71
3
72
19
73
15
40
0
40
0
40
0
40
0
40
0.0459368332189006
40
0.0459368332189006
40
0.119326307586677
40
0.119326307586677
40
0.412884205057785
40
0.412884205057785
40
0.706442102528893
40
0.706442102528893
40
0.853221051264447
40
0.926610525632224
40
0.926610525632224
40
1
40
1
40
1
40
1
41
1
10
30.7340186992043
20
-2.79180273785477
30
0
41
1
10
30.7330995987692
20
-2.7918022308404
30
0
41
1
10
30.7321796898586
20
-2.79167463905
30
0
41
1
10
30.7297934016746
20
-2.79101302168471
30
0
41
1
10
30.7283279898121
20
-2.79028282025882
30
0
41
1
10
30.7210058484076
20
-2.78503387144556
30
0
41
1
10
30.7151558827896
20
-2.77573466275041
30
0
41
1
10
30.7033613604011
20
-2.74718886547595
30
0
41
1
10
30.6974344246704
20
-2.72794178389677
30
0
41
1
10
30.6885131320738
20
-2.69155107705333
30
0
41
1
10
30.6840442515546
20
-2.67147192280962
30
0
41
1
10
30.6795610657203
20
-2.64852042616738
30
0
41
1
10
30.6765685749108
20
-2.6325733178144
30
0
41
1
10
30.6750689312263
20
-2.62426709476256
30
0
41
1
10
30.6735756533059
20
-2.61568396700713
30
0
0
SPLINE
5
161
100
AcDbEntity
8
1
62
256
6
ByLayer
370
18
48
1
60
0
100
AcDbSpline
70
4
71
3
72
18
73
14
40
0
40
0
40
0
40
0
40
0.131692244182215
40
0.131692244182215
40
0.26338448836443
40
0.26338448836443
40
0.526768976728861
40
0.526768976728861
40
0.790153465093291
40
0.790153465093291
40
0.921845709275506
40
0.921845709275506
40
1
40
1
40
1
40
1
41
1
10
30.567604354526
20
-2.57324248028709
30
0
41
1
10
30.5705660841145
20
-2.59232940418909
30
0
41
1
10
30.5735126147121
20
-2.61016609276442
30
0
41
1
10
30.5793706672277
20
-2.64328568068612
30
0
41
1
10
30.5822849515278
20
-2.65858658375083
30
0
41
1
10
30.5910088588173
20
-2.70076690009566
30
0
41
1
10
30.5968050251207
20
-2.72393369458851
30
0
41
1
10
30.6084930048861
20
-2.76040468695138
30
0
41
1
10
30.6143775133282
20
-2.77370969805477
30
0
41
1
10
30.6232998789183
20
-2.78606009298022
30
0
41
1
10
30.6262967106663
20
-2.78890431382357
30
0
41
1
10
30.6310474722254
20
-2.79134756005817
30
0
41
1
10
30.6328136777675
20
-2.7918010829963
30
0
41
1
10
30.6345771108621
20
-2.79180312007833
30
0
0
SPLINE
5
162
100
AcDbEntity
8
1
62
256
6
ByLayer
370
18
48
1
60
0
100
AcDbSpline
70
4
71
3
72
8
73
4
40
0
40
0
40
0
40
0
40
1
40
1
40
1
40
1
41
1
10
33.2626495719704
20
2.77665129411543
30
0
41
1
10
33.2655945336826
20
2.78177230619957
30
0
41
1
10
33.2685386267332
20
2.78559359629375
30
0
41
1
10
33.2714919197267
20
2.78811765459432
30
0
0
SPLINE
5
163
100
AcDbEntity
8
1
62
256
6
ByLayer
370
18
48
1
60
0
100
AcDbSpline
70
4
71
3
72
16
73
12
40
0
40
0
40
0
40
0
40
0.234332087591066
40
0.234332087591066
40
0.361943406325889
40
0.361943406325889
40
0.489554725060712
40
0.489554725060712
40
0.744777362530356
40
0.744777362530356
40
1
40
1
40
1
40
1
41
1
10
33.2801303059221
20
2.7918031921829
30
0
41
1
10
33.2855463811578
20
2.79181542032461
30
0
41
1
10
33.2910347801232
20
2.78754546197928
30
0
41
1
10
33.2995801748028
20
2.77415727848961
30
0
41
1
10
33.3026102904356
20
2.76811026422232
30
0
41
1
10
33.3086178288657
20
2.75352855488208
30
0
41
1
10
33.3116032470112
20
2.74498597141434
30
0
41
1
10
33.3205040997486
20
2.71566948329192
30
0
41
1
10
33.3263608606257
20
2.69121662532862
30
0
41
1
10
33.3379932865934
20
2.63260022616657
30
0
41
1
10
33.3437680781071
20
2.59843684701636
30
0
41
1
10
33.3495958936618
20
2.55931274788935
30
0
0
SPLINE
5
164
100
AcDbEntity
8
1
62
256
6
ByLayer
370
18
48
1
60
0
100
AcDbSpline
70
4
71
3
72
19
73
15
40
0
40
0
40
0
40
0
40
0.232018202728873
40
0.232018202728873
40
0.464036405457747
40
0.464036405457747
40
0.580045506822183
40
0.580045506822183
40
0.638050057504402
40
0.638050057504402
40
0.69605460818662
40
0.69605460818662
40
0.928072810915491
40
1
40
1
40
1
40
1
41
1
10
33.4559279468993
20
2.51145053271253
30
0
41
1
10
33.4501006083862
20
2.55416333677167
30
0
41
1
10
33.4442953572298
20
2.59201693244699
30
0
41
1
10
33.4325141552813
20
2.65818006267244
30
0
41
1
10
33.4265232406062
20
2.68648955326282
30
0
41
1
10
33.4175108971972
20
2.72169579318441
30
0
41
1
10
33.4145019142089
20
2.73221905320554
30
0
41
1
10
33.4099884744413
20
2.74614958723845
30
0
41
1
10
33.4084816945476
20
2.75048958542794
30
0
41
1
10
33.405481211421
20
2.75850976179188
30
0
41
1
10
33.4039878439393
20
2.76219024068237
30
0
41
1
10
33.3965544316567
20
2.778963715705
30
0
41
1
10
33.3889121761929
20
2.78973234084881
30
0
41
1
10
33.3813636276228
20
2.79180303232241
30
0
41
1
10
33.3795785771935
20
2.79180488801424
30
0
0
SPLINE
5
165
100
AcDbEntity
8
1
62
256
6
ByLayer
370
18
48
1
60
0
100
AcDbSpline
70
4
71
3
72
26
73
22
40
0
40
0
40
0
40
0
40
0.0217852556827783
40
0.0217852556827783
40
0.161530219156669
40
0.301275182630559
40
0.301275182630559
40
0.371147664367505
40
0.406083905235977
40
0.406083905235977
40
0.441020146104449
40
0.441020146104449
40
0.580765109578337
40
0.720510073052224
40
0.860255036526112
40
0.860255036526112
40
0.895191277394584
40
0.895191277394584
40
0.930127518263056
40
0.930127518263056
40
1
40
1
40
1
40
1
41
1
10
29.8269700620415
20
-2.53012398200431
30
0
41
1
10
29.8263434154595
20
-2.52974747398483
30
0
41
1
10
29.8257170745995
20
-2.52927513033887
30
0
41
1
10
29.8210745095432
20
-2.52506634020207
30
0
41
1
10
29.8130579809065
20
-2.50995548737134
30
0
41
1
10
29.8049888324977
20
-2.4794323379889
30
0
41
1
10
29.7988981512717
20
-2.45069713180834
30
0
41
1
10
29.7958432610245
20
-2.43486639514947
30
0
41
1
10
29.7927748815928
20
-2.41680792419581
30
0
41
1
10
29.7907261166536
20
-2.40426830770554
30
0
41
1
10
29.7896988160539
20
-2.39773933169755
30
0
41
1
10
29.7845708267617
20
-2.36394208171643
30
0
41
1
10
29.7764513078924
20
-2.30272105300688
30
0
41
1
10
29.7644046497563
20
-2.19010151879789
30
0
41
1
10
29.7563410206193
20
-2.10117457863339
30
0
41
1
10
29.7512474335665
20
-2.04114363701604
30
0
41
1
10
29.7502260132958
20
-2.02891435001743
30
0
41
1
10
29.7481766495617
20
-2.00400432973851
30
0
41
1
10
29.7471472398713
20
-1.99130510999308
30
0
41
1
10
29.7440601183582
20
-1.95267906182968
30
0
41
1
10
29.742004425843
20
-1.92623889048375
30
0
41
1
10
29.7399474809853
20
-1.89912207848775
30
0
0
SPLINE
5
166
100
AcDbEntity
8
1
62
256
6
ByLayer
370
18
48
1
60
0
100
AcDbSpline
70
4
71
3
72
8
73
4
40
0
40
0
40
0
40
0
40
1
40
1
40
1
40
1
41
1
10
17.8579965297525
20
1.99500327082026
30
0
41
1
10
17.8865275032023
20
1.99500079833271
30
0
41
1
10
17.9150814901202
20
1.99437997291966
30
0
41
1
10
17.9436563689454
20
1.99313357192096
30
0
0
SPLINE
5
167
100
AcDbEntity
8
1
62
256
6
ByLayer
370
18
48
1
60
0
100
AcDbSpline
70
4
71
3
72
44
73
40
40
0
40
0
40
0
40
0
40
0.0228627513465872
40
0.0228627513465872
40
0.0666609177926096
40
0.0666609177926096
40
0.110459084238632
40
0.110459084238632
40
0.154257250684655
40
0.154257250684655
40
0.198055417130677
40
0.198055417130677
40
0.285651750022722
40
0.285651750022722
40
0.329449916468744
40
0.329449916468744
40
0.373248082914767
40
0.460844415806812
40
0.460844415806812
40
0.504642582252834
40
0.504642582252834
40
0.548440748698857
40
0.548440748698857
40
0.636037081590891
40
0.636037081590891
40
0.723633414482925
40
0.723633414482925
40
0.767431580928937
40
0.767431580928937
40
0.811229747374949
40
0.811229747374949
40
0.898826080266983
40
0.898826080266983
40
0.942624246713
40
0.942624246713
40
0.964523329936004
40
0.964523329936004
40
0.986422413159007
40
1
40
1
40
1
40
1
41
1
10
18.8328914970019
20
-1.9949879263801
30
0
41
1
10
18.819420352967
20
-1.99496559669026
30
0
41
1
10
18.8058693307014
20
-1.9949122891544
30
0
41
1
10
18.7661173317568
20
-1.99467676999953
30
0
41
1
10
18.7396279023466
20
-1.99442039170077
30
0
41
1
10
18.6863919061215
20
-1.99376296844522
30
0
41
1
10
18.659658528875
20
-1.99336267916127
30
0
41
1
10
18.60594573393
20
-1.99247744819226
30
0
41
1
10
18.5789675181987
20
-1.99199206251129
30
0
41
1
10
18.5247325955033
20
-1.99099824744718
30
0
41
1
10
18.4974807167182
20
-1.99048916309505
30
0
41
1
10
18.4153860477457
20
-1.98896926711006
30
0
41
1
10
18.3602031815437
20
-1.98797219899853
30
0
41
1
10
18.2770366062714
20
-1.9865346185305
30
0
41
1
10
18.2492547323675
20
-1.98606032856313
30
0
41
1
10
18.1935194162806
20
-1.9851623283806
30
0
41
1
10
18.1096737518523
20
-1.98388428070285
30
0
41
1
10
18.0250631927984
20
-1.98290744448266
30
0
41
1
10
17.9398827531193
20
-1.98223501591025
30
0
41
1
10
17.9113941662385
20
-1.98206134912792
30
0
41
1
10
17.8542147879147
20
-1.98182846961609
30
0
41
1
10
17.8254812186967
20
-1.98176945487646
30
0
41
1
10
17.7395731160618
20
-1.98177852623922
30
0
41
1
10
17.6825347256521
20
-1.98203201314578
30
0
41
1
10
17.5689783886293
20
-1.98304313828839
30
0
41
1
10
17.5124588620338
20
-1.98380137573025
30
0
41
1
10
17.4281461788829
20
-1.98527129258537
30
0
41
1
10
17.4001217027121
20
-1.98581732021992
30
0
41
1
10
17.3442434903611
20
-1.98699381519293
30
0
41
1
10
17.3163138499916
20
-1.98762671680208
30
0
41
1
10
17.2335420179979
20
-1.98958608376009
30
0
41
1
10
17.1796592434544
20
-1.99098380469641
30
0
41
1
10
17.1013396215195
20
-1.99282817370357
30
0
41
1
10
17.075651762834
20
-1.99339807884596
30
0
41
1
10
17.0378494587108
20
-1.99409997054417
30
0
41
1
10
17.0253439467373
20
-1.99430844973591
30
0
41
1
10
17.0008075126524
20
-1.99465226551905
30
0
41
1
10
16.9812940639161
20
-1.99487162179713
30
0
41
1
10
16.9624115221253
20
-1.99497149884553
30
0
41
1
10
16.955281075742
20
-1.99498921021319
30
0
0
SPLINE
5
168
100
AcDbEntity
8
1
62
256
6
ByLayer
370
18
48
1
60
0
100
AcDbSpline
70
4
71
3
72
22
73
18
40
0
40
0
40
0
40
0
40
0.250000000000002
40
0.250000000000002
40
0.312500000000002
40
0.312500000000002
40
0.375000000000002
40
0.375000000000002
40
0.500000000000002
40
0.625000000000002
40
0.625000000000002
40
0.687500000000002
40
0.718750000000002
40
0.718750000000002
40
0.750000000000002
40
0.750000000000002
40
1
40
1
40
1
40
1
41
1
10
29.559917460186
20
1.27104362373487
30
0
41
1
10
29.5522283823496
20
1.3913101785385
30
0
41
1
10
29.5445427274512
20
1.50366781747434
30
0
41
1
10
29.534728232223
20
1.63384402724071
30
0
41
1
10
29.5327535429969
20
1.65941480271707
30
0
41
1
10
29.528826888601
20
1.70901365142325
30
0
41
1
10
29.5268713131017
20
1.73309233437013
30
0
41
1
10
29.5210243550484
20
1.8032018733295
30
0
41
1
10
29.513282120706
20
1.89102019313262
30
0
41
1
10
29.5055858480586
20
1.96765433082607
30
0
41
1
10
29.4997939128839
20
2.02087059997621
30
0
41
1
10
29.4968927857276
20
2.04641208084641
30
0
41
1
10
29.4939747502294
20
2.07032397573875
30
0
41
1
10
29.4920244467285
20
2.08589852417558
30
0
41
1
10
29.4910455076473
20
2.09351225531526
30
0
41
1
10
29.4822461599079
20
2.16007310270103
30
0
41
1
10
29.4744426143965
20
2.20557449778517
30
0
41
1
10
29.4664846828891
20
2.23783068052333
30
0
0
SPLINE
5
169
100
AcDbEntity
8
1
62
256
6
ByLayer
370
13
48
1
60
0
100
AcDbSpline
70
4
71
3
72
10
73
6
40
0
40
0
40
0
40
0
40
0.135265084366178
40
0.958147349836989
40
1
40
1
40
1
40
1
41
1.04
10
29.6661274163342
20
1.13977719220937
30
0
41
1.04
10
29.6605919511927
20
1.20130367146687
30
0
41
1.04
10
29.6212631546192
20
1.62562617617481
30
0
41
1.04
10
29.5806688818545
20
1.94952560121895
30
0
41
1.04
10
29.545308981373
20
2.09012073911992
30
0
41
1.04
10
29.5435969766722
20
2.09659751344457
30
0
0
SPLINE
5
16A
100
AcDbEntity
8
1
62
256
6
ByLayer
370
18
48
1
60
0
100
AcDbSpline
70
4
71
3
72
27
73
23
40
0
40
0
40
0
40
0
40
0.125
40
0.25
40
0.25
40
0.28125
40
0.28125
40
0.312499999999999
40
0.312499999999999
40
0.375
40
0.375
40
0.5
40
0.625
40
0.625
40
0.6875
40
0.6875
40
0.718750000000001
40
0.718750000000001
40
0.750000000000001
40
0.875
40
0.875
40
1
40
1
40
1
40
1
41
1
10
34.3400348400901
20
2.79173451183394
30
0
41
1
10
34.3459926203499
20
2.79105060330528
30
0
41
1
10
34.3577510674824
20
2.77946698339972
30
0
41
1
10
34.369274605222
20
2.74764105377003
30
0
41
1
10
34.3765166483642
20
2.72127418029413
30
0
41
1
10
34.3779673904609
20
2.71567618180188
30
0
41
1
10
34.3808777616892
20
2.70382372110129
30
0
41
1
10
34.3823394607262
20
2.69755949157127
30
0
41
1
10
34.3867223932649
20
2.67787383231854
30
0
41
1
10
34.3896457347676
20
2.66354845570842
30
0
41
1
10
34.398475873015
20
2.61704355024355
30
0
41
1
10
34.4103766907756
20
2.54564581186102
30
0
41
1
10
34.4223182378474
20
2.45577287380255
30
0
41
1
10
34.4312730010487
20
2.38132523569951
30
0
41
1
10
34.4342583470001
20
2.35533316474312
30
0
41
1
10
34.4387411544562
20
2.31454382093111
30
0
41
1
10
34.4402375366304
20
2.30063415752153
30
0
41
1
10
34.4432158398624
20
2.27237419110574
30
0
41
1
10
34.4506346697976
20
2.20053226257377
30
0
41
1
10
34.4579476749494
20
2.12282447275021
30
0
41
1
10
34.4696258839757
20
1.99116443169694
30
0
41
1
10
34.4754349668495
20
1.92166958266733
30
0
41
1
10
34.4812597506187
20
1.84847781593015
30
0
0
SPLINE
5
16B
100
AcDbEntity
8
1
62
256
6
ByLayer
370
18
48
1
60
0
100
AcDbSpline
70
4
71
3
72
24
73
20
40
0
40
0
40
0
40
0
40
0.125
40
0.25
40
0.25
40
0.3125
40
0.3125
40
0.374999999999999
40
0.374999999999999
40
0.499999999999999
40
0.624999999999999
40
0.624999999999999
40
0.687499999999999
40
0.687499999999999
40
0.749999999999999
40
0.749999999999999
40
0.874999999999999
40
0.874999999999999
40
1
40
1
40
1
40
1
41
1
10
34.5876163441205
20
1.76117082268507
30
0
41
1
10
34.5817870429539
20
1.83685522638027
30
0
41
1
10
34.5701928319145
20
1.98123276259861
30
0
41
1
10
34.5584591003974
20
2.11169915344669
30
0
41
1
10
34.549491333888
20
2.20418515336615
30
0
41
1
10
34.5464643857323
20
2.23419445062976
30
0
41
1
10
34.5404036351847
20
2.29178139218553
30
0
41
1
10
34.537370145801
20
2.31941069078323
30
0
41
1
10
34.528306019742
20
2.39887344740794
30
0
41
1
10
34.516330097894
20
2.49570897593867
30
0
41
1
10
34.5047250049062
20
2.57455010424025
30
0
41
1
10
34.4960661228599
20
2.62679290997016
30
0
41
1
10
34.4931857758956
20
2.64305681285825
30
0
41
1
10
34.4874010210528
20
2.67323039889723
30
0
41
1
10
34.4845217964191
20
2.68700763844495
30
0
41
1
10
34.4758532183491
20
2.72448118103301
30
0
41
1
10
34.4699970987679
20
2.74433693616362
30
0
41
1
10
34.458177040324
20
2.77400338812743
30
0
41
1
10
34.4522217367409
20
2.78381393688102
30
0
41
1
10
34.4462375563523
20
2.78853804341327
30
0
0
SPLINE
5
16C
100
AcDbEntity
8
1
62
256
6
ByLayer
370
18
48
1
60
0
100
AcDbSpline
70
4
71
3
72
30
73
26
40
0
40
0
40
0
40
0
40
0.125000000000002
40
0.125000000000002
40
0.156250000000002
40
0.156250000000002
40
0.187500000000003
40
0.250000000000004
40
0.250000000000004
40
0.375000000000004
40
0.500000000000005
40
0.500000000000005
40
0.531250000000005
40
0.531250000000005
40
0.562500000000005
40
0.562500000000005
40
0.625000000000004
40
0.625000000000004
40
0.750000000000003
40
0.750000000000003
40
0.875000000000001
40
0.875000000000001
40
0.937500000000001
40
0.937500000000001
40
1
40
1
40
1
40
1
41
1
10
34.9651341526936
20
-2.79154902495858
30
0
41
1
10
34.9592693811285
20
-2.7902371033278
30
0
41
1
10
34.953347283949
20
-2.78385306355597
30
0
41
1
10
34.9458154772612
20
-2.76931540694514
30
0
41
1
10
34.9443031055239
20
-2.76607770887449
30
0
41
1
10
34.9412862487125
20
-2.75898341654337
30
0
41
1
10
34.936765918328
20
-2.74740118913414
30
0
41
1
10
34.932266811505
20
-2.73302961914806
30
0
41
1
10
34.9233049639596
20
-2.70062479339691
30
0
41
1
10
34.9114578817231
20
-2.64767287820203
30
0
41
1
10
34.8997703383403
20
-2.57535446229949
30
0
41
1
10
34.8924595664723
20
-2.52394169867245
30
0
41
1
10
34.8909969607478
20
-2.51334764301112
30
0
41
1
10
34.8880688759739
20
-2.49152910160549
30
0
41
1
10
34.8866049859161
20
-2.48031552288918
30
0
41
1
10
34.8822313964126
20
-2.44592721380866
30
0
41
1
10
34.8793318593827
20
-2.42194691073601
30
0
41
1
10
34.8706540424324
20
-2.34690304080766
30
0
41
1
10
34.8648964715787
20
-2.29274474514153
30
0
41
1
10
34.8532852268621
20
-2.17628820521526
30
0
41
1
10
34.8474166760677
20
-2.11399070845164
30
0
41
1
10
34.8384905297457
20
-2.01432556138076
30
0
41
1
10
34.8355008645818
20
-1.98006501440287
30
0
41
1
10
34.8295020064359
20
-1.90941941359014
30
0
41
1
10
34.8265134955913
20
-1.87327627423372
30
0
41
1
10
34.8235419406297
20
-1.83643900893793
30
0
0
SPLINE
5
16D
100
AcDbEntity
8
1
62
256
6
ByLayer
370
18
48
1
60
0
100
AcDbSpline
70
4
71
3
72
32
73
28
40
0
40
0
40
0
40
0
40
0.0312499999999998
40
0.0312499999999998
40
0.0624999999999996
40
0.0624999999999996
40
0.124999999999999
40
0.124999999999999
40
0.249999999999999
40
0.374999999999998
40
0.374999999999998
40
0.437499999999998
40
0.437499999999998
40
0.468749999999998
40
0.468749999999998
40
0.499999999999998
40
0.624999999999998
40
0.624999999999998
40
0.749999999999998
40
0.749999999999998
40
0.812499999999998
40
0.812499999999998
40
0.843749999999998
40
0.843749999999998
40
0.874999999999998
40
0.874999999999998
40
1
40
1
40
1
40
1
41
1
10
34.7170909855903
20
-1.7488334021337
30
0
41
1
10
34.7185595966917
20
-1.76792060506571
30
0
41
1
10
34.7200317548422
20
-1.7868387821413
30
0
41
1
10
34.7229843432296
20
-1.82433316689733
30
0
41
1
10
34.7244661897109
20
-1.84292633255595
30
0
41
1
10
34.7289003086706
20
-1.89787164027862
30
0
41
1
10
34.7318486627642
20
-1.93348682437093
30
0
41
1
10
34.7406832990379
20
-2.03734815672485
30
0
41
1
10
34.7524357474276
20
-2.16788790841332
30
0
41
1
10
34.7642499221918
20
-2.28278655894434
30
0
41
1
10
34.773164850802
20
-2.36299313372152
30
0
41
1
10
34.7761454056119
20
-2.38873209175188
30
0
41
1
10
34.7806319818259
20
-2.42581374253177
30
0
41
1
10
34.7821304384881
20
-2.43792117759247
30
0
41
1
10
34.7851148893613
20
-2.46148238414895
30
0
41
1
10
34.7925565381678
20
-2.51884197623636
30
0
41
1
10
34.7998966496116
20
-2.56860386554254
30
0
41
1
10
34.8115153388056
20
-2.63871859821362
30
0
41
1
10
34.8172587469774
20
-2.66902331172619
30
0
41
1
10
34.8259569729547
20
-2.70727762249214
30
0
41
1
10
34.8288757654448
20
-2.7188261403428
30
0
41
1
10
34.8333046162221
20
-2.73431301340838
30
0
41
1
10
34.8347882200775
20
-2.73916917460721
30
0
41
1
10
34.837768863085
20
-2.74826199304613
30
0
41
1
10
34.8392646812873
20
-2.75249381417677
30
0
41
1
10
34.846730469087
20
-2.77198297603826
30
0
41
1
10
34.8526916992552
20
-2.7823501585305
30
0
41
1
10
34.8586243555319
20
-2.78765024603891
30
0
0
SPLINE
5
16E
100
AcDbEntity
8
1
62
256
6
ByLayer
370
18
48
1
60
0
100
AcDbSpline
70
4
71
3
72
96
73
92
40
0
40
0
40
0
40
0
40
0.0312499999999924
40
0.0312499999999924
40
0.0624999999999849
40
0.0624999999999849
40
0.12499999999997
40
0.12499999999997
40
0.156249999999964
40
0.156249999999964
40
0.171874999999961
40
0.171874999999961
40
0.187499999999958
40
0.187499999999958
40
0.203124999999955
40
0.203124999999955
40
0.218749999999952
40
0.218749999999952
40
0.249999999999946
40
0.249999999999946
40
0.265624999999943
40
0.265624999999943
40
0.28124999999994
40
0.312499999999934
40
0.312499999999934
40
0.328124999999933
40
0.328124999999933
40
0.343749999999932
40
0.343749999999932
40
0.374999999999934
40
0.374999999999934
40
0.406249999999936
40
0.406249999999936
40
0.421874999999938
40
0.421874999999938
40
0.437499999999941
40
0.437499999999941
40
0.468749999999946
40
0.468749999999946
40
0.484374999999947
40
0.484374999999947
40
0.492187499999948
40
0.492187499999948
40
0.499999999999948
40
0.515624999999952
40
0.515624999999952
40
0.523437499999953
40
0.523437499999953
40
0.531249999999954
40
0.531249999999954
40
0.562499999999951
40
0.562499999999951
40
0.570312499999951
40
0.570312499999951
40
0.578124999999951
40
0.578124999999951
40
0.593749999999952
40
0.593749999999952
40
0.601562499999952
40
0.601562499999952
40
0.609374999999953
40
0.609374999999953
40
0.624999999999954
40
0.624999999999954
40
0.632812499999955
40
0.632812499999955
40
0.640624999999955
40
0.640624999999955
40
0.656249999999957
40
0.656249999999957
40
0.671874999999959
40
0.671874999999959
40
0.687499999999961
40
0.687499999999961
40
0.703124999999963
40
0.703124999999963
40
0.718749999999964
40
0.718749999999964
40
0.74999999999997
40
0.74999999999997
40
0.781249999999976
40
0.781249999999976
40
0.796874999999979
40
0.796874999999979
40
0.812499999999982
40
0.812499999999982
40
0.874999999999988
40
0.874999999999988
40
0.937499999999994
40
0.937499999999994
40
1
40
1
40
1
40
1
41
1
10
19.502832028901
20
0.591983935382416
30
0
41
1
10
19.4593155720289
20
0.627801856320616
30
0
41
1
10
19.4151700361781
20
0.662239650069296
30
0
41
1
10
19.3255420341965
20
0.728389481291316
30
0
41
1
10
19.2800420037926
20
0.760075046140827
30
0
41
1
10
19.1411551615242
20
0.850715984103317
30
0
41
1
10
19.045399452808
20
0.905274372910355
30
0
41
1
10
18.8954936393037
20
0.977125912453346
30
0
41
1
10
18.8444719985082
20
0.999403013551444
30
0
41
1
10
18.7661173317561
20
1.03010293046702
30
0
41
1
10
18.7396279023459
20
1.03990962336425
30
0
41
1
10
18.6863919061209
20
1.05844189744639
30
0
41
1
10
18.6596585288744
20
1.06716661730931
30
0
41
1
10
18.6059457339294
20
1.08349963295672
30
0
41
1
10
18.5789675181981
20
1.09111290187289
30
0
41
1
10
18.5247325955029
20
1.10511657627444
30
0
41
1
10
18.4974807167178
20
1.11152759113838
30
0
41
1
10
18.4153860477453
20
1.12929178968287
30
0
41
1
10
18.3602031815433
20
1.13917517536544
30
0
41
1
10
18.277036606271
20
1.15232849551393
30
0
41
1
10
18.2492547323671
20
1.15645638833953
30
0
41
1
10
18.1935194162801
20
1.16399513594564
30
0
41
1
10
18.1096737518519
20
1.17428752303718
30
0
41
1
10
18.025063192798
20
1.18142563082765
30
0
41
1
10
17.9398827531188
20
1.18625851542709
30
0
41
1
10
17.911394166238
20
1.1874845768597
30
0
41
1
10
17.8542147879141
20
1.18912237609308
30
0
41
1
10
17.8254812186961
20
1.18953296253699
30
0
41
1
10
17.7395731160613
20
1.18946961657423
30
0
41
1
10
17.6825347256516
20
1.18772890807563
30
0
41
1
10
17.5689783886289
20
1.18043709321299
30
0
41
1
10
17.5124588620334
20
1.17489880572074
30
0
41
1
10
17.4281461788825
20
1.16310497594711
30
0
41
1
10
17.4001217027117
20
1.15857734935082
30
0
41
1
10
17.3442434903607
20
1.14822447575298
30
0
41
1
10
17.3163138499912
20
1.1423776342927
30
0
41
1
10
17.2335420179975
20
1.12273613001943
30
0
41
1
10
17.179659243454
20
1.10690349259019
30
0
41
1
10
17.1013396215191
20
1.07763721416492
30
0
41
1
10
17.0756517628336
20
1.06695796605493
30
0
41
1
10
17.0378494587104
20
1.04928841642803
30
0
41
1
10
17.0253439467369
20
1.04310699704695
30
0
41
1
10
17.000807512652
20
1.03023595700356
30
0
41
1
10
16.9646716546017
20
1.01015125742475
30
0
41
1
10
16.9306993816817
20
0.98752187864099
30
0
41
1
10
16.8983631000153
20
0.962911614309803
30
0
41
1
10
16.887858918017
20
0.95437573736649
30
0
41
1
10
16.8674467517246
20
0.936571914510665
30
0
41
1
10
16.8575137294897
20
0.927278542231051
30
0
41
1
10
16.8097619846361
20
0.879069508461697
30
0
41
1
10
16.778532028297
20
0.835923062465639
30
0
41
1
10
16.7494638981904
20
0.774977369805669
30
0
41
1
10
16.744206192268
20
0.762541556515885
30
0
41
1
10
16.7348595519384
20
0.737384773272851
30
0
41
1
10
16.7307551768477
20
0.724631738997346
30
0
41
1
10
16.7201023942695
20
0.685850453284729
30
0
41
1
10
16.7152061439865
20
0.659301850398577
30
0
41
1
10
16.710966493232
20
0.618448284447027
30
0
41
1
10
16.7100772145958
20
0.60464785512076
30
0
41
1
10
16.7093037168485
20
0.577173144357801
30
0
41
1
10
16.7094115883395
20
0.563439647924326
30
0
41
1
10
16.7110858019218
20
0.522241336782145
30
0
41
1
10
16.7139958799166
20
0.494778207697465
30
0
41
1
10
16.720642784227
20
0.453558079819004
30
0
41
1
10
16.7232406712686
20
0.439813941272689
30
0
41
1
10
16.729145192835
20
0.412313396433689
30
0
41
1
10
16.7324616211764
20
0.398523987715237
30
0
41
1
10
16.7432940541525
20
0.357521451842075
30
0
41
1
10
16.7516991135049
20
0.33058622473726
30
0
41
1
10
16.7704277795618
20
0.2773505626879
30
0
41
1
10
16.7807536398049
20
0.251050968020309
30
0
41
1
10
16.8030153316437
20
0.19897339508654
30
0
41
1
10
16.8148930519769
20
0.173172022963001
30
0
41
1
10
16.8399976945559
20
0.121993678004514
30
0
41
1
10
16.8533212245114
20
0.0966030649223342
30
0
41
1
10
16.8814982328313
20
0.0465542334480062
30
0
41
1
10
16.8962513733698
20
0.0220707325053695
30
0
41
1
10
16.9423642090467
20
-0.0498768691312819
30
0
41
1
10
16.9753988686545
20
-0.0959747168475076
30
0
41
1
10
17.0442734153471
20
-0.185828964202045
30
0
41
1
10
17.0801363811895
20
-0.22956725400141
30
0
41
1
10
17.135378127893
20
-0.293931110760724
30
0
41
1
10
17.1540389505356
20
-0.31517404257454
30
0
41
1
10
17.1917792386868
20
-0.357295038900844
30
0
41
1
10
17.2108807294525
20
-0.378196114449935
30
0
41
1
10
17.3068823001238
20
-0.481478531160064
30
0
41
1
10
17.385359797513
20
-0.5604911468929
30
0
41
1
10
17.5435464911322
20
-0.713787461240145
30
0
41
1
10
17.6232848161562
20
-0.788032404407971
30
0
41
1
10
17.7831758553895
20
-0.932613849429828
30
0
41
1
10
17.8633335736
20
-1.00294058801984
30
0
41
1
10
17.9436563689454
20
-1.07128407553338
30
0
0
SPLINE
5
16F
100
AcDbEntity
8
1
62
256
6
ByLayer
370
18
48
1
60
0
100
AcDbSpline
70
4
71
3
72
23
73
19
40
0
40
0
40
0
40
0
40
0.125000000000001
40
0.125000000000001
40
0.250000000000001
40
0.250000000000001
40
0.312500000000001
40
0.312500000000001
40
0.375000000000002
40
0.375000000000002
40
0.500000000000001
40
0.625000000000001
40
0.625000000000001
40
0.750000000000001
40
0.750000000000001
40
0.875
40
0.875
40
1
40
1
40
1
40
1
41
1
10
35.4719215399873
20
2.52258687361004
30
0
41
1
10
35.4778096612236
20
2.48054822854118
30
0
41
1
10
35.4835659033683
20
2.43411900315561
30
0
41
1
10
35.4950330026965
20
2.33267703193451
30
0
41
1
10
35.5007650399245
20
2.27766463968058
30
0
41
1
10
35.5095549698974
20
2.18864763826989
30
0
41
1
10
35.5125091823746
20
2.15788981694183
30
0
41
1
10
35.5184616755092
20
2.09416417135324
30
0
41
1
10
35.521468150499
20
2.06110048215658
30
0
41
1
10
35.5304533261951
20
1.95960417231333
30
0
41
1
10
35.5423772781388
20
1.81778651459132
30
0
41
1
10
35.5541725464793
20
1.663363703454
30
0
41
1
10
35.5659419200541
20
1.5026164368843
30
0
41
1
10
35.5718136301118
20
1.41907133312262
30
0
41
1
10
35.5836290263509
20
1.24546438886253
30
0
41
1
10
35.5894683810064
20
1.15694506788509
30
0
41
1
10
35.6011821896798
20
0.976607834558564
30
0
41
1
10
35.6070804340582
20
0.88479095133971
30
0
41
1
10
35.6130133316843
20
0.791331308109534
30
0
0
SPLINE
5
170
100
AcDbEntity
8
1
62
256
6
ByLayer
370
18
48
1
60
0
100
AcDbSpline
70
4
71
3
72
14
73
10
40
0
40
0
40
0
40
0
40
0.25
40
0.25
40
0.5
40
0.5
40
0.75
40
0.75
40
1
40
1
40
1
40
1
41
1
10
35.7109675867634
20
0.689707881446367
30
0
41
1
10
35.7065313862516
20
0.768641462466121
30
0
41
1
10
35.7022841870294
20
0.846092952766611
30
0
41
1
10
35.694042439535
20
0.998125595017996
30
0
41
1
10
35.6900500943159
20
1.07270654894805
30
0
41
1
10
35.6820207430986
20
1.21901639663582
30
0
41
1
10
35.6779679544255
20
1.29074453845308
30
0
41
1
10
35.6695278354385
20
1.43130617716238
30
0
41
1
10
35.66513960063
20
1.50013993012581
30
0
41
1
10
35.660553103724
20
1.56747751680916
30
0
0
SPLINE
5
171
100
AcDbEntity
8
1
62
256
6
ByLayer
370
13
48
1
60
0
100
AcDbSpline
70
4
71
3
72
10
73
6
40
0
40
0
40
0
40
0
40
0.0242433092258777
40
0.297829487529693
40
1
40
1
40
1
40
1
41
1
10
29.950039298439
20
0.927985113718734
30
0
41
1
10
29.949058979853
20
0.939526975067309
30
0
41
1
10
29.9369988694877
20
1.0809492535472
30
0
41
1
10
29.8958068976708
20
1.53963598104221
30
0
41
1
10
29.8560647678439
20
1.86722412385694
30
0
41
1
10
29.827354369743
20
2.0147896706431
30
0
0
SPLINE
5
172
100
AcDbEntity
8
1
62
256
6
ByLayer
370
18
48
1
60
0
100
AcDbSpline
70
4
71
3
72
8
73
4
40
0
40
0
40
0
40
0
40
1
40
1
40
1
40
1
41
1
10
30.21
20
2.06113000371991
30
0
41
1
10
30.21
20
2.13605335592916
30
0
41
1
10
30.21
20
2.20668960869941
30
0
41
1
10
30.21
20
2.27321078291428
30
0
0
SPLINE
5
173
100
AcDbEntity
8
1
62
256
6
ByLayer
370
18
48
1
60
0
100
AcDbSpline
70
4
71
3
72
10
73
6
40
0
40
0
40
0
40
0
40
0.5
40
0.5
40
1
40
1
40
1
40
1
41
1
10
30.1486782213563
20
2.40208522573414
30
0
41
1
10
30.1590400422659
20
2.35666578905989
30
0
41
1
10
30.1693049126866
20
2.30554930391202
30
0
41
1
10
30.189705275483
20
2.19195606962347
30
0
41
1
10
30.1998404553904
20
2.12948025415667
30
0
41
1
10
30.21
20
2.06113000372005
30
0
0
SPLINE
5
174
100
AcDbEntity
8
1
62
256
6
ByLayer
370
18
48
1
60
0
100
AcDbSpline
70
4
71
3
72
28
73
24
40
0
40
0
40
0
40
0
40
0.125000000000001
40
0.125000000000001
40
0.187500000000001
40
0.218750000000002
40
0.218750000000002
40
0.250000000000002
40
0.250000000000002
40
0.375000000000002
40
0.375000000000002
40
0.500000000000002
40
0.500000000000002
40
0.625000000000002
40
0.625000000000002
40
0.656250000000002
40
0.656250000000002
40
0.687500000000001
40
0.750000000000001
40
0.750000000000001
40
0.875000000000001
40
0.875000000000001
40
1
40
1
40
1
40
1
41
1
10
32.7011465090566
20
-1.76554340337358
30
0
41
1
10
32.6953594156942
20
-1.69021546083567
30
0
41
1
10
32.6896102067253
20
-1.61178055821844
30
0
41
1
10
32.6809255319766
20
-1.48943379240364
30
0
41
1
10
32.6765673716237
20
-1.42708449405558
30
0
41
1
10
32.6721579744725
20
-1.36294312348147
30
0
41
1
10
32.6692035614094
20
-1.31977922273796
30
0
41
1
10
32.6677180623409
20
-1.29798236083752
30
0
41
1
10
32.6602890992376
20
-1.18863273651169
30
0
41
1
10
32.6542941317493
20
-1.09949921604641
30
0
41
1
10
32.6423160166349
20
-0.918022341525671
30
0
41
1
10
32.6363347643011
20
-0.825678579156659
30
0
41
1
10
32.6244271732287
20
-0.637773887985333
30
0
41
1
10
32.6185008011594
20
-0.542213253273104
30
0
41
1
10
32.6110993379053
20
-0.420683190940963
30
0
41
1
10
32.6096198189051
20
-0.396283354683277
30
0
41
1
10
32.6066770837186
20
-0.347565474225263
30
0
41
1
10
32.6022808227289
20
-0.274503885212255
30
0
41
1
10
32.5979298398618
20
-0.201487921676744
30
0
41
1
10
32.5892614462514
20
-0.0555174577100672
30
0
41
1
10
32.5835288176038
20
0.0417144945069197
30
0
41
1
10
32.5719745091939
20
0.236005115519219
30
0
41
1
10
32.566146024209
20
0.333063385456285
30
0
41
1
10
32.5601727026772
20
0.430026738468058
30
0
0
SPLINE
5
175
100
AcDbEntity
8
1
62
256
6
ByLayer
370
18
48
1
60
0
100
AcDbSpline
70
4
71
3
72
29
73
25
40
0
40
0
40
0
40
0
40
0.125
40
0.125
40
0.187499999999999
40
0.187499999999999
40
0.249999999999999
40
0.249999999999999
40
0.374999999999999
40
0.499999999999998
40
0.499999999999998
40
0.562499999999999
40
0.562499999999999
40
0.593749999999999
40
0.593749999999999
40
0.624999999999999
40
0.749999999999999
40
0.749999999999999
40
0.875
40
0.875
40
0.9375
40
0.96875
40
0.96875
40
1
40
1
40
1
40
1
41
1
10
33.8328773778951
20
-2.51400154716242
30
0
41
1
10
33.8270490747568
20
-2.47175044942546
30
0
41
1
10
33.8212342393573
20
-2.42491154235651
30
0
41
1
10
33.8124536731316
20
-2.34762669452414
30
0
41
1
10
33.8095141633819
20
-2.3206619168347
30
0
41
1
10
33.8036173933221
20
-2.26445600749557
30
0
41
1
10
33.8006800908413
20
-2.23540766647335
30
0
41
1
10
33.7918856773389
20
-2.14548901677074
30
0
41
1
10
33.7802058966494
20
-2.01821604904598
30
0
41
1
10
33.7684752895275
20
-1.87646390050793
30
0
41
1
10
33.7596084632395
20
-1.76464705200985
30
0
41
1
10
33.7566413209103
20
-1.72645581943075
30
0
41
1
10
33.7521666516916
20
-1.6677639205671
30
0
41
1
10
33.7506690260608
20
-1.647937877994
30
0
41
1
10
33.7476752396245
20
-1.60795341219594
30
0
41
1
10
33.7402039236862
20
-1.50725837234901
30
0
41
1
10
33.732759183642
20
-1.40295607347792
30
0
41
1
10
33.7209143766586
20
-1.23157392345547
30
0
41
1
10
33.715031230176
20
-1.14363302574301
30
0
41
1
10
33.7062482176038
20
-1.00832540918347
30
0
41
1
10
33.7018660180188
20
-0.939820886838021
30
0
41
1
10
33.6974840181136
20
-0.870020826825424
30
0
41
1
10
33.6945604235946
20
-0.823196261008064
30
0
41
1
10
33.6930953419468
20
-0.799602914908405
30
0
41
1
10
33.6916346718514
20
-0.775972500244876
30
0
0
SPLINE
5
176
100
AcDbEntity
8
1
62
256
6
ByLayer
370
18
48
1
60
0
100
AcDbSpline
70
4
71
3
72
27
73
23
40
0
40
0
40
0
40
0
40
0.125
40
0.125
40
0.250000000000001
40
0.250000000000001
40
0.375000000000001
40
0.375000000000001
40
0.437500000000001
40
0.437500000000001
40
0.500000000000001
40
0.500000000000001
40
0.625000000000001
40
0.75
40
0.75
40
0.78125
40
0.78125
40
0.812499999999999
40
0.812499999999999
40
0.875
40
0.875
40
1
40
1
40
1
40
1
41
1
10
33.5856775468637
20
-0.666415186496863
30
0
41
1
10
33.5915267055026
20
-0.762063533497638
30
0
41
1
10
33.5972809801515
20
-0.855625644229804
30
0
41
1
10
33.6087828922763
20
-1.03871520047443
30
0
41
1
10
33.6145324554971
20
-1.12824207278021
30
0
41
1
10
33.6262697803096
20
-1.30325983863793
30
0
41
1
10
33.6322415771915
20
-1.38875202893291
30
0
41
1
10
33.6412934453042
20
-1.51387765823773
30
0
41
1
10
33.6443304605519
20
-1.55511155890352
30
0
41
1
10
33.6503592240515
20
-1.6355704172062
30
0
41
1
10
33.6533595626113
20
-1.67491638408546
30
0
41
1
10
33.6623156641556
20
-1.79035017596786
30
0
41
1
10
33.6741331903703
20
-1.9373317231466
30
0
41
1
10
33.6857681931455
20
-2.07059067554243
30
0
41
1
10
33.6930481102157
20
-2.14948880092186
30
0
41
1
10
33.6945047077842
20
-2.16504840438395
30
0
41
1
10
33.6974216131056
20
-2.19572266048925
30
0
41
1
10
33.6988840708114
20
-2.21085900450379
30
0
41
1
10
33.7032635044988
20
-2.25541179311591
30
0
41
1
10
33.7061698761635
20
-2.28395024914778
30
0
41
1
10
33.7148883036316
20
-2.36614802894528
30
0
41
1
10
33.7207166800547
20
-2.41639832788846
30
0
41
1
10
33.7266177459709
20
-2.46217933256682
30
0
0
SPLINE
5
177
100
AcDbEntity
8
1
62
256
6
ByLayer
370
18
48
1
60
0
100
AcDbSpline
70
4
71
3
72
26
73
22
40
0
40
0
40
0
40
0
40
0.124999999999999
40
0.124999999999999
40
0.156249999999999
40
0.156249999999999
40
0.187499999999999
40
0.249999999999999
40
0.249999999999999
40
0.375
40
0.375
40
0.5
40
0.5
40
0.5625
40
0.59375
40
0.59375
40
0.625
40
0.625
40
0.75
40
0.75
40
1
40
1
40
1
40
1
41
1
10
30.21
20
2.27321078291428
30
0
41
1
10
30.2150749744155
20
2.22451696052667
30
0
41
1
10
30.220140310753
20
2.17259804957982
30
0
41
1
10
30.2264919298467
20
2.10354048864267
30
0
41
1
10
30.2277636839512
20
2.08951598489287
30
0
41
1
10
30.2302973506609
20
2.06119380569183
30
0
41
1
10
30.2340879698871
20
2.01824836855076
30
0
41
1
10
30.2378542435904
20
1.97393097326659
30
0
41
1
10
30.2453696839773
20
1.88349455212025
30
0
41
1
10
30.2503567707621
20
1.82080497694449
30
0
41
1
10
30.2603764323642
20
1.69068654730683
30
0
41
1
10
30.2654198116965
20
1.62325830013077
30
0
41
1
10
30.2729915081241
20
1.51851379901208
30
0
41
1
10
30.2767792693444
20
1.46523965765502
30
0
41
1
10
30.2805768863022
20
1.41059143629468
30
0
41
1
10
30.2831130516485
20
1.37385070716715
30
0
41
1
10
30.2843833263138
20
1.35532506642133
30
0
41
1
10
30.2907195264
20
1.2624023716063
30
0
41
1
10
30.2957833732918
20
1.18674686074655
30
0
41
1
10
30.3110885056586
20
0.955951029406293
30
0
41
1
10
30.3213810420573
20
0.797008610894665
30
0
41
1
10
30.3316795406021
20
0.632909402406739
30
0
0
SPLINE
5
178
100
AcDbEntity
8
1
62
256
6
ByLayer
370
18
48
1
60
0
100
AcDbSpline
70
4
71
3
72
28
73
24
40
0
40
0
40
0
40
0
40
0.125
40
0.125
40
0.250000000000001
40
0.250000000000001
40
0.312500000000001
40
0.312500000000001
40
0.343750000000001
40
0.343750000000001
40
0.375000000000001
40
0.500000000000001
40
0.625000000000001
40
0.625000000000001
40
0.6875
40
0.6875
40
0.71875
40
0.71875
40
0.75
40
0.75
40
0.875
40
0.875
40
1
40
1
40
1
40
1
41
1
10
30.4376419386568
20
0.521368858978917
30
0
41
1
10
30.431619255695
20
0.617417082157914
30
0
41
1
10
30.4256481556539
20
0.71197804607425
30
0
41
1
10
30.4138242348645
20
0.898175388128379
30
0
41
1
10
30.4079699224319
20
0.989811644959218
30
0
41
1
10
30.3992112176144
20
1.1250326883879
30
0
41
1
10
30.3962948025812
20
1.16973335952593
30
0
41
1
10
30.3919120431026
20
1.23621244616555
30
0
41
1
10
30.3904482414881
20
1.25829887136817
30
0
41
1
10
30.3875321125361
20
1.30202888840697
30
0
41
1
10
30.3802616715043
20
1.41038135922665
30
0
41
1
10
30.3672937821409
20
1.59679704081694
30
0
41
1
10
30.3556158055122
20
1.75051855348525
30
0
41
1
10
30.3466991836196
20
1.8612724975647
30
0
41
1
10
30.3436957669193
20
1.8974325955827
30
0
41
1
10
30.3391687429419
20
1.95051787779582
30
0
41
1
10
30.3376570538267
20
1.968020432061
30
0
41
1
10
30.3346334582118
20
2.00263617354838
30
0
41
1
10
30.3331212552856
20
2.01975197967602
30
0
41
1
10
30.3256112955237
20
2.10384707768924
30
0
41
1
10
30.3197539181138
20
2.1668056203556
30
0
41
1
10
30.3081093443532
20
2.28434357713391
30
0
41
1
10
30.3022717984761
20
2.33892060713944
30
0
41
1
10
30.2963874586497
20
2.38929807292513
30
0
0
SPLINE
5
179
100
AcDbEntity
8
1
62
256
6
ByLayer
370
18
48
1
60
0
100
AcDbSpline
70
4
71
3
72
8
73
4
40
0
40
0
40
0
40
0
40
1
40
1
40
1
40
1
41
1
10
32.5950893966551
20
-1.67571447514018
30
0
41
1
10
32.6304327801905
20
-1.70612631722153
30
0
41
1
10
32.6657801597284
20
-1.73607322369296
30
0
41
1
10
32.7011465090566
20
-1.76554340337358
30
0
0
SPLINE
5
17A
100
AcDbEntity
8
1
62
256
6
ByLayer
370
18
48
1
60
0
100
AcDbSpline
70
4
71
3
72
10
73
6
40
0
40
0
40
0
40
0
40
0.5
40
0.5
40
1
40
1
40
1
40
1
41
1
10
30.7978238477644
20
0.242720610560212
30
0
41
1
10
30.7367549260194
20
0.275693574627809
30
0
41
1
10
30.6762422224523
20
0.315667789609023
30
0
41
1
10
30.555915627544
20
0.40910134152557
30
0
41
1
10
30.4965239344581
20
0.462212825170553
30
0
41
1
10
30.4376419386568
20
0.521368858978889
30
0
0
SPLINE
5
17B
100
AcDbEntity
8
1
62
256
6
ByLayer
370
18
48
1
60
0
100
AcDbSpline
70
4
71
3
72
8
73
4
40
0
40
0
40
0
40
0
40
1
40
1
40
1
40
1
41
1
10
30.3316795406021
20
0.632909402406739
30
0
41
1
10
30.3670250133784
20
0.595874225767147
30
0
41
1
10
30.4023411046265
20
0.558689632678409
30
0
41
1
10
30.4376419386567
20
0.521368858978889
30
0
0
SPLINE
5
17C
100
AcDbEntity
8
1
62
256
6
ByLayer
370
18
48
1
60
0
100
AcDbSpline
70
4
71
3
72
10
73
6
40
0
40
0
40
0
40
0
40
0.5
40
0.5
40
1
40
1
40
1
40
1
41
1
10
30.3316795406021
20
0.632909402406739
30
0
41
1
10
30.2693485260126
20
0.697168436318435
30
0
41
1
10
30.206473533435
20
0.75413440916472
30
0
41
1
10
30.0790805208799
20
0.852964460490313
30
0
41
1
10
30.0149515008145
20
0.894561407875074
30
0
41
1
10
29.950039298439
20
0.927985113718734
30
0
0
SPLINE
5
17D
100
AcDbEntity
8
1
62
256
6
ByLayer
370
18
48
1
60
0
100
AcDbSpline
70
4
71
3
72
30
73
26
40
0
40
0
40
0
40
0
40
0.125000000000008
40
0.125000000000008
40
0.250000000000016
40
0.250000000000016
40
0.375000000000025
40
0.375000000000025
40
0.437500000000011
40
0.437500000000011
40
0.499999999999998
40
0.499999999999998
40
0.624999999999969
40
0.624999999999969
40
0.687499999999974
40
0.687499999999974
40
0.749999999999979
40
0.749999999999979
40
0.812499999999984
40
0.812499999999984
40
0.87499999999999
40
0.87499999999999
40
0.937499999999995
40
0.937499999999995
40
1
40
1
40
1
40
1
41
1
10
29.950039298439
20
0.927985113718734
30
0
41
1
10
29.9423324451083
20
0.93195342151418
30
0
41
1
10
29.9334168039038
20
0.936994027718271
30
0
41
1
10
29.9137222722774
20
0.948666714558698
30
0
41
1
10
29.9028499482049
20
0.955364884116733
30
0
41
1
10
29.8801396654615
20
0.969773753602681
30
0
41
1
10
29.8682335126767
20
0.97752401855891
30
0
41
1
10
29.8496055892343
20
0.989971657412042
30
0
41
1
10
29.8432669383936
20
0.994259483358377
30
0
41
1
10
29.8303261377815
20
1.00313310904247
30
0
41
1
10
29.8237543001428
20
1.00769871324707
30
0
41
1
10
29.8040038825241
20
1.02162039142604
30
0
41
1
10
29.7906905226457
20
1.03126454699566
30
0
41
1
10
29.7705275122153
20
1.0464204051006
30
0
41
1
10
29.7637741121239
20
1.05158847573148
30
0
41
1
10
29.7502031574546
20
1.06220373886444
30
0
41
1
10
29.7433617805406
20
1.06767193618296
30
0
41
1
10
29.7299803463881
20
1.07865148165172
30
0
41
1
10
29.723399774777
20
1.08419336403838
30
0
41
1
10
29.710500885066
20
1.09540731119389
30
0
41
1
10
29.7041307977767
20
1.10112799677864
30
0
41
1
10
29.6920243820271
20
1.11245066237763
30
0
41
1
10
29.6862884022934
20
1.11804775903874
30
0
41
1
10
29.675556236659
20
1.12909334755247
30
0
41
1
10
29.6705404264861
20
1.13456927242336
30
0
41
1
10
29.666127416334
20
1.13977719221111
30
0
0
SPLINE
5
17E
100
AcDbEntity
8
1
62
256
6
ByLayer
370
18
48
1
60
0
100
AcDbSpline
70
4
71
3
72
8
73
4
40
0
40
0
40
0
40
0
40
1
40
1
40
1
40
1
41
1
10
29.6661274163322
20
1.1397771922133
30
0
41
1
10
29.630578262367
20
1.18172976789089
30
0
41
1
10
29.5951834465304
20
1.22550090000044
30
0
41
1
10
29.559917460186
20
1.2710436237349
30
0
0
SPLINE
5
17F
100
AcDbEntity
8
1
62
256
6
ByLayer
370
18
48
1
60
0
100
AcDbSpline
70
4
71
3
72
10
73
6
40
0
40
0
40
0
40
0
40
0.5
40
0.5
40
1
40
1
40
1
40
1
41
1
10
29.5599174601861
20
1.27104362373487
30
0
41
1
10
29.4815756706003
20
1.31682166288405
30
0
41
1
10
29.4026564844885
20
1.3569701486494
30
0
41
1
10
29.2426570678948
20
1.42527189703804
30
0
41
1
10
29.1614570223638
20
1.45328847272893
30
0
41
1
10
29.0790024617544
20
1.47529534437592
30
0
0
SPLINE
5
180
100
AcDbEntity
8
1
62
256
6
ByLayer
370
18
48
1
60
0
100
AcDbSpline
70
4
71
3
72
12
73
8
40
0
40
0
40
0
40
0
40
0.25
40
0.25
40
0.5
40
0.5
40
1
40
1
40
1
40
1
41
1
10
29.0790024617544
20
1.47529534437592
30
0
41
1
10
29.0559230274566
20
1.48145517525151
30
0
41
1
10
29.0321137750238
20
1.48827685061278
30
0
41
1
10
28.982946873538
20
1.50309902459566
30
0
41
1
10
28.957630976143
20
1.51116400785563
30
0
41
1
10
28.8799072521708
20
1.53793026339829
30
0
41
1
10
28.825758723431
20
1.55918535768279
30
0
41
1
10
28.7699796168084
20
1.58530165069527
30
0
0
SPLINE
5
181
100
AcDbEntity
8
1
62
256
6
ByLayer
370
18
48
1
60
0
100
AcDbSpline
70
4
71
3
72
41
73
37
40
0
40
0
40
0
40
0
40
0.0805574512238615
40
0.0805574512238615
40
0.161114902447723
40
0.161114902447723
40
0.241672353671584
40
0.241672353671584
40
0.281951079283513
40
0.281951079283513
40
0.322229804895442
40
0.322229804895442
40
0.362508530507371
40
0.362508530507371
40
0.4027872561193
40
0.4027872561193
40
0.483344707343158
40
0.483344707343158
40
0.563902158567016
40
0.563902158567016
40
0.644459609790873
40
0.644459609790873
40
0.725017061014732
40
0.725017061014732
40
0.765295786626659
40
0.785435149432622
40
0.785435149432622
40
0.805574512238586
40
0.805574512238586
40
0.886131963462433
40
0.886131963462433
40
0.926410689074356
40
0.926410689074356
40
0.96668941468628
40
0.96668941468628
40
1
40
1
40
1
40
1
41
1
10
28.7699796168084
20
1.58530165069527
30
0
41
1
10
28.6726390011679
20
1.63087742617841
30
0
41
1
10
28.5759162961451
20
1.67286835373051
30
0
41
1
10
28.383103266324
20
1.74942294113927
30
0
41
1
10
28.2870260727718
20
1.7839922191194
30
0
41
1
10
28.09479756135
20
1.84542366546103
30
0
41
1
10
27.9986213216122
20
1.87227956553542
30
0
41
1
10
27.8539701922983
20
1.90672503458327
30
0
41
1
10
27.8057386688277
20
1.91725500062336
30
0
41
1
10
27.7092962784454
20
1.93640349794103
30
0
41
1
10
27.6610619463304
20
1.94501241334603
30
0
41
1
10
27.5644787986765
20
1.96024087006842
30
0
41
1
10
27.5161318216046
20
1.96686106880091
30
0
41
1
10
27.4192502539245
20
1.97806051754111
30
0
41
1
10
27.3706711139967
20
1.98264288088461
30
0
41
1
10
27.2248108267649
20
1.99322895114255
30
0
41
1
10
27.1281310843894
20
1.9960242949461
30
0
41
1
10
26.9352670451028
20
1.9933119860284
30
0
41
1
10
26.8391101059044
20
1.98780057321454
30
0
41
1
10
26.6466170894319
20
1.968739917975
30
0
41
1
10
26.5502307398949
20
1.95522783535003
30
0
41
1
10
26.3576624742139
20
1.92011839986574
30
0
41
1
10
26.2614323440129
20
1.89850842885554
30
0
41
1
10
26.1166451569662
20
1.86004721867383
30
0
41
1
10
26.0441437412354
20
1.83930512743345
30
0
41
1
10
25.9713965327595
20
1.81630224075894
30
0
41
1
10
25.9228339952031
20
1.80046567513961
30
0
41
1
10
25.8984971991088
20
1.79228860155632
30
0
41
1
10
25.777001403156
20
1.75028773455736
30
0
41
1
10
25.6803211329237
20
1.7131018090142
30
0
41
1
10
25.5355774042056
20
1.65244179573602
30
0
41
1
10
25.48737798776
20
1.63140687153952
30
0
41
1
10
25.3909951758549
20
1.58779183388916
30
0
41
1
10
25.3427913151303
20
1.56522884825225
30
0
41
1
10
25.2547404003581
20
1.52261029599899
30
0
41
1
10
25.2149266006106
20
1.50276525559389
30
0
41
1
10
25.1751384120194
20
1.48237830238054
30
0
0
SPLINE
5
182
100
AcDbEntity
8
1
62
256
6
ByLayer
370
18
48
1
60
0
100
AcDbSpline
70
4
71
3
72
70
73
66
40
0
40
0
40
0
40
0
40
0.0124676413710076
40
0.0124676413710076
40
0.043328027578158
40
0.043328027578158
40
0.0741884137853085
40
0.0741884137853085
40
0.105048799992459
40
0.105048799992459
40
0.120478993096035
40
0.120478993096035
40
0.13590918619961
40
0.13590918619961
40
0.143624282751398
40
0.143624282751398
40
0.151339379303187
40
0.151339379303187
40
0.166769572406765
40
0.166769572406765
40
0.197629958613923
40
0.197629958613923
40
0.259350731028241
40
0.259350731028241
40
0.290211117235398
40
0.290211117235398
40
0.305641310338977
40
0.305641310338977
40
0.321071503442556
40
0.321071503442556
40
0.351931889649714
40
0.351931889649714
40
0.382792275856872
40
0.382792275856872
40
0.444513048271187
40
0.444513048271187
40
0.506233820685503
40
0.506233820685503
40
0.567954593099819
40
0.567954593099819
40
0.583384786203398
40
0.583384786203398
40
0.598814979306978
40
0.598814979306978
40
0.614245172410557
40
0.614245172410557
40
0.629675365514137
40
0.629675365514137
40
0.660535751721293
40
0.660535751721293
40
0.691396137928449
40
0.691396137928449
40
0.753116910342763
40
0.753116910342763
40
0.814837682757075
40
0.814837682757075
40
0.830267875860652
40
0.830267875860652
40
0.845698068964228
40
0.845698068964228
40
0.876558455171384
40
0.876558455171384
40
0.938279227585692
40
0.938279227585692
40
1
40
1
40
1
40
1
41
1
10
23.284513813428
20
1.99500020394456
30
0
41
1
10
23.3073525323946
20
1.99498867020904
30
0
41
1
10
23.3302185925909
20
1.99474893485163
30
0
41
1
10
23.4097863902576
20
1.99312198541097
30
0
41
1
10
23.4666334170132
20
1.99056326303619
30
0
41
1
10
23.5806664342735
20
1.9825998798816
30
0
41
1
10
23.6375500017643
20
1.97721076343996
30
0
41
1
10
23.7508803723079
20
1.96368438531203
30
0
41
1
10
23.807380513222
20
1.95554788480723
30
0
41
1
10
23.8918830443117
20
1.94129465490167
30
0
41
1
10
23.9200111542267
20
1.93620287601991
30
0
41
1
10
23.9761254947527
20
1.92531341628884
30
0
41
1
10
24.0040627147248
20
1.91949808802917
30
0
41
1
10
24.0458747198176
20
1.91023826726902
30
0
41
1
10
24.0597969815705
20
1.90706224128709
30
0
41
1
10
24.0877116072082
20
1.90057194845843
30
0
41
1
10
24.101708416813
20
1.89726011510592
30
0
41
1
10
24.1436687369415
20
1.88706758586721
30
0
41
1
10
24.1716342363744
20
1.87994176145139
30
0
41
1
10
24.2555525938647
20
1.85759559089192
30
0
41
1
10
24.3115385797993
20
1.84141146123349
30
0
41
1
10
24.4798515737674
20
1.78916514264273
30
0
41
1
10
24.5924859213287
20
1.74940588853607
30
0
41
1
10
24.7621307109025
20
1.68240792201988
30
0
41
1
10
24.8187913383616
20
1.65884264979724
30
0
41
1
10
24.9039730114287
20
1.6216272718078
30
0
41
1
10
24.9323992772886
20
1.60891115880463
30
0
41
1
10
24.9893198628305
20
1.58285107012463
30
0
41
1
10
25.0178177058547
20
1.56950443469901
30
0
41
1
10
25.1030331666002
20
1.52869636932579
30
0
41
1
10
25.1596023149638
20
1.5004126573356
30
0
41
1
10
25.2722700775936
20
1.4416996942382
30
0
41
1
10
25.3283145358047
20
1.41121694611076
30
0
41
1
10
25.4963153824727
20
1.31708113596252
30
0
41
1
10
25.608340609527
20
1.25095623003258
30
0
41
1
10
25.832808918518
20
1.11258012838621
30
0
41
1
10
25.945302943077
20
1.04038739872019
30
0
41
1
10
26.1708952283013
20
0.890088551119391
30
0
41
1
10
26.2840496866568
20
0.812046321897384
30
0
41
1
10
26.4261030643651
20
0.71091568765101
30
0
41
1
10
26.4545703402392
20
0.690483886270613
30
0
41
1
10
26.5113291552096
20
0.649395781712883
30
0
41
1
10
26.5396373053885
20
0.628731309168217
30
0
41
1
10
26.5960753035142
20
0.587115036817835
30
0
41
1
10
26.6241827808739
20
0.566134226005573
30
0
41
1
10
26.6802950180471
20
0.523982530473234
30
0
41
1
10
26.7084120878717
20
0.502957344324443
30
0
41
1
10
26.7928319025566
20
0.439888308348685
30
0
41
1
10
26.8489335703861
20
0.397499872284215
30
0
41
1
10
26.9612329349428
20
0.312630884228042
30
0
41
1
10
27.017390541755
20
0.270098453787455
30
0
41
1
10
27.1858950991583
20
0.14222268443703
30
0
41
1
10
27.2983373558734
20
0.0566851452845754
30
0
41
1
10
27.5236733210895
20
-0.114643622089801
30
0
41
1
10
27.6364923173819
20
-0.200533663441632
30
0
41
1
10
27.7778247038387
20
-0.308041907849002
30
0
41
1
10
27.8061062054815
20
-0.329551473909134
30
0
41
1
10
27.8626921128756
20
-0.372597094574758
30
0
41
1
10
27.8910140343646
20
-0.394159885417821
30
0
41
1
10
27.9759187560247
20
-0.458631743468459
30
0
41
1
10
28.032435627101
20
-0.501193541752343
30
0
41
1
10
28.2021078949785
20
-0.627165494250676
30
0
41
1
10
28.3152815731685
20
-0.709000454510118
30
0
41
1
10
28.5421917133058
20
-0.86793593753319
30
0
41
1
10
28.6559048440719
20
-0.94506697907542
30
0
41
1
10
28.7699796168084
20
-1.01971559771502
30
0
0
SPLINE
5
183
100
AcDbEntity
8
1
62
256
6
ByLayer
370
18
48
1
60
0
100
AcDbSpline
70
4
71
3
72
14
73
10
40
0
40
0
40
0
40
0
40
0.25
40
0.25
40
0.5
40
0.5
40
0.75
40
0.75
40
1
40
1
40
1
40
1
41
1
10
28.7699796168084
20
-1.01971559771499
30
0
41
1
10
28.7964867647369
20
-1.0370614308863
30
0
41
1
10
28.8228737514212
20
-1.05499928561932
30
0
41
1
10
28.8752910330833
20
-1.09218873433403
30
0
41
1
10
28.9013216613633
20
-1.11143909925701
30
0
41
1
10
28.952974646079
20
-1.15136019071789
30
0
41
1
10
28.9785968783471
20
-1.17202942643911
30
0
41
1
10
29.0294404302003
20
-1.21491424144182
30
0
41
1
10
29.0544483803197
20
-1.23696928307814
30
0
41
1
10
29.0790024617544
20
-1.25951491273696
30
0
0
SPLINE
5
184
100
AcDbEntity
8
1
62
256
6
ByLayer
370
18
48
1
60
0
100
AcDbSpline
70
4
71
3
72
18
73
14
40
0
40
0
40
0
40
0
40
0.0624999999999988
40
0.0624999999999988
40
0.124999999999998
40
0.124999999999998
40
0.249999999999995
40
0.249999999999995
40
0.374999999999993
40
0.374999999999993
40
0.499999999999991
40
0.499999999999991
40
1
40
1
40
1
40
1
41
1
10
29.0790024617544
20
-1.25951491273696
30
0
41
1
10
29.0932629495157
20
-1.27260893446504
30
0
41
1
10
29.1075597834841
20
-1.28566180441572
30
0
41
1
10
29.1360703678906
20
-1.31181758478951
30
0
41
1
10
29.1502768710817
20
-1.32492655548759
30
0
41
1
10
29.1927353240338
20
-1.36435796127728
30
0
41
1
10
29.2207990865916
20
-1.39080752090382
30
0
41
1
10
29.2766757817592
20
-1.44382889560063
30
0
41
1
10
29.3045642337569
20
-1.47033801707386
30
0
41
1
10
29.3600259687088
20
-1.523529266585
30
0
41
1
10
29.3875976737052
20
-1.55021236368435
30
0
41
1
10
29.5248590464209
20
-1.68388719280279
30
0
41
1
10
29.6328912481281
20
-1.79154718085371
30
0
41
1
10
29.7399474809853
20
-1.89912207848775
30
0
0
SPLINE
5
185
100
AcDbEntity
8
1
62
256
6
ByLayer
370
18
48
1
60
0
100
AcDbSpline
70
4
71
3
72
10
73
6
40
0
40
0
40
0
40
0
40
0.5
40
0.5
40
1
40
1
40
1
40
1
41
1
10
29.7399474809853
20
-1.89912207848775
30
0
41
1
10
29.7697314371152
20
-1.88621681074736
30
0
41
1
10
29.7996970535675
20
-1.87157689729386
30
0
41
1
10
29.8599606519467
20
-1.83888512708103
30
0
41
1
10
29.8902426658785
20
-1.82084782145375
30
0
41
1
10
29.9207193783356
20
-1.80110891101543
30
0
0
SPLINE
5
186
100
AcDbEntity
8
1
62
256
6
ByLayer
370
18
48
1
60
0
100
AcDbSpline
70
4
71
3
72
8
73
4
40
0
40
0
40
0
40
0
40
1
40
1
40
1
40
1
41
1
10
30.6735756533059
20
-2.61568396700713
30
0
41
1
10
30.6381688926364
20
-2.60228742363611
30
0
41
1
10
30.6028300065597
20
-2.58814737263859
30
0
41
1
10
30.567604354526
20
-2.57324248028709
30
0
0
SPLINE
5
187
100
AcDbEntity
8
1
62
256
6
ByLayer
370
18
48
1
60
0
100
AcDbSpline
70
4
71
3
72
19
73
15
40
0
40
0
40
0
40
0
40
0.0624999999999998
40
0.0624999999999998
40
0.125
40
0.125
40
0.25
40
0.5
40
0.5
40
0.75
40
0.75
40
0.875
40
0.875
40
1
40
1
40
1
40
1
41
1
10
38.31
20
1.23005155862481
30
0
41
1
10
38.31
20
1.20646754055173
30
0
41
1
10
38.31
20
1.18304644108628
30
0
41
1
10
38.31
20
1.13653215758441
30
0
41
1
10
38.31
20
1.1134543643546
30
0
41
1
10
38.31
20
1.0450756533977
30
0
41
1
10
38.31
20
0.91137490447241
30
0
41
1
10
38.31
20
0.786721212441535
30
0
41
1
10
38.31
20
0.62836797603066
30
0
41
1
10
38.31
20
0.553130964613558
30
0
41
1
10
38.31
20
0.446427267704593
30
0
41
1
10
38.31
20
0.41183071862136
30
0
41
1
10
38.31
20
0.345404067681727
30
0
41
1
10
38.31
20
0.313487379569807
30
0
41
1
10
38.31
20
0.282863815183077
30
0
0
SPLINE
5
188
100
AcDbEntity
8
1
62
256
6
ByLayer
370
18
48
1
60
0
100
AcDbSpline
70
4
71
3
72
8
73
4
40
0
40
0
40
0
40
0
40
1
40
1
40
1
40
1
41
1
10
38.21
20
1.36621375541961
30
0
41
1
10
38.2444626000102
20
1.32211789432557
30
0
41
1
10
38.2779841268887
20
1.27672779735681
30
0
41
1
10
38.31
20
1.23005155862481
30
0
0
SPLINE
5
189
100
AcDbEntity
8
1
62
256
6
ByLayer
370
18
48
1
60
0
100
AcDbSpline
70
4
71
3
72
12
73
8
40
0
40
0
40
0
40
0
40
0.330333608475562
40
0.330333608475562
40
0.665166804237781
40
0.665166804237781
40
1
40
1
40
1
40
1
41
1
10
29.6488514489069
20
-2.42309267174107
30
0
41
1
10
29.5875302798998
20
-2.38608923832768
30
0
41
1
10
29.5259523574507
20
-2.3461667910486
30
0
41
1
10
29.4010391864362
20
-2.26003406796102
30
0
41
1
10
29.3376995287428
20
-2.21374697321448
30
0
41
1
10
29.2095076420618
20
-2.11535192610407
30
0
41
1
10
29.1446329562203
20
-2.06324598892655
30
0
41
1
10
29.0790024617544
20
-2.00832108236591
30
0
0
SPLINE
5
18A
100
AcDbEntity
8
1
62
256
6
ByLayer
370
18
48
1
60
0
100
AcDbSpline
70
4
71
3
72
12
73
8
40
0
40
0
40
0
40
0
40
0.250000000000009
40
0.250000000000009
40
0.500000000000019
40
0.500000000000019
40
1
40
1
40
1
40
1
41
1
10
29.0790024617544
20
-2.00832108236591
30
0
41
1
10
29.0559230274566
20
-1.98900634487089
30
0
41
1
10
29.0321137750238
20
-1.97103132976343
30
0
41
1
10
28.982946873538
20
-1.93772717339803
30
0
41
1
10
28.957630976143
20
-1.92241063356931
30
0
41
1
10
28.8799072521709
20
-1.88055896227442
30
0
41
1
10
28.825758723431
20
-1.85806961654464
30
0
41
1
10
28.7699796168084
20
-1.84152296113308
30
0
0
SPLINE
5
18B
100
AcDbEntity
8
1
62
256
6
ByLayer
370
18
48
1
60
0
100
AcDbSpline
70
4
71
3
72
88
73
84
40
0
40
0
40
0
40
0
40
0.0320805864516926
40
0.0320805864516926
40
0.0641611729033852
40
0.0641611729033852
40
0.0962417593550778
40
0.0962417593550778
40
0.112282052580925
40
0.112282052580925
40
0.128322345806772
40
0.128322345806772
40
0.144362639032619
40
0.144362639032619
40
0.160402932258466
40
0.160402932258466
40
0.192483518710161
40
0.192483518710161
40
0.224564105161857
40
0.224564105161857
40
0.256644691613552
40
0.256644691613552
40
0.288725278065248
40
0.288725278065248
40
0.304765571291096
40
0.312785717904019
40
0.312785717904019
40
0.320805864516943
40
0.320805864516943
40
0.352886450968639
40
0.352886450968639
40
0.368926744194487
40
0.368926744194487
40
0.384967037420334
40
0.384967037420334
40
0.417047623872031
40
0.417047623872031
40
0.449128210323728
40
0.449128210323728
40
0.465168503549577
40
0.473188650162501
40
0.473188650162501
40
0.481208796775425
40
0.481208796775425
40
0.513289383227126
40
0.513289383227126
40
0.545369969678827
40
0.545369969678827
40
0.577450556130529
40
0.577450556130529
40
0.60953114258223
40
0.60953114258223
40
0.625571435808081
40
0.633591582421008
40
0.633591582421008
40
0.641611729033934
40
0.641611729033934
40
0.657652022259787
40
0.657652022259787
40
0.67369231548564
40
0.67369231548564
40
0.705772901937345
40
0.705772901937345
40
0.769934074840756
40
0.769934074840756
40
0.78597436806661
40
0.793994514679538
40
0.793994514679538
40
0.802014661292465
40
0.802014661292465
40
0.834095247744172
40
0.834095247744172
40
0.898256420647584
40
0.898256420647584
40
0.93033700709929
40
0.93033700709929
40
0.946377300325143
40
0.946377300325143
40
0.954397446938069
40
0.954397446938069
40
0.962417593550995
40
0.962417593550995
40
1
40
1
40
1
40
1
41
1
10
28.7699796168084
20
-1.84152296113308
30
0
41
1
10
28.6726390011679
20
-1.81264724543809
30
0
41
1
10
28.5759162961451
20
-1.779996392268
30
0
41
1
10
28.3831032663239
20
-1.70766740024555
30
0
41
1
10
28.2870260727717
20
-1.66797789193953
30
0
41
1
10
28.09479756135
20
-1.58220218611834
30
0
41
1
10
27.9986213216122
20
-1.53614126578597
30
0
41
1
10
27.8539701922983
20
-1.46260951918364
30
0
41
1
10
27.8057386688277
20
-1.43731545106681
30
0
41
1
10
27.7092962784454
20
-1.3850930143274
30
0
41
1
10
27.6610619463304
20
-1.3581853191759
30
0
41
1
10
27.5644787986765
20
-1.30283570018096
30
0
41
1
10
27.5161318216047
20
-1.27439207581017
30
0
41
1
10
27.4192502539245
20
-1.21601684044839
30
0
41
1
10
27.3706711139967
20
-1.1860562696115
30
0
41
1
10
27.224810826765
20
-1.09422341665098
30
0
41
1
10
27.1281310843894
20
-1.03088220117604
30
0
41
1
10
26.9352670451028
20
-0.900761912339988
30
0
41
1
10
26.8391101059044
20
-0.833949851318664
30
0
41
1
10
26.6466170894319
20
-0.697760760893772
30
0
41
1
10
26.5502307398949
20
-0.628454783487484
30
0
41
1
10
26.357662474214
20
-0.48681717416278
30
0
41
1
10
26.2614323440129
20
-0.41453704020256
30
0
41
1
10
26.1166451569662
20
-0.304543307858609
30
0
41
1
10
26.0441437412354
20
-0.24914998596978
30
0
41
1
10
25.9713965327595
20
-0.193261572686993
30
0
41
1
10
25.9228339952031
20
-0.155904313178524
30
0
41
1
10
25.8984971991089
20
-0.137158824625345
30
0
41
1
10
25.777001403156
20
-0.0435112512211617
30
0
41
1
10
25.6803211329237
20
0.0312044775689344
30
0
41
1
10
25.5355774042056
20
0.142349254412579
30
0
41
1
10
25.48737798776
20
0.179245970806278
30
0
41
1
10
25.3909951758549
20
0.252635700447826
30
0
41
1
10
25.3427913151302
20
0.289102097737242
30
0
41
1
10
25.1982086879235
20
0.397910379080571
30
0
41
1
10
25.1020712066622
20
0.469936551996881
30
0
41
1
10
24.909808884726
20
0.612304869635693
30
0
41
1
10
24.8136553656454
20
0.682609852079452
30
0
41
1
10
24.6689043654533
20
0.786109318836452
30
0
41
1
10
24.5964003395563
20
0.837371801873417
30
0
41
1
10
24.5236234054962
20
0.887798314501254
30
0
41
1
10
24.4750355115573
20
0.921218073500938
30
0
41
1
10
24.4506872022473
20
0.937841856272485
30
0
41
1
10
24.329172301938
20
1.02013805401597
30
0
41
1
10
24.2324321561553
20
1.08351163207041
30
0
41
1
10
24.0391699045819
20
1.20473488458833
30
0
41
1
10
23.9426264965363
20
1.26258080144825
30
0
41
1
10
23.7501765753084
20
1.37328108739629
30
0
41
1
10
23.6542015950206
20
1.42604912172234
30
0
41
1
10
23.4621140380009
20
1.5257406000924
30
0
41
1
10
23.366003799048
20
1.57266568962507
30
0
41
1
10
23.2212330507196
20
1.63817503528063
30
0
41
1
10
23.1486959500903
20
1.66971066951481
30
0
41
1
10
23.0758505397302
20
1.69933991522532
30
0
41
1
10
23.0272094066186
20
1.71866048552914
30
0
41
1
10
23.0028385991685
20
1.7281089080451
30
0
41
1
10
22.929867338824
20
1.7556885093077
30
0
41
1
10
22.88132008959
20
1.773087356552
30
0
41
1
10
22.7843314568857
20
1.80589854661994
30
0
41
1
10
22.7358707925683
20
1.82130197448859
30
0
41
1
10
22.5907664606693
20
1.86465402997635
30
0
41
1
10
22.4945014491411
20
1.88978671776329
30
0
41
1
10
22.2062659738134
20
1.95344986049105
30
0
41
1
10
22.0148071428296
20
1.98020539538007
30
0
41
1
10
21.7733703678617
20
1.99289615766935
30
0
41
1
10
21.7007761556134
20
1.99514836082452
30
0
41
1
10
21.6278336266481
20
1.99504486628061
30
0
41
1
10
21.5791168493248
20
1.99445064260738
30
0
41
1
10
21.5547108722857
20
1.99389019705566
30
0
41
1
10
21.4329073729375
20
1.98979231652575
30
0
41
1
10
21.3358109894954
20
1.98238943968511
30
0
41
1
10
21.0461347822105
20
1.94798800539431
30
0
41
1
10
20.8548233727328
20
1.90873217035306
30
0
41
1
10
20.5666989236633
20
1.82664578067295
30
0
41
1
10
20.4704913207591
20
1.79541261255221
30
0
41
1
10
20.3254608108481
20
1.74296526513362
30
0
41
1
10
20.2769998162053
20
1.72454835638564
30
0
41
1
10
20.2040445279283
20
1.69557296904245
30
0
41
1
10
20.1796786619262
20
1.68569221821457
30
0
41
1
10
20.1308620288527
20
1.66547779580583
30
0
41
1
10
20.106416358064
20
1.65514327882008
30
0
41
1
10
19.9677922376594
20
1.59525161992914
30
0
41
1
10
19.8544959272291
20
1.54130203420172
30
0
41
1
10
19.7416715673529
20
1.48320873802507
30
0
0
SPLINE
5
18C
100
AcDbEntity
8
1
62
256
6
ByLayer
370
18
48
1
60
0
100
AcDbSpline
70
4
71
3
72
124
73
120
40
0
40
0
40
0
40
0
40
0.0339178498380959
40
0.0339178498380959
40
0.0678356996761917
40
0.0678356996761917
40
0.076315162135716
40
0.076315162135716
40
0.0847946245952403
40
0.0847946245952403
40
0.0890343558250025
40
0.0890343558250025
40
0.0932740870547646
40
0.0932740870547646
40
0.101753549514289
40
0.101753549514289
40
0.118712474433338
40
0.118712474433338
40
0.135671399352386
40
0.135671399352386
40
0.169589249190484
40
0.169589249190484
40
0.203507099028583
40
0.203507099028583
40
0.220466023947633
40
0.220466023947633
40
0.237424948866683
40
0.237424948866683
40
0.254383873785733
40
0.254383873785733
40
0.262863336245257
40
0.262863336245257
40
0.271342798704783
40
0.271342798704783
40
0.305260648542883
40
0.305260648542883
40
0.322219573461934
40
0.322219573461934
40
0.339178498380985
40
0.339178498380985
40
0.347657960840509
40
0.347657960840509
40
0.356137423300034
40
0.356137423300034
40
0.373096348219083
40
0.373096348219083
40
0.390055273138132
40
0.390055273138132
40
0.407014198057181
40
0.407014198057181
40
0.423973122976231
40
0.423973122976231
40
0.44093204789528
40
0.44093204789528
40
0.474849897733377
40
0.474849897733377
40
0.483329360192902
40
0.483329360192902
40
0.491808822652427
40
0.491808822652427
40
0.508767747571478
40
0.508767747571478
40
0.54268559740958
40
0.54268559740958
40
0.559644522328631
40
0.559644522328631
40
0.576603447247683
40
0.576603447247683
40
0.593562372166734
40
0.593562372166734
40
0.602041834626259
40
0.602041834626259
40
0.610521297085784
40
0.610521297085784
40
0.614761028315546
40
0.614761028315546
40
0.619000759545309
40
0.619000759545309
40
0.627480222004832
40
0.627480222004832
40
0.644439146923879
40
0.644439146923879
40
0.678356996761973
40
0.678356996761973
40
0.695315921681019
40
0.695315921681019
40
0.703795384140542
40
0.703795384140542
40
0.712274846600066
40
0.712274846600066
40
0.729233771519112
40
0.729233771519112
40
0.746192696438159
40
0.746192696438159
40
0.780110546276252
40
0.780110546276252
40
0.814028396114345
40
0.814028396114345
40
0.847946245952439
40
0.847946245952439
40
0.856425708411962
40
0.856425708411962
40
0.864905170871486
40
0.864905170871486
40
0.87338463333101
40
0.87338463333101
40
0.881864095790534
40
0.881864095790534
40
0.898823020709581
40
0.898823020709581
40
0.915781945628628
40
0.915781945628628
40
0.949699795466719
40
0.949699795466719
40
0.983617645304811
40
0.983617645304811
40
0.992097107764333
40
0.992097107764333
40
1
40
1
40
1
40
1
41
1
10
17.9436590060206
20
1.99313355644585
30
0
41
1
10
18.0568953503805
20
1.98938081664318
30
0
41
1
10
18.1698878760856
20
1.98003604806902
30
0
41
1
10
18.3953944726602
20
1.95056779564592
30
0
41
1
10
18.5079128685528
20
1.93044730162967
30
0
41
1
10
18.6481881315969
20
1.8984327758084
30
0
41
1
10
18.6762158730367
20
1.89168117823732
30
0
41
1
10
18.7322982248601
20
1.87750872624258
30
0
41
1
10
18.7603744560648
20
1.87009805512673
30
0
41
1
10
18.8025166180222
20
1.85848462479714
30
0
41
1
10
18.8165558829576
20
1.85452464144572
30
0
41
1
10
18.8445580426952
20
1.84639383938114
30
0
41
1
10
18.8585282572455
20
1.84222614483002
30
0
41
1
10
18.9004743575644
20
1.8294776820203
30
0
41
1
10
18.9285319047407
20
1.82067695481186
30
0
41
1
10
19.0129450219989
20
1.79336522191795
30
0
41
1
10
19.069441170851
20
1.77389026604493
30
0
41
1
10
19.182786654629
20
1.73234196975116
30
0
41
1
10
19.2397602296234
20
1.71024025438501
30
0
41
1
10
19.4100722041435
20
1.64073100377305
30
0
41
1
10
19.5232019017977
20
1.59004970175147
30
0
41
1
10
19.7489409293165
20
1.48053556929139
30
0
41
1
10
19.8614778709034
20
1.42164866189253
30
0
41
1
10
20.0296819687975
20
1.32693533971911
30
0
41
1
10
20.0856656831997
20
1.29431129213896
30
0
41
1
10
20.1975516276986
20
1.22700184130912
30
0
41
1
10
20.2535050235279
20
1.19236524861069
30
0
41
1
10
20.3658887597322
20
1.12161034325882
30
0
41
1
10
20.422276199371
20
1.08544946292199
30
0
41
1
10
20.5071877579144
20
1.03007815928842
30
0
41
1
10
20.5355465566589
20
1.01143250203407
30
0
41
1
10
20.5923774667422
20
0.973766980955901
30
0
41
1
10
20.620880037778
20
0.954726179790299
30
0
41
1
10
20.7632603886792
20
0.858872565734202
30
0
41
1
10
20.8765972816489
20
0.780232091221905
30
0
41
1
10
21.0458348730719
20
0.659493760430081
30
0
41
1
10
21.1021095386805
20
0.618771308481513
30
0
41
1
10
21.2144270778671
20
0.536427497051591
30
0
41
1
10
21.2704878189649
20
0.494828395239409
30
0
41
1
10
21.3545687293611
20
0.431963341008867
30
0
41
1
10
21.382613071377
20
0.410955667822066
30
0
41
1
10
21.4384608207441
20
0.368475637650761
30
0
41
1
10
21.4662893215837
20
0.347034880033363
30
0
41
1
10
21.5499993203125
20
0.282773571691934
30
0
41
1
10
21.6061598761219
20
0.240089856668305
30
0
41
1
10
21.718485430168
20
0.154120607120717
30
0
41
1
10
21.7747436557861
20
0.110955864887529
30
0
41
1
10
21.8876409954
20
0.0245177629022635
30
0
41
1
10
21.9442816501874
20
-0.0187530573136883
30
0
41
1
10
22.0579915841834
20
-0.105340822857727
30
0
41
1
10
22.1151329199753
20
-0.148712199017524
30
0
41
1
10
22.2288686770269
20
-0.234758618396427
30
0
41
1
10
22.2855741040229
20
-0.277520293792236
30
0
41
1
10
22.4551756858031
20
-0.405072141931072
30
0
41
1
10
22.5675839532063
20
-0.489098953088472
30
0
41
1
10
22.707267971083
20
-0.592836393176071
30
0
41
1
10
22.7351527835301
20
-0.613531762446712
30
0
41
1
10
22.7909861078496
20
-0.654606618033199
30
0
41
1
10
22.81893246504
20
-0.674989198851648
30
0
41
1
10
22.9028670670517
20
-0.735668338913001
30
0
41
1
10
22.9589016927049
20
-0.775557931253559
30
0
41
1
10
23.1271504149738
20
-0.893650403143567
30
0
41
1
10
23.2397699065014
20
-0.969960910577157
30
0
41
1
10
23.409786390258
20
-1.08031263196455
30
0
41
1
10
23.4666334170136
20
-1.11641810389401
30
0
41
1
10
23.580666434274
20
-1.18726909637047
30
0
41
1
10
23.6375500017646
20
-1.22184200101176
30
0
41
1
10
23.7508803723081
20
-1.28905360038206
30
0
41
1
10
23.8073805132222
20
-1.32170719046903
30
0
41
1
10
23.8918830443119
20
-1.36926906701299
30
0
41
1
10
23.9200111542268
20
-1.3848848911129
30
0
41
1
10
23.9761254947528
20
-1.41569734253042
30
0
41
1
10
24.004062714725
20
-1.43093948086008
30
0
41
1
10
24.0458747198177
20
-1.45346656440418
30
0
41
1
10
24.0597969815706
20
-1.46091892078508
30
0
41
1
10
24.0877116072084
20
-1.47562098675868
30
0
41
1
10
24.101708416813
20
-1.48286726870202
30
0
41
1
10
24.1436687369416
20
-1.50442693694362
30
0
41
1
10
24.1716342363745
20
-1.51853162873908
30
0
41
1
10
24.2555525938648
20
-1.56000374554324
30
0
41
1
10
24.3115385797995
20
-1.58651946835471
30
0
41
1
10
24.4798515737675
20
-1.6625214109385
30
0
41
1
10
24.5924859213288
20
-1.70851850752248
30
0
41
1
10
24.7621307109027
20
-1.77046860542421
30
0
41
1
10
24.8187913383619
20
-1.78994316261551
30
0
41
1
10
24.9039730114291
20
-1.8173488597422
30
0
41
1
10
24.932399277289
20
-1.82618256410419
30
0
41
1
10
24.9893198628309
20
-1.84323789300288
30
0
41
1
10
25.0178177058551
20
-1.85145970347438
30
0
41
1
10
25.1030331666005
20
-1.87509174788798
30
0
41
1
10
25.1596023149641
20
-1.88950729967442
30
0
41
1
10
25.2722700775938
20
-1.91565602511676
30
0
41
1
10
25.3283145358048
20
-1.92740407827108
30
0
41
1
10
25.4963153824727
20
-1.9584076848962
30
0
41
1
10
25.608340609527
20
-1.97339547361571
30
0
41
1
10
25.832808918518
20
-1.99231719351437
30
0
41
1
10
25.945302943077
20
-1.99625075093991
30
0
41
1
10
26.1708952283015
20
-1.99306095907926
30
0
41
1
10
26.2840496866571
20
-1.9859361795433
30
0
41
1
10
26.4261030643654
20
-1.96986867750874
30
0
41
1
10
26.4545703402395
20
-1.96629084080379
30
0
41
1
10
26.5113291552099
20
-1.95843268131412
30
0
41
1
10
26.5396373053888
20
-1.95415205217239
30
0
41
1
10
26.5960753035145
20
-1.94487477266949
30
0
41
1
10
26.6241827808741
20
-1.9398706003131
30
0
41
1
10
26.6802950180472
20
-1.92916267147353
30
0
41
1
10
26.7084120878718
20
-1.92349727259065
30
0
41
1
10
26.7928319025567
20
-1.90555992548158
30
0
41
1
10
26.8489335703861
20
-1.89224006947987
30
0
41
1
10
26.9612329349427
20
-1.86309893474919
30
0
41
1
10
27.017390541755
20
-1.84726548158955
30
0
41
1
10
27.1858950991582
20
-1.79603766430392
30
0
41
1
10
27.2983373558734
20
-1.75695872357409
30
0
41
1
10
27.5236733210895
20
-1.66913882605914
30
0
41
1
10
27.6364923173819
20
-1.62035025162467
30
0
41
1
10
27.7778247038389
20
-1.55308344582346
30
0
41
1
10
27.8061062054816
20
-1.53931467903763
30
0
41
1
10
27.8607683028791
20
-1.51208599216491
30
0
41
1
10
27.8871626089103
20
-1.49865251951866
30
0
41
1
10
27.9135421531182
20
-1.48497771711084
30
0
0
SPLINE
5
18D
100
AcDbEntity
8
1
62
256
6
ByLayer
370
18
48
1
60
0
100
AcDbSpline
70
4
71
3
72
8
73
4
40
0
40
0
40
0
40
0
40
1
40
1
40
1
40
1
41
1
10
38.3100000000003
20
0.282863815182878
30
0
41
1
10
38.2777931568901
20
0.271897629345943
30
0
41
1
10
38.2442739019493
20
0.265133773438009
30
0
41
1
10
38.21
20
0.26118914597896
30
0
0
SPLINE
5
18E
100
AcDbEntity
8
1
62
256
6
ByLayer
370
18
48
1
60
0
100
AcDbSpline
70
4
71
3
72
16
73
12
40
0
40
0
40
0
40
0
40
0.0343663059473234
40
0.0343663059473234
40
0.0987418855508352
40
0.227493044757859
40
0.484995363171906
40
0.484995363171906
40
0.742497681585953
40
0.742497681585953
40
1
40
1
40
1
40
1
41
1
10
38.31
20
-0.978651642341475
30
0
41
1
10
38.31
20
-0.97848377956683
30
0
41
1
10
38.31
20
-0.978427557011486
30
0
41
1
10
38.31
20
-0.978586240213588
30
0
41
1
10
38.31
20
-0.98006681538871
30
0
41
1
10
38.3100000000001
20
-0.991611283502891
30
0
41
1
10
38.31
20
-1.0152530119835
30
0
41
1
10
38.31
20
-1.05881674993569
30
0
41
1
10
38.31
20
-1.08664336182
30
0
41
1
10
38.31
20
-1.15497763041117
30
0
41
1
10
38.31
20
-1.19484679562427
30
0
41
1
10
38.31
20
-1.24029088241267
30
0
0
SPLINE
5
18F
100
AcDbEntity
8
1
62
256
6
ByLayer
370
18
48
1
60
0
100
AcDbSpline
70
4
71
3
72
8
73
4
40
0
40
0
40
0
40
0
40
1
40
1
40
1
40
1
41
1
10
38.21
20
-0.947861444954185
30
0
41
1
10
38.2444626000101
20
-0.959798004536083
30
0
41
1
10
38.2779841268887
20
-0.970172047127988
30
0
41
1
10
38.31
20
-0.979346890893311
30
0
0
SPLINE
5
190
100
AcDbEntity
8
1
62
256
6
ByLayer
370
18
48
1
60
0
100
AcDbSpline
70
4
71
3
72
8
73
4
40
0
40
0
40
0
40
0
40
1
40
1
40
1
40
1
41
1
10
35.7213562867206
20
0.678793146024702
30
0
41
1
10
35.7178927677232
20
0.682429322621772
30
0
41
1
10
35.7144298729192
20
0.686067572294263
30
0
41
1
10
35.7109675867634
20
0.689707881446338
30
0
0
SPLINE
5
191
100
AcDbEntity
8
1
62
256
6
ByLayer
370
18
48
1
60
0
100
AcDbSpline
70
4
71
3
72
8
73
4
40
0
40
0
40
0
40
0
40
1
40
1
40
1
40
1
41
1
10
35.6130133316843
20
0.791331308109505
30
0
41
1
10
35.645682818645
20
0.757618942652414
30
0
41
1
10
35.6783299826612
20
0.723740505385337
30
0
41
1
10
35.7109675867634
20
0.689707881446367
30
0
0
SPLINE
5
192
100
AcDbEntity
8
1
62
256
6
ByLayer
370
18
48
1
60
0
100
AcDbSpline
70
4
71
3
72
8
73
4
40
0
40
0
40
0
40
0
40
1
40
1
40
1
40
1
41
1
10
34.4812597506187
20
1.84847781593012
30
0
41
1
10
34.5167331543506
20
1.81986933164504
30
0
41
1
10
34.5521801029107
20
1.79076280698496
30
0
41
1
10
34.5876163441205
20
1.76117082268507
30
0
0
SPLINE
5
193
100
AcDbEntity
8
1
62
256
6
ByLayer
370
18
48
1
60
0
100
AcDbSpline
70
4
71
3
72
8
73
4
40
0
40
0
40
0
40
0
40
1
40
1
40
1
40
1
41
1
10
33.3495958936618
20
2.55931274788935
30
0
41
1
10
33.3850604386611
20
2.54406245638196
30
0
41
1
10
33.4204990641741
20
2.52810559211588
30
0
41
1
10
33.4559279468993
20
2.51145053271253
30
0
0
SPLINE
5
194
100
AcDbEntity
8
1
62
256
6
ByLayer
370
18
48
1
60
0
100
AcDbSpline
70
4
71
3
72
8
73
4
40
0
40
0
40
0
40
0
40
1
40
1
40
1
40
1
41
1
10
32.2175138159319
20
2.79090592805505
30
0
41
1
10
32.2531294383158
20
2.79187759623198
30
0
41
1
10
32.2887193596448
20
2.79205941232374
30
0
41
1
10
32.3243005455888
20
2.79145374592727
30
0
0
SPLINE
5
195
100
AcDbEntity
8
1
62
256
6
ByLayer
370
18
48
1
60
0
100
AcDbSpline
70
4
71
3
72
46
73
42
40
0
40
0
40
0
40
0
40
0.046512232817361
40
0.046512232817361
40
0.106105218266272
40
0.106105218266272
40
0.165698203715182
40
0.165698203715182
40
0.225291189164093
40
0.225291189164093
40
0.255087681888548
40
0.269985928250777
40
0.269985928250777
40
0.284884174613006
40
0.284884174613006
40
0.314680667337464
40
0.314680667337464
40
0.344477160061922
40
0.344477160061922
40
0.404070145510837
40
0.404070145510837
40
0.523256116408669
40
0.523256116408669
40
0.553052609133129
40
0.567950855495359
40
0.567950855495359
40
0.582849101857589
40
0.582849101857589
40
0.6424420873065
40
0.6424420873065
40
0.761628058204324
40
0.761628058204324
40
0.821221043653236
40
0.821221043653236
40
0.851017536377693
40
0.851017536377693
40
0.865915782739923
40
0.865915782739923
40
0.880814029102153
40
0.880814029102153
40
1
40
1
40
1
40
1
41
1
10
24.3624340760634
20
-1.99499966842484
30
0
41
1
10
24.2867083308714
20
-1.99500601106837
30
0
41
1
10
24.2112214743376
20
-1.9924529554915
30
0
41
1
10
24.0391699045819
20
-1.98098443487063
30
0
41
1
10
23.9426264965363
20
-1.97051145258689
30
0
41
1
10
23.7501765753084
20
-1.94149911227927
30
0
41
1
10
23.6542015950206
20
-1.92295140598935
30
0
41
1
10
23.4621140380009
20
-1.87786884697707
30
0
41
1
10
23.366003799048
20
-1.85133244889508
30
0
41
1
10
23.2212330507196
20
-1.80567077521906
30
0
41
1
10
23.1486959500903
20
-1.78137704458038
30
0
41
1
10
23.0758505397302
20
-1.75491279780249
30
0
41
1
10
23.0272094066186
20
-1.73679039110976
30
0
41
1
10
23.0028385991685
20
-1.72748409688541
30
0
41
1
10
22.929867338824
20
-1.69896320499254
30
0
41
1
10
22.88132008959
20
-1.67911712011593
30
0
41
1
10
22.7843314568857
20
-1.63786394228211
30
0
41
1
10
22.7358707925683
20
-1.6164731265938
30
0
41
1
10
22.5907664606693
20
-1.54990695133776
30
0
41
1
10
22.4945014491411
20
-1.50224941381171
30
0
41
1
10
22.2062659738134
20
-1.35013299882866
30
0
41
1
10
22.0148071428296
20
-1.23655788144322
30
0
41
1
10
21.7733703678618
20
-1.08207456439857
30
0
41
1
10
21.7007761556134
20
-1.03479759506857
30
0
41
1
10
21.6278336266481
20
-0.986227952038604
30
0
41
1
10
21.5791168493247
20
-0.953572660329854
30
0
41
1
10
21.5547108722857
20
-0.937105779838447
30
0
41
1
10
21.4329073729375
20
-0.854422058246143
30
0
41
1
10
21.3358109894954
20
-0.786919495740023
30
0
41
1
10
21.0461347822105
20
-0.579699774253612
30
0
41
1
10
20.8548233727328
20
-0.435668176852232
30
0
41
1
10
20.5666989236633
20
-0.215712107099392
30
0
41
1
10
20.4704913207591
20
-0.141709039098401
30
0
41
1
10
20.3254608108481
20
-0.0302879154267828
30
0
41
1
10
20.2769998162053
20
0.0069250515801969
30
0
41
1
10
20.2040445279283
20
0.0627368191523203
30
0
41
1
10
20.1796786619262
20
0.081334688354616
30
0
41
1
10
20.1308620288527
20
0.118532157615704
30
0
41
1
10
20.106416358064
20
0.137132453849688
30
0
41
1
10
19.8869972410245
20
0.304093540661
30
0
41
1
10
19.6947207762408
20
0.450540479245035
30
0
41
1
10
19.5028387911976
20
0.592004775314194
30
0
0
SPLINE
5
196
100
AcDbEntity
8
1
62
256
6
ByLayer
370
18
48
1
60
0
100
AcDbSpline
70
4
71
3
72
36
73
32
40
0
40
0
40
0
40
0
40
0.0058609625982736
40
0.0058609625982736
40
0.138948821049588
40
0.138948821049588
40
0.205492750275246
40
0.205492750275246
40
0.272036679500903
40
0.272036679500903
40
0.40512453795222
40
0.40512453795222
40
0.471668467177878
40
0.471668467177878
40
0.538212396403537
40
0.538212396403537
40
0.604756325629195
40
0.604756325629195
40
0.671300254854854
40
0.671300254854854
40
0.737844184080512
40
0.737844184080512
40
0.804388113306171
40
0.804388113306171
40
0.870932042531829
40
0.870932042531829
40
0.904204007144658
40
0.904204007144658
40
0.937475971757488
40
0.937475971757488
40
1
40
1
40
1
40
1
41
1
10
19.5028296143345
20
0.591985490933496
30
0
41
1
10
19.5010136925503
20
0.593155346309146
30
0
41
1
10
19.4991654596336
20
0.594284872847595
30
0
41
1
10
19.4544035000709
20
0.619883687679192
30
0
41
1
10
19.3938507213915
20
0.623923852862191
30
0
41
1
10
19.2823507947818
20
0.594300205908581
30
0
41
1
10
19.2409374468576
20
0.578165129329136
30
0
41
1
10
19.1536687515005
20
0.533438008868785
30
0
41
1
10
19.1073301828112
20
0.50414461323561
30
0
41
1
10
18.9653519225303
20
0.408672586397984
30
0
41
1
10
18.8688865621553
20
0.33325513052182
30
0
41
1
10
18.7224032807019
20
0.20157252700136
30
0
41
1
10
18.6737571125056
20
0.154964295901777
30
0
41
1
10
18.5794692042872
20
0.0586146426344953
30
0
41
1
10
18.5334109221784
20
0.0085823195769876
30
0
41
1
10
18.4435758421462
20
-0.0953857602763719
30
0
41
1
10
18.3998623904361
20
-0.149345383034699
30
0
41
1
10
18.3183971213209
20
-0.256719978220929
30
0
41
1
10
18.2801481105783
20
-0.310693900486399
30
0
41
1
10
18.2083851327106
20
-0.419188196664805
30
0
41
1
10
18.175075917816
20
-0.473467889806699
30
0
41
1
10
18.1148684957731
20
-0.579140332942814
30
0
41
1
10
18.0876767879564
20
-0.630979019637124
30
0
41
1
10
18.0384891585644
20
-0.732876526172788
30
0
41
1
10
18.0166457518378
20
-0.782659538526389
30
0
41
1
10
17.98785972496
20
-0.854762124351538
30
0
41
1
10
17.9785623994631
20
-0.878623409890793
30
0
41
1
10
17.9629844858695
20
-0.92459566593908
30
0
41
1
10
17.9568500132982
20
-0.946728189422572
30
0
41
1
10
17.9439533279397
20
-1.00699751485232
30
0
41
1
10
17.9413969790886
20
-1.04123544420753
30
0
41
1
10
17.9436563712127
20
-1.07128410568734
30
0
0
SPLINE
5
197
100
AcDbEntity
8
1
62
256
6
ByLayer
370
18
48
1
60
0
100
AcDbSpline
70
4
71
3
72
59
73
55
40
0
40
0
40
0
40
0
40
0.0749344272589601
40
0.0749344272589601
40
0.14986885451792
40
0.14986885451792
40
0.168602461332661
40
0.168602461332661
40
0.187336068147402
40
0.187336068147402
40
0.196702871554774
40
0.196702871554774
40
0.206069674962145
40
0.206069674962145
40
0.224803281776886
40
0.224803281776886
40
0.262270495406368
40
0.262270495406368
40
0.299737709035849
40
0.299737709035849
40
0.374672136294809
40
0.374672136294809
40
0.449606563553769
40
0.449606563553769
40
0.487073777183249
40
0.487073777183249
40
0.524540990812729
40
0.524540990812729
40
0.562008204442209
40
0.580741811256949
40
0.580741811256949
40
0.599475418071689
40
0.599475418071689
40
0.674409845330658
40
0.674409845330658
40
0.711877058960142
40
0.711877058960142
40
0.749344272589626
40
0.749344272589626
40
0.768077879404368
40
0.768077879404368
40
0.786811486219111
40
0.786811486219111
40
0.824278699848595
40
0.824278699848595
40
0.861745913478079
40
0.861745913478079
40
0.899213127107564
40
0.899213127107564
40
0.936680340737048
40
0.936680340737048
40
0.974147554366533
40
0.974147554366533
40
1
40
1
40
1
40
1
41
1
10
17.9436590060206
20
-1.07128437740229
30
0
41
1
10
18.0568953503805
20
-1.14448782515578
30
0
41
1
10
18.1698878760856
20
-1.21389640365538
30
0
41
1
10
18.3953944726603
20
-1.3454089422917
30
0
41
1
10
18.5079128685529
20
-1.40750996833637
30
0
41
1
10
18.6481881315971
20
-1.4805651712955
30
0
41
1
10
18.6762158730368
20
-1.49495390757019
30
0
41
1
10
18.7322982248603
20
-1.52321089164684
30
0
41
1
10
18.760374456065
20
-1.53706099399707
30
0
41
1
10
18.8025166180225
20
-1.55744001371346
30
0
41
1
10
18.8165558829578
20
-1.56417775882795
30
0
41
1
10
18.8445580426955
20
-1.57758965499195
30
0
41
1
10
18.8585282572458
20
-1.58425742672884
30
0
41
1
10
18.9004743575647
20
-1.60403961205282
30
0
41
1
10
18.928531904741
20
-1.61689678913984
30
0
41
1
10
19.0129450219992
20
-1.65451963069484
30
0
41
1
10
19.0694411708514
20
-1.67841507928827
30
0
41
1
10
19.1827866546295
20
-1.72389072797222
30
0
41
1
10
19.2397602296239
20
-1.74548005065998
30
0
41
1
10
19.4100722041438
20
-1.8061004745679
30
0
41
1
10
19.5232019017981
20
-1.84113195770115
30
0
41
1
10
19.7489409293168
20
-1.90067479967439
30
0
41
1
10
19.8614778709037
20
-1.9252298177079
30
0
41
1
10
20.0296819687979
20
-1.95414369788577
30
0
41
1
10
20.0856656832001
20
-1.9624509089104
30
0
41
1
10
20.1975516276991
20
-1.97632254516694
30
0
41
1
10
20.2535050235284
20
-1.9818708875286
30
0
41
1
10
20.3658887597328
20
-1.9901147272634
30
0
41
1
10
20.4504699191911
20
-1.99417476395848
30
0
41
1
10
20.5355465566597
20
-1.99505351581118
30
0
41
1
10
20.5923774667432
20
-1.99493046190577
30
0
41
1
10
20.620880037779
20
-1.9945135549803
30
0
41
1
10
20.7632603886799
20
-1.99066197658581
30
0
41
1
10
20.8765972816495
20
-1.98196656374648
30
0
41
1
10
21.0458348730723
20
-1.96076035724985
30
0
41
1
10
21.1021095386809
20
-1.95232447371691
30
0
41
1
10
21.2144270778674
20
-1.93272285603973
30
0
41
1
10
21.2704878189652
20
-1.9215606427033
30
0
41
1
10
21.3545687293615
20
-1.9028194621437
30
0
41
1
10
21.3826130713773
20
-1.89624899136345
30
0
41
1
10
21.4384608207444
20
-1.88233669872096
30
0
41
1
10
21.466289321584
20
-1.87500131842734
30
0
41
1
10
21.5499993203129
20
-1.85207736517648
30
0
41
1
10
21.6061598761223
20
-1.83561649905101
30
0
41
1
10
21.7184854301685
20
-1.80002382538942
30
0
41
1
10
21.7747436557866
20
-1.780930881291
30
0
41
1
10
21.8876409954006
20
-1.74025495816161
30
0
41
1
10
21.9442816501881
20
-1.71867501092251
30
0
41
1
10
22.0579915841842
20
-1.67304780560164
30
0
41
1
10
22.1151329199761
20
-1.6489643730834
30
0
41
1
10
22.2288686770275
20
-1.59874604553974
30
0
41
1
10
22.2855741040235
20
-1.57256893209589
30
0
41
1
10
22.3811164313764
20
-1.52652826054745
30
0
41
1
10
22.4200464062351
20
-1.50722706592123
30
0
41
1
10
22.4588978235186
20
-1.48741982150818
30
0
0
SPLINE
5
198
100
AcDbEntity
8
1
62
256
6
ByLayer
370
18
48
1
60
0
100
AcDbSpline
70
4
71
3
72
8
73
4
40
0
40
0
40
0
40
0
40
1
40
1
40
1
40
1
41
1
10
28.7366231625953
20
1.99500039465616
30
0
41
1
10
28.7477386068508
20
1.99499862239597
30
0
41
1
10
28.7588573929207
20
1.99494312474016
30
0
41
1
10
28.7699796168084
20
1.99483383396131
30
0
0
SPLINE
5
199
100
AcDbEntity
8
1
62
256
6
ByLayer
370
18
48
1
60
0
100
AcDbSpline
70
4
71
3
72
14
73
10
40
0
40
0
40
0
40
0
40
0.25
40
0.25
40
0.5
40
0.5
40
0.75
40
0.75
40
1
40
1
40
1
40
1
41
1
10
28.7699796168084
20
1.99483383396131
30
0
41
1
10
28.7964867647369
20
1.99457336565286
30
0
41
1
10
28.8228737514212
20
1.99576034104319
30
0
41
1
10
28.8752910330833
20
2.00102279227451
30
0
41
1
10
28.9013216613633
20
2.00509556437132
30
0
41
1
10
28.9529746460792
20
2.01628273639577
30
0
41
1
10
28.9785968783471
20
2.02339195829924
30
0
41
1
10
29.0294404302004
20
2.0410783429422
30
0
41
1
10
29.0544483803199
20
2.05157551358428
30
0
41
1
10
29.0790024617546
20
2.06405164468256
30
0
0
SPLINE
5
19A
100
AcDbEntity
8
1
62
256
6
ByLayer
370
18
48
1
60
0
100
AcDbSpline
70
4
71
3
72
16
73
12
40
0
40
0
40
0
40
0
40
0.125
40
0.125
40
0.250000000000001
40
0.250000000000001
40
0.5
40
0.5
40
0.75
40
0.75
40
1
40
1
40
1
40
1
41
1
10
29.0790024617545
20
2.06405164468245
30
0
41
1
10
29.0954409191799
20
2.07240416035023
30
0
41
1
10
29.1119286287958
20
2.08069567223345
30
0
41
1
10
29.1447784096157
20
2.09697317869652
30
0
41
1
10
29.1611432008424
20
2.10496037614786
30
0
41
1
10
29.2100497594246
20
2.12844619246124
30
0
41
1
10
29.2423584586256
20
2.1434247730628
30
0
41
1
10
29.3068831722494
20
2.17241357402187
30
0
41
1
10
29.3390453510494
20
2.18638122052656
30
0
41
1
10
29.4029763175456
20
2.21301712289684
30
0
41
1
10
29.4347839319396
20
2.22572074191734
30
0
41
1
10
29.466484682892
20
2.23783068052683
30
0
0
SPLINE
5
19B
100
AcDbEntity
8
1
62
256
6
ByLayer
370
18
48
1
60
0
100
AcDbSpline
70
4
71
3
72
8
73
4
40
0
40
0
40
0
40
0
40
1
40
1
40
1
40
1
41
1
10
29.4664846828966
20
2.23783068051088
30
0
41
1
10
29.4920612804152
20
2.19117566613528
30
0
41
1
10
29.517756463559
20
2.1440961356347
30
0
41
1
10
29.5435969766722
20
2.09659751344455
30
0
0
SPLINE
5
19C
100
AcDbEntity
8
1
62
256
6
ByLayer
370
18
48
1
60
0
100
AcDbSpline
70
4
71
3
72
26
73
22
40
0
40
0
40
0
40
0
40
0.125
40
0.125
40
0.25
40
0.25
40
0.375
40
0.375
40
0.5
40
0.5
40
0.625
40
0.625
40
0.75
40
0.75
40
0.8125
40
0.8125
40
0.875
40
0.875
40
0.9375
40
0.9375
40
1
40
1
40
1
40
1
41
1
10
29.5435969766722
20
2.09659751344455
30
0
41
1
10
29.5515226992179
20
2.08202888242965
30
0
41
1
10
29.5607238614802
20
2.06900985157634
30
0
41
1
10
29.5810346860088
20
2.04525728202029
30
0
41
1
10
29.5922581611608
20
2.03448553320382
30
0
41
1
10
29.6155803075603
20
2.01571810552028
30
0
41
1
10
29.6277546286093
20
2.00761495388369
30
0
41
1
10
29.6530253868132
20
1.99380500016832
30
0
41
1
10
29.6662190333291
20
1.98808647796173
30
0
41
1
10
29.6926077748105
20
1.97953100182639
30
0
41
1
10
29.7058900250475
20
1.97662479000036
30
0
41
1
10
29.7325772688392
20
1.97385671134626
30
0
41
1
10
29.7461058217153
20
1.97402697960084
30
0
41
1
10
29.765568120569
20
1.97711365022567
30
0
41
1
10
29.7719431601386
20
1.97860982456544
30
0
41
1
10
29.7844283933869
20
1.98267269733404
30
0
41
1
10
29.7905808608554
20
1.98526548255543
30
0
41
1
10
29.8022445230376
20
1.99157644224658
30
0
41
1
10
29.8077784206863
20
1.99529133153638
30
0
41
1
10
29.8181545448581
20
2.00401914531426
30
0
41
1
10
29.8230243882486
20
2.00907271622404
30
0
41
1
10
29.827354369743
20
2.01478967064298
30
0
0
SPLINE
5
19D
100
AcDbEntity
8
1
62
256
6
ByLayer
370
18
48
1
60
0
100
AcDbSpline
70
4
71
3
72
12
73
8
40
0
40
0
40
0
40
0
40
0.25
40
0.25
40
0.499999999999999
40
0.499999999999999
40
1
40
1
40
1
40
1
41
1
10
29.827354369743
20
2.0147896706431
30
0
41
1
10
29.854607790663
20
2.05077286488111
30
0
41
1
10
29.8817398194321
20
2.08585978957669
30
0
41
1
10
29.9358042546304
20
2.15423751392541
30
0
41
1
10
29.9627241435259
20
2.18751350362811
30
0
41
1
10
30.0430655127201
20
2.28444120857199
30
0
41
1
10
30.096166438299
20
2.34531097353852
30
0
41
1
10
30.1486782213562
20
2.40208522573417
30
0
0
SPLINE
5
19E
100
AcDbEntity
8
1
62
256
6
ByLayer
370
18
48
1
60
0
100
AcDbSpline
70
4
71
3
72
8
73
4
40
0
40
0
40
0
40
0
40
1
40
1
40
1
40
1
41
1
10
30.1486782213563
20
2.40208522573417
30
0
41
1
10
30.1691693360691
20
2.40376416270382
30
0
41
1
10
30.1896086497948
20
2.40510867618008
30
0
41
1
10
30.2100000000001
20
2.40611316639573
30
0
0
SPLINE
5
19F
100
AcDbEntity
8
1
62
256
6
ByLayer
370
18
48
1
60
0
100
AcDbSpline
70
4
71
3
72
8
73
4
40
0
40
0
40
0
40
0
40
1
40
1
40
1
40
1
41
1
10
30.2963874586498
20
2.38929807292513
30
0
41
1
10
30.2676212420861
20
2.40530236218268
30
0
41
1
10
30.2388282897445
20
2.42085656520501
30
0
41
1
10
30.21
20
2.43595790647018
30
0
0
SPLINE
5
1A0
100
AcDbEntity
8
1
62
256
6
ByLayer
370
18
48
1
60
0
100
AcDbSpline
70
4
71
3
72
14
73
10
40
0
40
0
40
0
40
0
40
0.25
40
0.25
40
0.5
40
0.5
40
0.75
40
0.75
40
1
40
1
40
1
40
1
41
1
10
30.2963874586497
20
2.3892980729251
30
0
41
1
10
30.3272479030637
20
2.32622569056568
30
0
41
1
10
30.3582441619404
20
2.26305280936671
30
0
41
1
10
30.4206027503585
20
2.13654478989034
30
0
41
1
10
30.4519813308304
20
2.07320176989742
30
0
41
1
10
30.5151264399854
20
1.94642452161858
30
0
41
1
10
30.546782258007
20
1.88313982151737
30
0
41
1
10
30.6105952498153
20
1.75698212691026
30
0
41
1
10
30.6427364832455
20
1.6940981610764
30
0
41
1
10
30.675152928931
20
1.63142769377058
30
0
0
SPLINE
5
1A1
100
AcDbEntity
8
1
62
256
6
ByLayer
370
18
48
1
60
0
100
AcDbSpline
70
4
71
3
72
8
73
4
40
0
40
0
40
0
40
0
40
1
40
1
40
1
40
1
41
1
10
32.5601727026773
20
0.430026738468058
30
0
41
1
10
32.5246445681818
20
0.467472578996848
30
0
41
1
10
32.4891377385276
20
0.504769105826995
30
0
41
1
10
32.4536516148694
20
0.54191617783701
30
0
0
SPLINE
5
1A2
100
AcDbEntity
8
1
62
256
6
ByLayer
370
18
48
1
60
0
100
AcDbSpline
70
4
71
3
72
8
73
4
40
0
40
0
40
0
40
0
40
1
40
1
40
1
40
1
41
1
10
33.6916346718514
20
-0.775972500244848
30
0
41
1
10
33.6562744909924
20
-0.739654983749006
30
0
41
1
10
33.6209598708241
20
-0.703131897401818
30
0
41
1
10
33.5856775468637
20
-0.666415186496863
30
0
0
SPLINE
5
1A3
100
AcDbEntity
8
1
62
256
6
ByLayer
370
18
48
1
60
0
100
AcDbSpline
70
4
71
3
72
8
73
4
40
0
40
0
40
0
40
0
40
1
40
1
40
1
40
1
41
1
10
34.8235419406298
20
-1.83643900893793
30
0
41
1
10
34.7880046171836
20
-1.80774862929644
30
0
41
1
10
34.7525234911146
20
-1.77854527781773
30
0
41
1
10
34.7170909855903
20
-1.7488334021337
30
0
0
SPLINE
5
1A4
100
AcDbEntity
8
1
62
256
6
ByLayer
370
18
48
1
60
0
100
AcDbSpline
70
4
71
3
72
8
73
4
40
0
40
0
40
0
40
0
40
1
40
1
40
1
40
1
41
1
10
38.3100000000003
20
-1.24029088241281
30
0
41
1
10
38.27779315689
20
-1.26550155973987
30
0
41
1
10
38.2442739019493
20
-1.29285433099281
30
0
41
1
10
38.21
20
-1.32174325074428
30
0
0
SPLINE
5
1A5
100
AcDbEntity
8
SK1
62
256
6
ByLayer
370
18
48
1
60
0
100
AcDbSpline
70
4
71
3
72
21
73
17
40
0
40
0
40
0
40
0
40
0.125047766831537
40
0.125047766831537
40
0.250095533663073
40
0.250095533663073
40
0.500191067326146
40
0.500191067326146
40
0.750286600989219
40
0.750286600989219
40
0.781548542697103
40
0.781548542697103
40
0.812810484404987
40
0.875334367820755
40
0.875334367820755
40
1
40
1
40
1
40
1
41
1
10
-21.24
20
2.09499999999997
30
0
41
1
10
-21.2796142218117
20
2.09499999999997
30
0
41
1
10
-21.3182992653402
20
2.09499999999997
30
0
41
1
10
-21.393385919919
20
2.09499999999997
30
0
41
1
10
-21.4298483327093
20
2.09499999999997
30
0
41
1
10
-21.534218281128
20
2.09499999999997
30
0
41
1
10
-21.5973568106901
20
2.09499999999997
30
0
41
1
10
-21.7048734042918
20
2.09499999999997
30
0
41
1
10
-21.7492558637752
20
2.09499999999997
30
0
41
1
10
-21.7840020487829
20
2.09499999999997
30
0
41
1
10
-21.7876512300022
20
2.09499999999997
30
0
41
1
10
-21.794470755401
20
2.09499999999997
30
0
41
1
10
-21.8039985309214
20
2.09499999999997
30
0
41
1
10
-21.8113878550087
20
2.09499999999997
30
0
41
1
10
-21.8232198381563
20
2.09499999999997
30
0
41
1
10
-21.8272187447008
20
2.09499999999997
30
0
41
1
10
-21.8272400000002
20
2.09499999999997
30
0
0
SPLINE
5
1A6
100
AcDbEntity
8
SK1
62
256
6
ByLayer
370
18
48
1
60
0
100
AcDbSpline
70
4
71
3
72
22
73
18
40
0
40
0
40
0
40
0
40
0.0002834408559274
40
0.125248010748937
40
0.125248010748937
40
0.187730295695441
40
0.218971438168693
40
0.218971438168693
40
0.250212580641946
40
0.250212580641946
40
0.500141720427964
40
0.500141720427964
40
0.750070860213982
40
0.750070860213982
40
0.875035430106991
40
0.875035430106991
40
1
40
1
40
1
40
1
41
1
10
-21.8272393541185
20
-2.09500000000003
30
0
41
1
10
-21.8272403542185
20
-2.09500000000003
30
0
41
1
10
-21.8272521241132
20
-2.09500000000003
30
0
41
1
10
-21.8232439923444
20
-2.09500000000003
30
0
41
1
10
-21.8113878550086
20
-2.09500000000003
30
0
41
1
10
-21.8039985309214
20
-2.09500000000003
30
0
41
1
10
-21.794470755401
20
-2.09500000000003
30
0
41
1
10
-21.7876512300022
20
-2.09500000000003
30
0
41
1
10
-21.7840020487829
20
-2.09500000000003
30
0
41
1
10
-21.7492558637752
20
-2.09500000000003
30
0
41
1
10
-21.7048734042918
20
-2.09500000000003
30
0
41
1
10
-21.5973568106901
20
-2.09500000000003
30
0
41
1
10
-21.534218281128
20
-2.09500000000003
30
0
41
1
10
-21.4298483327093
20
-2.09500000000003
30
0
41
1
10
-21.393385919919
20
-2.09500000000003
30
0
41
1
10
-21.3182992653402
20
-2.09500000000003
30
0
41
1
10
-21.2796142218117
20
-2.09500000000003
30
0
41
1
10
-21.24
20
-2.09500000000003
30
0
0
SPLINE
5
1A7
100
AcDbEntity
8
SK1
62
256
6
ByLayer
370
18
48
1
60
0
100
AcDbSpline
70
4
71
3
72
36
73
32
40
0
40
0
40
0
40
0
40
0.125
40
0.125
40
0.15625
40
0.15625
40
0.1875
40
0.1875
40
0.25
40
0.25
40
0.375
40
0.375
40
0.40625
40
0.40625
40
0.4375
40
0.4375
40
0.5
40
0.5625
40
0.5625
40
0.59375
40
0.609375
40
0.609375
40
0.625
40
0.625
40
0.75
40
0.75
40
0.875
40
0.875
40
0.9375
40
0.9375
40
1
40
1
40
1
40
1
41
1
10
-21.24
20
-1.67492877985904
30
0
41
1
10
-21.3189082684028
20
-1.54856465238944
30
0
41
1
10
-21.3941700938593
20
-1.41950475582479
30
0
41
1
10
-21.4812776460252
20
-1.25302725224327
30
0
41
1
10
-21.4983670403124
20
-1.21942554188479
30
0
41
1
10
-21.5316287232412
20
-1.15189444137158
30
0
41
1
10
-21.5477988451793
20
-1.11797258413051
30
0
41
1
10
-21.5947968660832
20
-1.01569392351274
30
0
41
1
10
-21.6241165011841
20
-0.946825415806046
30
0
41
1
10
-21.7048536446537
20
-0.737769786384121
30
0
41
1
10
-21.7491056544313
20
-0.595151646634804
30
0
41
1
10
-21.7875769455382
20
-0.41116445128074
30
0
41
1
10
-21.7944247891149
20
-0.374079851555365
30
0
41
1
10
-21.8062918675456
20
-0.299290265298993
30
0
41
1
10
-21.8112762549161
20
-0.261777945629916
30
0
41
1
10
-21.823231430711
20
-0.149502551775583
30
0
41
1
10
-21.8312421147827
20
9.4277649794E-06
30
0
41
1
10
-21.8232439923444
20
0.14914075646368
30
0
41
1
10
-21.8113878550087
20
0.260849974670691
30
0
41
1
10
-21.8039985309214
20
0.316669838641587
30
0
41
1
10
-21.794470755401
20
0.37243885539047
30
0
41
1
10
-21.7876512300022
20
0.40960707970396
30
0
41
1
10
-21.7840020487829
20
0.428210631163381
30
0
41
1
10
-21.7492558637752
20
0.594823341605235
30
0
41
1
10
-21.7048734042918
20
0.737688439587714
30
0
41
1
10
-21.5973568106901
20
1.01614539219276
30
0
41
1
10
-21.534218281128
20
1.15173554194715
30
0
41
1
10
-21.4298483327093
20
1.3513730907396
30
0
41
1
10
-21.393385919919
20
1.41735432918927
30
0
41
1
10
-21.3182992653402
20
1.54735182998229
30
0
41
1
10
-21.2796142218117
20
1.6114903509598
30
0
41
1
10
-21.24
20
1.67492877985899
30
0
0
SPLINE
5
1A8
100
AcDbEntity
8
1
62
256
6
ByLayer
370
18
48
1
60
0
100
AcDbSpline
70
4
71
1
72
4
73
2
40
0
40
0
40
1
40
1
41
1
10
31.8072439684386
20
-2.78096233642401
30
0
41
1
10
31.872483782641
20
-2.66882289234064
30
0
0
SPLINE
5
1A9
100
AcDbEntity
8
1
62
256
6
ByLayer
370
18
48
1
60
0
100
AcDbSpline
70
4
71
2
72
6
73
3
40
0
40
0
40
0
40
1
40
1
40
1
41
1
10
31.9438280603917
20
2.32321769537955
30
0
41
1
10
31.9263541087108
20
2.2934380950669
30
0
41
1
10
31.9088785367218
20
2.26367619354684
30
0
0
SPLINE
5
1AA
100
AcDbEntity
8
1
62
256
6
ByLayer
370
18
48
1
60
0
100
AcDbSpline
70
4
71
1
72
4
73
2
40
0
40
0
40
1
40
1
41
1
10
36.7941272962215
20
-2.41375953772791
30
0
41
1
10
37.2084802199571
20
-2.27635478466786
30
0
0
SPLINE
5
1AB
100
AcDbEntity
8
1
62
256
6
ByLayer
370
18
48
1
60
0
100
AcDbSpline
70
4
71
2
72
6
73
3
40
0
40
0
40
0
40
1
40
1
40
1
41
1
10
34.7460937393231
20
2.27341862328197
30
0
41
1
10
34.6061821614946
20
2.51084415000582
30
0
41
1
10
34.4663898613562
20
2.74960268825589
30
0
0
SPLINE
5
1AC
100
AcDbEntity
8
1
62
256
6
ByLayer
370
18
48
1
60
0
100
AcDbSpline
70
4
71
1
72
4
73
2
40
0
40
0
40
1
40
1
41
1
10
34.7460580952061
20
-2.59737848227522
30
0
41
1
10
34.8523309726992
20
-2.78040400563128
30
0
0
SPLINE
5
1AD
100
AcDbEntity
8
1
62
256
6
ByLayer
370
18
48
1
60
0
100
AcDbSpline
70
4
71
1
72
4
73
2
40
0
40
0
40
1
40
1
41
1
10
38.21
20
1.79822542733245
30
0
41
1
10
37.9100000175137
20
2.09793234259402
30
0
0
SPLINE
5
1AE
100
AcDbEntity
8
1
62
256
6
ByLayer
370
18
48
1
60
0
100
AcDbSpline
70
4
71
3
72
10
73
6
40
0
40
0
40
0
40
0
40
0.338340740727829
40
0.694272361516855
40
1
40
1
40
1
40
1
41
1
10
31.1015963374363
20
-2.17550587520466
30
0
41
1
10
31.1118295707475
20
-2.15689165372112
30
0
41
1
10
31.1404628397515
20
-2.12852026881683
30
0
41
1
10
31.2157390506944
20
-2.10638867547971
30
0
41
1
10
31.2656689263626
20
-2.1227310592711
30
0
41
1
10
31.2847790940284
20
-2.13347656873506
30
0
0
SPLINE
5
1AF
100
AcDbEntity
8
1
62
256
6
ByLayer
370
18
48
1
60
0
100
AcDbSpline
70
4
71
3
72
11
73
7
40
0
40
0
40
0
40
0
40
0.248144548874825
40
0.49945349915336
40
0.755069492294205
40
1
40
1
40
1
40
1
41
1
10
32.9118885795046
20
2.17316465696169
30
0
41
1
10
32.9075768051616
20
2.16153706471584
30
0
41
1
10
32.8882813996227
20
2.14236387547834
30
0
41
1
10
32.823500016027
20
2.10855223395751
30
0
41
1
10
32.7329834482019
20
2.12344078389961
30
0
41
1
10
32.6965456147433
20
2.16075035998767
30
0
41
1
10
32.6811076125841
20
2.18593299723966
30
0
0
SPLINE
5
1B0
100
AcDbEntity
8
1
62
256
6
ByLayer
370
18
48
1
60
0
100
AcDbSpline
70
4
71
3
72
11
73
7
40
0
40
0
40
0
40
0
40
0.246908773119363
40
0.498055870046197
40
0.75356017156281
40
1
40
1
40
1
40
1
41
1
10
36.3946666320394
20
-2.17318961851498
30
0
41
1
10
36.3989234421925
20
-2.16179246062762
30
0
41
1
10
36.4180051867672
20
-2.14286052757205
30
0
41
1
10
36.4821280431679
20
-2.10899888682539
30
0
41
1
10
36.5722794594471
20
-2.12323761499454
30
0
41
1
10
36.6080179574502
20
-2.15913823583873
30
0
41
1
10
36.6230747573608
20
-2.18356464790361
30
0
0
SPLINE
5
1B1
100
AcDbEntity
8
1
62
256
6
ByLayer
370
18
48
1
60
0
100
AcDbSpline
70
4
71
2
72
6
73
3
40
0
40
0
40
0
40
1
40
1
40
1
41
1
10
36.1252888929401
20
-2.63536244808867
30
0
41
1
10
36.2597711530876
20
-2.40406295358605
30
0
41
1
10
36.3947380182267
20
-2.17306702448292
30
0
0
SPLINE
5
1B2
100
AcDbEntity
8
1
62
256
6
ByLayer
370
18
48
1
60
0
100
AcDbSpline
70
4
71
2
72
6
73
3
40
0
40
0
40
0
40
1
40
1
40
1
41
1
10
30.7490425974144
20
-2.78073118944857
30
0
41
1
10
30.9257745319279
20
-2.47648321798545
30
0
41
1
10
31.1032897965142
20
-2.17271709559392
30
0
0
SPLINE
5
1B3
100
AcDbEntity
8
1
62
256
6
ByLayer
370
18
48
1
60
0
100
AcDbSpline
70
4
71
2
72
6
73
3
40
0
40
0
40
0
40
1
40
1
40
1
41
1
10
30.2661041134551
20
-2.17319246617731
30
0
41
1
10
30.4430025802624
20
-2.47676324465627
30
0
41
1
10
30.6193174618322
20
-2.78079631063537
30
0
0
SPLINE
5
1B4
100
AcDbEntity
8
1
62
256
6
ByLayer
370
18
48
1
60
0
100
AcDbSpline
70
4
71
2
72
6
73
3
40
0
40
0
40
0
40
1
40
1
40
1
41
1
10
33.2652753487552
20
2.78117888589227
30
0
41
1
10
33.0888527218042
20
2.47690303078036
30
0
41
1
10
32.9118169923481
20
2.17304150316801
30
0
0
SPLINE
5
1B5
100
AcDbEntity
8
1
62
256
6
ByLayer
370
18
48
1
60
0
100
AcDbSpline
70
4
71
1
72
4
73
2
40
0
40
0
40
1
40
1
41
1
10
35.8903833991358
20
-2.71948094669807
30
0
41
1
10
36.1143787281592
20
-2.64498685110945
30
0
0
SPLINE
5
1B6
100
AcDbEntity
8
1
62
256
6
ByLayer
370
18
48
1
60
0
100
AcDbSpline
70
4
71
2
72
6
73
3
40
0
40
0
40
0
40
1
40
1
40
1
41
1
10
33.7490849414014
20
2.17237065919866
30
0
41
1
10
33.5714129122203
20
2.4763283606892
30
0
41
1
10
33.394534814694
20
2.78077106823886
30
0
0
SPLINE
5
1B7
100
AcDbEntity
8
1
62
256
6
ByLayer
370
18
48
1
60
0
100
AcDbSpline
70
4
71
2
72
6
73
3
40
0
40
0
40
0
40
1
40
1
40
1
41
1
10
35.5575401089424
20
-2.17325745192744
30
0
41
1
10
35.7141316289494
20
-2.44204089806965
30
0
41
1
10
35.8702224250001
20
-2.71115312654268
30
0
0
SPLINE
5
1B8
100
AcDbEntity
8
1
62
256
6
ByLayer
370
18
48
1
60
0
100
AcDbSpline
70
4
71
3
72
11
73
7
40
0
40
0
40
0
40
0
40
0.24778205273454
40
0.503187544767023
40
0.753533304597999
40
1
40
1
40
1
40
1
41
1
10
30.0383904687716
20
-2.18236194532506
30
0
41
1
10
30.0532951065123
20
-2.15814200924547
30
0
41
1
10
30.0887719781887
20
-2.12275998214142
30
0
41
1
10
30.1788351204277
20
-2.1086546839775
30
0
41
1
10
30.2429368750491
20
-2.14281178527602
30
0
41
1
10
30.2618420712684
20
-2.1616846162969
30
0
41
1
10
30.2660057579059
20
-2.1730248122021
30
0
0
SPLINE
5
1B9
100
AcDbEntity
8
1
62
256
6
ByLayer
370
18
48
1
60
0
100
AcDbSpline
70
4
71
3
72
11
73
7
40
0
40
0
40
0
40
0
40
0.242406298766975
40
0.497019246208507
40
0.749347379830645
40
1
40
1
40
1
40
1
41
1
10
33.9795199845197
20
2.18562393179724
30
0
41
1
10
33.9639998844229
20
2.16038423964625
30
0
41
1
10
33.9274717338045
20
2.12278303373066
30
0
41
1
10
33.8368840898339
20
2.10807841980812
30
0
41
1
10
33.7724999517007
20
2.14184386065244
30
0
41
1
10
33.7533123573965
20
2.16077417869187
30
0
41
1
10
33.7491329593711
20
2.1722888560447
30
0
0
SPLINE
5
1BA
100
AcDbEntity
8
1
62
256
6
ByLayer
370
18
48
1
60
0
100
AcDbSpline
70
4
71
3
72
11
73
7
40
0
40
0
40
0
40
0
40
0.243774575428067
40
0.499606155904213
40
0.755499406232038
40
1
40
1
40
1
40
1
41
1
10
35.3242942640259
20
-2.18822178686176
30
0
41
1
10
35.3343524193499
20
-2.16763460183049
30
0
41
1
10
35.3626398443495
20
-2.13521900567034
30
0
41
1
10
35.4413918756431
20
-2.10573033538455
30
0
41
1
10
35.5201871487887
20
-2.1288436052599
30
0
41
1
10
35.5483599321782
20
-2.1564353228616
30
0
41
1
10
35.5583381270722
20
-2.17461062312714
30
0
0
LINE
5
81
100
AcDbEntity
8
80
62
256
6
ByLayer
370
18
48
1
60
0
100
AcDbLine
10
0
20
0
30
0
11
-5
21
0
31
0
39
0
210
0
220
0
230
1
0
LINE
5
82
100
AcDbEntity
8
4
62
256
6
ByLayer
370
18
48
0.05
60
0
100
AcDbLine
10
0
20
0
30
0
11
38.31
21
0
31
0
39
0
210
0
220
0
230
1
0
LINE
5
84
100
AcDbEntity
8
81
62
256
6
ByLayer
370
18
48
1
60
0
100
AcDbLine
10
38.31
20
0
30
0
11
43.31
21
0
31
0
39
0
210
0
220
0
230
1
0
LINE
5
85
100
AcDbEntity
8
SK4
62
256
6
ByLayer
370
18
48
0.05
60
0
100
AcDbLine
10
-22.24
20
0
30
0
11
38.31
21
0
31
0
39
0
210
0
220
0
230
1
0
LINE
5
87
100
AcDbEntity
8
1
62
256
6
ByLayer
370
18
48
1
60
0
100
AcDbLine
10
0
20
2.794
30
0
11
0
21
-2.794
31
0
39
0
210
0
220
0
230
1
0
LINE
5
88
100
AcDbEntity
8
1
62
256
6
ByLayer
370
18
48
1
60
0
100
AcDbLine
10
31.809693
20
-2.776748
30
0
11
31.805376
21
-2.783267
31
0
39
0
210
0
220
0
230
1
0
LINE
5
89
100
AcDbEntity
8
1
62
256
6
ByLayer
370
18
48
1
60
0
100
AcDbLine
10
37.91
20
2.099952
30
0
11
37.91
21
2.097958
31
0
39
0
210
0
220
0
230
1
0
LINE
5
8A
100
AcDbEntity
8
1
62
256
6
ByLayer
370
18
48
1
60
0
100
AcDbLine
10
30.043518
20
-2.17518
30
0
11
30.037993
21
-2.182835
31
0
39
0
210
0
220
0
230
1
0
LINE
5
8B
100
AcDbEntity
8
1
62
256
6
ByLayer
370
18
48
1
60
0
100
AcDbLine
10
32.324301
20
2.791454
30
0
11
32.321645
21
2.791804
31
0
39
0
210
0
220
0
230
1
0
LINE
5
8C
100
AcDbEntity
8
1
62
256
6
ByLayer
370
18
48
1
60
0
100
AcDbLine
10
38.31
20
1.3
30
0
11
38.31
21
1.230052
31
0
39
0
210
0
220
0
230
1
0
LINE
5
8D
100
AcDbEntity
8
1
62
256
6
ByLayer
370
18
48
1
60
0
100
AcDbLine
10
38.31
20
0.282864
30
0
11
38.31
21
-0.979347
31
0
39
0
210
0
220
0
230
1
0
LINE
5
8E
100
AcDbEntity
8
1
62
256
6
ByLayer
370
13
48
1
60
0
100
AcDbLine
10
29.079002
20
-1.259515
30
0
11
29.079002
21
-2.008321
31
0
39
0
210
0
220
0
230
1
0
LINE
5
8F
100
AcDbEntity
8
1
62
256
6
ByLayer
370
18
48
1
60
0
100
AcDbLine
10
29.837158
20
-2.527753
30
0
11
29.832173
21
-2.531038
31
0
39
0
210
0
220
0
230
1
0
LINE
5
90
100
AcDbEntity
8
1
62
256
6
ByLayer
370
13
48
1
60
0
100
AcDbLine
10
28.76998
20
-1.841523
30
0
11
28.76998
21
-1.019716
31
0
39
0
210
0
220
0
230
1
0
LINE
5
91
100
AcDbEntity
8
1
62
256
6
ByLayer
370
13
48
1
60
0
100
AcDbLine
10
28.76998
20
1.585302
30
0
11
28.76998
21
1.994834
31
0
39
0
210
0
220
0
230
1
0
LINE
5
92
100
AcDbEntity
8
1
62
256
6
ByLayer
370
13
48
1
60
0
100
AcDbLine
10
29.079002
20
2.064052
30
0
11
29.079002
21
1.475295
31
0
39
0
210
0
220
0
230
1
0
LINE
5
93
100
AcDbEntity
8
1
62
256
6
ByLayer
370
13
48
1
60
0
100
AcDbLine
10
15.424359
20
-1.995
30
0
11
15.424359
21
1.995
31
0
39
0
210
0
220
0
230
1
0
LINE
5
94
100
AcDbEntity
8
1
62
256
6
ByLayer
370
18
48
1
60
0
100
AcDbLine
10
30.21
20
2.435958
30
0
11
30.21
21
2.273211
31
0
39
0
210
0
220
0
230
1
0
LINE
5
95
100
AcDbEntity
8
1
62
256
6
ByLayer
370
13
48
1
60
0
100
AcDbLine
10
15.024359
20
2.10218
30
0
11
15.024359
21
-2.10218
31
0
39
0
210
0
220
0
230
1
0
LINE
5
96
100
AcDbEntity
8
1
62
256
6
ByLayer
370
18
48
1
60
0
100
AcDbLine
10
13.826091
20
2.794
30
0
11
13.826091
21
-2.794
31
0
39
0
210
0
220
0
230
1
0
LINE
5
97
100
AcDbEntity
8
SK1
62
256
6
ByLayer
370
18
48
1
60
0
100
AcDbLine
10
-22.24
20
1.68224
30
0
11
-22.24
21
-1.68224
31
0
39
0
210
0
220
0
230
1
0
LINE
5
99
100
AcDbEntity
8
SK1
62
256
6
ByLayer
370
18
48
1
60
0
100
AcDbLine
10
-15
20
1.674929
30
0
11
-15
21
-1.674929
31
0
39
0
210
0
220
0
230
1
0
LINE
5
9A
100
AcDbEntity
8
SK1
62
256
6
ByLayer
370
18
48
1
60
0
100
AcDbLine
10
-14.41276
20
2.68224
30
0
11
-15
21
2.095
31
0
39
0
210
0
220
0
230
1
0
LINE
5
9B
100
AcDbEntity
8
SK1
62
256
6
ByLayer
370
18
48
1
60
0
100
AcDbLine
10
-21.24
20
2.095
30
0
11
-15
21
2.095
31
0
39
0
210
0
220
0
230
1
0
LINE
5
9C
100
AcDbEntity
8
SK1
62
256
6
ByLayer
370
18
48
1
60
0
100
AcDbLine
10
-21.24
20
1.674929
30
0
11
-21.24
21
2.095
31
0
39
0
210
0
220
0
230
1
0
LINE
5
9D
100
AcDbEntity
8
SK1
62
256
6
ByLayer
370
18
48
1
60
0
100
AcDbLine
10
-15
20
1.674929
30
0
11
-21.24
21
1.674929
31
0
39
0
210
0
220
0
230
1
0
LINE
5
9E
100
AcDbEntity
8
SK1
62
256
6
ByLayer
370
18
48
1
60
0
100
AcDbLine
10
-21.24
20
-1.674929
30
0
11
-15
21
-1.674929
31
0
39
0
210
0
220
0
230
1
0
LINE
5
9F
100
AcDbEntity
8
SK1
62
256
6
ByLayer
370
18
48
1
60
0
100
AcDbLine
10
-21.24
20
-2.095
30
0
11
-21.24
21
-1.674929
31
0
39
0
210
0
220
0
230
1
0
LINE
5
A0
100
AcDbEntity
8
SK1
62
256
6
ByLayer
370
18
48
1
60
0
100
AcDbLine
10
-15
20
-2.095
30
0
11
-21.24
21
-2.095
31
0
39
0
210
0
220
0
230
1
0
LINE
5
A1
100
AcDbEntity
8
SK1
62
256
6
ByLayer
370
18
48
1
60
0
100
AcDbLine
10
-15
20
-2.095
30
0
11
-14.41276
21
-2.68224
31
0
39
0
210
0
220
0
230
1
0
LINE
5
A2
100
AcDbEntity
8
SK1
62
256
6
ByLayer
370
18
48
1
60
0
100
AcDbLine
10
0
20
2.794
30
0
11
0
21
-2.794
31
0
39
0
210
0
220
0
230
1
0
LINE
5
A3
100
AcDbEntity
8
SK1
62
256
6
ByLayer
370
18
48
1
60
0
100
AcDbLine
10
-14.276
20
2.68224
30
0
11
-14.276
21
-2.68224
31
0
39
0
210
0
220
0
230
1
0
LINE
5
A4
100
AcDbEntity
8
SK1
62
256
6
ByLayer
370
18
48
1
60
0
100
AcDbLine
10
-14.16424
20
-2.794
30
0
11
-14.16424
21
2.794
31
0
39
0
210
0
220
0
230
1
0
LINE
5
A5
100
AcDbEntity
8
1
62
256
6
ByLayer
370
18
48
1
60
0
100
AcDbLine
10
13.826091
20
2.794
30
0
11
0
21
2.794
31
0
39
0
210
0
220
0
230
1
0
LINE
5
A6
100
AcDbEntity
8
1
62
256
6
ByLayer
370
18
48
1
60
0
100
AcDbLine
10
0
20
-2.794
30
0
11
13.826091
21
-2.794
31
0
39
0
210
0
220
0
230
1
0
LINE
5
A7
100
AcDbEntity
8
1
62
256
6
ByLayer
370
18
48
1
60
0
100
AcDbLine
10
32.321617
20
2.791803
30
0
11
32.283273
21
2.791803
31
0
39
0
210
0
220
0
230
1
0
LINE
5
A8
100
AcDbEntity
8
1
62
256
6
ByLayer
370
18
48
1
60
0
100
AcDbLine
10
38.31
20
1.3
30
0
11
38.21
21
1.4
31
0
39
0
210
0
220
0
230
1
0
LINE
5
A9
100
AcDbEntity
8
1
62
256
6
ByLayer
370
18
48
1
60
0
100
AcDbLine
10
30.634585
20
-2.791803
30
0
11
30.734023
21
-2.791803
31
0
39
0
210
0
220
0
230
1
0
LINE
5
AA
100
AcDbEntity
8
1
62
256
6
ByLayer
370
18
48
1
60
0
100
AcDbLine
10
33.379567
20
2.791803
30
0
11
33.280225
21
2.791803
31
0
39
0
210
0
220
0
230
1
0
LINE
5
AB
100
AcDbEntity
8
1
62
256
6
ByLayer
370
18
48
1
60
0
100
AcDbLine
10
29.644254
20
-2.420337
30
0
11
29.824
21
-2.52834
31
0
39
0
210
0
220
0
230
1
0
LINE
5
AC
100
AcDbEntity
8
1
62
256
6
ByLayer
370
18
48
1
60
0
100
AcDbLine
10
15.424359
20
-1.995
30
0
11
16.960142
21
-1.995
31
0
39
0
210
0
220
0
230
1
0
LINE
5
AD
100
AcDbEntity
8
1
62
256
6
ByLayer
370
18
48
1
60
0
100
AcDbLine
10
18.829654
20
-1.995
30
0
11
20.557503
21
-1.995
31
0
39
0
210
0
220
0
230
1
0
LINE
5
AE
100
AcDbEntity
8
1
62
256
6
ByLayer
370
18
48
1
60
0
100
AcDbLine
10
24.361986
20
-1.995
30
0
11
26.009164
21
-1.995
31
0
39
0
210
0
220
0
230
1
0
LINE
5
AF
100
AcDbEntity
8
1
62
256
6
ByLayer
370
18
48
1
60
0
100
AcDbLine
10
28.736654
20
1.995
30
0
11
27.078331
21
1.995
31
0
39
0
210
0
220
0
230
1
0
LINE
5
B0
100
AcDbEntity
8
1
62
256
6
ByLayer
370
18
48
1
60
0
100
AcDbLine
10
23.284603
20
1.995
30
0
11
21.644178
21
1.995
31
0
39
0
210
0
220
0
230
1
0
LINE
5
B1
100
AcDbEntity
8
1
62
256
6
ByLayer
370
18
48
1
60
0
100
AcDbLine
10
17.857829
20
1.995
30
0
11
15.424359
21
1.995
31
0
39
0
210
0
220
0
230
1
0
LINE
5
B2
100
AcDbEntity
8
1
62
256
6
ByLayer
370
18
48
1
60
0
100
AcDbLine
10
15.024359
20
2.10218
30
0
11
13.826091
21
2.794
31
0
39
0
210
0
220
0
230
1
0
LINE
5
B3
100
AcDbEntity
8
1
62
256
6
ByLayer
370
18
48
1
60
0
100
AcDbLine
10
13.826091
20
-2.794
30
0
11
15.024359
21
-2.10218
31
0
39
0
210
0
220
0
230
1
0
LINE
5
B4
100
AcDbEntity
8
SK1
62
256
6
ByLayer
370
18
48
1
60
0
100
AcDbLine
10
-22.24
20
-1.68224
30
0
11
-21.82724
21
-2.095
31
0
39
0
210
0
220
0
230
1
0
LINE
5
B5
100
AcDbEntity
8
SK1
62
256
6
ByLayer
370
18
48
1
60
0
100
AcDbLine
10
-21.82724
20
2.095
30
0
11
-22.24
21
1.68224
31
0
39
0
210
0
220
0
230
1
0
LINE
5
B6
100
AcDbEntity
8
SK1
62
256
6
ByLayer
370
18
48
1
60
0
100
AcDbLine
10
-14.276
20
2.68224
30
0
11
-14.41276
21
2.68224
31
0
39
0
210
0
220
0
230
1
0
LINE
5
B7
100
AcDbEntity
8
SK1
62
256
6
ByLayer
370
18
48
1
60
0
100
AcDbLine
10
-14.41276
20
-2.68224
30
0
11
-14.276
21
-2.68224
31
0
39
0
210
0
220
0
230
1
0
LINE
5
B8
100
AcDbEntity
8
SK1
62
256
6
ByLayer
370
18
48
1
60
0
100
AcDbLine
10
0
20
2.794
30
0
11
-14.16424
21
2.794
31
0
39
0
210
0
220
0
230
1
0
LINE
5
B9
100
AcDbEntity
8
SK1
62
256
6
ByLayer
370
18
48
1
60
0
100
AcDbLine
10
-14.16424
20
-2.794
30
0
11
0
21
-2.794
31
0
39
0
210
0
220
0
230
1
0
LINE
5
BA
100
AcDbEntity
8
SK1
62
256
6
ByLayer
370
18
48
1
60
0
100
AcDbLine
10
-14.276
20
-2.68224
30
0
11
-14.16424
21
-2.794
31
0
39
0
210
0
220
0
230
1
0
LINE
5
BB
100
AcDbEntity
8
SK1
62
256
6
ByLayer
370
18
48
1
60
0
100
AcDbLine
10
-14.16424
20
2.794
30
0
11
-14.276
21
2.68224
31
0
39
0
210
0
220
0
230
1
0
LINE
5
BC
100
AcDbEntity
8
SK2
62
256
6
ByLayer
370
18
48
1
60
0
100
AcDbLine
10
7.830926
20
25.576741
30
0
11
7.830926
21
-10.294
31
0
39
0
210
0
220
0
230
1
0
LINE
5
BE
100
AcDbEntity
8
1
62
256
6
ByLayer
370
18
48
1
60
1
100
AcDbLine
10
7.830926
20
2.794
30
0
11
7.370142
21
6.293998
31
0
39
0
210
0
220
0
230
1
0
LINE
5
BF
100
AcDbEntity
8
1
62
256
6
ByLayer
370
18
48
1
60
1
100
AcDbLine
10
7.370142
20
6.293998
30
0
11
8.291709
21
6.294002
31
0
39
0
210
0
220
0
230
1
0
LINE
5
C0
100
AcDbEntity
8
1
62
256
6
ByLayer
370
18
48
1
60
1
100
AcDbLine
10
8.291709
20
6.294002
30
0
11
7.830926
21
2.794
31
0
39
0
210
0
220
0
230
1
0
LINE
5
C1
100
AcDbEntity
8
1
62
256
6
ByLayer
370
18
48
1
60
1
100
AcDbLine
10
7.830926
20
-2.794
30
0
11
8.291709
21
-6.293998
31
0
39
0
210
0
220
0
230
1
0
LINE
5
C2
100
AcDbEntity
8
1
62
256
6
ByLayer
370
18
48
1
60
1
100
AcDbLine
10
8.291709
20
-6.293998
30
0
11
7.370142
21
-6.294002
31
0
39
0
210
0
220
0
230
1
0
LINE
5
C3
100
AcDbEntity
8
1
62
256
6
ByLayer
370
18
48
1
60
1
100
AcDbLine
10
7.370142
20
-6.294002
30
0
11
7.830926
21
-2.794
31
0
39
0
210
0
220
0
230
1
0
LINE
5
C4
100
AcDbEntity
8
2
62
256
6
ByLayer
370
18
48
1
60
0
100
AcDbLine
10
38.21
20
-40.291803
30
0
11
-22.24
21
-40.291803
31
0
39
0
210
0
220
0
230
1
0
LINE
5
C6
100
AcDbEntity
8
2
62
256
6
ByLayer
370
18
48
1
60
0
100
AcDbLine
10
-22.24
20
-3.26974
30
0
11
-22.24
21
-42.291803
31
0
39
0
210
0
220
0
230
1
0
LINE
5
C7
100
AcDbEntity
8
2
62
256
6
ByLayer
370
18
48
1
60
0
100
AcDbLine
10
38.21
20
-4.379303
30
0
11
38.21
21
-42.291803
31
0
39
0
210
0
220
0
230
1
0
LINE
5
C8
100
AcDbEntity
8
1
62
256
6
ByLayer
370
18
48
1
60
1
100
AcDbLine
10
-22.24
20
-40.291803
30
0
11
-18.740002
21
-39.831019
31
0
39
0
210
0
220
0
230
1
0
LINE
5
C9
100
AcDbEntity
8
1
62
256
6
ByLayer
370
18
48
1
60
1
100
AcDbLine
10
-18.740002
20
-39.831019
30
0
11
-18.739998
21
-40.752587
31
0
39
0
210
0
220
0
230
1
0
LINE
5
CA
100
AcDbEntity
8
1
62
256
6
ByLayer
370
18
48
1
60
1
100
AcDbLine
10
-18.739998
20
-40.752587
30
0
11
-22.24
21
-40.291803
31
0
39
0
210
0
220
0
230
1
0
LINE
5
CB
100
AcDbEntity
8
1
62
256
6
ByLayer
370
18
48
1
60
1
100
AcDbLine
10
38.21
20
-40.291803
30
0
11
34.710002
21
-40.752587
31
0
39
0
210
0
220
0
230
1
0
LINE
5
CC
100
AcDbEntity
8
1
62
256
6
ByLayer
370
18
48
1
60
1
100
AcDbLine
10
34.710002
20
-40.752587
30
0
11
34.709998
21
-39.831019
31
0
39
0
210
0
220
0
230
1
0
LINE
5
CD
100
AcDbEntity
8
1
62
256
6
ByLayer
370
18
48
1
60
1
100
AcDbLine
10
34.709998
20
-39.831019
30
0
11
38.21
21
-40.291803
31
0
39
0
210
0
220
0
230
1
0
LINE
5
1BF
100
AcDbEntity
8
1
62
256
6
ByLayer
370
18
48
1
60
1
100
AcDbLine
10
7.830926
20
2.794
30
0
11
7.370142
21
6.293998
31
0
39
0
210
0
220
0
230
1
0
LINE
5
1C0
100
AcDbEntity
8
1
62
256
6
ByLayer
370
18
48
1
60
1
100
AcDbLine
10
7.370142
20
6.293998
30
0
11
8.291709
21
6.294002
31
0
39
0
210
0
220
0
230
1
0
LINE
5
1C1
100
AcDbEntity
8
1
62
256
6
ByLayer
370
18
48
1
60
1
100
AcDbLine
10
8.291709
20
6.294002
30
0
11
7.830926
21
2.794
31
0
39
0
210
0
220
0
230
1
0
LINE
5
1C3
100
AcDbEntity
8
1
62
256
6
ByLayer
370
18
48
1
60
1
100
AcDbLine
10
7.830926
20
-2.794
30
0
11
8.291709
21
-6.293998
31
0
39
0
210
0
220
0
230
1
0
LINE
5
1C4
100
AcDbEntity
8
1
62
256
6
ByLayer
370
18
48
1
60
1
100
AcDbLine
10
8.291709
20
-6.293998
30
0
11
7.370142
21
-6.294002
31
0
39
0
210
0
220
0
230
1
0
LINE
5
1C5
100
AcDbEntity
8
1
62
256
6
ByLayer
370
18
48
1
60
1
100
AcDbLine
10
7.370142
20
-6.294002
30
0
11
7.830926
21
-2.794
31
0
39
0
210
0
220
0
230
1
0
LINE
5
1C8
100
AcDbEntity
8
1
62
256
6
ByLayer
370
18
48
1
60
1
100
AcDbLine
10
-22.24
20
-40.291803
30
0
11
-18.740002
21
-39.831019
31
0
39
0
210
0
220
0
230
1
0
LINE
5
1C9
100
AcDbEntity
8
1
62
256
6
ByLayer
370
18
48
1
60
1
100
AcDbLine
10
-18.740002
20
-39.831019
30
0
11
-18.739998
21
-40.752587
31
0
39
0
210
0
220
0
230
1
0
LINE
5
1CA
100
AcDbEntity
8
1
62
256
6
ByLayer
370
18
48
1
60
1
100
AcDbLine
10
-18.739998
20
-40.752587
30
0
11
-22.24
21
-40.291803
31
0
39
0
210
0
220
0
230
1
0
LINE
5
1CC
100
AcDbEntity
8
1
62
256
6
ByLayer
370
18
48
1
60
1
100
AcDbLine
10
38.21
20
-40.291803
30
0
11
34.710002
21
-40.752587
31
0
39
0
210
0
220
0
230
1
0
LINE
5
1CD
100
AcDbEntity
8
1
62
256
6
ByLayer
370
18
48
1
60
1
100
AcDbLine
10
34.710002
20
-40.752587
30
0
11
34.709998
21
-39.831019
31
0
39
0
210
0
220
0
230
1
0
LINE
5
1CE
100
AcDbEntity
8
1
62
256
6
ByLayer
370
18
48
1
60
1
100
AcDbLine
10
34.709998
20
-39.831019
30
0
11
38.21
21
-40.291803
31
0
39
0
210
0
220
0
230
1
0
MTEXT
5
1BB
100
AcDbEntity
8
SK2
62
256
6
ByLayer
370
18
48
1
60
0
100
AcDbMText
10
6.489811
20
10.452438
30
0
210
0
220
0
230
1
1
%%c
40
3
41
0
44
1.084337
50
90
71
7
72
5
7
iso_b_vert
0
MTEXT
5
1BE
100
AcDbEntity
8
SK2
62
256
6
ByLayer
370
18
48
1
60
0
100
AcDbMText
10
6.489811
20
16.429
30
0
210
0
220
0
230
1
1
\W0.7468;5.588
40
3
41
0
44
1.084337
50
90
71
7
72
5
7
iso_b_vert
0
MTEXT
5
1C7
100
AcDbEntity
8
2
62
256
6
ByLayer
370
18
48
1
60
0
100
AcDbMText
10
4.465601
20
-39.406689
30
0
210
0
220
0
230
1
1
\W0.7528;60.4
40
3
41
0
44
1.084337
50
0
71
7
72
5
7
iso_b_vert
0
MTEXT
5
1D0
100
AcDbEntity
8
SK6
62
256
6
ByLayer
370
18
48
1
60
0
100
AcDbMText
10
-11.191192
20
-82.114886
30
0
210
0
220
0
230
1
1
\W0.7398;T300-MM100AE-12-24  C145
40
3
41
0
44
1.084337
50
0
71
7
72
5
7
iso_b_vert
0
HATCH
5
1C2
100
AcDbEntity
8
SK2
62
256
6
ByLayer
370
13
48
1
60
0
100
AcDbHatch
10
0
20
0
30
0
210
0
220
0
230
1
2
ANSI31
70
0
71
0
91
1
92
5
93
3
72
1
10
7.83092570237622
20
2.79400000000004
11
7.37014196082345
21
6.29399830744686
72
1
10
7.37014196082345
20
6.29399830744686
11
8.29170944392899
21
6.29400169255322
72
1
10
8.29170944392899
20
6.29400169255322
11
7.83092570237622
21
2.79400000000004
97
0
75
0
76
1
52
0
41
0.0062
77
0
78
1
53
45
43
0
44
0
45
-0.0139193969876572
46
0.0139193969876572
79
0
47
0
98
1
10
0
20
0
0
HATCH
5
1C6
100
AcDbEntity
8
SK2
62
256
6
ByLayer
370
13
48
1
60
0
100
AcDbHatch
10
0
20
0
30
0
210
0
220
0
230
1
2
ANSI31
70
0
71
0
91
1
92
5
93
3
72
1
10
7.83092570237622
20
-2.79399999999998
11
8.29170944392899
21
-6.2939983074468
72
1
10
8.29170944392899
20
-6.2939983074468
11
7.37014196082345
21
-6.29400169255317
72
1
10
7.37014196082345
20
-6.29400169255317
11
7.83092570237622
21
-2.79399999999998
97
0
75
0
76
1
52
0
41
0.0062
77
0
78
1
53
45
43
0
44
0
45
-0.0139193969876572
46
0.0139193969876572
79
0
47
0
98
1
10
0
20
0
0
HATCH
5
1CB
100
AcDbEntity
8
2
62
256
6
ByLayer
370
13
48
1
60
0
100
AcDbHatch
10
0
20
0
30
0
210
0
220
0
230
1
2
ANSI31
70
0
71
0
91
1
92
5
93
3
72
1
10
-22.24
20
-40.29180296272
11
-18.7400016925532
21
-39.8310192211672
72
1
10
-18.7400016925532
20
-39.8310192211672
11
-18.7399983074468
21
-40.7525867042728
72
1
10
-18.7399983074468
20
-40.7525867042728
11
-22.24
21
-40.29180296272
97
0
75
0
76
1
52
0
41
0.0062
77
0
78
1
53
45
43
0
44
0
45
-0.0139193969876572
46
0.0139193969876572
79
0
47
0
98
1
10
0
20
0
0
HATCH
5
1CF
100
AcDbEntity
8
2
62
256
6
ByLayer
370
13
48
1
60
0
100
AcDbHatch
10
0
20
0
30
0
210
0
220
0
230
1
2
ANSI31
70
0
71
0
91
1
92
5
93
3
72
1
10
38.21
20
-40.29180296272
11
34.7100016925532
21
-40.7525867042728
72
1
10
34.7100016925532
20
-40.7525867042728
11
34.7099983074468
21
-39.8310192211672
72
1
10
34.7099983074468
20
-39.8310192211672
11
38.21
21
-40.29180296272
97
0
75
0
76
1
52
0
41
0.0062
77
0
78
1
53
45
43
0
44
0
45
-0.0139193969876572
46
0.0139193969876572
79
0
47
0
98
1
10
0
20
0
0
DIMENSION
5
1D3
100
AcDbEntity
8
2
62
256
6
ByLayer
370
18
48
1
60
0
100
AcDbDimension
2
_U0
10
57.71
20
-2.791803
30
0
11
57.71
21
22.311916
31
0
70
32
71
1
72
1
41
1
210
0
220
0
230
1
3
Standard
100
AcDbAlignedDimension
13
38.21
23
2.791803
33
0
14
38.21
24
-2.791803
34
0
50
90
100
AcDbRotatedDimension
1001
ACAD
1000
DSTYLE
1002
{
1070
   371
1070
    13
1070
   372
1070
    13
1070
     3
1000

1070
   170
1070
     0
1070
   144
1040
1.0
1070
   277
1070
     2
1070
   284
1070
     8
1070
   278
1070
    46
1070
   146
1040
1.166667
1070
   345
1005
16
1070
   347
1005
16
1070
   346
1005
16
1070
   344
1005
0
1070
   343
1005
0
1070
   172
1070
     1
1070
    76
1070
     0
1070
    75
1070
     0
1070
   282
1070
     0
1070
   281
1070
     0
1070
    71
1070
     0
1070
    74
1070
     0
1070
   279
1070
     0
1070
   173
1070
     1
1070
   340
1005
1BC
1070
   271
1070
     3
1070
   272
1070
     3
1070
    77
1070
     1
1070
    73
1070
     0
1070
   171
1070
     3
1070
   274
1070
     4
1070
   177
1070
     2
1070
   176
1070
     2
1070
   178
1070
     2
1070
    78
1070
     8
1070
    48
1040
-0.1
1070
    41
1040
3.5
1070
   147
1040
1.5
1070
    42
1040
1.5875
1070
    44
1040
2.0
1070
   140
1040
3.0
1002
}
1001
ACAD_DSTYLE_DIM_LINETYPE
1070
   380
1005
16
1001
ACAD_DSTYLE_DIM_EXT1_LINETYPE
1070
   381
1005
16
1001
ACAD_DSTYLE_DIM_EXT2_LINETYPE
1070
   382
1005
16
0
DIMENSION
5
1EE
100
AcDbEntity
8
SK2
62
256
6
ByLayer
370
18
48
1
60
0
100
AcDbDimension
2
_U1
10
-27.24
20
2.095
30
0
11
-27.24
21
22.323569
31
0
70
32
71
1
72
1
41
1
210
0
220
0
230
1
3
Standard
100
AcDbAlignedDimension
13
-21.24
23
-2.095
33
0
14
-21.24
24
2.095
34
0
50
90
100
AcDbRotatedDimension
1001
ACAD
1000
DSTYLE
1002
{
1070
   371
1070
    13
1070
   372
1070
    13
1070
     3
1000

1070
   170
1070
     0
1070
   144
1040
1.0
1070
   277
1070
     2
1070
   284
1070
     8
1070
   278
1070
    46
1070
   146
1040
1.166667
1070
   345
1005
16
1070
   347
1005
16
1070
   346
1005
16
1070
   344
1005
0
1070
   343
1005
0
1070
   172
1070
     1
1070
    76
1070
     0
1070
    75
1070
     0
1070
   282
1070
     0
1070
   281
1070
     0
1070
    71
1070
     0
1070
    74
1070
     0
1070
   279
1070
     0
1070
   173
1070
     1
1070
   340
1005
1BC
1070
   271
1070
     3
1070
   272
1070
     3
1070
    77
1070
     1
1070
    73
1070
     0
1070
   171
1070
     3
1070
   274
1070
     4
1070
   177
1070
     2
1070
   176
1070
     2
1070
   178
1070
     2
1070
    78
1070
     8
1070
    48
1040
-0.1
1070
    41
1040
3.5
1070
   147
1040
1.5
1070
    42
1040
1.5875
1070
    44
1040
2.0
1070
   140
1040
3.0
1002
}
1001
ACAD_DSTYLE_DIM_LINETYPE
1070
   380
1005
16
1001
ACAD_DSTYLE_DIM_EXT1_LINETYPE
1070
   381
1005
16
1001
ACAD_DSTYLE_DIM_EXT2_LINETYPE
1070
   382
1005
16
0
DIMENSION
5
208
100
AcDbEntity
8
SK2
62
256
6
ByLayer
370
18
48
1
60
0
100
AcDbDimension
2
_U2
10
35.83
20
11.705521
30
0
11
37.02
21
11.705521
31
0
70
32
71
1
72
1
41
1
210
0
220
0
230
1
3
Standard
100
AcDbAlignedDimension
13
38.21
23
2.791803
33
0
14
35.83
24
0
34
0
50
0
100
AcDbRotatedDimension
1001
ACAD
1000
DSTYLE
1002
{
1070
   371
1070
    13
1070
   372
1070
    13
1070
   170
1070
     0
1070
   144
1040
1.0
1070
   277
1070
     2
1070
   284
1070
     8
1070
   278
1070
    46
1070
   146
1040
1.166667
1070
   345
1005
16
1070
   347
1005
16
1070
   346
1005
16
1070
   344
1005
0
1070
   343
1005
0
1070
   172
1070
     1
1070
    76
1070
     0
1070
    75
1070
     0
1070
   282
1070
     0
1070
   281
1070
     0
1070
    71
1070
     0
1070
    74
1070
     0
1070
   279
1070
     0
1070
   173
1070
     1
1070
   340
1005
1BC
1070
   271
1070
     3
1070
   272
1070
     3
1070
    77
1070
     1
1070
    73
1070
     1
1070
   171
1070
     3
1070
   274
1070
     4
1070
   177
1070
     2
1070
   176
1070
     2
1070
   178
1070
     2
1070
    78
1070
     8
1070
    48
1040
-0.1
1070
    41
1040
3.5
1070
   147
1040
1.5
1070
    42
1040
1.5875
1070
    44
1040
2.0
1070
   140
1040
3.0
1002
}
1001
ACAD_DSTYLE_DIM_LINETYPE
1070
   380
1005
16
1001
ACAD_DSTYLE_DIM_EXT1_LINETYPE
1070
   381
1005
16
1001
ACAD_DSTYLE_DIM_EXT2_LINETYPE
1070
   382
1005
16
0
DIMENSION
5
222
100
AcDbEntity
8
SK2
62
256
6
ByLayer
370
18
48
1
60
0
100
AcDbDimension
2
_U3
10
30.21
20
-9.791803
30
0
11
31.931387
21
-9.791803
31
0
70
32
71
1
72
1
41
1
210
0
220
0
230
1
3
Standard
100
AcDbAlignedDimension
13
38.21
23
-2.791803
33
0
14
30.21
24
-2.791803
34
0
50
0
100
AcDbRotatedDimension
1001
ACAD
1000
DSTYLE
1002
{
1070
   371
1070
    13
1070
   372
1070
    13
1070
   170
1070
     0
1070
   144
1040
1.0
1070
   277
1070
     2
1070
   284
1070
     8
1070
   278
1070
    46
1070
   146
1040
1.166667
1070
   345
1005
16
1070
   347
1005
16
1070
   346
1005
16
1070
   344
1005
0
1070
   343
1005
0
1070
   172
1070
     1
1070
    76
1070
     0
1070
    75
1070
     0
1070
   282
1070
     0
1070
   281
1070
     0
1070
    71
1070
     0
1070
    74
1070
     0
1070
   279
1070
     0
1070
   173
1070
     1
1070
   340
1005
1BC
1070
   271
1070
     1
1070
   272
1070
     3
1070
    77
1070
     1
1070
    73
1070
     1
1070
   171
1070
     3
1070
   274
1070
     4
1070
   177
1070
     2
1070
   176
1070
     2
1070
   178
1070
     2
1070
    78
1070
     8
1070
    48
1040
-0.1
1070
    41
1040
3.5
1070
   147
1040
1.5
1070
    42
1040
1.5875
1070
    44
1040
2.0
1070
   140
1040
3.0
1002
}
1001
ACAD_DSTYLE_DIM_LINETYPE
1070
   380
1005
16
1001
ACAD_DSTYLE_DIM_EXT1_LINETYPE
1070
   381
1005
16
1001
ACAD_DSTYLE_DIM_EXT2_LINETYPE
1070
   382
1005
16
0
DIMENSION
5
23B
100
AcDbEntity
8
SK2
62
256
6
ByLayer
370
18
48
1
60
0
100
AcDbDimension
2
_U4
10
15.21
20
-32.291803
30
0
11
26.71
21
-32.291803
31
0
70
32
71
1
72
1
41
1
210
0
220
0
230
1
3
Standard
100
AcDbAlignedDimension
13
38.21
23
-2.791803
33
0
14
15.21
24
-1.995
34
0
50
0
100
AcDbRotatedDimension
1001
ACAD
1000
DSTYLE
1002
{
1070
   371
1070
    13
1070
   372
1070
    13
1070
   170
1070
     0
1070
   144
1040
1.0
1070
   277
1070
     2
1070
   284
1070
     8
1070
   278
1070
    46
1070
   146
1040
1.166667
1070
   345
1005
16
1070
   347
1005
16
1070
   346
1005
16
1070
   344
1005
0
1070
   343
1005
0
1070
   172
1070
     1
1070
    76
1070
     0
1070
    75
1070
     0
1070
   282
1070
     0
1070
   281
1070
     0
1070
    71
1070
     0
1070
    74
1070
     0
1070
   279
1070
     0
1070
   173
1070
     1
1070
   340
1005
1BC
1070
   271
1070
     1
1070
   272
1070
     3
1070
    77
1070
     1
1070
    73
1070
     1
1070
   171
1070
     3
1070
   274
1070
     4
1070
   177
1070
     2
1070
   176
1070
     2
1070
   178
1070
     2
1070
    78
1070
     8
1070
    48
1040
-0.1
1070
    41
1040
3.5
1070
   147
1040
1.5
1070
    42
1040
1.5875
1070
    44
1040
2.0
1070
   140
1040
3.0
1002
}
1001
ACAD_DSTYLE_DIM_LINETYPE
1070
   380
1005
16
1001
ACAD_DSTYLE_DIM_EXT1_LINETYPE
1070
   381
1005
16
1001
ACAD_DSTYLE_DIM_EXT2_LINETYPE
1070
   382
1005
16
0
DIMENSION
5
253
100
AcDbEntity
8
2
62
256
6
ByLayer
370
18
48
1
60
0
100
AcDbDimension
2
_U5
10
16.71
20
-21.291803
30
0
11
27.46
21
-21.291803
31
0
70
32
71
1
72
1
41
1
210
0
220
0
230
1
3
Standard
100
AcDbAlignedDimension
13
38.21
23
-2.791803
33
0
14
16.71
24
0
34
0
50
0
100
AcDbRotatedDimension
1001
ACAD
1000
DSTYLE
1002
{
1070
   371
1070
    13
1070
   372
1070
    13
1070
   170
1070
     0
1070
   144
1040
1.0
1070
   277
1070
     2
1070
   284
1070
     8
1070
   278
1070
    46
1070
   146
1040
1.166667
1070
   345
1005
16
1070
   347
1005
16
1070
   346
1005
16
1070
   344
1005
0
1070
   343
1005
0
1070
   172
1070
     1
1070
    76
1070
     0
1070
    75
1070
     0
1070
   282
1070
     0
1070
   281
1070
     0
1070
    71
1070
     0
1070
    74
1070
     0
1070
   279
1070
     0
1070
   173
1070
     1
1070
   340
1005
1BC
1070
   271
1070
     1
1070
   272
1070
     3
1070
    77
1070
     1
1070
    73
1070
     1
1070
   171
1070
     3
1070
   274
1070
     4
1070
   177
1070
     2
1070
   176
1070
     2
1070
   178
1070
     2
1070
    78
1070
     8
1070
    48
1040
-0.1
1070
    41
1040
3.5
1070
   147
1040
1.5
1070
    42
1040
1.5875
1070
    44
1040
2.0
1070
   140
1040
3.0
1002
}
1001
ACAD_DSTYLE_DIM_LINETYPE
1070
   380
1005
16
1001
ACAD_DSTYLE_DIM_EXT1_LINETYPE
1070
   381
1005
16
1001
ACAD_DSTYLE_DIM_EXT2_LINETYPE
1070
   382
1005
16
0
ENDSEC
0
SECTION
2
OBJECTS
0
DICTIONARY
5
2db
330
0
100
AcDbDictionary
280
0
281
1
3
ACAD_GROUP
350
2dc
3
ACAD_MLINESTYLE
350
2dd
0
DICTIONARY
5
2dc
330
0
100
AcDbDictionary
280
0
281
1
0
DICTIONARY
5
2dd
330
0
100
AcDbDictionary
280
0
281
1
3
Standard
350
18
0
MLINESTYLE
5
18
330
2dd
100
AcDbMlineStyle
2
Standard
70
0
3

62
256
51
90
52
90
71
2
49
-0.5
62
256
6
ByLayer
49
0.5
62
256
6
ByLayer
0
RASTERVARIABLES
5
2c9
330

100
AcDbRasterVariables
90
0
70
1
71
1
72
1
0
ENDSEC
0
EOF
