0
SECTION
2
HEADER
9
$ACADVER
1
AC1015
9
$DWGCODEPAGE
3
ANSI_1252
9
$HANDSEED
5
318
9
$ANGBASE
50
0
9
$ANGDIR
70
0
9
$ATTMODE
70
1
9
$AUNITS
70
0
9
$AUPREC
70
0
9
$CECOLOR
62
256
9
$CELTSCALE
40
1
9
$CELTYPE
6
ByLayer
9
$CELWEIGHT
370
18
9
$CLAYER
8
0
9
$CMLJUST
70
0
9
$CMLSCALE
40
1
9
$CMLSTYLE
2
Standard
9
$DIMSTYLE
2
Standard
9
$TEXTSIZE
40
0.2
9
$TEXTSTYLE
7
Standard
9
$LUNITS
70
2
9
$LUPREC
70
4
9
$EXTNAMES
290
1
9
$INSUNITS
70
4
9
$LTSCALE
40
1
9
$LWDISPLAY
290
1
9
$PDMODE
70
0
9
$PDSIZE
40
0
9
$PLINEGEN
70
0
0
ENDSEC
0
SECTION
2
CLASSES
0
CLASS
1
RASTERVARIABLES
2
AcDbRasterVariables
3
ISM
90
0
280
0
281
0
0
ENDSEC
0
SECTION
2
TABLES
0
TABLE
2
VPORT
5
30e
100
AcDbSymbolTable
0
VPORT
5
1
100
AcDbSymbolTableRecord
100
AcDbViewportTableRecord
2
*Active
70
0
10
0
20
0
11
1
21
1
12
-1
22
1
13
0
23
0
14
0.5
24
0.5
15
10
25
10
16
0
26
0
36
1
17
0
27
0
37
0
0
ENDTAB
0
TABLE
2
LTYPE
5
30f
100
AcDbSymbolTable
0
LTYPE
5
14
100
AcDbSymbolTableRecord
100
AcDbLinetypeTableRecord
70
0
2
ByBlock
3

72
65
73
0
40
0
0
LTYPE
5
15
100
AcDbSymbolTableRecord
100
AcDbLinetypeTableRecord
70
0
2
ByLayer
3

72
65
73
0
40
0
0
LTYPE
5
16
100
AcDbSymbolTableRecord
100
AcDbLinetypeTableRecord
70
0
2
Continuous
3
Solid line
72
65
73
0
40
0
0
LTYPE
5
6E
100
AcDbSymbolTableRecord
100
AcDbLinetypeTableRecord
70
0
2
CENTER
3
____ _ ____ _ ____ _ ____
72
65
73
4
40
47.5
49
22
74
0
49
-8.5
74
0
49
8.5
74
0
49
-8.5
74
0
0
LTYPE
5
6F
100
AcDbSymbolTableRecord
100
AcDbLinetypeTableRecord
70
0
2
DASHED
3
__ __ __ __ __ __ __ __ __
72
65
73
2
40
25.72
49
12.86
74
0
49
-12.86
74
0
0
ENDTAB
0
TABLE
2
LAYER
5
310
100
AcDbSymbolTable
0
LAYER
5
10
100
AcDbSymbolTableRecord
100
AcDbLayerTableRecord
2
0
70
0
62
7
6
Continuous
290
1
370
-3
390
0
0
LAYER
5
71
100
AcDbSymbolTableRecord
100
AcDbLayerTableRecord
2
80
70
0
62
-6
6
Continuous
290
1
370
-3
390
0
0
LAYER
5
73
100
AcDbSymbolTableRecord
100
AcDbLayerTableRecord
2
81
70
0
62
-3
6
Continuous
290
1
370
-3
390
0
0
LAYER
5
75
100
AcDbSymbolTableRecord
100
AcDbLayerTableRecord
2
1
70
0
62
4
6
Continuous
290
1
370
-3
390
0
0
LAYER
5
83
100
AcDbSymbolTableRecord
100
AcDbLayerTableRecord
2
4
70
0
62
-2
6
CENTER
290
1
370
-3
390
0
0
LAYER
5
CC
100
AcDbSymbolTableRecord
100
AcDbLayerTableRecord
2
2
70
0
62
7
6
Continuous
290
1
370
-3
390
0
0
LAYER
5
206
100
AcDbSymbolTableRecord
100
AcDbLayerTableRecord
2
Defpoints
70
0
62
7
6
Continuous
290
0
370
-3
390
0
0
LAYER
5
2fa
100
AcDbSymbolTableRecord
100
AcDbLayerTableRecord
2
SK4
70
0
62
2
6
CENTER
290
1
370
-3
390
0
0
LAYER
5
2fb
100
AcDbSymbolTableRecord
100
AcDbLayerTableRecord
2
SK1
70
0
62
4
6
Continuous
290
1
370
-3
390
0
0
LAYER
5
2fc
100
AcDbSymbolTableRecord
100
AcDbLayerTableRecord
2
SK2
70
0
62
7
6
Continuous
290
1
370
-3
390
0
0
LAYER
5
2fd
100
AcDbSymbolTableRecord
100
AcDbLayerTableRecord
2
SK6
70
0
62
5
6
Continuous
290
1
370
-3
390
0
0
ENDTAB
0
TABLE
2
STYLE
5
311
100
AcDbSymbolTable
0
STYLE
5
11
100
AcDbSymbolTableRecord
100
AcDbTextStyleTableRecord
2
Standard
3
txt
70
0
71
0
40
0
41
1
42
0
50
0
0
STYLE
5
1EC
100
AcDbSymbolTableRecord
100
AcDbTextStyleTableRecord
2
iso_b_vert
3
simplex.shx
70
0
71
0
40
0
41
1
42
0
50
0
0
STYLE
5
1ED
100
AcDbSymbolTableRecord
100
AcDbTextStyleTableRecord
2
DWGDirectTextStyle
3
simplex
70
0
71
0
40
0
41
1
42
0
50
0
0
ENDTAB
0
TABLE
2
DIMSTYLE
5
312
100
AcDbSymbolTable
100
AcDbDimStyleTable
0
DIMSTYLE
105
27
100
AcDbSymbolTableRecord
100
AcDbDimStyleTableRecord
2
Standard
70
0
3
<>
41
0.18
42
0.0625
44
0.18
140
0.18
147
0.09
73
0
74
0
77
1
271
2
275
0
278
52
280
0
340
11
0
ENDTAB
0
TABLE
2
VIEW
5
313
100
AcDbSymbolTable
0
ENDTAB
0
TABLE
2
UCS
5
314
100
AcDbSymbolTable
0
ENDTAB
0
TABLE
2
APPID
5
315
100
AcDbSymbolTable
0
APPID
5
12
100
AcDbSymbolTableRecord
100
AcDbRegAppTableRecord
2
ACAD
70
0
0
APPID
5
202
100
AcDbSymbolTableRecord
100
AcDbRegAppTableRecord
2
ACAD_DSTYLE_DIMBREAK
70
0
0
APPID
5
2B9
100
AcDbSymbolTableRecord
100
AcDbRegAppTableRecord
2
ACAD_DSTYLE_DIM_LINETYPE
70
0
0
APPID
5
2BA
100
AcDbSymbolTableRecord
100
AcDbRegAppTableRecord
2
ACAD_DSTYLE_DIM_EXT1_LINETYPE
70
0
0
APPID
5
2BB
100
AcDbSymbolTableRecord
100
AcDbRegAppTableRecord
2
ACAD_DSTYLE_DIM_EXT2_LINETYPE
70
0
0
APPID
5
2F6
100
AcDbSymbolTableRecord
100
AcDbRegAppTableRecord
2
ACAD_MLEADERVER
70
0
0
ENDTAB
0
TABLE
2
BLOCK_RECORD
5
316
100
AcDbSymbolTable
0
BLOCK_RECORD
5
1F
100
AcDbSymbolTableRecord
100
AcDbBlockTableRecord
2
*Model_Space
340
0
70
0
0
BLOCK_RECORD
5
1B
100
AcDbSymbolTableRecord
100
AcDbBlockTableRecord
2
*Paper_Space
340
0
70
0
0
BLOCK_RECORD
5
23
100
AcDbSymbolTableRecord
100
AcDbBlockTableRecord
2
*Paper_Space0
340
0
70
0
0
BLOCK_RECORD
5
207
100
AcDbSymbolTableRecord
100
AcDbBlockTableRecord
2
*D1
340
0
70
0
0
BLOCK_RECORD
5
215
100
AcDbSymbolTableRecord
100
AcDbBlockTableRecord
2
_U0
340
0
70
0
0
BLOCK_RECORD
5
221
100
AcDbSymbolTableRecord
100
AcDbBlockTableRecord
2
*D3
340
0
70
0
0
BLOCK_RECORD
5
22F
100
AcDbSymbolTableRecord
100
AcDbBlockTableRecord
2
_U1
340
0
70
0
0
BLOCK_RECORD
5
23B
100
AcDbSymbolTableRecord
100
AcDbBlockTableRecord
2
*D5
340
0
70
0
0
BLOCK_RECORD
5
248
100
AcDbSymbolTableRecord
100
AcDbBlockTableRecord
2
_U2
340
0
70
0
0
BLOCK_RECORD
5
255
100
AcDbSymbolTableRecord
100
AcDbBlockTableRecord
2
*D7
340
0
70
0
0
BLOCK_RECORD
5
262
100
AcDbSymbolTableRecord
100
AcDbBlockTableRecord
2
_U3
340
0
70
0
0
BLOCK_RECORD
5
26E
100
AcDbSymbolTableRecord
100
AcDbBlockTableRecord
2
*D9
340
0
70
0
0
BLOCK_RECORD
5
27A
100
AcDbSymbolTableRecord
100
AcDbBlockTableRecord
2
_U4
340
0
70
0
0
BLOCK_RECORD
5
286
100
AcDbSymbolTableRecord
100
AcDbBlockTableRecord
2
*D11
340
0
70
0
0
BLOCK_RECORD
5
292
100
AcDbSymbolTableRecord
100
AcDbBlockTableRecord
2
_U5
340
0
70
0
0
ENDTAB
0
ENDSEC
0
SECTION
2
BLOCKS
0
BLOCK
5
20
100
AcDbEntity
8
0
100
AcDbBlockBegin
2
*Model_Space
70
0
10
0
20
0
30
0
3
*Model_Space
0
ENDBLK
5
21
100
AcDbEntity
8
0
100
AcDbBlockEnd
0
BLOCK
5
1C
100
AcDbEntity
8
0
100
AcDbBlockBegin
2
*Paper_Space
70
0
10
0
20
0
30
0
3
*Paper_Space
0
ENDBLK
5
1D
100
AcDbEntity
8
0
100
AcDbBlockEnd
0
BLOCK
5
24
100
AcDbEntity
8
0
100
AcDbBlockBegin
2
*Paper_Space0
70
0
10
0
20
0
30
0
3
*Paper_Space0
0
ENDBLK
5
25
100
AcDbEntity
8
0
100
AcDbBlockEnd
0
BLOCK
5
208
100
AcDbEntity
8
0
100
AcDbBlockBegin
2
*D1
70
1
10
0
20
0
30
0
3
*D1
0
LINE
5
20A
100
AcDbEntity
8
0
62
256
6
ByLayer
370
-2
48
1
60
0
100
AcDbLine
10
49.5875
20
4.064208
30
0
11
69.5
21
4.064208
31
0
39
0
210
0
220
0
230
1
0
LINE
5
20B
100
AcDbEntity
8
0
62
256
6
ByLayer
370
-2
48
1
60
0
100
AcDbLine
10
49.5875
20
-4.064208
30
0
11
69.5
21
-4.064208
31
0
39
0
210
0
220
0
230
1
0
LINE
5
20C
100
AcDbEntity
8
0
62
256
6
ByLayer
370
-2
48
1
60
0
100
AcDbLine
10
67.5
20
4.064208
30
0
11
67.5
21
32.064208
31
0
39
0
210
0
220
0
230
1
0
LINE
5
20D
100
AcDbEntity
8
0
62
256
6
ByLayer
370
-2
48
1
60
0
100
AcDbLine
10
67.5
20
7.564208
30
0
11
67.5
21
11.064208
31
0
39
0
210
0
220
0
230
1
0
LINE
5
20E
100
AcDbEntity
8
0
62
256
6
ByLayer
370
-2
48
1
60
0
100
AcDbLine
10
67.5
20
-7.564208
30
0
11
67.5
21
-11.064208
31
0
39
0
210
0
220
0
230
1
0
SOLID
5
20F
100
AcDbEntity
8
0
62
256
6
ByLayer
370
-1
48
1
60
0
100
AcDbTrace
10
66.916667
20
7.564208
30
0
11
68.083333
21
7.564208
31
0
12
67.5
22
4.064208
32
0
13
67.5
23
4.064208
33
0
39
0
210
0
220
0
230
1
0
SOLID
5
210
100
AcDbEntity
8
0
62
256
6
ByLayer
370
-1
48
1
60
0
100
AcDbTrace
10
68.083333
20
-7.564208
30
0
11
66.916667
21
-7.564208
31
0
12
67.5
22
-4.064208
32
0
13
67.5
23
-4.064208
33
0
39
0
210
0
220
0
230
1
0
MTEXT
5
211
100
AcDbEntity
8
0
62
256
6
ByLayer
370
18
48
1
60
0
100
AcDbMText
10
61.5
20
21.564208
30
0
210
0
220
0
230
1
1
\A1;8.128
40
3
41
0
44
1
50
90
71
5
72
5
7
iso_b_vert
0
POINT
5
212
100
AcDbEntity
8
Defpoints
62
0
6
ByLayer
370
-1
48
1
60
0
100
AcDbPoint
10
48
20
4.064208
30
0
39
0
210
0
220
0
230
1
50
360
0
POINT
5
213
100
AcDbEntity
8
Defpoints
62
0
6
ByLayer
370
-1
48
1
60
0
100
AcDbPoint
10
48
20
-4.064208
30
0
39
0
210
0
220
0
230
1
50
360
0
POINT
5
214
100
AcDbEntity
8
Defpoints
62
0
6
ByLayer
370
-1
48
1
60
0
100
AcDbPoint
10
67.5
20
-4.064208
30
0
39
0
210
0
220
0
230
1
50
360
0
ENDBLK
5
209
100
AcDbEntity
8
0
100
AcDbBlockEnd
0
BLOCK
5
21C
100
AcDbEntity
8
0
100
AcDbBlockBegin
2
_U0
70
0
10
0
20
0
30
0
3
_U0
0
MTEXT
5
216
100
AcDbEntity
8
2
62
256
6
ByLayer
370
18
48
1
60
0
100
AcDbMText
10
66.908886
20
14.199208
30
0
210
0
220
0
230
1
1
\W0.7203;M8
40
3
41
0
44
1.084337
50
90
71
7
72
5
7
iso_b_vert
0
LINE
5
217
100
AcDbEntity
8
2
62
256
6
ByLayer
370
13
48
1
60
0
100
AcDbLine
10
49.5875
20
4.064208
30
0
11
69.5
21
4.064208
31
0
39
0
210
0
220
0
230
1
0
LINE
5
218
100
AcDbEntity
8
2
62
256
6
ByLayer
370
13
48
1
60
0
100
AcDbLine
10
49.5875
20
-4.064208
30
0
11
69.5
21
-4.064208
31
0
39
0
210
0
220
0
230
1
0
LINE
5
219
100
AcDbEntity
8
2
62
256
6
ByLayer
370
13
48
1
60
0
100
AcDbLine
10
67.5
20
-4.064208
30
0
11
67.5
21
18.319008
31
0
39
0
210
0
220
0
230
1
0
SOLID
5
21A
100
AcDbEntity
8
2
62
256
6
ByLayer
370
18
48
1
60
0
100
AcDbTrace
10
67.5
20
4.064208
30
0
11
67.960784
21
0.56421
31
0
12
67.039216
22
0.564207
32
0
13
67.039216
23
0.564207
33
0
39
0
210
0
220
0
230
1
0
SOLID
5
21B
100
AcDbEntity
8
2
62
256
6
ByLayer
370
18
48
1
60
0
100
AcDbTrace
10
67.5
20
-4.064208
30
0
11
67.039216
21
-0.56421
31
0
12
67.960784
22
-0.564207
32
0
13
67.960784
23
-0.564207
33
0
39
0
210
0
220
0
230
1
0
ENDBLK
5
21D
100
AcDbEntity
8
0
100
AcDbBlockEnd
0
BLOCK
5
222
100
AcDbEntity
8
0
100
AcDbBlockBegin
2
*D3
70
1
10
0
20
0
30
0
3
*D3
0
LINE
5
224
100
AcDbEntity
8
0
62
256
6
ByLayer
370
-2
48
1
60
0
100
AcDbLine
10
-24.3875
20
-3.15
30
0
11
-30.9
21
-3.15
31
0
39
0
210
0
220
0
230
1
0
LINE
5
225
100
AcDbEntity
8
0
62
256
6
ByLayer
370
-2
48
1
60
0
100
AcDbLine
10
-25.0775
20
3.15
30
0
11
-30.9
21
3.15
31
0
39
0
210
0
220
0
230
1
0
LINE
5
226
100
AcDbEntity
8
0
62
256
6
ByLayer
370
-2
48
1
60
0
100
AcDbLine
10
-28.9
20
3.15
30
0
11
-28.9
21
25.292857
31
0
39
0
210
0
220
0
230
1
0
LINE
5
227
100
AcDbEntity
8
0
62
256
6
ByLayer
370
-2
48
1
60
0
100
AcDbLine
10
-28.9
20
-6.65
30
0
11
-28.9
21
-10.15
31
0
39
0
210
0
220
0
230
1
0
LINE
5
228
100
AcDbEntity
8
0
62
256
6
ByLayer
370
-2
48
1
60
0
100
AcDbLine
10
-28.9
20
6.65
30
0
11
-28.9
21
10.15
31
0
39
0
210
0
220
0
230
1
0
SOLID
5
229
100
AcDbEntity
8
0
62
256
6
ByLayer
370
-1
48
1
60
0
100
AcDbTrace
10
-28.316667
20
-6.65
30
0
11
-29.483333
21
-6.65
31
0
12
-28.9
22
-3.15
32
0
13
-28.9
23
-3.15
33
0
39
0
210
0
220
0
230
1
0
SOLID
5
22A
100
AcDbEntity
8
0
62
256
6
ByLayer
370
-1
48
1
60
0
100
AcDbTrace
10
-29.483333
20
6.65
30
0
11
-28.316667
21
6.65
31
0
12
-28.9
22
3.15
32
0
13
-28.9
23
3.15
33
0
39
0
210
0
220
0
230
1
0
MTEXT
5
22B
100
AcDbEntity
8
0
62
256
6
ByLayer
370
18
48
1
60
0
100
AcDbMText
10
-34.9
20
17.721429
30
0
210
0
220
0
230
1
1
\A1;6.3
40
3
41
0
44
1
50
90
71
5
72
5
7
iso_b_vert
0
POINT
5
22C
100
AcDbEntity
8
Defpoints
62
0
6
ByLayer
370
-1
48
1
60
0
100
AcDbPoint
10
-22.8
20
-3.15
30
0
39
0
210
0
220
0
230
1
50
360
0
POINT
5
22D
100
AcDbEntity
8
Defpoints
62
0
6
ByLayer
370
-1
48
1
60
0
100
AcDbPoint
10
-23.49
20
3.15
30
0
39
0
210
0
220
0
230
1
50
360
0
POINT
5
22E
100
AcDbEntity
8
Defpoints
62
0
6
ByLayer
370
-1
48
1
60
0
100
AcDbPoint
10
-28.9
20
3.15
30
0
39
0
210
0
220
0
230
1
50
360
0
ENDBLK
5
223
100
AcDbEntity
8
0
100
AcDbBlockEnd
0
BLOCK
5
236
100
AcDbEntity
8
0
100
AcDbBlockBegin
2
_U1
70
0
10
0
20
0
30
0
3
_U1
0
MTEXT
5
230
100
AcDbEntity
8
SK2
62
256
6
ByLayer
370
18
48
1
60
0
100
AcDbMText
10
-29.491114
20
11.135
30
0
210
0
220
0
230
1
1
\W0.7161;8 x 6.3
40
3
41
0
44
1.084337
50
90
71
7
72
5
7
iso_b_vert
0
LINE
5
231
100
AcDbEntity
8
SK2
62
256
6
ByLayer
370
13
48
1
60
0
100
AcDbLine
10
-24.3875
20
-3.15
30
0
11
-30.9
21
-3.15
31
0
39
0
210
0
220
0
230
1
0
LINE
5
232
100
AcDbEntity
8
SK2
62
256
6
ByLayer
370
13
48
1
60
0
100
AcDbLine
10
-25.0775
20
3.15
30
0
11
-30.9
21
3.15
31
0
39
0
210
0
220
0
230
1
0
LINE
5
233
100
AcDbEntity
8
SK2
62
256
6
ByLayer
370
13
48
1
60
0
100
AcDbLine
10
-28.9
20
23.898398
30
0
11
-28.9
21
-10.65
31
0
39
0
210
0
220
0
230
1
0
SOLID
5
234
100
AcDbEntity
8
SK2
62
256
6
ByLayer
370
18
48
1
60
0
100
AcDbTrace
10
-28.9
20
-3.15
30
0
11
-28.439216
21
-6.649998
31
0
12
-29.360784
22
-6.650002
32
0
13
-29.360784
23
-6.650002
33
0
39
0
210
0
220
0
230
1
0
SOLID
5
235
100
AcDbEntity
8
SK2
62
256
6
ByLayer
370
18
48
1
60
0
100
AcDbTrace
10
-28.9
20
3.15
30
0
11
-29.360784
21
6.649998
31
0
12
-28.439216
22
6.650002
32
0
13
-28.439216
23
6.650002
33
0
39
0
210
0
220
0
230
1
0
ENDBLK
5
237
100
AcDbEntity
8
0
100
AcDbBlockEnd
0
BLOCK
5
23C
100
AcDbEntity
8
0
100
AcDbBlockBegin
2
*D5
70
1
10
0
20
0
30
0
3
*D5
0
LINE
5
23E
100
AcDbEntity
8
0
62
256
6
ByLayer
370
-2
48
1
60
0
100
AcDbLine
10
48
20
5.651708
30
0
11
48
21
15.015325
31
0
39
0
210
0
220
0
230
1
0
LINE
5
23F
100
AcDbEntity
8
0
62
256
6
ByLayer
370
-2
48
1
60
0
100
AcDbLine
10
45.19
20
1.5875
30
0
11
45.19
21
15.015325
31
0
39
0
210
0
220
0
230
1
0
LINE
5
240
100
AcDbEntity
8
0
62
256
6
ByLayer
370
-2
48
1
60
0
100
AcDbLine
10
51.5
20
13.015325
30
0
11
55
21
13.015325
31
0
39
0
210
0
220
0
230
1
0
LINE
5
241
100
AcDbEntity
8
0
62
256
6
ByLayer
370
-2
48
1
60
0
100
AcDbLine
10
41.69
20
13.015325
30
0
11
38.19
21
13.015325
31
0
39
0
210
0
220
0
230
1
0
SOLID
5
242
100
AcDbEntity
8
0
62
256
6
ByLayer
370
-1
48
1
60
0
100
AcDbTrace
10
51.5
20
13.598659
30
0
11
51.5
21
12.431992
31
0
12
48
22
13.015325
32
0
13
48
23
13.015325
33
0
39
0
210
0
220
0
230
1
0
SOLID
5
243
100
AcDbEntity
8
0
62
256
6
ByLayer
370
-1
48
1
60
0
100
AcDbTrace
10
41.69
20
12.431992
30
0
11
41.69
21
13.598659
31
0
12
45.19
22
13.015325
32
0
13
45.19
23
13.015325
33
0
39
0
210
0
220
0
230
1
0
MTEXT
5
244
100
AcDbEntity
8
0
62
256
6
ByLayer
370
18
48
1
60
0
100
AcDbMText
10
46.595
20
19.015325
30
0
210
0
220
0
230
1
1
\A1;2.81
40
3
41
0
44
1
50
0
71
5
72
5
7
iso_b_vert
0
POINT
5
245
100
AcDbEntity
8
Defpoints
62
0
6
ByLayer
370
-1
48
1
60
0
100
AcDbPoint
10
48
20
4.064208
30
0
39
0
210
0
220
0
230
1
50
360
0
POINT
5
246
100
AcDbEntity
8
Defpoints
62
0
6
ByLayer
370
-1
48
1
60
0
100
AcDbPoint
10
45.19
20
0
30
0
39
0
210
0
220
0
230
1
50
360
0
POINT
5
247
100
AcDbEntity
8
Defpoints
62
0
6
ByLayer
370
-1
48
1
60
0
100
AcDbPoint
10
45.19
20
13.015325
30
0
39
0
210
0
220
0
230
1
50
360
0
ENDBLK
5
23D
100
AcDbEntity
8
0
100
AcDbBlockEnd
0
BLOCK
5
250
100
AcDbEntity
8
0
100
AcDbBlockBegin
2
_U2
70
0
10
0
20
0
30
0
3
_U2
0
MTEXT
5
249
100
AcDbEntity
8
SK2
62
256
6
ByLayer
370
18
48
1
60
0
100
AcDbMText
10
43.634986
20
13.797959
30
0
210
0
220
0
230
1
1
\W0.6474;'C'
40
3.5
41
0
44
1.084337
50
0
71
7
72
5
7
iso_b_vert
0
MTEXT
5
24A
100
AcDbEntity
8
SK2
62
256
6
ByLayer
370
18
48
1
60
0
100
AcDbMText
10
43.608486
20
20.90044
30
0
210
0
220
0
230
1
1
\W0.7208;2.81
40
3
41
0
44
1.084337
50
0
71
7
72
5
7
iso_b_vert
0
LINE
5
24B
100
AcDbEntity
8
SK2
62
256
6
ByLayer
370
13
48
1
60
0
100
AcDbLine
10
48
20
5.651708
30
0
11
48
21
15.015325
31
0
39
0
210
0
220
0
230
1
0
LINE
5
24C
100
AcDbEntity
8
SK2
62
256
6
ByLayer
370
13
48
1
60
0
100
AcDbLine
10
45.19
20
1.5875
30
0
11
45.19
21
15.015325
31
0
39
0
210
0
220
0
230
1
0
LINE
5
24D
100
AcDbEntity
8
SK2
62
256
6
ByLayer
370
13
48
1
60
0
100
AcDbLine
10
55.5
20
13.015325
30
0
11
37.69
21
13.015325
31
0
39
0
210
0
220
0
230
1
0
SOLID
5
24E
100
AcDbEntity
8
SK2
62
256
6
ByLayer
370
18
48
1
60
0
100
AcDbTrace
10
48
20
13.015325
30
0
11
51.499998
21
13.476109
31
0
12
51.500002
22
12.554542
32
0
13
51.500002
23
12.554542
33
0
39
0
210
0
220
0
230
1
0
SOLID
5
24F
100
AcDbEntity
8
SK2
62
256
6
ByLayer
370
18
48
1
60
0
100
AcDbTrace
10
45.19
20
13.015325
30
0
11
41.690002
21
12.554542
31
0
12
41.689998
22
13.476109
32
0
13
41.689998
23
13.476109
33
0
39
0
210
0
220
0
230
1
0
ENDBLK
5
251
100
AcDbEntity
8
0
100
AcDbBlockEnd
0
BLOCK
5
256
100
AcDbEntity
8
0
100
AcDbBlockBegin
2
*D7
70
1
10
0
20
0
30
0
3
*D7
0
LINE
5
258
100
AcDbEntity
8
0
62
256
6
ByLayer
370
-2
48
1
60
0
100
AcDbLine
10
48
20
-5.651708
30
0
11
48
21
-13.064208
31
0
39
0
210
0
220
0
230
1
0
LINE
5
259
100
AcDbEntity
8
0
62
256
6
ByLayer
370
-2
48
1
60
0
100
AcDbLine
10
36
20
-5.651708
30
0
11
36
21
-13.064208
31
0
39
0
210
0
220
0
230
1
0
LINE
5
25A
100
AcDbEntity
8
0
62
256
6
ByLayer
370
-2
48
1
60
0
100
AcDbLine
10
51.5
20
-11.064208
30
0
11
55
21
-11.064208
31
0
39
0
210
0
220
0
230
1
0
LINE
5
25B
100
AcDbEntity
8
0
62
256
6
ByLayer
370
-2
48
1
60
0
100
AcDbLine
10
32.5
20
-11.064208
30
0
11
29
21
-11.064208
31
0
39
0
210
0
220
0
230
1
0
SOLID
5
25C
100
AcDbEntity
8
0
62
256
6
ByLayer
370
-1
48
1
60
0
100
AcDbTrace
10
51.5
20
-10.480875
30
0
11
51.5
21
-11.647542
31
0
12
48
22
-11.064208
32
0
13
48
23
-11.064208
33
0
39
0
210
0
220
0
230
1
0
SOLID
5
25D
100
AcDbEntity
8
0
62
256
6
ByLayer
370
-1
48
1
60
0
100
AcDbTrace
10
32.5
20
-11.647542
30
0
11
32.5
21
-10.480875
31
0
12
36
22
-11.064208
32
0
13
36
23
-11.064208
33
0
39
0
210
0
220
0
230
1
0
MTEXT
5
25E
100
AcDbEntity
8
0
62
256
6
ByLayer
370
18
48
1
60
0
100
AcDbMText
10
39.818182
20
-5.064208
30
0
210
0
220
0
230
1
1
\A1;12
40
3
41
0
44
1
50
0
71
5
72
5
7
iso_b_vert
0
POINT
5
25F
100
AcDbEntity
8
Defpoints
62
0
6
ByLayer
370
-1
48
1
60
0
100
AcDbPoint
10
48
20
-4.064208
30
0
39
0
210
0
220
0
230
1
50
360
0
POINT
5
260
100
AcDbEntity
8
Defpoints
62
0
6
ByLayer
370
-1
48
1
60
0
100
AcDbPoint
10
36
20
-4.064208
30
0
39
0
210
0
220
0
230
1
50
360
0
POINT
5
261
100
AcDbEntity
8
Defpoints
62
0
6
ByLayer
370
-1
48
1
60
0
100
AcDbPoint
10
36
20
-11.064208
30
0
39
0
210
0
220
0
230
1
50
360
0
ENDBLK
5
257
100
AcDbEntity
8
0
100
AcDbBlockEnd
0
BLOCK
5
269
100
AcDbEntity
8
0
100
AcDbBlockBegin
2
_U3
70
0
10
0
20
0
30
0
3
_U3
0
MTEXT
5
263
100
AcDbEntity
8
SK2
62
256
6
ByLayer
370
18
48
1
60
0
100
AcDbMText
10
38.560296
20
-10.179094
30
0
210
0
220
0
230
1
1
\W0.5321;12
40
3
41
0
44
1.084337
50
0
71
7
72
5
7
iso_b_vert
0
LINE
5
264
100
AcDbEntity
8
SK2
62
256
6
ByLayer
370
13
48
1
60
0
100
AcDbLine
10
48
20
-5.651708
30
0
11
48
21
-13.064208
31
0
39
0
210
0
220
0
230
1
0
LINE
5
265
100
AcDbEntity
8
SK2
62
256
6
ByLayer
370
13
48
1
60
0
100
AcDbLine
10
36
20
-5.651708
30
0
11
36
21
-13.064208
31
0
39
0
210
0
220
0
230
1
0
LINE
5
266
100
AcDbEntity
8
SK2
62
256
6
ByLayer
370
13
48
1
60
0
100
AcDbLine
10
48
20
-11.064208
30
0
11
36
21
-11.064208
31
0
39
0
210
0
220
0
230
1
0
SOLID
5
267
100
AcDbEntity
8
SK2
62
256
6
ByLayer
370
18
48
1
60
0
100
AcDbTrace
10
48
20
-11.064208
30
0
11
44.500002
21
-11.524992
31
0
12
44.499998
22
-10.603425
32
0
13
44.499998
23
-10.603425
33
0
39
0
210
0
220
0
230
1
0
SOLID
5
268
100
AcDbEntity
8
SK2
62
256
6
ByLayer
370
18
48
1
60
0
100
AcDbTrace
10
36
20
-11.064208
30
0
11
39.499998
21
-10.603425
31
0
12
39.500002
22
-11.524992
32
0
13
39.500002
23
-11.524992
33
0
39
0
210
0
220
0
230
1
0
ENDBLK
5
26A
100
AcDbEntity
8
0
100
AcDbBlockEnd
0
BLOCK
5
26F
100
AcDbEntity
8
0
100
AcDbBlockBegin
2
*D9
70
1
10
0
20
0
30
0
3
*D9
0
LINE
5
271
100
AcDbEntity
8
0
62
256
6
ByLayer
370
-2
48
1
60
0
100
AcDbLine
10
48
20
-5.651708
30
0
11
48
21
-35.564208
31
0
39
0
210
0
220
0
230
1
0
LINE
5
272
100
AcDbEntity
8
0
62
256
6
ByLayer
370
-2
48
1
60
0
100
AcDbLine
10
17
20
-4.5875
30
0
11
17
21
-35.564208
31
0
39
0
210
0
220
0
230
1
0
LINE
5
273
100
AcDbEntity
8
0
62
256
6
ByLayer
370
-2
48
1
60
0
100
AcDbLine
10
44.5
20
-33.564208
30
0
11
20.5
21
-33.564208
31
0
39
0
210
0
220
0
230
1
0
SOLID
5
274
100
AcDbEntity
8
0
62
256
6
ByLayer
370
-1
48
1
60
0
100
AcDbTrace
10
44.5
20
-34.147542
30
0
11
44.5
21
-32.980875
31
0
12
48
22
-33.564208
32
0
13
48
23
-33.564208
33
0
39
0
210
0
220
0
230
1
0
SOLID
5
275
100
AcDbEntity
8
0
62
256
6
ByLayer
370
-1
48
1
60
0
100
AcDbTrace
10
20.5
20
-32.980875
30
0
11
20.5
21
-34.147542
31
0
12
17
22
-33.564208
32
0
13
17
23
-33.564208
33
0
39
0
210
0
220
0
230
1
0
MTEXT
5
276
100
AcDbEntity
8
0
62
256
6
ByLayer
370
18
48
1
60
0
100
AcDbMText
10
32.5
20
-27.564208
30
0
210
0
220
0
230
1
1
\A1;31
40
3
41
0
44
1
50
0
71
5
72
5
7
iso_b_vert
0
POINT
5
277
100
AcDbEntity
8
Defpoints
62
0
6
ByLayer
370
-1
48
1
60
0
100
AcDbPoint
10
48
20
-4.064208
30
0
39
0
210
0
220
0
230
1
50
360
0
POINT
5
278
100
AcDbEntity
8
Defpoints
62
0
6
ByLayer
370
-1
48
1
60
0
100
AcDbPoint
10
17
20
-3
30
0
39
0
210
0
220
0
230
1
50
360
0
POINT
5
279
100
AcDbEntity
8
Defpoints
62
0
6
ByLayer
370
-1
48
1
60
0
100
AcDbPoint
10
17
20
-33.564208
30
0
39
0
210
0
220
0
230
1
50
360
0
ENDBLK
5
270
100
AcDbEntity
8
0
100
AcDbBlockEnd
0
BLOCK
5
281
100
AcDbEntity
8
0
100
AcDbBlockBegin
2
_U4
70
0
10
0
20
0
30
0
3
_U4
0
MTEXT
5
27B
100
AcDbEntity
8
SK2
62
256
6
ByLayer
370
18
48
1
60
0
100
AcDbMText
10
31.242115
20
-32.679094
30
0
210
0
220
0
230
1
1
\W0.6351;31
40
3
41
0
44
1.084337
50
0
71
7
72
5
7
iso_b_vert
0
LINE
5
27C
100
AcDbEntity
8
SK2
62
256
6
ByLayer
370
13
48
1
60
0
100
AcDbLine
10
48
20
-5.651708
30
0
11
48
21
-35.564208
31
0
39
0
210
0
220
0
230
1
0
LINE
5
27D
100
AcDbEntity
8
SK2
62
256
6
ByLayer
370
13
48
1
60
0
100
AcDbLine
10
17
20
-4.5875
30
0
11
17
21
-35.564208
31
0
39
0
210
0
220
0
230
1
0
LINE
5
27E
100
AcDbEntity
8
SK2
62
256
6
ByLayer
370
13
48
1
60
0
100
AcDbLine
10
48
20
-33.564208
30
0
11
17
21
-33.564208
31
0
39
0
210
0
220
0
230
1
0
SOLID
5
27F
100
AcDbEntity
8
SK2
62
256
6
ByLayer
370
18
48
1
60
0
100
AcDbTrace
10
48
20
-33.564208
30
0
11
44.500002
21
-34.024992
31
0
12
44.499998
22
-33.103425
32
0
13
44.499998
23
-33.103425
33
0
39
0
210
0
220
0
230
1
0
SOLID
5
280
100
AcDbEntity
8
SK2
62
256
6
ByLayer
370
18
48
1
60
0
100
AcDbTrace
10
17
20
-33.564208
30
0
11
20.499998
21
-33.103425
31
0
12
20.500002
22
-34.024992
32
0
13
20.500002
23
-34.024992
33
0
39
0
210
0
220
0
230
1
0
ENDBLK
5
282
100
AcDbEntity
8
0
100
AcDbBlockEnd
0
BLOCK
5
287
100
AcDbEntity
8
0
100
AcDbBlockBegin
2
*D11
70
1
10
0
20
0
30
0
3
*D11
0
LINE
5
289
100
AcDbEntity
8
0
62
256
6
ByLayer
370
-2
48
1
60
0
100
AcDbLine
10
48
20
-5.651708
30
0
11
48
21
-24.564208
31
0
39
0
210
0
220
0
230
1
0
LINE
5
28A
100
AcDbEntity
8
0
62
256
6
ByLayer
370
-2
48
1
60
0
100
AcDbLine
10
18.5
20
-1.5875
30
0
11
18.5
21
-24.564208
31
0
39
0
210
0
220
0
230
1
0
LINE
5
28B
100
AcDbEntity
8
0
62
256
6
ByLayer
370
-2
48
1
60
0
100
AcDbLine
10
44.5
20
-22.564208
30
0
11
22
21
-22.564208
31
0
39
0
210
0
220
0
230
1
0
SOLID
5
28C
100
AcDbEntity
8
0
62
256
6
ByLayer
370
-1
48
1
60
0
100
AcDbTrace
10
44.5
20
-23.147542
30
0
11
44.5
21
-21.980875
31
0
12
48
22
-22.564208
32
0
13
48
23
-22.564208
33
0
39
0
210
0
220
0
230
1
0
SOLID
5
28D
100
AcDbEntity
8
0
62
256
6
ByLayer
370
-1
48
1
60
0
100
AcDbTrace
10
22
20
-21.980875
30
0
11
22
21
-23.147542
31
0
12
18.5
22
-22.564208
32
0
13
18.5
23
-22.564208
33
0
39
0
210
0
220
0
230
1
0
MTEXT
5
28E
100
AcDbEntity
8
0
62
256
6
ByLayer
370
18
48
1
60
0
100
AcDbMText
10
33.25
20
-16.564208
30
0
210
0
220
0
230
1
1
\A1;29.5
40
3
41
0
44
1
50
0
71
5
72
5
7
iso_b_vert
0
POINT
5
28F
100
AcDbEntity
8
Defpoints
62
0
6
ByLayer
370
-1
48
1
60
0
100
AcDbPoint
10
48
20
-4.064208
30
0
39
0
210
0
220
0
230
1
50
360
0
POINT
5
290
100
AcDbEntity
8
Defpoints
62
0
6
ByLayer
370
-1
48
1
60
0
100
AcDbPoint
10
18.5
20
0
30
0
39
0
210
0
220
0
230
1
50
360
0
POINT
5
291
100
AcDbEntity
8
Defpoints
62
0
6
ByLayer
370
-1
48
1
60
0
100
AcDbPoint
10
18.5
20
-22.564208
30
0
39
0
210
0
220
0
230
1
50
360
0
ENDBLK
5
288
100
AcDbEntity
8
0
100
AcDbBlockEnd
0
BLOCK
5
299
100
AcDbEntity
8
0
100
AcDbBlockBegin
2
_U5
70
0
10
0
20
0
30
0
3
_U5
0
MTEXT
5
293
100
AcDbEntity
8
2
62
256
6
ByLayer
370
18
48
1
60
0
100
AcDbMText
10
29.888544
20
-21.679094
30
0
210
0
220
0
230
1
1
\W0.7346;29.5
40
3
41
0
44
1.084337
50
0
71
7
72
5
7
iso_b_vert
0
LINE
5
294
100
AcDbEntity
8
2
62
256
6
ByLayer
370
13
48
1
60
0
100
AcDbLine
10
48
20
-5.651708
30
0
11
48
21
-24.564208
31
0
39
0
210
0
220
0
230
1
0
LINE
5
295
100
AcDbEntity
8
2
62
256
6
ByLayer
370
13
48
1
60
0
100
AcDbLine
10
18.5
20
-1.5875
30
0
11
18.5
21
-24.564208
31
0
39
0
210
0
220
0
230
1
0
LINE
5
296
100
AcDbEntity
8
2
62
256
6
ByLayer
370
13
48
1
60
0
100
AcDbLine
10
48
20
-22.564208
30
0
11
18.5
21
-22.564208
31
0
39
0
210
0
220
0
230
1
0
SOLID
5
297
100
AcDbEntity
8
2
62
256
6
ByLayer
370
18
48
1
60
0
100
AcDbTrace
10
48
20
-22.564208
30
0
11
44.500002
21
-23.024992
31
0
12
44.499998
22
-22.103425
32
0
13
44.499998
23
-22.103425
33
0
39
0
210
0
220
0
230
1
0
SOLID
5
298
100
AcDbEntity
8
2
62
256
6
ByLayer
370
18
48
1
60
0
100
AcDbTrace
10
18.5
20
-22.564208
30
0
11
21.999998
21
-22.103425
31
0
12
22.000002
22
-23.024992
32
0
13
22.000002
23
-23.024992
33
0
39
0
210
0
220
0
230
1
0
ENDBLK
5
29A
100
AcDbEntity
8
0
100
AcDbBlockEnd
0
ENDSEC
0
SECTION
2
ENTITIES
0
ARC
5
D5
100
AcDbEntity
8
SK1
62
256
6
ByLayer
370
18
48
1
60
0
100
AcDbCircle
39
0
10
-18.15
20
0
30
0
40
3.84000000000009
210
0
220
0
230
1
100
AcDbArc
50
325.116088
51
34.883912
0
ARC
5
D6
100
AcDbEntity
8
1
62
256
6
ByLayer
370
18
48
1
60
0
100
AcDbCircle
39
0
10
34.043384
20
3.9
30
0
40
0.9
210
0
220
0
230
1
100
AcDbArc
50
270
51
301
0
ARC
5
D7
100
AcDbEntity
8
1
62
256
6
ByLayer
370
18
48
1
60
0
100
AcDbCircle
39
0
10
17.096238
20
-4.1
30
0
40
1.1
210
0
220
0
230
1
100
AcDbArc
50
90
51
100
0
ARC
5
D8
100
AcDbEntity
8
1
62
256
6
ByLayer
370
18
48
1
60
0
100
AcDbCircle
39
0
10
17.096238
20
4.1
30
0
40
1.1
210
0
220
0
230
1
100
AcDbArc
50
260
51
270
0
POINT
5
70
100
AcDbEntity
8
80
62
256
6
ByLayer
370
18
48
1
60
0
100
AcDbPoint
10
0
20
0
30
0
39
0
210
0
220
0
230
1
50
360
0
POINT
5
72
100
AcDbEntity
8
81
62
256
6
ByLayer
370
18
48
1
60
0
100
AcDbPoint
10
49.55
20
0
30
0
39
0
210
0
220
0
230
1
50
360
0
POINT
5
74
100
AcDbEntity
8
1
62
256
6
ByLayer
370
18
48
1
60
1
100
AcDbPoint
10
48
20
4.064208
30
0
39
0
210
0
220
0
230
1
50
360
0
POINT
5
76
100
AcDbEntity
8
1
62
256
6
ByLayer
370
18
48
1
60
1
100
AcDbPoint
10
48
20
-4.064208
30
0
39
0
210
0
220
0
230
1
50
360
0
POINT
5
77
100
AcDbEntity
8
1
62
256
6
ByLayer
370
18
48
1
60
1
100
AcDbPoint
10
-22.8
20
-3.15
30
0
39
0
210
0
220
0
230
1
50
360
0
POINT
5
78
100
AcDbEntity
8
1
62
256
6
ByLayer
370
18
48
1
60
1
100
AcDbPoint
10
-23.49
20
3.15
30
0
39
0
210
0
220
0
230
1
50
360
0
POINT
5
79
100
AcDbEntity
8
1
62
256
6
ByLayer
370
18
48
1
60
1
100
AcDbPoint
10
48
20
4.064208
30
0
39
0
210
0
220
0
230
1
50
360
0
POINT
5
7A
100
AcDbEntity
8
1
62
256
6
ByLayer
370
18
48
1
60
1
100
AcDbPoint
10
45.19
20
0
30
0
39
0
210
0
220
0
230
1
50
360
0
POINT
5
7B
100
AcDbEntity
8
1
62
256
6
ByLayer
370
18
48
1
60
1
100
AcDbPoint
10
48
20
-4.064208
30
0
39
0
210
0
220
0
230
1
50
360
0
POINT
5
7C
100
AcDbEntity
8
1
62
256
6
ByLayer
370
18
48
1
60
1
100
AcDbPoint
10
36
20
-4.064208
30
0
39
0
210
0
220
0
230
1
50
360
0
POINT
5
7D
100
AcDbEntity
8
1
62
256
6
ByLayer
370
18
48
1
60
1
100
AcDbPoint
10
48
20
-4.064208
30
0
39
0
210
0
220
0
230
1
50
360
0
POINT
5
7E
100
AcDbEntity
8
1
62
256
6
ByLayer
370
18
48
1
60
1
100
AcDbPoint
10
17
20
-3
30
0
39
0
210
0
220
0
230
1
50
360
0
POINT
5
7F
100
AcDbEntity
8
1
62
256
6
ByLayer
370
18
48
1
60
1
100
AcDbPoint
10
48
20
-4.064208
30
0
39
0
210
0
220
0
230
1
50
360
0
POINT
5
80
100
AcDbEntity
8
1
62
256
6
ByLayer
370
18
48
1
60
1
100
AcDbPoint
10
18.5
20
0
30
0
39
0
210
0
220
0
230
1
50
360
0
SPLINE
5
D9
100
AcDbEntity
8
1
62
256
6
ByLayer
370
18
48
1
60
0
100
AcDbSpline
70
4
71
3
72
8
73
4
40
0
40
0
40
0
40
0
40
1
40
1
40
1
40
1
41
1
10
46.1119258717343
20
-3.35260402898916
30
0
41
1
10
46.1086054118188
20
-3.35007728603083
30
0
41
1
10
46.1052825265425
20
-3.34613962033234
30
0
41
1
10
46.1019574661807
20
-3.34079929250652
30
0
0
SPLINE
5
DA
100
AcDbEntity
8
1
62
256
6
ByLayer
370
13
48
1
60
0
100
AcDbSpline
70
4
71
3
72
9
73
5
40
0
40
0
40
0
40
0
40
0.221702097843183
40
1
40
1
40
1
40
1
41
1.04
10
45.8246810909003
20
-3.34352028545282
30
0
41
1.04
10
45.8207121172831
20
-3.34930669815492
30
0
41
1.04
10
45.8027943525752
20
-3.3663469371494
30
0
41
1.04
10
45.7847959988078
20
-3.34174470550833
30
0
41
1.04
10
45.7707578109255
20
-3.29796829338655
30
0
0
SPLINE
5
DB
100
AcDbEntity
8
1
62
256
6
ByLayer
370
13
48
1
60
0
100
AcDbSpline
70
4
71
3
72
8
73
4
40
0
40
0
40
0
40
0
40
1
40
1
40
1
40
1
41
1
10
40.5204446165312
20
3.32993299885266
30
0
41
1
10
40.5054570929632
20
3.36110309343309
30
0
41
1
10
40.4904117421917
20
3.36382865964461
30
0
41
1
10
40.4753378617762
20
3.33792424166427
30
0
0
SPLINE
5
DC
100
AcDbEntity
8
1
62
256
6
ByLayer
370
13
48
1
60
0
100
AcDbSpline
70
4
71
3
72
9
73
5
40
0
40
0
40
0
40
0
40
0.420669018769207
40
1
40
1
40
1
40
1
41
1.04
10
38.3250141794123
20
-3.3428083159274
30
0
41
1.04
10
38.3182958169295
20
-3.35282442842443
30
0
41
1.04
10
38.3023066178307
20
-3.36307386682615
30
0
41
1.04
10
38.2862708802036
20
-3.34013054967143
30
0
41
1.04
10
38.2769638838313
20
-3.31591348242392
30
0
0
SPLINE
5
DD
100
AcDbEntity
8
1
62
256
6
ByLayer
370
18
48
1
60
0
100
AcDbSpline
70
4
71
3
72
16
73
12
40
0
40
0
40
0
40
0
40
0.0321020749362445
40
0.0321020749362445
40
0.193418395780204
40
0.193418395780204
40
0.354734716624163
40
0.354734716624163
40
0.677367358312082
40
0.677367358312082
40
1
40
1
40
1
40
1
41
1
10
45.4995236354054
20
-3.89397220919364
30
0
41
1
10
45.4988470671851
20
-3.89419475695445
30
0
41
1
10
45.4981700464041
20
-3.89435009617688
30
0
41
1
10
45.4940880470068
20
-3.89488010460985
30
0
41
1
10
45.490677484044
20
-3.89361686321621
30
0
41
1
10
45.4838607579775
20
-3.88760430609241
30
0
41
1
10
45.4804480667796
20
-3.88283441456832
30
0
41
1
10
45.4703227464444
20
-3.86341822496112
30
0
41
1
10
45.4636999880996
20
-3.84367068144269
30
0
41
1
10
45.4504785633557
20
-3.79113151763241
30
0
41
1
10
45.443840693046
20
-3.75838709733841
30
0
41
1
10
45.4370783127734
20
-3.71920307729704
30
0
0
SPLINE
5
DE
100
AcDbEntity
8
1
62
256
6
ByLayer
370
18
48
1
60
0
100
AcDbSpline
70
4
71
3
72
15
73
11
40
0
40
0
40
0
40
0
40
0.351184698618846
40
0.351184698618846
40
0.702369397237691
40
0.702369397237691
40
0.790165571892402
40
0.790165571892402
40
0.877961746547113
40
1
40
1
40
1
40
1
41
1
10
45.1556888803138
20
-3.694682734673
30
0
41
1
10
45.162479983176
20
-3.74541095293185
30
0
41
1
10
45.1692342951252
20
-3.78949536846503
30
0
41
1
10
45.1828860455436
20
-3.86457093647408
30
0
41
1
10
45.1898120359905
20
-3.89560723094942
30
0
41
1
10
45.1985602134776
20
-3.92585727633548
30
0
41
1
10
45.2003163666405
20
-3.93148563093479
30
0
41
1
10
45.2038238367503
20
-3.94183694454438
30
0
41
1
10
45.208005034579
20
-3.95311450593107
30
0
41
1
10
45.2121590744798
20
-3.96180601860007
30
0
41
1
10
45.2145658392159
20
-3.96599466401858
30
0
0
SPLINE
5
DF
100
AcDbEntity
8
1
62
256
6
ByLayer
370
13
48
1
60
0
100
AcDbSpline
70
4
71
3
72
10
73
6
40
0
40
0
40
0
40
0
40
0.463932105553977
40
0.903654046768999
40
1
40
1
40
1
40
1
41
1.04
10
41.5116573750321
20
3.09420823707495
30
0
41
1.04
10
41.5029606269615
20
3.15110331635508
30
0
41
1.04
10
41.4860792927539
20
3.24436267281229
30
0
41
1.04
10
41.4675204021619
20
3.30786361673349
30
0
41
1.04
10
41.4576336517124
20
3.32936947811873
30
0
41
1.04
10
41.4558586893921
20
3.33283240380969
30
0
0
SPLINE
5
E0
100
AcDbEntity
8
1
62
256
6
ByLayer
370
13
48
1
60
0
100
AcDbSpline
70
4
71
3
72
9
73
5
40
0
40
0
40
0
40
0
40
0.468561928254557
40
1
40
1
40
1
40
1
41
1
10
37.3506642039964
20
-3.3386267259292
30
0
41
1
10
37.3404651882838
20
-3.32129291915987
30
0
41
1
10
37.3187850997527
20
-3.25629080675202
30
0
41
1
10
37.2971480135483
20
-3.13353799432625
30
0
41
1
10
37.2856814768341
20
-3.05337944841898
30
0
0
SPLINE
5
E1
100
AcDbEntity
8
1
62
256
6
ByLayer
370
13
48
1
60
0
100
AcDbSpline
70
4
71
3
72
9
73
5
40
0
40
0
40
0
40
0
40
0.259066438474618
40
1
40
1
40
1
40
1
41
1
10
44.8503013307892
20
-3.33804563499902
30
0
41
1
10
44.8440953796872
20
-3.3273083150543
30
0
41
1
10
44.8202522233118
20
-3.26721382286044
30
0
41
1
10
44.7967661177058
20
-3.1376457189794
30
0
41
1
10
44.7794750325511
20
-3.00849143723147
30
0
0
SPLINE
5
E2
100
AcDbEntity
8
1
62
256
6
ByLayer
370
13
48
1
60
0
100
AcDbSpline
70
4
71
3
72
10
73
6
40
0
40
0
40
0
40
0
40
0.397901744178552
40
0.615370829115414
40
1
40
1
40
1
40
1
41
1
10
41.8429675475184
20
2.96263542714809
30
0
41
1
10
41.8278085332824
20
3.08270212235314
30
0
41
1
10
41.8045065701706
20
3.22785831024839
30
0
41
1
10
41.7669805440915
20
3.35310270895738
30
0
41
1
10
41.744706351119
20
3.36383603180983
30
0
41
1
10
41.730581622744
20
3.34571394576688
30
0
0
SPLINE
5
E3
100
AcDbEntity
8
1
62
256
6
ByLayer
370
18
48
1
60
0
100
AcDbSpline
70
4
71
3
72
8
73
4
40
0
40
0
40
0
40
0
40
1
40
1
40
1
40
1
41
1
10
41.7305812924728
20
3.34571352202303
30
0
41
1
10
41.728646760889
20
3.34323145623171
30
0
41
1
10
41.7267141867556
20
3.34028083498393
30
0
41
1
10
41.7247835025014
20
3.33686529259293
30
0
0
SPLINE
5
E4
100
AcDbEntity
8
1
62
256
6
ByLayer
370
18
48
1
60
0
100
AcDbSpline
70
4
71
3
72
8
73
4
40
0
40
0
40
0
40
0
40
1
40
1
40
1
40
1
41
1.04
10
37.07798686754
20
-3.33795338762983
30
0
41
1.04
10
37.0751106194213
20
-3.3429196114163
30
0
41
1.04
10
37.0722405737941
20
-3.34682933645441
30
0
41
1.04
10
37.0693760636971
20
-3.34969188768951
30
0
0
SPLINE
5
E5
100
AcDbEntity
8
1
62
256
6
ByLayer
370
13
48
1
60
0
100
AcDbSpline
70
4
71
3
72
10
73
6
40
0
40
0
40
0
40
0
40
0.531517607460961
40
0.959368876484996
40
1
40
1
40
1
40
1
41
1.04
10
37.0693767710355
20
-3.34969118081363
30
0
41
1.04
10
37.0487308698893
20
-3.3703241994123
30
0
41
1.04
10
37.0119848477694
20
-3.30937905974417
30
0
41
1.04
10
36.9738110692421
20
-3.07297957410458
30
0
41
1.04
10
36.9560258479813
20
-2.92741519249807
30
0
41
1.04
10
36.9544840244712
20
-2.91453255465384
30
0
0
SPLINE
5
E6
100
AcDbEntity
8
1
62
256
6
ByLayer
370
13
48
1
60
0
100
AcDbSpline
70
4
71
3
72
10
73
6
40
0
40
0
40
0
40
0
40
0.0218717303796792
40
0.407085995802295
40
1
40
1
40
1
40
1
41
1.04
10
42.8341983577802
20
2.42810814076657
30
0
41
1.04
10
42.8332621106878
20
2.43901319698334
30
0
41
1.04
10
42.8158439702292
20
2.64037394304273
30
0
41
1.04
10
42.7733862126781
20
3.06082900686684
30
0
41
1.04
10
42.7333948900755
20
3.27038426750455
30
0
41
1.04
10
42.7096132574307
20
3.32478802058853
30
0
0
SPLINE
5
E7
100
AcDbEntity
8
1
62
256
6
ByLayer
370
18
48
1
60
0
100
AcDbSpline
70
4
71
3
72
9
73
5
40
0
40
0
40
0
40
0
40
0.0667938817883669
40
1
40
1
40
1
40
1
41
1.04
10
42.7096130678587
20
3.32478845425891
30
0
41
1.04
10
42.7094233984355
20
3.32522234609829
30
0
41
1.04
10
42.7065842137785
20
3.33164916905833
30
0
41
1.04
10
42.7037515753794
20
3.33704075511559
30
0
41
1.04
10
42.7011135000102
20
3.34117974114684
30
0
0
SPLINE
5
E8
100
AcDbEntity
8
1
62
256
6
ByLayer
370
18
48
1
60
0
100
AcDbSpline
70
4
71
3
72
27
73
23
40
0
40
0
40
0
40
0
40
0.0530830538894001
40
0.210902544907831
40
0.210902544907831
40
0.289812290417047
40
0.289812290417047
40
0.329267163171655
40
0.329267163171655
40
0.368722035926263
40
0.368722035926263
40
0.526541526944697
40
0.526541526944697
40
0.684361017963131
40
0.684361017963131
40
0.763270763472349
40
0.763270763472349
40
0.802725636226957
40
0.802725636226957
40
0.842180508981566
40
0.842180508981566
40
1
40
1
40
1
40
1
41
1
10
42.155060018284
20
4.06421125798238
30
0
41
1
10
42.1573582859134
20
4.06420486131714
30
0
41
1
10
42.1664745031114
20
4.06091297166228
30
0
41
1
10
42.1755624691186
20
4.04471369247631
30
0
41
1
10
42.1858366591941
20
4.01551432780499
30
0
41
1
10
42.1892728503823
20
4.00394151566476
30
0
41
1
10
42.1944560469335
20
3.9837661829315
30
0
41
1
10
42.1961907023502
20
3.97656170881203
30
0
41
1
10
42.1996538898128
20
3.96128985488707
30
0
41
1
10
42.2013843004136
20
3.95321620244661
30
0
41
1
10
42.2100401397277
20
3.91068396754477
30
0
41
1
10
42.2169946092455
20
3.86975166683933
30
0
41
1
10
42.2308808073313
20
3.7744052716275
30
0
41
1
10
42.2378095507573
20
3.71999046668159
30
0
41
1
10
42.2481796193885
20
3.62817411387857
30
0
41
1
10
42.2516332189908
20
3.59586628843081
30
0
41
1
10
42.2568154343383
20
3.54480936440905
30
0
41
1
10
42.2585431876554
20
3.52735763344847
30
0
41
1
10
42.2620010157347
20
3.49157890434123
30
0
41
1
10
42.2637330387741
20
3.47322987484412
30
0
41
1
10
42.2723558841671
20
3.37979721672409
30
0
41
1
10
42.2791635929349
20
3.29936422546149
30
0
41
1
10
42.2859652122785
20
3.21342832315204
30
0
0
SPLINE
5
E9
100
AcDbEntity
8
1
62
256
6
ByLayer
370
18
48
1
60
0
100
AcDbSpline
70
4
71
3
72
9
73
5
40
0
40
0
40
0
40
0
40
0.720850222609589
40
1
40
1
40
1
40
1
41
1.04
10
44.5753109059841
20
-3.34231711292995
30
0
41
1.04
10
44.5730663811449
20
-3.34568914374676
30
0
41
1.04
10
44.5699595008011
20
-3.34947120548567
30
0
41
1.04
10
44.5668615755163
20
-3.35202180147379
30
0
41
1.04
10
44.5659974752315
20
-3.35263826702409
30
0
0
SPLINE
5
EA
100
AcDbEntity
8
1
62
256
6
ByLayer
370
13
48
1
60
0
100
AcDbSpline
70
4
71
3
72
9
73
5
40
0
40
0
40
0
40
0
40
0.388087527191687
40
1
40
1
40
1
40
1
41
1.04
10
44.5659974752314
20
-3.3526382670242
30
0
41
1.04
10
44.5503526842891
20
-3.36379955793869
30
0
41
1.04
10
44.5106186329891
20
-3.31186666034779
30
0
41
1.04
10
44.4718648579554
20
-3.06890400899058
30
0
41
1.04
10
44.448299012186
20
-2.86139725410286
30
0
0
SPLINE
5
EB
100
AcDbEntity
8
1
62
256
6
ByLayer
370
18
48
1
60
0
100
AcDbSpline
70
4
71
3
72
8
73
4
40
0
40
0
40
0
40
0
40
1
40
1
40
1
40
1
41
1
10
36.1004178369693
20
-3.33799443620606
30
0
41
1
10
36.0977889192928
20
-3.33348004236578
30
0
41
1
10
36.0951639559929
20
-3.32810573031338
30
0
41
1
10
36.0925431383296
20
-3.321881926793
30
0
0
SPLINE
5
EC
100
AcDbEntity
8
1
62
256
6
ByLayer
370
13
48
1
60
0
100
AcDbSpline
70
4
71
3
72
9
73
5
40
0
40
0
40
0
40
0
40
0.153455294760027
40
1
40
1
40
1
40
1
41
1
10
36.0925435264225
20
-3.32188284841323
30
0
41
1
10
36.0857681034587
20
-3.30579308868099
30
0
41
1
10
36.0417962353788
20
-3.16394542123737
30
0
41
1
10
35.9991412907379
20
-2.78864959143513
30
0
41
1
10
35.9632837365784
20
-2.35821639900962
30
0
0
SPLINE
5
ED
100
AcDbEntity
8
1
62
256
6
ByLayer
370
18
48
1
60
0
100
AcDbSpline
70
4
71
3
72
8
73
4
40
0
40
0
40
0
40
0
40
1
40
1
40
1
40
1
41
1
10
43.5978222888407
20
-3.33354491056991
30
0
41
1
10
43.5936649366178
20
-3.32545132422195
30
0
41
1
10
43.589527961213
20
-3.3151962042592
30
0
41
1
10
43.5854113209385
20
-3.30287857562132
30
0
0
SPLINE
5
EE
100
AcDbEntity
8
1
62
256
6
ByLayer
370
13
48
1
60
0
100
AcDbSpline
70
4
71
3
72
10
73
6
40
0
40
0
40
0
40
0
40
0.380868137188947
40
0.963075315404929
40
1
40
1
40
1
40
1
41
1
10
43.5854113209385
20
-3.30287857562135
30
0
41
1
10
43.5682480764133
20
-3.2515234757856
30
0
41
1
10
43.5257423596986
20
-3.03100979558448
30
0
41
1
10
43.4839336711104
20
-2.61166395048161
30
0
41
1
10
43.4585243481135
20
-2.30048740157869
30
0
41
1
10
43.4570106387741
20
-2.28175198621838
30
0
0
SPLINE
5
EF
100
AcDbEntity
8
1
62
256
6
ByLayer
370
13
48
1
60
0
100
AcDbSpline
70
4
71
3
72
10
73
6
40
0
40
0
40
0
40
0
40
0.134748040962384
40
0.960131917438485
40
1
40
1
40
1
40
1
41
1.04
10
35.7806848489642
20
-3.3247360443023
30
0
41
1.04
10
35.7738264170613
20
-3.30917534998017
30
0
41
1.04
10
35.7251593935564
20
-3.15679337702097
30
0
41
1.04
10
35.6761515132065
20
-2.69975814804174
30
0
41
1.04
10
35.6339778335316
20
-2.15630121575484
30
0
41
1.04
10
35.6320355158567
20
-2.1309663441
30
0
0
SPLINE
5
F0
100
AcDbEntity
8
1
62
256
6
ByLayer
370
18
48
1
60
0
100
AcDbSpline
70
4
71
3
72
27
73
23
40
0
40
0
40
0
40
0
40
0.125
40
0.125
40
0.25
40
0.25
40
0.375
40
0.375
40
0.4375
40
0.4375
40
0.5
40
0.5
40
0.625
40
0.75
40
0.75
40
0.8125
40
0.8125
40
0.84375
40
0.84375
40
0.875
40
0.875
40
1
40
1
40
1
40
1
41
1
10
35.5442994749621
20
-3.6965564081944
30
0
41
1
10
35.5395406427835
20
-3.67288760025571
30
0
41
1
10
35.5348040899595
20
-3.64356513787979
30
0
41
1
10
35.5252631380023
20
-3.57386106082632
30
0
41
1
10
35.5204709274639
20
-3.53348573541854
30
0
41
1
10
35.5108457213817
20
-3.44168338302649
30
0
41
1
10
35.5060131539101
20
-3.39025738063887
30
0
41
1
10
35.4987251649547
20
-3.30458104177941
30
0
41
1
10
35.4962851399811
20
-3.27453827431194
30
0
41
1
10
35.4914407825171
20
-3.21223479046066
30
0
41
1
10
35.4890304544943
20
-3.179908140377
30
0
41
1
10
35.4818265640678
20
-3.07946072866795
30
0
41
1
10
35.4722952583425
20
-2.93630107831865
30
0
41
1
10
35.4627817747232
20
-2.77486681675012
30
0
41
1
10
35.4555785357028
20
-2.64679834074369
30
0
41
1
10
35.4531658090065
20
-2.60294120179316
30
0
41
1
10
35.4495168922723
20
-2.53536546803397
30
0
41
1
10
35.4482940219394
20
-2.51251205353955
30
0
41
1
10
35.4458438286105
20
-2.46634875924673
30
0
41
1
10
35.4446177288486
20
-2.44306449425153
30
0
41
1
10
35.4384782502655
20
-2.32564048641026
30
0
41
1
10
35.4335497606099
20
-2.22850378254577
30
0
41
1
10
35.4286574365221
20
-2.12826907796395
30
0
0
SPLINE
5
F1
100
AcDbEntity
8
1
62
256
6
ByLayer
370
18
48
1
60
0
100
AcDbSpline
70
4
71
3
72
11
73
7
40
0
40
0
40
0
40
0
40
0.1253980954143
40
0.512990010941391
40
0.968113741588136
40
1
40
1
40
1
40
1
41
1
10
48
20
0.245185668483174
30
0
41
1
10
48
20
0.163685800468301
30
0
41
1
10
48
20
-0.171543595099337
30
0
41
1
10
48
20
-0.809390355000744
30
0
41
1
10
48
20
-1.34600345046334
30
0
41
1
10
48
20
-1.61678166432969
30
0
41
1
10
48
20
-1.63438735228229
30
0
0
SPLINE
5
F2
100
AcDbEntity
8
1
62
256
6
ByLayer
370
13
48
1
60
0
100
AcDbSpline
70
4
71
3
72
11
73
7
40
0
40
0
40
0
40
0
40
0.143128345364088
40
0.465736089636925
40
0.966248947229557
40
1
40
1
40
1
40
1
41
1
10
43.1655083637034
20
2.20637893170152
30
0
41
1
10
43.1581392002245
20
2.30011307278465
30
0
41
1
10
43.1342772343622
20
2.58886432208337
30
0
41
1
10
43.0852910425616
20
3.07051179320467
30
0
41
1
10
43.0434663789606
20
3.28519973827466
30
0
41
1
10
43.017920021112
20
3.3350007275684
30
0
41
1
10
43.0163082250181
20
3.33781343270803
30
0
0
SPLINE
5
F3
100
AcDbEntity
8
1
62
256
6
ByLayer
370
13
48
1
60
0
100
AcDbSpline
70
4
71
3
72
10
73
6
40
0
40
0
40
0
40
0
40
0.0290829367808647
40
0.8561303375974
40
1
40
1
40
1
40
1
41
1.04
10
44.1566806988762
20
1.44277594548041
30
0
41
1.04
10
44.1553218614699
20
1.46346730154155
30
0
41
1.04
10
44.1152626316781
20
2.07060439111874
30
0
41
1.04
10
44.0664180338412
20
2.7084066126825
30
0
41
1.04
10
44.0151273527781
20
3.0729993834076
30
0
41
1.04
10
44.0074607056721
20
3.12058144175248
30
0
0
SPLINE
5
F4
100
AcDbEntity
8
1
62
256
6
ByLayer
370
13
48
1
60
0
100
AcDbSpline
70
4
71
3
72
10
73
6
40
0
40
0
40
0
40
0
40
0.336996614968247
40
0.835064706878255
40
1
40
1
40
1
40
1
41
1.04
10
43.2750721608602
20
-3.31078376534879
30
0
41
1.04
10
43.2572954216959
20
-3.26172595571703
30
0
41
1.04
10
43.2141826028894
20
-3.04431358466803
30
0
41
1.04
10
43.1653111453741
20
-2.55762979796929
30
0
41
1.04
10
43.1336546787982
20
-2.15364672110305
30
0
41
1.04
10
43.1258251392955
20
-2.04901596220336
30
0
0
SPLINE
5
F5
100
AcDbEntity
8
1
62
256
6
ByLayer
370
13
48
1
60
0
100
AcDbSpline
70
4
71
3
72
10
73
6
40
0
40
0
40
0
40
0
40
0.343198201440293
40
0.706399339575221
40
1
40
1
40
1
40
1
41
1
10
47.1331066066249
20
-1.23279147513372
30
0
41
1
10
47.1161237757356
20
-0.966386673695951
30
0
41
1
10
47.0810535992142
20
-0.388777822178582
30
0
41
1
10
47.0305382724066
20
0.471628314236028
30
0
41
1
10
46.9980263561473
20
1.00350713935049
30
0
41
1
10
46.9835586574386
20
1.23052427822148
30
0
0
SPLINE
5
F6
100
AcDbEntity
8
1
62
256
6
ByLayer
370
18
48
1
60
0
100
AcDbSpline
70
4
71
3
72
10
73
6
40
0
40
0
40
0
40
0
40
0.377684319613009
40
0.754593854635074
40
1
40
1
40
1
40
1
41
1
10
47.7000000259534
20
-1.61736120797519
30
0
41
1
10
47.700000030645
20
-1.37152598040674
30
0
41
1
10
47.7000000021967
20
-0.84394146680205
30
0
41
1
10
47.699999934613
20
-0.0970000240324111
30
0
41
1
10
47.6999999244113
20
0.363635882883386
30
0
41
1
10
47.6999999229549
20
0.542092398636527
30
0
0
SPLINE
5
F7
100
AcDbEntity
8
1
62
256
6
ByLayer
370
18
48
1
60
0
100
AcDbSpline
70
4
71
3
72
26
73
22
40
0
40
0
40
0
40
0
40
0.124999999999999
40
0.249999999999997
40
0.249999999999997
40
0.312499999999996
40
0.312499999999996
40
0.343749999999996
40
0.343749999999996
40
0.374999999999996
40
0.499999999999996
40
0.499999999999996
40
0.624999999999997
40
0.624999999999997
40
0.749999999999998
40
0.749999999999998
40
0.812499999999998
40
0.812499999999998
40
0.874999999999999
40
0.874999999999999
40
1
40
1
40
1
40
1
41
1
10
47.0137534204922
20
1.22977370720474
30
0
41
1
10
47.0199724852741
20
1.12896485029674
30
0
41
1
10
47.0323838575636
20
0.92466901045853
30
0
41
1
10
47.0449900703169
20
0.715142695342792
30
0
41
1
10
47.0545766691882
20
0.556013057375111
30
0
41
1
10
47.0577957226703
20
0.502638251240796
30
0
41
1
10
47.0626521765331
20
0.422069211087262
30
0
41
1
10
47.064275866682
20
0.395116699700907
30
0
41
1
10
47.0675129740022
20
0.341306241529168
30
0
41
1
10
47.0755911174448
20
0.20685612990539
30
0
41
1
10
47.083553594703
20
0.0727788654314168
30
0
41
1
10
47.0960824387811
20
-0.141275773969852
30
0
41
1
10
47.1022523387672
20
-0.248068798684557
30
0
41
1
10
47.1146514574138
20
-0.461175174193556
30
0
41
1
10
47.1208989618428
20
-0.567487210319911
30
0
41
1
10
47.1303822128696
20
-0.726582036019039
30
0
41
1
10
47.1335632733256
20
-0.779587761881885
30
0
41
1
10
47.13990235065
20
-0.884511686423963
30
0
41
1
10
47.1430662638543
20
-0.936548431595355
30
0
41
1
10
47.1525527675437
20
-1.09139822202084
30
0
41
1
10
47.1588733312646
20
-1.19295561430479
30
0
41
1
10
47.1652211608127
20
-1.29283993275405
30
0
0
SPLINE
5
F8
100
AcDbEntity
8
1
62
256
6
ByLayer
370
13
48
1
60
0
100
AcDbSpline
70
4
71
3
72
10
73
6
40
0
40
0
40
0
40
0
40
0.14892680634529
40
0.484001562917563
40
1
40
1
40
1
40
1
41
1.04
10
36.6623342022207
20
1.35691489547651
30
0
41
1.04
10
36.6552751808539
20
1.46577000271957
30
0
41
1.04
10
36.6321992448286
20
1.81315255600537
30
0
41
1.04
10
36.5834565699895
20
2.47532652848795
30
0
41
1.04
10
36.54066430731
20
2.90102268153762
30
0
41
1.04
10
36.5137716271114
20
3.08054559631297
30
0
0
SPLINE
5
F9
100
AcDbEntity
8
1
62
256
6
ByLayer
370
18
48
1
60
0
100
AcDbSpline
70
4
71
3
72
29
73
25
40
0
40
0
40
0
40
0
40
0.125
40
0.125
40
0.1875
40
0.1875
40
0.21875
40
0.21875
40
0.25
40
0.25
40
0.375
40
0.375
40
0.5
40
0.5
40
0.625
40
0.625
40
0.65625
40
0.65625
40
0.6875
40
0.75
40
0.75
40
0.875
40
0.875
40
1
40
1
40
1
40
1
41
1
10
36.2389652834172
20
1.89584802375558
30
0
41
1
10
36.2320972645069
20
2.01983394766288
30
0
41
1
10
36.2252016830092
20
2.14027281863881
30
0
41
1
10
36.2148257372538
20
2.31556998448386
30
0
41
1
10
36.2113622970635
20
2.37310710689275
30
0
41
1
10
36.206157050324
20
2.45804807024746
30
0
41
1
10
36.2044202342091
20
2.48613415022285
30
0
41
1
10
36.2009420405898
20
2.54184601320566
30
0
41
1
10
36.1991984382544
20
2.56950620417911
30
0
41
1
10
36.1905120240612
20
2.70591268900316
30
0
41
1
10
36.1836366073253
20
2.80940745475613
30
0
41
1
10
36.169926709387
20
3.00549565572484
30
0
41
1
10
36.1631004572425
20
3.0980884093203
30
0
41
1
10
36.1494297933566
20
3.27237226670917
30
0
41
1
10
36.1425846758684
20
3.3540642681707
30
0
41
1
10
36.1339460420782
20
3.44914264154332
30
0
41
1
10
36.1322119179694
20
3.46782824126939
30
0
41
1
10
36.1287519766656
20
3.50429149778839
30
0
41
1
10
36.1235698864393
20
3.55767858777642
30
0
41
1
10
36.1184028595258
20
3.60718944965947
30
0
41
1
10
36.1080693167825
20
3.70112676638607
30
0
41
1
10
36.1011793120266
20
3.75698574453878
30
0
41
1
10
36.0873256328058
20
3.85528420512318
30
0
41
1
10
36.0803492836747
20
3.89772417013506
30
0
41
1
10
36.0733765021795
20
3.93329355187924
30
0
0
SPLINE
5
FA
100
AcDbEntity
8
1
62
256
6
ByLayer
370
13
48
1
60
0
100
AcDbSpline
70
4
71
3
72
10
73
6
40
0
40
0
40
0
40
0
40
0.479427193688177
40
0.963028664349079
40
1
40
1
40
1
40
1
41
1
10
42.2838269048323
20
-3.03999181234792
30
0
41
1
10
42.2608041070079
20
-2.8755555968807
30
0
41
1
10
42.2139664400657
20
-2.41956511852649
30
0
41
1
10
42.1632907780043
20
-1.70251950246819
30
0
41
1
10
42.1365124854801
20
-1.28614500455609
30
0
41
1
10
42.1346085339854
20
-1.25636658612197
30
0
0
SPLINE
5
FB
100
AcDbEntity
8
1
62
256
6
ByLayer
370
13
48
1
60
0
100
AcDbSpline
70
4
71
3
72
10
73
6
40
0
40
0
40
0
40
0
40
0.214138293797152
40
0.576774508855385
40
1
40
1
40
1
40
1
41
1.04
10
46.8018630154943
20
-0.943807451962515
30
0
41
1.04
10
46.791216121162
20
-0.771551089541425
30
0
41
1.04
10
46.7624452695509
20
-0.295228405878125
30
0
41
1.04
10
46.7118512579774
20
0.566668131404613
30
0
41
1.04
10
46.6730486945828
20
1.19711837612375
30
0
41
1.04
10
46.652225898989
20
1.51072284959738
30
0
0
SPLINE
5
FC
100
AcDbEntity
8
1
62
256
6
ByLayer
370
18
48
1
60
0
100
AcDbSpline
70
4
71
3
72
30
73
26
40
0
40
0
40
0
40
0
40
0.125000000000002
40
0.125000000000002
40
0.250000000000004
40
0.250000000000004
40
0.312500000000005
40
0.312500000000005
40
0.343750000000005
40
0.343750000000005
40
0.375000000000005
40
0.375000000000005
40
0.500000000000005
40
0.500000000000005
40
0.625000000000005
40
0.625000000000005
40
0.750000000000005
40
0.750000000000005
40
0.781250000000005
40
0.781250000000005
40
0.812500000000004
40
0.812500000000004
40
0.875000000000003
40
0.875000000000003
40
1
40
1
40
1
40
1
41
1
10
46.681752631385
20
-0.941571827334457
30
0
41
1
10
46.6753130305426
20
-0.830124977636956
30
0
41
1
10
46.6689038544584
20
-0.717835202013816
30
0
41
1
10
46.6559957685987
20
-0.49162491886841
30
0
41
1
10
46.6494746816696
20
-0.377706786037066
30
0
41
1
10
46.6396973735247
20
-0.205577496195218
30
0
41
1
10
46.6364440740776
20
-0.147991318184836
30
0
41
1
10
46.6315935643761
20
-0.0612874224612199
30
0
41
1
10
46.629981564733
20
-0.032331988968906
30
0
41
1
10
46.6267698573481
20
0.0256892009116996
30
0
41
1
10
46.6251687412991
20
0.0547827677746966
30
0
41
1
10
46.6172015823066
20
0.200212232791358
30
0
41
1
10
46.6110096464596
20
0.315455947443724
30
0
41
1
10
46.5986010622951
20
0.543853373043078
30
0
41
1
10
46.5923467229785
20
0.657007000069541
30
0
41
1
10
46.5795994065828
20
0.881251127315323
30
0
41
1
10
46.573118946313
20
0.992341679375784
30
0
41
1
10
46.5648946280043
20
1.12988269891417
30
0
41
1
10
46.5632437331223
20
1.15732459251061
30
0
41
1
10
46.5599307267563
20
1.21207410209209
30
0
41
1
10
46.5582666700283
20
1.23941340829251
30
0
41
1
10
46.5532757711298
20
1.32095801492332
30
0
41
1
10
46.5499515587387
20
1.37466616875616
30
0
41
1
10
46.540008167528
20
1.53383301385028
30
0
41
1
10
46.5334243164635
20
1.63733500774794
30
0
41
1
10
46.5269108764727
20
1.73820287032828
30
0
0
SPLINE
5
FD
100
AcDbEntity
8
1
62
256
6
ByLayer
370
18
48
1
60
0
100
AcDbSpline
70
4
71
3
72
27
73
23
40
0
40
0
40
0
40
0
40
0.125
40
0.125
40
0.249999999999999
40
0.249999999999999
40
0.312499999999999
40
0.312499999999999
40
0.374999999999999
40
0.374999999999999
40
0.499999999999998
40
0.624999999999998
40
0.624999999999998
40
0.687499999999997
40
0.687499999999997
40
0.718749999999997
40
0.718749999999997
40
0.749999999999997
40
0.749999999999997
40
0.874999999999999
40
0.874999999999999
40
1
40
1
40
1
40
1
41
1
10
45.8989047712693
20
2.38962367210672
30
0
41
1
10
45.9056158612564
20
2.29347634632126
30
0
41
1
10
45.9123585636179
20
2.19374319487807
30
0
41
1
10
45.925811821529
20
1.98712282364119
30
0
41
1
10
45.9325196443549
20
1.88023631989134
30
0
41
1
10
45.9425504857594
20
1.71445302787009
30
0
41
1
10
45.9458898093646
20
1.65828189834792
30
0
41
1
10
45.9525704388988
20
1.54409040964498
30
0
41
1
10
45.9558878192559
20
1.4864788229502
30
0
41
1
10
45.9657794555742
20
1.31249061459164
30
0
41
1
10
45.978828795686
20
1.07713166290912
30
0
41
1
10
45.9918701756708
20
0.835223942251275
30
0
41
1
10
46.0017444090136
20
0.651313422608979
30
0
41
1
10
46.005051342702
20
0.589595617528829
30
0
41
1
10
46.0100475710912
20
0.496384947773123
30
0
41
1
10
46.011718958443
20
0.465208995482215
30
0
41
1
10
46.0150758859304
20
0.402642684370079
30
0
41
1
10
46.0167631257868
20
0.371220786730277
30
0
41
1
10
46.025199128178
20
0.214333859099383
30
0
41
1
10
46.032004499264
20
0.0890604861465363
30
0
41
1
10
46.0455079143084
20
-0.161031104929236
30
0
41
1
10
46.0522029953654
20
-0.285850457449186
30
0
41
1
10
46.0588659492088
20
-0.410444297100725
30
0
0
SPLINE
5
FE
100
AcDbEntity
8
1
62
256
6
ByLayer
370
13
48
1
60
0
100
AcDbSpline
70
4
71
3
72
10
73
6
40
0
40
0
40
0
40
0
40
0.0942775875628479
40
0.91797747123088
40
1
40
1
40
1
40
1
41
1
10
45.8105594845884
20
-0.0389657790635169
30
0
41
1
10
45.8059671561348
20
0.0385179920079963
30
0
41
1
10
45.7611301791067
20
0.795312187309293
30
0
41
1
10
45.7114727442219
20
1.6179336819593
30
0
41
1
10
45.66533579381
20
2.20873004930669
30
0
41
1
10
45.6611534231884
20
2.26080381096887
30
0
0
SPLINE
5
FF
100
AcDbEntity
8
1
62
256
6
ByLayer
370
13
48
1
60
0
100
AcDbSpline
70
4
71
3
72
10
73
6
40
0
40
0
40
0
40
0
40
0.290527446802019
40
0.781591590698591
40
1
40
1
40
1
40
1
41
1
10
38.3161571998184
20
-0.133277044536499
30
0
41
1
10
38.3024412114586
20
0.0979635119061584
30
0
41
1
10
38.2650453175645
20
0.731264922435486
30
0
41
1
10
38.2149719193073
20
1.53833833422937
30
0
41
1
10
38.1787125309747
20
2.03728642069288
30
0
41
1
10
38.1674601162092
20
2.18155608608302
30
0
0
SPLINE
5
100
100
AcDbEntity
8
1
62
256
6
ByLayer
370
18
48
1
60
0
100
AcDbSpline
70
4
71
3
72
28
73
24
40
0
40
0
40
0
40
0
40
0.125000000000001
40
0.125000000000001
40
0.187500000000002
40
0.218750000000002
40
0.218750000000002
40
0.250000000000002
40
0.250000000000002
40
0.375000000000002
40
0.375000000000002
40
0.500000000000002
40
0.500000000000002
40
0.625000000000002
40
0.625000000000002
40
0.656250000000001
40
0.656250000000001
40
0.687500000000001
40
0.750000000000001
40
0.750000000000001
40
0.875000000000001
40
0.875000000000001
40
1
40
1
40
1
40
1
41
1
10
38.5936495600135
20
2.36647048394678
30
0
41
1
10
38.6004367144763
20
2.25243481323048
30
0
41
1
10
38.6072458712109
20
2.13437970959177
30
0
41
1
10
38.6176401940107
20
1.95124031012745
30
0
41
1
10
38.6228712915502
20
1.85815298289972
30
0
41
1
10
38.6281346882542
20
1.76275390636783
30
0
41
1
10
38.6316495031555
20
1.69863482859807
30
0
41
1
10
38.6334120941346
20
1.6662733919068
30
0
41
1
10
38.6422091089778
20
1.50367041663097
30
0
41
1
10
38.6491542603486
20
1.37171872343006
30
0
41
1
10
38.6628899424406
20
1.10420554096211
30
0
41
1
10
38.6696793215947
20
0.968643599472585
30
0
41
1
10
38.6832913254814
20
0.693926078243265
30
0
41
1
10
38.6901432400409
20
0.554772202095791
30
0
41
1
10
38.698817874964
20
0.378519964858867
30
0
41
1
10
38.7005599536786
20
0.343107300912635
30
0
41
1
10
38.7040428970656
20
0.272277792980447
30
0
41
1
10
38.7092591757871
20
0.166156707707302
30
0
41
1
10
38.7144526444492
20
0.0604005654947173
30
0
41
1
10
38.7248167746097
20
-0.150633186388603
30
0
41
1
10
38.7316962761942
20
-0.290685546498281
30
0
41
1
10
38.745459651609
20
-0.569526559981085
30
0
41
1
10
38.7523389426778
20
-0.708315478847993
30
0
41
1
10
38.7592409115487
20
-0.846457542426151
30
0
0
SPLINE
5
101
100
AcDbEntity
8
1
62
256
6
ByLayer
370
13
48
1
60
0
100
AcDbSpline
70
4
71
3
72
10
73
6
40
0
40
0
40
0
40
0
40
0.157625111680113
40
0.654327700232055
40
1
40
1
40
1
40
1
41
1.04
10
37.9848503136759
20
0.17346481512635
30
0
41
1.04
10
37.9773949655023
20
0.299083735818738
30
0
41
1.04
10
37.9461951697612
20
0.82317775404202
30
0
41
1.04
10
37.8966902022047
20
1.6225466436848
30
0
41
1.04
10
37.8539774906148
20
2.1954919341898
30
0
41
1.04
10
37.8362010986759
20
2.40466582444121
30
0
0
SPLINE
5
102
100
AcDbEntity
8
1
62
256
6
ByLayer
370
13
48
1
60
0
100
AcDbSpline
70
4
71
3
72
10
73
6
40
0
40
0
40
0
40
0
40
0.350114902166992
40
0.838101332396551
40
1
40
1
40
1
40
1
41
1.04
10
41.952567194458
20
-2.89804759593175
30
0
41
1.04
10
41.9357768335341
20
-2.75552097029049
30
0
41
1.04
10
41.8951483496885
20
-2.33724261284695
30
0
41
1.04
10
41.8449280570193
20
-1.62916642840417
30
0
41
1.04
10
41.8116815598809
20
-1.10239215522165
30
0
41
1.04
10
41.8033502354568
20
-0.967851383610324
30
0
0
SPLINE
5
103
100
AcDbEntity
8
1
62
256
6
ByLayer
370
13
48
1
60
0
100
AcDbSpline
70
4
71
3
72
10
73
6
40
0
40
0
40
0
40
0
40
0.136050547037183
40
0.632818683946209
40
1
40
1
40
1
40
1
41
1
10
40.9612354238037
20
-2.33342642189797
30
0
41
1
10
40.9546300090957
20
-2.25345599712892
30
0
41
1
10
40.9238476301631
20
-1.86287280648099
30
0
41
1
10
40.8747471959096
20
-1.1184801041363
30
0
41
1
10
40.8311072576632
20
-0.385304447890775
30
0
41
1
10
40.8122323642359
20
-0.0671736510143432
30
0
0
SPLINE
5
104
100
AcDbEntity
8
1
62
256
6
ByLayer
370
18
48
1
60
0
100
AcDbSpline
70
4
71
3
72
32
73
28
40
0
40
0
40
0
40
0
40
0.0624999999999999
40
0.0624999999999999
40
0.0937499999999999
40
0.0937499999999999
40
0.125
40
0.125
40
0.249999999999999
40
0.249999999999999
40
0.374999999999999
40
0.374999999999999
40
0.499999999999998
40
0.499999999999998
40
0.531249999999998
40
0.531249999999998
40
0.562499999999998
40
0.624999999999998
40
0.624999999999998
40
0.749999999999999
40
0.874999999999999
40
0.874999999999999
40
0.906249999999999
40
0.906249999999999
40
0.937499999999999
40
0.937499999999999
40
1
40
1
40
1
40
1
41
1
10
37.5615468960043
20
0.488710194918582
30
0
41
1
10
37.5581009451428
20
0.558444535452026
30
0
41
1
10
37.5546376369967
20
0.628105175969068
30
0
41
1
10
37.5494089870686
20
0.732483382180249
30
0
41
1
10
37.5476612093585
20
0.767257350683423
30
0
41
1
10
37.5441580619093
20
0.836767434096259
30
0
41
1
10
37.5424019086974
20
0.871518732640538
30
0
41
1
10
37.5336574706293
20
1.04416026976858
30
0
41
1
10
37.5267439958396
20
1.17952102806993
30
0
41
1
10
37.5130585026172
20
1.44490714811818
30
0
41
1
10
37.5062851499208
20
1.57493196109658
30
0
41
1
10
37.4927159993253
20
1.8296328181957
30
0
41
1
10
37.4859184144934
20
1.95430924600515
30
0
41
1
10
37.4772398746393
20
2.10669219852892
30
0
41
1
10
37.4754948159756
20
2.13700992820785
30
0
41
1
10
37.4720099916845
20
2.1969426998765
30
0
41
1
10
37.4667831521643
20
2.28591967011602
30
0
41
1
10
37.4615640919395
20
2.3721629261579
30
0
41
1
10
37.4511453880105
20
2.54106214412707
30
0
41
1
10
37.4373105739914
20
2.75671359724288
30
0
41
1
10
37.4235588756659
20
2.95340794818284
30
0
41
1
10
37.4149404423689
20
3.07026589374897
30
0
41
1
10
37.413215436856
20
3.09333289198756
30
0
41
1
10
37.4097610280303
20
3.13885064022063
30
0
41
1
10
37.4080306251247
20
3.16131305652911
30
0
41
1
10
37.4028603427471
20
3.22738080983416
30
0
41
1
10
37.3994315878788
20
3.26979872560276
30
0
41
1
10
37.3960127673043
20
3.31062130444713
30
0
0
SPLINE
5
105
100
AcDbEntity
8
1
62
256
6
ByLayer
370
13
48
1
60
0
100
AcDbSpline
70
4
71
3
72
10
73
6
40
0
40
0
40
0
40
0
40
0.299123123581802
40
0.791066543756314
40
1
40
1
40
1
40
1
41
1
10
39.6386857234956
20
-1.3200666928569
30
0
41
1
10
39.6245276818653
20
-1.10052963485384
30
0
41
1
10
39.5865844620256
20
-0.485377526054407
30
0
41
1
10
39.5370084376444
20
0.36501643096841
30
0
41
1
10
39.5007713415903
20
0.957707501658206
30
0
41
1
10
39.4898753659521
20
1.13079984656187
30
0
0
SPLINE
5
106
100
AcDbEntity
8
1
62
256
6
ByLayer
370
13
48
1
60
0
100
AcDbSpline
70
4
71
3
72
10
73
6
40
0
40
0
40
0
40
0
40
0.281245189276203
40
0.612157923590927
40
1
40
1
40
1
40
1
41
1
10
36.9936604623083
20
1.07081156187346
30
0
41
1
10
36.9802947252409
20
1.28454041767239
30
0
41
1
10
36.950926891376
20
1.73805665269865
30
0
41
1
10
36.9015711604627
20
2.40600929984643
30
0
41
1
10
36.8651394746721
20
2.78462368218305
30
0
41
1
10
36.8449962835057
20
2.9471079669604
30
0
0
SPLINE
5
107
100
AcDbEntity
8
1
62
256
6
ByLayer
370
13
48
1
60
0
100
AcDbSpline
70
4
71
3
72
10
73
6
40
0
40
0
40
0
40
0
40
0.164289098672322
40
0.977236282969618
40
1
40
1
40
1
40
1
41
1
10
44.488008194111
20
1.16009374048073
30
0
41
1
10
44.4803013524298
20
1.28194044575182
30
0
41
1
10
44.434111571208
20
1.99685217923991
30
0
41
1
10
44.384419799039
20
2.64274684310604
30
0
41
1
10
44.3399268834546
20
2.98634580634968
30
0
41
1
10
44.3387128293805
20
2.99555592801409
30
0
0
SPLINE
5
108
100
AcDbEntity
8
1
62
256
6
ByLayer
370
18
48
1
60
0
100
AcDbSpline
70
4
71
3
72
29
73
25
40
0
40
0
40
0
40
0
40
0.125000000000002
40
0.125000000000002
40
0.250000000000004
40
0.250000000000004
40
0.375000000000007
40
0.375000000000007
40
0.406250000000007
40
0.406250000000007
40
0.437500000000007
40
0.500000000000007
40
0.500000000000007
40
0.625000000000007
40
0.625000000000007
40
0.750000000000006
40
0.750000000000006
40
0.781250000000005
40
0.781250000000005
40
0.812500000000005
40
0.812500000000005
40
0.875000000000003
40
0.875000000000003
40
1
40
1
40
1
40
1
41
1
10
38.8840090828696
20
-0.98270236266444
30
0
41
1
10
38.8770841974567
20
-0.84516263652344
30
0
41
1
10
38.8702059144124
20
-0.706914149627437
30
0
41
1
10
38.8564689252911
20
-0.429045693385376
30
0
41
1
10
38.8496182505731
20
-0.289425226722301
30
0
41
1
10
38.8358857186057
20
-0.0088124550964892
30
0
41
1
10
38.8290030999513
20
0.132179678887553
30
0
41
1
10
38.8203155273752
20
0.309303952986113
30
0
41
1
10
38.8185749931859
20
0.344747420029137
30
0
41
1
10
38.8151041208988
20
0.415308457615822
30
0
41
1
10
38.8099057576
20
0.520811831197108
30
0
41
1
10
38.8047236796924
20
0.625311939038454
30
0
41
1
10
38.7943643365058
20
0.832993944915216
30
0
41
1
10
38.7874760553811
20
0.96969504560434
30
0
41
1
10
38.7737601238818
20
1.23961249403567
30
0
41
1
10
38.7669312940923
20
1.37282893643382
30
0
41
1
10
38.7583245484304
20
1.53710866254548
30
0
41
1
10
38.7565992231938
20
1.5698522564434
30
0
41
1
10
38.7531361948885
20
1.63511188854344
30
0
41
1
10
38.7513993729942
20
1.66760257134729
30
0
41
1
10
38.7461977643389
20
1.76416470091903
30
0
41
1
10
38.7427332997046
20
1.82751155333921
30
0
41
1
10
38.7323545810745
20
2.01452781950508
30
0
41
1
10
38.7254565138764
20
2.13518097853992
30
0
41
1
10
38.7185705879046
20
2.25186587397818
30
0
0
SPLINE
5
109
100
AcDbEntity
8
1
62
256
6
ByLayer
370
13
48
1
60
0
100
AcDbSpline
70
4
71
3
72
11
73
7
40
0
40
0
40
0
40
0
40
0.166795218917441
40
0.664590849094767
40
0.982693490595469
40
1
40
1
40
1
40
1
41
1.04
10
39.3073978357693
20
-1.03319122197725
30
0
41
1.04
10
39.2995030488488
20
-0.906494719895407
30
0
41
1.04
10
39.2678212813046
20
-0.388345993621624
30
0
41
1.04
10
39.2196759908262
20
0.437401437698143
30
0
41
1.04
10
39.1768402678522
20
1.13418574495203
30
0
41
1.04
10
39.1594104030339
20
1.40164611210998
30
0
41
1.04
10
39.1585105468753
20
1.41541062226841
30
0
0
SPLINE
5
10A
100
AcDbEntity
8
1
62
256
6
ByLayer
370
18
48
1
60
0
100
AcDbSpline
70
4
71
3
72
25
73
21
40
0
40
0
40
0
40
0
40
0.125
40
0.125
40
0.25
40
0.25
40
0.375
40
0.5
40
0.5
40
0.5625
40
0.5625
40
0.625
40
0.625
40
0.75
40
0.75
40
0.875
40
0.875
40
0.9375
40
0.9375
40
1
40
1
40
1
40
1
41
1
10
41.5292543932353
20
-3.36123232621557
30
0
41
1
10
41.5224454046679
20
-3.28234685784415
30
0
41
1
10
41.5156037429744
20
-3.19718193532449
30
0
41
1
10
41.5017176007278
20
-3.01394967304012
30
0
41
1
10
41.4947844699166
20
-2.9174741713739
30
0
41
1
10
41.4808677282634
20
-2.71515515435567
30
0
41
1
10
41.4669585417207
20
-2.50346359228507
30
0
41
1
10
41.4532019047821
20
-2.27309585146492
30
0
41
1
10
41.44288188922
20
-2.09311631661998
30
0
41
1
10
41.4394329443594
20
-2.03178137971736
30
0
41
1
10
41.4325863546506
20
-1.9080527366811
30
0
41
1
10
41.4291806819892
20
-1.8455246674215
30
0
41
1
10
41.4189734970169
20
-1.65598697544564
30
0
41
1
10
41.4121634885352
20
-1.52702981601502
30
0
41
1
10
41.3984710328685
20
-1.26398306017313
30
0
41
1
10
41.3915963357177
20
-1.12989322491686
30
0
41
1
10
41.3812068772069
20
-0.924831945299786
30
0
41
1
10
41.3777303912872
20
-0.855819340268198
30
0
41
1
10
41.3707431835243
20
-0.71646583690341
30
0
41
1
10
41.3672632216295
20
-0.646739541610316
30
0
41
1
10
41.3637924938739
20
-0.576965004015619
30
0
0
SPLINE
5
10B
100
AcDbEntity
8
1
62
256
6
ByLayer
370
18
48
1
60
0
100
AcDbSpline
70
4
71
3
72
28
73
24
40
0
40
0
40
0
40
0
40
0.0625
40
0.0625
40
0.125
40
0.125
40
0.25
40
0.25
40
0.375
40
0.375
40
0.499999999999999
40
0.499999999999999
40
0.562499999999999
40
0.562499999999999
40
0.624999999999999
40
0.624999999999999
40
0.75
40
0.75
40
0.875
40
0.875
40
0.9375
40
0.9375
40
1
40
1
40
1
40
1
41
1
10
41.2388829288128
20
-0.438545437948051
30
0
41
1
10
41.2423510441234
20
-0.508416353975349
30
0
41
1
10
41.2458277743272
20
-0.578252652213706
30
0
41
1
10
41.2528016231438
20
-0.717854611727176
30
0
41
1
10
41.2563072053583
20
-0.78778798556877
30
0
41
1
10
41.2667494385077
20
-0.995214322485623
30
0
41
1
10
41.2736386421155
20
-1.13090487296225
30
0
41
1
10
41.287357554218
20
-1.39724150471341
30
0
41
1
10
41.2941845898582
20
-1.52788737156024
30
0
41
1
10
41.3078446035501
20
-1.78411275191252
30
0
41
1
10
41.3146767444632
20
-1.90969283850436
30
0
41
1
10
41.3250152322982
20
-2.09412053226194
30
0
41
1
10
41.3284499281348
20
-2.1544547344478
30
0
41
1
10
41.3353050746635
20
-2.27269773247394
30
0
41
1
10
41.3387273089359
20
-2.3306385356228
30
0
41
1
10
41.3490112345066
20
-2.5009682156815
30
0
41
1
10
41.3559112425391
20
-2.60987272981799
30
0
41
1
10
41.3697946413546
20
-2.81842780461767
30
0
41
1
10
41.3767646016508
20
-2.91807945369246
30
0
41
1
10
41.3872393863536
20
-3.06042369480684
30
0
41
1
10
41.3907436075571
20
-3.10678809748441
30
0
41
1
10
41.3976887988
20
-3.1961241826719
30
0
41
1
10
41.4011363881164
20
-3.23919221364304
30
0
41
1
10
41.40456406343
20
-3.28068945063089
30
0
0
SPLINE
5
10C
100
AcDbEntity
8
1
62
256
6
ByLayer
370
13
48
1
60
0
100
AcDbSpline
70
4
71
3
72
9
73
5
40
0
40
0
40
0
40
0
40
0.791146122505848
40
1
40
1
40
1
40
1
41
1.04
10
45.4792873302703
20
0.267036257491536
30
0
41
1.04
10
45.4407190464698
20
0.91578320909401
30
0
41
1.04
10
45.3912560357187
20
1.72909863984604
30
0
41
1.04
10
45.3403916183267
20
2.35760910706364
30
0
41
1.04
10
45.3297939454329
20
2.47813898267631
30
0
0
SPLINE
5
10D
100
AcDbEntity
8
1
62
256
6
ByLayer
370
18
48
1
60
0
100
AcDbSpline
70
4
71
3
72
28
73
24
40
0
40
0
40
0
40
0
40
0.124999999999998
40
0.124999999999998
40
0.249999999999995
40
0.249999999999995
40
0.281249999999995
40
0.281249999999995
40
0.312499999999995
40
0.374999999999995
40
0.374999999999995
40
0.499999999999996
40
0.624999999999997
40
0.624999999999997
40
0.656249999999998
40
0.656249999999998
40
0.687499999999998
40
0.687499999999998
40
0.749999999999999
40
0.749999999999999
40
0.874999999999999
40
0.874999999999999
40
1
40
1
40
1
40
1
41
1
10
40.206779942571
20
-2.32511291656246
30
0
41
1
10
40.1998749165499
20
-2.21000256173693
30
0
41
1
10
40.1929601754858
20
-2.09099539876635
30
0
41
1
10
40.1791050463853
20
-1.84516446402836
30
0
41
1
10
40.1721644316276
20
-1.71834150669096
30
0
41
1
10
40.16343812638
20
-1.55475275947035
30
0
41
1
10
40.1616945396469
20
-1.52186179809411
30
0
41
1
10
40.1582195069182
20
-1.45592536320112
30
0
41
1
10
40.1530205236286
20
-1.35670089090186
30
0
41
1
10
40.1478557565949
20
-1.25652795675086
30
0
41
1
10
40.1375560355176
20
-1.05493661190633
30
0
41
1
10
40.1239093230795
20
-0.782832908504162
30
0
41
1
10
40.110255287059
20
-0.504140892422782
30
0
41
1
10
40.1016400305924
20
-0.327846292115652
30
0
41
1
10
40.0999128359222
20
-0.292481495381736
30
0
41
1
10
40.0964479431876
20
-0.221537684659466
30
0
41
1
10
40.0947147331056
20
-0.186050672221086
30
0
41
1
10
40.0895237311287
20
-0.0798318740538662
30
0
41
1
10
40.0860686300289
20
-0.0092219537063443
30
0
41
1
10
40.0756963296171
20
0.202010125093352
30
0
41
1
10
40.0687562945302
20
0.342035397342045
30
0
41
1
10
40.0548609773686
20
0.620516027387367
30
0
41
1
10
40.0479187793091
20
0.758972051535608
30
0
41
1
10
40.0409836056598
20
0.896628539331147
30
0
0
SPLINE
5
10E
100
AcDbEntity
8
1
62
256
6
ByLayer
370
13
48
1
60
0
100
AcDbSpline
70
4
71
3
72
11
73
7
40
0
40
0
40
0
40
0
40
0.004893846339424
40
0.505259333349839
40
0.989894899320698
40
1
40
1
40
1
40
1
41
1.04
10
40.6299854806231
20
-2.10447907323014
30
0
41
1.04
10
40.6297486958753
20
-2.10136969695147
30
0
41
1.04
10
40.6053003800172
20
-1.77985187881839
30
0
41
1.04
10
40.5570455435202
20
-1.05028885977869
30
0
41
1.04
10
40.5069579961821
20
-0.198873111139865
30
0
41
1.04
10
40.4814095294622
20
0.231134926389596
30
0
41
1.04
10
40.4808874308906
20
0.239920341111845
30
0
0
SPLINE
5
10F
100
AcDbEntity
8
1
62
256
6
ByLayer
370
18
48
1
60
0
100
AcDbSpline
70
4
71
3
72
12
73
8
40
0
40
0
40
0
40
0
40
0.25
40
0.25
40
0.5
40
0.5
40
1
40
1
40
1
40
1
41
1
10
44.8915925836245
20
3.37363063993291
30
0
41
1
10
44.9274244596079
20
3.29887699939692
30
0
41
1
10
44.9634044186065
20
3.22409136650666
30
0
41
1
10
45.0357229168619
20
3.07448482114918
30
0
41
1
10
45.0720735158971
20
2.99963830191723
30
0
41
1
10
45.1816902534025
20
2.77525766594894
30
0
41
1
10
45.255306147228
20
2.62629669300966
30
0
41
1
10
45.3297939454329
20
2.47813898267631
30
0
0
SPLINE
5
110
100
AcDbEntity
8
1
62
256
6
ByLayer
370
18
48
1
60
0
100
AcDbSpline
70
4
71
3
72
28
73
24
40
0
40
0
40
0
40
0
40
0.124999999999983
40
0.124999999999983
40
0.187499999999999
40
0.187499999999999
40
0.250000000000015
40
0.250000000000015
40
0.374999999999992
40
0.374999999999992
40
0.499999999999969
40
0.499999999999969
40
0.624999999999946
40
0.624999999999946
40
0.749999999999922
40
0.749999999999922
40
0.812499999999942
40
0.812499999999942
40
0.874999999999961
40
0.874999999999961
40
0.937499999999981
40
0.937499999999981
40
1
40
1
40
1
40
1
41
1
10
45.3297939454329
20
2.47813898267631
30
0
41
1
10
45.3392095918778
20
2.45941107485518
30
0
41
1
10
45.3501442455704
20
2.44180273892761
30
0
41
1
10
45.3681909569584
20
2.41659977773819
30
0
41
1
10
45.3744983283833
20
2.40839470226737
30
0
41
1
10
45.3875959257712
20
2.39241803302067
30
0
41
1
10
45.3943033488403
20
2.38474523066356
30
0
41
1
10
45.4148470071256
20
2.36256964460637
30
0
41
1
10
45.4291016781915
20
2.34890001327636
30
0
41
1
10
45.4586115055793
20
2.32359667582566
30
0
41
1
10
45.4739553056678
20
2.31192602656961
30
0
41
1
10
45.5045971956837
20
2.29141147987437
30
0
41
1
10
45.5200051234386
20
2.28245551323479
30
0
41
1
10
45.5509409429987
20
2.26738070885159
30
0
41
1
10
45.5665877171321
20
2.26124415259943
30
0
41
1
10
45.5891387277395
20
2.2550246558599
30
0
41
1
10
45.5965329879555
20
2.25343272910178
30
0
41
1
10
45.6110304591125
20
2.25134825548491
30
0
41
1
10
45.6181882246408
20
2.25085952748205
30
0
41
1
10
45.6317790877205
20
2.25121199924206
30
0
41
1
10
45.6382303032953
20
2.25203915858611
30
0
41
1
10
45.650336830467
20
2.25519838856803
30
0
41
1
10
45.6559945109861
20
2.25752563329411
30
0
41
1
10
45.6611534231885
20
2.26080381096858
30
0
0
SPLINE
5
111
100
AcDbEntity
8
1
62
256
6
ByLayer
370
18
48
1
60
0
100
AcDbSpline
70
4
71
3
72
10
73
6
40
0
40
0
40
0
40
0
40
0.5
40
0.5
40
1
40
1
40
1
40
1
41
1
10
45.6611534231884
20
2.26080381096887
30
0
41
1
10
45.7012213895652
20
2.28626458790839
30
0
41
1
10
45.7410369010286
20
2.30969970559676
30
0
41
1
10
45.8202579452621
20
2.35261363386849
30
0
41
1
10
45.8596831347079
20
2.37210239612699
30
0
41
1
10
45.8989047712692
20
2.38962367210721
30
0
0
SPLINE
5
112
100
AcDbEntity
8
1
62
256
6
ByLayer
370
18
48
1
60
0
100
AcDbSpline
70
4
71
3
72
13
73
9
40
0
40
0
40
0
40
0
40
0.249999999999962
40
0.374999999999958
40
0.374999999999958
40
0.499999999999954
40
0.499999999999954
40
1
40
1
40
1
40
1
41
1
10
45.8989047712696
20
2.38962367210692
30
0
41
1
10
45.9503507658074
20
2.33688921139043
30
0
41
1
10
46.0279405617704
20
2.25703098249204
30
0
41
1
10
46.1062225302498
20
2.17607004217098
30
0
41
1
10
46.1585707465962
20
2.1218542639119
30
0
41
1
10
46.1848499799457
20
2.09459951847822
30
0
41
1
10
46.316347642114
20
1.95805591768161
30
0
41
1
10
46.4215449669515
20
1.84829870832235
30
0
41
1
10
46.5269108764727
20
1.73820287032825
30
0
0
SPLINE
5
113
100
AcDbEntity
8
1
62
256
6
ByLayer
370
18
48
1
60
0
100
AcDbSpline
70
4
71
3
72
8
73
4
40
0
40
0
40
0
40
0
40
1
40
1
40
1
40
1
41
1
10
46.5269108764727
20
1.73820287032822
30
0
41
1
10
46.5684417176518
20
1.66128274415141
30
0
41
1
10
46.6101938042599
20
1.58543989271118
30
0
41
1
10
46.652225898989
20
1.51072284959739
30
0
0
SPLINE
5
114
100
AcDbEntity
8
1
62
256
6
ByLayer
370
18
48
1
60
0
100
AcDbSpline
70
4
71
3
72
28
73
24
40
0
40
0
40
0
40
0
40
0.124999999999983
40
0.124999999999983
40
0.187499999999999
40
0.187499999999999
40
0.250000000000015
40
0.250000000000015
40
0.374999999999992
40
0.374999999999992
40
0.49999999999997
40
0.49999999999997
40
0.624999999999947
40
0.624999999999947
40
0.749999999999924
40
0.749999999999924
40
0.812499999999943
40
0.812499999999943
40
0.874999999999962
40
0.874999999999962
40
0.937499999999981
40
0.937499999999981
40
1
40
1
40
1
40
1
41
1
10
46.652225898989
20
1.51072284959741
30
0
41
1
10
46.6616572809512
20
1.49395744741517
30
0
41
1
10
46.6726169001003
20
1.47743924466445
30
0
41
1
10
46.6907113445646
20
1.452943744267
30
0
41
1
10
46.6970359308896
20
1.44481521957044
30
0
41
1
10
46.7101720670099
20
1.42869143104068
30
0
41
1
10
46.7168985689459
20
1.42079873026779
30
0
41
1
10
46.7374998658864
20
1.39757135822435
30
0
41
1
10
46.751793268615
20
1.38268367924135
30
0
41
1
10
46.7813693586645
20
1.35397092334685
30
0
41
1
10
46.7967341937492
20
1.34009168477706
30
0
41
1
10
46.8273879822584
20
1.31427664072768
30
0
41
1
10
46.8427909540776
20
1.30221928061965
30
0
41
1
10
46.8736966755169
20
1.27991930388754
30
0
41
1
10
46.889302403285
20
1.26962873563633
30
0
41
1
10
46.9117804011978
20
1.25646731002667
30
0
41
1
10
46.919150427039
20
1.25243548859183
30
0
41
1
10
46.9335991634906
20
1.24517800683842
30
0
41
1
10
46.9407307890686
20
1.24193271366056
30
0
41
1
10
46.9542694487227
20
1.23657200061038
30
0
41
1
10
46.9606979231843
20
1.23443944493624
30
0
41
1
10
46.9727669716479
20
1.23144630525039
30
0
41
1
10
46.9784099035841
20
1.2305815533062
30
0
41
1
10
46.9835586574387
20
1.23052427822117
30
0
0
SPLINE
5
115
100
AcDbEntity
8
1
62
256
6
ByLayer
370
18
48
1
60
0
100
AcDbSpline
70
4
71
3
72
8
73
4
40
0
40
0
40
0
40
0
40
1
40
1
40
1
40
1
41
1
10
46.9835586574386
20
1.23052427822148
30
0
41
1
10
46.9936395102506
20
1.23041213813508
30
0
41
1
10
47.0037039537201
20
1.23016007050359
30
0
41
1
10
47.0137534204923
20
1.22977370720474
30
0
0
SPLINE
5
116
100
AcDbEntity
8
1
62
256
6
ByLayer
370
18
48
1
60
0
100
AcDbSpline
70
4
71
3
72
10
73
6
40
0
40
0
40
0
40
0
40
0.5
40
0.5
40
1
40
1
40
1
40
1
41
1
10
47.0137534204923
20
1.22977370720474
30
0
41
1
10
47.1254716930103
20
1.11370644473854
30
0
41
1
10
47.2383436324343
20
0.998188105769856
30
0
41
1
10
47.4667440811783
20
0.768625766213006
30
0
41
1
10
47.5821269936398
20
0.654444298587237
30
0
41
1
10
47.6999999229549
20
0.542092398636555
30
0
0
SPLINE
5
117
100
AcDbEntity
8
1
62
256
6
ByLayer
370
18
48
1
60
0
100
AcDbSpline
70
4
71
3
72
10
73
6
40
0
40
0
40
0
40
0
40
0.5
40
0.5
40
1
40
1
40
1
40
1
41
1
10
47.6999999229549
20
0.542092398636555
30
0
41
1
10
47.7480504090414
20
0.486790079226409
30
0
41
1
10
47.797021241401
20
0.434163670739309
30
0
41
1
10
47.8970115342755
20
0.334833631479483
30
0
41
1
10
47.9479873964827
20
0.288234048237968
30
0
41
1
10
48.0000000000004
20
0.24518566848289
30
0
0
SPLINE
5
118
100
AcDbEntity
8
1
62
256
6
ByLayer
370
18
48
1
60
0
100
AcDbSpline
70
4
71
3
72
28
73
24
40
0
40
0
40
0
40
0
40
0.0339466969285735
40
0.0339466969285735
40
0.066148473697621
40
0.066148473697621
40
0.0983502504666685
40
0.0983502504666685
40
0.227157357542859
40
0.227157357542859
40
0.291560911080954
40
0.291560911080954
40
0.35596446461905
40
0.35596446461905
40
0.388166241388097
40
0.388166241388097
40
0.420368018157145
40
0.420368018157145
40
0.48477157169524
40
0.48477157169524
40
0.74238578584762
40
0.74238578584762
40
1
40
1
40
1
40
1
41
1
10
48
20
0.244096392435068
30
0
41
1
10
48
20
0.244070330577614
30
0
41
1
10
48
20
0.24446837162634
30
0
41
1
10
48
20
0.246083974913205
30
0
41
1
10
48
20
0.247261098782189
30
0
41
1
10
48
20
0.250406503627261
30
0
41
1
10
48
20
0.252366200390725
30
0
41
1
10
48
20
0.264046186081117
30
0
41
1
10
48
20
0.279342567570808
30
0
41
1
10
48
20
0.310867946543368
30
0
41
1
10
48
20
0.322824478852169
30
0
41
1
10
48
20
0.349579213075799
30
0
41
1
10
48
20
0.364350414456141
30
0
41
1
10
48
20
0.388859684368725
30
0
41
1
10
48
20
0.397395721967314
30
0
41
1
10
48
20
0.414792952493627
30
0
41
1
10
48
20
0.423647647694906
30
0
41
1
10
48
20
0.450680468978192
30
0
41
1
10
48
20
0.469350126203267
30
0
41
1
10
48
20
0.565201468402904
30
0
41
1
10
48
20
0.650307958076496
30
0
41
1
10
48
20
0.836791973244544
30
0
41
1
10
48
20
0.93821241631656
30
0
41
1
10
48
20
1.047917990522
30
0
0
SPLINE
5
119
100
AcDbEntity
8
1
62
256
6
ByLayer
370
18
48
1
60
0
100
AcDbSpline
70
4
71
3
72
8
73
4
40
0
40
0
40
0
40
0
40
1
40
1
40
1
40
1
41
1
10
48
20
1.19669414332023
30
0
41
1
10
48.0066750133554
20
1.14590522585803
30
0
41
1
10
48.0072443128227
20
1.09589894676361
30
0
41
1
10
48
20
1.047917990522
30
0
0
SPLINE
5
11A
100
AcDbEntity
8
1
62
256
6
ByLayer
370
18
48
1
60
0
100
AcDbSpline
70
4
71
3
72
34
73
30
40
0
40
0
40
0
40
0
40
0.25
40
0.25
40
0.375
40
0.375
40
0.437500000000001
40
0.437500000000001
40
0.468750000000001
40
0.468750000000001
40
0.500000000000001
40
0.500000000000001
40
0.562500000000001
40
0.562500000000001
40
0.625000000000001
40
0.625000000000001
40
0.687500000000001
40
0.687500000000001
40
0.718750000000001
40
0.718750000000001
40
0.750000000000001
40
0.750000000000001
40
0.875000000000001
40
0.875000000000001
40
0.937500000000001
40
0.937500000000001
40
0.96875
40
0.96875
40
1
40
1
40
1
40
1
41
1
10
48
20
1.19669414332026
30
0
41
1
10
48
20
1.31455543543052
30
0
41
1
10
48
20
1.43898179227128
30
0
41
1
10
48
20
1.63519957992821
30
0
41
1
10
48
20
1.70220479250884
30
0
41
1
10
48
20
1.80514162985844
30
0
41
1
10
48
20
1.83985682386285
30
0
41
1
10
47.9999999999999
20
1.89256867862835
30
0
41
1
10
48
20
1.91025414845282
30
0
41
1
10
48
20
1.94574696880997
30
0
41
1
10
48
20
1.96352992097761
30
0
41
1
10
48
20
2.01728341039035
30
0
41
1
10
48
20
2.05377567213665
30
0
41
1
10
48
20
2.12817514750614
30
0
41
1
10
48
20
2.16605830424376
30
0
41
1
10
48
20
2.24318945559952
30
0
41
1
10
48
20
2.28244192900343
30
0
41
1
10
48
20
2.34237690861289
30
0
41
1
10
48
20
2.36253046136304
30
0
41
1
10
48
20
2.40319262456362
30
0
41
1
10
48
20
2.42361290894525
30
0
41
1
10
48
20
2.52568275547921
30
0
41
1
10
48
20
2.60771093727908
30
0
41
1
10
48
20
2.73129607415055
30
0
41
1
10
48
20
2.77258134313999
30
0
41
1
10
48
20
2.8346477682305
30
0
41
1
10
48
20
2.85535972710159
30
0
41
1
10
48
20
2.89683127679092
30
0
41
1
10
48
20
2.91762328954587
30
0
41
1
10
48
20
2.93824408723043
30
0
0
SPLINE
5
11B
100
AcDbEntity
8
1
62
256
6
ByLayer
370
18
48
1
60
0
100
AcDbSpline
70
4
71
3
72
10
73
6
40
0
40
0
40
0
40
0
40
0.5
40
0.5
40
1
40
1
40
1
40
1
41
1
10
48
20
2.93824408723333
30
0
41
1
10
47.9507456836215
20
2.98892649306629
30
0
41
1
10
47.9011171464608
20
3.03934511495353
30
0
41
1
10
47.8011219881584
20
3.13985593043267
30
0
41
1
10
47.7507554367657
20
3.18994822086637
30
0
41
1
10
47.7000000259534
20
3.24001096755009
30
0
0
SPLINE
5
11C
100
AcDbEntity
8
1
62
256
6
ByLayer
370
18
48
1
60
0
100
AcDbSpline
70
4
71
3
72
16
73
12
40
0
40
0
40
0
40
0
40
0.125000000000009
40
0.125000000000009
40
0.250000000000019
40
0.250000000000019
40
0.500000000000013
40
0.500000000000013
40
0.750000000000006
40
0.750000000000006
40
1
40
1
40
1
40
1
41
1
10
47.7000000259534
20
3.24001096755009
30
0
41
1
10
47.6613278881736
20
3.25202095898675
30
0
41
1
10
47.6227318129629
20
3.26355636278618
30
0
41
1
10
47.5458675440068
20
3.28561223433167
30
0
41
1
10
47.5076053033111
20
3.29612915591153
30
0
41
1
10
47.3932507513776
20
3.32616012768551
30
0
41
1
10
47.3175855511749
20
3.34415746073626
30
0
41
1
10
47.1672082673253
20
3.3760904774679
30
0
41
1
10
47.0924974911835
20
3.39002565801167
30
0
41
1
10
46.9438551245263
20
3.41379919053728
30
0
41
1
10
46.8699322092351
20
3.4236351663609
30
0
41
1
10
46.79641606538
20
3.43132598681137
30
0
0
SPLINE
5
11D
100
AcDbEntity
8
1
62
256
6
ByLayer
370
18
48
1
60
0
100
AcDbSpline
70
4
71
3
72
8
73
4
40
0
40
0
40
0
40
0
40
1
40
1
40
1
40
1
41
1
10
46.7964160653798
20
3.4313259868116
30
0
41
1
10
46.7618488132086
20
3.36675568130212
30
0
41
1
10
46.7271647570552
20
3.30142516310974
30
0
41
1
10
46.6923263172082
20
3.23532922421441
30
0
0
SPLINE
5
11E
100
AcDbEntity
8
1
62
256
6
ByLayer
370
18
48
1
60
0
100
AcDbSpline
70
4
71
3
72
30
73
26
40
0
40
0
40
0
40
0
40
0.125000000000055
40
0.125000000000055
40
0.25000000000011
40
0.25000000000011
40
0.375000000000165
40
0.375000000000165
40
0.437500000000192
40
0.437500000000192
40
0.500000000000219
40
0.500000000000219
40
0.625000000000212
40
0.625000000000212
40
0.687500000000177
40
0.687500000000177
40
0.750000000000141
40
0.750000000000141
40
0.812500000000106
40
0.812500000000106
40
0.875000000000071
40
0.875000000000071
40
0.937500000000035
40
0.937500000000035
40
1
40
1
40
1
40
1
41
1
10
46.6923263172082
20
3.23532922421441
30
0
41
1
10
46.6832772059656
20
3.21816113326722
30
0
41
1
10
46.6728029233944
20
3.20276928294231
30
0
41
1
10
46.6497025397241
20
3.17463131177277
30
0
41
1
10
46.6369779588314
20
3.1618644849577
30
0
41
1
10
46.6104710166493
20
3.13949703712513
30
0
41
1
10
46.5965970977357
20
3.12977173624148
30
0
41
1
10
46.5749259640856
20
3.11726423946021
30
0
41
1
10
46.5675573435414
20
3.1134455220662
30
0
41
1
10
46.5525252299244
20
3.10653591039835
30
0
41
1
10
46.5449033230364
20
3.10346747251765
30
0
41
1
10
46.5219889330556
20
3.09553947685095
30
0
41
1
10
46.5065466248488
20
3.09188790630603
30
0
41
1
10
46.4831568898694
20
3.08918022560326
30
0
41
1
10
46.4753222077967
20
3.08874375774857
30
0
41
1
10
46.459576686888
20
3.08893648939559
30
0
41
1
10
46.4516349286424
20
3.08957591309087
30
0
41
1
10
46.4360689751494
20
3.09205775474533
30
0
41
1
10
46.4284028883041
20
3.09389510980066
30
0
41
1
10
46.4133499837768
20
3.09895126287807
30
0
41
1
10
46.4059052726745
20
3.1022024162624
30
0
41
1
10
46.391685572786
20
3.11023997954234
30
0
41
1
10
46.384925560591
20
3.11500043953814
30
0
41
1
10
46.3722333110074
20
3.1262746159527
30
0
41
1
10
46.3662707264276
20
3.13284340372979
30
0
41
1
10
46.3610028211232
20
3.14028614696119
30
0
0
SPLINE
5
11F
100
AcDbEntity
8
1
62
256
6
ByLayer
370
18
48
1
60
0
100
AcDbSpline
70
4
71
3
72
8
73
4
40
0
40
0
40
0
40
0
40
1
40
1
40
1
40
1
41
1
10
46.3610028211233
20
3.1402861469619
30
0
41
1
10
46.2866698753784
20
3.24530721261297
30
0
41
1
10
46.2129165032024
20
3.34591303555948
30
0
41
1
10
46.1398177587168
20
3.44179541351588
30
0
0
SPLINE
5
120
100
AcDbEntity
8
1
62
256
6
ByLayer
370
18
48
1
60
0
100
AcDbSpline
70
4
71
3
72
12
73
8
40
0
40
0
40
0
40
0
40
0.250000000000011
40
0.250000000000011
40
0.500000000000023
40
0.500000000000023
40
1
40
1
40
1
40
1
41
1
10
46.1398177587168
20
3.44179541351591
30
0
41
1
10
46.1019418894504
20
3.4389146556129
30
0
41
1
10
46.0640979794657
20
3.43541297031419
30
0
41
1
10
45.9884505335745
20
3.42715030510399
30
0
41
1
10
45.950693361812
20
3.42239276811986
30
0
41
1
10
45.8380182684037
20
3.40630098812753
30
0
41
1
10
45.7635264420882
20
3.39313135357236
30
0
41
1
10
45.6895624078417
20
3.37753849689148
30
0
0
SPLINE
5
121
100
AcDbEntity
8
1
62
256
6
ByLayer
370
18
48
1
60
0
100
AcDbSpline
70
4
71
3
72
10
73
6
40
0
40
0
40
0
40
0
40
0.5
40
0.5
40
1
40
1
40
1
40
1
41
1
10
45.6895624078419
20
3.37753849689145
30
0
41
1
10
45.6369450229192
20
3.26664730093287
30
0
41
1
10
45.5839706941004
20
3.1548677782684
30
0
41
1
10
45.4773766303142
20
2.93036578670967
30
0
41
1
10
45.4237532625529
20
2.81763579992011
30
0
41
1
10
45.3697577748918
20
2.70467609853225
30
0
0
SPLINE
5
122
100
AcDbEntity
8
1
62
256
6
ByLayer
370
18
48
1
60
0
100
AcDbSpline
70
4
71
3
72
12
73
8
40
0
40
0
40
0
40
0
40
0.392117684664437
40
0.392117684664437
40
0.784235369328873
40
0.784235369328873
40
1
40
1
40
1
40
1
41
1
10
45.3697577748918
20
2.70467609853227
30
0
41
1
10
45.3607129854872
20
2.6857542079353
30
0
41
1
10
45.3502419084708
20
2.66808480292232
30
0
41
1
10
45.3271427784402
20
2.63462647324619
30
0
41
1
10
45.3144153894345
20
2.61878748504535
30
0
41
1
10
45.2938610073133
20
2.59631647699044
30
0
41
1
10
45.2863769346415
20
2.58870345934432
30
0
41
1
10
45.2787124707103
20
2.58144243959703
30
0
0
SPLINE
5
123
100
AcDbEntity
8
1
62
256
6
ByLayer
370
18
48
1
60
0
100
AcDbSpline
70
4
71
3
72
28
73
24
40
0
40
0
40
0
40
0
40
0.0713858130871722
40
0.0713858130871722
40
0.226154844239329
40
0.226154844239329
40
0.303539359815407
40
0.303539359815407
40
0.380923875391486
40
0.380923875391486
40
0.535692906543644
40
0.535692906543644
40
0.613077422119703
40
0.613077422119703
40
0.690461937695763
40
0.690461937695763
40
0.767846453271822
40
0.767846453271822
40
0.845230968847881
40
0.845230968847881
40
0.922615484423941
40
0.922615484423941
40
1
40
1
40
1
40
1
41
1
10
36.0612197804682
20
-3.29562774478322
30
0
41
1
10
36.0553860380987
20
-3.29109197399379
30
0
41
1
10
36.0493758915547
20
-3.28688880437562
30
0
41
1
10
36.0299781925736
20
-3.27467565197819
30
0
41
1
10
36.0160815768954
20
-3.26785000675775
30
0
41
1
10
35.994378269026
20
-3.25980490925977
30
0
41
1
10
35.9869993759773
20
-3.2574926863652
30
0
41
1
10
35.9719488450868
20
-3.25363676671623
30
0
41
1
10
35.9643244849275
20
-3.2521081812568
30
0
41
1
10
35.9414011016918
20
-3.24878208972444
30
0
41
1
10
35.9259579763447
20
-3.24819800791119
30
0
41
1
10
35.9025768213789
20
-3.25009925170454
30
0
41
1
10
35.8947467204667
20
-3.25120030958493
30
0
41
1
10
35.8790130738749
20
-3.25447315036342
30
0
41
1
10
35.8710870880417
20
-3.25665918777628
30
0
41
1
10
35.8555580400609
20
-3.26216049366047
30
0
41
1
10
35.8479100256971
20
-3.26548033894309
30
0
41
1
10
35.8328921679205
20
-3.27344079951482
30
0
41
1
10
35.8254643308914
20
-3.27812556639003
30
0
41
1
10
35.8112868463947
20
-3.28888449947846
30
0
41
1
10
35.8045463277957
20
-3.29493383161557
30
0
41
1
10
35.7918889138197
20
-3.30861566315374
30
0
41
1
10
35.7859419681156
20
-3.31630834831776
30
0
41
1
10
35.7806848489641
20
-3.32473604430206
30
0
0
SPLINE
5
124
100
AcDbEntity
8
1
62
256
6
ByLayer
370
18
48
1
60
0
100
AcDbSpline
70
4
71
3
72
8
73
4
40
0
40
0
40
0
40
0
40
1
40
1
40
1
40
1
41
1
10
35.7806848489642
20
-3.32473604430231
30
0
41
1
10
35.7011622017649
20
-3.45221892516182
30
0
41
1
10
35.6223300282738
20
-3.57634586912758
30
0
41
1
10
35.5442994749735
20
-3.69655640817567
30
0
0
SPLINE
5
125
100
AcDbEntity
8
1
62
256
6
ByLayer
370
18
48
1
60
0
100
AcDbSpline
70
4
71
3
72
22
73
18
40
0
40
0
40
0
40
0
40
0.249999999999998
40
0.249999999999998
40
0.499999999999996
40
0.499999999999996
40
0.624999999999995
40
0.624999999999995
40
0.687499999999995
40
0.687499999999995
40
0.749999999999994
40
0.749999999999994
40
0.874999999999993
40
0.874999999999993
40
0.937499999999997
40
0.937499999999997
40
1
40
1
40
1
40
1
41
1
10
35.5442994749648
20
-3.69655640819576
30
0
41
1
10
35.4610468679976
20
-3.63044799099646
30
0
41
1
10
35.3772715845091
20
-3.56069725323107
30
0
41
1
10
35.2081981532771
20
-3.41403344249895
30
0
41
1
10
35.1229014676427
20
-3.3371200399032
30
0
41
1
10
34.9933754702363
20
-3.21640404783628
30
0
41
1
10
34.9499359900387
20
-3.1752738146723
30
0
41
1
10
34.8843124841442
20
-3.11223838343176
30
0
41
1
10
34.8623648161268
20
-3.09100715325891
30
0
41
1
10
34.8184321848259
20
-3.04822581908508
30
0
41
1
10
34.796431434514
20
-3.02666052634686
30
0
41
1
10
34.7303082731944
20
-2.96144886643202
30
0
41
1
10
34.6860578956122
20
-2.91728707648403
30
0
41
1
10
34.6194120879858
20
-2.85004355554412
30
0
41
1
10
34.5971286560344
20
-2.82746221348552
30
0
41
1
10
34.5522428958596
20
-2.78198315345051
30
0
41
1
10
34.5296559337937
20
-2.75908528665337
30
0
41
1
10
34.5069184520939
20
-2.73603606744538
30
0
0
SPLINE
5
126
100
AcDbEntity
8
1
62
256
6
ByLayer
370
18
48
1
60
0
100
AcDbSpline
70
4
71
3
72
8
73
4
40
0
40
0
40
0
40
0
40
1
40
1
40
1
40
1
41
1
10
22.5877276981584
20
2.3671449052689
30
0
41
1
10
22.5628981853395
20
2.29542147598102
30
0
41
1
10
22.535332425998
20
2.22565487123259
30
0
41
1
10
22.5049693635946
20
2.15808679191176
30
0
0
SPLINE
5
127
100
AcDbEntity
8
1
62
256
6
ByLayer
370
18
48
1
60
0
100
AcDbSpline
70
4
71
3
72
22
73
18
40
0
40
0
40
0
40
0
40
0.0588453122122257
40
0.0588453122122257
40
0.247076249769781
40
0.247076249769781
40
0.435307187327336
40
0.435307187327336
40
0.62353812488489
40
0.62353812488489
40
0.717653593663668
40
0.717653593663668
40
0.811769062442445
40
0.811769062442445
40
0.905884531221223
40
0.905884531221223
40
1
40
1
40
1
40
1
41
1
10
42.7851957530671
20
3.27351834561242
30
0
41
1
10
42.7897027500997
20
3.27176352835943
30
0
41
1
10
42.7942608675314
20
3.27016253994046
30
0
41
1
10
42.8136063358067
20
3.26407037975355
30
0
41
1
10
42.8289401896025
20
3.26098274263558
30
0
41
1
10
42.8595650444512
20
3.25818202928602
30
0
41
1
10
42.8749655775327
20
3.25841317111946
30
0
41
1
10
42.9058916989285
20
3.26250038182926
30
0
41
1
10
42.921538041313
20
3.26642159121363
30
0
41
1
10
42.9440907697814
20
3.27544250474213
30
0
41
1
10
42.9514859730541
20
3.27897546300662
30
0
41
1
10
42.9659872924963
20
3.28725107861774
30
0
41
1
10
42.9731432006768
20
3.29203558559922
30
0
41
1
10
42.9867613035146
20
3.30281330156998
30
0
41
1
10
42.9932409984548
20
3.30880290569107
30
0
41
1
10
43.0054276546505
20
3.32219160014421
30
0
41
1
10
43.0111708634829
20
3.32964875916798
30
0
41
1
10
43.0163082251963
20
3.33781343239696
30
0
0
SPLINE
5
128
100
AcDbEntity
8
1
62
256
6
ByLayer
370
18
48
1
60
0
100
AcDbSpline
70
4
71
3
72
10
73
6
40
0
40
0
40
0
40
0
40
0.5
40
0.5
40
1
40
1
40
1
40
1
41
1
10
43.0163082251963
20
3.33781343239699
30
0
41
1
10
43.0888773402895
20
3.45314560955436
30
0
41
1
10
43.1606346756271
20
3.56529243177417
30
0
41
1
10
43.3030250219799
20
3.78317539652718
30
0
41
1
10
43.3733800275169
20
3.88848793996721
30
0
41
1
10
43.4430775141572
20
3.99007278756068
30
0
0
SPLINE
5
129
100
AcDbEntity
8
1
62
256
6
ByLayer
370
18
48
1
60
0
100
AcDbSpline
70
4
71
3
72
8
73
4
40
0
40
0
40
0
40
0
40
1
40
1
40
1
40
1
41
1
10
43.5678784721335
20
3.96118868220435
30
0
41
1
10
43.5263776109886
20
3.97158602362006
30
0
41
1
10
43.4847778729384
20
3.98121593965328
30
0
41
1
10
43.4430775141572
20
3.99007278756065
30
0
0
SPLINE
5
12A
100
AcDbEntity
8
1
62
256
6
ByLayer
370
18
48
1
60
0
100
AcDbSpline
70
4
71
3
72
10
73
6
40
0
40
0
40
0
40
0
40
0.5
40
0.5
40
1
40
1
40
1
40
1
41
1
10
43.5678784721335
20
3.96118868220435
30
0
41
1
10
43.6397558911077
20
3.82624384999451
30
0
41
1
10
43.7122221322852
20
3.68847234501621
30
0
41
1
10
43.858762599165
20
3.40771467761539
30
0
41
1
10
43.9325983953371
20
3.26520963603295
30
0
41
1
10
44.0074607056722
20
3.12058144175214
30
0
0
SPLINE
5
12B
100
AcDbEntity
8
1
62
256
6
ByLayer
370
18
48
1
60
0
100
AcDbSpline
70
4
71
3
72
28
73
24
40
0
40
0
40
0
40
0
40
0.125000000000001
40
0.125000000000001
40
0.1875
40
0.1875
40
0.25
40
0.25
40
0.375
40
0.375
40
0.5
40
0.5
40
0.625
40
0.625
40
0.75
40
0.75
40
0.8125
40
0.8125
40
0.875
40
0.875
40
0.9375
40
0.9375
40
1
40
1
40
1
40
1
41
1
10
44.0074607056722
20
3.12058144175214
30
0
41
1
10
44.0168558580644
20
3.10243073388068
30
0
41
1
10
44.0277669951222
20
3.08611537172464
30
0
41
1
10
44.0457828906864
20
3.06361547725862
30
0
41
1
10
44.0520797429687
20
3.05644532893624
30
0
41
1
10
44.0651627876205
20
3.04277341836618
30
0
41
1
10
44.071864577759
20
3.03635765662594
30
0
41
1
10
44.092395342014
20
3.01823658402395
30
0
41
1
10
44.1066459036932
20
3.00764299572202
30
0
41
1
10
44.1361561126426
20
2.98919564609883
30
0
41
1
10
44.151504513052
20
2.9813323137426
30
0
41
1
10
44.18215403719
20
2.96892952441766
30
0
41
1
10
44.1975661548503
20
2.96430027185659
30
0
41
1
10
44.2285125945205
20
2.95850652966368
30
0
41
1
10
44.244164200857
20
2.95736806627886
30
0
41
1
10
44.2667183624742
20
2.9589405713181
30
0
41
1
10
44.2741134787402
20
2.96000424790987
30
0
41
1
10
44.2886131323584
20
2.96336945091304
30
0
41
1
10
44.2957719340831
20
2.96569809307312
30
0
41
1
10
44.3093579757083
20
2.97169787425153
30
0
41
1
10
44.3158060696543
20
2.9753602061823
30
0
41
1
10
44.3279051842565
20
2.98421521774472
30
0
41
1
10
44.3335585629867
20
2.989403069037
30
0
41
1
10
44.3387128293806
20
2.99555592801391
30
0
0
SPLINE
5
12C
100
AcDbEntity
8
1
62
256
6
ByLayer
370
18
48
1
60
0
100
AcDbSpline
70
4
71
3
72
10
73
6
40
0
40
0
40
0
40
0
40
0.5
40
0.5
40
1
40
1
40
1
40
1
41
1
10
44.3387128293806
20
2.99555592801409
30
0
41
1
10
44.4112438651197
20
3.08213919714424
30
0
41
1
10
44.4829597279229
20
3.16348062196849
30
0
41
1
10
44.6252872821479
20
3.31588275056478
30
0
41
1
10
44.6956259397922
20
3.3866540764802
30
0
41
1
10
44.7653280332716
20
3.45202326910848
30
0
0
SPLINE
5
12D
100
AcDbEntity
8
1
62
256
6
ByLayer
370
18
48
1
60
0
100
AcDbSpline
70
4
71
3
72
28
73
24
40
0
40
0
40
0
40
0
40
0.131991146126056
40
0.131991146126056
40
0.276659288438428
40
0.276659288438428
40
0.348993359594613
40
0.348993359594613
40
0.421327430750799
40
0.421327430750799
40
0.565995573063099
40
0.565995573063099
40
0.638329644219249
40
0.638329644219249
40
0.710663715375399
40
0.710663715375399
40
0.78299778653155
40
0.78299778653155
40
0.8553318576877
40
0.8553318576877
40
0.92766592884385
40
0.92766592884385
40
1
40
1
40
1
40
1
41
1
10
43.5722270996585
20
-3.30364507531377
30
0
41
1
10
43.5614996277328
20
-3.29308932570015
30
0
41
1
10
43.5498416999855
20
-3.28375928017559
30
0
41
1
10
43.524482168226
20
-3.26704399006428
30
0
41
1
10
43.5106007216828
20
-3.25982572159154
30
0
41
1
10
43.4889208346322
20
-3.25117575161923
30
0
41
1
10
43.4815497990515
20
-3.24865920603898
30
0
41
1
10
43.4665144724064
20
-3.24438890710434
30
0
41
1
10
43.4588922637527
20
-3.24265036743955
30
0
41
1
10
43.4359779143632
20
-3.23869909910874
30
0
41
1
10
43.4205374342655
20
-3.23769972504229
30
0
41
1
10
43.3971549212385
20
-3.23898261922324
30
0
41
1
10
43.3893235208575
20
-3.23987832481293
30
0
41
1
10
43.373585850086
20
-3.24274224588967
30
0
41
1
10
43.3656494829401
20
-3.24472575082888
30
0
41
1
10
43.3500944764329
20
-3.24983919786902
30
0
41
1
10
43.3424336843736
20
-3.25297133696228
30
0
41
1
10
43.3273902778993
20
-3.26057132918348
30
0
41
1
10
43.3199497523797
20
-3.26508154545903
30
0
41
1
10
43.3057387125103
20
-3.27552595663721
30
0
41
1
10
43.2989827166708
20
-3.28143193294471
30
0
41
1
10
43.2862977133903
20
-3.2948602725931
30
0
41
1
10
43.2803381805929
20
-3.30244306693504
30
0
41
1
10
43.2750721608601
20
-3.31078376534845
30
0
0
SPLINE
5
12E
100
AcDbEntity
8
1
62
256
6
ByLayer
370
18
48
1
60
0
100
AcDbSpline
70
4
71
3
72
12
73
8
40
0
40
0
40
0
40
0
40
0.5
40
0.5
40
0.75
40
0.75
40
1
40
1
40
1
40
1
41
1
10
43.2750721608602
20
-3.31078376534879
30
0
41
1
10
43.2032913719415
20
-3.4244753089863
30
0
41
1
10
43.1320510755393
20
-3.53529390236986
30
0
41
1
10
43.0261114188091
20
-3.69661856688887
30
0
41
1
10
42.9909624843125
20
-3.74956066048438
30
0
41
1
10
42.9210482430768
20
-3.85363126530274
30
0
41
1
10
42.8862657003401
20
-3.90478638370646
30
0
41
1
10
42.8516294462255
20
-3.95506670827413
30
0
0
SPLINE
5
12F
100
AcDbEntity
8
1
62
256
6
ByLayer
370
18
48
1
60
0
100
AcDbSpline
70
4
71
3
72
12
73
8
40
0
40
0
40
0
40
0
40
0.25
40
0.25
40
0.500000000000001
40
0.500000000000001
40
1
40
1
40
1
40
1
41
1
10
42.7268369394058
20
-3.92052772703721
30
0
41
1
10
42.6905758625257
20
-3.85008722712467
30
0
41
1
10
42.6541796192445
20
-3.77886017784905
30
0
41
1
10
42.58103819787
20
-3.63483844952509
30
0
41
1
10
42.5442731350592
20
-3.56200372467711
30
0
41
1
10
42.4335115471044
20
-3.34150701205411
30
0
41
1
10
42.3590197167636
20
-3.19179256309036
30
0
41
1
10
42.2838269048323
20
-3.03999181234792
30
0
0
SPLINE
5
130
100
AcDbEntity
8
1
62
256
6
ByLayer
370
18
48
1
60
0
100
AcDbSpline
70
4
71
3
72
30
73
26
40
0
40
0
40
0
40
0
40
0.124999999999999
40
0.124999999999999
40
0.249999999999998
40
0.249999999999998
40
0.374999999999997
40
0.374999999999997
40
0.437499999999997
40
0.437499999999997
40
0.499999999999997
40
0.499999999999997
40
0.624999999999997
40
0.624999999999997
40
0.687499999999998
40
0.687499999999998
40
0.749999999999998
40
0.749999999999998
40
0.812499999999999
40
0.812499999999999
40
0.874999999999999
40
0.874999999999999
40
0.9375
40
0.9375
40
1
40
1
40
1
40
1
41
1
10
42.2838269048323
20
-3.03999181234792
30
0
41
1
10
42.274776200136
20
-3.02172006891442
30
0
41
1
10
42.2642978288365
20
-3.00501075734985
30
0
41
1
10
42.2411837820361
20
-2.9739267670129
30
0
41
1
10
42.2284486952181
20
-2.95951662854111
30
0
41
1
10
42.2019159002647
20
-2.93369726501166
30
0
41
1
10
42.1880268461983
20
-2.9221518179929
30
0
41
1
10
42.166334064695
20
-2.90677460029346
30
0
41
1
10
42.1589584843529
20
-2.90197575810782
30
0
41
1
10
42.143913804868
20
-2.89305526129772
30
0
41
1
10
42.136290286497
20
-2.88896373143072
30
0
41
1
10
42.1133696289511
20
-2.87793529637386
30
0
41
1
10
42.0979260983825
20
-2.87216582572356
30
0
41
1
10
42.0745411073554
20
-2.86617983418933
30
0
41
1
10
42.066709222092
20
-2.8646334071835
30
0
41
1
10
42.0509711886165
20
-2.86256477269822
30
0
41
1
10
42.0430401598235
20
-2.86204871119608
30
0
41
1
10
42.0274998518838
20
-2.86222481629687
30
0
41
1
10
42.0198462206207
20
-2.86290634405259
30
0
41
1
10
42.0048168087964
20
-2.86564365956627
30
0
41
1
10
41.9973829536168
20
-2.86772291725646
30
0
41
1
10
41.9831925991261
20
-2.87345196948863
30
0
41
1
10
41.9764461026214
20
-2.87708035285783
30
0
41
1
10
41.9637779600764
20
-2.88614262392156
30
0
41
1
10
41.9578266410071
20
-2.89162464319458
30
0
41
1
10
41.9525671946563
20
-2.89804759761449
30
0
0
SPLINE
5
131
100
AcDbEntity
8
1
62
256
6
ByLayer
370
18
48
1
60
0
100
AcDbSpline
70
4
71
3
72
12
73
8
40
0
40
0
40
0
40
0
40
0.5
40
0.5
40
0.75
40
0.75
40
1
40
1
40
1
40
1
41
1
10
41.9525671946564
20
-2.89804759761557
30
0
41
1
10
41.880798529461
20
-2.98569310905864
30
0
41
1
10
41.8095708291343
20
-3.06822026409054
30
0
41
1
10
41.7037222399222
20
-3.184052865681
30
0
41
1
10
41.6685727565213
20
-3.22137448943801
30
0
41
1
10
41.5986529139964
20
-3.29331037364923
30
0
41
1
10
41.5638766383156
20
-3.3279332185476
30
0
41
1
10
41.5292543932353
20
-3.36123232621557
30
0
0
SPLINE
5
132
100
AcDbEntity
8
1
62
256
6
ByLayer
370
18
48
1
60
0
100
AcDbSpline
70
4
71
3
72
8
73
4
40
0
40
0
40
0
40
0
40
1
40
1
40
1
40
1
41
1
10
41.40456406343
20
-3.28068945063089
30
0
41
1
10
41.4461198491329
20
-3.3081850280889
30
0
41
1
10
41.4876787613756
20
-3.33503525497753
30
0
41
1
10
41.5292543932353
20
-3.3612323262156
30
0
0
SPLINE
5
133
100
AcDbEntity
8
1
62
256
6
ByLayer
370
18
48
1
60
0
100
AcDbSpline
70
4
71
3
72
12
73
8
40
0
40
0
40
0
40
0
40
0.25
40
0.25
40
0.5
40
0.5
40
1
40
1
40
1
40
1
41
1
10
41.40456406343
20
-3.28068945063086
30
0
41
1
10
41.3682703038681
20
-3.20181069056025
30
0
41
1
10
41.331838516999
20
-3.12284511576831
30
0
41
1
10
41.2586268958741
20
-2.96476872450427
30
0
41
1
10
41.2218274708884
20
-2.88561541865175
30
0
41
1
10
41.1109721594321
20
-2.64836167702742
30
0
41
1
10
41.0364381545464
20
-2.49040154950441
30
0
41
1
10
40.9612354238038
20
-2.33342642189828
30
0
0
SPLINE
5
134
100
AcDbEntity
8
1
62
256
6
ByLayer
370
18
48
1
60
0
100
AcDbSpline
70
4
71
3
72
30
73
26
40
0
40
0
40
0
40
0
40
0.12500000000006
40
0.12500000000006
40
0.25000000000012
40
0.25000000000012
40
0.37500000000018
40
0.37500000000018
40
0.437500000000181
40
0.437500000000181
40
0.500000000000183
40
0.500000000000183
40
0.625000000000185
40
0.625000000000185
40
0.687500000000154
40
0.687500000000154
40
0.750000000000123
40
0.750000000000123
40
0.812500000000092
40
0.812500000000092
40
0.875000000000062
40
0.875000000000062
40
0.937500000000031
40
0.937500000000031
40
1
40
1
40
1
40
1
41
1
10
40.9612354238038
20
-2.33342642189831
30
0
41
1
10
40.9521889300575
20
-2.31454313805742
30
0
41
1
10
40.9417182273326
20
-2.29661270806062
30
0
41
1
10
40.9186244107379
20
-2.26218899314705
30
0
41
1
10
40.9059020033751
20
-2.24563391756334
30
0
41
1
10
40.8793912574701
20
-2.21486541756937
30
0
41
1
10
40.8655117415128
20
-2.20050447535937
30
0
41
1
10
40.8438278470118
20
-2.18040894698214
30
0
41
1
10
40.836454369735
20
-2.17395390359781
30
0
41
1
10
40.821411754872
20
-2.16154564817191
30
0
41
1
10
40.813785811084
20
-2.15563088223328
30
0
41
1
10
40.7908586009166
20
-2.13895533429516
30
0
41
1
10
40.7754080203379
20
-2.12916272907427
30
0
41
1
10
40.7520113642667
20
-2.11668054404012
30
0
41
1
10
40.7441754202915
20
-2.11289101387425
30
0
41
1
10
40.7284294279918
20
-2.10615402335603
30
0
41
1
10
40.7204914308876
20
-2.10320260875221
30
0
41
1
10
40.7049376722082
20
-2.09841623331792
30
0
41
1
10
40.6972784770035
20
-2.09655845166603
30
0
41
1
10
40.6822412001059
20
-2.09407714669999
30
0
41
1
10
40.6748052394253
20
-2.09345456119883
30
0
41
1
10
40.6606078569245
20
-2.09372870383967
30
0
41
1
10
40.653860126984
20
-2.09461098025622
30
0
41
1
10
40.641193454768
20
-2.09813409113662
30
0
41
1
10
40.6352436153288
20
-2.10080564954035
30
0
41
1
10
40.629985480623
20
-2.10447907322879
30
0
0
SPLINE
5
135
100
AcDbEntity
8
1
62
256
6
ByLayer
370
18
48
1
60
0
100
AcDbSpline
70
4
71
3
72
12
73
8
40
0
40
0
40
0
40
0
40
0.5
40
0.5
40
0.75
40
0.75
40
1
40
1
40
1
40
1
41
1
10
40.6299854806231
20
-2.10447907323012
30
0
41
1
10
40.5582314322448
20
-2.15460769027811
30
0
41
1
10
40.4870217371722
20
-2.19792906054096
30
0
41
1
10
40.3812016145652
20
-2.2529646583873
30
0
41
1
10
40.3460614131251
20
-2.26967139457679
30
0
41
1
10
40.2761602460973
20
-2.29981622146235
30
0
41
1
10
40.2413933496014
20
-2.31326029984268
30
0
41
1
10
40.206779942571
20
-2.32511291656246
30
0
0
SPLINE
5
136
100
AcDbEntity
8
1
62
256
6
ByLayer
370
18
48
1
60
0
100
AcDbSpline
70
4
71
3
72
8
73
4
40
0
40
0
40
0
40
0
40
1
40
1
40
1
40
1
41
1
10
40.0817608900164
20
-2.20882546104781
30
0
41
1
10
40.1234262035424
20
-2.24802752195217
30
0
41
1
10
40.1650946425945
20
-2.28679358854208
30
0
41
1
10
40.206779942571
20
-2.32511291656246
30
0
0
SPLINE
5
137
100
AcDbEntity
8
1
62
256
6
ByLayer
370
18
48
1
60
0
100
AcDbSpline
70
4
71
3
72
12
73
8
40
0
40
0
40
0
40
0
40
0.250000000000004
40
0.250000000000004
40
0.500000000000009
40
0.500000000000009
40
1
40
1
40
1
40
1
41
1
10
40.0817608900183
20
-2.20882546103783
30
0
41
1
10
40.0454658388913
20
-2.13196393233844
30
0
41
1
10
40.0090362895304
20
-2.05572059497538
30
0
41
1
10
39.9358394452925
20
-1.90451633425442
30
0
41
1
10
39.8990526361748
20
-1.82951555180122
30
0
41
1
10
39.7882554766452
20
-1.60687275446691
30
0
41
1
10
39.7137890288047
20
-1.46152217206875
30
0
41
1
10
39.6386857234956
20
-1.32006669285721
30
0
0
SPLINE
5
138
100
AcDbEntity
8
1
62
256
6
ByLayer
370
18
48
1
60
0
100
AcDbSpline
70
4
71
3
72
30
73
26
40
0
40
0
40
0
40
0
40
0.124999999999968
40
0.124999999999968
40
0.249999999999937
40
0.249999999999937
40
0.374999999999905
40
0.374999999999905
40
0.43749999999989
40
0.43749999999989
40
0.499999999999874
40
0.499999999999874
40
0.624999999999906
40
0.624999999999906
40
0.687499999999922
40
0.687499999999922
40
0.749999999999937
40
0.749999999999937
40
0.812499999999953
40
0.812499999999953
40
0.874999999999969
40
0.874999999999969
40
0.937499999999984
40
0.937499999999984
40
1
40
1
40
1
40
1
41
1
10
39.6386857234956
20
-1.32006669285718
30
0
41
1
10
39.6296367607475
20
-1.30302316385888
30
0
41
1
10
39.6191639444657
20
-1.286194806834
30
0
41
1
10
39.5960687178604
20
-1.25288618795076
30
0
41
1
10
39.5833478374786
20
-1.23632692252645
30
0
41
1
10
39.5568435771725
20
-1.20458346142581
30
0
41
1
10
39.5429687172747
20
-1.18925868819278
30
0
41
1
10
39.5212940239504
20
-1.1670280424913
30
0
41
1
10
39.5139240224003
20
-1.15974510884033
30
0
41
1
10
39.4988894390234
20
-1.14543739313436
30
0
41
1
10
39.4912668107896
20
-1.1384545804726
30
0
41
1
10
39.468350540605
20
-1.11825225845041
30
0
41
1
10
39.4529074419889
20
-1.10567024445496
30
0
41
1
10
39.4295186009419
20
-1.0882473898296
30
0
41
1
10
39.4216846724278
20
-1.082683693148
30
0
41
1
10
39.4059407022823
20
-1.07210512227761
30
0
41
1
10
39.3980003810695
20
-1.06707546686539
30
0
41
1
10
39.3824376652379
20
-1.05789458671438
30
0
41
1
10
39.3747729173288
20
-1.05371185031129
30
0
41
1
10
39.3597223532156
20
-1.04628299831984
30
0
41
1
10
39.3522785399629
20
-1.04301526679598
30
0
41
1
10
39.3380632856554
20
-1.03775346160128
30
0
41
1
10
39.3313062192506
20
-1.03575511927511
30
0
41
1
10
39.3186211367322
20
-1.03325031294975
30
0
41
1
10
39.3126625724047
20
-1.03275256167296
30
0
41
1
10
39.3073978357693
20
-1.03319122197541
30
0
0
SPLINE
5
139
100
AcDbEntity
8
1
62
256
6
ByLayer
370
18
48
1
60
0
100
AcDbSpline
70
4
71
3
72
12
73
8
40
0
40
0
40
0
40
0
40
0.499999999999988
40
0.499999999999988
40
0.749999999999994
40
0.749999999999994
40
1
40
1
40
1
40
1
41
1
10
39.3073978357694
20
-1.03319122197723
30
0
41
1
10
39.2356006482157
20
-1.03917339700107
30
0
41
1
10
39.1643388689957
20
-1.03777461727967
30
0
41
1
10
39.0584714482368
20
-1.02490933629002
30
0
41
1
10
39.0233186203268
20
-1.01884110935566
30
0
41
1
10
38.9533992211787
20
-1.00329825874616
30
0
41
1
10
38.9186263889905
20
-0.993826196015021
30
0
41
1
10
38.8840090828696
20
-0.98270236266444
30
0
0
SPLINE
5
13A
100
AcDbEntity
8
1
62
256
6
ByLayer
370
18
48
1
60
0
100
AcDbSpline
70
4
71
3
72
8
73
4
40
0
40
0
40
0
40
0
40
1
40
1
40
1
40
1
41
1
10
38.7592409115488
20
-0.846457542426151
30
0
41
1
10
38.800823866077
20
-0.892040748586652
30
0
41
1
10
38.8424088832739
20
-0.937459581648994
30
0
41
1
10
38.8840090828696
20
-0.98270236266444
30
0
0
SPLINE
5
13B
100
AcDbEntity
8
1
62
256
6
ByLayer
370
18
48
1
60
0
100
AcDbSpline
70
4
71
3
72
12
73
8
40
0
40
0
40
0
40
0
40
0.250000000000002
40
0.250000000000002
40
0.500000000000004
40
0.500000000000004
40
1
40
1
40
1
40
1
41
1
10
38.7592409115487
20
-0.846457542426151
30
0
41
1
10
38.7229521935547
20
-0.78173657341776
30
0
41
1
10
38.6865260741327
20
-0.718261480367318
30
0
41
1
10
38.613331782156
20
-0.593855196880014
30
0
41
1
10
38.5765441798324
20
-0.532892051756647
30
0
41
1
10
38.4657409252066
20
-0.354199861990054
30
0
41
1
10
38.3912632942263
20
-0.24060803106866
30
0
41
1
10
38.3161571998184
20
-0.133277044536527
30
0
0
SPLINE
5
13C
100
AcDbEntity
8
1
62
256
6
ByLayer
370
18
48
1
60
0
100
AcDbSpline
70
4
71
3
72
30
73
26
40
0
40
0
40
0
40
0
40
0.124999999999986
40
0.124999999999986
40
0.249999999999971
40
0.249999999999971
40
0.374999999999957
40
0.374999999999957
40
0.437499999999964
40
0.437499999999964
40
0.499999999999972
40
0.499999999999972
40
0.624999999999955
40
0.624999999999955
40
0.687499999999962
40
0.687499999999962
40
0.74999999999997
40
0.74999999999997
40
0.812499999999977
40
0.812499999999977
40
0.874999999999985
40
0.874999999999985
40
0.937499999999992
40
0.937499999999992
40
1
40
1
40
1
40
1
41
1
10
38.3161571998184
20
-0.13327704453647
30
0
41
1
10
38.3070997719885
20
-0.120333452247593
30
0
41
1
10
38.2966167951212
20
-0.106837652993647
30
0
41
1
10
38.2735014118016
20
-0.0790588328545141
30
0
41
1
10
38.2607705630835
20
-0.0646891315247444
30
0
41
1
10
38.2342506954136
20
-0.0361801262260997
30
0
41
1
10
38.2203697506777
20
-0.0219256056005293
30
0
41
1
10
38.1986892087279
20
-0.0005139388861153
30
0
41
1
10
38.1913177793107
20
0.0066284632192435
30
0
41
1
10
38.1762816213166
20
0.0209315907020198
30
0
41
1
10
38.1686595759488
20
0.0280507833218167
30
0
41
1
10
38.1457454663423
20
0.0490843560835685
30
0
41
1
10
38.1303056981247
20
0.062774534720603
30
0
41
1
10
38.1069244235716
20
0.0828087714249932
30
0
41
1
10
38.0990934267646
20
0.0894026055341044
30
0
41
1
10
38.0833560967268
20
0.102408485376458
30
0
41
1
10
38.0754202754114
20
0.108842722419666
30
0
41
1
10
38.0598662973979
20
0.121190885110224
30
0
41
1
10
38.0522056573795
20
0.127141106805965
30
0
41
1
10
38.0371626184104
20
0.138532078988192
30
0
41
1
10
38.0297223565385
20
0.14401409606748
30
0
41
1
10
38.0155126611675
20
0.154125871596506
30
0
41
1
10
38.0087574779284
20
0.158749132138297
30
0
41
1
10
37.9960744608312
20
0.166975025013471
30
0
41
1
10
37.9901158952033
20
0.170592381058441
30
0
41
1
10
37.9848503136758
20
0.173464815127829
30
0
0
SPLINE
5
13D
100
AcDbEntity
8
1
62
256
6
ByLayer
370
18
48
1
60
0
100
AcDbSpline
70
4
71
3
72
12
73
8
40
0
40
0
40
0
40
0
40
0.500000000000005
40
0.500000000000005
40
0.750000000000002
40
0.750000000000002
40
1
40
1
40
1
40
1
41
1
10
37.9848503136759
20
0.173464815125925
30
0
41
1
10
37.9130834874515
20
0.212614427684855
30
0
41
1
10
37.8418493152324
20
0.258802498793784
30
0
41
1
10
37.7359939260975
20
0.337860255556933
30
0
41
1
10
37.7008422309124
20
0.365864986320645
30
0
41
1
10
37.6309277401484
20
0.4249804367889
30
0
41
1
10
37.5961589581949
20
0.456092310203388
30
0
41
1
10
37.5615468960043
20
0.488710194918582
30
0
0
SPLINE
5
13E
100
AcDbEntity
8
1
62
256
6
ByLayer
370
18
48
1
60
0
100
AcDbSpline
70
4
71
3
72
8
73
4
40
0
40
0
40
0
40
0
40
1
40
1
40
1
40
1
41
1
10
37.4366724689355
20
0.627340768640323
30
0
41
1
10
37.4782919286826
20
0.581254226782306
30
0
41
1
10
37.5199126224355
20
0.53504044585722
30
0
41
1
10
37.5615468960043
20
0.48871019491861
30
0
0
SPLINE
5
13F
100
AcDbEntity
8
1
62
256
6
ByLayer
370
18
48
1
60
0
100
AcDbSpline
70
4
71
3
72
12
73
8
40
0
40
0
40
0
40
0
40
0.249999999999998
40
0.249999999999998
40
0.499999999999995
40
0.499999999999995
40
1
40
1
40
1
40
1
41
1
10
37.436672468937
20
0.627340768639613
30
0
41
1
10
37.4003967452171
20
0.671399152533269
30
0
41
1
10
37.3639814700283
20
0.713739384245486
30
0
41
1
10
37.2908049993956
20
0.794938504940973
30
0
41
1
10
37.2540242347583
20
0.833817520675666
30
0
41
1
10
37.1432364475335
20
0.944964449345207
30
0
41
1
10
37.068761332213
20
1.0117857786029
30
0
41
1
10
36.9936604623081
20
1.07081156187658
30
0
0
SPLINE
5
140
100
AcDbEntity
8
1
62
256
6
ByLayer
370
18
48
1
60
0
100
AcDbSpline
70
4
71
3
72
30
73
26
40
0
40
0
40
0
40
0
40
0.124999999999982
40
0.124999999999982
40
0.249999999999964
40
0.249999999999964
40
0.374999999999946
40
0.374999999999946
40
0.437499999999952
40
0.437499999999952
40
0.499999999999958
40
0.499999999999958
40
0.624999999999968
40
0.624999999999968
40
0.687499999999973
40
0.687499999999973
40
0.749999999999979
40
0.749999999999979
40
0.812499999999984
40
0.812499999999984
40
0.874999999999989
40
0.874999999999989
40
0.937499999999995
40
0.937499999999995
40
1
40
1
40
1
40
1
41
1
10
36.99366046231
20
1.07081156187371
30
0
41
1
10
36.9845967626436
20
1.07793520734998
30
0
41
1
10
36.9741057778009
20
1.08630981095547
30
0
41
1
10
36.9509735289966
20
1.10488267992682
30
0
41
1
10
36.9382336609801
20
1.11516429866771
30
0
41
1
10
36.9116985730715
20
1.13667652829781
30
0
41
1
10
36.8978110898999
20
1.14798145226078
30
0
41
1
10
36.876123126127
20
1.16575287354061
30
0
41
1
10
36.8687496227573
20
1.17181395178008
30
0
41
1
10
36.8537102408339
20
1.18422886608332
30
0
41
1
10
36.8460881260634
20
1.19054682812791
30
0
41
1
10
36.8231737164492
20
1.209641341572
30
0
41
1
10
36.8077352818208
20
1.2226362619742
30
0
41
1
10
36.7843582673619
20
1.24264162213817
30
0
41
1
10
36.7765290666809
20
1.24939644061581
30
0
41
1
10
36.7607961267371
20
1.26311487416507
30
0
41
1
10
36.7528642713281
20
1.27010440684191
30
0
41
1
10
36.7373188011974
20
1.28398838640766
30
0
41
1
10
36.7296622602339
20
1.29091950260039
30
0
41
1
10
36.7146269527268
20
1.30476600982979
30
0
41
1
10
36.7071903868732
20
1.31173686182802
30
0
41
1
10
36.6929879864227
20
1.32535900963964
30
0
41
1
10
36.6862356899445
20
1.33199454456741
30
0
41
1
10
36.6735568758155
20
1.34485200982198
30
0
41
1
10
36.6675995554051
20
1.3511101609632
30
0
41
1
10
36.6623342022205
20
1.35691489547824
30
0
0
SPLINE
5
141
100
AcDbEntity
8
1
62
256
6
ByLayer
370
18
48
1
60
0
100
AcDbSpline
70
4
71
3
72
12
73
8
40
0
40
0
40
0
40
0
40
0.499999999999994
40
0.499999999999994
40
0.749999999999997
40
0.749999999999997
40
1
40
1
40
1
40
1
41
1
10
36.6623342022206
20
1.35691489547651
30
0
41
1
10
36.5905601315373
20
1.43604148219777
30
0
41
1
10
36.5193216223689
20
1.5209835286235
30
0
41
1
10
36.4134534880174
20
1.65604330809444
30
0
41
1
10
36.3782970627831
20
1.70237683147008
30
0
41
1
10
36.3083670883532
20
1.79737200715672
30
0
41
1
10
36.2735874911865
20
1.8460381533416
30
0
41
1
10
36.2389652834172
20
1.89584802375555
30
0
0
SPLINE
5
142
100
AcDbEntity
8
1
62
256
6
ByLayer
370
18
48
1
60
0
100
AcDbSpline
70
4
71
3
72
8
73
4
40
0
40
0
40
0
40
0
40
1
40
1
40
1
40
1
41
1
10
36.1140537994283
20
2.0185748460089
30
0
41
1
10
36.155711173077
20
1.97803712441572
30
0
41
1
10
36.197343028929
20
1.93712370603836
30
0
41
1
10
36.2389652834172
20
1.89584802375555
30
0
0
SPLINE
5
143
100
AcDbEntity
8
1
62
256
6
ByLayer
370
18
48
1
60
0
100
AcDbSpline
70
4
71
3
72
14
73
10
40
0
40
0
40
0
40
0
40
0.25
40
0.25
40
0.5
40
0.5
40
0.75
40
0.75
40
1
40
1
40
1
40
1
41
1
10
34.0433841846749
20
-0.789253666581857
30
0
41
1
10
34.0834322421402
20
-0.82098751077163
30
0
41
1
10
34.1232435244723
20
-0.853000155755524
30
0
41
1
10
34.20218344316
20
-0.917824624722357
30
0
41
1
10
34.2413126950711
20
-0.950635731020554
30
0
41
1
10
34.3187403198025
20
-1.01722882640104
30
0
41
1
10
34.3570392084483
20
-1.05101020749549
30
0
41
1
10
34.4327002118295
20
-1.11966735576499
30
0
41
1
10
34.4700626288685
20
-1.1545427474837
30
0
41
1
10
34.5069184520941
20
-1.1900106752808
30
0
0
SPLINE
5
144
100
AcDbEntity
8
1
62
256
6
ByLayer
370
18
48
1
60
0
100
AcDbSpline
70
4
71
3
72
14
73
10
40
0
40
0
40
0
40
0
40
0.125
40
0.125
40
0.25
40
0.25
40
0.5
40
0.5
40
1
40
1
40
1
40
1
41
1
10
34.5069184520939
20
-1.19001067528058
30
0
41
1
10
34.5461594560889
20
-1.22777396407906
30
0
41
1
10
34.5853499529149
20
-1.26564296788919
30
0
41
1
10
34.6637908742851
20
-1.34141660618201
30
0
41
1
10
34.7030738315405
20
-1.37928543346848
30
0
41
1
10
34.8203738818157
20
-1.4936387852087
30
0
41
1
10
34.8977925958866
20
-1.57092590610401
30
0
41
1
10
35.1282026463619
20
-1.80545051212547
30
0
41
1
10
35.2792576533693
20
-1.96544837793269
30
0
41
1
10
35.428657436522
20
-2.12826907796401
30
0
0
SPLINE
5
145
100
AcDbEntity
8
1
62
256
6
ByLayer
370
18
48
1
60
0
100
AcDbSpline
70
4
71
3
72
10
73
6
40
0
40
0
40
0
40
0
40
0.5
40
0.5
40
1
40
1
40
1
40
1
41
1
10
35.428657436522
20
-2.12826907796404
30
0
41
1
10
35.4622430488578
20
-2.13200474726068
30
0
41
1
10
35.4959948150896
20
-2.13411055023417
30
0
41
1
10
35.5637919566597
20
-2.13502163187457
30
0
41
1
10
35.5978304377544
20
-2.13382928678504
30
0
41
1
10
35.6320355158567
20
-2.13096634409999
30
0
0
SPLINE
5
146
100
AcDbEntity
8
1
62
256
6
ByLayer
370
18
48
1
60
0
100
AcDbSpline
70
4
71
3
72
26
73
22
40
0
40
0
40
0
40
0
40
0.124999999999992
40
0.124999999999992
40
0.249999999999985
40
0.249999999999985
40
0.374999999999977
40
0.374999999999977
40
0.49999999999997
40
0.49999999999997
40
0.624999999999962
40
0.624999999999962
40
0.749999999999954
40
0.749999999999954
40
0.812499999999966
40
0.812499999999966
40
0.874999999999977
40
0.874999999999977
40
0.937499999999989
40
0.937499999999989
40
1
40
1
40
1
40
1
41
1
10
35.6320355158567
20
-2.13096634409999
30
0
41
1
10
35.641389134357
20
-2.13018345234386
30
0
41
1
10
35.6522507785205
20
-2.1315055864051
30
0
41
1
10
35.6761704198463
20
-2.13715427825594
30
0
41
1
10
35.6893492236688
20
-2.14156522757716
30
0
41
1
10
35.7166320299989
20
-2.15268947196739
30
0
41
1
10
35.7308407611251
20
-2.15942157227039
30
0
41
1
10
35.760273585817
20
-2.17508452361372
30
0
41
1
10
35.7755945325977
20
-2.18409098658421
30
0
41
1
10
35.8062102743038
20
-2.2038414656835
30
0
41
1
10
35.8216106843242
20
-2.21462987817114
30
0
41
1
10
35.8525469440055
20
-2.23830043459361
30
0
41
1
10
35.8682175212538
20
-2.25131155107391
30
0
41
1
10
35.8908254835669
20
-2.27203883601587
30
0
41
1
10
35.8982397402647
20
-2.27917061360731
30
0
41
1
10
35.9127818589602
20
-2.29395277952673
30
0
41
1
10
35.9199605661559
20
-2.30166247148935
30
0
41
1
10
35.9336285620714
20
-2.31733255666123
30
0
41
1
10
35.940132749253
20
-2.32530005805285
30
0
41
1
10
35.9523661595474
20
-2.34154582992795
30
0
41
1
10
35.9581318681508
20
-2.34988405776272
30
0
41
1
10
35.9632837365785
20
-2.35821639900973
30
0
0
SPLINE
5
147
100
AcDbEntity
8
1
62
256
6
ByLayer
370
18
48
1
60
0
100
AcDbSpline
70
4
71
3
72
12
73
8
40
0
40
0
40
0
40
0
40
0.250000000000003
40
0.250000000000003
40
0.500000000000006
40
0.500000000000006
40
1
40
1
40
1
40
1
41
1
10
35.9632837365784
20
-2.35821639900959
30
0
41
1
10
35.9995438818231
20
-2.41686151157214
30
0
41
1
10
36.035593412812
20
-2.47628659347222
30
0
41
1
10
36.107332873313
20
-2.59665445670328
30
0
41
1
10
36.143021676491
20
-2.65760191770434
30
0
41
1
10
36.2496858874859
20
-2.84250306560307
30
0
41
1
10
36.3199961488725
20
-2.96801537102704
30
0
41
1
10
36.3896850991258
20
-3.09549388869255
30
0
0
SPLINE
5
148
100
AcDbEntity
8
1
62
256
6
ByLayer
370
18
48
1
60
0
100
AcDbSpline
70
4
71
3
72
12
73
8
40
0
40
0
40
0
40
0
40
0.250000000000002
40
0.250000000000002
40
0.500000000000005
40
0.500000000000005
40
1
40
1
40
1
40
1
41
1
10
36.5145171952183
20
-3.18437883707924
30
0
41
1
10
36.5504196676043
20
-3.169320671295
30
0
41
1
10
36.586488002394
20
-3.15240449346848
30
0
41
1
10
36.6590263058687
20
-3.11484056098234
30
0
41
1
10
36.6955088461462
20
-3.0941850394081
30
0
41
1
10
36.8055890902668
20
-3.02661681970099
30
0
41
1
10
36.8795841372286
20
-2.97426325495113
30
0
41
1
10
36.954484024471
20
-2.91453255465265
30
0
0
SPLINE
5
149
100
AcDbEntity
8
1
62
256
6
ByLayer
370
18
48
1
60
0
100
AcDbSpline
70
4
71
3
72
26
73
22
40
0
40
0
40
0
40
0
40
0.125
40
0.125
40
0.25
40
0.25
40
0.375000000000001
40
0.375000000000001
40
0.500000000000001
40
0.500000000000001
40
0.625000000000001
40
0.625000000000001
40
0.750000000000001
40
0.750000000000001
40
0.812500000000001
40
0.812500000000001
40
0.875000000000001
40
0.875000000000001
40
0.9375
40
0.9375
40
1
40
1
40
1
40
1
41
1
10
36.954484024472
20
-2.9145325546537
30
0
41
1
10
36.9638323786234
20
-2.90707748682033
30
0
41
1
10
36.9746886809201
20
-2.90202537323174
30
0
41
1
10
36.998599869718
20
-2.89536210314009
30
0
41
1
10
37.011776913844
20
-2.89380705727711
30
0
41
1
10
37.0390589411654
20
-2.89380618585102
30
0
41
1
10
37.0532682466113
20
-2.89532004411609
30
0
41
1
10
37.0827065843212
20
-2.90117511122517
30
0
41
1
10
37.0980314611698
20
-2.90557265247449
30
0
41
1
10
37.1286540774099
20
-2.91703897978783
30
0
41
1
10
37.1440587569811
20
-2.92411137099339
30
0
41
1
10
37.1750051373579
20
-2.9412768557718
30
0
41
1
10
37.1906774538545
20
-2.95148205776462
30
0
41
1
10
37.2132800672008
20
-2.96901583228572
30
0
41
1
10
37.2206922987782
20
-2.9752465924322
30
0
41
1
10
37.2352293711015
20
-2.98860141201919
30
0
41
1
10
37.2424045699658
20
-2.99578298893428
30
0
41
1
10
37.2560600804989
20
-3.01086237151912
30
0
41
1
10
37.2625576969738
20
-3.0187646940156
30
0
41
1
10
37.2747777636518
20
-3.03542106487214
30
0
41
1
10
37.2805363418193
20
-3.04424066149355
30
0
41
1
10
37.2856814768341
20
-3.05337944841907
30
0
0
SPLINE
5
14A
100
AcDbEntity
8
1
62
256
6
ByLayer
370
18
48
1
60
0
100
AcDbSpline
70
4
71
3
72
12
73
8
40
0
40
0
40
0
40
0
40
0.500000000000006
40
0.500000000000006
40
0.750000000000003
40
0.750000000000003
40
1
40
1
40
1
40
1
41
1
10
37.2856814768341
20
-3.05337944841898
30
0
41
1
10
37.3582611101724
20
-3.18229536652407
30
0
41
1
10
37.4300125835735
20
-3.31174532910387
30
0
41
1
10
37.5367587273808
20
-3.50651941738013
30
0
41
1
10
37.5721285766096
20
-3.57142559362484
30
0
41
1
10
37.6424427696276
20
-3.70105514060592
30
0
41
1
10
37.6773949075589
20
-3.76579665408235
30
0
41
1
10
37.7121890810832
20
-3.83045150812831
30
0
0
SPLINE
5
14B
100
AcDbEntity
8
1
62
256
6
ByLayer
370
18
48
1
60
0
100
AcDbSpline
70
4
71
3
72
12
73
8
40
0
40
0
40
0
40
0
40
0.250000000000002
40
0.250000000000002
40
0.500000000000004
40
0.500000000000004
40
1
40
1
40
1
40
1
41
1
10
37.8369161149678
20
-3.87524544607368
30
0
41
1
10
37.8727933217048
20
-3.83477256995786
30
0
41
1
10
37.9088456459274
20
-3.79273006024835
30
0
41
1
10
37.9813673575351
20
-3.70552296724122
30
0
41
1
10
38.0178499473996
20
-3.66034087730975
30
0
41
1
10
38.1279543674821
20
-3.52019512489198
30
0
41
1
10
38.2019930370847
20
-3.42094924197409
30
0
41
1
10
38.2769638838313
20
-3.31591348242392
30
0
0
SPLINE
5
14C
100
AcDbEntity
8
1
62
256
6
ByLayer
370
18
48
1
60
0
100
AcDbSpline
70
4
71
3
72
26
73
22
40
0
40
0
40
0
40
0
40
0.125000000000015
40
0.125000000000015
40
0.25000000000003
40
0.25000000000003
40
0.375000000000045
40
0.375000000000045
40
0.50000000000006
40
0.50000000000006
40
0.625000000000075
40
0.625000000000075
40
0.75000000000009
40
0.75000000000009
40
0.812500000000067
40
0.812500000000067
40
0.875000000000045
40
0.875000000000045
40
0.937500000000022
40
0.937500000000022
40
1
40
1
40
1
40
1
41
1
10
38.2769638838313
20
-3.31591348242392
30
0
41
1
10
38.2863183009968
20
-3.30280774393003
30
0
41
1
10
38.2971814748341
20
-3.29209493955179
30
0
41
1
10
38.3211063200652
20
-3.27410044260978
30
0
41
1
10
38.3342908567282
20
-3.26683915322923
30
0
41
1
10
38.3615860045992
20
-3.25582311586052
30
0
41
1
10
38.375800872187
20
-3.25197524921114
30
0
41
1
10
38.4052480343547
20
-3.24736321488291
30
0
41
1
10
38.4205751647343
20
-3.24662950583621
30
0
41
1
10
38.4511989957847
20
-3.24841235758373
30
0
41
1
10
38.4666034628883
20
-3.25089089757654
30
0
41
1
10
38.4975471167314
20
-3.2593922769799
30
0
41
1
10
38.5132138727674
20
-3.26549809345775
30
0
41
1
10
38.5358033231679
20
-3.27760296647341
30
0
41
1
10
38.5432109447757
20
-3.28213569129639
30
0
41
1
10
38.557738387103
20
-3.29234874951351
30
0
41
1
10
38.5649083316522
20
-3.29807760347771
30
0
41
1
10
38.5785522708231
20
-3.31062360308519
30
0
41
1
10
38.5850441010409
20
-3.317439935333
30
0
41
1
10
38.5972527923755
20
-3.33234839319556
30
0
41
1
10
38.6030057449636
20
-3.34050330043419
30
0
41
1
10
38.608146937306
20
-3.34925924419852
30
0
0
SPLINE
5
14D
100
AcDbEntity
8
1
62
256
6
ByLayer
370
18
48
1
60
0
100
AcDbSpline
70
4
71
3
72
10
73
6
40
0
40
0
40
0
40
0
40
0.5
40
0.5
40
1
40
1
40
1
40
1
41
1
10
38.608146937306
20
-3.34925924419852
30
0
41
1
10
38.6806292334374
20
-3.47270354788552
30
0
41
1
10
38.7523040677596
20
-3.59409638474963
30
0
41
1
10
38.8945380158696
20
-3.83261210916541
30
0
41
1
10
38.9648087778259
20
-3.94924840893651
30
0
41
1
10
39.034415123369
20
-4.06310494064408
30
0
0
SPLINE
5
14E
100
AcDbEntity
8
1
62
256
6
ByLayer
370
18
48
1
60
0
100
AcDbSpline
70
4
71
3
72
8
73
4
40
0
40
0
40
0
40
0
40
1
40
1
40
1
40
1
41
1
10
39.1593893034729
20
-4.05739426374421
30
0
41
1
10
39.1177413896504
20
-4.06011386018869
30
0
41
1
10
39.0760840646115
20
-4.0620143444792
30
0
41
1
10
39.034415123369
20
-4.06310494064408
30
0
0
SPLINE
5
14F
100
AcDbEntity
8
1
62
256
6
ByLayer
370
18
48
1
60
0
100
AcDbSpline
70
4
71
3
72
12
73
8
40
0
40
0
40
0
40
0
40
0.249999999999999
40
0.249999999999999
40
0.499999999999999
40
0.499999999999999
40
1
40
1
40
1
40
1
41
1
10
39.159389303473
20
-4.05739426374424
30
0
41
1
10
39.1952873238972
20
-3.99666036072813
30
0
41
1
10
39.2313255987974
20
-3.93495203935893
30
0
41
1
10
39.3038102378427
20
-3.80949521740621
30
0
41
1
10
39.3402750884156
20
-3.74571502367928
30
0
41
1
10
39.45036515747
20
-3.55138834550164
30
0
41
1
10
39.5244183730332
20
-3.41833185127516
30
0
41
1
10
39.5994181097257
20
-3.28184905036352
30
0
0
SPLINE
5
150
100
AcDbEntity
8
1
62
256
6
ByLayer
370
18
48
1
60
0
100
AcDbSpline
70
4
71
3
72
26
73
22
40
0
40
0
40
0
40
0
40
0.125
40
0.125
40
0.25
40
0.25
40
0.375
40
0.375
40
0.5
40
0.5
40
0.625
40
0.625
40
0.75
40
0.75
40
0.8125
40
0.8125
40
0.875
40
0.875
40
0.9375
40
0.9375
40
1
40
1
40
1
40
1
41
1
10
39.5994181097257
20
-3.28184905036352
30
0
41
1
10
39.6087807991184
20
-3.26481104291554
30
0
41
1
10
39.6196526705034
20
-3.24983778225314
30
0
41
1
10
39.6435923043504
20
-3.22285577697753
30
0
41
1
10
39.6567824553689
20
-3.21082945219786
30
0
41
1
10
39.6840848191563
20
-3.19021511309995
30
0
41
1
10
39.6983019106635
20
-3.18149284762268
30
0
41
1
10
39.7277508705842
20
-3.16697805451301
30
0
41
1
10
39.7430776067662
20
-3.16118625750252
30
0
41
1
10
39.7737002470471
20
-3.15300293184549
30
0
41
1
10
39.7891035513461
20
-3.15053648046558
30
0
41
1
10
39.8200432704686
20
-3.14920316297142
30
0
41
1
10
39.8357084832466
20
-3.15038052131487
30
0
41
1
10
39.8582971025338
20
-3.15542948449692
30
0
41
1
10
39.8657043333806
20
-3.15765653195419
30
0
41
1
10
39.8802306679682
20
-3.16336180450384
30
0
41
1
10
39.8874001576008
20
-3.16687322800652
30
0
41
1
10
39.9010460523442
20
-3.17521722454674
30
0
41
1
10
39.9075387263881
20
-3.1800423442314
30
0
41
1
10
39.9197488347998
20
-3.19122565178583
30
0
41
1
10
39.9255025951798
20
-3.19763560069902
30
0
41
1
10
39.9306461732999
20
-3.20485088699681
30
0
0
SPLINE
5
151
100
AcDbEntity
8
1
62
256
6
ByLayer
370
18
48
1
60
0
100
AcDbSpline
70
4
71
3
72
10
73
6
40
0
40
0
40
0
40
0
40
0.5
40
0.5
40
1
40
1
40
1
40
1
41
1
10
39.9306461732999
20
-3.20485088699687
30
0
41
1
10
40.0031524761056
20
-3.30656096525698
30
0
41
1
10
40.0748552124973
20
-3.40393660119994
30
0
41
1
10
40.2171476145936
20
-3.59007778098427
30
0
41
1
10
40.287460923535
20
-3.67848655012719
30
0
41
1
10
40.3571274121187
20
-3.7622049561275
30
0
0
SPLINE
5
152
100
AcDbEntity
8
1
62
256
6
ByLayer
370
18
48
1
60
0
100
AcDbSpline
70
4
71
3
72
8
73
4
40
0
40
0
40
0
40
0
40
1
40
1
40
1
40
1
41
1
10
40.4817068941472
20
-3.70731114598763
30
0
41
1
10
40.440165464941
20
-3.72636714981786
30
0
41
1
10
40.3986390043218
20
-3.74466296452314
30
0
41
1
10
40.3571274121187
20
-3.7622049561275
30
0
0
SPLINE
5
153
100
AcDbEntity
8
1
62
256
6
ByLayer
370
18
48
1
60
0
100
AcDbSpline
70
4
71
3
72
10
73
6
40
0
40
0
40
0
40
0
40
0.5
40
0.5
40
1
40
1
40
1
40
1
41
1
10
40.4817068941472
20
-3.7073111459876
30
0
41
1
10
40.5536502989102
20
-3.56136173802767
30
0
41
1
10
40.6262156344203
20
-3.41395652097606
30
0
41
1
10
40.7729788331579
20
-3.1167203609327
30
0
41
1
10
40.8468929855193
20
-2.96742136186924
30
0
41
1
10
40.9218484926242
20
-2.8175673118084
30
0
0
SPLINE
5
154
100
AcDbEntity
8
1
62
256
6
ByLayer
370
18
48
1
60
0
100
AcDbSpline
70
4
71
3
72
16
73
12
40
0
40
0
40
0
40
0
40
0.217663462432252
40
0.217663462432252
40
0.435326924864504
40
0.435326924864504
40
0.652990387296756
40
0.652990387296756
40
0.870653849729008
40
0.870653849729008
40
1
40
1
40
1
40
1
41
1
10
40.9218484926242
20
-2.8175673118084
30
0
41
1
10
40.9312228215664
20
-2.79882577815928
30
0
41
1
10
40.9421066323778
20
-2.78154734510321
30
0
41
1
10
40.9660683607374
20
-2.74909995427217
30
0
41
1
10
40.9792681266437
20
-2.73387833132765
30
0
41
1
10
41.0065849209835
20
-2.70635884711854
30
0
41
1
10
41.0208080260518
20
-2.69390257835585
30
0
41
1
10
41.0502665639401
20
-2.67138545599042
30
0
41
1
10
41.0655956359469
20
-2.66129627489696
30
0
41
1
10
41.0900070225785
20
-2.64768744791334
30
0
41
1
10
41.0991383624799
20
-2.64312715281673
30
0
41
1
10
41.1082963521556
20
-2.63910865664892
30
0
0
SPLINE
5
155
100
AcDbEntity
8
1
62
256
6
ByLayer
370
18
48
1
60
0
100
AcDbSpline
70
4
71
3
72
8
73
4
40
0
40
0
40
0
40
0
40
1
40
1
40
1
40
1
41
1
10
46.8018630154943
20
-0.943807451962499
30
0
41
1
10
46.7616494898677
20
-0.94537936345273
30
0
41
1
10
46.7216217884663
20
-0.944621158313453
30
0
41
1
10
46.681752631385
20
-0.941571827334485
30
0
0
SPLINE
5
156
100
AcDbEntity
8
1
62
256
6
ByLayer
370
18
48
1
60
0
100
AcDbSpline
70
4
71
3
72
8
73
4
40
0
40
0
40
0
40
0
40
1
40
1
40
1
40
1
41
1
10
46.681752631385
20
-0.941571827334485
30
0
41
1
10
46.4721120083999
20
-0.77727044492147
30
0
41
1
10
46.2651482565734
20
-0.599786872296505
30
0
41
1
10
46.0588659492089
20
-0.410444297100753
30
0
0
SPLINE
5
157
100
AcDbEntity
8
1
62
256
6
ByLayer
370
18
48
1
60
0
100
AcDbSpline
70
4
71
3
72
8
73
4
40
0
40
0
40
0
40
0
40
1
40
1
40
1
40
1
41
1
10
46.0588659492088
20
-0.410444297100696
30
0
41
1
10
45.9768750553742
20
-0.279309582620044
30
0
41
1
10
45.8941224593049
20
-0.155131731339594
30
0
41
1
10
45.8105594845884
20
-0.0389657790635454
30
0
0
SPLINE
5
158
100
AcDbEntity
8
1
62
256
6
ByLayer
370
18
48
1
60
0
100
AcDbSpline
70
4
71
3
72
30
73
26
40
0
40
0
40
0
40
0
40
0.125000000000012
40
0.125000000000012
40
0.250000000000025
40
0.250000000000025
40
0.375000000000037
40
0.375000000000037
40
0.437500000000014
40
0.437500000000014
40
0.499999999999991
40
0.499999999999991
40
0.624999999999946
40
0.624999999999946
40
0.687499999999955
40
0.687499999999955
40
0.749999999999964
40
0.749999999999964
40
0.812499999999973
40
0.812499999999973
40
0.874999999999982
40
0.874999999999982
40
0.937499999999991
40
0.937499999999991
40
1
40
1
40
1
40
1
41
1
10
45.8105594845884
20
-0.0389657790635454
30
0
41
1
10
45.801514447132
20
-0.0263917246685708
30
0
41
1
10
45.7910465312378
20
-0.0132184397930644
30
0
41
1
10
45.7679616489998
20
0.0139859034437961
30
0
41
1
10
45.7552459099582
20
0.0281032353431669
30
0
41
1
10
45.7287540017407
20
0.0561934031124167
30
0
41
1
10
45.7148869785188
20
0.0702783972521104
30
0
41
1
10
45.6932247192521
20
0.0914901900983125
30
0
41
1
10
45.6858589026651
20
0.0985750917330961
30
0
41
1
10
45.6708321288554
20
0.112781480799612
30
0
41
1
10
45.6632109227428
20
0.119864397145705
30
0
41
1
10
45.6402991024057
20
0.140815294436067
30
0
41
1
10
45.6248566143086
20
0.154487770594699
30
0
41
1
10
45.6014650013535
20
0.17456028058686
30
0
41
1
10
45.5936295968719
20
0.181177885326775
30
0
41
1
10
45.5778822566343
20
0.194257729034774
30
0
41
1
10
45.5699374341765
20
0.2007453378408
30
0
41
1
10
45.5543642255262
20
0.21323016682345
30
0
41
1
10
45.5466948386704
20
0.219262637651866
30
0
41
1
10
45.5316363263461
20
0.230850741110743
30
0
41
1
10
45.5241892228894
20
0.236448669771079
30
0
41
1
10
45.5099647857794
20
0.246826707887976
30
0
41
1
10
45.5032039215758
20
0.251598228113721
30
0
41
1
10
45.4905130630317
20
0.260157205760237
30
0
41
1
10
45.484552491646
20
0.263960730395922
30
0
41
1
10
45.4792873302702
20
0.267036257493487
30
0
0
SPLINE
5
159
100
AcDbEntity
8
1
62
256
6
ByLayer
370
18
48
1
60
0
100
AcDbSpline
70
4
71
3
72
12
73
8
40
0
40
0
40
0
40
0
40
0.500000000000001
40
0.500000000000001
40
0.750000000000001
40
0.750000000000001
40
1
40
1
40
1
40
1
41
1
10
45.4792873302704
20
0.267036257491554
30
0
41
1
10
45.4076991260285
20
0.308852917285378
30
0
41
1
10
45.3366373959424
20
0.357650237229763
30
0
41
1
10
45.2309824796908
20
0.440765188411405
30
0
41
1
10
45.1959289484745
20
0.470092869827766
30
0
41
1
10
45.1262080173863
20
0.531757459605586
30
0
41
1
10
45.0915224055856
20
0.564107923657076
30
0
41
1
10
45.0569812060657
20
0.597927223644575
30
0
0
SPLINE
5
15A
100
AcDbEntity
8
1
62
256
6
ByLayer
370
18
48
1
60
0
100
AcDbSpline
70
4
71
3
72
12
73
8
40
0
40
0
40
0
40
0
40
0.25
40
0.25
40
0.5
40
0.5
40
1
40
1
40
1
40
1
41
1
10
44.9311486413795
20
0.736942054166946
30
0
41
1
10
44.8948459451265
20
0.779406113969088
30
0
41
1
10
44.8584075305344
20
0.820133256795771
30
0
41
1
10
44.7851932987161
20
0.898059616809519
30
0
41
1
10
44.7483978932574
20
0.935277826337682
30
0
41
1
10
44.6375798738422
20
1.0413609641208
30
0
41
1
10
44.5631056925295
20
1.10471203316712
30
0
41
1
10
44.4880081941109
20
1.16009374048073
30
0
0
SPLINE
5
15B
100
AcDbEntity
8
1
62
256
6
ByLayer
370
18
48
1
60
0
100
AcDbSpline
70
4
71
3
72
30
73
26
40
0
40
0
40
0
40
0
40
0.125
40
0.125
40
0.25
40
0.25
40
0.375000000000001
40
0.375000000000001
40
0.437500000000001
40
0.437500000000001
40
0.500000000000001
40
0.500000000000001
40
0.625000000000001
40
0.625000000000001
40
0.687500000000001
40
0.687500000000001
40
0.75
40
0.75
40
0.8125
40
0.8125
40
0.875
40
0.875
40
0.9375
40
0.9375
40
1
40
1
40
1
40
1
41
1
10
44.4880081941109
20
1.1600937404807
30
0
41
1
10
44.4789597704402
20
1.16676662788623
30
0
41
1
10
44.4684883057536
20
1.1747244112766
30
0
41
1
10
44.4453976122346
20
1.19251679299418
30
0
41
1
10
44.4326804700046
20
1.2024328030337
30
0
41
1
10
44.4061855779215
20
1.22329104867046
30
0
41
1
10
44.3923169660644
20
1.23430445377986
30
0
41
1
10
44.3706532844002
20
1.25168818395983
30
0
41
1
10
44.3632871446405
20
1.25762832064686
30
0
41
1
10
44.3482602145159
20
1.26981818088294
30
0
41
1
10
44.3406390584525
20
1.2760360772742
30
0
41
1
10
44.3177279092677
20
1.29485736628774
30
0
41
1
10
44.3022863838607
20
1.30770845664
30
0
41
1
10
44.278897001766
20
1.32756559417507
30
0
41
1
10
44.2710624341748
20
1.3342824243897
30
0
41
1
10
44.25531667082
20
1.34795193734178
30
0
41
1
10
44.2473719286806
20
1.35493544000073
30
0
41
1
10
44.23179705995
20
1.36884255590962
30
0
41
1
10
44.2241264207962
20
1.37580042625697
30
0
41
1
10
44.2090640462612
20
1.38973535140801
30
0
41
1
10
44.2016143318868
20
1.39676823917546
30
0
41
1
10
44.187382303734
20
1.41055829447205
30
0
41
1
10
44.180617091546
20
1.41729582017646
30
0
41
1
10
44.1679166735611
20
1.43040021349748
30
0
41
1
10
44.1619507775613
20
1.43680447494523
30
0
41
1
10
44.1566806988769
20
1.44277594546901
30
0
0
SPLINE
5
15C
100
AcDbEntity
8
1
62
256
6
ByLayer
370
18
48
1
60
0
100
AcDbSpline
70
4
71
3
72
12
73
8
40
0
40
0
40
0
40
0
40
0.5
40
0.5
40
0.75
40
0.75
40
1
40
1
40
1
40
1
41
1
10
44.1566806988771
20
1.44277594546719
30
0
41
1
10
44.0849220119266
20
1.52408495613236
30
0
41
1
10
44.013693749491
20
1.61106740653551
30
0
41
1
10
43.9077764209317
20
1.74917479775326
30
0
41
1
10
43.8726360404582
20
1.79646307705136
30
0
41
1
10
43.8027493805351
20
1.89332328213627
30
0
41
1
10
43.7679850838223
20
1.94291678301337
30
0
41
1
10
43.7333689241013
20
1.99363051344008
30
0
0
SPLINE
5
15D
100
AcDbEntity
8
1
62
256
6
ByLayer
370
18
48
1
60
0
100
AcDbSpline
70
4
71
3
72
12
73
8
40
0
40
0
40
0
40
0
40
0.249999999999996
40
0.249999999999996
40
0.499999999999992
40
0.499999999999992
40
1
40
1
40
1
40
1
41
1
10
43.6085748376487
20
2.11430544631429
30
0
41
1
10
43.5722855829268
20
2.12998918100203
30
0
41
1
10
43.5358586402609
20
2.1437048393897
30
0
41
1
10
43.4626636530332
20
2.16716215692981
30
0
41
1
10
43.4258759532545
20
2.17690797424203
30
0
41
1
10
43.3150754930959
20
2.2000589735766
30
0
41
1
10
43.2406050946062
20
2.20741129744803
30
0
41
1
10
43.1655083637034
20
2.20637893170149
30
0
0
SPLINE
5
15E
100
AcDbEntity
8
1
62
256
6
ByLayer
370
18
48
1
60
0
100
AcDbSpline
70
4
71
3
72
30
73
26
40
0
40
0
40
0
40
0
40
0.125000000000037
40
0.125000000000037
40
0.250000000000074
40
0.250000000000074
40
0.37500000000011
40
0.37500000000011
40
0.4375000000001
40
0.4375000000001
40
0.50000000000009
40
0.50000000000009
40
0.625000000000068
40
0.625000000000068
40
0.687500000000056
40
0.687500000000056
40
0.750000000000045
40
0.750000000000045
40
0.812500000000034
40
0.812500000000034
40
0.875000000000023
40
0.875000000000023
40
0.937500000000011
40
0.937500000000011
40
1
40
1
40
1
40
1
41
1
10
43.1655083637033
20
2.20637893170178
30
0
41
1
10
43.1564552007191
20
2.20625447654575
30
0
41
1
10
43.1459772820125
20
2.20793321437702
30
0
41
1
10
43.1228724623796
20
2.21394165555418
30
0
41
1
10
43.1101475922564
20
2.218338200788
30
0
41
1
10
43.0836385801328
20
2.22919516775784
30
0
41
1
10
43.0697631731617
20
2.23567562439979
30
0
41
1
10
43.0480913872704
20
2.246925396682
30
0
41
1
10
43.0407228928571
20
2.25093294604315
30
0
41
1
10
43.0256922227854
20
2.25948959595266
30
0
41
1
10
43.0180714225402
20
2.26401663623608
30
0
41
1
10
42.9951610081075
20
2.27820928152511
30
0
41
1
10
42.9797219247141
20
2.28853242829825
30
0
41
1
10
42.9563391129456
20
2.30553549532567
30
0
41
1
10
42.9485072127976
20
2.31145873591515
30
0
41
1
10
42.9327676190201
20
2.32390034926448
30
0
41
1
10
42.9248285819762
20
2.33044856688329
30
0
41
1
10
42.9092664805715
20
2.34392064381493
30
0
41
1
10
42.9016018400771
20
2.3508745403245
30
0
41
1
10
42.8865502570322
20
2.36529531323256
30
0
41
1
10
42.8791054515974
20
2.37282459560228
30
0
41
1
10
42.8648847018844
20
2.38818241670876
30
0
41
1
10
42.8581240630263
20
2.39598527202358
30
0
41
1
10
42.8454305799153
20
2.41188504662574
30
0
41
1
10
42.8394671962722
20
2.42003544828808
30
0
41
1
10
42.8341983577801
20
2.42810814076796
30
0
0
SPLINE
5
15F
100
AcDbEntity
8
1
62
256
6
ByLayer
370
18
48
1
60
0
100
AcDbSpline
70
4
71
3
72
12
73
8
40
0
40
0
40
0
40
0
40
0.5
40
0.5
40
0.75
40
0.75
40
1
40
1
40
1
40
1
41
1
10
42.8341983577802
20
2.4281081407666
30
0
41
1
10
42.7624359088317
20
2.53805954330551
30
0
41
1
10
42.6912079034997
20
2.65165831459453
30
0
41
1
10
42.5852872478651
20
2.82652523762994
30
0
41
1
10
42.5501449969911
20
2.88553686631124
30
0
41
1
10
42.4802484715771
20
3.00475326614384
30
0
41
1
10
42.4454767403104
20
3.06498619006891
30
0
41
1
10
42.4108541737986
20
3.12582261895145
30
0
0
SPLINE
5
160
100
AcDbEntity
8
1
62
256
6
ByLayer
370
18
48
1
60
0
100
AcDbSpline
70
4
71
3
72
8
73
4
40
0
40
0
40
0
40
0
40
1
40
1
40
1
40
1
41
1
10
42.2859652122785
20
3.21342832315204
30
0
41
1
10
42.3276120126451
20
3.1848440970428
30
0
41
1
10
42.3692367650413
20
3.15563899962481
30
0
41
1
10
42.4108541737961
20
3.1258226189683
30
0
0
SPLINE
5
161
100
AcDbEntity
8
1
62
256
6
ByLayer
370
18
48
1
60
0
100
AcDbSpline
70
4
71
3
72
12
73
8
40
0
40
0
40
0
40
0
40
0.25
40
0.25
40
0.499999999999999
40
0.499999999999999
40
1
40
1
40
1
40
1
41
1
10
42.2859652122785
20
3.21342832315204
30
0
41
1
10
42.249704195677
20
3.20030564380542
30
0
41
1
10
42.2133013278993
20
3.18523905699797
30
0
41
1
10
42.1401420099699
20
3.15120086030856
30
0
41
1
10
42.1033660738553
20
3.13221894948083
30
0
41
1
10
41.9925833876184
20
3.06947075851406
30
0
41
1
10
41.9180992656908
20
3.01990932062381
30
0
41
1
10
41.8429675475184
20
2.96263542714809
30
0
0
SPLINE
5
162
100
AcDbEntity
8
1
62
256
6
ByLayer
370
18
48
1
60
0
100
AcDbSpline
70
4
71
3
72
30
73
26
40
0
40
0
40
0
40
0
40
0.125
40
0.125
40
0.250000000000001
40
0.250000000000001
40
0.375000000000001
40
0.375000000000001
40
0.437500000000001
40
0.437500000000001
40
0.500000000000001
40
0.500000000000001
40
0.625000000000001
40
0.625000000000001
40
0.6875
40
0.6875
40
0.75
40
0.75
40
0.8125
40
0.8125
40
0.875
40
0.875
40
0.9375
40
0.9375
40
1
40
1
40
1
40
1
41
1
10
41.8429675475184
20
2.96263542714809
30
0
41
1
10
41.8339101667966
20
2.9557308671134
30
0
41
1
10
41.8234264133769
20
2.95090968179198
30
0
41
1
10
41.800307537284
20
2.94434308019294
30
0
41
1
10
41.7875739568407
20
2.94264076433012
30
0
41
1
10
41.7610482409431
20
2.94206962841196
30
0
41
1
10
41.7471641414618
20
2.94316624830265
30
0
41
1
10
41.7254800636936
20
2.94680557819049
30
0
41
1
10
41.7181076078935
20
2.94835466644486
30
0
41
1
10
41.7030695321888
20
2.95215544867173
30
0
41
1
10
41.6954476663553
20
2.95439846897281
30
0
41
1
10
41.6725330529425
20
2.96210126715363
30
0
41
1
10
41.6570929104155
20
2.96854190528828
30
0
41
1
10
41.6337114072087
20
2.9804580194874
30
0
41
1
10
41.6258804196522
20
2.98480954417462
30
0
41
1
10
41.6101435435433
20
2.99438825114743
30
0
41
1
10
41.6022095604339
20
2.99964024697192
30
0
41
1
10
41.5866601521587
20
3.01090395366708
30
0
41
1
10
41.579001636744
20
3.01693769912333
30
0
41
1
10
41.563962075878
20
3.02994303452169
30
0
41
1
10
41.5565231060192
20
3.03697532304301
30
0
41
1
10
41.542317351492
20
3.05187022353326
30
0
41
1
10
41.535563390391
20
3.0597053163192
30
0
41
1
10
41.5228813083102
20
3.07629262013609
30
0
41
1
10
41.5169228865747
20
3.08510708962845
30
0
41
1
10
41.511657375032
20
3.09420823707572
30
0
0
SPLINE
5
163
100
AcDbEntity
8
1
62
256
6
ByLayer
370
18
48
1
60
0
100
AcDbSpline
70
4
71
3
72
12
73
8
40
0
40
0
40
0
40
0
40
0.5
40
0.5
40
0.75
40
0.75
40
1
40
1
40
1
40
1
41
1
10
41.5116573750321
20
3.09420823707495
30
0
41
1
10
41.4399081694493
20
3.21822279747059
30
0
41
1
10
41.3686931583448
20
3.34341296754161
30
0
41
1
10
41.2628596610579
20
3.53185823049088
30
0
41
1
10
41.2277146836038
20
3.59483823432353
30
0
41
1
10
41.157804654175
20
3.72078685853904
30
0
41
1
10
41.1230337459994
20
3.78376515796003
30
0
41
1
10
41.0884179369701
20
3.84673311839558
30
0
0
SPLINE
5
164
100
AcDbEntity
8
1
62
256
6
ByLayer
370
18
48
1
60
0
100
AcDbSpline
70
4
71
3
72
12
73
8
40
0
40
0
40
0
40
0
40
0.25
40
0.25
40
0.5
40
0.5
40
1
40
1
40
1
40
1
41
1
10
40.9634039317445
20
3.88966971152325
30
0
41
1
10
40.9271441888501
20
3.84954666954045
30
0
41
1
10
40.890748024034
20
3.80778856189406
30
0
41
1
10
40.8176024271228
20
3.72095313147295
30
0
41
1
10
40.7808311959974
20
3.67584793142129
30
0
41
1
10
40.670049952015
20
3.53571783059101
30
0
41
1
10
40.5955556737142
20
3.43586909414091
30
0
41
1
10
40.5204446165316
20
3.32993299885175
30
0
0
SPLINE
5
165
100
AcDbEntity
8
1
62
256
6
ByLayer
370
18
48
1
60
0
100
AcDbSpline
70
4
71
3
72
30
73
26
40
0
40
0
40
0
40
0
40
0.125000000000037
40
0.125000000000037
40
0.250000000000073
40
0.250000000000073
40
0.37500000000011
40
0.37500000000011
40
0.437500000000099
40
0.437500000000099
40
0.500000000000088
40
0.500000000000088
40
0.625000000000067
40
0.625000000000067
40
0.687500000000056
40
0.687500000000056
40
0.750000000000044
40
0.750000000000044
40
0.812500000000033
40
0.812500000000033
40
0.875000000000022
40
0.875000000000022
40
0.937500000000011
40
0.937500000000011
40
1
40
1
40
1
40
1
41
1
10
40.5204446165316
20
3.32993299885175
30
0
41
1
10
40.5113883787957
20
3.31716014622865
30
0
41
1
10
40.5009049425293
20
3.30647170889949
30
0
41
1
10
40.4777853655665
20
3.28818338374242
30
0
41
1
10
40.4650504935756
20
3.28059655105926
30
0
41
1
10
40.4385215728094
20
3.26864796339336
30
0
41
1
10
40.4246355671301
20
3.26420208572236
30
0
41
1
10
40.4029483150431
20
3.25972650475913
30
0
41
1
10
40.3955748012122
20
3.25860411596557
30
0
41
1
10
40.3805348148939
20
3.25712916610382
30
0
41
1
10
40.3729121441911
20
3.25678390615604
30
0
41
1
10
40.3499957480933
20
3.25695336085533
30
0
41
1
10
40.3345552957733
20
3.25864215909743
30
0
41
1
10
40.3111747478033
20
3.26386789685631
30
0
41
1
10
40.3033443064145
20
3.266062853893
30
0
41
1
10
40.2876088490406
20
3.27149299325964
30
0
41
1
10
40.2796760382568
20
3.27474712901449
30
0
41
1
10
40.2641292798792
20
3.28230174782516
30
0
41
1
10
40.2564721826038
20
3.28661211367742
30
0
41
1
10
40.2414357735477
20
3.29647175198991
30
0
41
1
10
40.2339985252012
20
3.30207174645639
30
0
41
1
10
40.2197965277114
20
3.31452825584395
30
0
41
1
10
40.2130444536125
20
3.32135662504672
30
0
41
1
10
40.2003659450337
20
3.3364322682861
30
0
41
1
10
40.1944091754919
20
3.34474268670931
30
0
41
1
10
40.1891448423605
20
3.35366615334419
30
0
0
SPLINE
5
166
100
AcDbEntity
8
1
62
256
6
ByLayer
370
18
48
1
60
0
100
AcDbSpline
70
4
71
3
72
12
73
8
40
0
40
0
40
0
40
0
40
0.500000000000001
40
0.500000000000001
40
0.750000000000001
40
0.750000000000001
40
1
40
1
40
1
40
1
41
1
10
40.1891448423606
20
3.35366615334414
30
0
41
1
10
40.1173460237679
20
3.47537090609177
30
0
41
1
10
40.0460850867966
20
3.59558138426311
30
0
41
1
10
39.9401844317014
20
3.77278058466271
30
0
41
1
10
39.9050174883526
20
3.83138044876944
30
0
41
1
10
39.8350637676948
20
3.94736116525954
30
0
41
1
10
39.8002709537572
20
4.00475258413431
30
0
41
1
10
39.7656333581197
20
4.06154420768939
30
0
0
SPLINE
5
167
100
AcDbEntity
8
1
62
256
6
ByLayer
370
18
48
1
60
0
100
AcDbSpline
70
4
71
3
72
8
73
4
40
0
40
0
40
0
40
0
40
1
40
1
40
1
40
1
41
1
10
39.6409850068545
20
4.05408632142331
30
0
41
1
10
39.6825517403207
20
4.0573729373547
30
0
41
1
10
39.7240965698747
20
4.05985853276539
30
0
41
1
10
39.7656333581197
20
4.06154420768931
30
0
0
SPLINE
5
168
100
AcDbEntity
8
1
62
256
6
ByLayer
370
18
48
1
60
0
100
AcDbSpline
70
4
71
3
72
12
73
8
40
0
40
0
40
0
40
0
40
0.25
40
0.25
40
0.5
40
0.5
40
1
40
1
40
1
40
1
41
1
10
39.6409850068546
20
4.05408632142331
30
0
41
1
10
39.6047067379328
20
3.99217913017964
30
0
41
1
10
39.568291756092
20
3.92915290884474
30
0
41
1
10
39.4951160855469
20
3.80084544552187
30
0
41
1
10
39.4583355956744
20
3.73552799172771
30
0
41
1
10
39.3475398430753
20
3.53647957781504
30
0
41
1
10
39.2730422547083
20
3.39959768745618
30
0
41
1
10
39.1978709649842
20
3.25903963093279
30
0
0
SPLINE
5
169
100
AcDbEntity
8
1
62
256
6
ByLayer
370
18
48
1
60
0
100
AcDbSpline
70
4
71
3
72
30
73
26
40
0
40
0
40
0
40
0
40
0.125000000000055
40
0.125000000000055
40
0.250000000000111
40
0.250000000000111
40
0.375000000000166
40
0.375000000000166
40
0.437500000000193
40
0.437500000000193
40
0.50000000000022
40
0.50000000000022
40
0.625000000000214
40
0.625000000000214
40
0.687500000000178
40
0.687500000000178
40
0.750000000000142
40
0.750000000000142
40
0.812500000000107
40
0.812500000000107
40
0.875000000000071
40
0.875000000000071
40
0.937500000000036
40
0.937500000000036
40
1
40
1
40
1
40
1
41
1
10
39.1978709649841
20
3.25903963093279
30
0
41
1
10
39.188815106087
20
3.24210665118213
30
0
41
1
10
39.178331096445
20
3.22698512229797
30
0
41
1
10
39.1552067814227
20
3.19943872722564
30
0
41
1
10
39.1424670883997
20
3.18699483745493
30
0
41
1
10
39.1159270248349
20
3.16530108641263
30
0
41
1
10
39.1020349738438
20
3.15592897231008
30
0
41
1
10
39.0803381179836
20
3.14397571747045
30
0
41
1
10
39.0729613261924
20
3.14034584687738
30
0
41
1
10
39.057914863509
20
3.13382210882986
30
0
41
1
10
39.0502901965968
20
3.13095092483149
30
0
41
1
10
39.0273675343097
20
3.12361418251797
30
0
41
1
10
39.011924000944
20
3.12036098910647
30
0
41
1
10
38.9885408405164
20
3.11825492194052
30
0
41
1
10
38.9807098553507
20
3.11801957717481
30
0
41
1
10
38.9649738986451
20
3.11861620675325
30
0
41
1
10
38.9570431743961
20
3.11945892181743
30
0
41
1
10
38.9415027258512
20
3.12233713723097
30
0
41
1
10
38.9338490425676
20
3.12436923816651
30
0
41
1
10
38.9188199595797
20
3.12980780537481
30
0
41
1
10
38.9113865693901
20
3.13324856055743
30
0
41
1
10
38.8971951988893
20
3.14164213590323
30
0
41
1
10
38.8904483671448
20
3.1465705205037
30
0
41
1
10
38.8777798638116
20
3.15815634508584
30
0
41
1
10
38.8718280416165
20
3.16486923748582
30
0
41
1
10
38.8665676825318
20
3.17243761789885
30
0
0
SPLINE
5
16A
100
AcDbEntity
8
1
62
256
6
ByLayer
370
18
48
1
60
0
100
AcDbSpline
70
4
71
3
72
12
73
8
40
0
40
0
40
0
40
0
40
0.5
40
0.5
40
0.75
40
0.75
40
1
40
1
40
1
40
1
41
1
10
38.866567682532
20
3.17243761789953
30
0
41
1
10
38.7947656517669
20
3.27574331899598
30
0
41
1
10
38.7235064887111
20
3.3750412767713
30
0
41
1
10
38.6176102202646
20
3.51749279901031
30
0
41
1
10
38.5824448976911
20
3.56393753476348
30
0
41
1
10
38.5124940617469
20
3.65455897670526
30
0
41
1
10
38.4777024880459
20
3.69874544982005
30
0
41
1
10
38.443065413574
20
3.74182225108564
30
0
0
SPLINE
5
16B
100
AcDbEntity
8
1
62
256
6
ByLayer
370
18
48
1
60
0
100
AcDbSpline
70
4
71
3
72
8
73
4
40
0
40
0
40
0
40
0
40
1
40
1
40
1
40
1
41
1
10
38.3186157315875
20
3.68517927823868
30
0
41
1
10
38.3601155136195
20
3.70479610407566
30
0
41
1
10
38.4015942024508
20
3.72367818419028
30
0
41
1
10
38.443065413574
20
3.74182225108558
30
0
0
SPLINE
5
16C
100
AcDbEntity
8
1
62
256
6
ByLayer
370
18
48
1
60
0
100
AcDbSpline
70
4
71
3
72
12
73
8
40
0
40
0
40
0
40
0
40
0.25
40
0.25
40
0.499999999999999
40
0.499999999999999
40
1
40
1
40
1
40
1
41
1
10
38.3186157315875
20
3.68517927823868
30
0
41
1
10
38.2823233867088
20
3.60963394003562
30
0
41
1
10
38.2458918511418
20
3.53362498455797
30
0
41
1
10
38.172679703278
20
3.38069377697133
30
0
41
1
10
38.1358795220591
20
3.30373009009006
30
0
41
1
10
38.025023183196
20
3.07185546412606
30
0
41
1
10
37.9504886675182
20
2.91590252442421
30
0
41
1
10
37.875303634554
20
2.75926244131983
30
0
0
SPLINE
5
16D
100
AcDbEntity
8
1
62
256
6
ByLayer
370
18
48
1
60
0
100
AcDbSpline
70
4
71
3
72
16
73
12
40
0
40
0
40
0
40
0
40
0.279641957802733
40
0.279641957802733
40
0.559283915605467
40
0.559283915605467
40
0.8389258734082
40
0.8389258734082
40
0.9787468523096
40
0.9787468523096
40
1
40
1
40
1
40
1
41
1
10
37.875303634554
20
2.7592624413198
30
0
41
1
10
37.8662521261766
20
2.7404045786767
30
0
41
1
10
37.8557754490238
20
2.72285025560404
30
0
41
1
10
37.8326701437178
20
2.68969249125141
30
0
41
1
10
37.8199420774617
20
2.67404056590058
30
0
41
1
10
37.7934225971206
20
2.64547467874792
30
0
41
1
10
37.779539908262
20
2.63241710441525
30
0
41
1
10
37.7578527768321
20
2.61457007566949
30
0
41
1
10
37.7504784882915
20
2.60891399230758
30
0
41
1
10
37.741813446326
20
2.60274706537325
30
0
41
1
10
37.7406677129272
20
2.60194113776365
30
0
41
1
10
37.739519877107
20
2.60114319039087
30
0
0
SPLINE
5
16E
100
AcDbEntity
8
1
62
256
6
ByLayer
370
18
48
1
60
0
100
AcDbSpline
70
4
71
3
72
8
73
4
40
0
40
0
40
0
40
0
40
1
40
1
40
1
40
1
41
1
10
36.0733765021795
20
3.93329355187924
30
0
41
1
10
36.0489392045411
20
3.94023590130527
30
0
41
1
10
36.024480503272
20
3.94690282943651
30
0
41
1
10
36
20
3.95329499514773
30
0
0
SPLINE
5
16F
100
AcDbEntity
8
1
62
256
6
ByLayer
370
18
48
1
60
0
100
AcDbSpline
70
4
71
3
72
12
73
8
40
0
40
0
40
0
40
0
40
0.249999999999998
40
0.249999999999998
40
0.499999999999995
40
0.499999999999995
40
1
40
1
40
1
40
1
41
1
10
36.0733765021795
20
3.93329355187924
30
0
41
1
10
36.1093099298537
20
3.86477615740844
30
0
41
1
10
36.1453822192609
20
3.79559929617554
30
0
41
1
10
36.2179458076222
20
3.65585607420883
30
0
41
1
10
36.2544533574032
20
3.58526109250462
30
0
41
1
10
36.3646482674417
20
3.37155518507311
30
0
41
1
10
36.4387296850413
20
3.22702975278298
30
0
41
1
10
36.5137716271114
20
3.08054559631299
30
0
0
SPLINE
5
170
100
AcDbEntity
8
1
62
256
6
ByLayer
370
18
48
1
60
0
100
AcDbSpline
70
4
71
3
72
26
73
22
40
0
40
0
40
0
40
0
40
0.125000000000008
40
0.125000000000008
40
0.250000000000015
40
0.250000000000015
40
0.375000000000023
40
0.375000000000023
40
0.50000000000003
40
0.50000000000003
40
0.625000000000038
40
0.625000000000038
40
0.750000000000046
40
0.750000000000046
40
0.812500000000034
40
0.812500000000034
40
0.875000000000023
40
0.875000000000023
40
0.937500000000011
40
0.937500000000011
40
1
40
1
40
1
40
1
41
1
10
36.5137716271114
20
3.08054559631296
30
0
41
1
10
36.5231146687915
20
3.06230769439299
30
0
41
1
10
36.5339614366794
20
3.04582336033238
30
0
41
1
10
36.5578487237279
20
3.01538526272066
30
0
41
1
10
36.571010259702
20
3.00139356827458
30
0
41
1
10
36.5982666292926
20
2.97660906297909
30
0
41
1
10
36.6124648215801
20
2.96566805271237
30
0
41
1
10
36.6418836212231
20
2.9464661162441
30
0
41
1
10
36.6572030104996
20
2.93818735213037
30
0
41
1
10
36.6878247115232
20
2.92492984140216
30
0
41
1
10
36.7032322946485
20
2.91986044360431
30
0
41
1
10
36.7341903893896
20
2.91316373075455
30
0
41
1
10
36.7498772037726
20
2.91155542957353
30
0
41
1
10
36.7725061797588
20
2.91244675413401
30
0
41
1
10
36.7799271800966
20
2.91328636976161
30
0
41
1
10
36.7944818031017
20
2.91621271771302
30
0
41
1
10
36.8016663869304
20
2.91832266690966
30
0
41
1
10
36.8153417126062
20
2.92392662103808
30
0
41
1
10
36.8218480098888
20
2.92741031057395
30
0
41
1
10
36.8340824940591
20
2.93597833532883
30
0
41
1
10
36.8398469588494
20
2.94110619238131
30
0
41
1
10
36.8449962835057
20
2.94710796696032
30
0
0
SPLINE
5
171
100
AcDbEntity
8
1
62
256
6
ByLayer
370
18
48
1
60
0
100
AcDbSpline
70
4
71
3
72
10
73
6
40
0
40
0
40
0
40
0
40
0.5
40
0.5
40
1
40
1
40
1
40
1
41
1
10
36.8449962835057
20
2.9471079669604
30
0
41
1
10
36.9174408677008
20
3.03154545980357
30
0
41
1
10
36.9890919921229
20
3.11067196788409
30
0
41
1
10
37.1312919912073
20
3.25843400924907
30
0
41
1
10
37.201563959589
20
3.32678788735231
30
0
41
1
10
37.2711899731286
20
3.38963246981797
30
0
0
SPLINE
5
172
100
AcDbEntity
8
1
62
256
6
ByLayer
370
18
48
1
60
0
100
AcDbSpline
70
4
71
3
72
8
73
4
40
0
40
0
40
0
40
0
40
1
40
1
40
1
40
1
41
1
10
37.3960127673044
20
3.31062130444713
30
0
41
1
10
37.3544206481348
20
3.33764283491615
30
0
41
1
10
37.312813405917
20
3.36397878970942
30
0
41
1
10
37.2711899731297
20
3.38963246983238
30
0
0
SPLINE
5
173
100
AcDbEntity
8
1
62
256
6
ByLayer
370
18
48
1
60
0
100
AcDbSpline
70
4
71
3
72
10
73
6
40
0
40
0
40
0
40
0
40
0.5
40
0.5
40
1
40
1
40
1
40
1
41
1
10
37.3960127673043
20
3.31062130444713
30
0
41
1
10
37.4679880675116
20
3.15907543445826
30
0
41
1
10
37.5405647784835
20
3.00747565754247
30
0
41
1
10
37.6873249000169
20
2.7047434004806
30
0
41
1
10
37.7612385752992
20
2.55415708128643
30
0
41
1
10
37.836201098676
20
2.40466582444111
30
0
0
SPLINE
5
174
100
AcDbEntity
8
1
62
256
6
ByLayer
370
18
48
1
60
0
100
AcDbSpline
70
4
71
3
72
26
73
22
40
0
40
0
40
0
40
0
40
0.125
40
0.125
40
0.250000000000001
40
0.250000000000001
40
0.375000000000001
40
0.375000000000001
40
0.500000000000002
40
0.500000000000002
40
0.625000000000002
40
0.625000000000002
40
0.750000000000003
40
0.750000000000003
40
0.812500000000002
40
0.812500000000002
40
0.875000000000001
40
0.875000000000001
40
0.937500000000001
40
0.937500000000001
40
1
40
1
40
1
40
1
41
1
10
37.836201098676
20
2.40466582444111
30
0
41
1
10
37.8455541076894
20
2.38601393000476
30
0
41
1
10
37.8564108140082
20
2.36840290855866
30
0
41
1
10
37.8803153934574
20
2.33469547333078
30
0
41
1
10
37.8934834383482
20
2.31852984784575
30
0
41
1
10
37.9207481197479
20
2.28866808266264
30
0
41
1
10
37.9349492116882
20
2.27481004601532
30
0
41
1
10
37.9643719639564
20
2.24906006132383
30
0
41
1
10
37.9796914430979
20
2.23712205631648
30
0
41
1
10
38.0103115342534
20
2.2160250716382
30
0
41
1
10
38.0257176343286
20
2.20675556006364
30
0
41
1
10
38.0566703843181
20
2.19100761562277
30
0
41
1
10
38.0723530599869
20
2.18450041697758
30
0
41
1
10
38.0949761957258
20
2.17771222874737
30
0
41
1
10
38.1023951576178
20
2.17592885126177
30
0
41
1
10
38.1169454244962
20
2.17346090797145
30
0
41
1
10
38.1241278334381
20
2.17277814852054
30
0
41
1
10
38.1378024847364
20
2.17275337076401
30
0
41
1
10
38.1443085926738
20
2.17339794006307
30
0
41
1
10
38.1565430039094
20
2.17622898624785
30
0
41
1
10
38.1623078887609
20
2.17843803611439
30
0
41
1
10
38.1674601162094
20
2.1815560860808
30
0
0
SPLINE
5
175
100
AcDbEntity
8
1
62
256
6
ByLayer
370
18
48
1
60
0
100
AcDbSpline
70
4
71
3
72
10
73
6
40
0
40
0
40
0
40
0
40
0.5
40
0.5
40
1
40
1
40
1
40
1
41
1
10
38.1674601162094
20
2.18155608608092
30
0
41
1
10
38.2399032100633
20
2.22539754855845
30
0
41
1
10
38.3115451446944
20
2.26262610278161
30
0
41
1
10
38.4537319300924
20
2.32426207596274
30
0
41
1
10
38.5240062605675
20
2.34855614727058
30
0
41
1
10
38.593649560005
20
2.36647048393837
30
0
0
SPLINE
5
176
100
AcDbEntity
8
1
62
256
6
ByLayer
370
18
48
1
60
0
100
AcDbSpline
70
4
71
3
72
8
73
4
40
0
40
0
40
0
40
0
40
1
40
1
40
1
40
1
41
1
10
38.7185705879047
20
2.25186587397818
30
0
41
1
10
38.6769254630473
20
2.290540966561
30
0
41
1
10
38.6352857896003
20
2.32874246288364
30
0
41
1
10
38.593649560006
20
2.36647048394775
30
0
0
SPLINE
5
177
100
AcDbEntity
8
1
62
256
6
ByLayer
370
18
48
1
60
0
100
AcDbSpline
70
4
71
3
72
10
73
6
40
0
40
0
40
0
40
0
40
0.5
40
0.5
40
1
40
1
40
1
40
1
41
1
10
38.7185705879046
20
2.25186587397823
30
0
41
1
10
38.7905118924992
20
2.10651536765059
30
0
41
1
10
38.8630717379474
20
1.96379699771165
30
0
41
1
10
39.0098152954494
20
1.68427658124662
30
0
41
1
10
39.0837327936526
20
1.5479802895851
30
0
41
1
10
39.1585105468752
20
1.41541062226841
30
0
0
SPLINE
5
178
100
AcDbEntity
8
1
62
256
6
ByLayer
370
18
48
1
60
0
100
AcDbSpline
70
4
71
3
72
28
73
24
40
0
40
0
40
0
40
0
40
0.124999999999986
40
0.124999999999986
40
0.187499999999979
40
0.187499999999979
40
0.249999999999972
40
0.249999999999972
40
0.374999999999956
40
0.374999999999956
40
0.499999999999941
40
0.499999999999941
40
0.624999999999926
40
0.624999999999926
40
0.749999999999911
40
0.749999999999911
40
0.812499999999933
40
0.812499999999933
40
0.874999999999955
40
0.874999999999955
40
0.937499999999978
40
0.937499999999978
40
1
40
1
40
1
40
1
41
1
10
39.1585105468753
20
1.41541062226838
30
0
41
1
10
39.1678852610687
20
1.39879066929771
30
0
41
1
10
39.1787672166268
20
1.38235130166862
30
0
41
1
10
39.1967280475443
20
1.35790446397863
30
0
41
1
10
39.2030053493621
20
1.34977962881925
30
0
41
1
10
39.2160416294941
20
1.33364556063728
30
0
41
1
10
39.2227199611297
20
1.32573442909472
30
0
41
1
10
39.2431802757494
20
1.30241516521434
30
0
41
1
10
39.2573826714026
20
1.28741635784732
30
0
41
1
10
39.2867986805826
20
1.25840447974977
30
0
41
1
10
39.3021093350975
20
1.24432191271998
30
0
41
1
10
39.332715056964
20
1.21804558789859
30
0
41
1
10
39.3481143619124
20
1.20573651797497
30
0
41
1
10
39.3790530363208
20
1.18288987593729
30
0
41
1
10
39.3947310545364
20
1.17227709177342
30
0
41
1
10
39.4173551014312
20
1.15860809693979
30
0
41
1
10
39.4247745518399
20
1.1544051383128
30
0
41
1
10
39.4393258776001
20
1.14680579336959
30
0
41
1
10
39.4465091383251
20
1.14338915411327
30
0
41
1
10
39.4601921230837
20
1.13767567505383
30
0
41
1
10
39.4667026559608
20
1.13536588759041
30
0
41
1
10
39.4789461529048
20
1.13203015333056
30
0
41
1
10
39.4847160853297
20
1.13100262304437
30
0
41
1
10
39.4898753659521
20
1.13079984656156
30
0
0
SPLINE
5
179
100
AcDbEntity
8
1
62
256
6
ByLayer
370
18
48
1
60
0
100
AcDbSpline
70
4
71
3
72
10
73
6
40
0
40
0
40
0
40
0
40
0.5
40
0.5
40
1
40
1
40
1
40
1
41
1
10
39.4898753659521
20
1.1307998465617
30
0
41
1
10
39.5623822684977
20
1.12795008983139
30
0
41
1
10
39.6340843600426
20
1.11802907153717
30
0
41
1
10
39.7763922687263
20
1.08468205755318
30
0
41
1
10
39.8467283505342
20
1.06131650888
30
0
41
1
10
39.9164359521319
20
1.0315279739514
30
0
0
SPLINE
5
17A
100
AcDbEntity
8
1
62
256
6
ByLayer
370
18
48
1
60
0
100
AcDbSpline
70
4
71
3
72
8
73
4
40
0
40
0
40
0
40
0
40
1
40
1
40
1
40
1
41
1
10
40.0409836056598
20
0.896628539331118
30
0
41
1
10
39.9994470886733
20
0.941793880022743
30
0
41
1
10
39.9579322857207
20
0.986761188685222
30
0
41
1
10
39.9164359521334
20
1.03152797395919
30
0
0
SPLINE
5
17B
100
AcDbEntity
8
1
62
256
6
ByLayer
370
18
48
1
60
0
100
AcDbSpline
70
4
71
3
72
10
73
6
40
0
40
0
40
0
40
0
40
0.5
40
0.5
40
1
40
1
40
1
40
1
41
1
10
40.0409836056598
20
0.89662853933109
30
0
41
1
10
40.1128623084363
20
0.776565041361806
30
0
41
1
10
40.1853852720927
20
0.661480581090416
30
0
41
1
10
40.3321242144972
20
0.441965895893787
30
0
41
1
10
40.4060694658357
20
0.337939617507573
30
0
41
1
10
40.4808874308906
20
0.23992034111177
30
0
0
SPLINE
5
17C
100
AcDbEntity
8
1
62
256
6
ByLayer
370
18
48
1
60
0
100
AcDbSpline
70
4
71
3
72
28
73
24
40
0
40
0
40
0
40
0
40
0.12499999999996
40
0.12499999999996
40
0.187499999999963
40
0.187499999999963
40
0.249999999999966
40
0.249999999999966
40
0.374999999999972
40
0.374999999999972
40
0.499999999999978
40
0.499999999999978
40
0.624999999999984
40
0.624999999999984
40
0.74999999999999
40
0.74999999999999
40
0.812499999999993
40
0.812499999999993
40
0.874999999999995
40
0.874999999999995
40
0.937499999999998
40
0.937499999999998
40
1
40
1
40
1
40
1
41
1
10
40.4808874308906
20
0.23992034111177
30
0
41
1
10
40.4902851403766
20
0.227608369208752
30
0
41
1
10
40.5012020021567
20
0.214587403189711
30
0
41
1
10
40.5192289819912
20
0.194314563289396
30
0
41
1
10
40.525530673708
20
0.187418915656963
30
0
41
1
10
40.5386200080577
20
0.173429645360955
30
0
41
1
10
40.5453252021885
20
0.166423073029336
30
0
41
1
10
40.5658658450991
20
0.145365020745487
30
0
41
1
10
40.5801228004293
20
0.131278007289069
30
0
41
1
10
40.6096400177001
20
0.102974355484577
30
0
41
1
10
40.6249896558008
20
0.0886811844379167
30
0
41
1
10
40.6556377770213
20
0.0608308097845622
30
0
41
1
10
40.6710462294857
20
0.0471640589797744
30
0
41
1
10
40.7019791967523
20
0.0203248277097714
30
0
41
1
10
40.7176240283458
20
0.0070570549312663
30
0
41
1
10
40.7401770621093
20
-0.0116207668172308
30
0
41
1
10
40.747572352802
20
-0.0176700179840452
30
0
41
1
10
40.7620748734178
20
-0.0293683008912637
30
0
41
1
10
40.7692368257504
20
-0.0350592539338379
30
0
41
1
10
40.7828344479244
20
-0.045661748800967
30
0
41
1
10
40.7892896489276
20
-0.0505912584337125
30
0
41
1
10
40.8014053613161
20
-0.0595865435569465
30
0
41
1
10
40.8070682748961
20
-0.0636552425764876
30
0
41
1
10
40.8122323642365
20
-0.0671736510240635
30
0
0
SPLINE
5
17D
100
AcDbEntity
8
1
62
256
6
ByLayer
370
18
48
1
60
0
100
AcDbSpline
70
4
71
3
72
10
73
6
40
0
40
0
40
0
40
0
40
0.5
40
0.5
40
1
40
1
40
1
40
1
41
1
10
40.8122323642365
20
-0.0671736510236656
30
0
41
1
10
40.8847400288836
20
-0.116574728928185
30
0
41
1
10
40.9564450384455
20
-0.172521185126101
30
0
41
1
10
41.0987826446093
20
-0.296736819542872
30
0
41
1
10
41.1691428611558
20
-0.364815976240919
30
0
41
1
10
41.2388829287993
20
-0.438545437948278
30
0
0
SPLINE
5
17E
100
AcDbEntity
8
1
62
256
6
ByLayer
370
18
48
1
60
0
100
AcDbSpline
70
4
71
3
72
8
73
4
40
0
40
0
40
0
40
0
40
1
40
1
40
1
40
1
41
1
10
41.363792493874
20
-0.576965004015648
30
0
41
1
10
41.3221206857294
20
-0.53092588054156
30
0
41
1
10
41.2804855018144
20
-0.484784839361566
30
0
41
1
10
41.2388829288007
20
-0.438545437949131
30
0
0
SPLINE
5
17F
100
AcDbEntity
8
1
62
256
6
ByLayer
370
18
48
1
60
0
100
AcDbSpline
70
4
71
3
72
10
73
6
40
0
40
0
40
0
40
0
40
0.5
40
0.5
40
1
40
1
40
1
40
1
41
1
10
41.3637924938739
20
-0.576965004015591
30
0
41
1
10
41.4355935563702
20
-0.65604139477739
30
0
41
1
10
41.5080500460762
20
-0.72838329939745
30
0
41
1
10
41.6546780501773
20
-0.859067995852854
30
0
41
1
10
41.7285738299485
20
-0.917175696307879
30
0
41
1
10
41.8033502289781
20
-0.967851278987183
30
0
0
SPLINE
5
180
100
AcDbEntity
8
1
62
256
6
ByLayer
370
18
48
1
60
0
100
AcDbSpline
70
4
71
3
72
26
73
22
40
0
40
0
40
0
40
0
40
0.125
40
0.125
40
0.25
40
0.25
40
0.375
40
0.375
40
0.5
40
0.5
40
0.625
40
0.625
40
0.75
40
0.75
40
0.8125
40
0.8125
40
0.875
40
0.875
40
0.9375
40
0.9375
40
1
40
1
40
1
40
1
41
1
10
41.8033502289781
20
-0.967851278987212
30
0
41
1
10
41.8127355966321
20
-0.974211694582181
30
0
41
1
10
41.8236381944082
20
-0.982080653119709
30
0
41
1
10
41.8476452034899
20
-0.999953330866816
30
0
41
1
10
41.8608728336119
20
-1.01006193876214
30
0
41
1
10
41.8882357542674
20
-1.03141120542591
30
0
41
1
10
41.9024803624135
20
-1.04272722308298
30
0
41
1
10
41.931973376395
20
-1.0665842328464
30
0
41
1
10
41.9473111098226
20
-1.07920562010366
30
0
41
1
10
41.9779353747248
20
-1.10494611615121
30
0
41
1
10
41.9933320909825
20
-1.11815077636766
30
0
41
1
10
42.0242444712207
20
-1.1453764773812
30
0
41
1
10
42.0398782578289
20
-1.15950967469467
30
0
41
1
10
42.062414403849
20
-1.18064789269002
30
0
41
1
10
42.0698046699435
20
-1.18771119497959
30
0
41
1
10
42.0842968449022
20
-1.20188669916581
30
0
41
1
10
42.0914483654644
20
-1.20905036264966
30
0
41
1
10
42.1050603019014
20
-1.22308957304594
30
0
41
1
10
42.1115383217058
20
-1.22997939985731
30
0
41
1
10
42.1237244868979
20
-1.24345305009734
30
0
41
1
10
42.1294689944951
20
-1.25008169990846
30
0
41
1
10
42.1346085335887
20
-1.25636657991814
30
0
0
SPLINE
5
181
100
AcDbEntity
8
1
62
256
6
ByLayer
370
18
48
1
60
0
100
AcDbSpline
70
4
71
3
72
10
73
6
40
0
40
0
40
0
40
0
40
0.5
40
0.5
40
1
40
1
40
1
40
1
41
1
10
42.1346085335887
20
-1.25636657991802
30
0
41
1
10
42.2072463804838
20
-1.34519169508522
30
0
41
1
10
42.2790101446423
20
-1.43951962853495
30
0
41
1
10
42.4213966291
20
-1.63828770303499
30
0
41
1
10
42.491777046467
20
-1.74215561712992
30
0
41
1
10
42.5615344356068
20
-1.85015449458669
30
0
0
SPLINE
5
182
100
AcDbEntity
8
1
62
256
6
ByLayer
370
18
48
1
60
0
100
AcDbSpline
70
4
71
3
72
12
73
8
40
0
40
0
40
0
40
0
40
0.25
40
0.25
40
0.5
40
0.5
40
1
40
1
40
1
40
1
41
1
10
42.6863901742843
20
-1.97370973376036
30
0
41
1
10
42.7222493582839
20
-1.98769440098977
30
0
41
1
10
42.7582721115093
20
-1.99977681382057
30
0
41
1
10
42.8307172935627
20
-2.02011193673377
30
0
41
1
10
42.8671520510827
20
-2.02836675803917
30
0
41
1
10
42.9770907027183
20
-2.04729941641594
30
0
41
1
10
43.0509981441389
20
-2.05212776562161
30
0
41
1
10
43.1258251392955
20
-2.04901596220336
30
0
0
SPLINE
5
183
100
AcDbEntity
8
1
62
256
6
ByLayer
370
18
48
1
60
0
100
AcDbSpline
70
4
71
3
72
26
73
22
40
0
40
0
40
0
40
0
40
0.125000000000015
40
0.125000000000015
40
0.25000000000003
40
0.25000000000003
40
0.375000000000046
40
0.375000000000046
40
0.500000000000061
40
0.500000000000061
40
0.625000000000076
40
0.625000000000076
40
0.750000000000091
40
0.750000000000091
40
0.812500000000068
40
0.812500000000068
40
0.875000000000046
40
0.875000000000046
40
0.937500000000023
40
0.937500000000023
40
1
40
1
40
1
40
1
41
1
10
43.1258251392955
20
-2.04901596220336
30
0
41
1
10
43.1352077104249
20
-2.04862577258197
30
0
41
1
10
43.1461076147059
20
-2.05034723383309
30
0
41
1
10
43.1701109690788
20
-2.05679161310624
30
0
41
1
10
43.1833390940306
20
-2.06160401292968
30
0
41
1
10
43.2107044875541
20
-2.07349416254181
30
0
41
1
10
43.2249508207591
20
-2.08059022765309
30
0
41
1
10
43.2544499354308
20
-2.09694319022648
30
0
41
1
10
43.2697910781907
20
-2.10627317926847
30
0
41
1
10
43.3004201434505
20
-2.12659865042769
30
0
41
1
10
43.3158194027919
20
-2.13764521430457
30
0
41
1
10
43.3467366371604
20
-2.16176234117532
30
0
41
1
10
43.3623680956107
20
-2.17494640211117
30
0
41
1
10
43.3848932210541
20
-2.19582857303519
30
0
41
1
10
43.3922795667018
20
-2.20299834483995
30
0
41
1
10
43.4067627478098
20
-2.21782673374651
30
0
41
1
10
43.4139086540781
20
-2.22554313433588
30
0
41
1
10
43.4275046104303
20
-2.24118058060788
30
0
41
1
10
43.4339742504325
20
-2.24911424481567
30
0
41
1
10
43.4461434098361
20
-2.2652508307161
30
0
41
1
10
43.4518790100013
20
-2.27351218721063
30
0
41
1
10
43.4570106387741
20
-2.28175198621847
30
0
0
SPLINE
5
184
100
AcDbEntity
8
1
62
256
6
ByLayer
370
18
48
1
60
0
100
AcDbSpline
70
4
71
3
72
12
73
8
40
0
40
0
40
0
40
0
40
0.499999999999999
40
0.499999999999999
40
0.75
40
0.75
40
1
40
1
40
1
40
1
41
1
10
43.4570106387741
20
-2.28175198621835
30
0
41
1
10
43.5296697675507
20
-2.39841993780209
30
0
41
1
10
43.6014838714575
20
-2.51831335237756
30
0
41
1
10
43.7083100972784
20
-2.70275059791419
30
0
41
1
10
43.7437040330205
20
-2.76488545011463
30
0
41
1
10
43.8140614372824
20
-2.89031968372143
30
0
41
1
10
43.8490347008535
20
-2.95363802145167
30
0
41
1
10
43.8838501383989
20
-3.01750131634037
30
0
0
SPLINE
5
185
100
AcDbEntity
8
1
62
256
6
ByLayer
370
18
48
1
60
0
100
AcDbSpline
70
4
71
3
72
12
73
8
40
0
40
0
40
0
40
0
40
0.249999999999996
40
0.249999999999996
40
0.499999999999991
40
0.499999999999991
40
1
40
1
40
1
40
1
41
1
10
44.008925981389
20
-3.11025138972426
30
0
41
1
10
44.0447645285941
20
-3.09702429780347
30
0
41
1
10
44.0807697440308
20
-3.0819204415582
30
0
41
1
10
44.153188876943
20
-3.04793060755742
30
0
41
1
10
44.1896158439615
20
-3.02903906224455
30
0
41
1
10
44.2995439644012
20
-2.96670526198898
30
0
41
1
10
44.3734547041545
20
-2.91775803833991
30
0
41
1
10
44.448299012186
20
-2.86139725410288
30
0
0
SPLINE
5
186
100
AcDbEntity
8
1
62
256
6
ByLayer
370
18
48
1
60
0
100
AcDbSpline
70
4
71
3
72
26
73
22
40
0
40
0
40
0
40
0
40
0.125000000000015
40
0.125000000000015
40
0.25000000000003
40
0.25000000000003
40
0.375000000000046
40
0.375000000000046
40
0.500000000000061
40
0.500000000000061
40
0.625000000000076
40
0.625000000000076
40
0.750000000000091
40
0.750000000000091
40
0.812500000000068
40
0.812500000000068
40
0.875000000000046
40
0.875000000000046
40
0.937500000000023
40
0.937500000000023
40
1
40
1
40
1
40
1
41
1
10
44.448299012186
20
-2.86139725410288
30
0
41
1
10
44.4576902140032
20
-2.85432530015922
30
0
41
1
10
44.4686011589088
20
-2.8496962013545
30
0
41
1
10
44.4926291892123
20
-2.84391660872998
30
0
41
1
10
44.5058712226495
20
-2.8428275250518
30
0
41
1
10
44.5332641339291
20
-2.84375358440937
30
0
41
1
10
44.5475243081013
20
-2.84572887736499
30
0
41
1
10
44.5770523518059
20
-2.85249801924326
30
0
41
1
10
44.5924071654141
20
-2.85734894763885
30
0
41
1
10
44.6230612416392
20
-2.86967180941471
30
0
41
1
10
44.6384730093123
20
-2.87715325606339
30
0
41
1
10
44.6694147974037
20
-2.89508983210374
30
0
41
1
10
44.6850550688556
20
-2.90564745360368
30
0
41
1
10
44.7075864735637
20
-2.92362050375931
30
0
41
1
10
44.7149743526433
20
-2.92998614538544
30
0
41
1
10
44.72945915877
20
-2.94358427490647
30
0
41
1
10
44.7366093368052
20
-2.95087940561203
30
0
41
1
10
44.7501714603723
20
-2.9660970439883
30
0
41
1
10
44.7566080190646
20
-2.97403144900315
30
0
41
1
10
44.7686857200532
20
-2.99065209981717
30
0
41
1
10
44.7743292033132
20
-2.99933609274578
30
0
41
1
10
44.7794750325511
20
-3.00849143723161
30
0
0
SPLINE
5
187
100
AcDbEntity
8
1
62
256
6
ByLayer
370
18
48
1
60
0
100
AcDbSpline
70
4
71
3
72
12
73
8
40
0
40
0
40
0
40
0
40
0.5
40
0.5
40
0.75
40
0.75
40
1
40
1
40
1
40
1
41
1
10
44.7794750325511
20
-3.00849143723147
30
0
41
1
10
44.8433264515111
20
-3.12209445619467
30
0
41
1
10
44.9065339967962
20
-3.23622253368606
30
0
41
1
10
45.000634097702
20
-3.40805669382095
30
0
41
1
10
45.0318837014021
20
-3.46544564424252
30
0
41
1
10
45.0940173166498
20
-3.58010181152773
30
0
41
1
10
45.1249230435597
20
-3.63740829967114
30
0
41
1
10
45.1556888803138
20
-3.69468273467302
30
0
0
SPLINE
5
188
100
AcDbEntity
8
1
62
256
6
ByLayer
370
18
48
1
60
0
100
AcDbSpline
70
4
71
3
72
10
73
6
40
0
40
0
40
0
40
0
40
0.5
40
0.5
40
1
40
1
40
1
40
1
41
1
10
45.1556888803138
20
-3.69468273467302
30
0
41
1
10
45.2024989543611
20
-3.70108868275938
30
0
41
1
10
45.2493398084162
20
-3.70633034803595
30
0
41
1
10
45.3431062720606
20
-3.71450973151858
30
0
41
1
10
45.3900149034883
20
-3.71745714846341
30
0
41
1
10
45.4370783127735
20
-3.71920307729695
30
0
0
SPLINE
5
189
100
AcDbEntity
8
1
62
256
6
ByLayer
370
18
48
1
60
0
100
AcDbSpline
70
4
71
3
72
12
73
8
40
0
40
0
40
0
40
0
40
0.250000000000006
40
0.250000000000006
40
0.500000000000013
40
0.500000000000013
40
1
40
1
40
1
40
1
41
1
10
45.4370783127734
20
-3.71920307729687
30
0
41
1
10
45.4644132991493
20
-3.68761310561706
30
0
41
1
10
45.4918659148505
20
-3.65512314891348
30
0
41
1
10
45.5470497372133
20
-3.58830809218878
30
0
41
1
10
45.5747684580214
20
-3.55400001134868
30
0
41
1
10
45.6581841285293
20
-3.44859874439166
30
0
41
1
10
45.7141974702399
20
-3.37496879930578
30
0
41
1
10
45.7707578109255
20
-3.29796829338656
30
0
0
SPLINE
5
18A
100
AcDbEntity
8
1
62
256
6
ByLayer
370
18
48
1
60
0
100
AcDbSpline
70
4
71
3
72
26
73
22
40
0
40
0
40
0
40
0
40
0.125000000000015
40
0.125000000000015
40
0.25000000000003
40
0.25000000000003
40
0.375000000000045
40
0.375000000000045
40
0.500000000000061
40
0.500000000000061
40
0.625000000000076
40
0.625000000000076
40
0.750000000000091
40
0.750000000000091
40
0.812500000000068
40
0.812500000000068
40
0.875000000000046
40
0.875000000000046
40
0.937500000000023
40
0.937500000000023
40
1
40
1
40
1
40
1
41
1
10
45.7707578109255
20
-3.29796829338656
30
0
41
1
10
45.7801611241941
20
-3.28516674604407
30
0
41
1
10
45.7910854618179
20
-3.27482249923065
30
0
41
1
10
45.8151384972891
20
-3.2576355673873
30
0
41
1
10
45.8283920416222
20
-3.25081904851029
30
0
41
1
10
45.8558021740745
20
-3.24072096468544
30
0
41
1
10
45.8700688789701
20
-3.2373460666457
30
0
41
1
10
45.8996053661374
20
-3.23369908883876
30
0
41
1
10
45.9149609402095
20
-3.23346151790611
30
0
41
1
10
45.9456127288405
20
-3.23621236781312
30
0
41
1
10
45.9610218255185
20
-3.23916722377524
30
0
41
1
10
45.991954737721
20
-3.24859881096532
30
0
41
1
10
46.0075870411439
20
-3.25515540997796
30
0
41
1
10
46.030105148195
20
-3.26786813836603
30
0
41
1
10
46.0374884008486
20
-3.27259481814778
30
0
41
1
10
46.0519636609733
20
-3.28317434751295
30
0
41
1
10
46.0591088919464
20
-3.28908091925848
30
0
41
1
10
46.0726641525689
20
-3.3019072565061
30
0
41
1
10
46.0790978760761
20
-3.30883105851305
30
0
41
1
10
46.0911710133313
20
-3.32385815739644
30
0
41
1
10
46.0968127627179
20
-3.33195782535734
30
0
41
1
10
46.1019574661807
20
-3.34079929250655
30
0
0
SPLINE
5
18B
100
AcDbEntity
8
1
62
256
6
ByLayer
370
18
48
1
60
0
100
AcDbSpline
70
4
71
3
72
8
73
4
40
0
40
0
40
0
40
0
40
1
40
1
40
1
40
1
41
1
10
46.1019574661807
20
-3.34079929250652
30
0
41
1
10
46.1586369570062
20
-3.43820623924151
30
0
41
1
10
46.2148136260887
20
-3.53445037640111
30
0
41
1
10
46.2706100796843
20
-3.62949971656795
30
0
0
SPLINE
5
18C
100
AcDbEntity
8
1
62
256
6
ByLayer
370
18
48
1
60
0
100
AcDbSpline
70
4
71
3
72
12
73
8
40
0
40
0
40
0
40
0
40
0.500000000000012
40
0.500000000000012
40
0.750000000000006
40
0.750000000000006
40
1
40
1
40
1
40
1
41
1
10
46.2706100796843
20
-3.62949971656798
30
0
41
1
10
46.4038087500244
20
-3.59685067871962
30
0
41
1
10
46.5370548878263
20
-3.55587767719734
30
0
41
1
10
46.7375154982929
20
-3.48269441616077
30
0
41
1
10
46.804438787672
20
-3.45634262507915
30
0
41
1
10
46.9385800712979
20
-3.39982921615587
30
0
41
1
10
47.0057239642027
20
-3.36967771859528
30
0
41
1
10
47.0733510944193
20
-3.33762148618072
30
0
0
SPLINE
5
18D
100
AcDbEntity
8
1
62
256
6
ByLayer
370
18
48
1
60
0
100
AcDbSpline
70
4
71
3
72
8
73
4
40
0
40
0
40
0
40
0
40
1
40
1
40
1
40
1
41
1
10
47.0733510944193
20
-3.33762148618072
30
0
41
1
10
47.0799442392347
20
-3.32583976279648
30
0
41
1
10
47.0865449411075
20
-3.31402964414619
30
0
41
1
10
47.0931534394259
20
-3.30219116539175
30
0
0
SPLINE
5
18E
100
AcDbEntity
8
1
62
256
6
ByLayer
370
18
48
1
60
0
100
AcDbSpline
70
4
71
3
72
28
73
24
40
0
40
0
40
0
40
0
40
0.124999999999913
40
0.124999999999913
40
0.187499999999869
40
0.187499999999869
40
0.249999999999825
40
0.249999999999825
40
0.37499999999974
40
0.37499999999974
40
0.499999999999655
40
0.499999999999655
40
0.56249999999965
40
0.56249999999965
40
0.624999999999644
40
0.624999999999644
40
0.749999999999711
40
0.749999999999711
40
0.812499999999783
40
0.812499999999783
40
0.874999999999855
40
0.874999999999855
40
1
40
1
40
1
40
1
41
1
10
47.0931534394259
20
-3.30219116539175
30
0
41
1
10
47.1007904026143
20
-3.28851029235588
30
0
41
1
10
47.1094371684091
20
-3.27625262280338
30
0
41
1
10
47.1235498150129
20
-3.25945523255547
30
0
41
1
10
47.1284483099558
20
-3.25412676644868
30
0
41
1
10
47.1386045096502
20
-3.24396952965526
30
0
41
1
10
47.1438852563232
20
-3.23912281466332
30
0
41
1
10
47.1600245440339
20
-3.22547585012762
30
0
41
1
10
47.17118599557
20
-3.21753197645703
30
0
41
1
10
47.1942002325097
20
-3.20365424992178
30
0
41
1
10
47.2060545116167
20
-3.19772383211654
30
0
41
1
10
47.2243280629579
20
-3.19031484646462
30
0
41
1
10
47.2305191835293
20
-3.18809061593453
30
0
41
1
10
47.2429021427595
20
-3.18420384091471
30
0
41
1
10
47.2491093677612
20
-3.18253351978683
30
0
41
1
10
47.2677713690045
20
-3.1783387734977
30
0
41
1
10
47.2802661794937
20
-3.17662214720249
30
0
41
1
10
47.299067259717
20
-3.17579449363385
30
0
41
1
10
47.3053441795161
20
-3.17581174403162
30
0
41
1
10
47.3179149564716
20
-3.17648371367031
30
0
41
1
10
47.3242259196694
20
-3.17714341455496
30
0
41
1
10
47.342868291579
20
-3.18013382083512
30
0
41
1
10
47.3550021031719
20
-3.18345599360023
30
0
41
1
10
47.3667566879056
20
-3.18838760237489
30
0
0
SPLINE
5
18F
100
AcDbEntity
8
1
62
256
6
ByLayer
370
18
48
1
60
0
100
AcDbSpline
70
4
71
3
72
8
73
4
40
0
40
0
40
0
40
0
40
1
40
1
40
1
40
1
41
1
10
47.3667566879057
20
-3.1883876023746
30
0
41
1
10
47.4763263014365
20
-3.12901719615138
30
0
41
1
10
47.5870160381483
20
-3.06505308202293
30
0
41
1
10
47.6999999229549
20
-2.99665169677661
30
0
0
SPLINE
5
190
100
AcDbEntity
8
1
62
256
6
ByLayer
370
18
48
1
60
0
100
AcDbSpline
70
4
71
3
72
10
73
6
40
0
40
0
40
0
40
0
40
0.5
40
0.5
40
1
40
1
40
1
40
1
41
1
10
47.6999999229549
20
-2.99665169677658
30
0
41
1
10
47.7480504090414
20
-2.93595013298639
30
0
41
1
10
47.797021241401
20
-2.87441433580881
30
0
41
1
10
47.8970115342755
20
-2.75016653943413
30
0
41
1
10
47.9479873964827
20
-2.6875291606643
30
0
41
1
10
48.0000000000004
20
-2.62478283472018
30
0
0
SPLINE
5
191
100
AcDbEntity
8
1
62
256
6
ByLayer
370
18
48
1
60
0
100
AcDbSpline
70
4
71
3
72
28
73
24
40
0
40
0
40
0
40
0
40
0.125000000000001
40
0.125000000000001
40
0.187500000000002
40
0.187500000000002
40
0.218750000000002
40
0.218750000000002
40
0.250000000000002
40
0.312500000000002
40
0.312500000000002
40
0.375000000000002
40
0.375000000000002
40
0.406250000000002
40
0.437500000000002
40
0.500000000000002
40
0.500000000000002
40
0.562500000000002
40
0.562500000000002
40
0.625000000000002
40
0.750000000000001
40
0.750000000000001
40
1
40
1
40
1
40
1
41
1
10
48
20
-2.62478283471952
30
0
41
1
10
48
20
-2.55245249105553
30
0
41
1
10
48
20
-2.48316285753029
30
0
41
1
10
48
20
-2.38390293629684
30
0
41
1
10
48
20
-2.35159429238377
30
0
41
1
10
48
20
-2.30432868657132
30
0
41
1
10
48
20
-2.28878203227961
30
0
41
1
10
48
20
-2.25837077343206
30
0
41
1
10
48
20
-2.21366829254578
30
0
41
1
10
48
20
-2.17169840946329
30
0
41
1
10
48
20
-2.11808007162927
30
0
41
1
10
48
20
-2.09242364310524
30
0
41
1
10
48
20
-2.05583935720918
30
0
41
1
10
48
20
-2.0320329364711
30
0
41
1
10
48
20
-1.98542420197432
30
0
41
1
10
48
20
-1.95159479857247
30
0
41
1
10
48
20
-1.90749899616571
30
0
41
1
10
48
20
-1.88598994112465
30
0
41
1
10
48
20
-1.84423179267628
30
0
41
1
10
48
20
-1.78339961268867
30
0
41
1
10
48
20
-1.72788425859486
30
0
41
1
10
48
20
-1.62382759610853
30
0
41
1
10
48
20
-1.56377270390402
30
0
41
1
10
48
20
-1.51303731058854
30
0
0
SPLINE
5
192
100
AcDbEntity
8
1
62
256
6
ByLayer
370
18
48
1
60
0
100
AcDbSpline
70
4
71
3
72
10
73
6
40
0
40
0
40
0
40
0
40
0.5
40
0.5
40
1
40
1
40
1
40
1
41
1
10
48
20
-1.6343873523025
30
0
41
1
10
47.9507456836216
20
-1.6312743501914
30
0
41
1
10
47.9011171464607
20
-1.62816906867283
30
0
41
1
10
47.8011219881584
20
-1.62233009531073
30
0
41
1
10
47.7507554367657
20
-1.61960412096508
30
0
41
1
10
47.7000000259534
20
-1.61736120797519
30
0
0
SPLINE
5
193
100
AcDbEntity
8
1
62
256
6
ByLayer
370
18
48
1
60
0
100
AcDbSpline
70
4
71
3
72
12
73
8
40
0
40
0
40
0
40
0
40
0.25
40
0.25
40
0.500000000000001
40
0.500000000000001
40
1
40
1
40
1
40
1
41
1
10
47.7000000259534
20
-1.61736120797519
30
0
41
1
10
47.6546980538257
20
-1.59267427564126
30
0
41
1
10
47.6095019969688
20
-1.56749392512486
30
0
41
1
10
47.519594652787
20
-1.51582571930962
30
0
41
1
10
47.4748677403319
20
-1.48935489503668
30
0
41
1
10
47.3412482246021
20
-1.40815674801272
30
0
41
1
10
47.2529282247423
20
-1.3516311891251
30
0
41
1
10
47.1652211608127
20
-1.29283993275402
30
0
0
SPLINE
5
194
100
AcDbEntity
8
1
62
256
6
ByLayer
370
18
48
1
60
0
100
AcDbSpline
70
4
71
3
72
8
73
4
40
0
40
0
40
0
40
0
40
1
40
1
40
1
40
1
41
1
10
47.1652211608128
20
-1.29283993275402
30
0
41
1
10
47.1545310339262
20
-1.27274155372035
30
0
41
1
10
47.1438266744096
20
-1.25272479641427
30
0
41
1
10
47.1331066066251
20
-1.23279147513679
30
0
0
SPLINE
5
195
100
AcDbEntity
8
1
62
256
6
ByLayer
370
18
48
1
60
0
100
AcDbSpline
70
4
71
3
72
30
73
26
40
0
40
0
40
0
40
0
40
0.124999999999982
40
0.124999999999982
40
0.249999999999963
40
0.249999999999963
40
0.374999999999945
40
0.374999999999945
40
0.437499999999906
40
0.437499999999906
40
0.499999999999868
40
0.499999999999868
40
0.624999999999853
40
0.624999999999853
40
0.687499999999878
40
0.687499999999878
40
0.749999999999902
40
0.749999999999902
40
0.812499999999927
40
0.812499999999927
40
0.874999999999951
40
0.874999999999951
40
0.937499999999976
40
0.937499999999976
40
1
40
1
40
1
40
1
41
1
10
47.1331066066251
20
-1.23279147513694
30
0
41
1
10
47.1240707339218
20
-1.21598981331519
30
0
41
1
10
47.1136128598561
20
-1.19934997897636
30
0
41
1
10
47.090544816314
20
-1.16634075891085
30
0
41
1
10
47.0778357143169
20
-1.14989103924893
30
0
41
1
10
47.0513519426128
20
-1.11828485083152
30
0
41
1
10
47.0374865964087
20
-1.10298994112566
30
0
41
1
10
47.0158198083308
20
-1.08075303956869
30
0
41
1
10
47.0084511157805
20
-1.07345965342063
30
0
41
1
10
46.9934155609381
20
-1.05911424544274
30
0
41
1
10
46.9857900389826
20
-1.05210360891712
30
0
41
1
10
46.9628636305997
20
-1.03179470381966
30
0
41
1
10
46.9474105522486
20
-1.01910923534783
30
0
41
1
10
46.9240040535062
20
-1.00147294370379
30
0
41
1
10
46.9161636887377
20
-0.995828413517813
30
0
41
1
10
46.9004067949002
20
-0.985064433060671
30
0
41
1
10
46.8924598156659
20
-0.97992909773086
30
0
41
1
10
46.8768876720829
20
-0.97051223726649
30
0
41
1
10
46.8692200017155
20
-0.966198743067451
30
0
41
1
10
46.8541674189014
20
-0.958477131256757
30
0
41
1
10
46.8467246439716
20
-0.955045766004162
30
0
41
1
10
46.8325118633792
20
-0.949427686981409
30
0
41
1
10
46.8257572790984
20
-0.947238347337532
30
0
41
1
10
46.8130787408088
20
-0.944321895132276
30
0
41
1
10
46.8071239952466
20
-0.943601804870752
30
0
41
1
10
46.8018630154942
20
-0.943807451960708
30
0
0
SPLINE
5
196
100
AcDbEntity
8
1
62
256
6
ByLayer
370
18
48
1
60
0
100
AcDbSpline
70
4
71
3
72
16
73
12
40
0
40
0
40
0
40
0
40
0.115597347783967
40
0.115597347783967
40
0.20403761300557
40
0.20403761300557
40
0.292477878227174
40
0.292477878227174
40
0.646238939113587
40
0.646238939113587
40
1
40
1
40
1
40
1
41
1
10
40.9050541280221
20
4.06420852882951
30
0
41
1
10
40.9073020695874
20
4.0642066917074
30
0
41
1
10
40.9095503764047
20
4.06342189674561
30
0
41
1
10
40.9135231263289
20
4.06063945033597
30
0
41
1
10
40.9152466118457
20
4.05896980376536
30
0
41
1
10
40.9186991829492
20
4.0546925426855
30
0
41
1
10
40.9204285562963
20
4.05208267684841
30
0
41
1
10
40.9290458407071
20
4.03676496157237
30
0
41
1
10
40.9359022881361
20
4.01722867802812
30
0
41
1
10
40.9496474602867
20
3.96404135341331
30
0
41
1
10
40.9565098048735
20
3.93038892864666
30
0
41
1
10
40.9634039317445
20
3.88966971152331
30
0
0
SPLINE
5
197
100
AcDbEntity
8
1
62
256
6
ByLayer
370
18
48
1
60
0
100
AcDbSpline
70
4
71
3
72
18
73
14
40
0
40
0
40
0
40
0
40
0.316481611973822
40
0.316481611973822
40
0.632963223947644
40
0.632963223947644
40
0.712083626941101
40
0.712083626941101
40
0.791204029934557
40
0.791204029934557
40
0.94944483592147
40
0.94944483592147
40
1
40
1
40
1
40
1
41
1
10
41.0884179369702
20
3.84673311839552
30
0
41
1
10
41.0816104030991
20
3.89214280814886
30
0
41
1
10
41.0747881806527
20
3.93045934947384
30
0
41
1
10
41.0610126053033
20
3.99304304185725
30
0
41
1
10
41.0540875343101
20
4.0173110482942
30
0
41
1
10
41.0453651857528
20
4.03866589237876
30
0
41
1
10
41.0436174829058
20
4.04248669545237
30
0
41
1
10
41.0401155085973
20
4.04921818048348
30
0
41
1
10
41.038358653089
20
4.0521320972303
30
0
41
1
10
41.0330997226004
20
4.05946265652395
30
0
41
1
10
41.0296115652662
20
4.06247301558594
30
0
41
1
10
41.0250300715195
20
4.0640208324867
30
0
41
1
10
41.0239224294346
20
4.0642084420181
30
0
41
1
10
41.0228163279767
20
4.06420941496501
30
0
0
SPLINE
5
198
100
AcDbEntity
8
1
62
256
6
ByLayer
370
18
48
1
60
0
100
AcDbSpline
70
4
71
3
72
16
73
12
40
0
40
0
40
0
40
0
40
0.15120736923143
40
0.15120736923143
40
0.236086632308287
40
0.236086632308287
40
0.320965895385144
40
0.320965895385144
40
0.660482947692572
40
0.660482947692572
40
1
40
1
40
1
40
1
41
1
10
37.8981666471215
20
-4.06420836631702
30
0
41
1
10
37.8951166391238
20
-4.0642103313026
30
0
41
1
10
37.8920456118759
20
-4.06276671229736
30
0
41
1
10
37.8872199162321
20
-4.05822473612614
30
0
41
1
10
37.8854790068848
20
-4.0561297797617
30
0
41
1
10
37.8819862820082
20
-4.05100584510342
30
0
41
1
10
37.8802318835306
20
-4.04797135253327
30
0
41
1
10
37.8714705950754
20
-4.03050959755166
30
0
41
1
10
37.8645080349674
20
-4.00927945410635
30
0
41
1
10
37.8506683906561
20
-3.95278468801965
30
0
41
1
10
37.8437890655423
20
-3.91751866957188
30
0
41
1
10
37.8369161149678
20
-3.87524544607368
30
0
0
SPLINE
5
199
100
AcDbEntity
8
1
62
256
6
ByLayer
370
18
48
1
60
0
100
AcDbSpline
70
4
71
3
72
18
73
14
40
0
40
0
40
0
40
0
40
0.304947394950049
40
0.304947394950049
40
0.609894789900098
40
0.609894789900098
40
0.68613163863761
40
0.68613163863761
40
0.762368487375121
40
0.762368487375121
40
0.914842184850146
40
0.914842184850146
40
1
40
1
40
1
40
1
41
1
10
37.7121890810832
20
-3.83045150812833
30
0
41
1
10
37.7190523878483
20
-3.87742690756175
30
0
41
1
10
37.7258707275028
20
-3.91737081894695
30
0
41
1
10
37.7395678422865
20
-3.98329015418639
30
0
41
1
10
37.7464384726012
20
-4.00926644772835
30
0
41
1
10
37.7550901312933
20
-4.03278284902612
30
0
41
1
10
37.7568237056283
20
-4.03703726919576
30
0
41
1
10
37.7602985318778
20
-4.04463796174321
30
0
41
1
10
37.762040137589
20
-4.04798310513664
30
0
41
1
10
37.7672473846061
20
-4.05659647933234
30
0
41
1
10
37.7707057564061
20
-4.06046830708576
30
0
41
1
10
37.7760833580864
20
-4.06364456042337
30
0
41
1
10
37.7780080300234
20
-4.06421190769188
30
0
41
1
10
37.7799311558308
20
-4.06421072399368
30
0
0
SPLINE
5
19A
100
AcDbEntity
8
1
62
256
6
ByLayer
370
18
48
1
60
0
100
AcDbSpline
70
4
71
3
72
27
73
23
40
0
40
0
40
0
40
0
40
0.125
40
0.125
40
0.1875
40
0.1875
40
0.21875
40
0.21875
40
0.25
40
0.375000000000001
40
0.375000000000001
40
0.500000000000001
40
0.500000000000001
40
0.625000000000001
40
0.625000000000001
40
0.687500000000001
40
0.687500000000001
40
0.750000000000001
40
0.750000000000001
40
0.875
40
0.875
40
1
40
1
40
1
40
1
41
1
10
35.2198722647437
20
2.54769560861303
30
0
41
1
10
35.21531412491
20
2.62309866810838
30
0
41
1
10
35.2107438318013
20
2.69474588614972
30
0
41
1
10
35.203789788999
20
2.79645170007353
30
0
41
1
10
35.2014570005189
20
2.82939200622337
30
0
41
1
10
35.1979374259231
20
2.87733409509042
30
0
41
1
10
35.1967592582643
20
2.89309027882007
30
0
41
1
10
35.1944046611511
20
2.92399679069297
30
0
41
1
10
35.1885251303208
20
2.99971107660656
30
0
41
1
10
35.1826846495203
20
3.06778112020558
30
0
41
1
10
35.1733672238994
20
3.16715045768782
30
0
41
1
10
35.1687197926728
20
3.21206187984043
30
0
41
1
10
35.159403240155
20
3.29230751933557
30
0
41
1
10
35.1547357407624
20
3.32764333151624
30
0
41
1
10
35.147688438642
20
3.37324747757495
30
0
41
1
10
35.1453259116858
20
3.38723927315562
30
0
41
1
10
35.14062498144
20
3.41245501460662
30
0
41
1
10
35.138282735494
20
3.4237101940349
30
0
41
1
10
35.1312695717097
20
3.45348321632156
30
0
41
1
10
35.1266125944793
20
3.4680176727494
30
0
41
1
10
35.1172690377066
20
3.48657836222264
30
0
41
1
10
35.1125754043164
20
3.49060040336346
30
0
41
1
10
35.1078558066031
20
3.48929801618186
30
0
0
SPLINE
5
19B
100
AcDbEntity
8
1
62
256
6
ByLayer
370
18
48
1
60
0
100
AcDbSpline
70
4
71
3
72
28
73
24
40
0
40
0
40
0
40
0
40
0.149969910500473
40
0.149969910500473
40
0.187462388125591
40
0.187462388125591
40
0.224954865750709
40
0.224954865750709
40
0.299939821000946
40
0.299939821000946
40
0.449909731501417
40
0.449909731501417
40
0.599879642001889
40
0.599879642001889
40
0.674864597252125
40
0.674864597252125
40
0.712357074877243
40
0.712357074877243
40
0.74984955250236
40
0.74984955250236
40
0.899819463002829
40
0.899819463002829
40
1
40
1
40
1
40
1
41
1
10
42.4108541737847
20
3.12582261896921
30
0
41
1
10
42.4039791455117
20
3.21544663955089
30
0
41
1
10
42.3971194701795
20
3.29961815411764
30
0
41
1
10
42.3885130101893
20
3.39785068443774
30
0
41
1
10
42.3867896926731
20
3.41714718406888
30
0
41
1
10
42.3833358844236
20
3.45503224475107
30
0
41
1
10
42.381603140989
20
3.47364373394049
30
0
41
1
10
42.3764159261642
20
3.5281151445312
30
0
41
1
10
42.3729642475325
20
3.56268328704346
30
0
41
1
10
42.3625975869798
20
3.66125548891566
30
0
41
1
10
42.3556843140616
20
3.72014125328693
30
0
41
1
10
42.3418758164733
20
3.82447882040333
30
0
41
1
10
42.3349817041922
20
3.86993057358265
30
0
41
1
10
42.3246312235101
20
3.92787196410365
30
0
41
1
10
42.3211789839006
20
3.94547632718329
30
0
41
1
10
42.3159883715244
20
3.96926623286055
30
0
41
1
10
42.3142538560858
20
3.97676803281524
30
0
41
1
10
42.3107970363473
20
3.9908151234859
30
0
41
1
10
42.3090731652425
20
3.99736877388096
30
0
41
1
10
42.300469996848
20
4.02781395344749
30
0
41
1
10
42.2936293566659
20
4.04475535599605
30
0
41
1
10
42.2822109093605
20
4.06094590464309
30
0
41
1
10
42.2776385712272
20
4.06420122414175
30
0
41
1
10
42.2730554562067
20
4.06421117683485
30
0
0
SPLINE
5
19C
100
AcDbEntity
8
1
62
256
6
ByLayer
370
13
48
1
60
0
100
AcDbSpline
70
4
71
3
72
10
73
6
40
0
40
0
40
0
40
0
40
0.156415073401309
40
0.543387313831832
40
1
40
1
40
1
40
1
41
1.04
10
35.33980126733
20
2.36195487823797
30
0
41
1.04
10
35.3331106276069
20
2.44228001216897
30
0
41
1.04
10
35.309949317693
20
2.7063380305245
30
0
41
1.04
10
35.2677297121898
20
3.08882474491229
30
0
41
1.04
10
35.232827242499
20
3.26407155385651
30
0
41
1.04
10
35.2139743896501
20
3.31406109422387
30
0
0
SPLINE
5
19D
100
AcDbEntity
8
1
62
256
6
ByLayer
370
18
48
1
60
0
100
AcDbSpline
70
4
71
3
72
8
73
4
40
0
40
0
40
0
40
0
40
1
40
1
40
1
40
1
41
1.04
10
35.2139742329001
20
3.31406150985576
30
0
41
1.04
10
35.2102660997554
20
3.32389381231624
30
0
41
1.04
10
35.2065594766461
20
3.33199036227847
30
0
41
1.04
10
35.2028530702874
20
3.33833838951896
30
0
0
SPLINE
5
19E
100
AcDbEntity
8
1
62
256
6
ByLayer
370
18
48
1
60
0
100
AcDbSpline
70
4
71
3
72
27
73
23
40
0
40
0
40
0
40
0
40
0.0716381906127683
40
0.226365158843974
40
0.226365158843974
40
0.303728642959576
40
0.303728642959576
40
0.342410385017377
40
0.342410385017377
40
0.381092127075178
40
0.381092127075178
40
0.535819095306384
40
0.535819095306384
40
0.690546063537589
40
0.690546063537589
40
0.767909547653191
40
0.767909547653191
40
0.806591289710993
40
0.806591289710993
40
0.845273031768794
40
0.845273031768794
40
1
40
1
40
1
40
1
41
1
10
36.6479094504462
20
-4.06421202220582
30
0
41
1
10
36.6447407455617
20
-4.06420586652246
30
0
41
1
10
36.6347416286659
20
-4.05927439550911
30
0
41
1
10
36.6247503606001
20
-4.03895577052029
30
0
41
1
10
36.6144463751522
20
-4.00719454304539
30
0
41
1
10
36.6110015294556
20
-3.99478243664944
30
0
41
1
10
36.6058085895044
20
-3.97337457440506
30
0
41
1
10
36.604071432356
20
-3.96576460091086
30
0
41
1
10
36.6005952569911
20
-3.94964324482339
30
0
41
1
10
36.5988594581876
20
-3.94114867584736
30
0
41
1
10
36.590190269421
20
-3.89653217197267
30
0
41
1
10
36.5832940839148
20
-3.85399696054643
30
0
41
1
10
36.569574634384
20
-3.75560708732525
30
0
41
1
10
36.5627516146764
20
-3.69975154486659
30
0
41
1
10
36.552480100183
20
-3.60592707236242
30
0
41
1
10
36.549047499805
20
-3.57297549681908
30
0
41
1
10
36.5438746543785
20
-3.52099610220532
30
0
41
1
10
36.5421467671269
20
-3.50324407058719
30
0
41
1
10
36.5386834341849
20
-3.46687994838035
30
0
41
1
10
36.5369463311396
20
-3.44824964332918
30
0
41
1
10
36.5282593623612
20
-3.35312583960601
30
0
41
1
10
36.521370383246
20
-3.27144547328592
30
0
41
1
10
36.5145171952101
20
-3.18437883709007
30
0
0
SPLINE
5
19F
100
AcDbEntity
8
1
62
256
6
ByLayer
370
18
48
1
60
0
100
AcDbSpline
70
4
71
3
72
26
73
22
40
0
40
0
40
0
40
0
40
0.147178231074058
40
0.147178231074058
40
0.183972788842572
40
0.183972788842572
40
0.220767346611087
40
0.220767346611087
40
0.294356462148116
40
0.294356462148116
40
0.441534693222175
40
0.588712924296235
40
0.588712924296235
40
0.662302039833265
40
0.662302039833265
40
0.699096597601779
40
0.699096597601779
40
0.735891155370294
40
0.735891155370294
40
0.883069386444353
40
1
40
1
40
1
40
1
41
1
10
36.3896850991258
20
-3.09549388869255
30
0
41
1
10
36.3965961219972
20
-3.18619677666825
30
0
41
1
10
36.4035114113759
20
-3.2715669428631
30
0
41
1
10
36.4121803305074
20
-3.37143190114571
30
0
41
1
10
36.4139155100479
20
-3.39106161132489
30
0
41
1
10
36.4173897722235
20
-3.42962621888924
30
0
41
1
10
36.4191260864057
20
-3.44852935606258
30
0
41
1
10
36.4243135354233
20
-3.50388143654192
30
0
41
1
10
36.4277514472364
20
-3.53906693500713
30
0
41
1
10
36.4380236683829
20
-3.63957222952044
30
0
41
1
10
36.4516073945758
20
-3.7601357033202
30
0
41
1
10
36.4652206091773
20
-3.8541703963192
30
0
41
1
10
36.475550749157
20
-3.91456127601171
30
0
41
1
10
36.479014822314
20
-3.93299904201584
30
0
41
1
10
36.4842535488043
20
-3.9580615329933
30
0
41
1
10
36.4860039931454
20
-3.96597075838545
30
0
41
1
10
36.4894958831732
20
-3.98083645015976
30
0
41
1
10
36.4912395617957
20
-3.98780376652434
30
0
41
1
10
36.4999432782571
20
-4.02033729722132
30
0
41
1
10
36.5123438524658
20
-4.05385150055631
30
0
41
1
10
36.524583984414
20
-4.06420401467665
30
0
41
1
10
36.5300028407403
20
-4.06420987065309
30
0
0
SPLINE
5
1A0
100
AcDbEntity
8
1
62
256
6
ByLayer
370
18
48
1
60
0
100
AcDbSpline
70
4
71
3
72
27
73
23
40
0
40
0
40
0
40
0
40
0.107177060260438
40
0.107177060260438
40
0.144378016082919
40
0.144378016082919
40
0.181578971905401
40
0.255980883550364
40
0.255980883550364
40
0.40478470684029
40
0.40478470684029
40
0.553588530130217
40
0.553588530130217
40
0.590789485952699
40
0.590789485952699
40
0.627990441775181
40
0.627990441775181
40
0.702392353420145
40
0.702392353420145
40
0.851196176710073
40
0.851196176710073
40
1
40
1
40
1
40
1
41
1
10
44.1479644397848
20
-4.06421082357195
30
0
41
1
10
44.1430201469496
20
-4.06420108834374
30
0
41
1
10
44.1380596931893
20
-4.06039941920014
30
0
41
1
10
44.1313345260673
20
-4.05005609201405
30
0
41
1
10
44.1295952224884
20
-4.046917051755
30
0
41
1
10
44.1261214953863
20
-4.03972147290034
30
0
41
1
10
44.12091993603
20
-4.02756020239627
30
0
41
1
10
44.1157378417828
20
-4.01134623630944
30
0
41
1
10
44.1053764631792
20
-3.97360660559192
30
0
41
1
10
44.0984697755678
20
-3.94137864137446
30
0
41
1
10
44.0846448042629
20
-3.86292221080964
30
0
41
1
10
44.0777274337402
20
-3.81669420969186
30
0
41
1
10
44.0690524543411
20
-3.74995883441599
30
0
41
1
10
44.0673159575447
20
-3.73616308659419
30
0
41
1
10
44.0638390093632
20
-3.7076644663926
30
0
41
1
10
44.0620959784432
20
-3.69293877128686
30
0
41
1
10
44.0568815281559
20
-3.64757957591874
30
0
41
1
10
44.0534261365713
20
-3.61578301328404
30
0
41
1
10
44.0431052061598
20
-3.51582016397535
30
0
41
1
10
44.0362863277769
20
-3.44309273505542
30
0
41
1
10
44.0226484732728
20
-3.2856819564565
30
0
41
1
10
44.0158260501429
20
-3.20099858917857
30
0
41
1
10
44.008925981389
20
-3.11025138972423
30
0
0
SPLINE
5
1A1
100
AcDbEntity
8
1
62
256
6
ByLayer
370
18
48
1
60
0
100
AcDbSpline
70
4
71
3
72
27
73
23
40
0
40
0
40
0
40
0
40
0.141773965582777
40
0.283547931165553
40
0.283547931165553
40
0.354434913956941
40
0.389878405352635
40
0.389878405352635
40
0.425321896748328
40
0.425321896748328
40
0.567095862331105
40
0.567095862331105
40
0.708869827913882
40
0.708869827913882
40
0.850643793496658
40
0.850643793496658
40
0.886087284892352
40
0.886087284892352
40
0.921530776288047
40
0.992417759079436
40
0.992417759079436
40
1
40
1
40
1
40
1
41
1
10
43.88385013841
20
-3.01750131635572
30
0
41
1
10
43.8907419360778
20
-3.11225797815862
30
0
41
1
10
43.9044524966046
20
-3.28958360848228
30
0
41
1
10
43.9182036526565
20
-3.4430871980523
30
0
41
1
10
43.9285893143994
20
-3.54919893142534
30
0
41
1
10
43.9337999418548
20
-3.59999636185918
30
0
41
1
10
43.9390442782704
20
-3.64734858338386
30
0
41
1
10
43.9425484234481
20
-3.67814161212414
30
0
41
1
10
43.9443050312366
20
-3.69315324060599
30
0
41
1
10
43.9530553381284
20
-3.76582957341401
30
0
41
1
10
43.959985655143
20
-3.81674024478653
30
0
41
1
10
43.9737307947436
20
-3.9045461093296
30
0
41
1
10
43.9805472065525
20
-3.94144004276527
30
0
41
1
10
43.994193285013
20
-4.00119142499679
30
0
41
1
10
44.0010240038498
20
-4.02405014841872
30
0
41
1
10
44.009689690845
20
-4.04355076694296
30
0
41
1
10
44.0114295537742
20
-4.0469946808818
30
0
41
1
10
44.0149047385341
20
-4.05293184780325
30
0
41
1
10
44.0201207673627
20
-4.06043003151376
30
0
41
1
10
44.0253408916749
20
-4.06375497450767
30
0
41
1
10
44.0291824544533
20
-4.06418744596627
30
0
41
1
10
44.0295535195744
20
-4.06420838498278
30
0
41
1
10
44.0299244537781
20
-4.06420848207162
30
0
0
SPLINE
5
1A2
100
AcDbEntity
8
1
62
256
6
ByLayer
370
18
48
1
60
0
100
AcDbSpline
70
4
71
3
72
8
73
4
40
0
40
0
40
0
40
0
40
1
40
1
40
1
40
1
41
1
10
22.5877281445359
20
2.36714619469197
30
0
41
1
10
22.5126991327644
20
2.32735323863369
30
0
41
1
10
22.4367474291399
20
2.28689181870237
30
0
41
1
10
22.3595929474602
20
2.24627163550741
30
0
0
SPLINE
5
1A3
100
AcDbEntity
8
1
62
256
6
ByLayer
370
18
48
1
60
0
100
AcDbSpline
70
4
71
3
72
12
73
8
40
0
40
0
40
0
40
0
40
0.0009988429562633
40
0.0009988429562633
40
0.200799074365019
40
0.200799074365019
40
1
40
1
40
1
40
1
41
1
10
19.8652493624007
20
2.99999999748926
30
0
41
1
10
19.8653947098524
20
3.00000000368524
30
0
41
1
10
19.8655400571387
20
2.9999999982891
30
0
41
1
10
19.8947594303765
20
2.99999658314798
30
0
41
1
10
19.9238473512383
20
2.99953020122234
30
0
41
1
10
20.06932568905
20
2.99489821988533
30
0
41
1
10
20.1858044390289
20
2.98386254328648
30
0
41
1
10
20.3022135249322
20
2.96541753355873
30
0
0
SPLINE
5
1A4
100
AcDbEntity
8
1
62
256
6
ByLayer
370
13
48
1
60
0
100
AcDbSpline
70
4
71
3
72
10
73
6
40
0
40
0
40
0
40
0
40
0.259248870931957
40
0.587786511798234
40
1
40
1
40
1
40
1
41
1
10
35.6710891016705
20
2.13435306691909
30
0
41
1
10
35.657930010837
20
2.30588971704307
30
0
41
1
10
35.6283433672638
20
2.6601534231846
30
0
41
1
10
35.5786144763888
20
3.10703666143519
30
0
41
1
10
35.5425408295739
20
3.28004117322465
30
0
41
1
10
35.5224985176998
20
3.32543510233694
30
0
0
SPLINE
5
1A5
100
AcDbEntity
8
1
62
256
6
ByLayer
370
18
48
1
60
0
100
AcDbSpline
70
4
71
3
72
8
73
4
40
0
40
0
40
0
40
0
40
1
40
1
40
1
40
1
41
1
10
36
20
3.34506173946335
30
0
41
1
10
36
20
3.44052144832889
30
0
41
1
10
36
20
3.52844448896118
30
0
41
1
10
36
20
3.60913223240317
30
0
0
SPLINE
5
1A6
100
AcDbEntity
8
1
62
256
6
ByLayer
370
18
48
1
60
0
100
AcDbSpline
70
4
71
3
72
18
73
14
40
0
40
0
40
0
40
0
40
0.25
40
0.25
40
0.5
40
0.5
40
0.75
40
0.75
40
0.8125
40
0.8125
40
0.874999999999999
40
0.874999999999999
40
1
40
1
40
1
40
1
41
1
10
35.8831960345434
20
3.87184732449265
30
0
41
1
10
35.893123742653
20
3.85137606698007
30
0
41
1
10
35.9029453427979
20
3.82486586132771
30
0
41
1
10
35.9224616500046
20
3.76020294886737
30
0
41
1
10
35.9321565396394
20
3.72204915654882
30
0
41
1
10
35.9515181534574
20
3.63420874566634
30
0
41
1
10
35.9611886853352
20
3.58452480307508
30
0
41
1
10
35.9733065761714
20
3.51507446560601
30
0
41
1
10
35.9757316453007
20
3.50081632356771
30
0
41
1
10
35.9805864185079
20
3.4715574202869
30
0
41
1
10
35.9830179980105
20
3.45654457131877
30
0
41
1
10
35.9903041392757
20
3.41049992890333
30
0
41
1
10
35.9951518846884
20
3.37845348279512
30
0
41
1
10
36
20
3.34506173947796
30
0
0
SPLINE
5
1A7
100
AcDbEntity
8
1
62
256
6
ByLayer
370
18
48
1
60
0
100
AcDbSpline
70
4
71
3
72
33
73
29
40
0
40
0
40
0
40
0
40
0.125000000000002
40
0.125000000000002
40
0.156250000000002
40
0.156250000000002
40
0.187500000000002
40
0.187500000000002
40
0.250000000000003
40
0.250000000000003
40
0.375000000000002
40
0.375000000000002
40
0.500000000000001
40
0.500000000000001
40
0.562500000000001
40
0.562500000000001
40
0.593750000000001
40
0.593750000000001
40
0.625000000000001
40
0.625000000000001
40
0.75
40
0.75
40
0.875
40
0.875
40
0.9375
40
0.96875
40
0.96875
40
1
40
1
40
1
40
1
41
1
10
43.4430775141572
20
3.99007278756065
30
0
41
1
10
43.4499656485087
20
3.96339927647341
30
0
41
1
10
43.4568398625076
20
3.92958405552662
30
0
41
1
10
43.465459829272
20
3.87818097717562
30
0
41
1
10
43.4671853864179
20
3.8674424838193
30
0
41
1
10
43.4706415263528
20
3.84503971858484
30
0
41
1
10
43.472374685723
20
3.83335696646699
30
0
41
1
10
43.4775614148234
20
3.79706948650804
30
0
41
1
10
43.4810027062762
20
3.77123006605345
30
0
41
1
10
43.4913058735189
20
3.68887199139977
30
0
41
1
10
43.4981486672025
20
3.62752629326511
30
0
41
1
10
43.5119354963826
20
3.49218015213342
30
0
41
1
10
43.518858060538
20
3.41817926651819
30
0
41
1
10
43.5292454252488
20
3.29754275260922
30
0
41
1
10
43.5327099045593
20
3.25572155373874
30
0
41
1
10
43.5379169768241
20
3.19052818630919
30
0
41
1
10
43.5396570527703
20
3.16835276584712
30
0
41
1
10
43.5431269201582
20
3.12338072213643
30
0
41
1
10
43.5448570193202
20
3.10058171859407
30
0
41
1
10
43.5534903348888
20
2.98503997975729
30
0
41
1
10
43.5603526956361
20
2.88767023930876
30
0
41
1
10
43.5740689891964
20
2.68330869693043
30
0
41
1
10
43.5809192205129
20
2.5763162809867
30
0
41
1
10
43.5912401552064
20
2.40856234345912
30
0
41
1
10
43.596412243433
20
2.32286546552101
30
0
41
1
10
43.6016138946524
20
2.23439602096778
30
0
41
1
10
43.6050896166466
20
2.17479303086506
30
0
41
1
10
43.6068340264071
20
2.14463485004777
30
0
41
1
10
43.6085748376487
20
2.11430544631426
30
0
0
SPLINE
5
1A8
100
AcDbEntity
8
1
62
256
6
ByLayer
370
18
48
1
60
0
100
AcDbSpline
70
4
71
3
72
34
73
30
40
0
40
0
40
0
40
0
40
0.0312500000000003
40
0.0312500000000003
40
0.0625000000000005
40
0.0625000000000005
40
0.125000000000001
40
0.125000000000001
40
0.250000000000002
40
0.250000000000002
40
0.375000000000002
40
0.375000000000002
40
0.437500000000002
40
0.437500000000002
40
0.468750000000002
40
0.468750000000002
40
0.500000000000002
40
0.500000000000002
40
0.625000000000001
40
0.625000000000001
40
0.75
40
0.75
40
0.812499999999999
40
0.812499999999999
40
0.84375
40
0.84375
40
0.875
40
0.875
40
1
40
1
40
1
40
1
41
1
10
43.7333689240869
20
1.99363051344892
30
0
41
1
10
43.7316218890242
20
2.02444665459822
30
0
41
1
10
43.7298726905048
20
2.05508978094306
30
0
41
1
10
43.7263700138762
20
2.11602602180153
30
0
41
1
10
43.7246155422843
20
2.14633547887414
30
0
41
1
10
43.7193760054762
20
2.2362058700005
30
0
41
1
10
43.7159049843946
20
2.29488431083112
30
0
41
1
10
43.7055462035935
20
2.46728690306125
30
0
41
1
10
43.6987140216328
20
2.5773879333521
30
0
41
1
10
43.6850899989993
20
2.78806424092855
30
0
41
1
10
43.6782971244834
20
2.88863950620291
30
0
41
1
10
43.6680337842351
20
3.03223242868211
30
0
41
1
10
43.6646001930614
20
3.07888267342011
30
0
41
1
10
43.6594179374351
20
3.14699826312679
30
0
41
1
10
43.6576843194119
20
3.16940336199113
30
0
41
1
10
43.6542248559961
20
3.21332952931215
30
0
41
1
10
43.6524965278485
20
3.23488375343769
30
0
41
1
10
43.6438574797089
20
3.3406328885649
30
0
41
1
10
43.6369516805679
20
3.41877841677029
30
0
41
1
10
43.6230806382432
20
3.56245922539333
30
0
41
1
10
43.6161040523331
20
3.62799386638812
30
0
41
1
10
43.6056705511545
20
3.71675464831571
30
0
41
1
10
43.6021991603398
20
3.74474823118379
30
0
41
1
10
43.5970013109802
20
3.78430825166967
30
0
41
1
10
43.5952700875395
20
3.79708964979233
30
0
41
1
10
43.5918086394205
20
3.8218324726314
30
0
41
1
10
43.5900776577338
20
3.83379754056719
30
0
41
1
10
43.5814689476744
20
3.89121875084211
30
0
41
1
10
43.5746894800491
20
3.92977867147772
30
0
41
1
10
43.5678784721335
20
3.96118868220438
30
0
0
SPLINE
5
1A9
100
AcDbEntity
8
1
62
256
6
ByLayer
370
18
48
1
60
0
100
AcDbSpline
70
4
71
3
72
24
73
20
40
0
40
0
40
0
40
0
40
0.0624999999999998
40
0.0624999999999998
40
0.125
40
0.125
40
0.249999999999999
40
0.249999999999999
40
0.499999999999998
40
0.499999999999998
40
0.624999999999997
40
0.624999999999997
40
0.687499999999997
40
0.687499999999997
40
0.718749999999997
40
0.718749999999997
40
0.749999999999997
40
0.749999999999997
40
1
40
1
40
1
40
1
41
1
10
36.0000000000008
20
3.60913223240434
30
0
41
1
10
36.0023689092821
20
3.58681596071085
30
0
41
1
10
36.0047408440817
20
3.56368705153318
30
0
41
1
10
36.0094940396316
20
3.51578284438324
30
0
41
1
10
36.0118785325976
20
3.49097272056335
30
0
41
1
10
36.0190310984318
20
3.41426719097245
30
0
41
1
10
36.0237685217109
20
3.36042375155
30
0
41
1
10
36.0379625930109
20
3.19099792131638
30
0
41
1
10
36.0474462863826
20
3.06756029730235
30
0
41
1
10
36.061762876597
20
2.86681460069787
30
0
41
1
10
36.0665433166623
20
2.79729110085296
30
0
41
1
10
36.0737285760099
20
2.68902005649417
30
0
41
1
10
36.0761262311392
20
2.65226476796408
30
0
41
1
10
36.0797280350747
20
2.59611916636354
30
0
41
1
10
36.0809306896359
20
2.57721662980501
30
0
41
1
10
36.083329700235
20
2.53920503300139
30
0
41
1
10
36.0845265825974
20
2.52008809816218
30
0
41
1
10
36.0952767905267
20
2.34704376633945
30
0
41
1
10
36.1046731318984
20
2.18620886412353
30
0
41
1
10
36.1140537994283
20
2.0185748460089
30
0
0
SPLINE
5
1AA
100
AcDbEntity
8
1
62
256
6
ByLayer
370
18
48
1
60
0
100
AcDbSpline
70
4
71
3
72
29
73
25
40
0
40
0
40
0
40
0
40
0.125000000000001
40
0.125000000000001
40
0.250000000000003
40
0.250000000000003
40
0.375000000000004
40
0.375000000000004
40
0.406250000000004
40
0.406250000000004
40
0.437500000000004
40
0.500000000000003
40
0.500000000000003
40
0.625000000000002
40
0.625000000000002
40
0.750000000000002
40
0.750000000000002
40
0.781250000000001
40
0.781250000000001
40
0.812500000000001
40
0.812500000000001
40
0.875000000000001
40
0.875000000000001
40
1
40
1
40
1
40
1
41
1
10
42.8516294462255
20
-3.95506670827413
30
0
41
1
10
42.8446318559677
20
-3.92236904519112
30
0
41
1
10
42.8377287865022
20
-3.88272840639817
30
0
41
1
10
42.8240424552728
20
-3.79004275457285
30
0
41
1
10
42.8172586215022
20
-3.73699626989404
30
0
41
1
10
42.8036246302326
20
-3.61753598269937
30
0
41
1
10
42.7967764150305
20
-3.55112319104387
30
0
41
1
10
42.7881235485819
20
-3.45950429796107
30
0
41
1
10
42.7863865495196
20
-3.44072861808053
30
0
41
1
10
42.7829108824772
20
-3.40239891872108
30
0
41
1
10
42.7777052696646
20
-3.3438537426517
30
0
41
1
10
42.7725187562594
20
-3.2821968723319
30
0
41
1
10
42.7621601261191
20
-3.15480726457233
30
0
41
1
10
42.7552741920991
20
-3.06445705211638
30
0
41
1
10
42.7414788887151
20
-2.87302764592863
30
0
41
1
10
42.7345615647177
20
-2.77194906296143
30
0
41
1
10
42.7258848393163
20
-2.63875090552847
30
0
41
1
10
42.7241481690886
20
-2.61176789009986
30
0
41
1
10
42.7206719429743
20
-2.55710783478193
30
0
41
1
10
42.7189305267616
20
-2.52940075853289
30
0
41
1
10
42.7137139641315
20
-2.44543316293925
30
0
41
1
10
42.7102605118261
20
-2.38855261509639
30
0
41
1
10
42.6999583563907
20
-2.21526334568117
30
0
41
1
10
42.6931711880504
20
-2.09621381934926
30
0
41
1
10
42.6863901742843
20
-1.97370973376036
30
0
0
SPLINE
5
1AB
100
AcDbEntity
8
1
62
256
6
ByLayer
370
18
48
1
60
0
100
AcDbSpline
70
4
71
3
72
28
73
24
40
0
40
0
40
0
40
0
40
0.125000000000001
40
0.125000000000001
40
0.187500000000002
40
0.187500000000002
40
0.218750000000002
40
0.218750000000002
40
0.250000000000002
40
0.250000000000002
40
0.375000000000002
40
0.375000000000002
40
0.500000000000003
40
0.500000000000003
40
0.625000000000003
40
0.625000000000003
40
0.656250000000003
40
0.656250000000003
40
0.687500000000003
40
0.750000000000002
40
0.750000000000002
40
0.875000000000001
40
1
40
1
40
1
40
1
41
1
10
42.5615344356205
20
-1.85015449459732
30
0
41
1
10
42.5684746840986
20
-1.97499132755885
30
0
41
1
10
42.5753940648316
20
-2.09641682745428
30
0
41
1
10
42.5857308577996
20
-2.27338476427386
30
0
41
1
10
42.5891703382163
20
-2.3315106084828
30
0
41
1
10
42.5943286122279
20
-2.41738100499717
30
0
41
1
10
42.596047952588
20
-2.44578462326825
30
0
41
1
10
42.5994887937175
20
-2.5021468129064
30
0
41
1
10
42.6012079820553
20
-2.5300667321647
30
0
41
1
10
42.6097676917431
20
-2.66776050448115
30
0
41
1
10
42.6165294296913
20
-2.7724083376595
30
0
41
1
10
42.6301691132066
20
-2.97100563649121
30
0
41
1
10
42.63704289135
20
-3.06495462515807
30
0
41
1
10
42.6508923445108
20
-3.2421291635961
30
0
41
1
10
42.6578670187969
20
-3.32535583341217
30
0
41
1
10
42.666648005684
20
-3.42245034130002
30
0
41
1
10
42.6684049229526
20
-3.44149295217176
30
0
41
1
10
42.6719053452914
20
-3.47866801191785
30
0
41
1
10
42.6771425269228
20
-3.53313860102986
30
0
41
1
10
42.6823410597653
20
-3.5837770928193
30
0
41
1
10
42.6926945623007
20
-3.6800204794171
30
0
41
1
10
42.7063802092482
20
-3.7949478605932
30
0
41
1
10
42.7199830477275
20
-3.88322970115524
30
0
41
1
10
42.7268369394058
20
-3.92052772703721
30
0
0
SPLINE
5
1AC
100
AcDbEntity
8
1
62
256
6
ByLayer
370
18
48
1
60
0
100
AcDbSpline
70
4
71
3
72
33
73
29
40
0
40
0
40
0
40
0
40
0.0624999999999996
40
0.0624999999999996
40
0.0937499999999996
40
0.0937499999999996
40
0.125
40
0.125
40
0.25
40
0.25
40
0.375
40
0.375
40
0.5
40
0.5
40
0.531250000000001
40
0.531250000000001
40
0.562500000000001
40
0.625000000000001
40
0.625000000000001
40
0.750000000000001
40
0.750000000000001
40
0.875000000000001
40
0.875000000000001
40
0.906250000000001
40
0.906250000000001
40
0.937500000000001
40
0.937500000000001
40
1
40
1
40
1
40
1
41
1
10
37.271189973138
20
3.38963246983263
30
0
41
1
10
37.2746397135976
20
3.35089950742983
30
0
41
1
10
37.2780947499542
20
3.31057628108869
30
0
41
1
10
37.2832901399318
20
3.24766862552502
30
0
41
1
10
37.2850240936915
20
3.22629539458705
30
0
41
1
10
37.2884974008708
20
3.18273205232063
30
0
41
1
10
37.2902393215085
20
3.16050820015693
30
0
41
1
10
37.2989249495348
20
3.04785305598293
30
0
41
1
10
37.3058009497416
20
2.95276829969052
30
0
41
1
10
37.3195278787516
20
2.75300916935134
30
0
41
1
10
37.3263778360184
20
2.64833390746782
30
0
41
1
10
37.3400747852326
20
2.42940389500319
30
0
41
1
10
37.346920389796
20
2.31514981668937
30
0
41
1
10
37.3555518298237
20
2.16615915200816
30
0
41
1
10
37.3572847200448
20
2.13600626607683
30
0
41
1
10
37.3607459072398
20
2.07535421706922
30
0
41
1
10
37.3659325484001
20
1.98384647512219
30
0
41
1
10
37.3711097753297
20
1.89076952561209
30
0
41
1
10
37.3814562234435
20
1.70255859242604
30
0
41
1
10
37.3883427391062
20
1.57434730479198
30
0
41
1
10
37.4021194906847
20
1.31250179408258
30
0
41
1
10
37.4090088006561
20
1.1788677205711
30
0
41
1
10
37.4176533585674
20
1.00835879660005
30
0
41
1
10
37.4193840155521
20
0.974083253871328
30
0
41
1
10
37.4228500730388
20
0.90518090331588
30
0
41
1
10
37.4245880507098
20
0.870502361971802
30
0
41
1
10
37.4297878354745
20
0.766404271688373
30
0
41
1
10
37.4332359527199
20
0.696916137658263
30
0
41
1
10
37.4366724689442
20
0.627340768640551
30
0
0
SPLINE
5
1AD
100
AcDbEntity
8
1
62
256
6
ByLayer
370
18
48
1
60
0
100
AcDbSpline
70
4
71
3
72
30
73
26
40
0
40
0
40
0
40
0
40
0.124999999999998
40
0.124999999999998
40
0.249999999999996
40
0.249999999999996
40
0.281249999999996
40
0.281249999999996
40
0.312499999999996
40
0.312499999999996
40
0.374999999999996
40
0.374999999999996
40
0.499999999999996
40
0.499999999999996
40
0.624999999999997
40
0.624999999999997
40
0.687499999999998
40
0.687499999999998
40
0.718749999999998
40
0.718749999999998
40
0.749999999999998
40
0.749999999999998
40
0.874999999999999
40
0.874999999999999
40
1
40
1
40
1
40
1
41
1
10
44.7653280332717
20
3.45202326910862
30
0
41
1
10
44.7722135924217
20
3.37764576854292
30
0
41
1
10
44.7791205497296
20
3.29739276076171
30
0
41
1
10
44.7929981761844
20
3.12526119277379
30
0
41
1
10
44.7999674147522
20
3.03338295309115
30
0
41
1
10
44.8087174971785
20
2.91110991940909
30
0
41
1
10
44.8104694507553
20
2.88628309188678
30
0
41
1
10
44.8139773786235
20
2.8358770505796
30
0
41
1
10
44.8157355393174
20
2.81026540850741
30
0
41
1
10
44.8210005696481
20
2.73252308969043
30
0
41
1
10
44.8244877304689
20
2.67963967786832
30
0
41
1
10
44.8348881416242
20
2.51789182323779
30
0
41
1
10
44.8417378214335
20
2.40593785888854
30
0
41
1
10
44.8553555931969
20
2.17393957127206
30
0
41
1
10
44.8621220031157
20
2.05389503173012
30
0
41
1
10
44.8723476227768
20
1.86768145444273
30
0
41
1
10
44.8757718593958
20
1.80458391009321
30
0
41
1
10
44.8809458234131
20
1.70836883495579
30
0
41
1
10
44.8826787585845
20
1.67599220479968
30
0
41
1
10
44.886146157957
20
1.61092587877485
30
0
41
1
10
44.8878786260833
20
1.57827409147396
30
0
41
1
10
44.8965368456915
20
1.4144291202476
30
0
41
1
10
44.9034511257196
20
1.28148276103059
30
0
41
1
10
44.9172880210524
20
1.01194879084486
30
0
41
1
10
44.9242095695422
20
0.875360925922905
30
0
41
1
10
44.9311486413796
20
0.736942054166974
30
0
0
SPLINE
5
1AE
100
AcDbEntity
8
1
62
256
6
ByLayer
370
18
48
1
60
0
100
AcDbSpline
70
4
71
3
72
26
73
22
40
0
40
0
40
0
40
0
40
0.124999999999999
40
0.124999999999999
40
0.249999999999999
40
0.249999999999999
40
0.312499999999998
40
0.312499999999998
40
0.374999999999998
40
0.374999999999998
40
0.499999999999999
40
0.499999999999999
40
0.624999999999999
40
0.624999999999999
40
0.75
40
0.75
40
0.8125
40
0.8125
40
0.875
40
0.875
40
1
40
1
40
1
40
1
41
1
10
39.9164359521459
20
1.03152797395484
30
0
41
1
10
39.9233459439515
20
0.89462904772779
30
0
41
1
10
39.9301786600871
20
0.756865756725944
30
0
41
1
10
39.9438867568679
20
0.479667043276834
30
0
41
1
10
39.9507477700879
20
0.340230833555495
30
0
41
1
10
39.9610751351237
20
0.129816704617042
30
0
41
1
10
39.9645235866892
20
0.059468277841205
30
0
41
1
10
39.9714385956441
20
-0.0816551718511107
30
0
41
1
10
39.9749072901299
20
-0.152474701168359
30
0
41
1
10
39.9853404140502
20
-0.36531229211343
30
0
41
1
10
39.9922240224074
20
-0.505548664776597
30
0
41
1
10
40.0059622027482
20
-0.782822366376678
30
0
41
1
10
40.0128296694685
20
-0.919858741157128
30
0
41
1
10
40.0265788184356
20
-1.19074065658907
30
0
41
1
10
40.0334550159824
20
-1.32458666771535
30
0
41
1
10
40.0438308731516
20
-1.52289017020388
30
0
41
1
10
40.0473070661889
20
-1.58869684728458
30
0
41
1
10
40.0542238855463
20
-1.71798911070209
30
0
41
1
10
40.0576750919771
20
-1.78164515194956
30
0
41
1
10
40.0680157414326
20
-1.96969556141096
30
0
41
1
10
40.0748898662252
20
-2.09117999566371
30
0
41
1
10
40.0817608900274
20
-2.20882546104591
30
0
0
SPLINE
5
1AF
100
AcDbEntity
8
1
62
256
6
ByLayer
370
18
48
1
60
0
100
AcDbSpline
70
4
71
3
72
8
73
4
40
0
40
0
40
0
40
0
40
1
40
1
40
1
40
1
41
1
10
44.8843524483409
20
3.38015523204103
30
0
41
1
10
44.8446208643262
20
3.40476381284185
30
0
41
1
10
44.8049467908979
20
3.4287176706473
30
0
41
1
10
44.7653280332716
20
3.45202326910862
30
0
0
SPLINE
5
1B0
100
AcDbEntity
8
1
62
256
6
ByLayer
370
18
48
1
60
0
100
AcDbSpline
70
4
71
3
72
10
73
6
40
0
40
0
40
0
40
0
40
0.5
40
0.5
40
1
40
1
40
1
40
1
41
1
10
34.5069184520939
20
-2.73603606744538
30
0
41
1
10
34.4371021952781
20
-2.66526260937823
30
0
41
1
10
34.3624875388161
20
-2.60238121739059
30
0
41
1
10
34.2070304838306
20
-2.49117172634635
30
0
41
1
10
34.1261986029603
20
-2.44279903560459
30
0
41
1
10
34.0433841846772
20
-2.40165542135276
30
0
0
SPLINE
5
1B1
100
AcDbEntity
8
1
62
256
6
ByLayer
370
18
48
1
60
0
100
AcDbSpline
70
4
71
3
72
79
73
75
40
0
40
0
40
0
40
0
40
0.0624999999999935
40
0.0624999999999935
40
0.0781249999999916
40
0.0781249999999916
40
0.0937499999999897
40
0.0937499999999897
40
0.124999999999986
40
0.124999999999986
40
0.156249999999982
40
0.156249999999982
40
0.164062499999981
40
0.164062499999981
40
0.17187499999998
40
0.17187499999998
40
0.18749999999998
40
0.18749999999998
40
0.218749999999979
40
0.218749999999979
40
0.234374999999978
40
0.234374999999978
40
0.249999999999977
40
0.249999999999977
40
0.312499999999978
40
0.312499999999978
40
0.328124999999977
40
0.328124999999977
40
0.343749999999977
40
0.343749999999977
40
0.374999999999977
40
0.374999999999977
40
0.437499999999979
40
0.437499999999979
40
0.468749999999979
40
0.468749999999979
40
0.48437499999998
40
0.48437499999998
40
0.499999999999981
40
0.499999999999981
40
0.507812499999982
40
0.507812499999982
40
0.515624999999983
40
0.531249999999985
40
0.562499999999987
40
0.562499999999987
40
0.624999999999992
40
0.624999999999992
40
0.640624999999993
40
0.640624999999993
40
0.656249999999994
40
0.671874999999994
40
0.671874999999994
40
0.687499999999995
40
0.687499999999995
40
0.75
40
0.75
40
0.781250000000001
40
0.781250000000001
40
0.812500000000003
40
0.828125000000004
40
0.835937500000004
40
0.835937500000004
40
0.843750000000004
40
0.843750000000004
40
0.875000000000002
40
0.875000000000002
40
0.890625000000002
40
0.890625000000002
40
0.906250000000001
40
0.906250000000001
40
0.937500000000001
40
0.937500000000001
40
1
40
1
40
1
40
1
41
1
10
34.0433841846749
20
-2.40165542135554
30
0
41
1
10
33.8025818792036
20
-2.28202073246158
30
0
41
1
10
33.5646164763912
20
-2.14751616123581
30
0
41
1
10
33.2674007632657
20
-1.96421948046316
30
0
41
1
10
33.2079731181751
20
-1.92679908783677
30
0
41
1
10
33.0890412022212
20
-1.85054823690186
30
0
41
1
10
33.0295227714535
20
-1.81173266264975
30
0
41
1
10
32.8510014012674
20
-1.69303497124645
30
0
41
1
10
32.7320767242231
20
-1.61085290870767
30
0
41
1
10
32.4937861286677
20
-1.44091051092045
30
0
41
1
10
32.3744228781325
20
-1.35314722047764
30
0
41
1
10
32.2245372802147
20
-1.24030620769531
30
0
41
1
10
32.194525959774
20
-1.217581318322
30
0
41
1
10
32.1344242318889
20
-1.17182760105351
30
0
41
1
10
32.1043164990978
20
-1.1487852791613
30
0
41
1
10
32.0141685938089
20
-1.07945644629234
30
0
41
1
10
31.9542132991016
20
-1.03290001294712
30
0
41
1
10
31.7746516139365
20
-0.892374759062506
30
0
41
1
10
31.6553591741658
20
-0.797538094647848
30
0
41
1
10
31.4764599336815
20
-0.654274358524702
30
0
41
1
10
31.4168614185872
20
-0.606318549462429
30
0
41
1
10
31.2978377724459
20
-0.509880319042338
30
0
41
1
10
31.2383948009122
20
-0.461419118747074
30
0
41
1
10
30.9413379385733
20
-0.218125025329385
30
0
41
1
10
30.7042241925724
20
-0.0202946443049257
30
0
41
1
10
30.4053391384818
20
0.227204125734403
30
0
41
1
10
30.3454352561476
20
0.276711582267353
30
0
41
1
10
30.2252877262932
20
0.375638070945485
30
0
41
1
10
30.1649713198373
20
0.425120585761249
30
0
41
1
10
29.9845862362714
20
0.572257758768501
30
0
41
1
10
29.8646701449528
20
0.668810194817695
30
0
41
1
10
29.5065897554817
20
0.954772888422099
30
0
41
1
10
29.2697273493098
20
1.14001377399381
30
0
41
1
10
28.9135261641642
20
1.40555350024039
30
0
41
1
10
28.7946411574219
20
1.49201364814539
30
0
41
1
10
28.6156026971403
20
1.61808036254101
30
0
41
1
10
28.5558054658103
20
1.65949941934946
30
0
41
1
10
28.4358625721409
20
1.74100888107708
30
0
41
1
10
28.3757083527847
20
1.78109150957096
30
0
41
1
10
28.2853041263673
20
1.84030151072739
30
0
41
1
10
28.2551216214241
20
1.85989692672709
30
0
41
1
10
28.1948930091682
20
1.89863956774369
30
0
41
1
10
28.1046900362018
20
1.95612415907061
30
0
41
1
10
27.8950973839553
20
2.08577936761475
30
0
41
1
10
27.716607676487
20
2.18898709697524
30
0
41
1
10
27.3602105785783
20
2.38414748821791
30
0
41
1
10
27.1234034538015
20
2.49924591772501
30
0
41
1
10
26.8251379761935
20
2.62220246302758
30
0
41
1
10
26.765397521574
20
2.64576595805062
30
0
41
1
10
26.6458189340331
20
2.69086175686752
30
0
41
1
10
26.5261093155625
20
2.73390509818731
30
0
41
1
10
26.4059909025009
20
2.77269993594896
30
0
41
1
10
26.2855852005316
20
2.80929326798099
30
0
41
1
10
26.2255374219691
20
2.82639765376376
30
0
41
1
10
25.926048724598
20
2.90589249403598
30
0
41
1
10
25.688675709788
20
2.950251279783
30
0
41
1
10
25.3319966085538
20
2.98791788070142
30
0
41
1
10
25.2129235999074
20
2.99567458760691
30
0
41
1
10
24.9748692844252
20
3.00159944428165
30
0
41
1
10
24.7962505105381
20
2.99881457494109
30
0
41
1
10
24.5868961249294
20
2.98265067380498
30
0
41
1
10
24.4968754976314
20
2.97292846553074
30
0
41
1
10
24.4367849177811
20
2.96582299141454
30
0
41
1
10
24.4066759543944
20
2.96195445243981
30
0
41
1
10
24.2563761526669
20
2.94111172002795
30
0
41
1
10
24.1367296514984
20
2.91962428263017
30
0
41
1
10
23.9576546884179
20
2.88051140686193
30
0
41
1
10
23.8980281753248
20
2.86632691339233
30
0
41
1
10
23.7788028558152
20
2.8357309209907
30
0
41
1
10
23.7192095962716
20
2.81931926421734
30
0
41
1
10
23.5406588042037
20
2.76668964736345
30
0
41
1
10
23.4218899640278
20
2.7270883393881
30
0
41
1
10
23.0655499311286
20
2.59505555164171
30
0
41
1
10
22.8279352622319
20
2.48938851518184
30
0
41
1
10
22.5877193384127
20
2.36714824577496
30
0
0
SPLINE
5
1B2
100
AcDbEntity
8
1
62
256
6
ByLayer
370
18
48
1
60
0
100
AcDbSpline
70
4
71
3
72
137
73
133
40
0
40
0
40
0
40
0
40
0.0159192575443457
40
0.0159192575443457
40
0.0238788863165186
40
0.0238788863165186
40
0.0318385150886915
40
0.0318385150886915
40
0.0397981438608643
40
0.0397981438608643
40
0.0477577726330372
40
0.0477577726330372
40
0.0636770301773829
40
0.0636770301773829
40
0.0955155452660735
40
0.0955155452660735
40
0.127354060354764
40
0.127354060354764
40
0.135313689126936
40
0.135313689126936
40
0.143273317899109
40
0.143273317899109
40
0.151232946671281
40
0.151232946671281
40
0.159192575443454
40
0.159192575443454
40
0.175111832987798
40
0.175111832987798
40
0.191031090532143
40
0.191031090532143
40
0.222869605620832
40
0.222869605620832
40
0.238788863165176
40
0.238788863165176
40
0.25470812070952
40
0.25470812070952
40
0.262667749481693
40
0.262667749481693
40
0.270627378253866
40
0.270627378253866
40
0.278587007026038
40
0.278587007026038
40
0.286546635798211
40
0.286546635798211
40
0.318385150886901
40
0.318385150886901
40
0.350223665975592
40
0.350223665975592
40
0.366142923519936
40
0.366142923519936
40
0.374102552292109
40
0.374102552292109
40
0.382062181064281
40
0.382062181064281
40
0.397981438608625
40
0.397981438608625
40
0.413900696152968
40
0.413900696152968
40
0.421860324925141
40
0.421860324925141
40
0.429819953697313
40
0.445739211241658
40
0.461658468786003
40
0.461658468786003
40
0.477577726330348
40
0.477577726330348
40
0.48553735510252
40
0.48553735510252
40
0.489517169488606
40
0.489517169488606
40
0.493496983874692
40
0.493496983874692
40
0.501456612646864
40
0.501456612646864
40
0.509416241419035
40
0.509416241419035
40
0.541254756507721
40
0.541254756507721
40
0.557174014052063
40
0.557174014052063
40
0.565133642824235
40
0.565133642824235
40
0.573093271596406
40
0.589012529140749
40
0.589012529140749
40
0.596972157912921
40
0.596972157912921
40
0.604931786685093
40
0.604931786685093
40
0.612891415457265
40
0.612891415457265
40
0.620851044229436
40
0.620851044229436
40
0.636770301773781
40
0.636770301773781
40
0.66860881686247
40
0.66860881686247
40
0.700447331951159
40
0.700447331951159
40
0.708406960723332
40
0.708406960723332
40
0.716366589495504
40
0.716366589495504
40
0.732285847039849
40
0.732285847039849
40
0.764124362128539
40
0.764124362128539
40
0.79596287721723
40
0.79596287721723
40
0.82780139230592
40
0.82780139230592
40
0.843720649850266
40
0.843720649850266
40
0.851680278622439
40
0.851680278622439
40
0.859639907394611
40
0.859639907394611
40
0.891478422483303
40
0.891478422483303
40
0.923316937571994
40
0.923316937571994
40
0.939236195116339
40
0.939236195116339
40
0.947195823888512
40
0.947195823888512
40
0.955155452660685
40
0.955155452660685
40
0.986993967749375
40
0.986993967749375
40
0.994953596521546
40
0.994953596521546
40
1
40
1
40
1
40
1
41
1
10
20.3022277624349
20
2.96541939200469
30
0
41
1
10
20.3741418454844
20
2.95644953532073
30
0
41
1
10
20.4457871135063
20
2.94575099282503
30
0
41
1
10
20.5529519486982
20
2.92714051479447
30
0
41
1
10
20.588625900731
20
2.92051101899264
30
0
41
1
10
20.6598342868691
20
2.9063858116466
30
0
41
1
10
20.6953342876165
20
2.89887836727576
30
0
41
1
10
20.7663571788067
20
2.88304443529603
30
0
41
1
10
20.8019687127433
20
2.87474969131193
30
0
41
1
10
20.8731763753103
20
2.85734519896406
30
0
41
1
10
20.9087670492868
20
2.84823204978289
30
0
41
1
10
21.0155499274378
20
2.81968294633538
30
0
41
1
10
21.0867643849121
20
2.79904257902007
30
0
41
1
10
21.3006302618486
20
2.73239634348735
30
0
41
1
10
21.443510324908
20
2.68168354734326
30
0
41
1
10
21.7301296691024
20
2.56775145686029
30
0
41
1
10
21.8738793916659
20
2.50454367174473
30
0
41
1
10
22.0542046045664
20
2.41744126172145
30
0
41
1
10
22.0902704014999
20
2.39962320435288
30
0
41
1
10
22.1621398107506
20
2.3633009651607
30
0
41
1
10
22.1979730525956
20
2.34477547691958
30
0
41
1
10
22.2694555950685
20
2.30700854152363
30
0
41
1
10
22.3051823273561
20
2.28782785227671
30
0
41
1
10
22.3767638472815
20
2.24901195194897
30
0
41
1
10
22.4125221904557
20
2.22929877526573
30
0
41
1
10
22.5196809484223
20
2.16923303795693
30
0
41
1
10
22.5910613323578
20
2.12803430640918
30
0
41
1
10
22.7338649578102
20
2.04350876733713
30
0
41
1
10
22.8052613137734
20
2.00015962822459
30
0
41
1
10
23.0193777738158
20
1.86683380773533
30
0
41
1
10
23.16208030482
20
1.77363423249145
30
0
41
1
10
23.3763467388979
20
1.62760048333763
30
0
41
1
10
23.4478056816602
20
1.57788382350248
30
0
41
1
10
23.5907590511808
20
1.47629852446372
30
0
41
1
10
23.6622422361595
20
1.42441915856057
30
0
41
1
10
23.7693416367032
20
1.34476432918333
30
0
41
1
10
23.8049713548419
20
1.31784899648244
30
0
41
1
10
23.8767288310155
20
1.26400925813056
30
0
41
1
10
23.9128063774172
20
1.23703210391727
30
0
41
1
10
23.9849388389132
20
1.18248219561698
30
0
41
1
10
24.0210338231721
20
1.15497495279757
30
0
41
1
10
24.0930718198511
20
1.09979995527974
30
0
41
1
10
24.1290546551429
20
1.07210600705517
30
0
41
1
10
24.3088172964102
20
0.933142330889552
30
0
41
1
10
24.4521641486948
20
0.820418852821689
30
0
41
1
10
24.7382328053626
20
0.592286102620477
30
0
41
1
10
24.8809100500706
20
0.476823037992574
30
0
41
1
10
25.0946594923618
20
0.301853706183607
30
0
41
1
10
25.1658537111006
20
0.243221131363583
30
0
41
1
10
25.2724438440038
20
0.154656437159588
30
0
41
1
10
25.3079091104812
20
0.124993576628185
30
0
41
1
10
25.3789204904322
20
0.065642762077772
30
0
41
1
10
25.4145793452308
20
0.0360942107436983
30
0
41
1
10
25.5216738621358
20
-0.0525905047475135
30
0
41
1
10
25.5931242107805
20
-0.111895159608707
30
0
41
1
10
25.7366721154962
20
-0.230200149346274
30
0
41
1
10
25.8087210936932
20
-0.289260115387691
30
0
41
1
10
25.9171726621933
20
-0.37775736109532
30
0
41
1
10
25.9533728165509
20
-0.407233762125458
30
0
41
1
10
26.0255980691225
20
-0.465904950311995
30
0
41
1
10
26.1337873223717
20
-0.553579587745702
30
0
41
1
10
26.3134366957022
20
-0.697971777975397
30
0
41
1
10
26.4565400368711
20
-0.811556171826624
30
0
41
1
10
26.5993477176735
20
-0.924165764247022
30
0
41
1
10
26.6706042375816
20
-0.979983362763022
30
0
41
1
10
26.7771447977866
20
-1.06311131156863
30
0
41
1
10
26.8125970620332
20
-1.0907250762389
30
0
41
1
10
26.8656825713594
20
-1.13200023626811
30
0
41
1
10
26.8833695136786
20
-1.14572600168222
30
0
41
1
10
26.9188135213381
20
-1.17301449888299
30
0
41
1
10
26.9365817936761
20
-1.18656469172004
30
0
41
1
10
26.9899557275143
20
-1.22701387070612
30
0
41
1
10
27.0255691301296
20
-1.2537805886536
30
0
41
1
10
27.096757046426
20
-1.30702704449715
30
0
41
1
10
27.1323571097947
20
-1.33347799732107
30
0
41
1
10
27.3105462706891
20
-1.46469627279666
30
0
41
1
10
27.4536590204706
20
-1.56640790720871
30
0
41
1
10
27.6695214772556
20
-1.71367964996031
30
0
41
1
10
27.7416708970228
20
-1.76189070252153
30
0
41
1
10
27.8501980700035
20
-1.83286161811546
30
0
41
1
10
27.8864240482708
20
-1.85629403569487
30
0
41
1
10
27.9586661299053
20
-1.90251595737078
30
0
41
1
10
28.0668289938596
20
-1.97096008423978
30
0
41
1
10
28.1743678920152
20
-2.03677793067934
30
0
41
1
10
28.2814329732007
20
-2.10089087134233
30
0
41
1
10
28.3170420777647
20
-2.12197759440593
30
0
41
1
10
28.3880892125496
20
-2.16358807447898
30
0
41
1
10
28.4234807584008
20
-2.18414913984873
30
0
41
1
10
28.4945831117861
20
-2.22429635617192
30
0
41
1
10
28.5302567861288
20
-2.24391845350615
30
0
41
1
10
28.601427157632
20
-2.28261444566292
30
0
41
1
10
28.6369761849395
20
-2.3016435507684
30
0
41
1
10
28.7436754493334
20
-2.35764949400547
30
0
41
1
10
28.8149016266124
20
-2.39352965861173
30
0
41
1
10
29.0288266214322
20
-2.49687718344759
30
0
41
1
10
29.1717038547895
20
-2.56010900730334
30
0
41
1
10
29.4582378932641
20
-2.67499318129785
30
0
41
1
10
29.6018992167558
20
-2.72664916379688
30
0
41
1
10
29.7820031328477
20
-2.78365209492105
30
0
41
1
10
29.8180712304082
20
-2.79467739062562
30
0
41
1
10
29.8899617118117
20
-2.815866802936
30
0
41
1
10
29.925805413022
20
-2.82604822556368
30
0
41
1
10
30.0331888041642
20
-2.85528865098118
30
0
41
1
10
30.1048034449036
20
-2.87296012190797
30
0
41
1
10
30.3193227594574
20
-2.92081336840579
30
0
41
1
10
30.4621257578632
20
-2.94575328693097
30
0
41
1
10
30.747765875195
20
-2.98200368330433
30
0
41
1
10
30.8905394928613
20
-2.99333344948153
30
0
41
1
10
31.1760977199386
20
-3.00229580269016
30
0
41
1
10
31.3189320184087
20
-2.99992901845562
30
0
41
1
10
31.5333223514238
20
-2.98565644091713
30
0
41
1
10
31.60483823824
20
-2.97910029358343
30
0
41
1
10
31.7127762557701
20
-2.96662351437726
30
0
41
1
10
31.7488733982705
20
-2.96201868907508
30
0
41
1
10
31.8209484667302
20
-2.9519669887527
30
0
41
1
10
31.8569586769177
20
-2.9465171887187
30
0
41
1
10
32.0368746744277
20
-2.9171786884589
30
0
41
1
10
32.1803368420146
20
-2.8870302923772
30
0
41
1
10
32.4665050298905
20
-2.81383134776192
30
0
41
1
10
32.6092441948344
20
-2.77079647908892
30
0
41
1
10
32.822820108727
20
-2.69652135498114
30
0
41
1
10
32.8939306478079
20
-2.67014162177566
30
0
41
1
10
33.0005132673463
20
-2.62812213752702
30
0
41
1
10
33.0360111036655
20
-2.61369703775421
30
0
41
1
10
33.1071160660946
20
-2.5841068795134
30
0
41
1
10
33.1427341419776
20
-2.56894956135508
30
0
41
1
10
33.3211273989384
20
-2.49134642370834
30
0
41
1
10
33.4645812688507
20
-2.42330639320713
30
0
41
1
10
33.6452642838668
20
-2.33103451186983
30
0
41
1
10
33.6814804582028
20
-2.31220873661303
30
0
41
1
10
33.7406230822957
20
-2.28092780958954
30
0
41
1
10
33.7635700511416
20
-2.26865893097474
30
0
41
1
10
33.7865163578432
20
-2.25625844624798
30
0
0
SPLINE
5
1B3
100
AcDbEntity
8
1
62
256
6
ByLayer
370
18
48
1
60
0
100
AcDbSpline
70
4
71
3
72
8
73
4
40
0
40
0
40
0
40
0
40
1
40
1
40
1
40
1
41
1
10
42.7268369394058
20
-3.92052772703721
30
0
41
1
10
42.7684278066522
20
-3.93281522068693
30
0
41
1
10
42.8100206538935
20
-3.94432958504746
30
0
41
1
10
42.8516294462255
20
-3.95506670827413
30
0
0
SPLINE
5
1B4
100
AcDbEntity
8
1
62
256
6
ByLayer
370
18
48
1
60
0
100
AcDbSpline
70
4
71
3
72
12
73
8
40
0
40
0
40
0
40
0
40
0.25
40
0.25
40
0.500000000000001
40
0.500000000000001
40
1
40
1
40
1
40
1
41
1
10
36.1140537994283
20
2.0185748460089
30
0
41
1
10
36.077799353162
20
2.03622719657912
30
0
41
1
10
36.041401392691
20
2.05191129601676
30
0
41
1
10
35.9682493150904
20
2.07930426692511
30
0
41
1
10
35.9314757741062
20
2.0910196942734
30
0
41
1
10
35.8206973462557
20
2.120087094387
30
0
41
1
10
35.746211127647
20
2.13138169223572
30
0
41
1
10
35.6710891016703
20
2.13435306692185
30
0
0
SPLINE
5
1B5
100
AcDbEntity
8
1
62
256
6
ByLayer
370
18
48
1
60
0
100
AcDbSpline
70
4
71
3
72
30
73
26
40
0
40
0
40
0
40
0
40
0.124999999999973
40
0.124999999999973
40
0.249999999999947
40
0.249999999999947
40
0.37499999999992
40
0.37499999999992
40
0.437499999999907
40
0.437499999999907
40
0.499999999999893
40
0.499999999999893
40
0.624999999999896
40
0.624999999999896
40
0.687499999999913
40
0.687499999999913
40
0.749999999999931
40
0.749999999999931
40
0.812499999999948
40
0.812499999999948
40
0.874999999999965
40
0.874999999999965
40
0.937499999999983
40
0.937499999999983
40
1
40
1
40
1
40
1
41
1
10
35.6710891016703
20
2.13435306692188
30
0
41
1
10
35.6620232270684
20
2.13471165829304
30
0
41
1
10
35.6515286968236
20
2.13685515253894
30
0
41
1
10
35.6283874117869
20
2.14376262510717
30
0
41
1
10
35.6156415381831
20
2.14859579556224
30
0
41
1
10
35.5890952124137
20
2.16026807900155
30
0
41
1
10
35.5752023913353
20
2.16713042521226
30
0
41
1
10
35.5535073973963
20
2.17891597002057
30
0
41
1
10
35.5461317137619
20
2.1830959440579
30
0
41
1
10
35.5310884043954
20
2.19198487959133
30
0
41
1
10
35.5234663704714
20
2.19666824851981
30
0
41
1
10
35.5005512973299
20
2.2113047423083
30
0
41
1
10
35.4851136363939
20
2.22188982960344
30
0
41
1
10
35.4617399333913
20
2.23922601679399
30
0
41
1
10
35.45391219578
20
2.24525020055486
30
0
41
1
10
35.4381829762659
20
2.25787000908221
30
0
41
1
10
35.4302560729447
20
2.26449077871595
30
0
41
1
10
35.4147224753314
20
2.27807259994387
30
0
41
1
10
35.4070718884239
20
2.28506640092931
30
0
41
1
10
35.3920483943069
20
2.29953269346422
30
0
41
1
10
35.3846176660044
20
2.30706764250362
30
0
41
1
10
35.3704292736027
20
2.32238865010083
30
0
41
1
10
35.3636833389603
20
2.3301531429486
30
0
41
1
10
35.3510156480268
20
2.34592890798822
30
0
41
1
10
35.3450632235452
20
2.35399281520898
30
0
41
1
10
35.3398012673299
20
2.36195487823935
30
0
0
SPLINE
5
1B6
100
AcDbEntity
8
1
62
256
6
ByLayer
370
18
48
1
60
0
100
AcDbSpline
70
4
71
3
72
8
73
4
40
0
40
0
40
0
40
0
40
1
40
1
40
1
40
1
41
1
10
35.33980126733
20
2.36195487823798
30
0
41
1
10
35.2996461758683
20
2.42271505109446
30
0
41
1
10
35.2596819685612
20
2.48464304019871
30
0
41
1
10
35.2198722647437
20
2.54769560861308
30
0
0
SPLINE
5
1B7
100
AcDbEntity
8
1
62
256
6
ByLayer
370
18
48
1
60
0
100
AcDbSpline
70
4
71
3
72
14
73
10
40
0
40
0
40
0
40
0
40
0.5
40
0.5
40
0.75
40
0.75
40
0.875
40
0.875
40
1
40
1
40
1
40
1
41
1
10
35.2198722647439
20
2.54769560861303
30
0
41
1
10
35.103842754065
20
2.58982663152557
30
0
41
1
10
34.9869917882262
20
2.62242057552825
30
0
41
1
10
34.809384249545
20
2.65647205038763
30
0
41
1
10
34.7497846433273
20
2.66533717889462
30
0
41
1
10
34.6596179318107
20
2.67479020077798
30
0
41
1
10
34.6294908676728
20
2.67736138899284
30
0
41
1
10
34.5686898511933
20
2.68091779272655
30
0
41
1
10
34.5379734326168
20
2.68185900486944
30
0
41
1
10
34.5069184520939
20
2.68196100327202
30
0
0
SPLINE
5
1B8
100
AcDbEntity
8
1
62
256
6
ByLayer
370
18
48
1
60
0
100
AcDbSpline
70
4
71
3
72
10
73
6
40
0
40
0
40
0
40
0
40
0.5
40
0.5
40
1
40
1
40
1
40
1
41
1
10
34.5069184520941
20
2.68196100327199
30
0
41
1
10
34.4371021952783
20
2.68219031098849
30
0
41
1
10
34.3624875388161
20
2.68764574300553
30
0
41
1
10
34.2070304838306
20
2.7119432964995
30
0
41
1
10
34.1261986029603
20
2.73073214761993
30
0
41
1
10
34.0433841846772
20
2.75776008807571
30
0
0
SPLINE
5
1B9
100
AcDbEntity
8
1
62
256
6
ByLayer
370
18
48
1
60
0
100
AcDbSpline
70
4
71
3
72
36
73
32
40
0
40
0
40
0
40
0
40
0.176126121063103
40
0.176126121063103
40
0.220157651328878
40
0.220157651328878
40
0.264189181594653
40
0.264189181594653
40
0.3522522421262
40
0.3522522421262
40
0.440315302657747
40
0.440315302657747
40
0.462331067790631
40
0.462331067790631
40
0.484346832923516
40
0.484346832923516
40
0.528378363189285
40
0.528378363189285
40
0.616441423720822
40
0.616441423720822
40
0.660472953986591
40
0.660472953986591
40
0.70450448425236
40
0.70450448425236
40
0.880630605315445
40
0.880630605315445
40
0.924662135581215
40
0.924662135581215
40
0.968693665846986
40
0.968693665846986
40
1
40
1
40
1
40
1
41
1
10
34.0433841846749
20
2.7577600880806
30
0
41
1
10
33.8025818792036
20
2.8363501513675
30
0
41
1
10
33.5646164763912
20
2.89589407167514
30
0
41
1
10
33.2674007632657
20
2.94633908668993
30
0
41
1
10
33.2079731181751
20
2.95523033108023
30
0
41
1
10
33.0890412022212
20
2.97061256123411
30
0
41
1
10
33.0295227714535
20
2.97710315122487
30
0
41
1
10
32.8510014012674
20
2.99301184125917
30
0
41
1
10
32.7320767242231
20
2.99886428960036
30
0
41
1
10
32.4937861286678
20
3.00083626131192
30
0
41
1
10
32.3744228781325
20
2.99695561668295
30
0
41
1
10
32.2245372802147
20
2.98588653055541
30
0
41
1
10
32.194525959774
20
2.98336184041156
30
0
41
1
10
32.1344242318889
20
2.97768752517709
30
0
41
1
10
32.1043164990978
20
2.97453543992384
30
0
41
1
10
32.0141685938089
20
2.96417559036786
30
0
41
1
10
31.9542132991016
20
2.95605716761008
30
0
41
1
10
31.7746516139365
20
2.9281483340898
30
0
41
1
10
31.6553591741658
20
2.90479929221525
30
0
41
1
10
31.4764599336815
20
2.86303016985525
30
0
41
1
10
31.4168614185873
20
2.84797551341598
30
0
41
1
10
31.2978377724459
20
2.81556954922797
30
0
41
1
10
31.2383948009122
20
2.79822378953759
30
0
41
1
10
30.9413379385734
20
2.70584446274375
30
0
41
1
10
30.7042241925724
20
2.61383649976986
30
0
41
1
10
30.4053391384818
20
2.47736838347475
30
0
41
1
10
30.3454352561476
20
2.4490038543988
30
0
41
1
10
30.2252877262932
20
2.39017028566354
30
0
41
1
10
30.1649713198373
20
2.35965756379471
30
0
41
1
10
30.0620918083688
20
2.30606619159605
30
0
41
1
10
30.0193837068967
20
2.28337622119241
30
0
41
1
10
29.9767283285589
20
2.26026104304728
30
0
0
SPLINE
5
1BA
100
AcDbEntity
8
1
62
256
6
ByLayer
370
18
48
1
60
0
100
AcDbSpline
70
4
71
3
72
65
73
61
40
0
40
0
40
0
40
0
40
0.0350904737885153
40
0.0350904737885153
40
0.0672541246622314
40
0.0672541246622314
40
0.0833359500990895
40
0.0833359500990895
40
0.0994177755359475
40
0.131581426409663
40
0.131581426409663
40
0.147663251846521
40
0.147663251846521
40
0.16374507728338
40
0.16374507728338
40
0.179826902720238
40
0.179826902720238
40
0.195908728157096
40
0.195908728157096
40
0.228072379030812
40
0.228072379030812
40
0.292399680778243
40
0.292399680778243
40
0.356726982525675
40
0.356726982525675
40
0.372808807962533
40
0.372808807962533
40
0.388890633399391
40
0.388890633399391
40
0.421054284273107
40
0.421054284273107
40
0.485381586020541
40
0.485381586020541
40
0.549708887767975
40
0.549708887767975
40
0.614036189515409
40
0.614036189515409
40
0.646199840389127
40
0.646199840389127
40
0.662281665825985
40
0.662281665825985
40
0.678363491262843
40
0.678363491262843
40
0.742690793010273
40
0.742690793010273
40
0.807018094757704
40
0.807018094757704
40
0.83918174563142
40
0.83918174563142
40
0.855263571068277
40
0.855263571068277
40
0.871345396505134
40
0.871345396505134
40
0.935672698252566
40
0.935672698252566
40
0.951754523689425
40
0.951754523689425
40
0.967836349126284
40
0.967836349126284
40
1
40
1
40
1
40
1
41
1
10
27.36273404188
20
3.00000224027252
30
0
41
1
10
27.4408004073788
20
2.99998262216764
30
0
41
1
10
27.5190654999423
20
2.99789834411027
30
0
41
1
10
27.6695214772556
20
2.98993333754731
30
0
41
1
10
27.7416708970228
20
2.98438169516908
30
0
41
1
10
27.8501980700035
20
2.97340027012879
30
0
41
1
10
27.8864240482708
20
2.96929588607301
30
0
41
1
10
27.9586661299053
20
2.96023387113357
30
0
41
1
10
28.0668289938596
20
2.94534926698486
30
0
41
1
10
28.1743678920153
20
2.92660518559202
30
0
41
1
10
28.2814329732008
20
2.9052641624975
30
0
41
1
10
28.3170420777647
20
2.89771716105582
30
0
41
1
10
28.3880892125497
20
2.88174618908448
30
0
41
1
10
28.4234807584008
20
2.8733034047545
30
0
41
1
10
28.4945831117861
20
2.85571809374665
30
0
41
1
10
28.5302567861288
20
2.84656762399413
30
0
41
1
10
28.601427157632
20
2.82739889076106
30
0
41
1
10
28.6369761849395
20
2.81739858946506
30
0
41
1
10
28.7436754493335
20
2.78621980138999
30
0
41
1
10
28.8149016266124
20
2.76387739046717
30
0
41
1
10
29.0288266214323
20
2.69222633424152
30
0
41
1
10
29.1717038547895
20
2.63826957485495
30
0
41
1
10
29.4582378932641
20
2.51803688500908
30
0
41
1
10
29.6018992167558
20
2.45177115598867
30
0
41
1
10
29.7820031328477
20
2.36091227507305
30
0
41
1
10
29.8180712304082
20
2.34232755900752
30
0
41
1
10
29.8899617118117
20
2.30450512300214
30
0
41
1
10
29.925805413022
20
2.28523839214
30
0
41
1
10
30.0331888041642
20
2.22650085565351
30
0
41
1
10
30.1048034449036
20
2.18628030280325
30
0
41
1
10
30.3193227594575
20
2.06218583566823
30
0
41
1
10
30.4621257578632
20
1.97506878970214
30
0
41
1
10
30.747765875195
20
1.79272074545125
30
0
41
1
10
30.8905394928613
20
1.69743350830282
30
0
41
1
10
31.1760977199385
20
1.49867988953088
30
0
41
1
10
31.3189320184087
20
1.3952669157209
30
0
41
1
10
31.5333223514238
20
1.23388371706881
30
0
41
1
10
31.6048382382401
20
1.17906971726933
30
0
41
1
10
31.7127762557701
20
1.09597734470736
30
0
41
1
10
31.7488733982705
20
1.06809352406026
30
0
41
1
10
31.8209484667302
20
1.01221234002463
30
0
41
1
10
31.8569586769177
20
0.984191638019098
30
0
41
1
10
32.0368746744277
20
0.84369284869075
30
0
41
1
10
32.1803368420147
20
0.729985190606328
30
0
41
1
10
32.4665050298905
20
0.500219589680057
30
0
41
1
10
32.6092441948344
20
0.384201988442953
30
0
41
1
10
32.822820108727
20
0.208447477223785
30
0
41
1
10
32.8939306478079
20
0.14958309745316
30
0
41
1
10
33.0005132673463
20
0.0609104972359944
30
0
41
1
10
33.0360111036655
20
0.0312706952617248
30
0
41
1
10
33.1071160660946
20
-0.0279661299512384
30
0
41
1
10
33.1427341419776
20
-0.0575495339620034
30
0
41
1
10
33.3211273989384
20
-0.205321312815897
30
0
41
1
10
33.4645812688507
20
-0.323357917013681
30
0
41
1
10
33.6452642838668
20
-0.470138323242423
30
0
41
1
10
33.6814804582028
20
-0.499470811650923
30
0
41
1
10
33.7538704574464
20
-0.557920802172248
30
0
41
1
10
33.7900638259801
20
-0.587054265932778
30
0
41
1
10
33.8986389615758
20
-0.674180581434541
30
0
41
1
10
33.9710108163762
20
-0.731905437018696
30
0
41
1
10
34.0433841846749
20
-0.789253666581857
30
0
0
SPLINE
5
1BB
100
AcDbEntity
8
1
62
256
6
ByLayer
370
18
48
1
60
0
100
AcDbSpline
70
4
71
3
72
8
73
4
40
0
40
0
40
0
40
0
40
1
40
1
40
1
40
1
41
1
10
36.514517195219
20
-3.18437883708953
30
0
41
1
10
36.4728588455445
20
-3.15538293148543
30
0
41
1
10
36.4312514404057
20
-3.12575317377051
30
0
41
1
10
36.3896850991258
20
-3.09549388869255
30
0
0
SPLINE
5
1BC
100
AcDbEntity
8
1
62
256
6
ByLayer
370
18
48
1
60
0
100
AcDbSpline
70
4
71
3
72
8
73
4
40
0
40
0
40
0
40
0
40
1
40
1
40
1
40
1
41
1
10
37.8369161149678
20
-3.87524544607368
30
0
41
1
10
37.7952464500805
20
-3.86108765637567
30
0
41
1
10
37.7536947385532
20
-3.84614927400071
30
0
41
1
10
37.7121890810832
20
-3.83045150812833
30
0
0
SPLINE
5
1BD
100
AcDbEntity
8
1
62
256
6
ByLayer
370
18
48
1
60
0
100
AcDbSpline
70
4
71
3
72
8
73
4
40
0
40
0
40
0
40
0
40
1
40
1
40
1
40
1
41
1
10
44.9311486413795
20
0.736942054166974
30
0
41
1
10
44.9717096545978
20
0.692233821674648
30
0
41
1
10
45.0122497016841
20
0.647410232886244
30
0
41
1
10
45.0527811225071
20
0.602482377825282
30
0
0
SPLINE
5
1BE
100
AcDbEntity
8
1
62
256
6
ByLayer
370
18
48
1
60
0
100
AcDbSpline
70
4
71
3
72
8
73
4
40
0
40
0
40
0
40
0
40
1
40
1
40
1
40
1
41
1
10
43.6085748376487
20
2.11430544631429
30
0
41
1
10
43.6501911504826
20
2.07447387593203
30
0
41
1
10
43.6917850437514
20
2.03424544695167
30
0
41
1
10
43.7333689240987
20
1.99363051344997
30
0
0
SPLINE
5
1BF
100
AcDbEntity
8
1
62
256
6
ByLayer
370
18
48
1
60
0
100
AcDbSpline
70
4
71
3
72
8
73
4
40
0
40
0
40
0
40
0
40
1
40
1
40
1
40
1
41
1
10
40.9634039317445
20
3.88966971152331
30
0
41
1
10
41.0050928034248
20
3.8761200281362
30
0
41
1
10
41.0467594345335
20
3.86180598903439
30
0
41
1
10
41.0884179369701
20
3.84673311839552
30
0
0
SPLINE
5
1C0
100
AcDbEntity
8
1
62
256
6
ByLayer
370
18
48
1
60
0
100
AcDbSpline
70
4
71
3
72
47
73
43
40
0
40
0
40
0
40
0
40
0.0171989568362223
40
0.0171989568362223
40
0.0461048698704527
40
0.0461048698704527
40
0.0750107829046831
40
0.0750107829046831
40
0.0894637394217973
40
0.0894637394217973
40
0.103916695938912
40
0.13282260897314
40
0.190634435041597
40
0.190634435041597
40
0.306258087178513
40
0.306258087178513
40
0.335164000212741
40
0.335164000212741
40
0.364069913246969
40
0.392975826281197
40
0.392975826281197
40
0.421881739315425
40
0.421881739315425
40
0.537505391452339
40
0.537505391452339
40
0.595317217520797
40
0.595317217520797
40
0.653129043589255
40
0.682034956623484
40
0.696487913140599
40
0.696487913140599
40
0.710940869657713
40
0.710940869657713
40
0.768752695726167
40
0.768752695726167
40
0.797658608760395
40
0.797658608760395
40
0.826564521794624
40
0.826564521794624
40
0.884376347863082
40
0.884376347863082
40
1
40
1
40
1
40
1
41
1
10
28.7816923376722
20
-2.99999982081911
30
0
41
1
10
28.7462585708099
20
-2.99999516441145
30
0
41
1
10
28.7107913517167
20
-2.99955962556521
30
0
41
1
10
28.6156026971403
20
-2.9972337804484
30
0
41
1
10
28.5558054658102
20
-2.99455488421793
30
0
41
1
10
28.4358625721408
20
-2.98675141167706
30
0
41
1
10
28.3757083527847
20
-2.98163031504973
30
0
41
1
10
28.2853041263673
20
-2.97208404564861
30
0
41
1
10
28.255121621424
20
-2.96858790269261
30
0
41
1
10
28.1948930091682
20
-2.96099546374003
30
0
41
1
10
28.1046900362018
20
-2.94870091208861
30
0
41
1
10
27.8950973839553
20
-2.91372261480012
30
0
41
1
10
27.716607676487
20
-2.87312787868208
30
0
41
1
10
27.3602105785783
20
-2.77827499873462
30
0
41
1
10
27.1234034538016
20
-2.69680069573116
30
0
41
1
10
26.8251379761935
20
-2.57397609998313
30
0
41
1
10
26.765397521574
20
-2.54834908358728
30
0
41
1
10
26.6458189340331
20
-2.49489708328096
30
0
41
1
10
26.5261093743829
20
-2.43926670177211
30
0
41
1
10
26.4059909025009
20
-2.37930932504133
30
0
41
1
10
26.2855852005316
20
-2.31720922732461
30
0
41
1
10
26.2255374219691
20
-2.28524190209748
30
0
41
1
10
25.926048724598
20
-2.12113183257677
30
0
41
1
10
25.688675709788
20
-1.97604932046801
30
0
41
1
10
25.3319966085538
20
-1.7419265333458
30
0
41
1
10
25.2129235999074
20
-1.66122523606316
30
0
41
1
10
24.9748692844253
20
-1.49402640188856
30
0
41
1
10
24.7962505105381
20
-1.36441437521805
30
0
41
1
10
24.5868961249294
20
-1.2065532487164
30
0
41
1
10
24.4968754976314
20
-1.13755406232511
30
0
41
1
10
24.4367849177812
20
-1.0912655578928
30
0
41
1
10
24.4066759543943
20
-1.06795696478065
30
0
41
1
10
24.2563761526669
20
-0.951076977460275
30
0
41
1
10
24.1367296514984
20
-0.856354709927643
30
0
41
1
10
23.9576546884179
20
-0.713056033446037
30
0
41
1
10
23.8980281753248
20
-0.665088034035051
30
0
41
1
10
23.7788028558151
20
-0.568874916657023
30
0
41
1
10
23.7192095962716
20
-0.520623341469872
30
0
41
1
10
23.5406588042037
20
-0.375229383153851
30
0
41
1
10
23.4218899640277
20
-0.277495791163488
30
0
41
1
10
23.0655499311286
20
0.017121138313712
30
0
41
1
10
22.8279352622319
20
0.215409797599108
30
0
41
1
10
22.5877193384127
20
0.41250134114722
30
0
0
SPLINE
5
1C1
100
AcDbEntity
8
1
62
256
6
ByLayer
370
18
48
1
60
0
100
AcDbSpline
70
4
71
3
72
67
73
63
40
0
40
0
40
0
40
0
40
0.0365925047493389
40
0.0365925047493389
40
0.0548887571240084
40
0.0548887571240084
40
0.0731850094986778
40
0.0731850094986778
40
0.0914812618733472
40
0.0914812618733472
40
0.109777514248017
40
0.109777514248017
40
0.146370018997353
40
0.146370018997353
40
0.219555028496027
40
0.219555028496027
40
0.2927400379947
40
0.2927400379947
40
0.311036290369368
40
0.311036290369368
40
0.329332542744036
40
0.329332542744036
40
0.347628795118703
40
0.347628795118703
40
0.365925047493371
40
0.365925047493371
40
0.402517552242705
40
0.402517552242705
40
0.439110056992038
40
0.439110056992038
40
0.512295066490705
40
0.512295066490705
40
0.548887571240038
40
0.548887571240038
40
0.585480075989371
40
0.585480075989371
40
0.603776328364038
40
0.603776328364038
40
0.622072580738705
40
0.622072580738705
40
0.640368833113372
40
0.640368833113372
40
0.658665085488038
40
0.658665085488038
40
0.731850094986703
40
0.731850094986703
40
0.805035104485368
40
0.805035104485368
40
0.8416276092347
40
0.8416276092347
40
0.859923861609366
40
0.859923861609366
40
0.878220113984032
40
0.878220113984032
40
0.914812618733367
40
0.914812618733367
40
0.951405123482701
40
0.951405123482701
40
0.96970137585737
40
0.96970137585737
40
0.987997628232038
40
1
40
1
40
1
40
1
41
1
10
20.3022277624349
20
-1.87604908144684
30
0
41
1
10
20.3741418454845
20
-1.92228254275477
30
0
41
1
10
20.4457871135063
20
-1.96738590389714
30
0
41
1
10
20.5529519486982
20
-2.03325711147897
30
0
41
1
10
20.588625900731
20
-2.05491455206956
30
0
41
1
10
20.6598342868691
20
-2.09766863954161
30
0
41
1
10
20.6953342876165
20
-2.11879470135943
30
0
41
1
10
20.7663571788067
20
-2.16034051066802
30
0
41
1
10
20.8019687127433
20
-2.18068581229207
30
0
41
1
10
20.8731763753104
20
-2.220717007557
30
0
41
1
10
20.9087670492868
20
-2.24040627995223
30
0
41
1
10
21.0155499274378
20
-2.29845703226454
30
0
41
1
10
21.0867643849121
20
-2.33579284037879
30
0
41
1
10
21.3006302618486
20
-2.4436226061888
30
0
41
1
10
21.443510324908
20
-2.50994704485234
30
0
41
1
10
21.7301296691024
20
-2.63123108727763
30
0
41
1
10
21.8738793916659
20
-2.68618837567394
30
0
41
1
10
22.0542046045664
20
-2.74743770705993
30
0
41
1
10
22.0902704015
20
-2.75930677629381
30
0
41
1
10
22.1621398107506
20
-2.78220515246821
30
0
41
1
10
22.1979730525956
20
-2.79324904954703
30
0
41
1
10
22.2694555950685
20
-2.81451423751543
30
0
41
1
10
22.305182327356
20
-2.82470018554659
30
0
41
1
10
22.3767638472815
20
-2.8441334330268
30
0
41
1
10
22.4125221904557
20
-2.85342112329326
30
0
41
1
10
22.5196809484223
20
-2.88001304994506
30
0
41
1
10
22.5910613323578
20
-2.89600938199851
30
0
41
1
10
22.7338649578102
20
-2.9245541554954
30
0
41
1
10
22.8052613137734
20
-2.93711290923818
30
0
41
1
10
23.0193777738159
20
-2.9697133244099
30
0
41
1
10
23.16208030482
20
-2.98467356710603
30
0
41
1
10
23.3763467388979
20
-2.9968649155463
30
0
41
1
10
23.4478056816602
20
-2.99921872748064
30
0
41
1
10
23.5907590511808
20
-3.00045309295479
30
0
41
1
10
23.6622422361595
20
-2.99933575541513
30
0
41
1
10
23.7693416367032
20
-2.99496156565007
30
0
41
1
10
23.8049713548419
20
-2.9930458609642
30
0
41
1
10
23.8767288310155
20
-2.98835296188605
30
0
41
1
10
23.9128063774172
20
-2.98557751497771
30
0
41
1
10
23.9849388389132
20
-2.97912052987539
30
0
41
1
10
24.0210338231721
20
-2.97544271212632
30
0
41
1
10
24.0930718198511
20
-2.96723212538467
30
0
41
1
10
24.1290546551429
20
-2.96269692877365
30
0
41
1
10
24.3088172964102
20
-2.93790306667404
30
0
41
1
10
24.4521641486948
20
-2.91131233469633
30
0
41
1
10
24.7382328053626
20
-2.84510930410076
30
0
41
1
10
24.8809100500707
20
-2.80547868652704
30
0
41
1
10
25.0946594923618
20
-2.73631884561311
30
0
41
1
10
25.1658537111006
20
-2.71164088809948
30
0
41
1
10
25.2724438440038
20
-2.67207621305988
30
0
41
1
10
25.3079091104812
20
-2.65844432132059
30
0
41
1
10
25.3789204904323
20
-2.63040283512484
30
0
41
1
10
25.4145793452308
20
-2.61606140940617
30
0
41
1
10
25.5216738621358
20
-2.57188629461746
30
0
41
1
10
25.5931242107805
20
-2.54082781036433
30
0
41
1
10
25.7366721154962
20
-2.47582422767039
30
0
41
1
10
25.8087210936932
20
-2.44185262879859
30
0
41
1
10
25.9171726621933
20
-2.38864650733626
30
0
41
1
10
25.9533728165509
20
-2.3705392707823
30
0
41
1
10
26.0255980691225
20
-2.33372998081685
30
0
41
1
10
26.0853185964623
20
-2.30272951520595
30
0
41
1
10
26.144917354928
20
-2.27088244805265
30
0
41
1
10
26.1685082842813
20
-2.25813499836093
30
0
0
SPLINE
5
1C2
100
AcDbEntity
8
1
62
256
6
ByLayer
370
18
48
1
60
0
100
AcDbSpline
70
4
71
3
72
8
73
4
40
0
40
0
40
0
40
0
40
1
40
1
40
1
40
1
41
1
10
35.0468849212953
20
3.45299210206554
30
0
41
1
10
35.0672440746418
20
3.46524427008566
30
0
41
1
10
35.0875670673882
20
3.47734693835699
30
0
41
1
10
35.1078558066031
20
3.48929801618186
30
0
0
SPLINE
5
1C3
100
AcDbEntity
8
1
62
256
6
ByLayer
370
18
48
1
60
0
100
AcDbSpline
70
4
71
3
72
24
73
20
40
0
40
0
40
0
40
0
40
0.0732350871782353
40
0.0732350871782353
40
0.227695905981863
40
0.227695905981863
40
0.38215672478549
40
0.38215672478549
40
0.536617543589118
40
0.536617543589118
40
0.691078362392745
40
0.691078362392745
40
0.768308771794559
40
0.768308771794559
40
0.845539181196373
40
0.845539181196373
40
0.922769590598186
40
0.922769590598186
40
1
40
1
40
1
40
1
41
1
10
35.2431641854731
20
3.29516854159561
30
0
41
1
10
35.2493327308618
20
3.29048042923859
30
0
41
1
10
35.2556865433124
20
3.28617076463416
30
0
41
1
10
35.275768459907
20
3.27399790842989
30
0
41
1
10
35.2899623126032
20
3.26737898786604
30
0
41
1
10
35.3193742549153
20
3.2571836855891
30
0
41
1
10
35.334691558743
20
3.2536202448546
30
0
41
1
10
35.3653104663129
20
3.24988211334267
30
0
41
1
10
35.3807171915786
20
3.24964825664117
30
0
41
1
10
35.4116754489923
20
3.25282127808063
30
0
41
1
10
35.4273636819447
20
3.25629230952004
30
0
41
1
10
35.4499959545628
20
3.26469881229244
30
0
41
1
10
35.4574182408454
20
3.26803519033848
30
0
41
1
10
35.4719759511142
20
3.27593893233197
30
0
41
1
10
35.4791622498219
20
3.28054763005238
30
0
41
1
10
35.4928395221959
20
3.29100906747016
30
0
41
1
10
35.4993469604297
20
3.29685665296137
30
0
41
1
10
35.5115839926311
20
3.3100010077147
30
0
41
1
10
35.5173496685164
20
3.31735620708528
30
0
41
1
10
35.5224985176998
20
3.32543510233691
30
0
0
SPLINE
5
1C4
100
AcDbEntity
8
1
62
256
6
ByLayer
370
18
48
1
60
0
100
AcDbSpline
70
4
71
3
72
12
73
8
40
0
40
0
40
0
40
0
40
0.500000000000007
40
0.500000000000007
40
0.750000000000004
40
0.750000000000004
40
1
40
1
40
1
40
1
41
1
10
35.5224985176998
20
3.32543510233694
30
0
41
1
10
35.5836330867619
20
3.42135940738305
30
0
41
1
10
35.644197672909
20
3.5149225301235
30
0
41
1
10
35.7344064656961
20
3.65169817246232
30
0
41
1
10
35.7643804390499
20
3.69671010619263
30
0
41
1
10
35.8239992931324
20
3.78530762203943
30
0
41
1
10
35.8536618294084
20
3.82892056317925
30
0
41
1
10
35.8831960345434
20
3.87184732449265
30
0
0
SPLINE
5
1C5
100
AcDbEntity
8
1
62
256
6
ByLayer
370
18
48
1
60
0
100
AcDbSpline
70
4
71
3
72
8
73
4
40
0
40
0
40
0
40
0
40
1
40
1
40
1
40
1
41
1
10
35.8831960345434
20
3.87184732449265
30
0
41
1
10
35.9222815445217
20
3.88685446051323
30
0
41
1
10
35.9612115532099
20
3.90106809861928
30
0
41
1
10
36
20
3.9144672900899
30
0
0
SPLINE
5
1C6
100
AcDbEntity
8
1
62
256
6
ByLayer
370
18
48
1
60
0
100
AcDbSpline
70
4
71
3
72
8
73
4
40
0
40
0
40
0
40
0
40
1
40
1
40
1
40
1
41
1
10
42.6863901742843
20
-1.97370973376036
30
0
41
1
10
42.6447257790609
20
-1.9329117167905
30
0
41
1
10
42.6031109048991
20
-1.89172384605897
30
0
41
1
10
42.5615344356082
20
-1.85015449459595
30
0
0
SPLINE
5
1C7
100
AcDbEntity
8
1
62
256
6
ByLayer
370
18
48
1
60
0
100
AcDbSpline
70
4
71
3
72
8
73
4
40
0
40
0
40
0
40
0
40
1
40
1
40
1
40
1
41
1
10
44.008925981389
20
-3.11025138972423
30
0
41
1
10
43.9671779177081
20
-3.07996337800208
30
0
41
1
10
43.9255021831447
20
-3.04903748824444
30
0
41
1
10
43.8838501384
20
-3.01750131635356
30
0
0
SPLINE
5
1C8
100
AcDbEntity
8
1
62
256
6
ByLayer
370
18
48
1
60
0
100
AcDbSpline
70
4
71
3
72
25
73
21
40
0
40
0
40
0
40
0
40
0.124999999999999
40
0.124999999999999
40
0.249999999999998
40
0.249999999999998
40
0.312499999999998
40
0.312499999999998
40
0.374999999999997
40
0.374999999999997
40
0.499999999999997
40
0.624999999999996
40
0.624999999999996
40
0.687499999999996
40
0.687499999999996
40
0.718749999999997
40
0.718749999999997
40
0.749999999999997
40
0.749999999999997
40
1
40
1
40
1
40
1
41
1
10
45.0569812060657
20
0.597927223644547
30
0
41
1
10
45.050093218402
20
0.736869600117274
30
0
41
1
10
45.0431556648851
20
0.874292002959152
30
0
41
1
10
45.0292027216094
20
1.14612053817353
30
0
41
1
10
45.0221868941195
20
1.2805270215309
30
0
41
1
10
45.0116241605963
20
1.47979258606867
30
0
41
1
10
45.008088260878
20
1.54597757403312
30
0
41
1
10
45.0010872656293
20
1.67609362613607
30
0
41
1
10
44.9976156389549
20
1.74016583829933
30
0
41
1
10
44.9872879733992
20
1.92945495829628
30
0
41
1
10
44.9737623554846
20
2.17404182734313
30
0
41
1
10
44.9604353794258
20
2.40315235296006
30
0
41
1
10
44.9502698215722
20
2.56913839752045
30
0
41
1
10
44.9468541235171
20
2.62349139756432
30
0
41
1
10
44.9417003339325
20
2.70353659328433
30
0
41
1
10
44.939980243236
20
2.72992088240284
30
0
41
1
10
44.9365453158794
20
2.78193070990125
30
0
41
1
10
44.9348287662796
20
2.80758286238839
30
0
41
1
10
44.9193702184128
20
3.03532980819247
30
0
41
1
10
44.9055578454656
20
3.21579068128184
30
0
41
1
10
44.8915925836245
20
3.37363063993291
30
0
0
SPLINE
5
1C9
100
AcDbEntity
8
1
62
256
6
ByLayer
370
18
48
1
60
0
100
AcDbSpline
70
4
71
3
72
8
73
4
40
0
40
0
40
0
40
0
40
1
40
1
40
1
40
1
41
1
10
44.8843524483409
20
3.38015523204103
30
0
41
1
10
44.8867657974277
20
3.37798200723517
30
0
41
1
10
44.8891791755174
20
3.37580714253843
30
0
41
1
10
44.8915925836245
20
3.37363063993291
30
0
0
SPLINE
5
1CA
100
AcDbEntity
8
1
62
256
6
ByLayer
370
18
48
1
60
0
100
AcDbSpline
70
4
71
3
72
23
73
19
40
0
40
0
40
0
40
0
40
0.125
40
0.125
40
0.25
40
0.25
40
0.375000000000001
40
0.375000000000001
40
0.437500000000001
40
0.437500000000001
40
0.500000000000001
40
0.500000000000001
40
0.625000000000001
40
0.75
40
0.75
40
0.875
40
0.875
40
1
40
1
40
1
40
1
41
1
10
45.0527811225071
20
0.602482377825282
30
0
41
1
10
45.0452236398315
20
0.743310227028928
30
0
41
1
10
45.0379360788445
20
0.881608450569104
30
0
41
1
10
45.0240473105386
20
1.15336931336691
30
0
41
1
10
45.0174452255659
20
1.28683103823792
30
0
41
1
10
45.0045766513402
20
1.54895300590473
30
0
41
1
10
44.9983029680516
20
1.67761291931609
30
0
41
1
10
44.9885263513425
20
1.86689824034161
30
0
41
1
10
44.9852067355245
20
1.92937475956029
30
0
41
1
10
44.9783804068187
20
2.05305973020978
30
0
41
1
10
44.9748635815156
20
2.11442422503808
30
0
41
1
10
44.9641195383294
20
2.29441625291636
30
0
41
1
10
44.9491814794176
20
2.52461802301642
30
0
41
1
10
44.9336910712679
20
2.73583529754592
30
0
41
1
10
44.9189062590986
20
2.9375599525101
30
0
41
1
10
44.9119921085455
20
3.03368058126935
30
0
41
1
10
44.8981198910724
20
3.21604169650061
30
0
41
1
10
44.89122108974
20
3.30113006393324
30
0
41
1
10
44.8843524483409
20
3.38015523204103
30
0
0
SPLINE
5
1CB
100
AcDbEntity
8
1
62
256
6
ByLayer
370
18
48
1
60
0
100
AcDbSpline
70
4
71
3
72
8
73
4
40
0
40
0
40
0
40
0
40
1
40
1
40
1
40
1
41
1
10
45.0569812060657
20
0.597927223644575
30
0
41
1
10
45.0555810695744
20
0.599445346692363
30
0
41
1
10
45.054181041932
20
0.60096373161204
30
0
41
1
10
45.0527811225071
20
0.602482377825282
30
0
0
SPLINE
5
1CC
100
AcDbEntity
8
1
62
256
6
ByLayer
370
18
48
1
60
0
100
AcDbSpline
70
4
71
3
72
96
73
92
40
0
40
0
40
0
40
0
40
0.0625000000000025
40
0.0625000000000025
40
0.125000000000005
40
0.125000000000005
40
0.156250000000005
40
0.156250000000005
40
0.171875000000005
40
0.171875000000005
40
0.187500000000005
40
0.187500000000005
40
0.218750000000008
40
0.218750000000008
40
0.25000000000001
40
0.25000000000001
40
0.265625000000011
40
0.265625000000011
40
0.281250000000013
40
0.296875000000014
40
0.296875000000014
40
0.312500000000015
40
0.312500000000015
40
0.343750000000015
40
0.343750000000015
40
0.375000000000015
40
0.375000000000015
40
0.406250000000015
40
0.406250000000015
40
0.421875000000015
40
0.421875000000015
40
0.437500000000015
40
0.437500000000015
40
0.468750000000017
40
0.468750000000017
40
0.484375000000018
40
0.484375000000018
40
0.500000000000019
40
0.500000000000019
40
0.515625000000021
40
0.515625000000021
40
0.523437500000021
40
0.523437500000021
40
0.531250000000022
40
0.531250000000022
40
0.546875000000023
40
0.546875000000023
40
0.554687500000023
40
0.554687500000023
40
0.558593750000023
40
0.558593750000023
40
0.562500000000023
40
0.578125000000023
40
0.578125000000023
40
0.585937500000024
40
0.585937500000024
40
0.593750000000025
40
0.593750000000025
40
0.609375000000026
40
0.609375000000026
40
0.617187500000026
40
0.617187500000026
40
0.625000000000027
40
0.625000000000027
40
0.656250000000028
40
0.656250000000028
40
0.664062500000028
40
0.664062500000028
40
0.671875000000028
40
0.671875000000028
40
0.687500000000027
40
0.687500000000027
40
0.718750000000025
40
0.718750000000025
40
0.734375000000024
40
0.734375000000024
40
0.750000000000022
40
0.750000000000022
40
0.781250000000018
40
0.781250000000018
40
0.812500000000015
40
0.812500000000015
40
0.87500000000001
40
0.87500000000001
40
0.906250000000008
40
0.906250000000008
40
0.921875000000008
40
0.921875000000008
40
0.937500000000007
40
0.937500000000007
40
1
40
1
40
1
40
1
41
1
10
22.587728144535
20
0.412504648166419
30
0
41
1
10
22.4602903755662
20
0.52147996498104
30
0
41
1
10
22.3301906893327
20
0.624980734848862
30
0
41
1
10
22.0619225697999
20
0.817959600144491
30
0
41
1
10
21.9238000099865
20
0.907504400287195
30
0
41
1
10
21.7086661846209
20
1.02937814745206
30
0
41
1
10
21.6356358657396
20
1.06793819517051
30
0
41
1
10
21.5237607207857
20
1.12229692001821
30
0
41
1
10
21.4860175089805
20
1.13986685734022
30
0
41
1
10
21.4101734699225
20
1.17359423495475
30
0
41
1
10
21.3720471154665
20
1.18976612384657
30
0
41
1
10
21.257030769584
20
1.23617983198127
30
0
41
1
10
21.1795126644016
20
1.2643476189258
30
0
41
1
10
21.022610574375
20
1.31481324951534
30
0
41
1
10
20.9432417200439
20
1.33715599422598
30
0
41
1
10
20.8226130212977
20
1.36590297854329
30
0
41
1
10
20.7821303981271
20
1.37465989354055
30
0
41
1
10
20.7005678800752
20
1.39039688566206
30
0
41
1
10
20.6184372693263
20
1.4044427489217
30
0
41
1
10
20.5353381186
20
1.41562995681451
30
0
41
1
10
20.4518534193183
20
1.42568615796594
30
0
41
1
10
20.409876805303
20
1.43018751670823
30
0
41
1
10
20.2841536599502
20
1.44166785358547
30
0
41
1
10
20.2004029679683
20
1.44676921122078
30
0
41
1
10
20.0330431201818
20
1.45144499513742
30
0
41
1
10
19.9494340361534
20
1.45101727210596
30
0
41
1
10
19.7823776305094
20
1.44384002436206
30
0
41
1
10
19.6989300684168
20
1.43710145439775
30
0
41
1
10
19.5739048455664
20
1.42121657759859
30
0
41
1
10
19.5322126742024
20
1.41495598390713
30
0
41
1
10
19.4490577589951
20
1.40027483585769
30
0
41
1
10
19.4078492883743
20
1.39189169553697
30
0
41
1
10
19.2854479611379
20
1.36324045051327
30
0
41
1
10
19.2054500507804
20
1.33956287867656
30
0
41
1
10
19.0885584586412
20
1.29488961948971
30
0
41
1
10
19.0500421931823
20
1.27838791210979
30
0
41
1
10
18.9755275055879
20
1.24228417170022
30
0
41
1
10
18.9393718144895
20
1.22265283918452
30
0
41
1
10
18.8695229375194
20
1.17978592698373
30
0
41
1
10
18.8358268482305
20
1.15655504628805
30
0
41
1
10
18.7874563300458
20
1.11846296427095
30
0
41
1
10
18.7716538144415
20
1.1051827371677
30
0
41
1
10
18.7410581433249
20
1.07758351853173
30
0
41
1
10
18.7263380525378
20
1.06333533937982
30
0
41
1
10
18.6840056318841
20
1.01915681726723
30
0
41
1
10
18.6582714625881
20
0.987757097969592
30
0
41
1
10
18.6235816893224
20
0.937509227619671
30
0
41
1
10
18.6126662734089
20
0.920238007165779
30
0
41
1
10
18.5973042965805
20
0.893505758165503
30
0
41
1
10
18.5923491540171
20
0.884448964824855
30
0
41
1
10
18.5828693161549
20
0.866225263831211
30
0
41
1
10
18.5601875102735
20
0.820290293522646
30
0
41
1
10
18.5424894946667
20
0.772497923213734
30
0
41
1
10
18.5258056917084
20
0.71339064989516
30
0
41
1
10
18.5210048764133
20
0.693395016462546
30
0
41
1
10
18.5129017092614
20
0.652816549968747
30
0
41
1
10
18.5095932323193
20
0.632156510948136
30
0
41
1
10
18.5019818468037
20
0.570154783430695
30
0
41
1
10
18.5000048996931
20
0.52863724513216
30
0
41
1
10
18.5007140724657
20
0.466096122050772
30
0
41
1
10
18.5015460906425
20
0.445205115853298
30
0
41
1
10
18.5044465199695
20
0.403334470799649
30
0
41
1
10
18.5065215959619
20
0.382305351000667
30
0
41
1
10
18.5199776118883
20
0.277525517915763
30
0
41
1
10
18.5403675831002
20
0.195951422809799
30
0
41
1
10
18.5760628559741
20
0.0963721200552072
30
0
41
1
10
18.5837002329353
20
0.0765458070908664
30
0
41
1
10
18.5998042367823
20
0.03719899560474
30
0
41
1
10
18.6082353640736
20
0.0177613401634176
30
0
41
1
10
18.6345146825862
20
-0.0399358574046289
30
0
41
1
10
18.6533418787262
20
-0.0775838128192561
30
0
41
1
10
18.7128856279455
20
-0.188597635291444
30
0
41
1
10
18.7566188770382
20
-0.26006098465237
30
0
41
1
10
18.8262653639794
20
-0.364652277443014
30
0
41
1
10
18.8501714496483
20
-0.399072350406499
30
0
41
1
10
18.8991542912543
20
-0.467152240976731
30
0
41
1
10
18.9242415115045
20
-0.500820416346215
30
0
41
1
10
19.0004480400322
20
-0.600121149945721
30
0
41
1
10
19.052685240921
20
-0.664333163004216
30
0
41
1
10
19.1591632690956
20
-0.789696415564293
30
0
41
1
10
19.2134091875765
20
-0.850841936636471
30
0
41
1
10
19.3783362399097
20
-1.03053462138945
30
0
41
1
10
19.4911616948441
20
-1.1453899267714
30
0
41
1
10
19.662868240391
20
-1.31207356102061
30
0
41
1
10
19.7205304292489
20
-1.36668444112098
30
0
41
1
10
19.8075302964311
20
-1.4472889168386
30
0
41
1
10
19.8366113781209
20
-1.47393391573379
30
0
41
1
10
19.8947594303766
20
-1.52664622241951
30
0
41
1
10
19.9238473512384
20
-1.55273303807812
30
0
41
1
10
20.0693256890501
20
-1.68185427343778
30
0
41
1
10
20.185804439029
20
-1.78099013291308
30
0
41
1
10
20.3022135249323
20
-1.87605866031794
30
0
0
SPLINE
5
1CD
100
AcDbEntity
8
1
62
256
6
ByLayer
370
18
48
1
60
0
100
AcDbSpline
70
4
71
3
72
38
73
34
40
0
40
0
40
0
40
0
40
0.101989559113829
40
0.101989559113829
40
0.157354962917
40
0.157354962917
40
0.212720366720171
40
0.212720366720171
40
0.268085770523342
40
0.268085770523342
40
0.323451174326513
40
0.323451174326513
40
0.378816578129684
40
0.378816578129684
40
0.434181981932855
40
0.434181981932855
40
0.489547385736026
40
0.489547385736026
40
0.544912789539197
40
0.544912789539197
40
0.655643597145539
40
0.655643597145539
40
0.76637440475188
40
0.76637440475188
40
0.821739808555052
40
0.821739808555052
40
0.877105212358224
40
0.877105212358224
40
0.932470616161395
40
0.932470616161395
40
0.987836019964567
40
0.987836019964567
40
1
40
1
40
1
40
1
41
1
10
22.5877276981584
20
0.412505084616015
30
0
41
1
10
22.5361949016269
20
0.462891784026112
30
0
41
1
10
22.4728755674425
20
0.498119222905558
30
0
41
1
10
22.3561560222514
20
0.526282321672767
30
0
41
1
10
22.311262475033
20
0.53105607978847
30
0
41
1
10
22.2163451553006
20
0.529160830321587
30
0
41
1
10
22.1659773821515
20
0.522578601080852
30
0
41
1
10
22.0589965359801
20
0.49731774366586
30
0
41
1
10
22.0016580409125
20
0.478254659325557
30
0
41
1
10
21.8843625425421
20
0.427493918629608
30
0
41
1
10
21.8239710244594
20
0.395003505492269
30
0
41
1
10
21.7014783981747
20
0.323051996965489
30
0
41
1
10
21.6387545353774
20
0.282527183470989
30
0
41
1
10
21.5139650356977
20
0.194187824137998
30
0
41
1
10
21.451783951205
20
0.14635448110559
30
0
41
1
10
21.3278783912348
20
0.042858440668482
30
0
41
1
10
21.2655830013531
20
-0.0133828435520513
30
0
41
1
10
21.144896628706
20
-0.131280455845001
30
0
41
1
10
21.086508809931
20
-0.192831133327559
30
0
41
1
10
20.9171743449123
20
-0.385239398309892
30
0
41
1
10
20.8109970996027
20
-0.525757289339708
30
0
41
1
10
20.6289187295049
20
-0.807687919449535
30
0
41
1
10
20.5500742619297
20
-0.952308218888533
30
0
41
1
10
20.4522584799775
20
-1.16235575546369
30
0
41
1
10
20.4221459842838
20
-1.23179063025745
30
0
41
1
10
20.3710716554335
20
-1.3685277009933
30
0
41
1
10
20.3511696370195
20
-1.43477194403096
30
0
41
1
10
20.3214640488028
20
-1.56024231478952
30
0
41
1
10
20.3114403639521
20
-1.62011192393425
30
0
41
1
10
20.2997502265895
20
-1.73489199031843
30
0
41
1
10
20.2981071110472
20
-1.79011855179147
30
0
41
1
10
20.3007366415269
20
-1.85363266591082
30
0
41
1
10
20.3013875590197
20
-1.86492118363702
30
0
41
1
10
20.3022135769423
20
-1.87605936163382
30
0
0
SPLINE
5
1CE
100
AcDbEntity
8
SK1
62
256
6
ByLayer
370
18
48
1
60
0
100
AcDbSpline
70
4
71
3
72
26
73
22
40
0
40
0
40
0
40
0
40
0.0624992375325999
40
0.0624992375325999
40
0.1249984750652
40
0.1249984750652
40
0.249996950130399
40
0.249996950130399
40
0.499993900260798
40
0.499993900260798
40
0.624992375325998
40
0.624992375325998
40
0.687491612858597
40
0.718741231624897
40
0.718741231624897
40
0.749990850391197
40
0.749990850391197
40
0.874989325456397
40
0.874989325456397
40
0.999987800521596
40
1
40
1
40
1
40
1
41
1
10
-22.8
20
3.14999999999998
30
0
41
1
10
-22.824120925586
20
3.14999999999998
30
0
41
1
10
-22.8479151514507
20
3.14999999999998
30
0
41
1
10
-22.8947867145164
20
3.14999999999998
30
0
41
1
10
-22.9178338410641
20
3.14999999999998
30
0
41
1
10
-22.9855751607774
20
3.14999999999998
30
0
41
1
10
-23.0289260574685
20
3.14999999999998
30
0
41
1
10
-23.1526095357627
20
3.14999999999998
30
0
41
1
10
-23.2266350709144
20
3.14999999999998
30
0
41
1
10
-23.3202375643878
20
3.14999999999998
30
0
41
1
10
-23.3485170387162
20
3.14999999999998
30
0
41
1
10
-23.3858171090766
20
3.14999999999998
30
0
41
1
10
-23.4031859219768
20
3.14999999999998
30
0
41
1
10
-23.4184825992824
20
3.14999999999998
30
0
41
1
10
-23.4282024655764
20
3.14999999999998
30
0
41
1
10
-23.4328237127763
20
3.14999999999998
30
0
41
1
10
-23.4545916469895
20
3.14999999999998
30
0
41
1
10
-23.4678135091906
20
3.14999999999998
30
0
41
1
10
-23.4855091371263
20
3.14999999999998
30
0
41
1
10
-23.4899823737636
20
3.15000000000001
30
0
41
1
10
-23.4899994991043
20
3.15000000000001
30
0
41
1
10
-23.4900004992043
20
3.15000000000849
30
0
0
SPLINE
5
1CF
100
AcDbEntity
8
SK1
62
256
6
ByLayer
370
18
48
1
60
0
100
AcDbSpline
70
4
71
3
72
26
73
22
40
0
40
0
40
0
40
0
40
1.21737139004E-05
40
0.125010651999663
40
0.125010651999663
40
0.250009130285426
40
0.250009130285426
40
0.281258749856867
40
0.281258749856867
40
0.312508369428308
40
0.375007608571189
40
0.375007608571189
40
0.500006086856951
40
0.500006086856951
40
0.750003043428476
40
0.750003043428476
40
0.875001521714238
40
0.875001521714238
40
0.937500760857119
40
0.937500760857119
40
1
40
1
40
1
40
1
41
1
10
-23.4900004991954
20
-3.15000000000003
30
0
41
1
10
-23.4899994990954
20
-3.15000000000003
30
0
41
1
10
-23.4899823728417
20
-3.15000000000003
30
0
41
1
10
-23.4855091371263
20
-3.15000000000003
30
0
41
1
10
-23.4678135091906
20
-3.15000000000003
30
0
41
1
10
-23.4545916469895
20
-3.15000000000003
30
0
41
1
10
-23.4328237127763
20
-3.15000000000003
30
0
41
1
10
-23.4282024655764
20
-3.15000000000003
30
0
41
1
10
-23.4184825992824
20
-3.15000000000003
30
0
41
1
10
-23.4031859219768
20
-3.15000000000003
30
0
41
1
10
-23.3858171090766
20
-3.15000000000003
30
0
41
1
10
-23.3485170387162
20
-3.15000000000003
30
0
41
1
10
-23.3202375643878
20
-3.15000000000003
30
0
41
1
10
-23.2266350709144
20
-3.15000000000003
30
0
41
1
10
-23.1526095357627
20
-3.15000000000003
30
0
41
1
10
-23.0289260574685
20
-3.15000000000003
30
0
41
1
10
-22.9855751607774
20
-3.15000000000003
30
0
41
1
10
-22.9178338410641
20
-3.15000000000003
30
0
41
1
10
-22.8947867145164
20
-3.15000000000003
30
0
41
1
10
-22.8479151514507
20
-3.15000000000003
30
0
41
1
10
-22.824120925586
20
-3.15000000000003
30
0
41
1
10
-22.8
20
-3.15000000000003
30
0
0
SPLINE
5
1D0
100
AcDbEntity
8
SK1
62
256
6
ByLayer
370
18
48
1
60
0
100
AcDbSpline
70
4
71
3
72
40
73
36
40
0
40
0
40
0
40
0
40
0.0625
40
0.0625
40
0.0937500000000001
40
0.0937500000000001
40
0.125
40
0.125
40
0.25
40
0.25
40
0.375
40
0.375
40
0.40625
40
0.40625
40
0.4375
40
0.4375
40
0.5
40
0.5625
40
0.5625
40
0.625
40
0.625
40
0.640625
40
0.640625
40
0.65625
40
0.6875
40
0.6875
40
0.75
40
0.75
40
0.875
40
0.875
40
0.9375
40
0.9375
40
0.96875
40
0.96875
40
1
40
1
40
1
40
1
41
1
10
-22.8
20
-2.196155732183
30
0
41
1
10
-22.8480619101973
20
-2.11211900725823
30
0
41
1
10
-22.8948264013153
20
-2.02711776672834
30
0
41
1
10
-22.9626270243987
20
-1.89787177929867
30
0
41
1
10
-22.9848590776699
20
-1.85444983037547
30
0
41
1
10
-23.0283219938532
20
-1.76724277657945
30
0
41
1
10
-23.0495500621243
20
-1.72346619600711
30
0
41
1
10
-23.1529700280821
20
-1.50364809155991
30
0
41
1
10
-23.2270684230993
20
-1.32482421031853
30
0
41
1
10
-23.3517205558224
20
-0.959082344035778
30
0
41
1
10
-23.4022611123952
20
-0.7721598276284
30
0
41
1
10
-23.445783016996
20
-0.531750167329164
30
0
41
1
10
-23.4535131563517
20
-0.48321925383604
30
0
41
1
10
-23.4667591323867
20
-0.386341877648505
30
0
41
1
10
-23.4722925807117
20
-0.337924336247966
30
0
41
1
10
-23.4855813675326
20
-0.192735985523484
30
0
41
1
10
-23.494454737337
20
0.0006768107419077
30
0
41
1
10
-23.4855091371263
20
0.19374376160539
30
0
41
1
10
-23.4678135091906
20
0.386640884647591
30
0
41
1
10
-23.4545916469895
20
0.483004550999766
30
0
41
1
10
-23.4328237127763
20
0.603357419887715
30
0
41
1
10
-23.4282024655764
20
0.627451698474289
30
0
41
1
10
-23.4184825992824
20
0.675445478862144
30
0
41
1
10
-23.4031859219768
20
0.747160916964788
30
0
41
1
10
-23.3858171090766
20
0.818080795537469
30
0
41
1
10
-23.3485170387162
20
0.95893674776454
30
0
41
1
10
-23.3202375643878
20
1.05153044724972
30
0
41
1
10
-23.2266350709144
20
1.32594673704335
30
0
41
1
10
-23.1526095357627
20
1.50442815143589
30
0
41
1
10
-23.0289260574685
20
1.76729538324085
30
0
41
1
10
-22.9855751607774
20
1.85410267872774
30
0
41
1
10
-22.9178338410641
20
1.98327125582003
30
0
41
1
10
-22.8947867145164
20
2.02617763427554
30
0
41
1
10
-22.8479151514507
20
2.11155884371527
30
0
41
1
10
-22.824120925586
20
2.15398005543417
30
0
41
1
10
-22.8
20
2.19615573218292
30
0
0
SPLINE
5
1D1
100
AcDbEntity
8
1
62
256
6
ByLayer
370
18
48
1
60
0
100
AcDbSpline
70
4
71
1
72
4
73
2
40
0
40
0
40
1
40
1
41
1
10
39.6406849947257
20
4.05398904575696
30
0
41
1
10
39.5951206241037
20
3.97538826494059
30
0
0
SPLINE
5
1D2
100
AcDbEntity
8
1
62
256
6
ByLayer
370
18
48
1
60
0
100
AcDbSpline
70
4
71
1
72
4
73
2
40
0
40
0
40
1
40
1
41
1
10
39.1620836684637
20
-4.05415253393571
30
0
41
1
10
39.2508490329703
20
-3.9011714358731
30
0
0
SPLINE
5
1D3
100
AcDbEntity
8
1
62
256
6
ByLayer
370
18
48
1
60
0
100
AcDbSpline
70
4
71
1
72
4
73
2
40
0
40
0
40
1
40
1
41
1
10
46.302872570209
20
-3.61923722714886
30
0
41
1
10
46.8287780360643
20
-3.44720866935614
30
0
0
SPLINE
5
1D4
100
AcDbEntity
8
1
62
256
6
ByLayer
370
18
48
1
60
0
100
AcDbSpline
70
4
71
1
72
4
73
2
40
0
40
0
40
1
40
1
41
1
10
48
20
2.94085994012406
30
0
41
1
10
47.8118928876007
20
3.12892398230071
30
0
0
SPLINE
5
1D5
100
AcDbEntity
8
1
62
256
6
ByLayer
370
18
48
1
60
0
100
AcDbSpline
70
4
71
3
72
11
73
7
40
0
40
0
40
0
40
0
40
0.242387772785023
40
0.500374225788078
40
0.758126276988781
40
1
40
1
40
1
40
1
41
1
10
38.3254916237832
20
-3.34208689401277
30
0
41
1
10
38.3386555200578
20
-3.31850863056078
30
0
41
1
10
38.3745259152063
20
-3.28209718263659
30
0
41
1
10
38.4700278288333
20
-3.2534333011503
30
0
41
1
10
38.5655960164196
20
-3.28796656308504
30
0
41
1
10
38.6014737437818
20
-3.32870817970741
30
0
41
1
10
38.6146521464816
20
-3.35442873314179
30
0
0
SPLINE
5
1D6
100
AcDbEntity
8
1
62
256
6
ByLayer
370
18
48
1
60
0
100
AcDbSpline
70
4
71
3
72
11
73
7
40
0
40
0
40
0
40
0
40
0.24357958072686
40
0.500270875717609
40
0.756759153747066
40
1
40
1
40
1
40
1
41
1
10
45.8254281270051
20
-3.34240740219599
30
0
41
1
10
45.8381557474823
20
-3.31921366642786
30
0
41
1
10
45.8732491855954
20
-3.28355187879782
30
0
41
1
10
45.9683643464126
20
-3.25427428039202
30
0
41
1
10
46.0635540888744
20
-3.28820072276361
30
0
41
1
10
46.0986355830956
20
-3.32727110600803
30
0
41
1
10
46.1113640405445
20
-3.35216305239965
30
0
0
SPLINE
5
1D7
100
AcDbEntity
8
1
62
256
6
ByLayer
370
18
48
1
60
0
100
AcDbSpline
70
4
71
2
72
6
73
3
40
0
40
0
40
0
40
1
40
1
40
1
41
1
10
45.5110152486741
20
-3.88405753058302
30
0
41
1
10
45.6692288041725
20
-3.61129236129403
30
0
41
1
10
45.8277197388158
20
-3.33869727076683
30
0
0
SPLINE
5
1D8
100
AcDbEntity
8
1
62
256
6
ByLayer
370
18
48
1
60
0
100
AcDbSpline
70
4
71
2
72
6
73
3
40
0
40
0
40
0
40
1
40
1
40
1
41
1
10
40.8907986327312
20
4.0541683573102
30
0
41
1
10
40.6832949575551
20
3.69598256364449
30
0
41
1
10
40.4753994917041
20
3.33802999325553
30
0
0
SPLINE
5
1D9
100
AcDbEntity
8
1
62
256
6
ByLayer
370
18
48
1
60
0
100
AcDbSpline
70
4
71
2
72
6
73
3
40
0
40
0
40
0
40
1
40
1
40
1
41
1
10
37.9118137221547
20
-4.05484884402276
30
0
41
1
10
38.1195455791745
20
-3.69650629515917
30
0
41
1
10
38.3277322031083
20
-3.33844459329498
30
0
0
SPLINE
5
1DA
100
AcDbEntity
8
1
62
256
6
ByLayer
370
18
48
1
60
0
100
AcDbSpline
70
4
71
2
72
6
73
3
40
0
40
0
40
0
40
1
40
1
40
1
41
1
10
41.4558251732135
20
3.3328977460304
30
0
41
1
10
41.2474709997034
20
3.69105109806034
30
0
41
1
10
41.039623601158
20
4.0496203125951
30
0
0
SPLINE
5
1DB
100
AcDbEntity
8
1
62
256
6
ByLayer
370
18
48
1
60
0
100
AcDbSpline
70
4
71
2
72
6
73
3
40
0
40
0
40
0
40
1
40
1
40
1
41
1
10
37.3486796753338
20
-3.33508746029079
30
0
41
1
10
37.5572416407061
20
-3.69436399778891
30
0
41
1
10
37.76565835663
20
-4.05412852689827
30
0
0
SPLINE
5
1DC
100
AcDbEntity
8
1
62
256
6
ByLayer
370
18
48
1
60
0
100
AcDbSpline
70
4
71
1
72
4
73
2
40
0
40
0
40
1
40
1
41
1
10
45.2355997897962
20
-3.98063275715151
30
0
41
1
10
45.5037877983386
20
-3.8925719069791
30
0
0
SPLINE
5
1DD
100
AcDbEntity
8
1
62
256
6
ByLayer
370
18
48
1
60
0
100
AcDbSpline
70
4
71
2
72
6
73
3
40
0
40
0
40
0
40
1
40
1
40
1
41
1
10
44.8503039926799
20
-3.33805024021012
30
0
41
1
10
45.033802065032
20
-3.65401451862007
30
0
41
1
10
45.216990018708
20
-3.9701786847794
30
0
0
SPLINE
5
1DE
100
AcDbEntity
8
1
62
256
6
ByLayer
370
18
48
1
60
0
100
AcDbSpline
70
4
71
3
72
10
73
6
40
0
40
0
40
0
40
0
40
0.463832086077864
40
0.726235381911999
40
1
40
1
40
1
40
1
41
1
10
41.722959328262
20
3.33349886569115
30
0
41
1
10
41.6985980056218
20
3.29181696991722
30
0
41
1
10
41.6478336224044
20
3.25731546839586
30
0
41
1
10
41.5072096885983
20
3.27429183979385
30
0
41
1
10
41.468710731581
20
3.31165724043987
30
0
41
1
10
41.4531139657168
20
3.33786971807768
30
0
0
SPLINE
5
1DF
100
AcDbEntity
8
1
62
256
6
ByLayer
370
18
48
1
60
0
100
AcDbSpline
70
4
71
3
72
11
73
7
40
0
40
0
40
0
40
0
40
0.243576606436525
40
0.49495159095322
40
0.749257091844564
40
1
40
1
40
1
40
1
41
1
10
37.078593070593
20
-3.33689121470948
30
0
41
1
10
37.0885272547398
20
-3.317743004666
30
0
41
1
10
37.1187543660011
20
-3.28796885992102
30
0
41
1
10
37.208228346863
20
-3.2552788916542
30
0
41
1
10
37.3043579288288
20
-3.28318402018883
30
0
41
1
10
37.3382351409155
20
-3.3161284167555
30
0
41
1
10
37.3504051223337
20
-3.33818356432965
30
0
0
SPLINE
5
1E0
100
AcDbEntity
8
1
62
256
6
ByLayer
370
18
48
1
60
0
100
AcDbSpline
70
4
71
3
72
11
73
7
40
0
40
0
40
0
40
0
40
0.266466074947937
40
0.527236600649134
40
0.772112687512258
40
1
40
1
40
1
40
1
41
1
10
44.5763961326998
20
-3.34063700943838
30
0
41
1
10
44.5929358980672
20
-3.31318120900818
30
0
41
1
10
44.6336873785285
20
-3.27488193603361
30
0
41
1
10
44.7408506883505
20
-3.25709444101409
30
0
41
1
10
44.8192118288886
20
-3.29749144041773
30
0
41
1
10
44.8437146949859
20
-3.32318804333735
30
0
41
1
10
44.8504256556762
20
-3.33826008456506
30
0
0
SPLINE
5
1E1
100
AcDbEntity
8
1
62
256
6
ByLayer
370
18
48
1
60
0
100
AcDbSpline
70
4
71
2
72
6
73
3
40
0
40
0
40
0
40
1
40
1
40
1
41
1
10
35.2029330846197
20
3.33820107599965
30
0
41
1
10
35.1672723467801
20
3.39950955567539
30
0
41
1
10
35.131637760304
20
3.46083543064742
30
0
0
SPLINE
5
1E2
100
AcDbEntity
8
1
62
256
6
ByLayer
370
18
48
1
60
0
100
AcDbSpline
70
4
71
2
72
6
73
3
40
0
40
0
40
0
40
1
40
1
40
1
41
1
10
42.1440306506301
20
4.05915765689011
30
0
41
1
10
41.9373068034445
20
3.70218754532706
30
0
41
1
10
41.7304583420778
20
3.34555513848528
30
0
0
SPLINE
5
1E3
100
AcDbEntity
8
1
62
256
6
ByLayer
370
18
48
1
60
0
100
AcDbSpline
70
4
71
2
72
6
73
3
40
0
40
0
40
0
40
1
40
1
40
1
41
1
10
36.6559116995113
20
-4.06287528087987
30
0
41
1
10
36.8625777011767
20
-3.70615153169055
30
0
41
1
10
37.0693638205276
20
-3.34970411614378
30
0
0
SPLINE
5
1E4
100
AcDbEntity
8
1
62
256
6
ByLayer
370
18
48
1
60
0
100
AcDbSpline
70
4
71
2
72
6
73
3
40
0
40
0
40
0
40
1
40
1
40
1
41
1
10
42.7862260343154
20
3.27724035138593
30
0
41
1
10
42.7254960150545
20
3.29058473651472
30
0
41
1
10
42.7127564649137
20
3.31718135589861
30
0
0
SPLINE
5
1E5
100
AcDbEntity
8
1
62
256
6
ByLayer
370
18
48
1
60
0
100
AcDbSpline
70
4
71
2
72
6
73
3
40
0
40
0
40
0
40
1
40
1
40
1
41
1
10
42.7012088140073
20
3.34102981437937
30
0
41
1
10
42.4938134888268
20
3.69782744055482
30
0
41
1
10
42.2866608398129
20
4.05512007211402
30
0
0
SPLINE
5
1E6
100
AcDbEntity
8
1
62
256
6
ByLayer
370
18
48
1
60
0
100
AcDbSpline
70
4
71
2
72
6
73
3
40
0
40
0
40
0
40
1
40
1
40
1
41
1
10
36.0612489430157
20
-3.2955105858002
30
0
41
1
10
36.0700388407784
20
-3.30165932564316
30
0
41
1
10
36.0750423075089
20
-3.30357973663982
30
0
0
SPLINE
5
1E7
100
AcDbEntity
8
1
62
256
6
ByLayer
370
18
48
1
60
0
100
AcDbSpline
70
4
71
2
72
6
73
3
40
0
40
0
40
0
40
1
40
1
40
1
41
1
10
35.2431653378519
20
3.29517587704205
30
0
41
1
10
35.2341494020989
20
3.30124852196755
30
0
41
1
10
35.2283312226324
20
3.304158896491
30
0
0
SPLINE
5
1E8
100
AcDbEntity
8
1
62
256
6
ByLayer
370
18
48
1
60
0
100
AcDbSpline
70
4
71
2
72
6
73
3
40
0
40
0
40
0
40
1
40
1
40
1
41
1
10
44.1527656220269
20
-4.06589580497803
30
0
41
1
10
44.3593828641387
20
-3.7091490413402
30
0
41
1
10
44.5661053682523
20
-3.35256080017004
30
0
0
SPLINE
5
1E9
100
AcDbEntity
8
1
62
256
6
ByLayer
370
18
48
1
60
0
100
AcDbSpline
70
4
71
2
72
6
73
3
40
0
40
0
40
0
40
1
40
1
40
1
41
1
10
36.1002829708335
20
-3.33776208291454
30
0
41
1
10
36.307260586404
20
-3.69409799197359
30
0
41
1
10
36.5140788467918
20
-4.05099530071803
30
0
0
SPLINE
5
1EA
100
AcDbEntity
8
1
62
256
6
ByLayer
370
18
48
1
60
0
100
AcDbSpline
70
4
71
2
72
6
73
3
40
0
40
0
40
0
40
1
40
1
40
1
41
1
10
43.5977675535456
20
-3.33343822401577
30
0
41
1
10
43.8045798063655
20
-3.68919113807635
30
0
41
1
10
44.0112668203758
20
-4.04562631631794
30
0
0
LINE
5
81
100
AcDbEntity
8
80
62
256
6
ByLayer
370
18
48
1
60
0
100
AcDbLine
10
0
20
0
30
0
11
-5
21
0
31
0
39
0
210
0
220
0
230
1
0
LINE
5
82
100
AcDbEntity
8
4
62
256
6
ByLayer
370
18
48
0.05
60
0
100
AcDbLine
10
0
20
0
30
0
11
49.55
21
0
31
0
39
0
210
0
220
0
230
1
0
LINE
5
84
100
AcDbEntity
8
81
62
256
6
ByLayer
370
18
48
1
60
0
100
AcDbLine
10
49.55
20
0
30
0
11
54.55
21
0
31
0
39
0
210
0
220
0
230
1
0
LINE
5
85
100
AcDbEntity
8
SK4
62
256
6
ByLayer
370
18
48
0.05
60
0
100
AcDbLine
10
-24
20
0
30
0
11
49.55
21
0
31
0
39
0
210
0
220
0
230
1
0
LINE
5
87
100
AcDbEntity
8
1
62
256
6
ByLayer
370
18
48
1
60
0
100
AcDbLine
10
0
20
4
30
0
11
0
21
-4
31
0
39
0
210
0
220
0
230
1
0
LINE
5
88
100
AcDbEntity
8
1
62
256
6
ByLayer
370
18
48
1
60
0
100
AcDbLine
10
39.638085
20
4.049502
30
0
11
39.640985
21
4.054086
31
0
39
0
210
0
220
0
230
1
0
LINE
5
89
100
AcDbEntity
8
1
62
256
6
ByLayer
370
18
48
1
60
0
100
AcDbLine
10
39.164657
20
-4.049718
30
0
11
39.159389
21
-4.057394
31
0
39
0
210
0
220
0
230
1
0
LINE
5
8A
100
AcDbEntity
8
1
62
256
6
ByLayer
370
18
48
1
60
0
100
AcDbLine
10
48
20
2.94086
30
0
11
48
21
2.938244
31
0
39
0
210
0
220
0
230
1
0
LINE
5
8B
100
AcDbEntity
8
1
62
256
6
ByLayer
370
18
48
1
60
0
100
AcDbLine
10
40.189145
20
3.353666
30
0
11
40.185165
21
3.355165
31
0
39
0
210
0
220
0
230
1
0
LINE
5
8C
100
AcDbEntity
8
1
62
256
6
ByLayer
370
18
48
1
60
0
100
AcDbLine
10
38.615106
20
-3.354654
30
0
11
38.608147
21
-3.349259
31
0
39
0
210
0
220
0
230
1
0
LINE
5
8D
100
AcDbEntity
8
1
62
256
6
ByLayer
370
18
48
1
60
0
100
AcDbLine
10
45.827578
20
-3.33894
30
0
11
45.824681
21
-3.34352
31
0
39
0
210
0
220
0
230
1
0
LINE
5
8E
100
AcDbEntity
8
1
62
256
6
ByLayer
370
18
48
1
60
0
100
AcDbLine
10
38.327675
20
-3.338542
30
0
11
38.325014
21
-3.342808
31
0
39
0
210
0
220
0
230
1
0
LINE
5
8F
100
AcDbEntity
8
1
62
256
6
ByLayer
370
18
48
1
60
0
100
AcDbLine
10
41.455859
20
3.332833
30
0
11
41.452147
21
3.339493
31
0
39
0
210
0
220
0
230
1
0
LINE
5
90
100
AcDbEntity
8
1
62
256
6
ByLayer
370
18
48
1
60
0
100
AcDbLine
10
44.852762
20
-3.342047
30
0
11
44.850301
21
-3.338046
31
0
39
0
210
0
220
0
230
1
0
LINE
5
91
100
AcDbEntity
8
1
62
256
6
ByLayer
370
13
48
1
60
0
100
AcDbLine
10
34.506918
20
-1.190011
30
0
11
34.506918
21
-2.736036
31
0
39
0
210
0
220
0
230
1
0
LINE
5
92
100
AcDbEntity
8
1
62
256
6
ByLayer
370
13
48
1
60
0
100
AcDbLine
10
34.506918
20
3.128549
30
0
11
34.506918
21
2.681961
31
0
39
0
210
0
220
0
230
1
0
LINE
5
93
100
AcDbEntity
8
1
62
256
6
ByLayer
370
13
48
1
60
0
100
AcDbLine
10
34.043384
20
2.75776
30
0
11
34.043384
21
3
31
0
39
0
210
0
220
0
230
1
0
LINE
5
94
100
AcDbEntity
8
1
62
256
6
ByLayer
370
13
48
1
60
0
100
AcDbLine
10
34.043384
20
-2.401655
30
0
11
34.043384
21
-0.789254
31
0
39
0
210
0
220
0
230
1
0
LINE
5
95
100
AcDbEntity
8
1
62
256
6
ByLayer
370
13
48
1
60
0
100
AcDbLine
10
17.096238
20
-3
30
0
11
17.096238
21
3
31
0
39
0
210
0
220
0
230
1
0
LINE
5
96
100
AcDbEntity
8
1
62
256
6
ByLayer
370
18
48
1
60
0
100
AcDbLine
10
36
20
3.953295
30
0
11
36
21
3.609132
31
0
39
0
210
0
220
0
230
1
0
LINE
5
97
100
AcDbEntity
8
1
62
256
6
ByLayer
370
13
48
1
60
0
100
AcDbLine
10
16.905225
20
3.016711
30
0
11
16.905225
21
-3.016711
31
0
39
0
210
0
220
0
230
1
0
LINE
5
98
100
AcDbEntity
8
1
62
256
6
ByLayer
370
18
48
1
60
0
100
AcDbLine
10
11.328718
20
4
30
0
11
11.328718
21
-4
31
0
39
0
210
0
220
0
230
1
0
LINE
5
99
100
AcDbEntity
8
SK1
62
256
6
ByLayer
370
18
48
1
60
0
100
AcDbLine
10
-24
20
2.64
30
0
11
-24
21
-2.64
31
0
39
0
210
0
220
0
230
1
0
LINE
5
9B
100
AcDbEntity
8
SK1
62
256
6
ByLayer
370
18
48
1
60
0
100
AcDbLine
10
-15
20
3.15
30
0
11
-14.31
21
3.84
31
0
39
0
210
0
220
0
230
1
0
LINE
5
9C
100
AcDbEntity
8
SK1
62
256
6
ByLayer
370
18
48
1
60
0
100
AcDbLine
10
-22.8
20
3.15
30
0
11
-15
21
3.15
31
0
39
0
210
0
220
0
230
1
0
LINE
5
9D
100
AcDbEntity
8
SK1
62
256
6
ByLayer
370
18
48
1
60
0
100
AcDbLine
10
-22.8
20
2.196156
30
0
11
-22.8
21
3.15
31
0
39
0
210
0
220
0
230
1
0
LINE
5
9E
100
AcDbEntity
8
SK1
62
256
6
ByLayer
370
18
48
1
60
0
100
AcDbLine
10
-15
20
2.196156
30
0
11
-22.8
21
2.196156
31
0
39
0
210
0
220
0
230
1
0
LINE
5
9F
100
AcDbEntity
8
SK1
62
256
6
ByLayer
370
18
48
1
60
0
100
AcDbLine
10
-22.8
20
-2.196156
30
0
11
-15
21
-2.196156
31
0
39
0
210
0
220
0
230
1
0
LINE
5
A0
100
AcDbEntity
8
SK1
62
256
6
ByLayer
370
18
48
1
60
0
100
AcDbLine
10
-22.8
20
-3.15
30
0
11
-22.8
21
-2.196156
31
0
39
0
210
0
220
0
230
1
0
LINE
5
A1
100
AcDbEntity
8
SK1
62
256
6
ByLayer
370
18
48
1
60
0
100
AcDbLine
10
-15
20
-3.15
30
0
11
-22.8
21
-3.15
31
0
39
0
210
0
220
0
230
1
0
LINE
5
A2
100
AcDbEntity
8
SK1
62
256
6
ByLayer
370
18
48
1
60
0
100
AcDbLine
10
-15
20
-3.15
30
0
11
-14.31
21
-3.84
31
0
39
0
210
0
220
0
230
1
0
LINE
5
A3
100
AcDbEntity
8
SK1
62
256
6
ByLayer
370
18
48
1
60
0
100
AcDbLine
10
-15
20
2.196156
30
0
11
-15
21
-2.196156
31
0
39
0
210
0
220
0
230
1
0
LINE
5
A4
100
AcDbEntity
8
SK1
62
256
6
ByLayer
370
18
48
1
60
0
100
AcDbLine
10
0
20
4
30
0
11
0
21
-4
31
0
39
0
210
0
220
0
230
1
0
LINE
5
A5
100
AcDbEntity
8
SK1
62
256
6
ByLayer
370
18
48
1
60
0
100
AcDbLine
10
-14.1
20
3.84
30
0
11
-14.1
21
-3.84
31
0
39
0
210
0
220
0
230
1
0
LINE
5
A6
100
AcDbEntity
8
SK1
62
256
6
ByLayer
370
18
48
1
60
0
100
AcDbLine
10
-13.94
20
-4
30
0
11
-13.94
21
4
31
0
39
0
210
0
220
0
230
1
0
LINE
5
A7
100
AcDbEntity
8
1
62
256
6
ByLayer
370
18
48
1
60
0
100
AcDbLine
10
35.044412
20
3.451508
30
0
11
34.506918
21
3.128549
31
0
39
0
210
0
220
0
230
1
0
LINE
5
A8
100
AcDbEntity
8
1
62
256
6
ByLayer
370
18
48
1
60
0
100
AcDbLine
10
11.328718
20
4
30
0
11
0
21
4
31
0
39
0
210
0
220
0
230
1
0
LINE
5
A9
100
AcDbEntity
8
1
62
256
6
ByLayer
370
18
48
1
60
0
100
AcDbLine
10
0
20
-4
30
0
11
11.328718
21
-4
31
0
39
0
210
0
220
0
230
1
0
LINE
5
AA
100
AcDbEntity
8
1
62
256
6
ByLayer
370
18
48
1
60
0
100
AcDbLine
10
36.080575
20
-3.303982
30
0
11
36.0845
21
-3.304267
31
0
39
0
210
0
220
0
230
1
0
LINE
5
AB
100
AcDbEntity
8
1
62
256
6
ByLayer
370
18
48
1
60
0
100
AcDbLine
10
35.218808
20
3.306508
30
0
11
35.216624
21
3.307047
31
0
39
0
210
0
220
0
230
1
0
LINE
5
AC
100
AcDbEntity
8
1
62
256
6
ByLayer
370
18
48
1
60
0
100
AcDbLine
10
43.573101
20
-3.303736
30
0
11
43.578508
21
-3.304443
31
0
39
0
210
0
220
0
230
1
0
LINE
5
AD
100
AcDbEntity
8
1
62
256
6
ByLayer
370
18
48
1
60
0
100
AcDbLine
10
41.022865
20
4.064208
30
0
11
40.904989
21
4.064208
31
0
39
0
210
0
220
0
230
1
0
LINE
5
AE
100
AcDbEntity
8
1
62
256
6
ByLayer
370
18
48
1
60
0
100
AcDbLine
10
37.779933
20
-4.064208
30
0
11
37.898046
21
-4.064208
31
0
39
0
210
0
220
0
230
1
0
LINE
5
AF
100
AcDbEntity
8
1
62
256
6
ByLayer
370
18
48
1
60
0
100
AcDbLine
10
49.55
20
0
30
0
11
48
21
1.55
31
0
39
0
210
0
220
0
230
1
0
LINE
5
B0
100
AcDbEntity
8
1
62
256
6
ByLayer
370
18
48
1
60
0
100
AcDbLine
10
48
20
-1.55
30
0
11
49.55
21
0
31
0
39
0
210
0
220
0
230
1
0
LINE
5
B1
100
AcDbEntity
8
1
62
256
6
ByLayer
370
18
48
1
60
0
100
AcDbLine
10
42.27302
20
4.064208
30
0
11
42.155015
21
4.064208
31
0
39
0
210
0
220
0
230
1
0
LINE
5
B2
100
AcDbEntity
8
1
62
256
6
ByLayer
370
18
48
1
60
0
100
AcDbLine
10
36.529987
20
-4.064208
30
0
11
36.647921
21
-4.064208
31
0
39
0
210
0
220
0
230
1
0
LINE
5
B3
100
AcDbEntity
8
1
62
256
6
ByLayer
370
18
48
1
60
0
100
AcDbLine
10
44.029915
20
-4.064208
30
0
11
44.147969
21
-4.064208
31
0
39
0
210
0
220
0
230
1
0
LINE
5
B4
100
AcDbEntity
8
1
62
256
6
ByLayer
370
18
48
1
60
0
100
AcDbLine
10
17.096238
20
-3
30
0
11
23.55489
21
-3
31
0
39
0
210
0
220
0
230
1
0
LINE
5
B5
100
AcDbEntity
8
1
62
256
6
ByLayer
370
18
48
1
60
0
100
AcDbLine
10
28.781208
20
-3
30
0
11
31.169582
21
-3
31
0
39
0
210
0
220
0
230
1
0
LINE
5
B6
100
AcDbEntity
8
1
62
256
6
ByLayer
370
18
48
1
60
0
100
AcDbLine
10
34.043384
20
3
30
0
11
32.577743
21
3
31
0
39
0
210
0
220
0
230
1
0
LINE
5
B7
100
AcDbEntity
8
1
62
256
6
ByLayer
370
18
48
1
60
0
100
AcDbLine
10
27.36351
20
3
30
0
11
24.985873
21
3
31
0
39
0
210
0
220
0
230
1
0
LINE
5
B8
100
AcDbEntity
8
1
62
256
6
ByLayer
370
18
48
1
60
0
100
AcDbLine
10
19.865501
20
3
30
0
11
17.096238
21
3
31
0
39
0
210
0
220
0
230
1
0
LINE
5
B9
100
AcDbEntity
8
1
62
256
6
ByLayer
370
18
48
1
60
0
100
AcDbLine
10
16.905225
20
3.016711
30
0
11
11.328718
21
4
31
0
39
0
210
0
220
0
230
1
0
LINE
5
BA
100
AcDbEntity
8
1
62
256
6
ByLayer
370
18
48
1
60
0
100
AcDbLine
10
11.328718
20
-4
30
0
11
16.905225
21
-3.016711
31
0
39
0
210
0
220
0
230
1
0
LINE
5
BB
100
AcDbEntity
8
SK1
62
256
6
ByLayer
370
18
48
1
60
0
100
AcDbLine
10
-24
20
-2.64
30
0
11
-23.49
21
-3.15
31
0
39
0
210
0
220
0
230
1
0
LINE
5
BC
100
AcDbEntity
8
SK1
62
256
6
ByLayer
370
18
48
1
60
0
100
AcDbLine
10
-23.49
20
3.15
30
0
11
-24
21
2.64
31
0
39
0
210
0
220
0
230
1
0
LINE
5
BD
100
AcDbEntity
8
SK1
62
256
6
ByLayer
370
18
48
1
60
0
100
AcDbLine
10
-14.1
20
3.84
30
0
11
-14.31
21
3.84
31
0
39
0
210
0
220
0
230
1
0
LINE
5
BE
100
AcDbEntity
8
SK1
62
256
6
ByLayer
370
18
48
1
60
0
100
AcDbLine
10
-14.31
20
-3.84
30
0
11
-14.1
21
-3.84
31
0
39
0
210
0
220
0
230
1
0
LINE
5
BF
100
AcDbEntity
8
SK1
62
256
6
ByLayer
370
18
48
1
60
0
100
AcDbLine
10
0
20
4
30
0
11
-13.94
21
4
31
0
39
0
210
0
220
0
230
1
0
LINE
5
C0
100
AcDbEntity
8
SK1
62
256
6
ByLayer
370
18
48
1
60
0
100
AcDbLine
10
-13.94
20
-4
30
0
11
0
21
-4
31
0
39
0
210
0
220
0
230
1
0
LINE
5
C1
100
AcDbEntity
8
SK1
62
256
6
ByLayer
370
18
48
1
60
0
100
AcDbLine
10
-14.1
20
-3.84
30
0
11
-13.94
21
-4
31
0
39
0
210
0
220
0
230
1
0
LINE
5
C2
100
AcDbEntity
8
SK1
62
256
6
ByLayer
370
18
48
1
60
0
100
AcDbLine
10
-13.94
20
4
30
0
11
-14.1
21
3.84
31
0
39
0
210
0
220
0
230
1
0
LINE
5
C3
100
AcDbEntity
8
SK2
62
256
6
ByLayer
370
18
48
1
60
0
100
AcDbLine
10
6.694359
20
-4
30
0
11
6.694359
21
18.841828
31
0
39
0
210
0
220
0
230
1
0
LINE
5
C5
100
AcDbEntity
8
1
62
256
6
ByLayer
370
18
48
1
60
1
100
AcDbLine
10
6.694359
20
4
30
0
11
7.155143
21
0.500002
31
0
39
0
210
0
220
0
230
1
0
LINE
5
C6
100
AcDbEntity
8
1
62
256
6
ByLayer
370
18
48
1
60
1
100
AcDbLine
10
7.155143
20
0.500002
30
0
11
6.233575
21
0.499998
31
0
39
0
210
0
220
0
230
1
0
LINE
5
C7
100
AcDbEntity
8
1
62
256
6
ByLayer
370
18
48
1
60
1
100
AcDbLine
10
6.233575
20
0.499998
30
0
11
6.694359
21
4
31
0
39
0
210
0
220
0
230
1
0
LINE
5
C8
100
AcDbEntity
8
1
62
256
6
ByLayer
370
18
48
1
60
1
100
AcDbLine
10
6.694359
20
-4
30
0
11
6.233575
21
-0.500002
31
0
39
0
210
0
220
0
230
1
0
LINE
5
C9
100
AcDbEntity
8
1
62
256
6
ByLayer
370
18
48
1
60
1
100
AcDbLine
10
6.233575
20
-0.500002
30
0
11
7.155143
21
-0.499998
31
0
39
0
210
0
220
0
230
1
0
LINE
5
CA
100
AcDbEntity
8
1
62
256
6
ByLayer
370
18
48
1
60
1
100
AcDbLine
10
7.155143
20
-0.499998
30
0
11
6.694359
21
-4
31
0
39
0
210
0
220
0
230
1
0
LINE
5
CB
100
AcDbEntity
8
2
62
256
6
ByLayer
370
18
48
1
60
0
100
AcDbLine
10
48
20
-41.564208
30
0
11
-24
21
-41.564208
31
0
39
0
210
0
220
0
230
1
0
LINE
5
CD
100
AcDbEntity
8
2
62
256
6
ByLayer
370
18
48
1
60
0
100
AcDbLine
10
-24
20
-4.2275
30
0
11
-24
21
-43.564208
31
0
39
0
210
0
220
0
230
1
0
LINE
5
CE
100
AcDbEntity
8
2
62
256
6
ByLayer
370
18
48
1
60
0
100
AcDbLine
10
48
20
-5.651708
30
0
11
48
21
-43.564208
31
0
39
0
210
0
220
0
230
1
0
LINE
5
CF
100
AcDbEntity
8
1
62
256
6
ByLayer
370
18
48
1
60
1
100
AcDbLine
10
-24
20
-41.564208
30
0
11
-20.500002
21
-41.103425
31
0
39
0
210
0
220
0
230
1
0
LINE
5
D0
100
AcDbEntity
8
1
62
256
6
ByLayer
370
18
48
1
60
1
100
AcDbLine
10
-20.500002
20
-41.103425
30
0
11
-20.499998
21
-42.024992
31
0
39
0
210
0
220
0
230
1
0
LINE
5
D1
100
AcDbEntity
8
1
62
256
6
ByLayer
370
18
48
1
60
1
100
AcDbLine
10
-20.499998
20
-42.024992
30
0
11
-24
21
-41.564208
31
0
39
0
210
0
220
0
230
1
0
LINE
5
D2
100
AcDbEntity
8
1
62
256
6
ByLayer
370
18
48
1
60
1
100
AcDbLine
10
48
20
-41.564208
30
0
11
44.500002
21
-42.024992
31
0
39
0
210
0
220
0
230
1
0
LINE
5
D3
100
AcDbEntity
8
1
62
256
6
ByLayer
370
18
48
1
60
1
100
AcDbLine
10
44.500002
20
-42.024992
30
0
11
44.499998
21
-41.103425
31
0
39
0
210
0
220
0
230
1
0
LINE
5
D4
100
AcDbEntity
8
1
62
256
6
ByLayer
370
18
48
1
60
1
100
AcDbLine
10
44.499998
20
-41.103425
30
0
11
48
21
-41.564208
31
0
39
0
210
0
220
0
230
1
0
LINE
5
1EF
100
AcDbEntity
8
1
62
256
6
ByLayer
370
18
48
1
60
1
100
AcDbLine
10
6.694359
20
4
30
0
11
7.155143
21
0.500002
31
0
39
0
210
0
220
0
230
1
0
LINE
5
1F0
100
AcDbEntity
8
1
62
256
6
ByLayer
370
18
48
1
60
1
100
AcDbLine
10
7.155143
20
0.500002
30
0
11
6.233575
21
0.499998
31
0
39
0
210
0
220
0
230
1
0
LINE
5
1F1
100
AcDbEntity
8
1
62
256
6
ByLayer
370
18
48
1
60
1
100
AcDbLine
10
6.233575
20
0.499998
30
0
11
6.694359
21
4
31
0
39
0
210
0
220
0
230
1
0
LINE
5
1F3
100
AcDbEntity
8
1
62
256
6
ByLayer
370
18
48
1
60
1
100
AcDbLine
10
6.694359
20
-4
30
0
11
6.233575
21
-0.500002
31
0
39
0
210
0
220
0
230
1
0
LINE
5
1F4
100
AcDbEntity
8
1
62
256
6
ByLayer
370
18
48
1
60
1
100
AcDbLine
10
6.233575
20
-0.500002
30
0
11
7.155143
21
-0.499998
31
0
39
0
210
0
220
0
230
1
0
LINE
5
1F5
100
AcDbEntity
8
1
62
256
6
ByLayer
370
18
48
1
60
1
100
AcDbLine
10
7.155143
20
-0.499998
30
0
11
6.694359
21
-4
31
0
39
0
210
0
220
0
230
1
0
LINE
5
1F8
100
AcDbEntity
8
1
62
256
6
ByLayer
370
18
48
1
60
1
100
AcDbLine
10
-24
20
-41.564208
30
0
11
-20.500002
21
-41.103425
31
0
39
0
210
0
220
0
230
1
0
LINE
5
1F9
100
AcDbEntity
8
1
62
256
6
ByLayer
370
18
48
1
60
1
100
AcDbLine
10
-20.500002
20
-41.103425
30
0
11
-20.499998
21
-42.024992
31
0
39
0
210
0
220
0
230
1
0
LINE
5
1FA
100
AcDbEntity
8
1
62
256
6
ByLayer
370
18
48
1
60
1
100
AcDbLine
10
-20.499998
20
-42.024992
30
0
11
-24
21
-41.564208
31
0
39
0
210
0
220
0
230
1
0
LINE
5
1FC
100
AcDbEntity
8
1
62
256
6
ByLayer
370
18
48
1
60
1
100
AcDbLine
10
48
20
-41.564208
30
0
11
44.500002
21
-42.024992
31
0
39
0
210
0
220
0
230
1
0
LINE
5
1FD
100
AcDbEntity
8
1
62
256
6
ByLayer
370
18
48
1
60
1
100
AcDbLine
10
44.500002
20
-42.024992
30
0
11
44.499998
21
-41.103425
31
0
39
0
210
0
220
0
230
1
0
LINE
5
1FE
100
AcDbEntity
8
1
62
256
6
ByLayer
370
18
48
1
60
1
100
AcDbLine
10
44.499998
20
-41.103425
30
0
11
48
21
-41.564208
31
0
39
0
210
0
220
0
230
1
0
MTEXT
5
1EB
100
AcDbEntity
8
SK2
62
256
6
ByLayer
370
18
48
1
60
0
100
AcDbMText
10
5.353245
20
11.658437
30
0
210
0
220
0
230
1
1
%%c
40
3
41
0
44
1.084337
50
90
71
7
72
5
7
iso_b_vert
0
MTEXT
5
1EE
100
AcDbEntity
8
SK2
62
256
6
ByLayer
370
18
48
1
60
0
100
AcDbMText
10
5.353245
20
17.635
30
0
210
0
220
0
230
1
1
\W0.5404;8
40
3
41
0
44
1.084337
50
90
71
7
72
5
7
iso_b_vert
0
MTEXT
5
1F7
100
AcDbEntity
8
2
62
256
6
ByLayer
370
18
48
1
60
0
100
AcDbMText
10
10.367172
20
-40.679094
30
0
210
0
220
0
230
1
1
\W0.6740;72
40
3
41
0
44
1.084337
50
0
71
7
72
5
7
iso_b_vert
0
MTEXT
5
200
100
AcDbEntity
8
SK6
62
256
6
ByLayer
370
18
48
1
60
0
100
AcDbMText
10
-5.739736
20
-82.114886
30
0
210
0
220
0
230
1
1
\W0.7334;T300-MM100IA-M8     C145
40
3
41
0
44
1.084337
50
0
71
7
72
5
7
iso_b_vert
0
HATCH
5
1F2
100
AcDbEntity
8
SK2
62
256
6
ByLayer
370
13
48
1
60
0
100
AcDbHatch
10
0
20
0
30
0
210
0
220
0
230
1
2
ANSI31
70
0
71
0
91
1
92
5
93
3
72
1
10
6.69435909019117
20
4
11
7.15514283174394
21
0.500001692553184
72
1
10
7.15514283174394
20
0.500001692553184
11
6.2335753486384
21
0.499998307446816
72
1
10
6.2335753486384
20
0.499998307446816
11
6.69435909019117
21
4
97
0
75
0
76
1
52
0
41
0.0062
77
0
78
1
53
45
43
0
44
0
45
-0.0139193969876572
46
0.0139193969876572
79
0
47
0
98
1
10
0
20
0
0
HATCH
5
1F6
100
AcDbEntity
8
SK2
62
256
6
ByLayer
370
13
48
1
60
0
100
AcDbHatch
10
0
20
0
30
0
210
0
220
0
230
1
2
ANSI31
70
0
71
0
91
1
92
5
93
3
72
1
10
6.69435909019117
20
-4
11
6.2335753486384
21
-0.500001692553184
72
1
10
6.2335753486384
20
-0.500001692553184
11
7.15514283174394
21
-0.499998307446816
72
1
10
7.15514283174394
20
-0.499998307446816
11
6.69435909019117
21
-4
97
0
75
0
76
1
52
0
41
0.0062
77
0
78
1
53
45
43
0
44
0
45
-0.0139193969876572
46
0.0139193969876572
79
0
47
0
98
1
10
0
20
0
0
HATCH
5
1FB
100
AcDbEntity
8
2
62
256
6
ByLayer
370
13
48
1
60
0
100
AcDbHatch
10
0
20
0
30
0
210
0
220
0
230
1
2
ANSI31
70
0
71
0
91
1
92
5
93
3
72
1
10
-24
20
-41.564208331254
11
-20.5000016925532
21
-41.1034245897012
72
1
10
-20.5000016925532
20
-41.1034245897012
11
-20.4999983074468
21
-42.0249920728067
72
1
10
-20.4999983074468
20
-42.0249920728067
11
-24
21
-41.564208331254
97
0
75
0
76
1
52
0
41
0.0062
77
0
78
1
53
45
43
0
44
0
45
-0.0139193969876572
46
0.0139193969876572
79
0
47
0
98
1
10
0
20
0
0
HATCH
5
1FF
100
AcDbEntity
8
2
62
256
6
ByLayer
370
13
48
1
60
0
100
AcDbHatch
10
0
20
0
30
0
210
0
220
0
230
1
2
ANSI31
70
0
71
0
91
1
92
5
93
3
72
1
10
48
20
-41.564208331254
11
44.5000016925532
21
-42.0249920728067
72
1
10
44.5000016925532
20
-42.0249920728067
11
44.4999983074468
21
-41.1034245897012
72
1
10
44.4999983074468
20
-41.1034245897012
11
48
21
-41.564208331254
97
0
75
0
76
1
52
0
41
0.0062
77
0
78
1
53
45
43
0
44
0
45
-0.0139193969876572
46
0.0139193969876572
79
0
47
0
98
1
10
0
20
0
0
DIMENSION
5
203
100
AcDbEntity
8
2
62
256
6
ByLayer
370
18
48
1
60
0
100
AcDbDimension
2
_U0
10
67.5
20
-4.064208
30
0
11
67.5
21
21.564208
31
0
70
32
71
1
72
1
41
1
210
0
220
0
230
1
3
Standard
100
AcDbAlignedDimension
13
48
23
4.064208
33
0
14
48
24
-4.064208
34
0
50
90
100
AcDbRotatedDimension
1001
ACAD
1000
DSTYLE
1002
{
1070
   371
1070
    13
1070
   372
1070
    13
1070
     3
1000

1070
   170
1070
     0
1070
   144
1040
1.0
1070
   277
1070
     2
1070
   284
1070
     8
1070
   278
1070
    46
1070
   146
1040
1.166667
1070
   345
1005
16
1070
   347
1005
16
1070
   346
1005
16
1070
   344
1005
0
1070
   343
1005
0
1070
   172
1070
     1
1070
    76
1070
     0
1070
    75
1070
     0
1070
   282
1070
     0
1070
   281
1070
     0
1070
    71
1070
     0
1070
    74
1070
     0
1070
   279
1070
     0
1070
   173
1070
     1
1070
   340
1005
1EC
1070
   271
1070
     3
1070
   272
1070
     3
1070
    77
1070
     1
1070
    73
1070
     0
1070
   171
1070
     3
1070
   274
1070
     4
1070
   177
1070
     2
1070
   176
1070
     2
1070
   178
1070
     2
1070
    78
1070
     8
1070
    48
1040
-0.1
1070
    41
1040
3.5
1070
   147
1040
1.5
1070
    42
1040
1.5875
1070
    44
1040
2.0
1070
   140
1040
3.0
1002
}
1001
ACAD_DSTYLE_DIM_LINETYPE
1070
   380
1005
16
1001
ACAD_DSTYLE_DIM_EXT1_LINETYPE
1070
   381
1005
16
1001
ACAD_DSTYLE_DIM_EXT2_LINETYPE
1070
   382
1005
16
0
DIMENSION
5
21E
100
AcDbEntity
8
SK2
62
256
6
ByLayer
370
18
48
1
60
0
100
AcDbDimension
2
_U1
10
-28.9
20
3.15
30
0
11
-28.9
21
17.721429
31
0
70
32
71
1
72
1
41
1
210
0
220
0
230
1
3
Standard
100
AcDbAlignedDimension
13
-22.8
23
-3.15
33
0
14
-23.49
24
3.15
34
0
50
90
100
AcDbRotatedDimension
1001
ACAD
1000
DSTYLE
1002
{
1070
   371
1070
    13
1070
   372
1070
    13
1070
     3
1000

1070
   170
1070
     0
1070
   144
1040
1.0
1070
   277
1070
     2
1070
   284
1070
     8
1070
   278
1070
    46
1070
   146
1040
1.166667
1070
   345
1005
16
1070
   347
1005
16
1070
   346
1005
16
1070
   344
1005
0
1070
   343
1005
0
1070
   172
1070
     1
1070
    76
1070
     0
1070
    75
1070
     0
1070
   282
1070
     0
1070
   281
1070
     0
1070
    71
1070
     0
1070
    74
1070
     0
1070
   279
1070
     0
1070
   173
1070
     1
1070
   340
1005
1EC
1070
   271
1070
     3
1070
   272
1070
     3
1070
    77
1070
     1
1070
    73
1070
     0
1070
   171
1070
     3
1070
   274
1070
     4
1070
   177
1070
     2
1070
   176
1070
     2
1070
   178
1070
     2
1070
    78
1070
     8
1070
    48
1040
-0.1
1070
    41
1040
3.5
1070
   147
1040
1.5
1070
    42
1040
1.5875
1070
    44
1040
2.0
1070
   140
1040
3.0
1002
}
1001
ACAD_DSTYLE_DIM_LINETYPE
1070
   380
1005
16
1001
ACAD_DSTYLE_DIM_EXT1_LINETYPE
1070
   381
1005
16
1001
ACAD_DSTYLE_DIM_EXT2_LINETYPE
1070
   382
1005
16
0
DIMENSION
5
238
100
AcDbEntity
8
SK2
62
256
6
ByLayer
370
18
48
1
60
0
100
AcDbDimension
2
_U2
10
45.19
20
13.015325
30
0
11
46.595
21
13.015325
31
0
70
32
71
1
72
1
41
1
210
0
220
0
230
1
3
Standard
100
AcDbAlignedDimension
13
48
23
4.064208
33
0
14
45.19
24
0
34
0
50
0
100
AcDbRotatedDimension
1001
ACAD
1000
DSTYLE
1002
{
1070
   371
1070
    13
1070
   372
1070
    13
1070
   170
1070
     0
1070
   144
1040
1.0
1070
   277
1070
     2
1070
   284
1070
     8
1070
   278
1070
    46
1070
   146
1040
1.166667
1070
   345
1005
16
1070
   347
1005
16
1070
   346
1005
16
1070
   344
1005
0
1070
   343
1005
0
1070
   172
1070
     1
1070
    76
1070
     0
1070
    75
1070
     0
1070
   282
1070
     0
1070
   281
1070
     0
1070
    71
1070
     0
1070
    74
1070
     0
1070
   279
1070
     0
1070
   173
1070
     1
1070
   340
1005
1EC
1070
   271
1070
     3
1070
   272
1070
     3
1070
    77
1070
     1
1070
    73
1070
     1
1070
   171
1070
     3
1070
   274
1070
     4
1070
   177
1070
     2
1070
   176
1070
     2
1070
   178
1070
     2
1070
    78
1070
     8
1070
    48
1040
-0.1
1070
    41
1040
3.5
1070
   147
1040
1.5
1070
    42
1040
1.5875
1070
    44
1040
2.0
1070
   140
1040
3.0
1002
}
1001
ACAD_DSTYLE_DIM_LINETYPE
1070
   380
1005
16
1001
ACAD_DSTYLE_DIM_EXT1_LINETYPE
1070
   381
1005
16
1001
ACAD_DSTYLE_DIM_EXT2_LINETYPE
1070
   382
1005
16
0
DIMENSION
5
252
100
AcDbEntity
8
SK2
62
256
6
ByLayer
370
18
48
1
60
0
100
AcDbDimension
2
_U3
10
36
20
-11.064208
30
0
11
39.818182
21
-11.064208
31
0
70
32
71
1
72
1
41
1
210
0
220
0
230
1
3
Standard
100
AcDbAlignedDimension
13
48
23
-4.064208
33
0
14
36
24
-4.064208
34
0
50
0
100
AcDbRotatedDimension
1001
ACAD
1000
DSTYLE
1002
{
1070
   371
1070
    13
1070
   372
1070
    13
1070
   170
1070
     0
1070
   144
1040
1.0
1070
   277
1070
     2
1070
   284
1070
     8
1070
   278
1070
    46
1070
   146
1040
1.166667
1070
   345
1005
16
1070
   347
1005
16
1070
   346
1005
16
1070
   344
1005
0
1070
   343
1005
0
1070
   172
1070
     1
1070
    76
1070
     0
1070
    75
1070
     0
1070
   282
1070
     0
1070
   281
1070
     0
1070
    71
1070
     0
1070
    74
1070
     0
1070
   279
1070
     0
1070
   173
1070
     1
1070
   340
1005
1EC
1070
   271
1070
     1
1070
   272
1070
     3
1070
    77
1070
     1
1070
    73
1070
     1
1070
   171
1070
     3
1070
   274
1070
     4
1070
   177
1070
     2
1070
   176
1070
     2
1070
   178
1070
     2
1070
    78
1070
     8
1070
    48
1040
-0.1
1070
    41
1040
3.5
1070
   147
1040
1.5
1070
    42
1040
1.5875
1070
    44
1040
2.0
1070
   140
1040
3.0
1002
}
1001
ACAD_DSTYLE_DIM_LINETYPE
1070
   380
1005
16
1001
ACAD_DSTYLE_DIM_EXT1_LINETYPE
1070
   381
1005
16
1001
ACAD_DSTYLE_DIM_EXT2_LINETYPE
1070
   382
1005
16
0
DIMENSION
5
26B
100
AcDbEntity
8
SK2
62
256
6
ByLayer
370
18
48
1
60
0
100
AcDbDimension
2
_U4
10
17
20
-33.564208
30
0
11
32.5
21
-33.564208
31
0
70
32
71
1
72
1
41
1
210
0
220
0
230
1
3
Standard
100
AcDbAlignedDimension
13
48
23
-4.064208
33
0
14
17
24
-3
34
0
50
0
100
AcDbRotatedDimension
1001
ACAD
1000
DSTYLE
1002
{
1070
   371
1070
    13
1070
   372
1070
    13
1070
   170
1070
     0
1070
   144
1040
1.0
1070
   277
1070
     2
1070
   284
1070
     8
1070
   278
1070
    46
1070
   146
1040
1.166667
1070
   345
1005
16
1070
   347
1005
16
1070
   346
1005
16
1070
   344
1005
0
1070
   343
1005
0
1070
   172
1070
     1
1070
    76
1070
     0
1070
    75
1070
     0
1070
   282
1070
     0
1070
   281
1070
     0
1070
    71
1070
     0
1070
    74
1070
     0
1070
   279
1070
     0
1070
   173
1070
     1
1070
   340
1005
1EC
1070
   271
1070
     1
1070
   272
1070
     3
1070
    77
1070
     1
1070
    73
1070
     1
1070
   171
1070
     3
1070
   274
1070
     4
1070
   177
1070
     2
1070
   176
1070
     2
1070
   178
1070
     2
1070
    78
1070
     8
1070
    48
1040
-0.1
1070
    41
1040
3.5
1070
   147
1040
1.5
1070
    42
1040
1.5875
1070
    44
1040
2.0
1070
   140
1040
3.0
1002
}
1001
ACAD_DSTYLE_DIM_LINETYPE
1070
   380
1005
16
1001
ACAD_DSTYLE_DIM_EXT1_LINETYPE
1070
   381
1005
16
1001
ACAD_DSTYLE_DIM_EXT2_LINETYPE
1070
   382
1005
16
0
DIMENSION
5
283
100
AcDbEntity
8
2
62
256
6
ByLayer
370
18
48
1
60
0
100
AcDbDimension
2
_U5
10
18.5
20
-22.564208
30
0
11
33.25
21
-22.564208
31
0
70
32
71
1
72
1
41
1
210
0
220
0
230
1
3
Standard
100
AcDbAlignedDimension
13
48
23
-4.064208
33
0
14
18.5
24
0
34
0
50
0
100
AcDbRotatedDimension
1001
ACAD
1000
DSTYLE
1002
{
1070
   371
1070
    13
1070
   372
1070
    13
1070
   170
1070
     0
1070
   144
1040
1.0
1070
   277
1070
     2
1070
   284
1070
     8
1070
   278
1070
    46
1070
   146
1040
1.166667
1070
   345
1005
16
1070
   347
1005
16
1070
   346
1005
16
1070
   344
1005
0
1070
   343
1005
0
1070
   172
1070
     1
1070
    76
1070
     0
1070
    75
1070
     0
1070
   282
1070
     0
1070
   281
1070
     0
1070
    71
1070
     0
1070
    74
1070
     0
1070
   279
1070
     0
1070
   173
1070
     1
1070
   340
1005
1EC
1070
   271
1070
     1
1070
   272
1070
     3
1070
    77
1070
     1
1070
    73
1070
     1
1070
   171
1070
     3
1070
   274
1070
     4
1070
   177
1070
     2
1070
   176
1070
     2
1070
   178
1070
     2
1070
    78
1070
     8
1070
    48
1040
-0.1
1070
    41
1040
3.5
1070
   147
1040
1.5
1070
    42
1040
1.5875
1070
    44
1040
2.0
1070
   140
1040
3.0
1002
}
1001
ACAD_DSTYLE_DIM_LINETYPE
1070
   380
1005
16
1001
ACAD_DSTYLE_DIM_EXT1_LINETYPE
1070
   381
1005
16
1001
ACAD_DSTYLE_DIM_EXT2_LINETYPE
1070
   382
1005
16
0
ENDSEC
0
SECTION
2
OBJECTS
0
DICTIONARY
5
30b
330
0
100
AcDbDictionary
280
0
281
1
3
ACAD_GROUP
350
30c
3
ACAD_MLINESTYLE
350
30d
0
DICTIONARY
5
30c
330
0
100
AcDbDictionary
280
0
281
1
0
DICTIONARY
5
30d
330
0
100
AcDbDictionary
280
0
281
1
3
Standard
350
18
0
MLINESTYLE
5
18
330
30d
100
AcDbMlineStyle
2
Standard
70
0
3

62
256
51
90
52
90
71
2
49
-0.5
62
256
6
ByLayer
49
0.5
62
256
6
ByLayer
0
RASTERVARIABLES
5
2f9
330

100
AcDbRasterVariables
90
0
70
1
71
1
72
1
0
ENDSEC
0
EOF
