0
SECTION
2
HEADER
9
$ACADVER
1
AC1015
9
$DWGCODEPAGE
3
ANSI_1252
9
$HANDSEED
5
33d
9
$ANGBASE
50
0
9
$ANGDIR
70
0
9
$ATTMODE
70
1
9
$AUNITS
70
0
9
$AUPREC
70
0
9
$CECOLOR
62
256
9
$CELTSCALE
40
1
9
$CELTYPE
6
ByLayer
9
$CELWEIGHT
370
18
9
$CLAYER
8
0
9
$CMLJUST
70
0
9
$CMLSCALE
40
1
9
$CMLSTYLE
2
Standard
9
$DIMSTYLE
2
Standard
9
$TEXTSIZE
40
0.2
9
$TEXTSTYLE
7
Standard
9
$LUNITS
70
2
9
$LUPREC
70
4
9
$EXTNAMES
290
1
9
$INSUNITS
70
4
9
$LTSCALE
40
1
9
$LWDISPLAY
290
1
9
$PDMODE
70
0
9
$PDSIZE
40
0
9
$PLINEGEN
70
0
0
ENDSEC
0
SECTION
2
CLASSES
0
CLASS
1
RASTERVARIABLES
2
AcDbRasterVariables
3
ISM
90
0
280
0
281
0
0
ENDSEC
0
SECTION
2
TABLES
0
TABLE
2
VPORT
5
333
100
AcDbSymbolTable
0
VPORT
5
1
100
AcDbSymbolTableRecord
100
AcDbViewportTableRecord
2
*Active
70
0
10
0
20
0
11
1
21
1
12
-1
22
1
13
0
23
0
14
0.5
24
0.5
15
10
25
10
16
0
26
0
36
1
17
0
27
0
37
0
0
ENDTAB
0
TABLE
2
LTYPE
5
334
100
AcDbSymbolTable
0
LTYPE
5
14
100
AcDbSymbolTableRecord
100
AcDbLinetypeTableRecord
70
0
2
ByBlock
3

72
65
73
0
40
0
0
LTYPE
5
15
100
AcDbSymbolTableRecord
100
AcDbLinetypeTableRecord
70
0
2
ByLayer
3

72
65
73
0
40
0
0
LTYPE
5
16
100
AcDbSymbolTableRecord
100
AcDbLinetypeTableRecord
70
0
2
Continuous
3
Solid line
72
65
73
0
40
0
0
LTYPE
5
6E
100
AcDbSymbolTableRecord
100
AcDbLinetypeTableRecord
70
0
2
CENTER
3
____ _ ____ _ ____ _ ____
72
65
73
4
40
47.5
49
22
74
0
49
-8.5
74
0
49
8.5
74
0
49
-8.5
74
0
0
LTYPE
5
6F
100
AcDbSymbolTableRecord
100
AcDbLinetypeTableRecord
70
0
2
DASHED
3
__ __ __ __ __ __ __ __ __
72
65
73
2
40
25.72
49
12.86
74
0
49
-12.86
74
0
0
ENDTAB
0
TABLE
2
LAYER
5
335
100
AcDbSymbolTable
0
LAYER
5
10
100
AcDbSymbolTableRecord
100
AcDbLayerTableRecord
2
0
70
0
62
7
6
Continuous
290
1
370
-3
390
0
0
LAYER
5
71
100
AcDbSymbolTableRecord
100
AcDbLayerTableRecord
2
81
70
0
62
-3
6
Continuous
290
1
370
-3
390
0
0
LAYER
5
73
100
AcDbSymbolTableRecord
100
AcDbLayerTableRecord
2
80
70
0
62
-6
6
Continuous
290
1
370
-3
390
0
0
LAYER
5
75
100
AcDbSymbolTableRecord
100
AcDbLayerTableRecord
2
1
70
0
62
4
6
Continuous
290
1
370
-3
390
0
0
LAYER
5
83
100
AcDbSymbolTableRecord
100
AcDbLayerTableRecord
2
4
70
0
62
-2
6
CENTER
290
1
370
-3
390
0
0
LAYER
5
D4
100
AcDbSymbolTableRecord
100
AcDbLayerTableRecord
2
2
70
0
62
7
6
Continuous
290
1
370
-3
390
0
0
LAYER
5
22A
100
AcDbSymbolTableRecord
100
AcDbLayerTableRecord
2
Defpoints
70
0
62
7
6
Continuous
290
0
370
-3
390
0
0
LAYER
5
31f
100
AcDbSymbolTableRecord
100
AcDbLayerTableRecord
2
SK4
70
0
62
2
6
CENTER
290
1
370
-3
390
0
0
LAYER
5
320
100
AcDbSymbolTableRecord
100
AcDbLayerTableRecord
2
SK1
70
0
62
4
6
Continuous
290
1
370
-3
390
0
0
LAYER
5
321
100
AcDbSymbolTableRecord
100
AcDbLayerTableRecord
2
SK2
70
0
62
7
6
Continuous
290
1
370
-3
390
0
0
LAYER
5
322
100
AcDbSymbolTableRecord
100
AcDbLayerTableRecord
2
SK6
70
0
62
5
6
Continuous
290
1
370
-3
390
0
0
ENDTAB
0
TABLE
2
STYLE
5
336
100
AcDbSymbolTable
0
STYLE
5
11
100
AcDbSymbolTableRecord
100
AcDbTextStyleTableRecord
2
Standard
3
txt
70
0
71
0
40
0
41
1
42
0
50
0
0
STYLE
5
210
100
AcDbSymbolTableRecord
100
AcDbTextStyleTableRecord
2
iso_b_vert
3
simplex.shx
70
0
71
0
40
0
41
1
42
0
50
0
0
STYLE
5
211
100
AcDbSymbolTableRecord
100
AcDbTextStyleTableRecord
2
DWGDirectTextStyle
3
simplex
70
0
71
0
40
0
41
1
42
0
50
0
0
ENDTAB
0
TABLE
2
DIMSTYLE
5
337
100
AcDbSymbolTable
100
AcDbDimStyleTable
0
DIMSTYLE
105
27
100
AcDbSymbolTableRecord
100
AcDbDimStyleTableRecord
2
Standard
70
0
3
<>
41
0.18
42
0.0625
44
0.18
140
0.18
147
0.09
73
0
74
0
77
1
271
2
275
0
278
52
280
0
340
11
0
ENDTAB
0
TABLE
2
VIEW
5
338
100
AcDbSymbolTable
0
ENDTAB
0
TABLE
2
UCS
5
339
100
AcDbSymbolTable
0
ENDTAB
0
TABLE
2
APPID
5
33a
100
AcDbSymbolTable
0
APPID
5
12
100
AcDbSymbolTableRecord
100
AcDbRegAppTableRecord
2
ACAD
70
0
0
APPID
5
226
100
AcDbSymbolTableRecord
100
AcDbRegAppTableRecord
2
ACAD_DSTYLE_DIMBREAK
70
0
0
APPID
5
2DE
100
AcDbSymbolTableRecord
100
AcDbRegAppTableRecord
2
ACAD_DSTYLE_DIM_LINETYPE
70
0
0
APPID
5
2DF
100
AcDbSymbolTableRecord
100
AcDbRegAppTableRecord
2
ACAD_DSTYLE_DIM_EXT1_LINETYPE
70
0
0
APPID
5
2E0
100
AcDbSymbolTableRecord
100
AcDbRegAppTableRecord
2
ACAD_DSTYLE_DIM_EXT2_LINETYPE
70
0
0
APPID
5
31B
100
AcDbSymbolTableRecord
100
AcDbRegAppTableRecord
2
ACAD_MLEADERVER
70
0
0
ENDTAB
0
TABLE
2
BLOCK_RECORD
5
33b
100
AcDbSymbolTable
0
BLOCK_RECORD
5
1F
100
AcDbSymbolTableRecord
100
AcDbBlockTableRecord
2
*Model_Space
340
0
70
0
0
BLOCK_RECORD
5
1B
100
AcDbSymbolTableRecord
100
AcDbBlockTableRecord
2
*Paper_Space
340
0
70
0
0
BLOCK_RECORD
5
23
100
AcDbSymbolTableRecord
100
AcDbBlockTableRecord
2
*Paper_Space0
340
0
70
0
0
BLOCK_RECORD
5
22B
100
AcDbSymbolTableRecord
100
AcDbBlockTableRecord
2
*D1
340
0
70
0
0
BLOCK_RECORD
5
239
100
AcDbSymbolTableRecord
100
AcDbBlockTableRecord
2
_U0
340
0
70
0
0
BLOCK_RECORD
5
245
100
AcDbSymbolTableRecord
100
AcDbBlockTableRecord
2
*D3
340
0
70
0
0
BLOCK_RECORD
5
253
100
AcDbSymbolTableRecord
100
AcDbBlockTableRecord
2
_U1
340
0
70
0
0
BLOCK_RECORD
5
25F
100
AcDbSymbolTableRecord
100
AcDbBlockTableRecord
2
*D5
340
0
70
0
0
BLOCK_RECORD
5
26C
100
AcDbSymbolTableRecord
100
AcDbBlockTableRecord
2
_U2
340
0
70
0
0
BLOCK_RECORD
5
279
100
AcDbSymbolTableRecord
100
AcDbBlockTableRecord
2
*D7
340
0
70
0
0
BLOCK_RECORD
5
286
100
AcDbSymbolTableRecord
100
AcDbBlockTableRecord
2
_U3
340
0
70
0
0
BLOCK_RECORD
5
292
100
AcDbSymbolTableRecord
100
AcDbBlockTableRecord
2
*D9
340
0
70
0
0
BLOCK_RECORD
5
29E
100
AcDbSymbolTableRecord
100
AcDbBlockTableRecord
2
_U4
340
0
70
0
0
BLOCK_RECORD
5
2AA
100
AcDbSymbolTableRecord
100
AcDbBlockTableRecord
2
*D11
340
0
70
0
0
BLOCK_RECORD
5
2B7
100
AcDbSymbolTableRecord
100
AcDbBlockTableRecord
2
_U5
340
0
70
0
0
ENDTAB
0
ENDSEC
0
SECTION
2
BLOCKS
0
BLOCK
5
20
100
AcDbEntity
8
0
100
AcDbBlockBegin
2
*Model_Space
70
0
10
0
20
0
30
0
3
*Model_Space
0
ENDBLK
5
21
100
AcDbEntity
8
0
100
AcDbBlockEnd
0
BLOCK
5
1C
100
AcDbEntity
8
0
100
AcDbBlockBegin
2
*Paper_Space
70
0
10
0
20
0
30
0
3
*Paper_Space
0
ENDBLK
5
1D
100
AcDbEntity
8
0
100
AcDbBlockEnd
0
BLOCK
5
24
100
AcDbEntity
8
0
100
AcDbBlockBegin
2
*Paper_Space0
70
0
10
0
20
0
30
0
3
*Paper_Space0
0
ENDBLK
5
25
100
AcDbEntity
8
0
100
AcDbBlockEnd
0
BLOCK
5
22C
100
AcDbEntity
8
0
100
AcDbBlockBegin
2
*D1
70
1
10
0
20
0
30
0
3
*D1
0
LINE
5
22E
100
AcDbEntity
8
0
62
256
6
ByLayer
370
-2
48
1
60
0
100
AcDbLine
10
26.5875
20
1.544382
30
0
11
45.840618
21
1.544382
31
0
39
0
210
0
220
0
230
1
0
LINE
5
22F
100
AcDbEntity
8
0
62
256
6
ByLayer
370
-2
48
1
60
0
100
AcDbLine
10
26.5875
20
-1.544382
30
0
11
45.840618
21
-1.544382
31
0
39
0
210
0
220
0
230
1
0
LINE
5
230
100
AcDbEntity
8
0
62
256
6
ByLayer
370
-2
48
1
60
0
100
AcDbLine
10
43.840618
20
1.544382
30
0
11
43.840618
21
29.401525
31
0
39
0
210
0
220
0
230
1
0
LINE
5
231
100
AcDbEntity
8
0
62
256
6
ByLayer
370
-2
48
1
60
0
100
AcDbLine
10
43.840618
20
5.044382
30
0
11
43.840618
21
8.544382
31
0
39
0
210
0
220
0
230
1
0
LINE
5
232
100
AcDbEntity
8
0
62
256
6
ByLayer
370
-2
48
1
60
0
100
AcDbLine
10
43.840618
20
-5.044382
30
0
11
43.840618
21
-8.544382
31
0
39
0
210
0
220
0
230
1
0
SOLID
5
233
100
AcDbEntity
8
0
62
256
6
ByLayer
370
-1
48
1
60
0
100
AcDbTrace
10
43.257284
20
5.044382
30
0
11
44.423951
21
5.044382
31
0
12
43.840618
22
1.544382
32
0
13
43.840618
23
1.544382
33
0
39
0
210
0
220
0
230
1
0
SOLID
5
234
100
AcDbEntity
8
0
62
256
6
ByLayer
370
-1
48
1
60
0
100
AcDbTrace
10
44.423951
20
-5.044382
30
0
11
43.257284
21
-5.044382
31
0
12
43.840618
22
-1.544382
32
0
13
43.840618
23
-1.544382
33
0
39
0
210
0
220
0
230
1
0
MTEXT
5
235
100
AcDbEntity
8
0
62
256
6
ByLayer
370
18
48
1
60
0
100
AcDbMText
10
37.840618
20
18.972954
30
0
210
0
220
0
230
1
1
\A1;3.089
40
3
41
0
44
1
50
90
71
5
72
5
7
iso_b_vert
0
POINT
5
236
100
AcDbEntity
8
Defpoints
62
0
6
ByLayer
370
-1
48
1
60
0
100
AcDbPoint
10
25
20
1.544382
30
0
39
0
210
0
220
0
230
1
50
360
0
POINT
5
237
100
AcDbEntity
8
Defpoints
62
0
6
ByLayer
370
-1
48
1
60
0
100
AcDbPoint
10
25
20
-1.544382
30
0
39
0
210
0
220
0
230
1
50
360
0
POINT
5
238
100
AcDbEntity
8
Defpoints
62
0
6
ByLayer
370
-1
48
1
60
0
100
AcDbPoint
10
43.840618
20
-1.544382
30
0
39
0
210
0
220
0
230
1
50
360
0
ENDBLK
5
22D
100
AcDbEntity
8
0
100
AcDbBlockEnd
0
BLOCK
5
240
100
AcDbEntity
8
0
100
AcDbBlockBegin
2
_U0
70
0
10
0
20
0
30
0
3
_U0
0
MTEXT
5
23A
100
AcDbEntity
8
2
62
256
6
ByLayer
370
18
48
1
60
0
100
AcDbMText
10
43.249503
20
11.679382
30
0
210
0
220
0
230
1
1
\W0.7203;M3
40
3
41
0
44
1.084337
50
90
71
7
72
5
7
iso_b_vert
0
LINE
5
23B
100
AcDbEntity
8
2
62
256
6
ByLayer
370
13
48
1
60
0
100
AcDbLine
10
26.5875
20
1.544382
30
0
11
45.840618
21
1.544382
31
0
39
0
210
0
220
0
230
1
0
LINE
5
23C
100
AcDbEntity
8
2
62
256
6
ByLayer
370
13
48
1
60
0
100
AcDbLine
10
26.5875
20
-1.544382
30
0
11
45.840618
21
-1.544382
31
0
39
0
210
0
220
0
230
1
0
LINE
5
23D
100
AcDbEntity
8
2
62
256
6
ByLayer
370
13
48
1
60
0
100
AcDbLine
10
43.840618
20
-9.044382
30
0
11
43.840618
21
15.799182
31
0
39
0
210
0
220
0
230
1
0
SOLID
5
23E
100
AcDbEntity
8
2
62
256
6
ByLayer
370
18
48
1
60
0
100
AcDbTrace
10
43.840618
20
1.544382
30
0
11
43.379834
21
5.044381
31
0
12
44.301401
22
5.044384
32
0
13
44.301401
23
5.044384
33
0
39
0
210
0
220
0
230
1
0
SOLID
5
23F
100
AcDbEntity
8
2
62
256
6
ByLayer
370
18
48
1
60
0
100
AcDbTrace
10
43.840618
20
-1.544382
30
0
11
44.301401
21
-5.044381
31
0
12
43.379834
22
-5.044384
32
0
13
43.379834
23
-5.044384
33
0
39
0
210
0
220
0
230
1
0
ENDBLK
5
241
100
AcDbEntity
8
0
100
AcDbBlockEnd
0
BLOCK
5
246
100
AcDbEntity
8
0
100
AcDbBlockBegin
2
*D3
70
1
10
0
20
0
30
0
3
*D3
0
LINE
5
248
100
AcDbEntity
8
0
62
256
6
ByLayer
370
-2
48
1
60
0
100
AcDbLine
10
-21.5875
20
-1.6
30
0
11
-28
21
-1.6
31
0
39
0
210
0
220
0
230
1
0
LINE
5
249
100
AcDbEntity
8
0
62
256
6
ByLayer
370
-2
48
1
60
0
100
AcDbLine
10
-21.5875
20
1.6
30
0
11
-28
21
1.6
31
0
39
0
210
0
220
0
230
1
0
LINE
5
24A
100
AcDbEntity
8
0
62
256
6
ByLayer
370
-2
48
1
60
0
100
AcDbLine
10
-26
20
1.6
30
0
11
-26
21
25.249999
31
0
39
0
210
0
220
0
230
1
0
LINE
5
24B
100
AcDbEntity
8
0
62
256
6
ByLayer
370
-2
48
1
60
0
100
AcDbLine
10
-26
20
-5.1
30
0
11
-26
21
-8.6
31
0
39
0
210
0
220
0
230
1
0
LINE
5
24C
100
AcDbEntity
8
0
62
256
6
ByLayer
370
-2
48
1
60
0
100
AcDbLine
10
-26
20
5.1
30
0
11
-26
21
8.6
31
0
39
0
210
0
220
0
230
1
0
SOLID
5
24D
100
AcDbEntity
8
0
62
256
6
ByLayer
370
-1
48
1
60
0
100
AcDbTrace
10
-25.416667
20
-5.1
30
0
11
-26.583333
21
-5.1
31
0
12
-26
22
-1.6
32
0
13
-26
23
-1.6
33
0
39
0
210
0
220
0
230
1
0
SOLID
5
24E
100
AcDbEntity
8
0
62
256
6
ByLayer
370
-1
48
1
60
0
100
AcDbTrace
10
-26.583333
20
5.1
30
0
11
-25.416667
21
5.1
31
0
12
-26
22
1.6
32
0
13
-26
23
1.6
33
0
39
0
210
0
220
0
230
1
0
MTEXT
5
24F
100
AcDbEntity
8
0
62
256
6
ByLayer
370
18
48
1
60
0
100
AcDbMText
10
-32
20
17.607142
30
0
210
0
220
0
230
1
1
\A1;3.2
40
3
41
0
44
1
50
90
71
5
72
5
7
iso_b_vert
0
POINT
5
250
100
AcDbEntity
8
Defpoints
62
0
6
ByLayer
370
-1
48
1
60
0
100
AcDbPoint
10
-20
20
-1.6
30
0
39
0
210
0
220
0
230
1
50
360
0
POINT
5
251
100
AcDbEntity
8
Defpoints
62
0
6
ByLayer
370
-1
48
1
60
0
100
AcDbPoint
10
-20
20
1.6
30
0
39
0
210
0
220
0
230
1
50
360
0
POINT
5
252
100
AcDbEntity
8
Defpoints
62
0
6
ByLayer
370
-1
48
1
60
0
100
AcDbPoint
10
-26
20
1.6
30
0
39
0
210
0
220
0
230
1
50
360
0
ENDBLK
5
247
100
AcDbEntity
8
0
100
AcDbBlockEnd
0
BLOCK
5
25A
100
AcDbEntity
8
0
100
AcDbBlockBegin
2
_U1
70
0
10
0
20
0
30
0
3
_U1
0
MTEXT
5
254
100
AcDbEntity
8
SK2
62
256
6
ByLayer
370
18
48
1
60
0
100
AcDbMText
10
-26.591114
20
11.135
30
0
210
0
220
0
230
1
1
\W0.7318;4 x 3.2
40
3
41
0
44
1.084337
50
90
71
7
72
5
7
iso_b_vert
0
LINE
5
255
100
AcDbEntity
8
SK2
62
256
6
ByLayer
370
13
48
1
60
0
100
AcDbLine
10
-21.5875
20
-1.6
30
0
11
-28
21
-1.6
31
0
39
0
210
0
220
0
230
1
0
LINE
5
256
100
AcDbEntity
8
SK2
62
256
6
ByLayer
370
13
48
1
60
0
100
AcDbLine
10
-21.5875
20
1.6
30
0
11
-28
21
1.6
31
0
39
0
210
0
220
0
230
1
0
LINE
5
257
100
AcDbEntity
8
SK2
62
256
6
ByLayer
370
13
48
1
60
0
100
AcDbLine
10
-26
20
24.214284
30
0
11
-26
21
-9.1
31
0
39
0
210
0
220
0
230
1
0
SOLID
5
258
100
AcDbEntity
8
SK2
62
256
6
ByLayer
370
18
48
1
60
0
100
AcDbTrace
10
-26
20
-1.6
30
0
11
-25.539216
21
-5.099998
31
0
12
-26.460784
22
-5.100002
32
0
13
-26.460784
23
-5.100002
33
0
39
0
210
0
220
0
230
1
0
SOLID
5
259
100
AcDbEntity
8
SK2
62
256
6
ByLayer
370
18
48
1
60
0
100
AcDbTrace
10
-26
20
1.6
30
0
11
-26.460784
21
5.099998
31
0
12
-25.539216
22
5.100002
32
0
13
-25.539216
23
5.100002
33
0
39
0
210
0
220
0
230
1
0
ENDBLK
5
25B
100
AcDbEntity
8
0
100
AcDbBlockEnd
0
BLOCK
5
260
100
AcDbEntity
8
0
100
AcDbBlockBegin
2
*D5
70
1
10
0
20
0
30
0
3
*D5
0
LINE
5
262
100
AcDbEntity
8
0
62
256
6
ByLayer
370
-2
48
1
60
0
100
AcDbLine
10
25
20
3.131882
30
0
11
25
21
12.85
31
0
39
0
210
0
220
0
230
1
0
LINE
5
263
100
AcDbEntity
8
0
62
256
6
ByLayer
370
-2
48
1
60
0
100
AcDbLine
10
23.87
20
1.5875
30
0
11
23.87
21
12.85
31
0
39
0
210
0
220
0
230
1
0
LINE
5
264
100
AcDbEntity
8
0
62
256
6
ByLayer
370
-2
48
1
60
0
100
AcDbLine
10
28.5
20
10.85
30
0
11
32
21
10.85
31
0
39
0
210
0
220
0
230
1
0
LINE
5
265
100
AcDbEntity
8
0
62
256
6
ByLayer
370
-2
48
1
60
0
100
AcDbLine
10
20.37
20
10.85
30
0
11
16.87
21
10.85
31
0
39
0
210
0
220
0
230
1
0
SOLID
5
266
100
AcDbEntity
8
0
62
256
6
ByLayer
370
-1
48
1
60
0
100
AcDbTrace
10
28.5
20
11.433333
30
0
11
28.5
21
10.266667
31
0
12
25
22
10.85
32
0
13
25
23
10.85
33
0
39
0
210
0
220
0
230
1
0
SOLID
5
267
100
AcDbEntity
8
0
62
256
6
ByLayer
370
-1
48
1
60
0
100
AcDbTrace
10
20.37
20
10.266667
30
0
11
20.37
21
11.433333
31
0
12
23.87
22
10.85
32
0
13
23.87
23
10.85
33
0
39
0
210
0
220
0
230
1
0
MTEXT
5
268
100
AcDbEntity
8
0
62
256
6
ByLayer
370
18
48
1
60
0
100
AcDbMText
10
24.435
20
16.85
30
0
210
0
220
0
230
1
1
\A1;1.13
40
3
41
0
44
1
50
0
71
5
72
5
7
iso_b_vert
0
POINT
5
269
100
AcDbEntity
8
Defpoints
62
0
6
ByLayer
370
-1
48
1
60
0
100
AcDbPoint
10
25
20
1.544382
30
0
39
0
210
0
220
0
230
1
50
360
0
POINT
5
26A
100
AcDbEntity
8
Defpoints
62
0
6
ByLayer
370
-1
48
1
60
0
100
AcDbPoint
10
23.87
20
0
30
0
39
0
210
0
220
0
230
1
50
360
0
POINT
5
26B
100
AcDbEntity
8
Defpoints
62
0
6
ByLayer
370
-1
48
1
60
0
100
AcDbPoint
10
23.87
20
10.85
30
0
39
0
210
0
220
0
230
1
50
360
0
ENDBLK
5
261
100
AcDbEntity
8
0
100
AcDbBlockEnd
0
BLOCK
5
274
100
AcDbEntity
8
0
100
AcDbBlockBegin
2
_U2
70
0
10
0
20
0
30
0
3
_U2
0
MTEXT
5
26D
100
AcDbEntity
8
SK2
62
256
6
ByLayer
370
18
48
1
60
0
100
AcDbMText
10
21.849929
20
11.632634
30
0
210
0
220
0
230
1
1
\W0.6474;'C'
40
3.5
41
0
44
1.084337
50
0
71
7
72
5
7
iso_b_vert
0
MTEXT
5
26E
100
AcDbEntity
8
SK2
62
256
6
ByLayer
370
18
48
1
60
0
100
AcDbMText
10
21.823429
20
18.735114
30
0
210
0
220
0
230
1
1
\W0.5779;1.13
40
3
41
0
44
1.084337
50
0
71
7
72
5
7
iso_b_vert
0
LINE
5
26F
100
AcDbEntity
8
SK2
62
256
6
ByLayer
370
13
48
1
60
0
100
AcDbLine
10
25
20
3.131882
30
0
11
25
21
12.85
31
0
39
0
210
0
220
0
230
1
0
LINE
5
270
100
AcDbEntity
8
SK2
62
256
6
ByLayer
370
13
48
1
60
0
100
AcDbLine
10
23.87
20
1.5875
30
0
11
23.87
21
12.85
31
0
39
0
210
0
220
0
230
1
0
LINE
5
271
100
AcDbEntity
8
SK2
62
256
6
ByLayer
370
13
48
1
60
0
100
AcDbLine
10
32.5
20
10.85
30
0
11
16.37
21
10.85
31
0
39
0
210
0
220
0
230
1
0
SOLID
5
272
100
AcDbEntity
8
SK2
62
256
6
ByLayer
370
18
48
1
60
0
100
AcDbTrace
10
25
20
10.85
30
0
11
28.499998
21
11.310784
31
0
12
28.500002
22
10.389216
32
0
13
28.500002
23
10.389216
33
0
39
0
210
0
220
0
230
1
0
SOLID
5
273
100
AcDbEntity
8
SK2
62
256
6
ByLayer
370
18
48
1
60
0
100
AcDbTrace
10
23.87
20
10.85
30
0
11
20.370002
21
10.389216
31
0
12
20.369998
22
11.310784
32
0
13
20.369998
23
11.310784
33
0
39
0
210
0
220
0
230
1
0
ENDBLK
5
275
100
AcDbEntity
8
0
100
AcDbBlockEnd
0
BLOCK
5
27A
100
AcDbEntity
8
0
100
AcDbBlockBegin
2
*D7
70
1
10
0
20
0
30
0
3
*D7
0
LINE
5
27C
100
AcDbEntity
8
0
62
256
6
ByLayer
370
-2
48
1
60
0
100
AcDbLine
10
25
20
-3.131882
30
0
11
25
21
-10.544382
31
0
39
0
210
0
220
0
230
1
0
LINE
5
27D
100
AcDbEntity
8
0
62
256
6
ByLayer
370
-2
48
1
60
0
100
AcDbLine
10
19
20
-3.131882
30
0
11
19
21
-10.544382
31
0
39
0
210
0
220
0
230
1
0
LINE
5
27E
100
AcDbEntity
8
0
62
256
6
ByLayer
370
-2
48
1
60
0
100
AcDbLine
10
28.5
20
-8.544382
30
0
11
32
21
-8.544382
31
0
39
0
210
0
220
0
230
1
0
LINE
5
27F
100
AcDbEntity
8
0
62
256
6
ByLayer
370
-2
48
1
60
0
100
AcDbLine
10
15.5
20
-8.544382
30
0
11
12
21
-8.544382
31
0
39
0
210
0
220
0
230
1
0
SOLID
5
280
100
AcDbEntity
8
0
62
256
6
ByLayer
370
-1
48
1
60
0
100
AcDbTrace
10
28.5
20
-7.961049
30
0
11
28.5
21
-9.127716
31
0
12
25
22
-8.544382
32
0
13
25
23
-8.544382
33
0
39
0
210
0
220
0
230
1
0
SOLID
5
281
100
AcDbEntity
8
0
62
256
6
ByLayer
370
-1
48
1
60
0
100
AcDbTrace
10
15.5
20
-9.127716
30
0
11
15.5
21
-7.961049
31
0
12
19
22
-8.544382
32
0
13
19
23
-8.544382
33
0
39
0
210
0
220
0
230
1
0
MTEXT
5
282
100
AcDbEntity
8
0
62
256
6
ByLayer
370
18
48
1
60
0
100
AcDbMText
10
19.193548
20
-2.544382
30
0
210
0
220
0
230
1
1
\A1;6
40
3
41
0
44
1
50
0
71
5
72
5
7
iso_b_vert
0
POINT
5
283
100
AcDbEntity
8
Defpoints
62
0
6
ByLayer
370
-1
48
1
60
0
100
AcDbPoint
10
25
20
-1.544382
30
0
39
0
210
0
220
0
230
1
50
360
0
POINT
5
284
100
AcDbEntity
8
Defpoints
62
0
6
ByLayer
370
-1
48
1
60
0
100
AcDbPoint
10
19
20
-1.544382
30
0
39
0
210
0
220
0
230
1
50
360
0
POINT
5
285
100
AcDbEntity
8
Defpoints
62
0
6
ByLayer
370
-1
48
1
60
0
100
AcDbPoint
10
19
20
-8.544382
30
0
39
0
210
0
220
0
230
1
50
360
0
ENDBLK
5
27B
100
AcDbEntity
8
0
100
AcDbBlockEnd
0
BLOCK
5
28D
100
AcDbEntity
8
0
100
AcDbBlockBegin
2
_U3
70
0
10
0
20
0
30
0
3
_U3
0
MTEXT
5
287
100
AcDbEntity
8
SK2
62
256
6
ByLayer
370
18
48
1
60
0
100
AcDbMText
10
18.681634
20
-7.659268
30
0
210
0
220
0
230
1
1
\W0.5404;6
40
3
41
0
44
1.084337
50
0
71
7
72
5
7
iso_b_vert
0
LINE
5
288
100
AcDbEntity
8
SK2
62
256
6
ByLayer
370
13
48
1
60
0
100
AcDbLine
10
25
20
-3.131882
30
0
11
25
21
-10.544382
31
0
39
0
210
0
220
0
230
1
0
LINE
5
289
100
AcDbEntity
8
SK2
62
256
6
ByLayer
370
13
48
1
60
0
100
AcDbLine
10
19
20
-3.131882
30
0
11
19
21
-10.544382
31
0
39
0
210
0
220
0
230
1
0
LINE
5
28A
100
AcDbEntity
8
SK2
62
256
6
ByLayer
370
13
48
1
60
0
100
AcDbLine
10
32.5
20
-8.544382
30
0
11
11.5
21
-8.544382
31
0
39
0
210
0
220
0
230
1
0
SOLID
5
28B
100
AcDbEntity
8
SK2
62
256
6
ByLayer
370
18
48
1
60
0
100
AcDbTrace
10
25
20
-8.544382
30
0
11
28.499998
21
-8.083599
31
0
12
28.500002
22
-9.005166
32
0
13
28.500002
23
-9.005166
33
0
39
0
210
0
220
0
230
1
0
SOLID
5
28C
100
AcDbEntity
8
SK2
62
256
6
ByLayer
370
18
48
1
60
0
100
AcDbTrace
10
19
20
-8.544382
30
0
11
15.500002
21
-9.005166
31
0
12
15.499998
22
-8.083599
32
0
13
15.499998
23
-8.083599
33
0
39
0
210
0
220
0
230
1
0
ENDBLK
5
28E
100
AcDbEntity
8
0
100
AcDbBlockEnd
0
BLOCK
5
293
100
AcDbEntity
8
0
100
AcDbBlockBegin
2
*D9
70
1
10
0
20
0
30
0
3
*D9
0
LINE
5
295
100
AcDbEntity
8
0
62
256
6
ByLayer
370
-2
48
1
60
0
100
AcDbLine
10
25
20
-3.131882
30
0
11
25
21
-33.044382
31
0
39
0
210
0
220
0
230
1
0
LINE
5
296
100
AcDbEntity
8
0
62
256
6
ByLayer
370
-2
48
1
60
0
100
AcDbLine
10
7
20
-2.7225
30
0
11
7
21
-33.044382
31
0
39
0
210
0
220
0
230
1
0
LINE
5
297
100
AcDbEntity
8
0
62
256
6
ByLayer
370
-2
48
1
60
0
100
AcDbLine
10
21.5
20
-31.044382
30
0
11
10.5
21
-31.044382
31
0
39
0
210
0
220
0
230
1
0
SOLID
5
298
100
AcDbEntity
8
0
62
256
6
ByLayer
370
-1
48
1
60
0
100
AcDbTrace
10
21.5
20
-31.627716
30
0
11
21.5
21
-30.461049
31
0
12
25
22
-31.044382
32
0
13
25
23
-31.044382
33
0
39
0
210
0
220
0
230
1
0
SOLID
5
299
100
AcDbEntity
8
0
62
256
6
ByLayer
370
-1
48
1
60
0
100
AcDbTrace
10
10.5
20
-30.461049
30
0
11
10.5
21
-31.627716
31
0
12
7
22
-31.044382
32
0
13
7
23
-31.044382
33
0
39
0
210
0
220
0
230
1
0
MTEXT
5
29A
100
AcDbEntity
8
0
62
256
6
ByLayer
370
18
48
1
60
0
100
AcDbMText
10
16
20
-25.044382
30
0
210
0
220
0
230
1
1
\A1;18
40
3
41
0
44
1
50
0
71
5
72
5
7
iso_b_vert
0
POINT
5
29B
100
AcDbEntity
8
Defpoints
62
0
6
ByLayer
370
-1
48
1
60
0
100
AcDbPoint
10
25
20
-1.544382
30
0
39
0
210
0
220
0
230
1
50
360
0
POINT
5
29C
100
AcDbEntity
8
Defpoints
62
0
6
ByLayer
370
-1
48
1
60
0
100
AcDbPoint
10
7
20
-1.135
30
0
39
0
210
0
220
0
230
1
50
360
0
POINT
5
29D
100
AcDbEntity
8
Defpoints
62
0
6
ByLayer
370
-1
48
1
60
0
100
AcDbPoint
10
7
20
-31.044382
30
0
39
0
210
0
220
0
230
1
50
360
0
ENDBLK
5
294
100
AcDbEntity
8
0
100
AcDbBlockEnd
0
BLOCK
5
2A5
100
AcDbEntity
8
0
100
AcDbBlockBegin
2
_U4
70
0
10
0
20
0
30
0
3
_U4
0
MTEXT
5
29F
100
AcDbEntity
8
SK2
62
256
6
ByLayer
370
18
48
1
60
0
100
AcDbMText
10
14.742115
20
-30.159268
30
0
210
0
220
0
230
1
1
\W0.5321;18
40
3
41
0
44
1.084337
50
0
71
7
72
5
7
iso_b_vert
0
LINE
5
2A0
100
AcDbEntity
8
SK2
62
256
6
ByLayer
370
13
48
1
60
0
100
AcDbLine
10
25
20
-3.131882
30
0
11
25
21
-33.044382
31
0
39
0
210
0
220
0
230
1
0
LINE
5
2A1
100
AcDbEntity
8
SK2
62
256
6
ByLayer
370
13
48
1
60
0
100
AcDbLine
10
7
20
-2.7225
30
0
11
7
21
-33.044382
31
0
39
0
210
0
220
0
230
1
0
LINE
5
2A2
100
AcDbEntity
8
SK2
62
256
6
ByLayer
370
13
48
1
60
0
100
AcDbLine
10
25
20
-31.044382
30
0
11
7
21
-31.044382
31
0
39
0
210
0
220
0
230
1
0
SOLID
5
2A3
100
AcDbEntity
8
SK2
62
256
6
ByLayer
370
18
48
1
60
0
100
AcDbTrace
10
25
20
-31.044382
30
0
11
21.500002
21
-31.505166
31
0
12
21.499998
22
-30.583599
32
0
13
21.499998
23
-30.583599
33
0
39
0
210
0
220
0
230
1
0
SOLID
5
2A4
100
AcDbEntity
8
SK2
62
256
6
ByLayer
370
18
48
1
60
0
100
AcDbTrace
10
7
20
-31.044382
30
0
11
10.499998
21
-30.583599
31
0
12
10.500002
22
-31.505166
32
0
13
10.500002
23
-31.505166
33
0
39
0
210
0
220
0
230
1
0
ENDBLK
5
2A6
100
AcDbEntity
8
0
100
AcDbBlockEnd
0
BLOCK
5
2AB
100
AcDbEntity
8
0
100
AcDbBlockBegin
2
*D11
70
1
10
0
20
0
30
0
3
*D11
0
LINE
5
2AD
100
AcDbEntity
8
0
62
256
6
ByLayer
370
-2
48
1
60
0
100
AcDbLine
10
25
20
-3.131882
30
0
11
25
21
-22.044382
31
0
39
0
210
0
220
0
230
1
0
LINE
5
2AE
100
AcDbEntity
8
0
62
256
6
ByLayer
370
-2
48
1
60
0
100
AcDbLine
10
9.7
20
-1.5875
30
0
11
9.7
21
-22.044382
31
0
39
0
210
0
220
0
230
1
0
LINE
5
2AF
100
AcDbEntity
8
0
62
256
6
ByLayer
370
-2
48
1
60
0
100
AcDbLine
10
28.5
20
-20.044382
30
0
11
32
21
-20.044382
31
0
39
0
210
0
220
0
230
1
0
LINE
5
2B0
100
AcDbEntity
8
0
62
256
6
ByLayer
370
-2
48
1
60
0
100
AcDbLine
10
6.2
20
-20.044382
30
0
11
2.7
21
-20.044382
31
0
39
0
210
0
220
0
230
1
0
SOLID
5
2B1
100
AcDbEntity
8
0
62
256
6
ByLayer
370
-1
48
1
60
0
100
AcDbTrace
10
28.5
20
-19.461049
30
0
11
28.5
21
-20.627716
31
0
12
25
22
-20.044382
32
0
13
25
23
-20.044382
33
0
39
0
210
0
220
0
230
1
0
SOLID
5
2B2
100
AcDbEntity
8
0
62
256
6
ByLayer
370
-1
48
1
60
0
100
AcDbTrace
10
6.2
20
-20.627716
30
0
11
6.2
21
-19.461049
31
0
12
9.7
22
-20.044382
32
0
13
9.7
23
-20.044382
33
0
39
0
210
0
220
0
230
1
0
MTEXT
5
2B3
100
AcDbEntity
8
0
62
256
6
ByLayer
370
18
48
1
60
0
100
AcDbMText
10
17.35
20
-14.044382
30
0
210
0
220
0
230
1
1
\A1;15.3
40
3
41
0
44
1
50
0
71
5
72
5
7
iso_b_vert
0
POINT
5
2B4
100
AcDbEntity
8
Defpoints
62
0
6
ByLayer
370
-1
48
1
60
0
100
AcDbPoint
10
25
20
-1.544382
30
0
39
0
210
0
220
0
230
1
50
360
0
POINT
5
2B5
100
AcDbEntity
8
Defpoints
62
0
6
ByLayer
370
-1
48
1
60
0
100
AcDbPoint
10
9.7
20
0
30
0
39
0
210
0
220
0
230
1
50
360
0
POINT
5
2B6
100
AcDbEntity
8
Defpoints
62
0
6
ByLayer
370
-1
48
1
60
0
100
AcDbPoint
10
9.7
20
-20.044382
30
0
39
0
210
0
220
0
230
1
50
360
0
ENDBLK
5
2AC
100
AcDbEntity
8
0
100
AcDbBlockEnd
0
BLOCK
5
2BE
100
AcDbEntity
8
0
100
AcDbBlockBegin
2
_U5
70
0
10
0
20
0
30
0
3
_U5
0
MTEXT
5
2B8
100
AcDbEntity
8
2
62
256
6
ByLayer
370
18
48
1
60
0
100
AcDbMText
10
14.363486
20
-19.159268
30
0
210
0
220
0
230
1
1
\W0.6562;15.3
40
3
41
0
44
1.084337
50
0
71
7
72
5
7
iso_b_vert
0
LINE
5
2B9
100
AcDbEntity
8
2
62
256
6
ByLayer
370
13
48
1
60
0
100
AcDbLine
10
25
20
-3.131882
30
0
11
25
21
-22.044382
31
0
39
0
210
0
220
0
230
1
0
LINE
5
2BA
100
AcDbEntity
8
2
62
256
6
ByLayer
370
13
48
1
60
0
100
AcDbLine
10
9.7
20
-1.5875
30
0
11
9.7
21
-22.044382
31
0
39
0
210
0
220
0
230
1
0
LINE
5
2BB
100
AcDbEntity
8
2
62
256
6
ByLayer
370
13
48
1
60
0
100
AcDbLine
10
25
20
-20.044382
30
0
11
9.7
21
-20.044382
31
0
39
0
210
0
220
0
230
1
0
SOLID
5
2BC
100
AcDbEntity
8
2
62
256
6
ByLayer
370
18
48
1
60
0
100
AcDbTrace
10
25
20
-20.044382
30
0
11
21.500002
21
-20.505166
31
0
12
21.499998
22
-19.583599
32
0
13
21.499998
23
-19.583599
33
0
39
0
210
0
220
0
230
1
0
SOLID
5
2BD
100
AcDbEntity
8
2
62
256
6
ByLayer
370
18
48
1
60
0
100
AcDbTrace
10
9.7
20
-20.044382
30
0
11
13.199998
21
-19.583599
31
0
12
13.200002
22
-20.505166
32
0
13
13.200002
23
-20.505166
33
0
39
0
210
0
220
0
230
1
0
ENDBLK
5
2BF
100
AcDbEntity
8
0
100
AcDbBlockEnd
0
ENDSEC
0
SECTION
2
ENTITIES
0
ARC
5
DD
100
AcDbEntity
8
SK1
62
256
6
ByLayer
370
18
48
1
60
0
100
AcDbCircle
39
0
10
-16.6
20
0
30
0
40
1.91999999999997
210
0
220
0
230
1
100
AcDbArc
50
326.44269
51
33.55731
0
ARC
5
DE
100
AcDbEntity
8
1
62
256
6
ByLayer
370
18
48
1
60
0
100
AcDbCircle
39
0
10
7.069991
20
-1.935
30
0
40
0.8
210
0
220
0
230
1
100
AcDbArc
50
90
51
100
0
ARC
5
DF
100
AcDbEntity
8
1
62
256
6
ByLayer
370
18
48
1
60
0
100
AcDbCircle
39
0
10
7.069991
20
1.935
30
0
40
0.8
210
0
220
0
230
1
100
AcDbArc
50
260
51
270
0
POINT
5
70
100
AcDbEntity
8
81
62
256
6
ByLayer
370
18
48
1
60
0
100
AcDbPoint
10
25.1
20
0
30
0
39
0
210
0
220
0
230
1
50
360
0
POINT
5
72
100
AcDbEntity
8
80
62
256
6
ByLayer
370
18
48
1
60
0
100
AcDbPoint
10
0
20
0
30
0
39
0
210
0
220
0
230
1
50
360
0
POINT
5
74
100
AcDbEntity
8
1
62
256
6
ByLayer
370
18
48
1
60
1
100
AcDbPoint
10
25
20
1.544382
30
0
39
0
210
0
220
0
230
1
50
360
0
POINT
5
76
100
AcDbEntity
8
1
62
256
6
ByLayer
370
18
48
1
60
1
100
AcDbPoint
10
25
20
-1.544382
30
0
39
0
210
0
220
0
230
1
50
360
0
POINT
5
77
100
AcDbEntity
8
1
62
256
6
ByLayer
370
18
48
1
60
1
100
AcDbPoint
10
-20
20
-1.6
30
0
39
0
210
0
220
0
230
1
50
360
0
POINT
5
78
100
AcDbEntity
8
1
62
256
6
ByLayer
370
18
48
1
60
1
100
AcDbPoint
10
-20
20
1.6
30
0
39
0
210
0
220
0
230
1
50
360
0
POINT
5
79
100
AcDbEntity
8
1
62
256
6
ByLayer
370
18
48
1
60
1
100
AcDbPoint
10
25
20
1.544382
30
0
39
0
210
0
220
0
230
1
50
360
0
POINT
5
7A
100
AcDbEntity
8
1
62
256
6
ByLayer
370
18
48
1
60
1
100
AcDbPoint
10
23.87
20
0
30
0
39
0
210
0
220
0
230
1
50
360
0
POINT
5
7B
100
AcDbEntity
8
1
62
256
6
ByLayer
370
18
48
1
60
1
100
AcDbPoint
10
25
20
-1.544382
30
0
39
0
210
0
220
0
230
1
50
360
0
POINT
5
7C
100
AcDbEntity
8
1
62
256
6
ByLayer
370
18
48
1
60
1
100
AcDbPoint
10
19
20
-1.544382
30
0
39
0
210
0
220
0
230
1
50
360
0
POINT
5
7D
100
AcDbEntity
8
1
62
256
6
ByLayer
370
18
48
1
60
1
100
AcDbPoint
10
25
20
-1.544382
30
0
39
0
210
0
220
0
230
1
50
360
0
POINT
5
7E
100
AcDbEntity
8
1
62
256
6
ByLayer
370
18
48
1
60
1
100
AcDbPoint
10
7
20
-1.135
30
0
39
0
210
0
220
0
230
1
50
360
0
POINT
5
7F
100
AcDbEntity
8
1
62
256
6
ByLayer
370
18
48
1
60
1
100
AcDbPoint
10
25
20
-1.544382
30
0
39
0
210
0
220
0
230
1
50
360
0
POINT
5
80
100
AcDbEntity
8
1
62
256
6
ByLayer
370
18
48
1
60
1
100
AcDbPoint
10
9.7
20
0
30
0
39
0
210
0
220
0
230
1
50
360
0
SPLINE
5
E0
100
AcDbEntity
8
1
62
256
6
ByLayer
370
13
48
1
60
0
100
AcDbSpline
70
4
71
3
72
8
73
4
40
0
40
0
40
0
40
0
40
1
40
1
40
1
40
1
41
1.04
10
20.6177290850456
20
-1.24589021334023
30
0
41
1.04
10
20.6146373246944
20
-1.25128517705547
30
0
41
1.04
10
20.6115763154674
20
-1.25378508770125
30
0
41
1.04
10
20.6085427847621
20
-1.25355009460279
30
0
0
SPLINE
5
E1
100
AcDbEntity
8
1
62
256
6
ByLayer
370
18
48
1
60
0
100
AcDbSpline
70
4
71
3
72
9
73
5
40
0
40
0
40
0
40
0
40
0.548199730245252
40
1
40
1
40
1
40
1
41
1
10
24.2897379306367
20
-1.356485128825
30
0
41
1
10
24.2933822174822
20
-1.36364361588829
30
0
41
1
10
24.2998544718287
20
-1.37157698803435
30
0
41
1
10
24.3061344394606
20
-1.37038442489347
30
0
41
1
10
24.3089591323587
20
-1.36796180422704
30
0
0
SPLINE
5
E2
100
AcDbEntity
8
1
62
256
6
ByLayer
370
18
48
1
60
0
100
AcDbSpline
70
4
71
3
72
8
73
4
40
0
40
0
40
0
40
0
40
1
40
1
40
1
40
1
41
1
10
20.3037754002796
20
-1.37483798632832
30
0
41
1
10
20.3094884027091
20
-1.39300546817739
30
0
41
1
10
20.3151234153709
20
-1.4023883458573
30
0
41
1
10
20.3207223594894
20
-1.40312765689149
30
0
0
SPLINE
5
E3
100
AcDbEntity
8
1
62
256
6
ByLayer
370
13
48
1
60
0
100
AcDbSpline
70
4
71
3
72
8
73
4
40
0
40
0
40
0
40
0
40
1
40
1
40
1
40
1
41
1
10
20.226693725931
20
-1.24790064800354
30
0
41
1
10
20.2234006605994
20
-1.24310437102932
30
0
41
1
10
20.2201151041191
20
-1.23513636669597
30
0
41
1
10
20.2168350087321
20
-1.22404858096561
30
0
0
SPLINE
5
E4
100
AcDbEntity
8
1
62
256
6
ByLayer
370
13
48
1
60
0
100
AcDbSpline
70
4
71
3
72
8
73
4
40
0
40
0
40
0
40
0
40
1
40
1
40
1
40
1
41
1.04
10
24.1174486236312
20
-1.24645681448619
30
0
41
1.04
10
24.1090403999707
20
-1.26058816443265
30
0
41
1.04
10
24.1006357512207
20
-1.25360415069381
30
0
41
1.04
10
24.0921960717562
20
-1.22596976753763
30
0
0
SPLINE
5
E5
100
AcDbEntity
8
1
62
256
6
ByLayer
370
13
48
1
60
0
100
AcDbSpline
70
4
71
3
72
8
73
4
40
0
40
0
40
0
40
0
40
1
40
1
40
1
40
1
41
1.04
10
20.1176527812448
20
-1.24568299546784
30
0
41
1.04
10
20.1069960879566
20
-1.26403757235827
30
0
41
1.04
10
20.0964501667632
20
-1.24890988431141
30
0
41
1.04
10
20.0859474256761
20
-1.20195082769936
30
0
0
SPLINE
5
E6
100
AcDbEntity
8
1
62
256
6
ByLayer
370
13
48
1
60
0
100
AcDbSpline
70
4
71
3
72
9
73
5
40
0
40
0
40
0
40
0
40
0.465634879438759
40
1
40
1
40
1
40
1
41
1
10
21.5005533437225
20
1.22692813920568
30
0
41
1
10
21.4970127775912
20
1.23837233934498
30
0
41
1
10
21.4893416237663
20
1.25540165093517
30
0
41
1
10
21.4815739114963
20
1.254466724042
30
0
41
1
10
21.4774194211915
20
1.24890861909373
30
0
0
SPLINE
5
E7
100
AcDbEntity
8
1
62
256
6
ByLayer
370
18
48
1
60
0
100
AcDbSpline
70
4
71
3
72
16
73
12
40
0
40
0
40
0
40
0
40
0.168077570095985
40
0.168077570095985
40
0.306731308413321
40
0.306731308413321
40
0.445385046730656
40
0.445385046730656
40
0.722692523365328
40
0.722692523365328
40
1
40
1
40
1
40
1
41
1
10
23.9882492973981
20
-1.46871694884786
30
0
41
1
10
23.9869517555248
20
-1.4709566776863
30
0
41
1
10
23.9856674328697
20
-1.47208851000514
30
0
41
1
10
23.9833653958373
20
-1.47208990398903
30
0
41
1
10
23.9823401051662
20
-1.47131910017256
30
0
41
1
10
23.9803274466968
20
-1.46818640352933
30
0
41
1
10
23.9793441516418
20
-1.46582614843391
30
0
41
1
10
23.9764910537081
20
-1.45644162273865
30
0
41
1
10
23.9747097883222
20
-1.44710560748862
30
0
41
1
10
23.9713610856141
20
-1.42235196646277
30
0
41
1
10
23.9697871131743
20
-1.40694430682799
30
0
41
1
10
23.9681805050147
20
-1.38861063953266
30
0
0
SPLINE
5
E8
100
AcDbEntity
8
1
62
256
6
ByLayer
370
18
48
1
60
0
100
AcDbSpline
70
4
71
3
72
16
73
12
40
0
40
0
40
0
40
0
40
0.272956928369421
40
0.272956928369421
40
0.545913856738842
40
0.545913856738842
40
0.682392320923552
40
0.682392320923552
40
0.818870785108261
40
0.818870785108261
40
1
40
1
40
1
40
1
41
1
10
23.8408767211384
20
-1.38562109717859
30
0
41
1
10
23.8447692499842
20
-1.40797814176201
30
0
41
1
10
23.8486656709738
20
-1.42727675667919
30
0
41
1
10
23.8565101261584
20
-1.45970694726134
30
0
41
1
10
23.8604389708209
20
-1.4728271863992
30
0
41
1
10
23.866247470077
20
-1.48764230214741
30
0
41
1
10
23.8681746520623
20
-1.49177607536225
30
0
41
1
10
23.8720017997204
20
-1.49837806981179
30
0
41
1
10
23.87388615002
20
-1.50082098532849
30
0
41
1
10
23.8782115144346
20
-1.50456636813686
30
0
41
1
10
23.8806326537907
20
-1.50523776167071
30
0
41
1
10
23.8830190875291
20
-1.50447196663731
30
0
0
SPLINE
5
E9
100
AcDbEntity
8
1
62
256
6
ByLayer
370
13
48
1
60
0
100
AcDbSpline
70
4
71
3
72
9
73
5
40
0
40
0
40
0
40
0
40
0.283582678898913
40
1
40
1
40
1
40
1
41
1.04
10
21.8921697422876
20
1.1454538408351
30
0
41
1.04
10
21.8899485504786
20
1.15974087749773
30
0
41
1.04
10
21.8821103291078
20
1.20542066681931
30
0
41
1.04
10
21.8742671329409
20
1.23337208632321
30
0
41
1.04
10
21.8686294863259
20
1.24408451092852
30
0
0
SPLINE
5
EA
100
AcDbEntity
8
1
62
256
6
ByLayer
370
13
48
1
60
0
100
AcDbSpline
70
4
71
3
72
9
73
5
40
0
40
0
40
0
40
0
40
0.545708381528868
40
1
40
1
40
1
40
1
41
1
10
23.725728585804
20
-1.2464528922863
30
0
41
1
10
23.7211522415724
20
-1.23894420567819
30
0
41
1
10
23.7127594388937
20
-1.2138484201954
30
0
41
1
10
23.7043256094253
20
-1.16782846303755
30
0
41
1
10
23.7004963366913
20
-1.14298456867158
30
0
0
SPLINE
5
EB
100
AcDbEntity
8
1
62
256
6
ByLayer
370
18
48
1
60
0
100
AcDbSpline
70
4
71
3
72
14
73
10
40
0
40
0
40
0
40
0
40
0.0642924947371751
40
0.0642924947371751
40
0.220243745614313
40
0.220243745614313
40
0.37619499649145
40
0.37619499649145
40
1
40
1
40
1
40
1
41
1
10
20.0445743003663
20
-1.36431390347553
30
0
41
1
10
20.0440438834377
20
-1.36422969337968
30
0
41
1
10
20.0435135197571
20
-1.36403792249467
30
0
41
1
10
20.0416964742587
20
-1.36301130429209
30
0
41
1
10
20.0404093581729
20
-1.36164810963356
30
0
41
1
10
20.0378288573827
20
-1.35762230238461
30
0
41
1
10
20.0365365990893
20
-1.35495662790785
30
0
41
1
10
20.0301207691274
20
-1.33854213327342
30
0
41
1
10
20.025075317591
20
-1.31555667787961
30
0
41
1
10
20.0198350556171
20
-1.2828566526972
30
0
0
SPLINE
5
EC
100
AcDbEntity
8
1
62
256
6
ByLayer
370
18
48
1
60
0
100
AcDbSpline
70
4
71
3
72
15
73
11
40
0
40
0
40
0
40
0
40
0.428107401904232
40
0.428107401904232
40
0.535134252380289
40
0.535134252380289
40
0.642161102856346
40
0.642161102856346
40
0.85621480380846
40
1
40
1
40
1
40
1
41
1
10
19.7338615930187
20
-1.16593846340808
30
0
41
1
10
19.739982714433
20
-1.21038720056237
30
0
41
1
10
19.7461381469785
20
-1.24571736630128
30
0
41
1
10
19.7538354202085
20
-1.27863645877429
30
0
41
1
10
19.7553754924542
20
-1.28465231178433
30
0
41
1
10
19.7584582016921
20
-1.29552842187471
30
0
41
1
10
19.7599960078771
20
-1.30036876307136
30
0
41
1
10
19.7645690367481
20
-1.31301774688566
30
0
41
1
10
19.7695973648472
20
-1.32303247569189
30
0
41
1
10
19.7745632724513
20
-1.32638298792202
30
0
41
1
10
19.7765569799085
20
-1.32664732789118
30
0
0
SPLINE
5
ED
100
AcDbEntity
8
1
62
256
6
ByLayer
370
13
48
1
60
0
100
AcDbSpline
70
4
71
3
72
8
73
4
40
0
40
0
40
0
40
0
40
1
40
1
40
1
40
1
41
1
10
19.7265346659916
20
-1.24753264997327
30
0
41
1
10
19.7158944188976
20
-1.23142544518498
30
0
41
1
10
19.7052203744123
20
-1.18211326992582
30
0
41
1
10
19.6943867783266
20
-1.10040693235871
30
0
0
SPLINE
5
EE
100
AcDbEntity
8
1
62
256
6
ByLayer
370
13
48
1
60
0
100
AcDbSpline
70
4
71
3
72
9
73
5
40
0
40
0
40
0
40
0
40
0.0655310375170251
40
1
40
1
40
1
40
1
41
1.04
10
19.6274780808327
20
-1.219543554907
30
0
41
1.04
10
19.6260830449736
20
-1.22463177858728
30
0
41
1.04
10
19.6048110512136
20
-1.29358857876909
30
0
41
1.04
10
19.5837432006952
20
-1.22823138233904
30
0
41
1.04
10
19.5634184255866
20
-1.05462574121583
30
0
0
SPLINE
5
EF
100
AcDbEntity
8
1
62
256
6
ByLayer
370
18
48
1
60
0
100
AcDbSpline
70
4
71
3
72
20
73
16
40
0
40
0
40
0
40
0
40
0.0446992126174459
40
0.0446992126174459
40
0.131544738743132
40
0.131544738743132
40
0.305235790994506
40
0.305235790994506
40
0.652617895497253
40
0.652617895497253
40
0.73946342162294
40
0.73946342162294
40
0.826308947748626
40
0.826308947748626
40
1
40
1
40
1
40
1
41
1
10
19.5822198561078
20
-1.2993341169217
30
0
41
1
10
19.5815670399974
20
-1.29923563929071
30
0
41
1
10
19.5809139936167
20
-1.29898617616814
30
0
41
1
10
19.5789912113276
20
-1.2978043321589
30
0
41
1
10
19.5777176671273
20
-1.29644332875674
30
0
41
1
10
19.5739275747641
20
-1.29066753325469
30
0
41
1
10
19.571432993812
20
-1.28456983103356
30
0
41
1
10
19.5639982103567
20
-1.25972083711193
30
0
41
1
10
19.5591127504348
20
-1.2344830792409
30
0
41
1
10
19.5528486458631
20
-1.19166260166284
30
0
41
1
10
19.5515926051912
20
-1.18256200562934
30
0
41
1
10
19.5490833852056
20
-1.16342139880626
30
0
41
1
10
19.5478276876169
20
-1.153364363436
30
0
41
1
10
19.5440469141119
20
-1.12175330852477
30
0
41
1
10
19.541505872323
20
-1.09876283532731
30
0
41
1
10
19.5389255355623
20
-1.07386488896484
30
0
0
SPLINE
5
F0
100
AcDbEntity
8
1
62
256
6
ByLayer
370
13
48
1
60
0
100
AcDbSpline
70
4
71
3
72
9
73
5
40
0
40
0
40
0
40
0
40
0.627842378113224
40
1
40
1
40
1
40
1
41
1.04
10
23.6166897950528
20
-1.24716381466316
30
0
41
1.04
10
23.6068473818216
20
-1.26236243212733
30
0
41
1.04
10
23.5912159699182
20
-1.24145943694078
30
0
41
1.04
10
23.5754414197309
20
-1.14740260443037
30
0
41
1.04
10
23.5695890031908
20
-1.10361939598132
30
0
0
SPLINE
5
F1
100
AcDbEntity
8
1
62
256
6
ByLayer
370
18
48
1
60
0
100
AcDbSpline
70
4
71
3
72
23
73
19
40
0
40
0
40
0
40
0
40
0.062499999999999
40
0.062499999999999
40
0.124999999999998
40
0.249999999999997
40
0.249999999999997
40
0.374999999999996
40
0.374999999999996
40
0.437499999999996
40
0.437499999999996
40
0.499999999999997
40
0.499999999999997
40
0.749999999999998
40
0.749999999999998
40
0.874999999999999
40
0.874999999999999
40
1
40
1
40
1
40
1
41
1
10
19.1615255511857
20
-0.874511855079305
30
0
41
1
10
19.1630844459733
20
-0.889626452144967
30
0
41
1
10
19.1646450470583
20
-0.904399162892105
30
0
41
1
10
19.1677549017366
20
-0.933067873246586
30
0
41
1
10
19.1723978092356
20
-0.97471590487595
30
0
41
1
10
19.1770033378872
20
-1.01239232237535
30
0
41
1
10
19.1831503550086
20
-1.05915887483295
30
0
41
1
10
19.1862188776267
20
-1.08080729838989
30
0
41
1
10
19.1907610101089
20
-1.11063640793932
30
0
41
1
10
19.1922664061777
20
-1.12013812566127
30
0
41
1
10
19.1952664027005
20
-1.13824277761191
30
0
41
1
10
19.1967632160981
20
-1.14685514058536
30
0
41
1
10
19.2041754345653
20
-1.18718323772438
30
0
41
1
10
19.2100404129758
20
-1.21119340183648
30
0
41
1
10
19.2189412372511
20
-1.23514362271533
30
0
41
1
10
19.2219169235036
20
-1.24110015210459
30
0
41
1
10
19.2278995191111
20
-1.24882161711633
30
0
41
1
10
19.2308808407541
20
-1.25054785620611
30
0
41
1
10
19.2338519706332
20
-1.25012998419442
30
0
0
SPLINE
5
F2
100
AcDbEntity
8
1
62
256
6
ByLayer
370
13
48
1
60
0
100
AcDbSpline
70
4
71
3
72
9
73
5
40
0
40
0
40
0
40
0
40
0.275374433240285
40
1
40
1
40
1
40
1
41
1
10
22.0231225617694
20
1.10607634327445
30
0
41
1
10
22.0188620548025
20
1.13776091726973
30
0
41
1
10
22.0033542967412
20
1.23603932050477
30
0
41
1
10
21.9878270823135
20
1.26475988234665
30
0
41
1
10
21.9764364160073
20
1.24741438344091
30
0
0
SPLINE
5
F3
100
AcDbEntity
8
1
62
256
6
ByLayer
370
18
48
1
60
0
100
AcDbSpline
70
4
71
3
72
26
73
22
40
0
40
0
40
0
40
0
40
0.0624999999999999
40
0.0624999999999999
40
0.125
40
0.125
40
0.25
40
0.25
40
0.375
40
0.375
40
0.437499999999999
40
0.437499999999999
40
0.499999999999999
40
0.499999999999999
40
0.749999999999999
40
0.749999999999999
40
0.874999999999999
40
0.874999999999999
40
0.9375
40
0.9375
40
1
40
1
40
1
40
1
41
1
10
19.1210570893669
20
-1.23326249658919
30
0
41
1
10
19.1199383598165
20
-1.23218335905855
30
0
41
1
10
19.1188194970185
20
-1.23059497536107
30
0
41
1
10
19.1165889513365
20
-1.22641656749846
30
0
41
1
10
19.1154792719538
20
-1.22383217371527
30
0
41
1
10
19.1121590011773
20
-1.21462180081016
30
0
41
1
10
19.1099572640607
20
-1.20654209282625
30
0
41
1
10
19.1055320006063
20
-1.18656672451729
30
0
41
1
10
19.1033068532078
20
-1.17467083003351
30
0
41
1
10
19.099922606156
20
-1.15392956511886
30
0
41
1
10
19.0987898220931
20
-1.14653241480715
30
0
41
1
10
19.0965322752164
20
-1.13075714681966
30
0
41
1
10
19.095404434176
20
-1.12235320758634
30
0
41
1
10
19.0898533697283
20
-1.07821647890603
30
0
41
1
10
19.0857407721785
20
-1.0362218322048
30
0
41
1
10
19.0793825217559
20
-0.963451482247393
30
0
41
1
10
19.0772463397285
20
-0.937554640473365
30
0
41
1
10
19.0740180739812
20
-0.896179329493805
30
0
41
1
10
19.0729364652397
20
-0.881943283084894
30
0
41
1
10
19.0707800655572
20
-0.852809618773392
30
0
41
1
10
19.0697038479258
20
-0.837894605356041
30
0
41
1
10
19.0686293336062
20
-0.822631421588312
30
0
0
SPLINE
5
F4
100
AcDbEntity
8
1
62
256
6
ByLayer
370
13
48
1
60
0
100
AcDbSpline
70
4
71
3
72
10
73
6
40
0
40
0
40
0
40
0
40
0.285504211154822
40
0.707247759907048
40
1
40
1
40
1
40
1
41
1
10
23.2254042900809
20
-1.24555175870958
30
0
41
1
10
23.2207411442622
20
-1.23769003765793
30
0
41
1
10
23.2092406523797
20
-1.20276069351846
30
0
41
1
10
23.19336947765
20
-1.09995900730274
30
0
41
1
10
23.1824878600597
20
-0.999702201268491
30
0
41
1
10
23.1780935566517
20
-0.954911079051413
30
0
0
SPLINE
5
F5
100
AcDbEntity
8
1
62
256
6
ByLayer
370
13
48
1
60
0
100
AcDbSpline
70
4
71
3
72
9
73
5
40
0
40
0
40
0
40
0
40
0.19201191325351
40
1
40
1
40
1
40
1
41
1.04
10
22.4148392708702
20
0.956140381187528
30
0
41
1.04
10
22.4119099016798
20
0.985858179938778
30
0
41
1.04
10
22.3965035961212
20
1.13213040951184
30
0
41
1.04
10
22.3803457975309
20
1.22661044050962
30
0
41
1.04
10
22.3665565144691
20
1.24774928055543
30
0
0
SPLINE
5
F6
100
AcDbEntity
8
1
62
256
6
ByLayer
370
18
48
1
60
0
100
AcDbSpline
70
4
71
3
72
25
73
21
40
0
40
0
40
0
40
0
40
0.249999999998811
40
0.249999999998811
40
0.374999999998221
40
0.374999999998221
40
0.406249999998093
40
0.406249999998093
40
0.421874999998029
40
0.421874999998029
40
0.437499999997965
40
0.437499999997965
40
0.468749999998052
40
0.468749999998052
40
0.499999999998138
40
0.499999999998138
40
0.624999999998588
40
0.624999999998588
40
0.749999999999037
40
1
40
1
40
1
40
1
41
1
10
19.0004144040017
20
0.725634328603206
30
0
41
1
10
19.0006166688367
20
0.729893522281117
30
0
41
1
10
19.0008691859591
20
0.734137755076773
30
0
41
1
10
19.001643838579
20
0.740479903341907
30
0
41
1
10
19.0019086387797
20
0.742601049233173
30
0
41
1
10
19.0027536142087
20
0.745201908894046
30
0
41
1
10
19.0029424122802
20
0.745727478701241
30
0
41
1
10
19.0034334976514
20
0.746445686499044
30
0
41
1
10
19.003649248357
20
0.746705990317963
30
0
41
1
10
19.0042915089607
20
0.746865363179637
30
0
41
1
10
19.0045917000374
20
0.746695100027438
30
0
41
1
10
19.0052291998013
20
0.746155208468139
30
0
41
1
10
19.0054969203312
20
0.745700111513258
30
0
41
1
10
19.0060040170527
20
0.744788086131166
30
0
41
1
10
19.0062212120753
20
0.744318696537874
30
0
41
1
10
19.0072303920181
20
0.741949063997538
30
0
41
1
10
19.0078202689862
20
0.73997675210569
30
0
41
1
10
19.0089321217274
20
0.73601024674781
30
0
41
1
10
19.0104261430949
20
0.730005455793503
30
0
41
1
10
19.0116786934829
20
0.723897414460311
30
0
41
1
10
19.0124712664999
20
0.7197967423987
30
0
0
SPLINE
5
F7
100
AcDbEntity
8
1
62
256
6
ByLayer
370
18
48
1
60
0
100
AcDbSpline
70
4
71
3
72
22
73
18
40
0
40
0
40
0
40
0
40
0.25
40
0.25
40
0.3125
40
0.3125
40
0.375
40
0.375
40
0.5
40
0.5
40
0.750000000000001
40
0.750000000000001
40
0.812500000000001
40
0.812500000000001
40
0.875000000000001
40
0.875000000000001
40
1
40
1
40
1
40
1
41
1
10
19.4384389424411
20
0.482417713811486
30
0
41
1
10
19.4334267198027
20
0.562673470362597
30
0
41
1
10
19.4283837701021
20
0.638390380854929
30
0
41
1
10
19.4220391157133
20
0.727501357365639
30
0
41
1
10
19.4207705585072
20
0.745044389975732
30
0
41
1
10
19.4182361588885
20
0.779564953590011
30
0
41
1
10
19.4169671326368
20
0.796584198800957
30
0
41
1
10
19.4131874859737
20
0.846453917004283
30
0
41
1
10
19.4107137643561
20
0.87801359792158
30
0
41
1
10
19.4033746768014
20
0.967784620776627
30
0
41
1
10
19.3986027801617
20
1.02113901795485
30
0
41
1
10
19.3924025069947
20
1.07943104106934
30
0
41
1
10
19.3911465710884
20
1.09067831014289
30
0
41
1
10
19.3886336220493
20
1.11207162188322
30
0
41
1
10
19.3873741995362
20
1.12224962285188
30
0
41
1
10
19.383592248044
20
1.15125388580267
30
0
41
1
10
19.3810667134034
20
1.1685543889501
30
0
41
1
10
19.3785417506978
20
1.18383893860428
30
0
0
SPLINE
5
F8
100
AcDbEntity
8
1
62
256
6
ByLayer
370
13
48
1
60
0
100
AcDbSpline
70
4
71
3
72
10
73
6
40
0
40
0
40
0
40
0
40
0.164017980836457
40
0.788169007351825
40
1
40
1
40
1
40
1
41
1.04
10
19.4533269684638
20
0.469914014239838
30
0
41
1.04
10
19.4499480767647
20
0.519183103939041
30
0
41
1.04
10
19.4336149261508
20
0.751124708827187
30
0
41
1.04
10
19.4121279913088
20
1.00624110123359
30
0
41
1.04
10
19.3938415996842
20
1.1366479529961
30
0
41
1.04
10
19.3891773627695
20
1.16385981806099
30
0
0
SPLINE
5
F9
100
AcDbEntity
8
1
62
256
6
ByLayer
370
13
48
1
60
0
100
AcDbSpline
70
4
71
3
72
10
73
6
40
0
40
0
40
0
40
0
40
0.344372771040266
40
0.669285577244866
40
1
40
1
40
1
40
1
41
1.04
10
23.1085158176704
20
-1.25290345776936
30
0
41
1.04
10
23.1011906322325
20
-1.25235815186412
30
0
41
1.04
10
23.08698670533
20
-1.22135075689079
30
0
41
1.04
10
23.0663855666116
20
-1.08966426063111
30
0
41
1.04
10
23.053529055261
20
-0.965103242249381
30
0
41
1.04
10
23.047169346802
20
-0.895019804362654
30
0
0
SPLINE
5
FA
100
AcDbEntity
8
1
62
256
6
ByLayer
370
13
48
1
60
0
100
AcDbSpline
70
4
71
3
72
9
73
5
40
0
40
0
40
0
40
0
40
0.25982895415826
40
1
40
1
40
1
40
1
41
1
10
22.5458207082639
20
0.895983969793974
30
0
41
1
10
22.5408924912406
20
0.95008083723971
30
0
41
1
10
22.5215934546479
20
1.14205752894617
30
0
41
1
10
22.5010994972594
20
1.25113119315333
30
0
41
1
10
22.4849006073752
20
1.25367236583955
30
0
0
SPLINE
5
FB
100
AcDbEntity
8
1
62
256
6
ByLayer
370
13
48
1
60
0
100
AcDbSpline
70
4
71
3
72
10
73
6
40
0
40
0
40
0
40
0
40
0.261694855466009
40
0.882358943189603
40
1
40
1
40
1
40
1
41
1
10
19.5842509886057
20
0.386408732260207
30
0
41
1
10
19.578864923916
20
0.467048369183374
30
0
41
1
10
19.560562447258
20
0.731846771460198
30
0
41
1
10
19.5389547551856
20
0.987090841187836
30
0
41
1
10
19.5227463978823
20
1.10986506587128
30
0
41
1
10
19.5201555746899
20
1.12767251408042
30
0
0
SPLINE
5
FC
100
AcDbEntity
8
1
62
256
6
ByLayer
370
13
48
1
60
0
100
AcDbSpline
70
4
71
3
72
10
73
6
40
0
40
0
40
0
40
0
40
0.165986429364228
40
0.783091677216269
40
1
40
1
40
1
40
1
41
1.04
10
22.9374185772825
20
0.69136548979566
30
0
41
1.04
10
22.933783780568
20
0.739187384829302
30
0
41
1.04
10
22.9166518042009
20
0.954197385471426
30
0
41
1.04
10
22.8947678028118
20
1.15197330771268
30
0
41
1.04
10
22.8774030376252
20
1.22210731980766
30
0
41
1.04
10
22.8729398940369
20
1.23433201365848
30
0
0
SPLINE
5
FD
100
AcDbEntity
8
1
62
256
6
ByLayer
370
13
48
1
60
0
100
AcDbSpline
70
4
71
3
72
9
73
5
40
0
40
0
40
0
40
0
40
0.816656365263003
40
1
40
1
40
1
40
1
41
1.04
10
19.9759476389954
20
0.125070260369361
30
0
41
1.04
10
19.9583491922513
20
0.400511334092166
30
0
41
1.04
10
19.9371705011852
20
0.720290814382315
30
0
41
1.04
10
19.9157651596334
20
0.94801418164569
30
0
41
1.04
10
19.9118273833646
20
0.986262169072888
30
0
0
SPLINE
5
FE
100
AcDbEntity
8
1
62
256
6
ByLayer
370
18
48
1
60
0
100
AcDbSpline
70
4
71
3
72
20
73
16
40
0
40
0
40
0
40
0
40
0.125000000000001
40
0.125000000000001
40
0.250000000000001
40
0.250000000000001
40
0.312500000000002
40
0.312500000000002
40
0.375000000000002
40
0.375000000000002
40
0.500000000000002
40
0.500000000000002
40
0.750000000000001
40
0.750000000000001
40
1
40
1
40
1
40
1
41
1
10
19.5439020607925
20
1.16015227227499
30
0
41
1
10
19.5468800648269
20
1.14057166636144
30
0
41
1
10
19.5498560462912
20
1.11901697609159
30
0
41
1
10
19.5559014788635
20
1.07207566337175
30
0
41
1
10
19.5589610695331
20
1.04668746580333
30
0
41
1
10
19.5635620534397
20
1.00570409828887
30
0
41
1
10
19.5650978814005
20
0.991558534547607
30
0
41
1
10
19.5681697833606
20
0.962282874333113
30
0
41
1
10
19.5697083426638
20
0.947124862568359
30
0
41
1
10
19.5742731118244
20
0.900651725805915
30
0
41
1
10
19.5772619064846
20
0.868204838483081
30
0
41
1
10
19.5861049411541
20
0.7665928761256
30
0
41
1
10
19.5918120289596
20
0.693188261410143
30
0
41
1
10
19.6036522352817
20
0.534753827770686
30
0
41
1
10
19.6095747455378
20
0.452469111929077
30
0
41
1
10
19.6155532873833
20
0.367245569571566
30
0
0
SPLINE
5
FF
100
AcDbEntity
8
1
62
256
6
ByLayer
370
18
48
1
60
0
100
AcDbSpline
70
4
71
3
72
21
73
17
40
0
40
0
40
0
40
0
40
0.250000000000002
40
0.250000000000002
40
0.312500000000002
40
0.312500000000002
40
0.375000000000002
40
0.375000000000002
40
0.500000000000003
40
0.625000000000003
40
0.625000000000003
40
0.687500000000003
40
0.687500000000003
40
0.750000000000003
40
0.750000000000003
40
1
40
1
40
1
40
1
41
1
10
19.9210653350074
20
0.148556083264026
30
0
41
1
10
19.9158537239836
20
0.242099760140491
30
0
41
1
10
19.9106526007743
20
0.333281803439604
30
0
41
1
10
19.9041692564192
20
0.444343242689058
30
0
41
1
10
19.9028729810023
20
0.466408183361381
30
0
41
1
10
19.9002789772056
20
0.510237947608857
30
0
41
1
10
19.898988152557
20
0.531885528132023
30
0
41
1
10
19.8951452436053
20
0.595766534350872
30
0
41
1
10
19.8900869805656
20
0.678352855276955
30
0
41
1
10
19.8850797145539
20
0.755863613120709
30
0
41
1
10
19.8813021562685
20
0.812067737849276
30
0
41
1
10
19.8800391651263
20
0.830480303570226
30
0
41
1
10
19.8774971656982
20
0.866648651574991
30
0
41
1
10
19.876214549016
20
0.884451524720816
30
0
41
1
10
19.8698046431435
20
0.970890251100343
30
0
41
1
10
19.8646454085177
20
1.03231862063299
30
0
41
1
10
19.8594671223518
20
1.08622587944328
30
0
0
SPLINE
5
100
100
AcDbEntity
8
1
62
256
6
ByLayer
370
13
48
1
60
0
100
AcDbSpline
70
4
71
3
72
10
73
6
40
0
40
0
40
0
40
0
40
0.26078253080237
40
0.881543242149275
40
1
40
1
40
1
40
1
41
1
10
23.0683663081377
20
0.61504733461669
30
0
41
1
10
23.0626814000962
20
0.693211047362553
30
0
41
1
10
23.0435098206248
20
0.940828324438883
30
0
41
1
10
23.0217547373167
20
1.13563154348151
30
0
41
1
10
23.006361431678
20
1.2060289508558
30
0
41
1
10
23.0039112819173
20
1.21548367925718
30
0
0
SPLINE
5
101
100
AcDbEntity
8
1
62
256
6
ByLayer
370
13
48
1
60
0
100
AcDbSpline
70
4
71
3
72
10
73
6
40
0
40
0
40
0
40
0
40
0.519555760593975
40
0.825411155514117
40
1
40
1
40
1
40
1
41
1.04
10
23.4600935425835
20
0.369161509456881
30
0
41
1.04
10
23.4492697224503
20
0.532092127688727
30
0
41
1.04
10
23.4317453110782
20
0.779851926626335
30
0
41
1.04
10
23.4098932370062
20
1.01180735940106
30
0
41
1.04
10
23.3993329219787
20
1.09630662123126
30
0
41
1.04
10
23.395485537906
20
1.12316481279286
30
0
0
SPLINE
5
102
100
AcDbEntity
8
1
62
256
6
ByLayer
370
13
48
1
60
0
100
AcDbSpline
70
4
71
3
72
9
73
5
40
0
40
0
40
0
40
0
40
0.910975943552104
40
1
40
1
40
1
40
1
41
1
10
20.1069194229228
20
0.0356446532690029
30
0
41
1
10
20.0871883053765
20
0.346062961837163
30
0
41
1
10
20.0660152533503
20
0.674142929552289
30
0
41
1
10
20.0446152976228
20
0.909361554188877
30
0
41
1
10
20.042707742963
20
0.929519122077494
30
0
0
SPLINE
5
103
100
AcDbEntity
8
1
62
256
6
ByLayer
370
13
48
1
60
0
100
AcDbSpline
70
4
71
3
72
9
73
5
40
0
40
0
40
0
40
0
40
0.544189137234435
40
1
40
1
40
1
40
1
41
1.04
10
20.49857889786
20
-0.229778613402396
30
0
41
1.04
10
20.487244857571
20
-0.0541284786106207
30
0
41
1.04
10
20.4662348876604
20
0.283686677058762
30
0
41
1.04
10
20.44432601813
20
0.603062101950295
30
0
41
1.04
10
20.4342850078786
20
0.731797389628743
30
0
0
SPLINE
5
104
100
AcDbEntity
8
1
62
256
6
ByLayer
370
18
48
1
60
0
100
AcDbSpline
70
4
71
3
72
23
73
19
40
0
40
0
40
0
40
0
40
0.249999999999997
40
0.249999999999997
40
0.312499999999996
40
0.312499999999996
40
0.374999999999996
40
0.374999999999996
40
0.499999999999997
40
0.624999999999998
40
0.624999999999998
40
0.687499999999998
40
0.687499999999998
40
0.749999999999998
40
0.749999999999998
40
0.874999999999999
40
0.874999999999999
40
1
40
1
40
1
40
1
41
1
10
20.1137566352847
20
1.00002650327474
30
0
41
1
10
20.1199864034185
20
0.93269654195845
30
0
41
1
10
20.1262785568543
20
0.858408073330992
30
0
41
1
10
20.1341977645162
20
0.756868748750605
30
0
41
1
10
20.1357881908115
20
0.736062461738612
30
0
41
1
10
20.1389468989904
20
0.69391927240838
30
0
41
1
10
20.1405155446938
20
0.672580675541866
30
0
41
1
10
20.1451931224174
20
0.607779981465342
30
0
41
1
10
20.1513530120163
20
0.519290182293418
30
0
41
1
10
20.1574300196337
20
0.426686721956543
30
0
41
1
10
20.161999106622
20
0.355664276361154
30
0
41
1
10
20.1635254976378
20
0.331707305487413
30
0
41
1
10
20.16658611488
20
0.283343514011961
30
0
41
1
10
20.1681086795263
20
0.259121975136765
30
0
41
1
10
20.1726681414939
20
0.186342278629098
30
0
41
1
10
20.1756968472664
20
0.137669360244075
30
0
41
1
10
20.1818124491624
20
0.0400295967611726
30
0
41
1
10
20.1849105688457
20
-0.0089364560558636
30
0
41
1
10
20.1880427550638
20
-0.0580508727152846
30
0
0
SPLINE
5
105
100
AcDbEntity
8
1
62
256
6
ByLayer
370
18
48
1
60
0
100
AcDbSpline
70
4
71
3
72
21
73
17
40
0
40
0
40
0
40
0
40
0.249999999999999
40
0.249999999999999
40
0.312499999999999
40
0.312499999999999
40
0.374999999999999
40
0.374999999999999
40
0.499999999999999
40
0.499999999999999
40
0.624999999999999
40
0.75
40
0.75
40
0.875
40
0.875
40
1
40
1
40
1
40
1
41
1
10
20.4035542260065
20
-0.231685372573025
30
0
41
1
10
20.398324610086
20
-0.131198042935296
30
0
41
1
10
20.3932295209713
20
-0.0305068121876957
30
0
41
1
10
20.3867393233517
20
0.0955928520011184
30
0
41
1
10
20.385434937622
20
0.120824682746189
30
0
41
1
10
20.3828053277875
20
0.171312144120549
30
0
41
1
10
20.3814761702681
20
0.196641534860021
30
0
41
1
10
20.3774759843181
20
0.272083451846726
30
0
41
1
10
20.3747975278516
20
0.321497600694556
30
0
41
1
10
20.3693855768311
20
0.418619160937851
30
0
41
1
10
20.3639466431289
20
0.514036248223618
30
0
41
1
10
20.358586822823
20
0.606051059571513
30
0
41
1
10
20.3532616351648
20
0.696299930196915
30
0
41
1
10
20.3506585318002
20
0.739818048223384
30
0
41
1
10
20.3455043736916
20
0.823591898028411
30
0
41
1
10
20.3429519254765
20
0.863869836649229
30
0
41
1
10
20.3403603984016
20
0.902521713642926
30
0
0
SPLINE
5
106
100
AcDbEntity
8
1
62
256
6
ByLayer
370
13
48
1
60
0
100
AcDbSpline
70
4
71
3
72
10
73
6
40
0
40
0
40
0
40
0
40
0.0905685176966284
40
0.816960010136771
40
1
40
1
40
1
40
1
41
1
10
24.1136171673685
20
-0.0702533822734779
30
0
41
1
10
24.1117371598983
20
-0.0407398784390978
30
0
41
1
10
24.094720739375
20
0.227019552134181
30
0
41
1
10
24.0732005799811
20
0.566480711884168
30
0
41
1
10
24.0529916985682
20
0.814271313504435
30
0
41
1
10
24.0489145376056
20
0.860915363721602
30
0
0
SPLINE
5
107
100
AcDbEntity
8
1
62
256
6
ByLayer
370
18
48
1
60
0
100
AcDbSpline
70
4
71
3
72
25
73
21
40
0
40
0
40
0
40
0
40
0.124999999999999
40
0.124999999999999
40
0.249999999999998
40
0.249999999999998
40
0.312499999999998
40
0.312499999999998
40
0.374999999999998
40
0.374999999999998
40
0.499999999999999
40
0.625
40
0.625
40
0.6875
40
0.6875
40
0.75
40
0.75
40
0.875
40
0.875
40
1
40
1
40
1
40
1
41
1
10
24.1401746048536
20
0.936399938658411
30
0
41
1
10
24.1439369790306
20
0.89852566117878
30
0
41
1
10
24.147601891678
20
0.858822115549287
30
0
41
1
10
24.1548911805871
20
0.775804487943674
30
0
41
1
10
24.1585293146177
20
0.732490273121783
30
0
41
1
10
24.1639675983799
20
0.66477508427792
30
0
41
1
10
24.1657733548524
20
0.641788209235017
30
0
41
1
10
24.1693372503696
20
0.59542720136028
30
0
41
1
10
24.1711002559246
20
0.571992851342316
30
0
41
1
10
24.1763356329977
20
0.50094440973217
30
0
41
1
10
24.1831726182016
20
0.404230587829886
30
0
41
1
10
24.1897937612737
20
0.303605883781955
30
0
41
1
10
24.1947196927568
20
0.22662308040006
30
0
41
1
10
24.196348444391
20
0.200813576079497
30
0
41
1
10
24.1995655942684
20
0.149287283539508
30
0
41
1
10
24.2011577330847
20
0.123511882251592
30
0
41
1
10
24.20590374396
20
0.0461503914284265
30
0
41
1
10
24.2090371837844
20
-0.0054703123335855
30
0
41
1
10
24.215278618096
20
-0.108803079237532
30
0
41
1
10
24.2183776731283
20
-0.160515635758145
30
0
41
1
10
24.2214330614094
20
-0.212277797491396
30
0
0
SPLINE
5
108
100
AcDbEntity
8
1
62
256
6
ByLayer
370
13
48
1
60
0
100
AcDbSpline
70
4
71
3
72
9
73
5
40
0
40
0
40
0
40
0
40
0.639057480450863
40
1
40
1
40
1
40
1
41
1
10
20.6294888294669
20
-0.316426036166547
30
0
41
1
10
20.6161566925325
20
-0.11292222712612
30
0
41
1
10
20.595143393901
20
0.228217688537029
30
0
41
1
10
20.5732233685174
20
0.549909744472842
30
0
41
1
10
20.5652597976925
20
0.65695673109451
30
0
0
SPLINE
5
109
100
AcDbEntity
8
1
62
256
6
ByLayer
370
13
48
1
60
0
100
AcDbSpline
70
4
71
3
72
9
73
5
40
0
40
0
40
0
40
0
40
0.266604626110024
40
1
40
1
40
1
40
1
41
1.04
10
21.0211496924013
20
-0.566016883141884
30
0
41
1.04
10
21.0156926203947
20
-0.489448351223186
30
0
41
1.04
10
20.9950441659253
20
-0.184711193220394
30
0
41
1.04
10
20.973567829684
20
0.170577877979465
30
0
41
1.04
10
20.9569247232158
20
0.416764500609764
30
0
0
SPLINE
5
10A
100
AcDbEntity
8
1
62
256
6
ByLayer
370
13
48
1
60
0
100
AcDbSpline
70
4
71
3
72
9
73
5
40
0
40
0
40
0
40
0
40
0.0752856867262153
40
1
40
1
40
1
40
1
41
1
10
21.6747062135269
20
-0.919961842521957
30
0
41
1
10
21.6731260199606
20
-0.903033396952168
30
0
41
1
10
21.6521334447666
20
-0.670797858786074
30
0
41
1
10
21.6311332176095
20
-0.345875359116093
30
0
41
1
10
21.6102923045878
20
-0.0179758440050932
30
0
0
SPLINE
5
10B
100
AcDbEntity
8
1
62
256
6
ByLayer
370
13
48
1
60
0
100
AcDbSpline
70
4
71
3
72
9
73
5
40
0
40
0
40
0
40
0
40
0.914860665700199
40
1
40
1
40
1
40
1
41
1.04
10
21.5437853987731
20
-0.857186562622139
30
0
41
1.04
10
21.5247105640201
20
-0.637464224106338
30
0
41
1.04
10
21.5038186824842
20
-0.314394335270051
30
0
41
1.04
10
21.4812773003437
20
0.040810043126964
30
0
41
1.04
10
21.4793461568487
20
0.0711888755151772
30
0
0
SPLINE
5
10C
100
AcDbEntity
8
1
62
256
6
ByLayer
370
13
48
1
60
0
100
AcDbSpline
70
4
71
3
72
9
73
5
40
0
40
0
40
0
40
0
40
0.363499974966876
40
1
40
1
40
1
40
1
41
1
10
21.1521273114695
20
-0.644493435576607
30
0
41
1
10
21.1446577792855
20
-0.543735901559018
30
0
41
1
10
21.123880362526
20
-0.240213712553924
30
0
41
1
10
21.1022579309883
20
0.114168501862423
30
0
41
1
10
21.0878514248982
20
0.332248588517274
30
0
0
SPLINE
5
10D
100
AcDbEntity
8
1
62
256
6
ByLayer
370
18
48
1
60
0
100
AcDbSpline
70
4
71
3
72
14
73
10
40
0
40
0
40
0
40
0
40
0.499999999999997
40
0.499999999999997
40
0.624999999999997
40
0.624999999999997
40
0.749999999999996
40
0.749999999999996
40
1
40
1
40
1
40
1
41
1
10
23.7906909072006
20
0.473840800186594
30
0
41
1
10
23.780887880045
20
0.562898947819576
30
0
41
1
10
23.7707798894793
20
0.648925622406324
30
0
41
1
10
23.7569016517222
20
0.752517584787228
30
0
41
1
10
23.7540622483749
20
0.773037364447191
30
0
41
1
10
23.7482316917666
20
0.813669847979554
30
0
41
1
10
23.74524507354
20
0.833746677999812
30
0
41
1
10
23.7361106349665
20
0.892814207278377
30
0
41
1
10
23.7297618124229
20
0.930817421796917
30
0
41
1
10
23.723104479864
20
0.967460148510128
30
0
0
SPLINE
5
10E
100
AcDbEntity
8
1
62
256
6
ByLayer
370
13
48
1
60
0
100
AcDbSpline
70
4
71
3
72
10
73
6
40
0
40
0
40
0
40
0
40
0.613992538366874
40
0.917731472681324
40
1
40
1
40
1
40
1
41
1
10
23.5910577671019
20
0.282716829966745
30
0
41
1
10
23.578271172976
20
0.478864389300753
30
0
41
1
10
23.5587195645787
20
0.763032783550074
30
0
41
1
10
23.5367152443722
20
0.995049365698179
30
0
41
1
10
23.5281810745321
20
1.06692036945097
30
0
41
1
10
23.5263601973836
20
1.08140365254599
30
0
0
SPLINE
5
10F
100
AcDbEntity
8
1
62
256
6
ByLayer
370
18
48
1
60
0
100
AcDbSpline
70
4
71
3
72
21
73
17
40
0
40
0
40
0
40
0
40
0.124999999999999
40
0.124999999999999
40
0.187499999999999
40
0.187499999999999
40
0.249999999999999
40
0.249999999999999
40
0.499999999999999
40
0.499999999999999
40
0.749999999999998
40
0.749999999999998
40
0.812499999999999
40
0.812499999999999
40
0.874999999999999
40
1
40
1
40
1
40
1
41
1
10
23.723104479864
20
0.967460148510099
30
0
41
1
10
23.7251055931985
20
0.937504516954618
30
0
41
1
10
23.7271206738863
20
0.906600141948559
30
0
41
1
10
23.7301561604811
20
0.858793075260422
30
0
41
1
10
23.7311701736851
20
0.842615379842329
30
0
41
1
10
23.7332018123982
20
0.809768174828605
30
0
41
1
10
23.7342183749022
20
0.793114711396299
30
0
41
1
10
23.7392666758117
20
0.709320230663792
30
0
41
1
10
23.7432221043792
20
0.640074241814119
30
0
41
1
10
23.7510483761142
20
0.497293822142979
30
0
41
1
10
23.7549165553156
20
0.423759363913405
30
0
41
1
10
23.7598679037674
20
0.329066895386177
30
0
41
1
10
23.7608641824966
20
0.310003193035641
30
0
41
1
10
23.7628542142649
20
0.271919548602853
30
0
41
1
10
23.7658415114668
20
0.214741220032693
30
0
41
1
10
23.7688370995354
20
0.15740683876885
30
0
41
1
10
23.7708385676573
20
0.119115643738752
30
0
0
SPLINE
5
110
100
AcDbEntity
8
1
62
256
6
ByLayer
370
18
48
1
60
0
100
AcDbSpline
70
4
71
3
72
20
73
16
40
0
40
0
40
0
40
0
40
0.25
40
0.25
40
0.375
40
0.375
40
0.4375
40
0.4375
40
0.5
40
0.5
40
0.75
40
0.75
40
0.875
40
0.875
40
1
40
1
40
1
40
1
41
1
10
23.7906909072005
20
0.473840800186679
30
0
41
1
10
23.7875428204978
20
0.550666202202621
30
0
41
1
10
23.7845664401519
20
0.624690360260104
30
0
41
1
10
23.7802393599636
20
0.731502165132383
30
0
41
1
10
23.7788195746618
20
0.766398167605644
30
0
41
1
10
23.7767001241323
20
0.817645902675991
30
0
41
1
10
23.7759941401201
20
0.834572240919073
30
0
41
1
10
23.7745857014474
20
0.867929608919212
30
0
41
1
10
23.7738853411719
20
0.884301506150251
30
0
41
1
10
23.7704290031315
20
0.964643708853089
30
0
41
1
10
23.7678769868276
20
1.02403613043702
30
0
41
1
10
23.764295510982
20
1.10613805560783
30
0
41
1
10
23.7631254086975
20
1.13235107671164
30
0
41
1
10
23.7607478870416
20
1.18249005461809
30
0
41
1
10
23.7595328947641
20
1.20646737605915
30
0
41
1
10
23.7582886617022
20
1.22907059931143
30
0
0
SPLINE
5
111
100
AcDbEntity
8
1
62
256
6
ByLayer
370
13
48
1
60
0
100
AcDbSpline
70
4
71
3
72
9
73
5
40
0
40
0
40
0
40
0
40
0.723557579434228
40
1
40
1
40
1
40
1
41
1.04
10
23.982664190981
20
0.0188913849387317
30
0
41
1.04
10
23.967627938524
20
0.255553488211264
30
0
41
1.04
10
23.9462433385046
20
0.592804141896044
30
0
41
1.04
10
23.9240977196492
20
0.858118693350872
30
0
41
1.04
10
23.9179719084297
20
0.923385167457706
30
0
0
SPLINE
5
112
100
AcDbEntity
8
1
62
256
6
ByLayer
370
18
48
1
60
0
100
AcDbSpline
70
4
71
3
72
18
73
14
40
0
40
0
40
0
40
0
40
0.249999999999997
40
0.249999999999997
40
0.374999999999996
40
0.374999999999996
40
0.437499999999996
40
0.437499999999996
40
0.499999999999996
40
0.499999999999996
40
0.749999999999998
40
0.749999999999998
40
1
40
1
40
1
40
1
41
1
10
21.3721884900932
20
-1.00905784919956
30
0
41
1
10
21.3682575936965
20
-0.9519076022479
30
0
41
1
10
21.3643961441371
20
-0.891622963661746
30
0
41
1
10
21.3586341882261
20
-0.796574876910171
30
0
41
1
10
21.3567181637114
20
-0.764118935314912
30
0
41
1
10
21.353838463671
20
-0.714257416723257
30
0
41
1
10
21.3528775981328
20
-0.697440447564389
30
0
41
1
10
21.3509515908353
20
-0.663408169994568
30
0
41
1
10
21.3499844233034
20
-0.646156238555903
30
0
41
1
10
21.3451624060879
20
-0.55943770696328
30
0
41
1
10
21.3413463310224
20
-0.488594426475856
30
0
41
1
10
21.333655174032
20
-0.344083459607106
30
0
41
1
10
21.3297789711836
20
-0.270415708145805
30
0
41
1
10
21.3258282038467
20
-0.195298450679076
30
0
0
SPLINE
5
113
100
AcDbEntity
8
1
62
256
6
ByLayer
370
18
48
1
60
0
100
AcDbSpline
70
4
71
3
72
23
73
19
40
0
40
0
40
0
40
0
40
0.125
40
0.25
40
0.25
40
0.3125
40
0.3125
40
0.374999999999999
40
0.374999999999999
40
0.499999999999999
40
0.624999999999998
40
0.624999999999998
40
0.687499999999998
40
0.687499999999998
40
0.749999999999998
40
0.749999999999998
40
0.874999999999999
40
1
40
1
40
1
40
1
41
1
10
20.6844254106269
20
0.715732711752992
30
0
41
1
10
20.6876501442044
20
0.669159334243432
30
0
41
1
10
20.6939525065129
20
0.573663625323888
30
0
41
1
10
20.700083439138
20
0.47358374223009
30
0
41
1
10
20.7047325805287
20
0.396792633391357
30
0
41
1
10
20.706292730744
20
0.370906646691964
30
0
41
1
10
20.7094553482095
20
0.31854698964429
30
0
41
1
10
20.7110537371281
20
0.29210724816366
30
0
41
1
10
20.7158461544708
20
0.212882203561009
30
0
41
1
10
20.7222671615999
20
0.106869117748658
30
0
41
1
10
20.7287247080459
20
0.0001130151787265
30
0
41
1
10
20.7335773571816
20
-0.0802364214092677
30
0
41
1
10
20.7351965766016
20
-0.107066725546076
30
0
41
1
10
20.7384392275704
20
-0.160823489653922
30
0
41
1
10
20.7400638465359
20
-0.18776981963822
30
0
41
1
10
20.7448903686369
20
-0.267808650997552
30
0
41
1
10
20.7512361966184
20
-0.373025965755318
30
0
41
1
10
20.7574783927659
20
-0.475298243560417
30
0
41
1
10
20.7606056384284
20
-0.525685270623541
30
0
0
SPLINE
5
114
100
AcDbEntity
8
1
62
256
6
ByLayer
370
18
48
1
60
0
100
AcDbSpline
70
4
71
3
72
24
73
20
40
0
40
0
40
0
40
0
40
0.125000000000001
40
0.125000000000001
40
0.250000000000001
40
0.250000000000001
40
0.312500000000002
40
0.312500000000002
40
0.375000000000002
40
0.375000000000002
40
0.500000000000002
40
0.625000000000003
40
0.625000000000003
40
0.687500000000003
40
0.687500000000003
40
0.750000000000002
40
0.750000000000002
40
0.875000000000001
40
1
40
1
40
1
40
1
41
1
10
20.8862651325293
20
-0.629178087178161
30
0
41
1
10
20.8835718524477
20
-0.579754458485439
30
0
41
1
10
20.8808933297464
20
-0.529429807583824
30
0
41
1
10
20.8755147318956
20
-0.427021420044696
30
0
41
1
10
20.8728102069314
20
-0.374937662066685
30
0
41
1
10
20.8687225371758
20
-0.295476803921815
30
0
41
1
10
20.8673562734207
20
-0.268766813403801
30
0
41
1
10
20.8646180133217
20
-0.214891853143854
30
0
41
1
10
20.863244394667
20
-0.187693630576092
30
0
41
1
10
20.8591639919761
20
-0.106418648001835
30
0
41
1
10
20.8538001445265
20
0.0017441074039368
30
0
41
1
10
20.8485128570723
20
0.109505800674754
30
0
41
1
10
20.8445314835387
20
0.190172806158103
30
0
41
1
10
20.8432015705287
20
0.217036033526
30
0
41
1
10
20.840527497842
20
0.270709518302596
30
0
41
1
10
20.8391798126532
20
0.297588325023639
30
0
41
1
10
20.8351437909488
20
0.377315690354493
30
0
41
1
10
20.8297628097631
20
0.48155547484393
30
0
41
1
10
20.8242675642022
20
0.581742574908731
30
0
41
1
10
20.8214762520948
20
0.630805442506727
30
0
0
SPLINE
5
115
100
AcDbEntity
8
1
62
256
6
ByLayer
370
18
48
1
60
0
100
AcDbSpline
70
4
71
3
72
8
73
4
40
0
40
0
40
0
40
0
40
1
40
1
40
1
40
1
41
1
10
19.6274780808327
20
-1.21954355490698
30
0
41
1
10
19.6180611396391
20
-1.23560587795666
30
0
41
1
10
19.6086508346866
20
-1.25169450005939
30
0
41
1
10
19.599246603184
20
-1.26780957564873
30
0
0
SPLINE
5
116
100
AcDbEntity
8
1
62
256
6
ByLayer
370
18
48
1
60
0
100
AcDbSpline
70
4
71
3
72
14
73
10
40
0
40
0
40
0
40
0
40
0.241184633525434
40
0.241184633525434
40
0.494123089016956
40
0.494123089016956
40
0.747061544508478
40
0.747061544508478
40
1
40
1
40
1
40
1
41
1
10
19.1820561321833
20
-1.21814394265627
30
0
41
1
10
19.1772088112162
20
-1.21732666510076
30
0
41
1
10
19.1722939618845
20
-1.21694142140825
30
0
41
1
10
19.1620894670123
20
-1.2170897492413
30
0
41
1
10
19.1567518835309
20
-1.21767624901668
30
0
41
1
10
19.1461077589341
20
-1.22002068016349
30
0
41
1
10
19.1408804720061
20
-1.2217515434923
30
0
41
1
10
19.1306584888022
20
-1.22651069379478
30
0
41
1
10
19.1256475722979
20
-1.22957172350723
30
0
41
1
10
19.1210570893669
20
-1.23326249658746
30
0
0
SPLINE
5
117
100
AcDbEntity
8
1
62
256
6
ByLayer
370
18
48
1
60
0
100
AcDbSpline
70
4
71
3
72
8
73
4
40
0
40
0
40
0
40
0
40
1
40
1
40
1
40
1
41
1
10
19.1210570893669
20
-1.23326249658919
30
0
41
1
10
19.0808028765707
20
-1.22631650708189
30
0
41
1
10
19.0404638988553
20
-1.21837428558766
30
0
41
1
10
19
20
-1.20945060490675
30
0
0
SPLINE
5
118
100
AcDbEntity
8
1
62
256
6
ByLayer
370
18
48
1
60
0
100
AcDbSpline
70
4
71
3
72
10
73
6
40
0
40
0
40
0
40
0
40
0.5
40
0.5
40
1
40
1
40
1
40
1
41
1
10
22.4812176770257
20
1.25289894221996
30
0
41
1
10
22.5102262131061
20
1.30234106852763
30
0
41
1
10
22.5391179541859
20
1.35144027412173
30
0
41
1
10
22.5966056365255
20
1.44864034464325
30
0
41
1
10
22.6251671239405
20
1.49668272049559
30
0
41
1
10
22.6535673696506
20
1.54408378731915
30
0
0
SPLINE
5
119
100
AcDbEntity
8
1
62
256
6
ByLayer
370
18
48
1
60
0
100
AcDbSpline
70
4
71
3
72
10
73
6
40
0
40
0
40
0
40
0
40
0.119502315914551
40
0.119502315914551
40
1
40
1
40
1
40
1
41
1
10
22.7706423577579
20
1.41282800908985
30
0
41
1
10
22.7746796170022
20
1.40588287686023
30
0
41
1
10
22.7787215008943
20
1.39891647949085
30
0
41
1
10
22.8125882045318
20
1.34043698205718
30
0
41
1
10
22.8426486661916
20
1.28784254057979
30
0
41
1
10
22.8729398940369
20
1.23433201365847
30
0
0
SPLINE
5
11A
100
AcDbEntity
8
1
62
256
6
ByLayer
370
18
48
1
60
0
100
AcDbSpline
70
4
71
3
72
24
73
20
40
0
40
0
40
0
40
0
40
0.125000000000023
40
0.125000000000023
40
0.250000000000047
40
0.250000000000047
40
0.37500000000007
40
0.37500000000007
40
0.500000000000093
40
0.500000000000093
40
0.625000000000117
40
0.625000000000117
40
0.75000000000014
40
0.75000000000014
40
0.812500000000105
40
0.812500000000105
40
0.875000000000071
40
0.875000000000071
40
1
40
1
40
1
40
1
41
1
10
22.8729398940369
20
1.23433201365847
30
0
41
1
10
22.8764776641363
20
1.22808241746793
30
0
41
1
10
22.8806112350413
20
1.22254065640757
30
0
41
1
10
22.8898252266363
20
1.21257443660593
30
0
41
1
10
22.8949710061593
20
1.20811985847965
30
0
41
1
10
22.9058123221367
20
1.20054829330042
30
0
41
1
10
22.9115097304995
20
1.19740601881239
30
0
41
1
10
22.9234317912491
20
1.19237391413682
30
0
41
1
10
22.9295684907719
20
1.19053114496333
30
0
41
1
10
22.9419369439507
20
1.18826230192414
30
0
41
1
10
22.948240471849
20
1.18782008159965
30
0
41
1
10
22.9608662935164
20
1.18853931396114
30
0
41
1
10
22.9670424441508
20
1.18968217918737
30
0
41
1
10
22.9760521494923
20
1.19275269874291
30
0
41
1
10
22.9790330211986
20
1.19401738114163
30
0
41
1
10
22.9847498445158
20
1.19700144461976
30
0
41
1
10
22.9874937650022
20
1.19871923191454
30
0
41
1
10
22.9953478007965
20
1.20461347444854
30
0
41
1
10
23.0001042651985
20
1.20958193197566
30
0
41
1
10
23.0039112819173
20
1.21548367925746
30
0
0
SPLINE
5
11B
100
AcDbEntity
8
1
62
256
6
ByLayer
370
18
48
1
60
0
100
AcDbSpline
70
4
71
3
72
10
73
6
40
0
40
0
40
0
40
0
40
0.5
40
0.5
40
1
40
1
40
1
40
1
41
1
10
23.0039112819173
20
1.21548367925746
30
0
41
1
10
23.0329340671319
20
1.26047563920969
30
0
41
1
10
23.0618388685443
20
1.30450181559885
30
0
41
1
10
23.1193661998855
20
1.39039000297106
30
0
41
1
10
23.1479577921193
20
1.43220820793098
30
0
41
1
10
23.1764040041016
20
1.47286277316311
30
0
0
SPLINE
5
11C
100
AcDbEntity
8
1
62
256
6
ByLayer
370
18
48
1
60
0
100
AcDbSpline
70
4
71
3
72
8
73
4
40
0
40
0
40
0
40
0
40
1
40
1
40
1
40
1
41
1
10
23.2166588122855
20
1.46241561370781
30
0
41
1
10
23.2754463643122
20
1.35085532123759
30
0
41
1
10
23.3350159270668
20
1.23733206965159
30
0
41
1
10
23.395485537906
20
1.12316481279288
30
0
0
SPLINE
5
11D
100
AcDbEntity
8
1
62
256
6
ByLayer
370
18
48
1
60
0
100
AcDbSpline
70
4
71
3
72
24
73
20
40
0
40
0
40
0
40
0
40
0.125
40
0.125
40
0.25
40
0.25
40
0.375
40
0.375
40
0.5
40
0.5
40
0.625
40
0.625
40
0.75
40
0.75
40
0.8125
40
0.8125
40
0.875
40
0.875
40
1
40
1
40
1
40
1
41
1
10
23.395485537906
20
1.12316481279288
30
0
41
1
10
23.3990147746252
20
1.11650157700473
30
0
41
1
10
23.4031401551064
20
1.11041583116523
30
0
41
1
10
23.4123429957094
20
1.09916287863928
30
0
41
1
10
23.4174867081624
20
1.09395395401467
30
0
41
1
10
23.4283325135615
20
1.08473927893664
30
0
41
1
10
23.4340339603046
20
1.08071045475779
30
0
41
1
10
23.445968905998
20
1.07377602023175
30
0
41
1
10
23.4521149526888
20
1.07093118798247
30
0
41
1
10
23.464497036915
20
1.06659101106504
30
0
41
1
10
23.4708102553142
20
1.06506639341538
30
0
41
1
10
23.4834321292912
20
1.06354478891748
30
0
41
1
10
23.4896031227937
20
1.06355366596009
30
0
41
1
10
23.4986010677513
20
1.06488959178722
30
0
41
1
10
23.5015765241798
20
1.06556608772138
30
0
41
1
10
23.5072763174638
20
1.06738552752208
30
0
41
1
10
23.5100111750279
20
1.06852627672771
30
0
41
1
10
23.5178371578448
20
1.07270465935403
30
0
41
1
10
23.5225708168691
20
1.07653994993711
30
0
41
1
10
23.5263601973836
20
1.08140365254599
30
0
0
SPLINE
5
11E
100
AcDbEntity
8
1
62
256
6
ByLayer
370
18
48
1
60
0
100
AcDbSpline
70
4
71
3
72
8
73
4
40
0
40
0
40
0
40
0
40
1
40
1
40
1
40
1
41
1
10
23.5263601973835
20
1.08140365254599
30
0
41
1
10
23.5818473405639
20
1.15262187990933
30
0
41
1
10
23.636888030263
20
1.2182025422255
30
0
41
1
10
23.6912653942214
20
1.2775266573293
30
0
0
SPLINE
5
11F
100
AcDbEntity
8
1
62
256
6
ByLayer
370
18
48
1
60
0
100
AcDbSpline
70
4
71
3
72
8
73
4
40
0
40
0
40
0
40
0
40
1
40
1
40
1
40
1
41
1
10
23.6912653942217
20
1.27752665732942
30
0
41
1
10
23.7135967450956
20
1.26156733901459
30
0
41
1
10
23.7359379542521
20
1.24541374860868
30
0
41
1
10
23.7582886617029
20
1.22907059931109
30
0
0
SPLINE
5
120
100
AcDbEntity
8
1
62
256
6
ByLayer
370
18
48
1
60
0
100
AcDbSpline
70
4
71
3
72
12
73
8
40
0
40
0
40
0
40
0
40
0.500000000000001
40
0.500000000000001
40
0.750000000000001
40
0.750000000000001
40
1
40
1
40
1
40
1
41
1
10
23.7582886617022
20
1.22907059931143
30
0
41
1
10
23.7845846888705
20
1.17760883069474
30
0
41
1
10
23.8110366191993
20
1.12630388786482
30
0
41
1
10
23.8509308578423
20
1.04974701224973
30
0
41
1
10
23.864258059261
20
1.02431395922014
30
0
41
1
10
23.8910258818275
20
0.97367674388093
30
0
41
1
10
23.9044709818317
20
0.948477682535241
30
0
41
1
10
23.9179719084297
20
0.923385167457525
30
0
0
SPLINE
5
121
100
AcDbEntity
8
1
62
256
6
ByLayer
370
18
48
1
60
0
100
AcDbSpline
70
4
71
3
72
24
73
20
40
0
40
0
40
0
40
0
40
0.12499999999999
40
0.12499999999999
40
0.249999999999979
40
0.249999999999979
40
0.374999999999969
40
0.374999999999969
40
0.499999999999959
40
0.499999999999959
40
0.624999999999949
40
0.624999999999949
40
0.749999999999938
40
0.749999999999938
40
0.812499999999933
40
0.812499999999933
40
0.874999999999928
40
0.874999999999928
40
1
40
1
40
1
40
1
41
1
10
23.9179719084297
20
0.923385167457525
30
0
41
1
10
23.9215104726067
20
0.916808472567709
30
0
41
1
10
23.9256476877719
20
0.910638995754653
30
0
41
1
10
23.9348748236043
20
0.898948701157167
30
0
41
1
10
23.9400309455156
20
0.893378819661933
30
0
41
1
10
23.9508955269968
20
0.8832097214366
30
0
41
1
10
23.9566048604596
20
0.878588615341528
30
0
41
1
10
23.9685504337508
20
0.870238011653186
30
0
41
1
10
23.9746947287373
20
0.866580879566811
30
0
41
1
10
23.9870743019851
20
0.860420448774022
30
0
41
1
10
23.993386382274
20
0.857878023175232
30
0
41
1
10
24.0059933604198
20
0.854110080164475
30
0
41
1
10
24.0121576148891
20
0.852913944352622
30
0
41
1
10
24.0211465422134
20
0.852294666798713
30
0
41
1
10
24.024119276856
20
0.852289435515189
30
0
41
1
10
24.0298165623646
20
0.852723880559893
30
0
41
1
10
24.0325509255347
20
0.853159639211384
30
0
41
1
10
24.0403775473696
20
0.855182454850819
30
0
41
1
10
24.0451169988729
20
0.857515863869395
30
0
41
1
10
24.0489145376058
20
0.860915363720551
30
0
0
SPLINE
5
122
100
AcDbEntity
8
1
62
256
6
ByLayer
370
18
48
1
60
0
100
AcDbSpline
70
4
71
3
72
8
73
4
40
0
40
0
40
0
40
0
40
1
40
1
40
1
40
1
41
1
10
24.0489145376058
20
0.860915363720551
30
0
41
1
10
24.0794868036488
20
0.888283198829868
30
0
41
1
10
24.109913193959
20
0.913434895853328
30
0
41
1
10
24.1401746048536
20
0.936399938658468
30
0
0
SPLINE
5
123
100
AcDbEntity
8
1
62
256
6
ByLayer
370
18
48
1
60
0
100
AcDbSpline
70
4
71
3
72
8
73
4
40
0
40
0
40
0
40
0
40
1
40
1
40
1
40
1
41
1
10
24.3310946262202
20
1.17792357781332
30
0
41
1
10
24.2974451339045
20
1.22962342084327
30
0
41
1
10
24.2638538839833
20
1.27987841936113
30
0
41
1
10
24.2304204876207
20
1.32845639652311
30
0
0
SPLINE
5
124
100
AcDbEntity
8
1
62
256
6
ByLayer
370
18
48
1
60
0
100
AcDbSpline
70
4
71
3
72
10
73
6
40
0
40
0
40
0
40
0
40
0.5
40
0.5
40
1
40
1
40
1
40
1
41
1
10
24.2304204876207
20
1.32845639652311
30
0
41
1
10
24.2043358564728
20
1.32924111915429
30
0
41
1
10
24.1783181082231
20
1.32954989762365
30
0
41
1
10
24.1263897416386
20
1.3292049584405
30
0
41
1
10
24.1004530764287
20
1.32854960838631
30
0
41
1
10
24.0746484620249
20
1.32741227762239
30
0
0
SPLINE
5
125
100
AcDbEntity
8
1
62
256
6
ByLayer
370
18
48
1
60
0
100
AcDbSpline
70
4
71
3
72
10
73
6
40
0
40
0
40
0
40
0
40
0.5
40
0.5
40
1
40
1
40
1
40
1
41
1
10
24.0746484620248
20
1.32741227762233
30
0
41
1
10
24.0523197880239
20
1.28329545566831
30
0
41
1
10
24.0298695293165
20
1.2389225311253
30
0
41
1
10
23.9848036835605
20
1.14997522141891
30
0
41
1
10
23.9621881496532
20
1.10539698461432
30
0
41
1
10
23.9394372705311
20
1.06073058236234
30
0
0
SPLINE
5
126
100
AcDbEntity
8
1
62
256
6
ByLayer
370
18
48
1
60
0
100
AcDbSpline
70
4
71
3
72
16
73
12
40
0
40
0
40
0
40
0
40
0.244313503220822
40
0.244313503220822
40
0.488627006441645
40
0.488627006441645
40
0.732940509662467
40
0.732940509662467
40
0.977254012883289
40
0.977254012883289
40
1
40
1
40
1
40
1
41
1
10
23.9394372705311
20
1.06073058236231
30
0
41
1
10
23.9359986920626
20
1.05397968151908
30
0
41
1
10
23.9319894838616
20
1.04771332029318
30
0
41
1
10
23.9230315201068
20
1.03597559196174
30
0
41
1
10
23.9180251046356
20
1.03046440586726
30
0
41
1
10
23.9074513678189
20
1.0205630956435
30
0
41
1
10
23.9018697097233
20
1.01613675490014
30
0
41
1
10
23.8901282491419
20
1.00832708631327
30
0
41
1
10
23.8839991456242
20
1.00498037278874
30
0
41
1
10
23.877244479358
20
1.00207226141717
30
0
41
1
10
23.8766682591655
20
1.00183015351848
30
0
41
1
10
23.8760911214576
20
1.00159371901714
30
0
0
SPLINE
5
127
100
AcDbEntity
8
1
62
256
6
ByLayer
370
18
48
1
60
0
100
AcDbSpline
70
4
71
3
72
8
73
4
40
0
40
0
40
0
40
0
40
1
40
1
40
1
40
1
41
1
10
23.5967117334556
20
1.18565087645595
30
0
41
1
10
23.5896155552851
20
1.17130988208439
30
0
41
1
10
23.5825110906032
20
1.15698698940895
30
0
41
1
10
23.5753974980149
20
1.14268288958525
30
0
0
SPLINE
5
128
100
AcDbEntity
8
1
62
256
6
ByLayer
370
18
48
1
60
0
100
AcDbSpline
70
4
71
3
72
8
73
4
40
0
40
0
40
0
40
0
40
1
40
1
40
1
40
1
41
1
10
21.0211496924012
20
-0.566016883141884
30
0
41
1
10
20.9759906739072
20
-0.592522937419318
30
0
41
1
10
20.9309408441691
20
-0.613606871066906
30
0
41
1
10
20.8862651325293
20
-0.62917808717819
30
0
0
SPLINE
5
129
100
AcDbEntity
8
1
62
256
6
ByLayer
370
18
48
1
60
0
100
AcDbSpline
70
4
71
3
72
8
73
4
40
0
40
0
40
0
40
0
40
1
40
1
40
1
40
1
41
1
10
20.8862651325293
20
-0.629178087178218
30
0
41
1
10
20.8444358339519
20
-0.594858163542227
30
0
41
1
10
20.8025667436381
20
-0.560339336210205
30
0
41
1
10
20.7606056384158
20
-0.525685270623768
30
0
0
SPLINE
5
12A
100
AcDbEntity
8
1
62
256
6
ByLayer
370
18
48
1
60
0
100
AcDbSpline
70
4
71
3
72
10
73
6
40
0
40
0
40
0
40
0
40
0.5
40
0.5
40
1
40
1
40
1
40
1
41
1
10
20.7606056384233
20
-0.525685270624876
30
0
41
1
10
20.7389523600251
20
-0.489140272010957
30
0
41
1
10
20.7171813202819
20
-0.453345527824354
30
0
41
1
10
20.6734807837698
20
-0.383539940194055
30
0
41
1
10
20.6515489440375
20
-0.349511118550765
30
0
41
1
10
20.6294888294669
20
-0.316426036165865
30
0
0
SPLINE
5
12B
100
AcDbEntity
8
1
62
256
6
ByLayer
370
18
48
1
60
0
100
AcDbSpline
70
4
71
3
72
22
73
18
40
0
40
0
40
0
40
0
40
0.125
40
0.125
40
0.25
40
0.25
40
0.375
40
0.375
40
0.5
40
0.5
40
0.625
40
0.625
40
0.75
40
0.75
40
0.875
40
0.875
40
1
40
1
40
1
40
1
41
1
10
20.6294888294669
20
-0.316426036166547
30
0
41
1
10
20.6260435303074
20
-0.31125888228965
30
0
41
1
10
20.6220290208042
20
-0.306112163037227
30
0
41
1
10
20.613067861061
20
-0.29586185822501
30
0
41
1
10
20.6080627247392
20
-0.290709681483861
30
0
41
1
10
20.5974742231672
20
-0.280758000258345
30
0
41
1
10
20.5918873572484
20
-0.275943394311923
30
0
41
1
10
20.5801417813586
20
-0.266619990582655
30
0
41
1
10
20.5740138019104
20
-0.262144013704386
30
0
41
1
10
20.5616580486835
20
-0.253849555418725
30
0
41
1
10
20.5553759317683
20
-0.249985463835713
30
0
41
1
10
20.5425897911604
20
-0.24289339398473
30
0
41
1
10
20.5362479712129
20
-0.239759289922716
30
0
41
1
10
20.5239745683674
20
-0.234557200966435
30
0
41
1
10
20.5179901324167
20
-0.2324784901665
30
0
41
1
10
20.5072646644309
20
-0.229881831867033
30
0
41
1
10
20.5024171921116
20
-0.229340908249469
30
0
41
1
10
20.4985788978614
20
-0.22977861340226
30
0
0
SPLINE
5
12C
100
AcDbEntity
8
1
62
256
6
ByLayer
370
18
48
1
60
0
100
AcDbSpline
70
4
71
3
72
8
73
4
40
0
40
0
40
0
40
0
40
1
40
1
40
1
40
1
41
1
10
20.49857889786
20
-0.229778613402402
30
0
41
1
10
20.4668146241431
20
-0.233400895953679
30
0
41
1
10
20.435117425723
20
-0.234007858360457
30
0
41
1
10
20.4035542260065
20
-0.231685372573025
30
0
0
SPLINE
5
12D
100
AcDbEntity
8
1
62
256
6
ByLayer
370
18
48
1
60
0
100
AcDbSpline
70
4
71
3
72
10
73
6
40
0
40
0
40
0
40
0
40
0.5
40
0.5
40
1
40
1
40
1
40
1
41
1
10
20.4035542260065
20
-0.231685372573025
30
0
41
1
10
20.3678753131463
20
-0.202589577497378
30
0
41
1
10
20.3320434498907
20
-0.173507514975057
30
0
41
1
10
20.2600150176551
20
-0.115439436547604
30
0
41
1
10
20.2239985150285
20
-0.0865976539635369
30
0
41
1
10
20.1880427550572
20
-0.0580508727157678
30
0
0
SPLINE
5
12E
100
AcDbEntity
8
1
62
256
6
ByLayer
370
18
48
1
60
0
100
AcDbSpline
70
4
71
3
72
8
73
4
40
0
40
0
40
0
40
0
40
1
40
1
40
1
40
1
41
1
10
20.1880427550611
20
-0.0580508727176721
30
0
41
1
10
20.1611152432752
20
-0.0250987747867839
30
0
41
1
10
20.1340940401943
20
0.0061674158955327
30
0
41
1
10
20.1069194229229
20
0.0356446532689745
30
0
0
SPLINE
5
12F
100
AcDbEntity
8
1
62
256
6
ByLayer
370
18
48
1
60
0
100
AcDbSpline
70
4
71
3
72
22
73
18
40
0
40
0
40
0
40
0
40
0.125
40
0.125
40
0.25
40
0.25
40
0.375
40
0.375
40
0.5
40
0.5
40
0.625
40
0.625
40
0.75
40
0.75
40
0.875
40
0.875
40
1
40
1
40
1
40
1
41
1
10
20.1069194229228
20
0.0356446532690029
30
0
41
1
10
20.1034671133326
20
0.0393894916327611
30
0
41
1
10
20.0994447182656
20
0.0433159320969025
30
0
41
1
10
20.0904697116383
20
0.051452034021338
30
0
41
1
10
20.0854588847536
20
0.0557054991164421
30
0
41
1
10
20.0748645122199
20
0.0642267575233006
30
0
41
1
10
20.0692762459076
20
0.0685042409441223
30
0
41
1
10
20.0575321635985
20
0.077110085685149
30
0
41
1
10
20.0514095147894
20
0.0814102612261252
30
0
41
1
10
20.0390628569026
20
0.0897526806093083
30
0
41
1
10
20.0327856618478
20
0.09383475254009
30
0
41
1
10
20.0200088005508
20
0.10182400196598
30
0
41
1
10
20.0136681711217
20
0.105630361453592
30
0
41
1
10
20.0013913157416
20
0.112673641414006
30
0
41
1
10
19.9954003490156
20
0.115938197166571
30
0
41
1
10
19.9846551642566
20
0.12138481493082
30
0
41
1
10
19.9797952213664
20
0.123619657361189
30
0
41
1
10
19.9759476389957
20
0.12507026036397
30
0
0
SPLINE
5
130
100
AcDbEntity
8
1
62
256
6
ByLayer
370
18
48
1
60
0
100
AcDbSpline
70
4
71
3
72
8
73
4
40
0
40
0
40
0
40
0
40
1
40
1
40
1
40
1
41
1
10
19.9759476389936
20
0.125070260369199
30
0
41
1
10
19.9576288883229
20
0.131976736220906
30
0
41
1
10
19.9393316138034
20
0.139800065753548
30
0
41
1
10
19.9210653350074
20
0.148556083264026
30
0
0
SPLINE
5
131
100
AcDbEntity
8
1
62
256
6
ByLayer
370
18
48
1
60
0
100
AcDbSpline
70
4
71
3
72
8
73
4
40
0
40
0
40
0
40
0
40
1
40
1
40
1
40
1
41
1
10
19.9210653350075
20
0.148556083263884
30
0
41
1
10
19.819811629443
20
0.224564952889835
30
0
41
1
10
19.7182380795968
20
0.297773502719195
30
0
41
1
10
19.6155532873833
20
0.367245569571566
30
0
0
SPLINE
5
132
100
AcDbEntity
8
1
62
256
6
ByLayer
370
18
48
1
60
0
100
AcDbSpline
70
4
71
3
72
8
73
4
40
0
40
0
40
0
40
0
40
1
40
1
40
1
40
1
41
1
10
19.6155532873833
20
0.367245569571594
30
0
41
1
10
19.6051429583314
20
0.373940768933665
30
0
41
1
10
19.5947106797958
20
0.380332323274075
30
0
41
1
10
19.5842509886057
20
0.386408732260179
30
0
0
SPLINE
5
133
100
AcDbEntity
8
1
62
256
6
ByLayer
370
18
48
1
60
0
100
AcDbSpline
70
4
71
3
72
22
73
18
40
0
40
0
40
0
40
0
40
0.125
40
0.125
40
0.25
40
0.25
40
0.375
40
0.375
40
0.5
40
0.5
40
0.625
40
0.625
40
0.75
40
0.75
40
0.875
40
0.875
40
1
40
1
40
1
40
1
41
1
10
19.5842509886057
20
0.386408732260207
30
0
41
1
10
19.5808040469505
20
0.388411184040848
30
0
41
1
10
19.5767877260841
20
0.390774264492308
30
0
41
1
10
19.5678230020894
20
0.396073529524585
30
0
41
1
10
19.5628159764354
20
0.399045234622974
30
0
41
1
10
19.552224177304
20
0.405358768024968
30
0
41
1
10
19.5466358167048
20
0.408702435889126
30
0
41
1
10
19.5348879908241
20
0.415780279205279
30
0
41
1
10
19.5287598003656
20
0.41949623143725
30
0
41
1
10
19.5164038112198
20
0.427075773945376
30
0
41
1
10
19.5101218758663
20
0.430971153665638
30
0
41
1
10
19.4973364428472
20
0.439051371228175
30
0
41
1
10
19.4909955072875
20
0.443134772800818
30
0
41
1
10
19.4787225343485
20
0.451274666446267
30
0
41
1
10
19.4727382248649
20
0.455370269710983
30
0
41
1
10
19.4620124310434
20
0.463064199861321
30
0
41
1
10
19.4571649913406
20
0.466740480014778
30
0
41
1
10
19.4533269684655
20
0.469914014238441
30
0
0
SPLINE
5
134
100
AcDbEntity
8
1
62
256
6
ByLayer
370
18
48
1
60
0
100
AcDbSpline
70
4
71
3
72
8
73
4
40
0
40
0
40
0
40
0
40
1
40
1
40
1
40
1
41
1
10
19.4533269684638
20
0.469914014239833
30
0
41
1
10
19.4483624163271
20
0.474019038264885
30
0
41
1
10
19.4433997655468
20
0.478186698229933
30
0
41
1
10
19.4384389424412
20
0.482417713811486
30
0
0
SPLINE
5
135
100
AcDbEntity
8
1
62
256
6
ByLayer
370
18
48
1
60
0
100
AcDbSpline
70
4
71
3
72
12
73
8
40
0
40
0
40
0
40
0
40
0.250000000000008
40
0.250000000000008
40
0.500000000000016
40
0.500000000000016
40
1
40
1
40
1
40
1
41
1
10
19.4384389424411
20
0.482417713811486
30
0
41
1
10
19.4032429384227
20
0.50434929168398
30
0
41
1
10
19.367837375967
20
0.525843663174072
30
0
41
1
10
19.2969695725103
20
0.567778824450016
30
0
41
1
10
19.2615281160233
20
0.588195016978034
30
0
41
1
10
19.1550908441248
20
0.647697505042345
30
0
41
1
10
19.0839715845729
20
0.685024027442608
30
0
41
1
10
19.0124712665007
20
0.719796742398358
30
0
0
SPLINE
5
136
100
AcDbEntity
8
1
62
256
6
ByLayer
370
18
48
1
60
0
100
AcDbSpline
70
4
71
3
72
8
73
4
40
0
40
0
40
0
40
0
40
1
40
1
40
1
40
1
41
1
10
19.0124712665007
20
0.719796742398358
30
0
41
1
10
19.0084993603941
20
0.721615254512898
30
0
41
1
10
19.0044796738164
20
0.723559404164604
30
0
41
1
10
19.00041440414
20
0.725634328615826
30
0
0
SPLINE
5
137
100
AcDbEntity
8
1
62
256
6
ByLayer
370
18
48
1
60
0
100
AcDbSpline
70
4
71
3
72
8
73
4
40
0
40
0
40
0
40
0
40
1
40
1
40
1
40
1
41
1
10
19.0004144041374
20
0.725634328617133
30
0
41
1
10
19.0002762694249
20
0.725700911233048
30
0
41
1
10
19.0001381347125
20
0.725767483156034
30
0
41
1
10
19
20
0.725834044384868
30
0
0
SPLINE
5
138
100
AcDbEntity
8
1
62
256
6
ByLayer
370
18
48
1
60
0
100
AcDbSpline
70
4
71
3
72
8
73
4
40
0
40
0
40
0
40
0
40
1
40
1
40
1
40
1
41
1
10
19.0000000000012
20
-0.783814920392501
30
0
41
1
10
19.0229412638296
20
-0.796855647959319
30
0
41
1
10
19.0458172208271
20
-0.809795824001327
30
0
41
1
10
19.0686293336062
20
-0.822631421588312
30
0
0
SPLINE
5
139
100
AcDbEntity
8
1
62
256
6
ByLayer
370
18
48
1
60
0
100
AcDbSpline
70
4
71
3
72
20
73
16
40
0
40
0
40
0
40
0
40
0.125000000000091
40
0.125000000000091
40
0.250000000000181
40
0.250000000000181
40
0.500000000000219
40
0.500000000000219
40
0.625000000000165
40
0.625000000000165
40
0.75000000000011
40
0.75000000000011
40
0.875000000000055
40
0.875000000000055
40
1
40
1
40
1
40
1
41
1
10
19.0686293336062
20
-0.822631421588312
30
0
41
1
10
19.0721518860079
20
-0.823374639746675
30
0
41
1
10
19.0757938915165
20
-0.824309085135496
30
0
41
1
10
19.0833067224767
20
-0.82655321750309
30
0
41
1
10
19.0872025862227
20
-0.827872786283649
30
0
41
1
10
19.0990391210287
20
-0.832349527064935
30
0
41
1
10
19.1070861181275
20
-0.835986725937403
30
0
41
1
10
19.1193759264122
20
-0.842553346908801
30
0
41
1
10
19.1235313860261
20
-0.844946437606723
30
0
41
1
10
19.1316655024485
20
-0.850014182728216
30
0
41
1
10
19.1356710941303
20
-0.852701087514106
30
0
41
1
10
19.1435394900947
20
-0.858423515890394
30
0
41
1
10
19.1474359136577
20
-0.861489783106208
30
0
41
1
10
19.1547926432861
20
-0.867824984713252
30
0
41
1
10
19.1582735673193
20
-0.871103728349709
30
0
41
1
10
19.1615255511858
20
-0.874511855079362
30
0
0
SPLINE
5
13A
100
AcDbEntity
8
1
62
256
6
ByLayer
370
18
48
1
60
0
100
AcDbSpline
70
4
71
3
72
12
73
8
40
0
40
0
40
0
40
0
40
0.5
40
0.5
40
0.75
40
0.75
40
1
40
1
40
1
40
1
41
1
10
19.1615255511858
20
-0.874511855079305
30
0
41
1
10
19.2251867748836
20
-0.909792209173332
30
0
41
1
10
19.2883145263461
20
-0.944230017545834
30
0
41
1
10
19.3827021519621
20
-0.994075255052877
30
0
41
1
10
19.4140955392552
20
-1.01040764292699
30
0
41
1
10
19.4765938055132
20
-1.04260284978014
30
0
41
1
10
19.5077398807082
20
-1.05842861796751
30
0
41
1
10
19.5389255355623
20
-1.07386488896484
30
0
0
SPLINE
5
13B
100
AcDbEntity
8
1
62
256
6
ByLayer
370
18
48
1
60
0
100
AcDbSpline
70
4
71
3
72
8
73
4
40
0
40
0
40
0
40
0
40
1
40
1
40
1
40
1
41
1
10
19.5389255355623
20
-1.07386488896484
30
0
41
1
10
19.5470716426572
20
-1.06763467419998
30
0
41
1
10
19.5552355177024
20
-1.06122138698237
30
0
41
1
10
19.5634184255866
20
-1.05462574121583
30
0
0
SPLINE
5
13C
100
AcDbEntity
8
1
62
256
6
ByLayer
370
18
48
1
60
0
100
AcDbSpline
70
4
71
3
72
24
73
20
40
0
40
0
40
0
40
0
40
0.125000000000024
40
0.125000000000024
40
0.250000000000048
40
0.250000000000048
40
0.375000000000072
40
0.375000000000072
40
0.500000000000096
40
0.500000000000096
40
0.62500000000012
40
0.62500000000012
40
0.750000000000145
40
0.750000000000145
40
0.812500000000109
40
0.812500000000109
40
0.875000000000074
40
0.875000000000074
40
1
40
1
40
1
40
1
41
1
10
19.5634184255866
20
-1.05462574121583
30
0
41
1
10
19.566941145377
20
-1.0517863334901
30
0
41
1
10
19.5710552935159
20
-1.04968842509601
30
0
41
1
10
19.5802290437235
20
-1.04666247615188
30
0
41
1
10
19.5853528676593
20
-1.04574118922255
30
0
41
1
10
19.596155757179
20
-1.04506392715783
30
0
41
1
10
19.6018370240035
20
-1.04529137960097
30
0
41
1
10
19.6137342555185
20
-1.04686567931805
30
0
41
1
10
19.6198723756028
20
-1.04821026010313
30
0
41
1
10
19.6322411917895
20
-1.05197921993116
30
0
41
1
10
19.6385377056869
20
-1.05441843643209
30
0
41
1
10
19.6512007777823
20
-1.06053970850428
30
0
41
1
10
19.6573956257772
20
-1.06413331931998
30
0
41
1
10
19.6664338526287
20
-1.07046505668149
30
0
41
1
10
19.6694250571513
20
-1.07275348983288
30
0
41
1
10
19.6751647031248
20
-1.07758206033941
30
0
41
1
10
19.6779190697174
20
-1.08012276166403
30
0
41
1
10
19.6858014635223
20
-1.0881615350639
30
0
41
1
10
19.69057181174
20
-1.09412664601302
30
0
41
1
10
19.6943867783266
20
-1.10040693235871
30
0
0
SPLINE
5
13D
100
AcDbEntity
8
1
62
256
6
ByLayer
370
18
48
1
60
0
100
AcDbSpline
70
4
71
3
72
8
73
4
40
0
40
0
40
0
40
0
40
1
40
1
40
1
40
1
41
1
10
19.6943867783266
20
-1.10040693235871
30
0
41
1
10
19.7075685476905
20
-1.12210706636216
30
0
41
1
10
19.720725579566
20
-1.14395153389501
30
0
41
1
10
19.7338615930187
20
-1.16593846340808
30
0
0
SPLINE
5
13E
100
AcDbEntity
8
1
62
256
6
ByLayer
370
18
48
1
60
0
100
AcDbSpline
70
4
71
3
72
12
73
8
40
0
40
0
40
0
40
0
40
0.500000000000024
40
0.500000000000024
40
0.750000000000012
40
0.750000000000012
40
1
40
1
40
1
40
1
41
1
10
19.7338615930187
20
-1.16593846340811
30
0
41
1
10
19.7815450228608
20
-1.18732639875532
30
0
41
1
10
19.8292527281527
20
-1.20782403916186
30
0
41
1
10
19.9009262434001
20
-1.23714717191638
30
0
41
1
10
19.9248175346924
20
-1.24667763438649
30
0
41
1
10
19.9724217906681
20
-1.26517467277009
30
0
41
1
10
19.9961600534953
20
-1.27415187958772
30
0
41
1
10
20.0198350556169
20
-1.28285665269729
30
0
0
SPLINE
5
13F
100
AcDbEntity
8
1
62
256
6
ByLayer
370
18
48
1
60
0
100
AcDbSpline
70
4
71
3
72
8
73
4
40
0
40
0
40
0
40
0
40
1
40
1
40
1
40
1
41
1
10
20.0198350556171
20
-1.28285665269752
30
0
41
1
10
20.0417710114982
20
-1.25692648599568
30
0
41
1
10
20.0637961318783
20
-1.22996182730296
30
0
41
1
10
20.0859474256762
20
-1.20195082769933
30
0
0
SPLINE
5
140
100
AcDbEntity
8
1
62
256
6
ByLayer
370
18
48
1
60
0
100
AcDbSpline
70
4
71
3
72
24
73
20
40
0
40
0
40
0
40
0
40
0.125000000000001
40
0.125000000000001
40
0.250000000000002
40
0.250000000000002
40
0.375000000000002
40
0.375000000000002
40
0.500000000000003
40
0.500000000000003
40
0.625000000000004
40
0.625000000000004
40
0.750000000000005
40
0.750000000000005
40
0.812500000000004
40
0.812500000000004
40
0.875000000000004
40
0.875000000000004
40
1
40
1
40
1
40
1
41
1
10
20.0859474256761
20
-1.20195082769933
30
0
41
1
10
20.0894627309282
20
-1.19750561493117
30
0
41
1
10
20.0935695805547
20
-1.19383076932982
30
0
41
1
10
20.1027316565837
20
-1.18770343751623
30
0
41
1
10
20.1078516743159
20
-1.1852422999203
30
0
41
1
10
20.1186531281231
20
-1.18163511201035
30
0
41
1
10
20.1243348256406
20
-1.18046821903789
30
0
41
1
10
20.1362359981035
20
-1.17938881731237
30
0
41
1
10
20.1423787018775
20
-1.17949345977752
30
0
41
1
10
20.1547544309001
20
-1.18100553670485
30
0
41
1
10
20.1610571659979
20
-1.18241558830903
30
0
41
1
10
20.1737199582936
20
-1.18671979709208
30
0
41
1
10
20.1799128469943
20
-1.18954975309168
30
0
41
1
10
20.1889456346907
20
-1.19497920924491
30
0
41
1
10
20.1919342430971
20
-1.1970065064767
30
0
41
1
10
20.1976636735872
20
-1.20141315183571
30
0
41
1
10
20.2004125119959
20
-1.20379325574015
30
0
41
1
10
20.2082775526391
20
-1.21151414138387
30
0
41
1
10
20.2130325673884
20
-1.21748661184441
30
0
41
1
10
20.2168350087318
20
-1.22404858096465
30
0
0
SPLINE
5
141
100
AcDbEntity
8
1
62
256
6
ByLayer
370
18
48
1
60
0
100
AcDbSpline
70
4
71
3
72
8
73
4
40
0
40
0
40
0
40
0
40
1
40
1
40
1
40
1
41
1
10
20.2168350087318
20
-1.22404858096465
30
0
41
1
10
20.2459326514003
20
-1.27426311826261
30
0
41
1
10
20.2749239409764
20
-1.32457872338634
30
0
41
1
10
20.3037754002796
20
-1.37483798632832
30
0
0
SPLINE
5
142
100
AcDbEntity
8
1
62
256
6
ByLayer
370
18
48
1
60
0
100
AcDbSpline
70
4
71
3
72
8
73
4
40
0
40
0
40
0
40
0
40
1
40
1
40
1
40
1
41
1
10
20.3037754002796
20
-1.37483798632832
30
0
41
1
10
20.3697976955775
20
-1.39320619154813
30
0
41
1
10
20.4352959249039
20
-1.40922926162196
30
0
41
1
10
20.5005907911788
20
-1.42275098424656
30
0
0
SPLINE
5
143
100
AcDbEntity
8
1
62
256
6
ByLayer
370
18
48
1
60
0
100
AcDbSpline
70
4
71
3
72
10
73
6
40
0
40
0
40
0
40
0
40
0.5
40
0.5
40
1
40
1
40
1
40
1
41
1
10
20.5005907911766
20
-1.42275098424255
30
0
41
1
10
20.5184532026542
20
-1.39555840308717
30
0
41
1
10
20.5363872560116
20
-1.36783811581773
30
0
41
1
10
20.5723453545715
20
-1.31147371131914
30
0
41
1
10
20.5903912173148
20
-1.28278510879684
30
0
41
1
10
20.6085427847621
20
-1.25355009460279
30
0
0
SPLINE
5
144
100
AcDbEntity
8
1
62
256
6
ByLayer
370
18
48
1
60
0
100
AcDbSpline
70
4
71
3
72
24
73
20
40
0
40
0
40
0
40
0
40
0.124999999999987
40
0.124999999999987
40
0.249999999999973
40
0.249999999999973
40
0.37499999999996
40
0.37499999999996
40
0.499999999999947
40
0.499999999999947
40
0.624999999999933
40
0.624999999999933
40
0.74999999999992
40
0.74999999999992
40
0.81249999999996
40
0.81249999999996
40
0.874999999999999
40
0.874999999999999
40
1
40
1
40
1
40
1
41
1
10
20.6085427847621
20
-1.25355009460279
30
0
41
1
10
20.6120660821903
20
-1.24787545242111
30
0
41
1
10
20.6161796792455
20
-1.24294945452286
30
0
41
1
10
20.6253500913096
20
-1.23428024682661
30
0
41
1
10
20.6304709549973
20
-1.2305153203063
30
0
41
1
10
20.6412679520422
20
-1.22434090023594
30
0
41
1
10
20.6469465983558
20
-1.22190698618513
30
0
41
1
10
20.6588412296848
20
-1.21832050850534
30
0
41
1
10
20.6649789015928
20
-1.21720247811888
30
0
41
1
10
20.6773507952657
20
-1.21637844251506
30
0
41
1
10
20.6836505431813
20
-1.21666126352599
30
0
41
1
10
20.6963240412837
20
-1.21883467875705
30
0
41
1
10
20.7025243615016
20
-1.22068823465301
30
0
41
1
10
20.7115694150701
20
-1.22480066836192
30
0
41
1
10
20.7145626769158
20
-1.2264112358489
30
0
41
1
10
20.7203055012435
20
-1.23006363308639
30
0
41
1
10
20.723061031394
20
-1.23210353566302
30
0
41
1
10
20.7309456441401
20
-1.23892413610255
30
0
41
1
10
20.7357164017803
20
-1.24445910604354
30
0
41
1
10
20.7395320390872
20
-1.25082287133162
30
0
0
SPLINE
5
145
100
AcDbEntity
8
1
62
256
6
ByLayer
370
18
48
1
60
0
100
AcDbSpline
70
4
71
3
72
8
73
4
40
0
40
0
40
0
40
0
40
1
40
1
40
1
40
1
41
1
10
20.7395320390887
20
-1.25082287133412
30
0
41
1
10
20.7846932434605
20
-1.32614326519271
30
0
41
1
10
20.8295978431942
20
-1.40011427155562
30
0
41
1
10
20.8740753314017
20
-1.47212503562736
30
0
0
SPLINE
5
146
100
AcDbEntity
8
1
62
256
6
ByLayer
370
18
48
1
60
0
100
AcDbSpline
70
4
71
3
72
8
73
4
40
0
40
0
40
0
40
0
40
1
40
1
40
1
40
1
41
1
10
20.8740753314018
20
-1.47212503562733
30
0
41
1
10
20.9099730227915
20
-1.47410357890362
30
0
41
1
10
20.9459670937422
20
-1.47526874637711
30
0
41
1
10
20.9818639363311
20
-1.47560588662483
30
0
0
SPLINE
5
147
100
AcDbEntity
8
1
62
256
6
ByLayer
370
18
48
1
60
0
100
AcDbSpline
70
4
71
3
72
10
73
6
40
0
40
0
40
0
40
0
40
0.5
40
0.5
40
1
40
1
40
1
40
1
41
1
10
20.9818639363313
20
-1.47560588662498
30
0
41
1
10
21.0064461489319
20
-1.4316364311388
30
0
41
1
10
21.0311820255841
20
-1.38700260890138
30
0
41
1
10
21.0809263859302
20
-1.29667469135489
30
0
41
1
10
21.1059170738548
20
-1.25101555250367
30
0
41
1
10
21.1310850766645
20
-1.20487921106377
30
0
0
SPLINE
5
148
100
AcDbEntity
8
1
62
256
6
ByLayer
370
18
48
1
60
0
100
AcDbSpline
70
4
71
3
72
24
73
20
40
0
40
0
40
0
40
0
40
0.125000000000033
40
0.125000000000033
40
0.250000000000067
40
0.250000000000067
40
0.3750000000001
40
0.3750000000001
40
0.500000000000134
40
0.500000000000134
40
0.625000000000167
40
0.625000000000167
40
0.750000000000201
40
0.750000000000201
40
0.812500000000171
40
0.812500000000171
40
0.875000000000141
40
0.875000000000141
40
1
40
1
40
1
40
1
41
1
10
21.1310850766645
20
-1.20487921106377
30
0
41
1
10
21.1346021221931
20
-1.19843199256331
30
0
41
1
10
21.1387111648024
20
-1.19264039094205
30
0
41
1
10
21.1478776676204
20
-1.1821009650919
30
0
41
1
10
21.1530001498702
20
-1.17731815267916
30
0
41
1
10
21.163806120789
20
-1.16904556991514
30
0
41
1
10
21.1694896815417
20
-1.16553186000081
30
0
41
1
10
21.1813939034014
20
-1.15972040426047
30
0
41
1
10
21.1875362354835
20
-1.15747225906605
30
0
41
1
10
21.1999115752496
20
-1.15439319970017
30
0
41
1
10
21.2062156295543
20
-1.15353878206651
30
0
41
1
10
21.2188714180513
20
-1.15343120737819
30
0
41
1
10
21.2250608396773
20
-1.15417066407863
30
0
41
1
10
21.2340883163424
20
-1.15664855427755
30
0
41
1
10
21.2370749887922
20
-1.15771658094283
30
0
41
1
10
21.2428003179214
20
-1.16032014619535
30
0
41
1
10
21.245547298271
20
-1.16185365201648
30
0
41
1
10
21.2534074060438
20
-1.16721320465354
30
0
41
1
10
21.2581606415095
20
-1.17184438866516
30
0
41
1
10
21.2619636468758
20
-1.17745950926712
30
0
0
SPLINE
5
149
100
AcDbEntity
8
1
62
256
6
ByLayer
370
18
48
1
60
0
100
AcDbSpline
70
4
71
3
72
10
73
6
40
0
40
0
40
0
40
0
40
0.5
40
0.5
40
1
40
1
40
1
40
1
41
1
10
21.2619636468771
20
-1.1774595092692
30
0
41
1
10
21.2910207422215
20
-1.22036218202527
30
0
41
1
10
21.3199660171581
20
-1.26209852114857
30
0
41
1
10
21.3775660924553
20
-1.34298340339797
30
0
41
1
10
21.4061869177699
20
-1.38208348881315
30
0
41
1
10
21.4346513450506
20
-1.41981171306608
30
0
0
SPLINE
5
14A
100
AcDbEntity
8
1
62
256
6
ByLayer
370
18
48
1
60
0
100
AcDbSpline
70
4
71
3
72
8
73
4
40
0
40
0
40
0
40
0
40
1
40
1
40
1
40
1
41
1
10
21.4743702409233
20
-1.40636481319606
30
0
41
1
10
21.4611302949804
20
-1.41096040500739
30
0
41
1
10
21.4478913895312
20
-1.41544287426498
30
0
41
1
10
21.4346513450504
20
-1.41981171306537
30
0
0
SPLINE
5
14B
100
AcDbEntity
8
1
62
256
6
ByLayer
370
18
48
1
60
0
100
AcDbSpline
70
4
71
3
72
12
73
8
40
0
40
0
40
0
40
0
40
0.500000000000013
40
0.500000000000013
40
0.750000000000006
40
0.750000000000006
40
1
40
1
40
1
40
1
41
1
10
21.4743702409229
20
-1.40636481318739
30
0
41
1
10
21.5038438115246
20
-1.34906161898431
30
0
41
1
10
21.5334889502794
20
-1.29152371944107
30
0
41
1
10
21.5783468616725
20
-1.20493361027582
30
0
41
1
10
21.5933443388257
20
-1.17606556633561
30
0
41
1
10
21.6234076902839
20
-1.11831709954967
30
0
41
1
10
21.638467173107
20
-1.08943445268434
30
0
41
1
10
21.6536003628009
20
-1.06055957485699
30
0
0
SPLINE
5
14C
100
AcDbEntity
8
1
62
256
6
ByLayer
370
18
48
1
60
0
100
AcDbSpline
70
4
71
3
72
16
73
12
40
0
40
0
40
0
40
0
40
0.246860979501293
40
0.246860979501293
40
0.493721959002586
40
0.493721959002586
40
0.740582938503879
40
0.740582938503879
40
0.987443918005173
40
0.987443918005173
40
1
40
1
40
1
40
1
41
1
10
21.6536003628009
20
-1.06055957485699
30
0
41
1
10
21.6571272480605
20
-1.05383010254982
30
0
41
1
10
21.6612450122522
20
-1.04761986145792
30
0
41
1
10
21.6704268662487
20
-1.03602629253248
30
0
41
1
10
21.6755555300102
20
-1.03059940596631
30
0
41
1
10
21.6863703371878
20
-1.02087475778313
30
0
41
1
10
21.6920589651904
20
-1.01655229403084
30
0
41
1
10
21.7039739780536
20
-1.00895709160335
30
0
41
1
10
21.7101186279641
20
-1.00574664953302
30
0
41
1
10
21.716624768442
20
-1.00305706090242
30
0
41
1
10
21.7169399719599
20
-1.0029284793776
30
0
41
1
10
21.7172554620968
20
-1.00280151051203
30
0
0
SPLINE
5
14D
100
AcDbEntity
8
1
62
256
6
ByLayer
370
18
48
1
60
0
100
AcDbSpline
70
4
71
3
72
10
73
6
40
0
40
0
40
0
40
0
40
0.5
40
0.5
40
1
40
1
40
1
40
1
41
1
10
23.1115968554952
20
-1.25222372226003
30
0
41
1
10
23.082798419302
20
-1.30150249920277
30
0
41
1
10
23.0540445883955
20
-1.3505961479141
30
0
41
1
10
22.9967421072128
20
-1.44810194143415
30
0
41
1
10
22.9682242680412
20
-1.49646283238721
30
0
41
1
10
22.9398363932508
20
-1.54435679018007
30
0
0
SPLINE
5
14E
100
AcDbEntity
8
1
62
256
6
ByLayer
370
18
48
1
60
0
100
AcDbSpline
70
4
71
3
72
10
73
6
40
0
40
0
40
0
40
0
40
0.5
40
0.5
40
1
40
1
40
1
40
1
41
1
10
21.85436754632
20
-1.2777953610765
30
0
41
1
10
21.8247642900298
20
-1.21787282279078
30
0
41
1
10
21.7950284548782
20
-1.15800533852717
30
0
41
1
10
21.7351148308721
20
-1.03850529177606
30
0
41
1
10
21.7050302550755
20
-0.979051259470651
30
0
41
1
10
21.6747062135269
20
-0.919961842521957
30
0
0
SPLINE
5
14F
100
AcDbEntity
8
1
62
256
6
ByLayer
370
18
48
1
60
0
100
AcDbSpline
70
4
71
3
72
22
73
18
40
0
40
0
40
0
40
0
40
0.125
40
0.125
40
0.25
40
0.25
40
0.375
40
0.375
40
0.5
40
0.5
40
0.625
40
0.625
40
0.75
40
0.75
40
0.875
40
0.875
40
1
40
1
40
1
40
1
41
1
10
21.6747062135269
20
-0.919961842521957
30
0
41
1
10
21.671263174924
20
-0.913252738683866
30
0
41
1
10
21.6672510186561
20
-0.906936130674751
30
0
41
1
10
21.6582945594558
20
-0.894945916554093
30
0
41
1
10
21.6532918895032
20
-0.889226207586745
30
0
41
1
10
21.6427080844429
20
-0.87874902405261
30
0
41
1
10
21.637123312227
20
-0.873967755371865
30
0
41
1
10
21.6253812116759
20
-0.86530855905022
30
0
41
1
10
21.6192534211389
20
-0.861467330488381
30
0
41
1
10
21.6068975462009
20
-0.855039797561886
30
0
41
1
10
21.6006148370375
20
-0.852408161112464
30
0
41
1
10
21.5878259466503
20
-0.848506198300782
30
0
41
1
10
21.5814785974535
20
-0.847292557914102
30
0
41
1
10
21.5691975226855
20
-0.846638421958943
30
0
41
1
10
21.56320841438
20
-0.847218787990045
30
0
41
1
10
21.5524753905295
20
-0.850518851089419
30
0
41
1
10
21.547625037629
20
-0.853277521856398
30
0
41
1
10
21.5437853987748
20
-0.857186562620456
30
0
0
SPLINE
5
150
100
AcDbEntity
8
1
62
256
6
ByLayer
370
18
48
1
60
0
100
AcDbSpline
70
4
71
3
72
10
73
6
40
0
40
0
40
0
40
0
40
0.5
40
0.5
40
1
40
1
40
1
40
1
41
1
10
21.543785398773
20
-0.857186562622104
30
0
41
1
10
21.5150062723371
20
-0.886485875052955
30
0
41
1
10
21.4862763469576
20
-0.913820827642923
30
0
41
1
10
21.4290303468558
20
-0.964442413706649
30
0
41
1
10
21.4005447938014
20
-0.98773055380218
30
0
41
1
10
21.3721884900932
20
-1.00905784919956
30
0
0
SPLINE
5
151
100
AcDbEntity
8
1
62
256
6
ByLayer
370
18
48
1
60
0
100
AcDbSpline
70
4
71
3
72
10
73
6
40
0
40
0
40
0
40
0
40
0.5
40
0.5
40
1
40
1
40
1
40
1
41
1
10
21.3320705903798
20
-0.983314203900591
30
0
41
1
10
21.302414616984
20
-0.925140819167297
30
0
41
1
10
21.2726126988855
20
-0.867743670485879
30
0
41
1
10
21.2125909960158
20
-0.754608713983544
30
0
41
1
10
21.1824630696696
20
-0.699017971224379
30
0
41
1
10
21.1521273114695
20
-0.644493435576607
30
0
0
SPLINE
5
152
100
AcDbEntity
8
1
62
256
6
ByLayer
370
18
48
1
60
0
100
AcDbSpline
70
4
71
3
72
22
73
18
40
0
40
0
40
0
40
0
40
0.125
40
0.125
40
0.25
40
0.25
40
0.375
40
0.375
40
0.5
40
0.5
40
0.625
40
0.625
40
0.75
40
0.75
40
0.875
40
0.875
40
1
40
1
40
1
40
1
41
1
10
21.1521273114695
20
-0.644493435576607
30
0
41
1
10
21.1486744014999
20
-0.638287284029047
30
0
41
1
10
21.1446514405587
20
-0.632296307230604
30
0
41
1
10
21.1356756360723
20
-0.620669802473685
30
0
41
1
10
21.130664622581
20
-0.614985213939434
30
0
41
1
10
21.120070166213
20
-0.604299872448166
30
0
41
1
10
21.1144819531882
20
-0.59927771664934
30
0
41
1
10
21.1027377719208
20
-0.589858917431712
30
0
41
1
10
21.0966151427007
20
-0.58550071982603
30
0
41
1
10
21.0842681009937
20
-0.577772665641504
30
0
41
1
10
21.0779905234847
20
-0.574356302497762
30
0
41
1
10
21.0652123985806
20
-0.568558935736519
30
0
41
1
10
21.0588715763844
20
-0.566256561952713
30
0
41
1
10
21.0465937927897
20
-0.563132182542574
30
0
41
1
10
21.0406025903085
20
-0.562315036970858
30
0
41
1
10
21.02985720972
20
-0.562624093299121
30
0
41
1
10
21.0249972758539
20
-0.563758546729503
30
0
41
1
10
21.0211496924029
20
-0.566016883140918
30
0
0
SPLINE
5
153
100
AcDbEntity
8
1
62
256
6
ByLayer
370
18
48
1
60
0
100
AcDbSpline
70
4
71
3
72
10
73
6
40
0
40
0
40
0
40
0
40
0.5
40
0.5
40
1
40
1
40
1
40
1
41
1
10
21.3696397879262
20
1.24205143120784
30
0
41
1
10
21.3425328369241
20
1.28860651084224
30
0
41
1
10
21.3154717267291
20
1.33519685332561
30
0
41
1
10
21.2615384435155
20
1.42818103202788
30
0
41
1
10
21.2346822909299
20
1.47454499601511
30
0
41
1
10
21.2079486865349
20
1.52067941507346
30
0
0
SPLINE
5
154
100
AcDbEntity
8
1
62
256
6
ByLayer
370
18
48
1
60
0
100
AcDbSpline
70
4
71
3
72
8
73
4
40
0
40
0
40
0
40
0
40
1
40
1
40
1
40
1
41
1
10
21.2079486865349
20
1.52067941507315
30
0
41
1
10
21.1859708402734
20
1.51943585829767
30
0
41
1
10
21.1639529551388
20
1.51782724995744
30
0
41
1
10
21.1419776997118
20
1.51586431910977
30
0
0
SPLINE
5
155
100
AcDbEntity
8
1
62
256
6
ByLayer
370
18
48
1
60
0
100
AcDbSpline
70
4
71
3
72
10
73
6
40
0
40
0
40
0
40
0
40
0.5
40
0.5
40
1
40
1
40
1
40
1
41
1
10
21.1419776997118
20
1.51586431910982
30
0
41
1
10
21.1149165757482
20
1.47389504035371
30
0
41
1
10
21.0877127322396
20
1.43065683397168
30
0
41
1
10
21.033002960521
20
1.34178885462981
30
0
41
1
10
21.0055462214165
20
1.29624059588267
30
0
41
1
10
20.9779120653906
20
1.24953979942285
30
0
0
SPLINE
5
156
100
AcDbEntity
8
1
62
256
6
ByLayer
370
18
48
1
60
0
100
AcDbSpline
70
4
71
3
72
22
73
18
40
0
40
0
40
0
40
0
40
0.125
40
0.125
40
0.25
40
0.25
40
0.375
40
0.375
40
0.5
40
0.5
40
0.625
40
0.625
40
0.75
40
0.75
40
0.875
40
0.875
40
1
40
1
40
1
40
1
41
1
10
20.9779120653905
20
1.24953979942276
30
0
41
1
10
20.9744630003847
20
1.24371099529137
30
0
41
1
10
20.970444841788
20
1.23855233276501
30
0
41
1
10
20.9614789972528
20
1.22931939103941
30
0
41
1
10
20.9564732732755
20
1.22522048430022
30
0
41
1
10
20.9458878730211
20
1.21830823185246
30
0
41
1
10
20.9403035779163
20
1.2154700893021
30
0
41
1
10
20.9285652929221
20
1.21102735123614
30
0
41
1
10
20.9224429072557
20
1.20945074153482
30
0
41
1
10
20.9100958876323
20
1.20773821111791
30
0
41
1
10
20.9038175977629
20
1.20757600627204
30
0
41
1
10
20.8910365132505
20
1.2089047052109
30
0
41
1
10
20.8846902288487
20
1.21038921487204
30
0
41
1
10
20.8724061885285
20
1.21524081032376
30
0
41
1
10
20.8664118770204
20
1.2186587047095
30
0
41
1
10
20.8556637343767
20
1.2274592368795
30
0
41
1
10
20.8508040626414
20
1.23293722127261
30
0
41
1
10
20.8469578194772
20
1.23930856884826
30
0
0
SPLINE
5
157
100
AcDbEntity
8
1
62
256
6
ByLayer
370
18
48
1
60
0
100
AcDbSpline
70
4
71
3
72
8
73
4
40
0
40
0
40
0
40
0
40
1
40
1
40
1
40
1
41
1
10
20.8469578194754
20
1.23930856885113
30
0
41
1
10
20.8062818121387
20
1.30668885909748
30
0
41
1
10
20.7656875211333
20
1.37286323114267
30
0
41
1
10
20.7253904238426
20
1.43730351463122
30
0
0
SPLINE
5
158
100
AcDbEntity
8
1
62
256
6
ByLayer
370
18
48
1
60
0
100
AcDbSpline
70
4
71
3
72
8
73
4
40
0
40
0
40
0
40
0
40
1
40
1
40
1
40
1
41
1
10
20.7253904238426
20
1.43730351463086
30
0
41
1
10
20.6737281941573
20
1.42264282305013
30
0
41
1
10
20.6219026519902
20
1.40619537055582
30
0
41
1
10
20.5698126848887
20
1.38801118395654
30
0
0
SPLINE
5
159
100
AcDbEntity
8
1
62
256
6
ByLayer
370
18
48
1
60
0
100
AcDbSpline
70
4
71
3
72
10
73
6
40
0
40
0
40
0
40
0
40
0.5
40
0.5
40
1
40
1
40
1
40
1
41
1
10
20.5698126848943
20
1.3880111839517
30
0
41
1
10
20.5508848344983
20
1.35258244023575
30
0
41
1
10
20.5318649586912
20
1.31678927392107
30
0
41
1
10
20.4937069273957
20
1.24469692908033
30
0
41
1
10
20.4745577329776
20
1.20837595174677
30
0
41
1
10
20.4553131792206
20
1.17178480058988
30
0
0
SPLINE
5
15A
100
AcDbEntity
8
1
62
256
6
ByLayer
370
18
48
1
60
0
100
AcDbSpline
70
4
71
3
72
24
73
20
40
0
40
0
40
0
40
0
40
0.124999999999977
40
0.124999999999977
40
0.249999999999953
40
0.249999999999953
40
0.37499999999993
40
0.37499999999993
40
0.499999999999906
40
0.499999999999906
40
0.624999999999882
40
0.624999999999882
40
0.749999999999858
40
0.749999999999858
40
0.812499999999893
40
0.812499999999893
40
0.874999999999928
40
0.874999999999928
40
1
40
1
40
1
40
1
41
1
10
20.4553131792206
20
1.17178480058988
30
0
41
1
10
20.4518621030199
20
1.16522300380782
30
0
41
1
10
20.447839951656
20
1.15924604126013
30
0
41
1
10
20.4388621692723
20
1.14824235397955
30
0
41
1
10
20.4338477551979
20
1.14317960305811
30
0
41
1
10
20.4232433248665
20
1.13427201486976
30
0
41
1
10
20.4176495401742
20
1.13040152319138
30
0
41
1
10
20.4058939294668
20
1.12381881999261
30
0
41
1
10
20.399766157024
20
1.12114177369881
30
0
41
1
10
20.3874122605659
20
1.11722434229335
30
0
41
1
10
20.381132710976
20
1.11594828695513
30
0
41
1
10
20.3683546977833
20
1.11500803264349
30
0
41
1
10
20.3620255147268
20
1.11536435970655
30
0
41
1
10
20.3528312853056
20
1.117345621993
30
0
41
1
10
20.3497853419223
20
1.11825948022459
30
0
41
1
10
20.3439213614218
20
1.12060515485905
30
0
41
1
10
20.3411096362957
20
1.12202906482915
30
0
41
1
10
20.3330705000146
20
1.12712388216164
30
0
41
1
10
20.328223076344
20
1.13166759713124
30
0
41
1
10
20.3243826256481
20
1.13727004532635
30
0
0
SPLINE
5
15B
100
AcDbEntity
8
1
62
256
6
ByLayer
370
18
48
1
60
0
100
AcDbSpline
70
4
71
3
72
8
73
4
40
0
40
0
40
0
40
0
40
1
40
1
40
1
40
1
41
1
10
20.3243826256466
20
1.13727004532845
30
0
41
1
10
20.2970880562325
20
1.17708735409582
30
0
41
1
10
20.2698410393819
20
1.21577946719054
30
0
41
1
10
20.2426914094347
20
1.25323822333098
30
0
0
SPLINE
5
15C
100
AcDbEntity
8
1
62
256
6
ByLayer
370
18
48
1
60
0
100
AcDbSpline
70
4
71
3
72
8
73
4
40
0
40
0
40
0
40
0
40
1
40
1
40
1
40
1
41
1
10
20.2426914094347
20
1.25323822333095
30
0
41
1
10
20.160747337111
20
1.2145974358582
30
0
41
1
10
20.0790290476824
20
1.1726189408547
30
0
41
1
10
19.9972040257892
20
1.12770638888736
30
0
0
SPLINE
5
15D
100
AcDbEntity
8
1
62
256
6
ByLayer
370
18
48
1
60
0
100
AcDbSpline
70
4
71
3
72
8
73
4
40
0
40
0
40
0
40
0
40
1
40
1
40
1
40
1
41
1
10
19.9972040257892
20
1.12770638888736
30
0
41
1
10
19.9757713759527
20
1.08521154765975
30
0
41
1
10
19.9542723447579
20
1.04273444330428
30
0
41
1
10
19.9326712784537
20
1.00029223777949
30
0
0
SPLINE
5
15E
100
AcDbEntity
8
1
62
256
6
ByLayer
370
18
48
1
60
0
100
AcDbSpline
70
4
71
3
72
10
73
6
40
0
40
0
40
0
40
0
40
0.842914034796913
40
0.842914034796913
40
1
40
1
40
1
40
1
41
1
10
19.9326712784537
20
1.00029223777958
30
0
41
1
10
19.9292197441776
20
0.993510594454278
30
0
41
1
10
19.925198604005
20
0.987179461863605
30
0
41
1
10
19.9198765851553
20
0.980103664116342
30
0
41
1
10
19.9190224061005
20
0.979003380885587
30
0
41
1
10
19.9181515936153
20
0.977915604933742
30
0
0
SPLINE
5
15F
100
AcDbEntity
8
1
62
256
6
ByLayer
370
18
48
1
60
0
100
AcDbSpline
70
4
71
3
72
12
73
8
40
0
40
0
40
0
40
0
40
0.5
40
0.5
40
0.75
40
0.75
40
1
40
1
40
1
40
1
41
1
10
19
20
1.19873521726879
30
0
41
1
10
19.0640274709896
20
1.20059892255677
30
0
41
1
10
19.1275535901168
20
1.20033870724754
30
0
41
1
10
19.2220893216077
20
1.1966120014994
30
0
41
1
10
19.2534696158308
20
1.19480784521133
30
0
41
1
10
19.3161028179967
20
1.19012921480535
30
0
41
1
10
19.3473651367609
20
1.18726290600074
30
0
41
1
10
19.3785417506977
20
1.18383893860388
30
0
0
SPLINE
5
160
100
AcDbEntity
8
1
62
256
6
ByLayer
370
18
48
1
60
0
100
AcDbSpline
70
4
71
3
72
8
73
4
40
0
40
0
40
0
40
0
40
1
40
1
40
1
40
1
41
1
10
19.3785417506977
20
1.18383893860434
30
0
41
1
10
19.3820835189949
20
1.17718581671573
30
0
41
1
10
19.3856287617339
20
1.17052604657289
30
0
41
1
10
19.3891773627695
20
1.16385981806098
30
0
0
SPLINE
5
161
100
AcDbEntity
8
1
62
256
6
ByLayer
370
18
48
1
60
0
100
AcDbSpline
70
4
71
3
72
24
73
20
40
0
40
0
40
0
40
0
40
0.125
40
0.125
40
0.249999999999999
40
0.249999999999999
40
0.374999999999999
40
0.374999999999999
40
0.499999999999999
40
0.499999999999999
40
0.624999999999999
40
0.624999999999999
40
0.749999999999999
40
0.749999999999999
40
0.8125
40
0.8125
40
0.875
40
0.875
40
1
40
1
40
1
40
1
41
1
10
19.3891773627695
20
1.16385981806098
30
0
41
1
10
19.3927019799872
20
1.15723864437851
30
0
41
1
10
19.3968190717073
20
1.1512317465293
30
0
41
1
10
19.4060004124506
20
1.14019568615262
30
0
41
1
10
19.4111289765261
20
1.13512869730945
30
0
41
1
10
19.4219396772258
20
1.12624166793495
30
0
41
1
10
19.4276247102806
20
1.12239571738107
30
0
41
1
10
19.4395256971076
20
1.11586612318919
30
0
41
1
10
19.4456618976283
20
1.11323654211819
30
0
41
1
10
19.4580235573452
20
1.10935658785115
30
0
41
1
10
19.4643158882346
20
1.10807920995998
30
0
41
1
10
19.4769643626814
20
1.10708432639677
30
0
41
1
10
19.4831537567509
20
1.10737213034031
30
0
41
1
10
19.492188928695
20
1.10916517274961
30
0
41
1
10
19.4951799130172
20
1.11000206250188
30
0
41
1
10
19.5009198359212
20
1.11215524687503
30
0
41
1
10
19.5036751669061
20
1.11346830839417
30
0
41
1
10
19.5115622163038
20
1.11818358801412
30
0
41
1
10
19.5163369743561
20
1.1224063848596
30
0
41
1
10
19.52015557469
20
1.12767251407965
30
0
0
SPLINE
5
162
100
AcDbEntity
8
1
62
256
6
ByLayer
370
18
48
1
60
0
100
AcDbSpline
70
4
71
3
72
8
73
4
40
0
40
0
40
0
40
0
40
1
40
1
40
1
40
1
41
1
10
19.52015557469
20
1.12767251407962
30
0
41
1
10
19.5280798628955
20
1.13860068723693
30
0
41
1
10
19.5359951043798
20
1.14942753869136
30
0
41
1
10
19.5439020607925
20
1.16015227227501
30
0
0
SPLINE
5
163
100
AcDbEntity
8
1
62
256
6
ByLayer
370
18
48
1
60
0
100
AcDbSpline
70
4
71
3
72
10
73
6
40
0
40
0
40
0
40
0
40
0.5
40
0.5
40
1
40
1
40
1
40
1
41
1
10
19.5439020607925
20
1.16015227227499
30
0
41
1
10
19.5965637158695
20
1.15095285268569
30
0
41
1
10
19.6491479267575
20
1.14019165435997
30
0
41
1
10
19.7542592781565
20
1.1155150403832
30
0
41
1
10
19.8068177844057
20
1.10162768659572
30
0
41
1
10
19.8594671223518
20
1.08622587944322
30
0
0
SPLINE
5
164
100
AcDbEntity
8
1
62
256
6
ByLayer
370
18
48
1
60
0
100
AcDbSpline
70
4
71
3
72
8
73
4
40
0
40
0
40
0
40
0
40
1
40
1
40
1
40
1
41
1
10
19.8594671223518
20
1.08622587944328
30
0
41
1
10
19.8768467843002
20
1.05281309596924
30
0
41
1
10
19.8942936929892
20
1.01948806226861
30
0
41
1
10
19.9118273833648
20
0.986262169070812
30
0
0
SPLINE
5
165
100
AcDbEntity
8
1
62
256
6
ByLayer
370
18
48
1
60
0
100
AcDbSpline
70
4
71
3
72
24
73
20
40
0
40
0
40
0
40
0
40
0.125
40
0.125
40
0.25
40
0.25
40
0.375000000000001
40
0.375000000000001
40
0.500000000000001
40
0.500000000000001
40
0.625000000000001
40
0.625000000000001
40
0.750000000000001
40
0.750000000000001
40
0.812500000000001
40
0.812500000000001
40
0.875
40
0.875
40
1
40
1
40
1
40
1
41
1
10
19.9118273833648
20
0.986262169070812
30
0
41
1
10
19.9153427498101
20
0.979600639891231
30
0
41
1
10
19.9194494243682
20
0.973393446514677
30
0
41
1
10
19.9286110406864
20
0.96170711405037
30
0
41
1
10
19.9337308412122
20
0.956181094818874
30
0
41
1
10
19.9445322050422
20
0.946170108756888
30
0
41
1
10
19.9502139179427
20
0.941663326648893
30
0
41
1
10
19.9621156354503
20
0.933617423585815
30
0
41
1
10
19.9682585180775
20
0.930140690897872
30
0
41
1
10
19.9806350808702
20
0.924428631921273
30
0
41
1
10
19.9869390755323
20
0.92215533446921
30
0
41
1
10
19.9996018714951
20
0.91900429010704
30
0
41
1
10
20.0057947168344
20
0.918160250815987
30
0
41
1
10
20.0148271566901
20
0.918147277740246
30
0
41
1
10
20.0178155160685
20
0.918359090388066
30
0
41
1
10
20.0235436254729
20
0.919247669665253
30
0
41
1
10
20.0262917266588
20
0.919920656020679
30
0
41
1
10
20.0341543092521
20
0.922687738188785
30
0
41
1
10
20.0389070986038
20
0.925564077579253
30
0
41
1
10
20.042707742963
20
0.929519122077465
30
0
0
SPLINE
5
166
100
AcDbEntity
8
1
62
256
6
ByLayer
370
18
48
1
60
0
100
AcDbSpline
70
4
71
3
72
8
73
4
40
0
40
0
40
0
40
0
40
1
40
1
40
1
40
1
41
1
10
20.042707742963
20
0.929519122077465
30
0
41
1
10
20.066465870275
20
0.954242416821955
30
0
41
1
10
20.0901560378091
20
0.97776308364962
30
0
41
1
10
20.1137566352847
20
1.00002650327474
30
0
0
SPLINE
5
167
100
AcDbEntity
8
1
62
256
6
ByLayer
370
18
48
1
60
0
100
AcDbSpline
70
4
71
3
72
8
73
4
40
0
40
0
40
0
40
0
40
1
40
1
40
1
40
1
41
1
10
20.1137566352846
20
1.00002650327474
30
0
41
1
10
20.1899358003996
20
0.970602798086333
30
0
41
1
10
20.2654463315161
20
0.938117878194589
30
0
41
1
10
20.3403603984053
20
0.902521713647161
30
0
0
SPLINE
5
168
100
AcDbEntity
8
1
62
256
6
ByLayer
370
18
48
1
60
0
100
AcDbSpline
70
4
71
3
72
8
73
4
40
0
40
0
40
0
40
0
40
1
40
1
40
1
40
1
41
1
10
20.3403603984032
20
0.902521713645399
30
0
41
1
10
20.3714758389663
20
0.844612375016482
30
0
41
1
10
20.4027441372363
20
0.787651877053491
30
0
41
1
10
20.4342850078786
20
0.731797389628753
30
0
0
SPLINE
5
169
100
AcDbEntity
8
1
62
256
6
ByLayer
370
18
48
1
60
0
100
AcDbSpline
70
4
71
3
72
24
73
20
40
0
40
0
40
0
40
0
40
0.124999999999977
40
0.124999999999977
40
0.249999999999954
40
0.249999999999954
40
0.374999999999931
40
0.374999999999931
40
0.499999999999908
40
0.499999999999908
40
0.624999999999885
40
0.624999999999885
40
0.749999999999861
40
0.749999999999861
40
0.812499999999896
40
0.812499999999896
40
0.874999999999931
40
0.874999999999931
40
1
40
1
40
1
40
1
41
1
10
20.4342850078786
20
0.731797389628753
30
0
41
1
10
20.4378063745304
20
0.725561539909251
30
0
41
1
10
20.4419191691692
20
0.71958609240707
30
0
41
1
10
20.4510913011744
20
0.708056335156613
30
0
41
1
10
20.4562148500608
20
0.702451054588693
30
0
41
1
10
20.4670199065706
20
0.69199680735079
30
0
41
1
10
20.4727040269374
20
0.687127349056084
30
0
41
1
10
20.4846132407298
20
0.678077844185225
30
0
41
1
10
20.4907599774263
20
0.673966066044557
30
0
41
1
10
20.5031443831065
20
0.666726829477511
30
0
41
1
10
20.509449095474
20
0.66355546748585
30
0
41
1
10
20.5221144130365
20
0.658297914951163
30
0
41
1
10
20.5283054765126
20
0.656275175920484
30
0
41
1
10
20.5373309396029
20
0.654266389175262
30
0
41
1
10
20.5403169170259
20
0.653768929024722
30
0
41
1
10
20.5460493220535
20
0.653189306265489
30
0
41
1
10
20.5488001043007
20
0.653102957697655
30
0
41
1
10
20.5566729512308
20
0.653512429742364
30
0
41
1
10
20.5614420257194
20
0.654698479156878
30
0
41
1
10
20.5652597976925
20
0.656956731094454
30
0
0
SPLINE
5
16A
100
AcDbEntity
8
1
62
256
6
ByLayer
370
18
48
1
60
0
100
AcDbSpline
70
4
71
3
72
8
73
4
40
0
40
0
40
0
40
0
40
1
40
1
40
1
40
1
41
1
10
20.5652597976925
20
0.656956731094454
30
0
41
1
10
20.6052254382464
20
0.680596824282702
30
0
41
1
10
20.6449826312118
20
0.700118442452322
30
0
41
1
10
20.684425410627
20
0.715732711753162
30
0
0
SPLINE
5
16B
100
AcDbEntity
8
1
62
256
6
ByLayer
370
18
48
1
60
0
100
AcDbSpline
70
4
71
3
72
8
73
4
40
0
40
0
40
0
40
0
40
1
40
1
40
1
40
1
41
1
10
20.6844254106271
20
0.71573271175302
30
0
41
1
10
20.7300351354867
20
0.688323925112144
30
0
41
1
10
20.7757578462181
20
0.660078031227101
30
0
41
1
10
20.8214762520948
20
0.630805442506698
30
0
0
SPLINE
5
16C
100
AcDbEntity
8
1
62
256
6
ByLayer
370
18
48
1
60
0
100
AcDbSpline
70
4
71
3
72
10
73
6
40
0
40
0
40
0
40
0
40
0.5
40
0.5
40
1
40
1
40
1
40
1
41
1
10
20.8214762520948
20
0.630805442506698
30
0
41
1
10
20.8438167119932
20
0.593429828069077
30
0
41
1
10
20.8662924907923
20
0.556820793201467
30
0
41
1
10
20.9114405601222
20
0.485419198802219
30
0
41
1
10
20.9341123104096
20
0.450619938971926
30
0
41
1
10
20.9569247196849
20
0.416764552839623
30
0
0
SPLINE
5
16D
100
AcDbEntity
8
1
62
256
6
ByLayer
370
18
48
1
60
0
100
AcDbSpline
70
4
71
3
72
24
73
20
40
0
40
0
40
0
40
0
40
0.12500000000001
40
0.12500000000001
40
0.25000000000002
40
0.25000000000002
40
0.375000000000029
40
0.375000000000029
40
0.500000000000039
40
0.500000000000039
40
0.625000000000049
40
0.625000000000049
40
0.750000000000059
40
0.750000000000059
40
0.812500000000064
40
0.812500000000064
40
0.875000000000069
40
0.875000000000069
40
1
40
1
40
1
40
1
41
1
10
20.9569247196849
20
0.416764552839623
30
0
41
1
10
20.9604468201696
20
0.411537482324917
30
0
41
1
10
20.9645614897863
20
0.406355623535973
30
0
41
1
10
20.9737386760451
20
0.396072652931139
30
0
41
1
10
20.9788661810758
20
0.390919732207067
30
0
41
1
10
20.989679729022
20
0.381018263600282
30
0
41
1
10
20.9953663950531
20
0.376256354886152
30
0
41
1
10
21.0072750976792
20
0.367086001777551
30
0
41
1
10
21.0134170991056
20
0.362744782546827
30
0
41
1
10
21.0257930543908
20
0.354716317124343
30
0
41
1
10
21.0320976853008
20
0.350980703103801
30
0
41
1
10
21.0447525121058
20
0.344238713706375
30
0
41
1
10
21.0509419072791
20
0.341313499524574
30
0
41
1
10
21.0599699733593
20
0.337674371494472
30
0
41
1
10
21.062956932761
20
0.336581713710473
30
0
41
1
10
21.0686831538094
20
0.334732849045594
30
0
41
1
10
21.071430700198
20
0.333971363981533
30
0
41
1
10
21.0792926594887
20
0.332218704305547
30
0
41
1
10
21.0840473811484
20
0.33176703372385
30
0
41
1
10
21.0878514248983
20
0.332248588517217
30
0
0
SPLINE
5
16E
100
AcDbEntity
8
1
62
256
6
ByLayer
370
18
48
1
60
0
100
AcDbSpline
70
4
71
3
72
8
73
4
40
0
40
0
40
0
40
0
40
1
40
1
40
1
40
1
41
1
10
21.0878514248982
20
0.332248588517245
30
0
41
1
10
21.1437131057555
20
0.339320131841191
30
0
41
1
10
21.199171082453
20
0.337989506634301
30
0
41
1
10
21.2540040449902
20
0.328471358480328
30
0
0
SPLINE
5
16F
100
AcDbEntity
8
1
62
256
6
ByLayer
370
18
48
1
60
0
100
AcDbSpline
70
4
71
3
72
10
73
6
40
0
40
0
40
0
40
0
40
0.5
40
0.5
40
1
40
1
40
1
40
1
41
1
10
21.3022458629736
20
0.29178985071502
30
0
41
1
10
21.331376103192
20
0.251285509715331
30
0
41
1
10
21.3606739419864
20
0.212571544497166
30
0
41
1
10
21.4197325332711
20
0.138869086617291
30
0
41
1
10
21.4494148395098
20
0.103981485722585
30
0
41
1
10
21.4793461568488
20
0.0711888755145367
30
0
0
SPLINE
5
170
100
AcDbEntity
8
1
62
256
6
ByLayer
370
18
48
1
60
0
100
AcDbSpline
70
4
71
3
72
24
73
20
40
0
40
0
40
0
40
0
40
0.125
40
0.125
40
0.25
40
0.25
40
0.375
40
0.375
40
0.5
40
0.5
40
0.625
40
0.625
40
0.75
40
0.75
40
0.8125
40
0.8125
40
0.875
40
0.875
40
1
40
1
40
1
40
1
41
1
10
21.4793461568488
20
0.0711888755145083
30
0
41
1
10
21.48287381428
20
0.0673239906589913
30
0
41
1
10
21.4869951948267
20
0.0632846306677095
30
0
41
1
10
21.4961862001995
20
0.0549393265040408
30
0
41
1
10
21.5013209488983
20
0.0505850174815237
30
0
41
1
10
21.5121464047498
20
0.0419028210377803
30
0
41
1
10
21.5178384986829
20
0.0375670842675788
30
0
41
1
10
21.5297567199913
20
0.028888829826542
30
0
41
1
10
21.5358996704128
20
0.02460957570392
30
0
41
1
10
21.5482783632488
20
0.0163217616226632
30
0
41
1
10
21.5545856978295
20
0.0122643602590813
30
0
41
1
10
21.5672334096554
20
0.0044519682565465
30
0
41
1
10
21.5734193006613
20
0.0007910833122935
30
0
41
1
10
21.582437708515
20
-0.004311308146498
30
0
41
1
10
21.5854206697681
20
-0.0059573010716178
30
0
41
1
10
21.5911399326518
20
-0.0090250154488558
30
0
41
1
10
21.5938837875868
20
-0.0104517513101143
30
0
41
1
10
21.6017346126025
20
-0.0143834872143884
30
0
41
1
10
21.6064859720726
20
-0.0165503234285325
30
0
41
1
10
21.6102923045878
20
-0.0179758440051501
30
0
0
SPLINE
5
171
100
AcDbEntity
8
1
62
256
6
ByLayer
370
18
48
1
60
0
100
AcDbSpline
70
4
71
3
72
12
73
8
40
0
40
0
40
0
40
0
40
0.249999999999993
40
0.249999999999993
40
0.499999999999986
40
0.499999999999986
40
1
40
1
40
1
40
1
41
1
10
21.6102923045878
20
-0.0179758440051501
30
0
41
1
10
21.6248076645596
20
-0.0234120333644228
30
0
41
1
10
21.6392813501426
20
-0.02954988214276
30
0
41
1
10
21.6681744712307
20
-0.0429095847456153
30
0
41
1
10
21.6825878598028
20
-0.0501019119170962
30
0
41
1
10
21.7257266432033
20
-0.0732251799099117
30
0
41
1
10
21.7543127641995
20
-0.0907365172857908
30
0
41
1
10
21.7827364949879
20
-0.110441601979915
30
0
0
SPLINE
5
172
100
AcDbEntity
8
1
62
256
6
ByLayer
370
18
48
1
60
0
100
AcDbSpline
70
4
71
3
72
8
73
4
40
0
40
0
40
0
40
0
40
1
40
1
40
1
40
1
41
1
10
21.823290408568
20
-0.14466808414511
30
0
41
1
10
21.809767856086
20
-0.133271557801009
30
0
41
1
10
21.7962525058316
20
-0.121859649016983
30
0
41
1
10
21.7827364949879
20
-0.110441601979886
30
0
0
SPLINE
5
173
100
AcDbEntity
8
1
62
256
6
ByLayer
370
18
48
1
60
0
100
AcDbSpline
70
4
71
3
72
8
73
4
40
0
40
0
40
0
40
0
40
1
40
1
40
1
40
1
41
1
10
21.823290408567
20
-0.144668084145394
30
0
41
1
10
21.8820295573573
20
-0.200616726731312
30
0
41
1
10
21.9416091467872
20
-0.247230070039791
30
0
41
1
10
22.0020680585708
20
-0.283800303371663
30
0
0
SPLINE
5
174
100
AcDbEntity
8
1
62
256
6
ByLayer
370
18
48
1
60
0
100
AcDbSpline
70
4
71
3
72
24
73
20
40
0
40
0
40
0
40
0
40
0.124999999999987
40
0.124999999999987
40
0.249999999999974
40
0.249999999999974
40
0.374999999999961
40
0.374999999999961
40
0.499999999999948
40
0.499999999999948
40
0.624999999999935
40
0.624999999999935
40
0.749999999999922
40
0.749999999999922
40
0.812499999999961
40
0.812499999999961
40
0.875000000000001
40
0.875000000000001
40
1
40
1
40
1
40
1
41
1
10
23.0471693468018
20
-0.89501980436259
30
0
41
1
10
23.0507006802841
20
-0.893385030362225
30
0
41
1
10
23.054827452765
20
-0.892446565534641
30
0
41
1
10
23.064030483247
20
-0.891662527153017
30
0
41
1
10
23.0691724890589
20
-0.891833925723205
30
0
41
1
10
23.0800118836625
20
-0.893197679856428
30
0
41
1
10
23.0857098275582
20
-0.894376936833282
30
0
41
1
10
23.0976363335899
20
-0.897719718908263
30
0
41
1
10
23.1037782226984
20
-0.899864874333758
30
0
41
1
10
23.1161543639011
20
-0.905038765173572
30
0
41
1
10
23.1224628478658
20
-0.908096705264967
30
0
41
1
10
23.1350903330243
20
-0.91520261728266
30
0
41
1
10
23.1412654502969
20
-0.919163415516067
30
0
41
1
10
23.1502712516672
20
-0.925830969135234
30
0
41
1
10
23.1532501721317
20
-0.92819448650414
30
0
41
1
10
23.1589603137306
20
-0.933082818395036
30
0
41
1
10
23.1617005526307
20
-0.935611656513913
30
0
41
1
10
23.1695429776153
20
-0.943477924440401
30
0
41
1
10
23.1742898707811
20
-0.949139959394074
30
0
41
1
10
23.1780935566516
20
-0.954911079051413
30
0
0
SPLINE
5
175
100
AcDbEntity
8
1
62
256
6
ByLayer
370
18
48
1
60
0
100
AcDbSpline
70
4
71
3
72
10
73
6
40
0
40
0
40
0
40
0
40
0.5
40
0.5
40
1
40
1
40
1
40
1
41
1
10
23.1780935566517
20
-0.954911079051413
30
0
41
1
10
23.2071500860846
20
-0.99899692470018
30
0
41
1
10
23.2360887521085
20
-1.0442122582138
30
0
41
1
10
23.2936811929066
20
-1.13659123699594
30
0
41
1
10
23.3223041803715
20
-1.18369957450122
30
0
41
1
10
23.3507784850374
20
-1.2316253395141
30
0
0
SPLINE
5
176
100
AcDbEntity
8
1
62
256
6
ByLayer
370
18
48
1
60
0
100
AcDbSpline
70
4
71
3
72
8
73
4
40
0
40
0
40
0
40
0
40
1
40
1
40
1
40
1
41
1
10
23.390751936206
20
-1.25136514397582
30
0
41
1
10
23.4495596730338
20
-1.21086998415603
30
0
41
1
10
23.5091419508521
20
-1.16151292186879
30
0
41
1
10
23.5695890031908
20
-1.10361939598133
30
0
0
SPLINE
5
177
100
AcDbEntity
8
1
62
256
6
ByLayer
370
18
48
1
60
0
100
AcDbSpline
70
4
71
3
72
24
73
20
40
0
40
0
40
0
40
0
40
0.125000000000023
40
0.125000000000023
40
0.250000000000047
40
0.250000000000047
40
0.37500000000007
40
0.37500000000007
40
0.500000000000093
40
0.500000000000093
40
0.625000000000116
40
0.625000000000116
40
0.750000000000139
40
0.750000000000139
40
0.812500000000104
40
0.812500000000104
40
0.875000000000069
40
0.875000000000069
40
1
40
1
40
1
40
1
41
1
10
23.5695890031908
20
-1.10361939598133
30
0
41
1
10
23.573122195403
20
-1.10023546001037
30
0
41
1
10
23.5772519709836
20
-1.09762467941809
30
0
41
1
10
23.586462476527
20
-1.09362097012067
30
0
41
1
10
23.5916093275283
20
-1.09223049664175
30
0
41
1
10
23.6024582405482
20
-1.09068935650646
30
0
41
1
10
23.6081605839961
20
-1.09052009188775
30
0
41
1
10
23.6200954481598
20
-1.09136387071723
30
0
41
1
10
23.626239092846
20
-1.09237885094302
30
0
41
1
10
23.6386170002867
20
-1.09557092840401
30
0
41
1
10
23.6449273212948
20
-1.09776587266572
30
0
41
1
10
23.6575440331934
20
-1.10345434339894
30
0
41
1
10
23.6637133099572
20
-1.1068768419648
30
0
41
1
10
23.6727104694235
20
-1.1130259666424
30
0
41
1
10
23.6756861286768
20
-1.11526516321388
30
0
41
1
10
23.6813884202708
20
-1.12001899795277
30
0
41
1
10
23.6841248877453
20
-1.12253698693894
30
0
41
1
10
23.6919565946187
20
-1.13055499363193
30
0
41
1
10
23.696696748924
20
-1.13656931301114
30
0
41
1
10
23.7004963366913
20
-1.14298456867158
30
0
0
SPLINE
5
178
100
AcDbEntity
8
1
62
256
6
ByLayer
370
18
48
1
60
0
100
AcDbSpline
70
4
71
3
72
8
73
4
40
0
40
0
40
0
40
0
40
1
40
1
40
1
40
1
41
1
10
23.7004963366913
20
-1.14298456867158
30
0
41
1
10
23.7476768025047
20
-1.22264446045574
30
0
41
1
10
23.7945568127961
20
-1.30380219959253
30
0
41
1
10
23.8408767211386
20
-1.38562109717864
30
0
0
SPLINE
5
179
100
AcDbEntity
8
1
62
256
6
ByLayer
370
18
48
1
60
0
100
AcDbSpline
70
4
71
3
72
10
73
6
40
0
40
0
40
0
40
0
40
0.5
40
0.5
40
1
40
1
40
1
40
1
41
1
10
23.8408767211392
20
-1.3856210971783
30
0
41
1
10
23.8619575450824
20
-1.38692511758109
30
0
41
1
10
23.8830643873505
20
-1.3878538281142
30
0
41
1
10
23.9255463366641
20
-1.38880416674613
30
0
41
1
10
23.9468527196603
20
-1.38888485867423
30
0
41
1
10
23.9681805050147
20
-1.38861063953263
30
0
0
SPLINE
5
17A
100
AcDbEntity
8
1
62
256
6
ByLayer
370
18
48
1
60
0
100
AcDbSpline
70
4
71
3
72
10
73
6
40
0
40
0
40
0
40
0
40
0.5
40
0.5
40
1
40
1
40
1
40
1
41
1
10
23.9681805050147
20
-1.38861063953266
30
0
41
1
10
23.9886460855054
20
-1.36323075751278
30
0
41
1
10
24.0092286096288
20
-1.33694680657737
30
0
41
1
10
24.0505582847392
20
-1.28272277353292
30
0
41
1
10
24.0713144188814
20
-1.2547718710241
30
0
41
1
10
24.0921960717562
20
-1.22596976753763
30
0
0
SPLINE
5
17B
100
AcDbEntity
8
1
62
256
6
ByLayer
370
18
48
1
60
0
100
AcDbSpline
70
4
71
3
72
24
73
20
40
0
40
0
40
0
40
0
40
0.124999999999967
40
0.124999999999967
40
0.249999999999935
40
0.249999999999935
40
0.374999999999902
40
0.374999999999902
40
0.49999999999987
40
0.49999999999987
40
0.624999999999837
40
0.624999999999837
40
0.749999999999805
40
0.749999999999805
40
0.812499999999834
40
0.812499999999834
40
0.874999999999863
40
0.874999999999863
40
1
40
1
40
1
40
1
41
1
10
24.0921960717562
20
-1.22596976753763
30
0
41
1
10
24.0957327332689
20
-1.22109164359449
30
0
41
1
10
24.0998661333032
20
-1.21700528184817
30
0
41
1
10
24.1090827744107
20
-1.21007868559303
30
0
41
1
10
24.1142320387312
20
-1.20722632020835
30
0
41
1
10
24.1250835610595
20
-1.20288015335029
30
0
41
1
10
24.1307867847245
20
-1.20136388886988
30
0
41
1
10
24.1427224996734
20
-1.19961694410045
30
0
41
1
10
24.1488644142528
20
-1.19940873040528
30
0
41
1
10
24.1612416852269
20
-1.20033850102487
30
0
41
1
10
24.1675525818947
20
-1.20148049969529
30
0
41
1
10
24.180168613419
20
-1.20527629375871
30
0
41
1
10
24.1863379824816
20
-1.20787854067728
30
0
41
1
10
24.1953346493297
20
-1.21300890498824
30
0
41
1
10
24.1983101536906
20
-1.21494259633775
30
0
41
1
10
24.2040130071325
20
-1.21918084833686
30
0
41
1
10
24.2067498642904
20
-1.22148693565495
30
0
41
1
10
24.2145830004244
20
-1.22901900913558
30
0
41
1
10
24.2193256113897
20
-1.2349119499097
30
0
41
1
10
24.2231285605615
20
-1.24147184505526
30
0
0
SPLINE
5
17C
100
AcDbEntity
8
1
62
256
6
ByLayer
370
18
48
1
60
0
100
AcDbSpline
70
4
71
3
72
8
73
4
40
0
40
0
40
0
40
0
40
1
40
1
40
1
40
1
41
1
10
24.2231285605615
20
-1.24147184505526
30
0
41
1
10
24.2454095645514
20
-1.27990545100425
30
0
41
1
10
24.2676179994035
20
-1.31826814841764
30
0
41
1
10
24.2897379306368
20
-1.35648512882517
30
0
0
SPLINE
5
17D
100
AcDbEntity
8
1
62
256
6
ByLayer
370
18
48
1
60
0
100
AcDbSpline
70
4
71
3
72
10
73
6
40
0
40
0
40
0
40
0
40
0.5
40
0.5
40
1
40
1
40
1
40
1
41
1
10
24.2214330614095
20
-0.212277797491282
30
0
41
1
10
24.2035779376073
20
-0.187188599372035
30
0
41
1
10
24.1856546539729
20
-0.162767495870952
30
0
41
1
10
24.1497266057399
20
-0.115400213997219
30
0
41
1
10
24.1317099755281
20
-0.0924428111756868
30
0
41
1
10
24.1136171673685
20
-0.0702533822735063
30
0
0
SPLINE
5
17E
100
AcDbEntity
8
1
62
256
6
ByLayer
370
18
48
1
60
0
100
AcDbSpline
70
4
71
3
72
22
73
18
40
0
40
0
40
0
40
0
40
0.125
40
0.125
40
0.25
40
0.25
40
0.375
40
0.375
40
0.5
40
0.5
40
0.625
40
0.625
40
0.75
40
0.75
40
0.875
40
0.875
40
1
40
1
40
1
40
1
41
1
10
24.1136171673685
20
-0.0702533822735063
30
0
41
1
10
24.1101723384064
20
-0.0660285661664375
30
0
41
1
10
24.1061596411457
20
-0.0616848694889995
30
0
41
1
10
24.0972061879653
20
-0.0528141702634457
30
0
41
1
10
24.0922075257913
20
-0.0482420741683427
30
0
41
1
10
24.0816341205826
20
-0.0391997343483581
30
0
41
1
10
24.0760550882786
20
-0.0347180386941091
30
0
41
1
10
24.0643243217418
20
-0.0258182261096067
30
0
41
1
10
24.0582014468728
20
-0.0214275515560871
30
0
41
1
10
24.0458518914786
20
-0.0130381808775439
30
0
41
1
10
24.0395708624142
20
-0.0089967993931737
30
0
41
1
10
24.0267811035426
20
-0.0012410423878748
30
0
41
1
10
24.0204227469387
20
0.0023794506477941
30
0
41
1
10
24.0081235869088
20
0.0088764829567083
30
0
41
1
10
24.0021219529035
20
0.0117790867256531
30
0
41
1
10
23.9913671543582
20
0.0163386342119622
30
0
41
1
10
23.9865079074297
20
0.0180401331786584
30
0
41
1
10
23.9826641909836
20
0.0188913849226537
30
0
0
SPLINE
5
17F
100
AcDbEntity
8
1
62
256
6
ByLayer
370
18
48
1
60
0
100
AcDbSpline
70
4
71
3
72
10
73
6
40
0
40
0
40
0
40
0
40
0.5
40
0.5
40
1
40
1
40
1
40
1
41
1
10
23.9826641909819
20
0.0188913849230516
30
0
41
1
10
23.9539490011662
20
0.0252508174535535
30
0
41
1
10
23.925275451131
20
0.0339370307478362
30
0
41
1
10
23.8681305705454
20
0.05608028851006
30
0
41
1
10
23.839691854207
20
0.0695013968413889
30
0
41
1
10
23.8113804327679
20
0.0851314464867414
30
0
0
SPLINE
5
180
100
AcDbEntity
8
1
62
256
6
ByLayer
370
18
48
1
60
0
100
AcDbSpline
70
4
71
3
72
10
73
6
40
0
40
0
40
0
40
0
40
0.5
40
0.5
40
1
40
1
40
1
40
1
41
1
10
23.7708385676573
20
0.119115643738724
30
0
41
1
10
23.7412032897115
20
0.15101908005991
30
0
41
1
10
23.7114207751223
20
0.180644697595198
30
0
41
1
10
23.6514486826271
20
0.235286659861856
30
0
41
1
10
23.6213539888009
20
0.260250125064346
30
0
41
1
10
23.591057767102
20
0.282716829966745
30
0
0
SPLINE
5
181
100
AcDbEntity
8
1
62
256
6
ByLayer
370
18
48
1
60
0
100
AcDbSpline
70
4
71
3
72
22
73
18
40
0
40
0
40
0
40
0
40
0.125
40
0.125
40
0.25
40
0.25
40
0.375
40
0.375
40
0.5
40
0.5
40
0.625
40
0.625
40
0.75
40
0.75
40
0.875
40
0.875
40
1
40
1
40
1
40
1
41
1
10
23.591057767102
20
0.282716829966745
30
0
41
1
10
23.5876086714354
20
0.285274568528678
30
0
41
1
10
23.583590267429
20
0.288143783668943
30
0
41
1
10
23.5746247756618
20
0.294378233797573
30
0
41
1
10
23.5696196488738
20
0.297781550080828
30
0
41
1
10
23.5590360184898
20
0.304855583972625
30
0
41
1
10
23.5534527220944
20
0.308531047760852
30
0
41
1
10
23.5417163565754
20
0.3161741424573
30
0
41
1
10
23.5355950183583
20
0.320120325439234
30
0
41
1
10
23.523249080574
20
0.328038038629302
30
0
41
1
10
23.516970931453
20
0.332044133036675
30
0
41
1
10
23.5041890744
20
0.340206238346525
30
0
41
1
10
23.4978408134117
20
0.344263440133602
30
0
41
1
10
23.4855530301948
20
0.352179899296147
30
0
41
1
10
23.4795562373223
20
0.356077951232237
30
0
41
1
10
23.4688034203655
20
0.363189998737312
30
0
41
1
10
23.4639415418775
20
0.366475869268669
30
0
41
1
10
23.4600935425852
20
0.369161509455068
30
0
0
SPLINE
5
182
100
AcDbEntity
8
1
62
256
6
ByLayer
370
18
48
1
60
0
100
AcDbSpline
70
4
71
3
72
10
73
6
40
0
40
0
40
0
40
0
40
0.5
40
0.5
40
1
40
1
40
1
40
1
41
1
10
23.4600935425835
20
0.369161509456205
30
0
41
1
10
23.431332959842
20
0.389234428115572
30
0
41
1
10
23.4026196982167
20
0.411417655595073
30
0
41
1
10
23.3453953891333
20
0.459936559988449
30
0
41
1
10
23.3169136817168
20
0.486212338538792
30
0
41
1
10
23.2885559140533
20
0.51438128397578
30
0
0
SPLINE
5
183
100
AcDbEntity
8
1
62
256
6
ByLayer
370
18
48
1
60
0
100
AcDbSpline
70
4
71
3
72
10
73
6
40
0
40
0
40
0
40
0
40
0.5
40
0.5
40
1
40
1
40
1
40
1
41
1
10
23.248665501439
20
0.545864196965624
30
0
41
1
10
23.2189488493054
20
0.562439569763967
30
0
41
1
10
23.1890880719101
20
0.576546965026722
30
0
41
1
10
23.1289493771243
20
0.599696043378458
30
0
41
1
10
23.0987653907002
20
0.608734251372397
30
0
41
1
10
23.0683663081377
20
0.615047334616719
30
0
0
SPLINE
5
184
100
AcDbEntity
8
1
62
256
6
ByLayer
370
18
48
1
60
0
100
AcDbSpline
70
4
71
3
72
22
73
18
40
0
40
0
40
0
40
0
40
0.125
40
0.125
40
0.25
40
0.25
40
0.375
40
0.375
40
0.5
40
0.5
40
0.625
40
0.625
40
0.75
40
0.75
40
0.875
40
0.875
40
1
40
1
40
1
40
1
41
1
10
23.0683663081377
20
0.615047334616747
30
0
41
1
10
23.0649183777415
20
0.615763378318633
30
0
41
1
10
23.0609019579987
20
0.616951477589453
30
0
41
1
10
23.0519407757048
20
0.620084245815889
30
0
41
1
10
23.0469379675564
20
0.622056870391049
30
0
41
1
10
23.0363576207428
20
0.626605406933209
30
0
41
1
10
23.0307756411251
20
0.629178580566474
30
0
41
1
10
23.0190406221568
20
0.634936250947703
30
0
41
1
10
23.0129179811447
20
0.638109607181292
30
0
41
1
10
23.0005697651298
20
0.644880926145191
30
0
41
1
10
22.9942902040775
20
0.648503402503309
30
0
41
1
10
22.9815051423087
20
0.656347790729427
30
0
41
1
10
22.9751537200462
20
0.660478479653676
30
0
41
1
10
22.9628639476874
20
0.669083939575017
30
0
41
1
10
22.9568674230871
20
0.673609116202186
30
0
41
1
10
22.946119335597
20
0.682582599933113
30
0
41
1
10
22.9412618598394
20
0.68712340785612
30
0
41
1
10
22.9374185772825
20
0.691365489795686
30
0
0
SPLINE
5
185
100
AcDbEntity
8
1
62
256
6
ByLayer
370
18
48
1
60
0
100
AcDbSpline
70
4
71
3
72
10
73
6
40
0
40
0
40
0
40
0
40
0.5
40
0.5
40
1
40
1
40
1
40
1
41
1
10
22.9374185772825
20
0.691365489795686
30
0
41
1
10
22.9087314981427
20
0.72302929242241
30
0
41
1
10
22.880088882355
20
0.756475297514584
30
0
41
1
10
22.8230082175355
20
0.826838848296575
30
0
41
1
10
22.7946021114915
20
0.863694803594171
30
0
41
1
10
22.7663261536039
20
0.902115691405669
30
0
0
SPLINE
5
186
100
AcDbEntity
8
1
62
256
6
ByLayer
370
18
48
1
60
0
100
AcDbSpline
70
4
71
3
72
8
73
4
40
0
40
0
40
0
40
0
40
1
40
1
40
1
40
1
41
1
10
22.7257851373677
20
0.929545556909744
30
0
41
1
10
22.7393012066527
20
0.920476071200653
30
0
41
1
10
22.7528144216631
20
0.911332333225801
30
0
41
1
10
22.7663261536039
20
0.902115691405641
30
0
0
SPLINE
5
187
100
AcDbEntity
8
1
62
256
6
ByLayer
370
18
48
1
60
0
100
AcDbSpline
70
4
71
3
72
10
73
6
40
0
40
0
40
0
40
0
40
0.5
40
0.5
40
1
40
1
40
1
40
1
41
1
10
22.7257851373677
20
0.929545556909744
30
0
41
1
10
22.696153645137
20
0.929149393046288
30
0
41
1
10
22.6663573281676
20
0.926152055683986
30
0
41
1
10
22.6063212641937
20
0.91495852256989
30
0
41
1
10
22.5761778182567
20
0.906807223025453
30
0
41
1
10
22.5458207082639
20
0.895983969793917
30
0
0
SPLINE
5
188
100
AcDbEntity
8
1
62
256
6
ByLayer
370
18
48
1
60
0
100
AcDbSpline
70
4
71
3
72
22
73
18
40
0
40
0
40
0
40
0
40
0.125
40
0.125
40
0.25
40
0.25
40
0.375
40
0.375
40
0.5
40
0.5
40
0.625
40
0.625
40
0.75
40
0.75
40
0.875
40
0.875
40
1
40
1
40
1
40
1
41
1
10
22.5458207082639
20
0.895983969793917
30
0
41
1
10
22.5423682107651
20
0.894753047130166
30
0
41
1
10
22.538345269324
20
0.894123769719442
30
0
41
1
10
22.5293686706444
20
0.893833798281946
30
0
41
1
10
22.524356577372
20
0.894188643229995
30
0
41
1
10
22.5137584022936
20
0.895803130646328
30
0
41
1
10
22.5081679645739
20
0.897052712549879
30
0
41
1
10
22.4964185073295
20
0.900447028653787
30
0
41
1
10
22.490292557404
20
0.902590296198582
30
0
41
1
10
22.4779398256217
20
0.907681499304971
30
0
41
1
10
22.471659629181
20
0.910641415089628
30
0
41
1
10
22.4588772281476
20
0.917576118130455
30
0
41
1
10
22.4525369870943
20
0.921468394970873
30
0
41
1
10
22.4402614813464
20
0.930130301611143
30
0
41
1
10
22.4342736196755
20
0.934954352246109
30
0
41
1
10
22.4235371508757
20
0.945151179510134
30
0
41
1
10
22.4186827822209
20
0.950630326735052
30
0
41
1
10
22.414839270872
20
0.956140381185008
30
0
0
SPLINE
5
189
100
AcDbEntity
8
1
62
256
6
ByLayer
370
18
48
1
60
0
100
AcDbSpline
70
4
71
3
72
10
73
6
40
0
40
0
40
0
40
0
40
0.5
40
0.5
40
1
40
1
40
1
40
1
41
1
10
22.4148392708702
20
0.95614038118751
30
0
41
1
10
22.3861112585
20
0.99732483416318
30
0
41
1
10
22.3574330239325
20
1.03980230253586
30
0
41
1
10
22.3002833575311
20
1.12709614013951
30
0
41
1
10
22.271841159407
20
1.17184495259497
30
0
41
1
10
22.2435235500804
20
1.21756896382155
30
0
0
SPLINE
5
18A
100
AcDbEntity
8
1
62
256
6
ByLayer
370
18
48
1
60
0
100
AcDbSpline
70
4
71
3
72
10
73
6
40
0
40
0
40
0
40
0
40
0.5
40
0.5
40
1
40
1
40
1
40
1
41
1
10
22.203425304538
20
1.2380027867377
30
0
41
1
10
22.1737260466525
20
1.22074087973081
30
0
41
1
10
22.1438745057663
20
1.20112434318378
30
0
41
1
10
22.0837343384878
20
1.15711750606931
30
0
41
1
10
22.0535387780324
20
1.13281491978461
30
0
41
1
10
22.0231225617694
20
1.10607634327417
30
0
0
SPLINE
5
18B
100
AcDbEntity
8
1
62
256
6
ByLayer
370
18
48
1
60
0
100
AcDbSpline
70
4
71
3
72
22
73
18
40
0
40
0
40
0
40
0
40
0.125
40
0.125
40
0.25
40
0.25
40
0.375
40
0.375
40
0.5
40
0.5
40
0.625
40
0.625
40
0.75
40
0.75
40
0.875
40
0.875
40
1
40
1
40
1
40
1
41
1
10
22.0231225617694
20
1.10607634327417
30
0
41
1
10
22.0196724945519
20
1.10304342539035
30
0
41
1
10
22.0156531495105
20
1.10068924772835
30
0
41
1
10
22.0066850385215
20
1.09707531027195
30
0
41
1
10
22.0016780595889
20
1.09581756503471
30
0
41
1
10
21.9910898535659
20
1.0944247719867
30
0
41
1
10
21.9855042127844
20
1.09427343166195
30
0
41
1
10
21.9737631445748
20
1.09506753178314
30
0
41
1
10
21.9676394831258
20
1.09602258138725
30
0
41
1
10
21.955290284776
20
1.09904126937002
30
0
41
1
10
21.9490110510492
20
1.10110383620213
30
0
41
1
10
21.9362286280649
20
1.10656724823861
30
0
41
1
10
21.9298836378439
20
1.10990812333523
30
0
41
1
10
21.9176023118457
20
1.11791278342361
30
0
41
1
10
21.9116106694713
20
1.12263544508855
30
0
41
1
10
21.9008690166815
20
1.13319864284546
30
0
41
1
10
21.8960131327415
20
1.13915058342135
30
0
41
1
10
21.892169742289
20
1.14545384083237
30
0
0
SPLINE
5
18C
100
AcDbEntity
8
1
62
256
6
ByLayer
370
18
48
1
60
0
100
AcDbSpline
70
4
71
3
72
10
73
6
40
0
40
0
40
0
40
0
40
0.5
40
0.5
40
1
40
1
40
1
40
1
41
1
10
21.8921697422877
20
1.14545384083448
30
0
41
1
10
21.8634462275967
20
1.19256113037429
30
0
41
1
10
21.8347707154242
20
1.24036939730058
30
0
41
1
10
21.7776291045587
20
1.3371173741611
30
0
41
1
10
21.7491937656873
20
1.38599141478841
30
0
41
1
10
21.7208899473649
20
1.43526569479315
30
0
0
SPLINE
5
18D
100
AcDbEntity
8
1
62
256
6
ByLayer
370
18
48
1
60
0
100
AcDbSpline
70
4
71
3
72
24
73
20
40
0
40
0
40
0
40
0
40
0.12499999999999
40
0.12499999999999
40
0.24999999999998
40
0.24999999999998
40
0.374999999999969
40
0.374999999999969
40
0.499999999999959
40
0.499999999999959
40
0.624999999999949
40
0.624999999999949
40
0.749999999999938
40
0.749999999999938
40
0.812499999999933
40
0.812499999999933
40
0.874999999999928
40
0.874999999999928
40
1
40
1
40
1
40
1
41
1
10
21.500553343723
20
1.22692813920383
30
0
41
1
10
21.4971035503168
20
1.22229761227499
30
0
41
1
10
21.4930829786288
20
1.2183708454796
30
0
41
1
10
21.4841094014089
20
1.21165560907807
30
0
41
1
10
21.4790977298534
20
1.20885509885414
30
0
41
1
10
21.4684990359567
20
1.20451462472593
30
0
41
1
10
21.4629081257147
20
1.20295334491422
30
0
41
1
10
21.4511577679595
20
1.20105044626695
30
0
41
1
10
21.4450319190062
20
1.20072866701648
30
0
41
1
10
21.4326808744257
20
1.2014168031379
30
0
41
1
10
21.4264022122884
20
1.20241258454575
30
0
41
1
10
21.4136247012848
20
1.20596453662728
30
0
41
1
10
21.4072929360686
20
1.20848220528822
30
0
41
1
10
21.3980961271786
20
1.21351023745134
30
0
41
1
10
21.3950492586608
20
1.2154171667832
30
0
41
1
10
21.389183124997
20
1.21964053593604
30
0
41
1
10
21.3863704135124
20
1.22194723506308
30
0
41
1
10
21.3783286796265
20
1.22950792480458
30
0
41
1
10
21.3734802676879
20
1.23545556429801
30
0
41
1
10
21.3696397879262
20
1.24205143120784
30
0
0
SPLINE
5
18E
100
AcDbEntity
8
1
62
256
6
ByLayer
370
18
48
1
60
0
100
AcDbSpline
70
4
71
3
72
22
73
18
40
0
40
0
40
0
40
0
40
0.249999999999998
40
0.249999999999998
40
0.312499999999998
40
0.312499999999998
40
0.374999999999998
40
0.374999999999998
40
0.499999999999998
40
0.499999999999998
40
0.624999999999998
40
0.624999999999998
40
0.687499999999998
40
0.687499999999998
40
0.749999999999998
40
0.749999999999998
40
1
40
1
40
1
40
1
41
1
10
21.2540040449902
20
0.3284713584803
30
0
41
1
10
21.2601277808955
20
0.224886185584751
30
0
41
1
10
21.2661997913931
20
0.120007458120568
30
0
41
1
10
21.2737287282273
20
-0.0127053418724188
30
0
41
1
10
21.275232129467
20
-0.0393293798494483
30
0
41
1
10
21.2782379368199
20
-0.0927434051708076
30
0
41
1
10
21.2797395449521
20
-0.119519850600057
30
0
41
1
10
21.2841993423362
20
-0.199157595979045
30
0
41
1
10
21.2871290081837
20
-0.251644123721547
30
0
41
1
10
21.2929825893008
20
-0.355434422593618
30
0
41
1
10
21.2959143627461
20
-0.406737939670734
30
0
41
1
10
21.3003667505583
20
-0.482798559241161
30
0
41
1
10
21.3018582086587
20
-0.508002743430978
30
0
41
1
10
21.3048563291767
20
-0.558107749542529
30
0
41
1
10
21.3063662915184
20
-0.58306256171366
30
0
41
1
10
21.3139169279231
20
-0.70642027814489
30
0
41
1
10
21.319874205616
20
-0.799407452432121
30
0
41
1
10
21.3258282038453
20
-0.886827711072385
30
0
0
SPLINE
5
18F
100
AcDbEntity
8
1
62
256
6
ByLayer
370
18
48
1
60
0
100
AcDbSpline
70
4
71
3
72
12
73
8
40
0
40
0
40
0
40
0
40
0.25
40
0.25
40
0.5
40
0.5
40
1
40
1
40
1
40
1
41
1
10
21.3258282038466
20
-0.195298450679132
30
0
41
1
10
21.3238755484175
20
-0.155122508474818
30
0
41
1
10
21.3219100445002
20
-0.114682191971895
30
0
41
1
10
21.3179518260291
20
-0.0332618799868953
30
0
41
1
10
21.3159526716666
20
0.0078449985228417
30
0
41
1
10
21.3100107542786
20
0.130390811886514
30
0
41
1
10
21.3061149884214
20
0.211425289224252
30
0
41
1
10
21.3022458629723
20
0.291789850709961
30
0
0
SPLINE
5
190
100
AcDbEntity
8
1
62
256
6
ByLayer
370
18
48
1
60
0
100
AcDbSpline
70
4
71
3
72
8
73
4
40
0
40
0
40
0
40
0
40
1
40
1
40
1
40
1
41
1
10
21.2540040449903
20
0.328471358480328
30
0
41
1
10
21.2701012455212
20
0.31633149690677
30
0
41
1
10
21.2861819200805
20
0.304104687405413
30
0
41
1
10
21.3022458629757
20
0.291789850714423
30
0
0
SPLINE
5
191
100
AcDbEntity
8
1
62
256
6
ByLayer
370
18
48
1
60
0
100
AcDbSpline
70
4
71
3
72
28
73
24
40
0
40
0
40
0
40
0
40
0.0625000000000006
40
0.0625000000000006
40
0.125000000000001
40
0.125000000000001
40
0.250000000000002
40
0.250000000000002
40
0.375000000000002
40
0.375000000000002
40
0.437500000000002
40
0.437500000000002
40
0.500000000000002
40
0.500000000000002
40
0.625000000000001
40
0.625000000000001
40
0.750000000000001
40
0.750000000000001
40
0.812500000000001
40
0.812500000000001
40
0.875
40
0.875
40
1
40
1
40
1
40
1
41
1
10
22.6535673696501
20
1.54408378731816
30
0
41
1
10
22.6550913809213
20
1.54350986264009
30
0
41
1
10
22.6566292937861
20
1.54210327056921
30
0
41
1
10
22.6597139331657
20
1.53761053472314
30
0
41
1
10
22.6612519458723
20
1.53454031202784
30
0
41
1
10
22.6658506057509
20
1.52291405900218
30
0
41
1
10
22.6688952941307
20
1.51194996945836
30
0
41
1
10
22.6749344635305
20
1.4837005266186
30
0
41
1
10
22.6779280159691
20
1.46641523764984
30
0
41
1
10
22.6823953134432
20
1.43564251393843
30
0
41
1
10
22.683884123166
20
1.42454930743054
30
0
41
1
10
22.6868479097244
20
1.40082168589109
30
0
41
1
10
22.6883158992984
20
1.3882471978452
30
0
41
1
10
22.6926977166537
20
1.34843971385479
30
0
41
1
10
22.6955864600784
20
1.31912900932329
30
0
41
1
10
22.7014634763721
20
1.25505595448001
30
0
41
1
10
22.7044533712705
20
1.22029388963145
30
0
41
1
10
22.7090103622514
20
1.16397172729447
30
0
41
1
10
22.7105450136125
20
1.14444939979162
30
0
41
1
10
22.7136184126478
20
1.104206721624
30
0
41
1
10
22.7151510759928
20
1.08356864500559
30
0
41
1
10
22.7197343345516
20
1.0201383729885
30
0
41
1
10
22.7227690710347
20
0.975834806369164
30
0
41
1
10
22.7257851373677
20
0.929545556909744
30
0
0
SPLINE
5
192
100
AcDbEntity
8
1
62
256
6
ByLayer
370
13
48
1
60
0
100
AcDbSpline
70
4
71
3
72
8
73
4
40
0
40
0
40
0
40
0
40
1
40
1
40
1
40
1
41
1.04
10
24.6204978622587
20
-1.24024655652303
30
0
41
1.04
10
24.6185897820442
20
-1.24461573770954
30
0
41
1.04
10
24.6166767820004
20
-1.24792785294272
30
0
41
1.04
10
24.6147588416813
20
-1.2501621645136
30
0
0
SPLINE
5
193
100
AcDbEntity
8
1
62
256
6
ByLayer
370
18
48
1
60
0
100
AcDbSpline
70
4
71
3
72
16
73
12
40
0
40
0
40
0
40
0
40
0.0467942083812918
40
0.0467942083812918
40
0.364529472254195
40
0.364529472254195
40
0.523397104190646
40
0.523397104190646
40
0.682264736127097
40
0.682264736127097
40
1
40
1
40
1
40
1
41
1
10
21.6522773444918
20
1.54438278416308
30
0
41
1
10
21.6527169151599
20
1.54437883511378
30
0
41
1
10
21.6531565824688
20
1.54430421499376
30
0
41
1
10
21.6565831570484
20
1.54317259115535
30
0
41
1
10
21.6595990963086
20
1.5389299531721
30
0
41
1
10
21.6641494971071
20
1.52750343199139
30
0
41
1
10
21.6656594330553
20
1.52286571638749
30
0
41
1
10
21.6686446360931
20
1.51201934440945
30
0
41
1
10
21.6701228469344
20
1.50580345948202
30
0
41
1
10
21.6745294885353
20
1.4848139986328
30
0
41
1
10
21.6774323175884
20
1.46770579970783
30
0
41
1
10
21.680386796915
20
1.44749043553969
30
0
0
SPLINE
5
194
100
AcDbEntity
8
1
62
256
6
ByLayer
370
18
48
1
60
0
100
AcDbSpline
70
4
71
3
72
18
73
14
40
0
40
0
40
0
40
0
40
0.299506431908114
40
0.299506431908114
40
0.599012863816228
40
0.599012863816228
40
0.673889471793257
40
0.673889471793257
40
0.748766079770285
40
0.748766079770285
40
0.89851929572434
40
0.89851929572434
40
1
40
1
40
1
40
1
41
1
10
21.7208899473649
20
1.43526569479312
30
0
41
1
10
21.7179611237337
20
1.456758053909
30
0
41
1
10
21.7149915416496
20
1.47508140193676
30
0
41
1
10
21.7089682137056
20
1.50548058696168
30
0
41
1
10
21.7059240656721
20
1.5175567772304
30
0
41
1
10
21.7020961572901
20
1.52865334407502
30
0
41
1
10
21.7013293506836
20
1.53067211212476
30
0
41
1
10
21.6997933725374
20
1.53430366591815
30
0
41
1
10
21.6990234345632
20
1.53591726916969
30
0
41
1
10
21.6967243345331
20
1.54011738504573
30
0
41
1
10
21.6952016864917
20
1.54207551431082
30
0
41
1
10
21.6926621466102
20
1.54397785988343
30
0
41
1
10
21.6916405426258
20
1.54436865730921
30
0
41
1
10
21.6906223318455
20
1.54438357367383
30
0
0
SPLINE
5
195
100
AcDbEntity
8
1
62
256
6
ByLayer
370
18
48
1
60
0
100
AcDbSpline
70
4
71
3
72
20
73
16
40
0
40
0
40
0
40
0
40
0.0982083723747549
40
0.278566697899803
40
0.278566697899803
40
0.368745860662328
40
0.368745860662328
40
0.458925023424852
40
0.458925023424852
40
0.639283348949902
40
0.819641674474951
40
0.819641674474951
40
0.909820837237476
40
0.909820837237476
40
1
40
1
40
1
40
1
41
1
10
23.4406001951087
20
-1.54438388961461
30
0
41
1
10
23.4389892149003
20
-1.5444131881828
30
0
41
1
10
23.4344466965176
20
-1.54172418400873
30
0
41
1
10
23.4299349788423
20
-1.53129747190007
30
0
41
1
10
23.4255022452634
20
-1.51626374403833
30
0
41
1
10
23.4240159709112
20
-1.5104326817393
30
0
41
1
10
23.4210119800211
20
-1.4971000660226
30
0
41
1
10
23.4194888076273
20
-1.48957274060302
30
0
41
1
10
23.414913357305
20
-1.46472888881306
30
0
41
1
10
23.4087978984021
20
-1.42550819159061
30
0
41
1
10
23.4027747875087
20
-1.37444122004624
30
0
41
1
10
23.3982628791427
20
-1.3316575185774
30
0
41
1
10
23.3967584004635
20
-1.31664733872259
30
0
41
1
10
23.3937501913389
20
-1.28510012028562
30
0
41
1
10
23.3922429168252
20
-1.26851765898937
30
0
41
1
10
23.3907519361982
20
-1.25136514398614
30
0
0
SPLINE
5
196
100
AcDbEntity
8
1
62
256
6
ByLayer
370
18
48
1
60
0
100
AcDbSpline
70
4
71
3
72
21
73
17
40
0
40
0
40
0
40
0
40
0.0871476440715624
40
0.0871476440715624
40
0.174295288143125
40
0.174295288143125
40
0.348590576286249
40
0.348590576286249
40
0.522885864429373
40
0.522885864429373
40
0.610033508500936
40
0.610033508500936
40
0.697181152572498
40
0.697181152572498
40
0.871476440715622
40
1
40
1
40
1
40
1
41
1
10
23.3507784850374
20
-1.2316253395141
30
0
41
1
10
23.3522738991682
20
-1.24916878924734
30
0
41
1
10
23.3537698640664
20
-1.26610397962523
30
0
41
1
10
23.3567640403948
20
-1.29873236830264
30
0
41
1
10
23.3582623903691
20
-1.31442188388095
30
0
41
1
10
23.3627024168749
20
-1.35902370681444
30
0
41
1
10
23.3656045644401
20
-1.38569463406006
30
0
41
1
10
23.3714042139699
20
-1.43305979875734
30
0
41
1
10
23.3743026071555
20
-1.45375368888079
30
0
41
1
10
23.3788044750992
20
-1.48025219202015
30
0
41
1
10
23.3803361742914
20
-1.48832617314096
30
0
41
1
10
23.3834487020419
20
-1.50292500428458
30
0
41
1
10
23.3850267074144
20
-1.50944102622694
30
0
41
1
10
23.3897322508652
20
-1.52641622027397
30
0
41
1
10
23.395144471681
20
-1.54030733976919
30
0
41
1
10
23.40036971166
20
-1.5444179817186
30
0
41
1
10
23.4025609070845
20
-1.5443831459979
30
0
0
SPLINE
5
197
100
AcDbEntity
8
1
62
256
6
ByLayer
370
18
48
1
60
0
100
AcDbSpline
70
4
71
3
72
21
73
17
40
0
40
0
40
0
40
0
40
0.120414381710756
40
0.296331505368605
40
0.296331505368605
40
0.384290067197529
40
0.384290067197529
40
0.472248629026454
40
0.472248629026454
40
0.648165752684303
40
0.648165752684303
40
0.824082876342151
40
0.824082876342151
40
0.912041438171076
40
0.912041438171076
40
1
40
1
40
1
40
1
41
1
10
22.152159574757
20
1.54438329316776
30
0
41
1
10
22.1541979969167
20
1.54442111788316
30
0
41
1
10
22.1591709116403
20
1.54072111575738
30
0
41
1
10
22.1640919644553
20
1.52786636859582
30
0
41
1
10
22.1685126083853
20
1.51153250086955
30
0
41
1
10
22.1699928805762
20
1.50527154296424
30
0
41
1
10
22.1729815363278
20
1.49108545626353
30
0
41
1
10
22.1744933758204
20
1.48313674246617
30
0
41
1
10
22.1790405329202
20
1.45706872522351
30
0
41
1
10
22.1821180659774
20
1.43667520960531
30
0
41
1
10
22.1882715325347
20
1.39002499609285
30
0
41
1
10
22.1913431573773
20
1.36376782437611
30
0
41
1
10
22.1959064171671
20
1.31993831373873
30
0
41
1
10
22.1974207067462
20
1.30458613119978
30
0
41
1
10
22.2004368869038
20
1.27236781566103
30
0
41
1
10
22.201941740791
20
1.25546209487129
30
0
41
1
10
22.203425304538
20
1.23800278673772
30
0
0
SPLINE
5
198
100
AcDbEntity
8
1
62
256
6
ByLayer
370
18
48
1
60
0
100
AcDbSpline
70
4
71
3
72
21
73
17
40
0
40
0
40
0
40
0
40
0.0850730883450112
40
0.0850730883450112
40
0.170146176690022
40
0.170146176690022
40
0.340292353380045
40
0.340292353380045
40
0.510438530070068
40
0.510438530070068
40
0.595511618415079
40
0.595511618415079
40
0.68058470676009
40
0.68058470676009
40
0.850730883450113
40
1
40
1
40
1
40
1
41
1
10
22.2435235500805
20
1.21756896382152
30
0
41
1
10
22.2420163778165
20
1.23543223325717
30
0
41
1
10
22.2404980832619
20
1.25269570955703
30
0
41
1
10
22.2374330992955
20
1.28599852046256
30
0
41
1
10
22.2358844355615
20
1.30204690297217
30
0
41
1
10
22.2312691861327
20
1.34773997572458
30
0
41
1
10
22.2282167465119
20
1.37515878916059
30
0
41
1
10
22.222180788151
20
1.42406762200164
30
0
41
1
10
22.2191962872476
20
1.44555729402907
30
0
41
1
10
22.2147386615306
20
1.47329052228096
30
0
41
1
10
22.2132555852384
20
1.48178297037384
30
0
41
1
10
22.210285967943
20
1.49723279183385
30
0
41
1
10
22.2087984179536
20
1.50418807244569
30
0
41
1
10
22.20437152182
20
1.52248031654685
30
0
41
1
10
22.1988844813693
20
1.53914868410601
30
0
41
1
10
22.1933454635894
20
1.54442839874088
30
0
41
1
10
22.1907238344357
20
1.5443822055108
30
0
0
SPLINE
5
199
100
AcDbEntity
8
1
62
256
6
ByLayer
370
18
48
1
60
0
100
AcDbSpline
70
4
71
3
72
53
73
49
40
0
40
0
40
0
40
0
40
0.0417821395406661
40
0.0417821395406661
40
0.159810629197705
40
0.159810629197705
40
0.277839118854743
40
0.277839118854743
40
0.336853363683262
40
0.336853363683262
40
0.395867608511781
40
0.395867608511781
40
0.4548818533403
40
0.4548818533403
40
0.51389609816882
40
0.51389609816882
40
0.572910342997339
40
0.572910342997339
40
0.602417465411603
40
0.602417465411603
40
0.631924587825868
40
0.631924587825868
40
0.690938832654397
40
0.690938832654397
40
0.749953077482926
40
0.749953077482926
40
0.779460199897188
40
0.779460199897188
40
0.80896732231145
40
0.80896732231145
40
0.838474444725712
40
0.838474444725712
40
0.867981567139975
40
0.867981567139975
40
0.897488689554237
40
0.897488689554237
40
0.912242250761368
40
0.912242250761368
40
0.926995811968499
40
0.926995811968499
40
0.956502934382761
40
0.956502934382761
40
0.963879714986326
40
0.963879714986326
40
0.971256495589891
40
0.971256495589891
40
0.986010056797021
40
1
40
1
40
1
40
1
41
1
10
11.5547229670466
20
-1.13498877710279
30
0
41
1
10
11.5305187117113
20
-1.13491710759948
30
0
41
1
10
11.5061451202989
20
-1.13450627629473
30
0
41
1
10
11.4122537642029
20
-1.13180884900314
30
0
41
1
10
11.3414995298034
20
-1.12744933924742
30
0
41
1
10
11.1961239484831
20
-1.11623019232041
30
0
41
1
10
11.1215111598981
20
-1.10937447601341
30
0
41
1
10
11.0059187296404
20
-1.0991148930446
30
0
41
1
10
10.9667325862351
20
-1.09570016483016
30
0
41
1
10
10.8871177539557
20
-1.08924034806725
30
0
41
1
10
10.8471262439027
20
-1.08622476018113
30
0
41
1
10
10.7667424931376
20
-1.08093306076648
30
0
41
1
10
10.7263530796539
20
-1.07864940384888
30
0
41
1
10
10.6450646237576
20
-1.07527509789983
30
0
41
1
10
10.6041789722846
20
-1.07415454531852
30
0
41
1
10
10.5219834364982
20
-1.07299448485654
30
0
41
1
10
10.4806668969625
20
-1.07297059141621
30
0
41
1
10
10.418451504551
20
-1.07354957592813
30
0
41
1
10
10.3976834531908
20
-1.07385059636445
30
0
41
1
10
10.3563317361336
20
-1.07467384599471
30
0
41
1
10
10.3357158881353
20
-1.0751963041223
30
0
41
1
10
10.2740594085215
20
-1.07710341711936
30
0
41
1
10
10.2332051986858
20
-1.07882307920087
30
0
41
1
10
10.1521121221419
20
-1.08323109190079
30
0
41
1
10
10.1118680177
20
-1.08591313607658
30
0
41
1
10
10.0520719690397
20
-1.09064556371416
30
0
41
1
10
10.0322357373834
20
-1.09234128852151
30
0
41
1
10
9.99278996355457
20
-1.09596794579079
30
0
41
1
10
9.97332606023593
20
-1.0978859286013
30
0
41
1
10
9.93515643572513
20
-1.10189561082237
30
0
41
1
10
9.91642753053674
20
-1.10398954499016
30
0
41
1
10
9.8798418575995
20
-1.1083233080241
30
0
41
1
10
9.86201175889914
20
-1.11057417848565
30
0
41
1
10
9.82730507806815
20
-1.11510439048411
30
0
41
1
10
9.81036932909171
20
-1.11739731396943
30
0
41
1
10
9.78663846588225
20
-1.12074480924179
30
0
41
1
10
9.77898894821971
20
-1.12184744738818
30
0
41
1
10
9.76432173555907
20
-1.12400989691429
30
0
41
1
10
9.75727092612746
20
-1.12507491573214
30
0
41
1
10
9.73753634155833
20
-1.12813112484437
30
0
41
1
10
9.72636926216785
20
-1.12996955172957
30
0
41
1
10
9.71568175281871
20
-1.13183639656145
30
0
41
1
10
9.71370917203996
20
-1.1321877958672
30
0
41
1
10
9.71011970720784
20
-1.13284017863378
30
0
41
1
10
9.70849943750471
20
-1.13314188338654
30
0
41
1
10
9.70429606806238
20
-1.13394434873047
30
0
41
1
10
9.70046856596196
20
-1.1347333131269
30
0
41
1
10
9.69968506226434
20
-1.13500020024398
30
0
41
1
10
9.69999525388565
20
-1.13499999980354
30
0
0
SPLINE
5
19A
100
AcDbEntity
8
1
62
256
6
ByLayer
370
18
48
1
60
0
100
AcDbSpline
70
4
71
3
72
28
73
24
40
0
40
0
40
0
40
0
40
0.0625000000000005
40
0.0625000000000005
40
0.125000000000001
40
0.125000000000001
40
0.250000000000001
40
0.250000000000001
40
0.375000000000001
40
0.375000000000001
40
0.437500000000001
40
0.437500000000001
40
0.500000000000001
40
0.500000000000001
40
0.625
40
0.625
40
0.75
40
0.75
40
0.8125
40
0.8125
40
0.875
40
0.875
40
1
40
1
40
1
40
1
41
1
10
22.9398363932508
20
-1.54435679018007
30
0
41
1
10
22.9383397922372
20
-1.54418890856272
30
0
41
1
10
22.9368522128914
20
-1.54319425734147
30
0
41
1
10
22.9339005377511
20
-1.53952778832743
30
0
41
1
10
22.9324458627673
20
-1.53687041637593
30
0
41
1
10
22.9281194531802
20
-1.52648226743022
30
0
41
1
10
22.9252887779862
20
-1.51634277309313
30
0
41
1
10
22.9195178893093
20
-1.48974713005796
30
0
41
1
10
22.9165398575316
20
-1.47329172160389
30
0
41
1
10
22.911956002737
20
-1.44377373910095
30
0
41
1
10
22.9104104436238
20
-1.43310658456343
30
0
41
1
10
22.907314715924
20
-1.41020322050619
30
0
41
1
10
22.9057737515471
20
-1.39803733094684
30
0
41
1
10
22.9011805121716
20
-1.35944540795978
30
0
41
1
10
22.8981614413624
20
-1.33093148587454
30
0
41
1
10
22.892158837906
20
-1.26842521313873
30
0
41
1
10
22.8891720673735
20
-1.23443303049339
30
0
41
1
10
22.8846734394363
20
-1.17924904984841
30
0
41
1
10
22.8831680196773
20
-1.16011457220998
30
0
41
1
10
22.8801586005487
20
-1.12058133022819
30
0
41
1
10
22.8786626201407
20
-1.10029061309106
30
0
41
1
10
22.8741921478455
20
-1.03788187440225
30
0
41
1
10
22.8712356007722
20
-0.99423199353572
30
0
41
1
10
22.8682775887426
20
-0.948572422511035
30
0
0
SPLINE
5
19B
100
AcDbEntity
8
1
62
256
6
ByLayer
370
13
48
1
60
0
100
AcDbSpline
70
4
71
3
72
10
73
6
40
0
40
0
40
0
40
0
40
0.142562881956312
40
0.763230591435409
40
1
40
1
40
1
40
1
41
1
10
22.7200066410013
20
-1.23384386782169
30
0
41
1
10
22.7170228922149
20
-1.22552989829302
30
0
41
1
10
22.7009789568457
20
-1.16679156625304
30
0
41
1
10
22.679312969911
20
-0.988406761691408
30
0
41
1
10
22.660612499435
20
-0.756917515537424
30
0
41
1
10
22.6554195971686
20
-0.688194146251391
30
0
0
SPLINE
5
19C
100
AcDbEntity
8
1
62
256
6
ByLayer
370
18
48
1
60
0
100
AcDbSpline
70
4
71
3
72
23
73
19
40
0
40
0
40
0
40
0
40
0.125
40
0.125
40
0.25
40
0.25
40
0.375
40
0.5
40
0.5
40
0.625
40
0.625
40
0.75
40
0.75
40
0.875000000000001
40
0.875000000000001
40
0.9375
40
0.9375
40
1
40
1
40
1
40
1
41
1
10
22.8277647881353
20
-0.921313782173655
30
0
41
1
10
22.8306751298007
20
-0.967870462561478
30
0
41
1
10
22.8335874234307
20
-1.01233733736987
30
0
41
1
10
22.839548012211
20
-1.09708635151381
30
0
41
1
10
22.8426138069809
20
-1.13738322707593
30
0
41
1
10
22.8488354256375
20
-1.21357207248675
30
0
41
1
10
22.8550225032382
20
-1.28394647291742
30
0
41
1
10
22.8610480111233
20
-1.3431227481679
30
0
41
1
10
22.8670130677171
20
-1.39669459361804
30
0
41
1
10
22.8699671278893
20
-1.42069613230601
30
0
41
1
10
22.8759028955266
20
-1.46279984332878
30
0
41
1
10
22.8788412253
20
-1.48053449570028
30
0
41
1
10
22.8847828186981
20
-1.50961169597238
30
0
41
1
10
22.8877744171332
20
-1.52095375464424
30
0
41
1
10
22.8922976816551
20
-1.53316753335619
30
0
41
1
10
22.8938113809497
20
-1.53643703456683
30
0
41
1
10
22.8968515751575
20
-1.54134857489567
30
0
41
1
10
22.8983798343319
20
-1.54299153181029
30
0
41
1
10
22.8999114721522
20
-1.54379861833485
30
0
0
SPLINE
5
19D
100
AcDbEntity
8
1
62
256
6
ByLayer
370
18
48
1
60
0
100
AcDbSpline
70
4
71
3
72
22
73
18
40
0
40
0
40
0
40
0
40
0.125
40
0.125
40
0.25
40
0.25
40
0.375
40
0.375
40
0.5
40
0.5
40
0.625
40
0.625
40
0.75
40
0.75
40
0.875
40
0.875
40
1
40
1
40
1
40
1
41
1
10
22.7663261536039
20
0.902115691405612
30
0
41
1
10
22.7633658889117
20
0.949264877349577
30
0
41
1
10
22.7603683490956
20
0.994348321810435
30
0
41
1
10
22.7541927734698
20
1.08038406629916
30
0
41
1
10
22.7510389416001
20
1.12133794812107
30
0
41
1
10
22.7447351714515
20
1.19896437336962
30
0
41
1
10
22.741644114514
20
1.23492110161345
30
0
41
1
10
22.7356225657679
20
1.30122651795915
30
0
41
1
10
22.7326907771978
20
1.33159345518933
30
0
41
1
10
22.7269067171842
20
1.38675306751554
30
0
41
1
10
22.7240555133305
20
1.41154832573952
30
0
41
1
10
22.7182269513995
20
1.4553349989564
30
0
41
1
10
22.7152763360094
20
1.47390638545235
30
0
41
1
10
22.7092816891813
20
1.50465584733732
30
0
41
1
10
22.706245693386
20
1.5168332947365
30
0
41
1
10
22.7001306222479
20
1.53479256075573
30
0
41
1
10
22.697050236512
20
1.54057680268031
30
0
41
1
10
22.6939622831317
20
1.54303368147555
30
0
0
SPLINE
5
19E
100
AcDbEntity
8
1
62
256
6
ByLayer
370
13
48
1
60
0
100
AcDbSpline
70
4
71
3
72
10
73
6
40
0
40
0
40
0
40
0
40
0.192467087847032
40
0.371752310613822
40
1
40
1
40
1
40
1
41
1
10
24.6362519449372
20
-0.418375821122026
30
0
41
1
10
24.6320294849853
20
-0.355740283298161
30
0
41
1
10
24.6238878877696
20
-0.231585174660609
30
0
41
1
10
24.6020848011716
20
0.111092938092355
30
0
41
1
10
24.5848320062033
20
0.384591572949574
30
0
41
1
10
24.5715125162238
20
0.57143600342485
30
0
0
SPLINE
5
19F
100
AcDbEntity
8
1
62
256
6
ByLayer
370
18
48
1
60
0
100
AcDbSpline
70
4
71
3
72
21
73
17
40
0
40
0
40
0
40
0
40
0.250000000000001
40
0.250000000000001
40
0.312500000000001
40
0.312500000000001
40
0.375000000000001
40
0.375000000000001
40
0.500000000000001
40
0.500000000000001
40
0.750000000000001
40
0.750000000000001
40
0.812500000000001
40
0.812500000000001
40
0.875000000000001
40
1
40
1
40
1
40
1
41
1
10
24.7207197708001
20
0.474202418347204
30
0
41
1
10
24.7152387889693
20
0.401635853335733
30
0
41
1
10
24.7103133283613
20
0.326336446237178
30
0
41
1
10
24.7045771354423
20
0.228940887292794
30
0
41
1
10
24.7034524134086
20
0.209296160531864
30
0
41
1
10
24.7012469472455
20
0.1696708714951
30
0
41
1
10
24.7001636295963
20
0.149640824316691
30
0
41
1
10
24.6970003493886
20
0.0893998372434908
30
0
41
1
10
24.6950161480067
20
0.0492410120692739
30
0
41
1
10
24.6894542593357
20
-0.0712312225095673
30
0
41
1
10
24.6862623601498
20
-0.151540404781201
30
0
41
1
10
24.6831226706736
20
-0.251926729152672
30
0
41
1
10
24.6825369271655
20
-0.272033715134171
30
0
41
1
10
24.6814674754518
20
-0.311777057722679
30
0
41
1
10
24.6800103076689
20
-0.370853274867869
30
0
41
1
10
24.678993568266
20
-0.42834324042073
30
0
41
1
10
24.678501101141
20
-0.465975308880957
30
0
0
SPLINE
5
1A0
100
AcDbEntity
8
1
62
256
6
ByLayer
370
18
48
1
60
0
100
AcDbSpline
70
4
71
3
72
21
73
17
40
0
40
0
40
0
40
0
40
0.250000000000003
40
0.250000000000003
40
0.312500000000004
40
0.312500000000004
40
0.375000000000004
40
0.375000000000004
40
0.500000000000004
40
0.625000000000003
40
0.625000000000003
40
0.687500000000003
40
0.687500000000003
40
0.750000000000002
40
0.750000000000002
40
1
40
1
40
1
40
1
41
1
10
24.5881721646204
20
0.5785731021397
30
0
41
1
10
24.5950077701275
20
0.499444443337183
30
0
41
1
10
24.6015835266346
20
0.416981743010126
30
0
41
1
10
24.6095946414935
20
0.309887671090507
30
0
41
1
10
24.6111871788682
20
0.288265898868445
30
0
41
1
10
24.6143574609712
20
0.244610655302154
30
0
41
1
10
24.6159390604087
20
0.222521629195967
30
0
41
1
10
24.6206201490814
20
0.156318434890693
30
0
41
1
10
24.6267145312341
20
0.0679132548559664
30
0
41
1
10
24.6326077161215
20
-0.0207486453913077
30
0
41
1
10
24.6369798018034
20
-0.0873408341419974
30
0
41
1
10
24.6384282159037
20
-0.109554283997596
30
0
41
1
10
24.641307235425
20
-0.154013906269057
30
0
41
1
10
24.6427400527332
20
-0.176294881365607
30
0
41
1
10
24.6498440976139
20
-0.287396822148338
30
0
41
1
10
24.6552569380774
20
-0.373755029908864
30
0
41
1
10
24.6603596007719
20
-0.45758611751026
30
0
0
SPLINE
5
1A1
100
AcDbEntity
8
1
62
256
6
ByLayer
370
18
48
1
60
0
100
AcDbSpline
70
4
71
3
72
87
73
83
40
0
40
0
40
0
40
0
40
0.0312500000000085
40
0.0312500000000085
40
0.0625000000000171
40
0.0625000000000171
40
0.125000000000034
40
0.125000000000034
40
0.187500000000051
40
0.187500000000051
40
0.218750000000057
40
0.218750000000057
40
0.250000000000063
40
0.250000000000063
40
0.281250000000069
40
0.281250000000069
40
0.312500000000075
40
0.312500000000075
40
0.343750000000081
40
0.343750000000081
40
0.359375000000082
40
0.359375000000082
40
0.375000000000082
40
0.375000000000082
40
0.406250000000083
40
0.406250000000083
40
0.437500000000084
40
0.437500000000084
40
0.453125000000084
40
0.453125000000084
40
0.468750000000085
40
0.468750000000085
40
0.484375000000085
40
0.484375000000085
40
0.500000000000086
40
0.500000000000086
40
0.515625000000086
40
0.515625000000086
40
0.523437500000085
40
0.523437500000085
40
0.531250000000084
40
0.531250000000084
40
0.546875000000083
40
0.546875000000083
40
0.550781250000082
40
0.550781250000082
40
0.554687500000081
40
0.554687500000081
40
0.56250000000008
40
0.570312500000079
40
0.570312500000079
40
0.574218750000078
40
0.574218750000078
40
0.578125000000078
40
0.578125000000078
40
0.593750000000076
40
0.593750000000076
40
0.601562500000075
40
0.601562500000075
40
0.609375000000074
40
0.609375000000074
40
0.625000000000071
40
0.625000000000071
40
0.640625000000068
40
0.640625000000068
40
0.656250000000065
40
0.656250000000065
40
0.687500000000059
40
0.687500000000059
40
0.718750000000054
40
0.718750000000054
40
0.750000000000048
40
0.750000000000048
40
0.781250000000042
40
0.781250000000042
40
0.812500000000036
40
0.812500000000036
40
0.875000000000024
40
0.875000000000024
40
0.937500000000012
40
0.937500000000012
40
1
40
1
40
1
40
1
41
1
10
11.6859339695014
20
0.491687905180271
30
0
41
1
10
11.6522860390377
20
0.513292390061054
30
0
41
1
10
11.6185750120575
20
0.534332275550611
30
0
41
1
10
11.5505937791981
20
0.57463612407841
30
0
41
1
10
11.5162692637429
20
0.59381373049024
30
0
41
1
10
11.4122537642029
20
0.648578209676344
30
0
41
1
10
11.3414995298034
20
0.681350700350492
30
0
41
1
10
11.1961239484831
20
0.738988009682004
30
0
41
1
10
11.1215111598981
20
0.763869384224506
30
0
41
1
10
11.0059187296404
20
0.795085740198374
30
0
41
1
10
10.9667325862351
20
0.804474337757313
30
0
41
1
10
10.8871177539557
20
0.821101176895183
30
0
41
1
10
10.8471262439027
20
0.828269995855294
30
0
41
1
10
10.7667424931376
20
0.840326208662987
30
0
41
1
10
10.726353079654
20
0.845227906148097
30
0
41
1
10
10.6450646237576
20
0.852324330606422
30
0
41
1
10
10.6041789722847
20
0.854591296941891
30
0
41
1
10
10.5219834364982
20
0.856939550243709
30
0
41
1
10
10.4806668969626
20
0.856985513943982
30
0
41
1
10
10.4184515045511
20
0.855816314060604
30
0
41
1
10
10.3976834531908
20
0.855207629592428
30
0
41
1
10
10.3563317361336
20
0.853528421180556
30
0
41
1
10
10.3357158881352
20
0.852457510409039
30
0
41
1
10
10.2740594085214
20
0.84849825390927
30
0
41
1
10
10.2332051986858
20
0.844884226961341
30
0
41
1
10
10.1521121221419
20
0.835155647197951
30
0
41
1
10
10.1118680177
20
0.82906386613891
30
0
41
1
10
10.0520719690397
20
0.817465163436168
30
0
41
1
10
10.0322357373834
20
0.813184733406132
30
0
41
1
10
9.9927899635546
20
0.803609359170167
30
0
41
1
10
9.97332606023599
20
0.798348473196342
30
0
41
1
10
9.93515643572519
20
0.786718433715265
30
0
41
1
10
9.91642753053677
20
0.780345909105222
30
0
41
1
10
9.87984185759956
20
0.766184086421305
30
0
41
1
10
9.86201175889917
20
0.758356064800267
30
0
41
1
10
9.82730507806818
20
0.741059448547077
30
0
41
1
10
9.81036932909177
20
0.731542597560406
30
0
41
1
10
9.78663846588231
20
0.715780788738329
30
0
41
1
10
9.77898894821971
20
0.71026868874506
30
0
41
1
10
9.76432173555909
20
0.698612062926571
30
0
41
1
10
9.75727092612749
20
0.692434984243135
30
0
41
1
10
9.73753634155835
20
0.672960196507546
30
0
41
1
10
9.72636926216788
20
0.658868660402618
30
0
41
1
10
9.71568175281874
20
0.639371109080145
30
0
41
1
10
9.7137091720399
20
0.635376527782796
30
0
41
1
10
9.71011970720778
20
0.627180552502267
30
0
41
1
10
9.70849943750471
20
0.622962546487457
30
0
41
1
10
9.70429606806238
20
0.610250881670765
30
0
41
1
10
9.70036689701109
20
0.593001445619706
30
0
41
1
10
9.69964558057166
20
0.575149239127171
30
0
41
1
10
9.70025554562503
20
0.561533260040392
30
0
41
1
10
9.70065391992699
20
0.556938680167519
30
0
41
1
10
9.7018041939065
20
0.547816554319439
30
0
41
1
10
9.70255349054406
20
0.54327735830779
30
0
41
1
10
9.70701181674147
20
0.520659434127509
30
0
41
1
10
9.71288748307185
20
0.502823217059671
30
0
41
1
10
9.72412740834648
20
0.476276504658699
30
0
41
1
10
9.72827613678126
20
0.467491506091932
30
0
41
1
10
9.73713461835027
20
0.450227044034477
30
0
41
1
10
9.74185908086756
20
0.441713336257578
30
0
41
1
10
9.75676581582036
20
0.416457391403583
30
0
41
1
10
9.76767385362319
20
0.399996822684415
30
0
41
1
10
9.79090339896999
20
0.367586719813488
30
0
41
1
10
9.8032664627253
20
0.351594778482593
30
0
41
1
10
9.82891727289663
20
0.320189771779297
30
0
41
1
10
9.84215355379607
20
0.304835007087263
30
0
41
1
10
9.8827919639059
20
0.259539732387253
30
0
41
1
10
9.91110835445471
20
0.230354470728457
30
0
41
1
10
9.96929406949215
20
0.173197135417922
30
0
41
1
10
9.99917567488129
20
0.145236205790155
30
0
41
1
10
10.0600427306643
20
0.0901190714274946
30
0
41
1
10
10.0910245685272
20
0.0629586254039509
30
0
41
1
10
10.1538546813379
20
0.0092272988720481
30
0
41
1
10
10.1857317783787
20
-0.0173428726429847
30
0
41
1
10
10.2495304440312
20
-0.069624719086022
30
0
41
1
10
10.2815327690196
20
-0.0954014263930674
30
0
41
1
10
10.3776905969991
20
-0.171883450214665
30
0
41
1
10
10.4419860136054
20
-0.221758093251367
30
0
41
1
10
10.5706539379426
20
-0.31974541804928
30
0
41
1
10
10.6350329497317
20
-0.36784751490211
30
0
41
1
10
10.7639083481604
20
-0.462211214640632
30
0
41
1
10
10.8283953465417
20
-0.508481811245645
30
0
41
1
10
10.8931335220305
20
-0.553556394272078
30
0
0
SPLINE
5
1A2
100
AcDbEntity
8
1
62
256
6
ByLayer
370
13
48
1
60
0
100
AcDbSpline
70
4
71
3
72
10
73
6
40
0
40
0
40
0
40
0
40
0.0988408505541929
40
0.27754741233883
40
1
40
1
40
1
40
1
41
1.04
10
24.5052992223745
20
-0.333199711662557
30
0
41
1.04
10
24.5031277136508
20
-0.300259875367158
30
0
41
1.04
10
24.497036387311
20
-0.206800936845014
30
0
41
1.04
10
24.4751626882663
20
0.136653504577074
30
0
41
1.04
10
24.4558946105181
20
0.442870650327347
30
0
41
1.04
10
24.4405617430177
20
0.649310341383359
30
0
0
SPLINE
5
1A3
100
AcDbEntity
8
1
62
256
6
ByLayer
370
13
48
1
60
0
100
AcDbSpline
70
4
71
3
72
10
73
6
40
0
40
0
40
0
40
0
40
0.0457432926110677
40
0.669373778273475
40
1
40
1
40
1
40
1
41
1.04
10
22.5890772986412
20
-1.21488960593614
30
0
41
1.04
10
22.5881181781913
20
-1.21115647403989
30
0
41
1.04
10
22.5740594371782
20
-1.15251317801384
30
0
41
1.04
10
22.5524963572355
20
-0.976656289103771
30
0
41
1.04
10
22.5317684656271
20
-0.712067585777868
30
0
41
1.04
10
22.5245159286594
20
-0.611945047470258
30
0
0
SPLINE
5
1A4
100
AcDbEntity
8
1
62
256
6
ByLayer
370
18
48
1
60
0
100
AcDbSpline
70
4
71
3
72
26
73
22
40
0
40
0
40
0
40
0
40
0.125000000000001
40
0.250000000000002
40
0.250000000000002
40
0.281250000000002
40
0.281250000000002
40
0.312500000000003
40
0.375000000000002
40
0.375000000000002
40
0.500000000000001
40
0.500000000000001
40
0.624999999999999
40
0.624999999999999
40
0.656249999999999
40
0.656249999999999
40
0.687499999999999
40
0.749999999999999
40
0.749999999999999
40
0.875
40
1
40
1
40
1
40
1
41
1
10
22.4176487183603
20
-1.47995530172113
30
0
41
1
10
22.4145877809694
20
-1.4633489263253
30
0
41
1
10
22.4084421205081
20
-1.42400664554253
30
0
41
1
10
22.4023845163276
20
-1.37246880643551
30
0
41
1
10
22.3986178724886
20
-1.33631771710827
30
0
41
1
10
22.3978643470135
20
-1.32887953728891
30
0
41
1
10
22.3963668354563
20
-1.31369460687179
30
0
41
1
10
22.3941322946967
20
-1.29043146775177
30
0
41
1
10
22.3919273531389
20
-1.26573002731226
30
0
41
1
10
22.387537583641
20
-1.21444179880936
30
0
41
1
10
22.3846392091534
20
-1.17774159684842
30
0
41
1
10
22.378761028313
20
-1.09935327553151
30
0
41
1
10
22.3757632278082
20
-1.05766633778137
30
0
41
1
10
22.3719390476277
20
-1.00233573720891
30
0
41
1
10
22.3711700714949
20
-0.991095821850593
30
0
41
1
10
22.3696356028607
20
-0.968430668160352
30
0
41
1
10
22.3673359718664
20
-0.934110489870278
30
0
41
1
10
22.36504501626
20
-0.898835268813514
30
0
41
1
10
22.3604776153882
20
-0.827032188530694
30
0
41
1
10
22.3544286694313
20
-0.72796175877113
30
0
41
1
10
22.3484369906122
20
-0.622255245467784
30
0
41
1
10
22.3454335511418
20
-0.567686198917755
30
0
0
SPLINE
5
1A5
100
AcDbEntity
8
1
62
256
6
ByLayer
370
13
48
1
60
0
100
AcDbSpline
70
4
71
3
72
9
73
5
40
0
40
0
40
0
40
0
40
0.419441688258195
40
1
40
1
40
1
40
1
41
1
10
22.1973689391388
20
-1.12168101357386
30
0
41
1
10
22.1884145340632
20
-1.05891778404714
30
0
41
1
10
22.1671064257473
20
-0.85914805175895
30
0
41
1
10
22.1454335269815
20
-0.556601517010392
30
0
41
1
10
22.1329831850829
20
-0.369451863827237
30
0
0
SPLINE
5
1A6
100
AcDbEntity
8
1
62
256
6
ByLayer
370
18
48
1
60
0
100
AcDbSpline
70
4
71
3
72
26
73
22
40
0
40
0
40
0
40
0
40
0.0625
40
0.0625
40
0.125
40
0.125
40
0.25
40
0.375000000000001
40
0.375000000000001
40
0.437500000000001
40
0.437500000000001
40
0.500000000000001
40
0.500000000000001
40
0.625000000000001
40
0.750000000000002
40
0.750000000000002
40
0.812500000000001
40
0.812500000000001
40
0.875000000000001
40
0.875000000000001
40
1
40
1
40
1
40
1
41
1
10
22.3055464134002
20
-0.536740735142018
30
0
41
1
10
22.3070966766932
20
-0.564127370647242
30
0
41
1
10
22.3086553309923
20
-0.59141522589249
30
0
41
1
10
22.3117399380396
20
-0.645057987772901
30
0
41
1
10
22.3132669897339
20
-0.671433822587176
30
0
41
1
10
22.3178007148824
20
-0.749251610000812
30
0
41
1
10
22.3237144005182
20
-0.849524268291674
30
0
41
1
10
22.3294728279474
20
-0.942904042305315
30
0
41
1
10
22.3338378193601
20
-1.01028039559208
30
0
41
1
10
22.3353058803543
20
-1.03236078273724
30
0
41
1
10
22.33825340595
20
-1.07515267506068
30
0
41
1
10
22.3397368500259
20
-1.09589134693897
30
0
41
1
10
22.3442173515437
20
-1.15617511625828
30
0
41
1
10
22.3502642550728
20
-1.23141289212697
30
0
41
1
10
22.356395703597
20
-1.29649070406654
30
0
41
1
10
22.3610173499609
20
-1.34138608583262
30
0
41
1
10
22.3625666009595
20
-1.3557364823042
30
0
41
1
10
22.3656398526067
20
-1.38280122151292
30
0
41
1
10
22.3671660023861
20
-1.39554105041131
30
0
41
1
10
22.3717168507141
20
-1.43142963700839
30
0
41
1
10
22.3747133432195
20
-1.45225471540107
30
0
41
1
10
22.3776900725074
20
-1.47001218943018
30
0
0
SPLINE
5
1A7
100
AcDbEntity
8
1
62
256
6
ByLayer
370
18
48
1
60
0
100
AcDbSpline
70
4
71
3
72
26
73
22
40
0
40
0
40
0
40
0
40
0.125
40
0.125
40
0.249999999999999
40
0.249999999999999
40
0.281249999999999
40
0.281249999999999
40
0.312499999999999
40
0.374999999999998
40
0.374999999999998
40
0.499999999999998
40
0.499999999999998
40
0.624999999999997
40
0.624999999999997
40
0.687499999999997
40
0.687499999999997
40
0.749999999999997
40
0.749999999999997
40
0.874999999999998
40
1
40
1
40
1
40
1
41
1
10
23.1764040041016
20
1.47286277316309
30
0
41
1
10
23.1794461957917
20
1.45540050302608
30
0
41
1
10
23.182549032544
20
1.43489481651665
30
0
41
1
10
23.1887466260307
20
1.3878205781017
30
0
41
1
10
23.1918338309735
20
1.3612523838658
30
0
41
1
10
23.1956449280912
20
1.32411993520674
30
0
41
1
10
23.19640556428
20
1.31649064003386
30
0
41
1
10
23.1979133655382
20
1.30093453164685
30
0
41
1
10
23.2001584494236
20
1.27712090744552
30
0
41
1
10
23.2023573120785
20
1.25188709195925
30
0
41
1
10
23.2067112456246
20
1.19955671014881
30
0
41
1
10
23.2095528963155
20
1.16219173952496
30
0
41
1
10
23.2152742288813
20
1.08252886771641
30
0
41
1
10
23.2181631518268
20
1.04023175652611
30
0
41
1
10
23.2226756519871
20
0.9729633593833
30
0
41
1
10
23.2241989120234
20
0.949977525180884
30
0
41
1
10
23.2272478448564
20
0.903293577728135
30
0
41
1
10
23.228777419807
20
0.87953750851176
30
0
41
1
10
23.2333711880129
20
0.807046386854807
30
0
41
1
10
23.2395073355157
20
0.707137661262067
30
0
41
1
10
23.2456137383226
20
0.600741706418631
30
0
41
1
10
23.248665501439
20
0.545864196965653
30
0
0
SPLINE
5
1A8
100
AcDbEntity
8
1
62
256
6
ByLayer
370
18
48
1
60
0
100
AcDbSpline
70
4
71
3
72
27
73
23
40
0
40
0
40
0
40
0
40
0.0625000000000001
40
0.0625000000000001
40
0.125
40
0.125
40
0.25
40
0.375000000000001
40
0.375000000000001
40
0.4375
40
0.4375
40
0.5
40
0.5
40
0.625
40
0.625
40
0.75
40
0.75
40
0.8125
40
0.8125
40
0.875
40
0.875
40
1
40
1
40
1
40
1
41
1
10
23.2885559140535
20
0.514381283976462
30
0
41
1
10
23.2870276181348
20
0.541902503356283
30
0
41
1
10
23.2854933252136
20
0.569337221375207
30
0
41
1
10
23.2824497583998
20
0.62334220052287
30
0
41
1
10
23.2809408229923
20
0.649907713702902
30
0
41
1
10
23.2764443954231
20
0.72831994883731
30
0
41
1
10
23.2705325462108
20
0.829452687843713
30
0
41
1
10
23.2646400684795
20
0.923831623125977
30
0
41
1
10
23.2601511082322
20
0.992015006690451
30
0
41
1
10
23.2586364497093
20
1.01437742821702
30
0
41
1
10
23.2556080847865
20
1.05778661054055
30
0
41
1
10
23.2540961806025
20
1.0788406779414
30
0
41
1
10
23.2495764286593
20
1.14009159626775
30
0
41
1
10
23.2465877557423
20
1.17838317463071
30
0
41
1
10
23.2406229268129
20
1.24994263171209
30
0
41
1
10
23.2376356799109
20
1.28321035808034
30
0
41
1
10
23.2331088449356
20
1.32924463383409
30
0
41
1
10
23.2315892912659
20
1.34398653714908
30
0
41
1
10
23.2285684117503
20
1.37186461045545
30
0
41
1
10
23.2270663392422
20
1.38501394315423
30
0
41
1
10
23.2225803264492
20
1.42214066440832
30
0
41
1
10
23.2196173935407
20
1.44380395916087
30
0
41
1
10
23.2166588122786
20
1.46241561371883
30
0
0
SPLINE
5
1A9
100
AcDbEntity
8
1
62
256
6
ByLayer
370
18
48
1
60
0
100
AcDbSpline
70
4
71
3
72
23
73
19
40
0
40
0
40
0
40
0
40
0.25
40
0.25
40
0.3125
40
0.3125
40
0.375000000000001
40
0.375000000000001
40
0.500000000000001
40
0.625000000000001
40
0.625000000000001
40
0.687500000000001
40
0.687500000000001
40
0.750000000000001
40
0.750000000000001
40
0.875000000000001
40
0.875000000000001
40
1
40
1
40
1
40
1
41
1
10
24.4429824297038
20
-0.346127452462014
30
0
41
1
10
24.4372732986374
20
-0.253979888832475
30
0
41
1
10
24.4320386504006
20
-0.160394327071486
30
0
41
1
10
24.4257517427091
20
-0.04169037323868
30
0
41
1
10
24.4245059243656
20
-0.0178627306603971
30
0
41
1
10
24.4220353720543
20
0.0299688102220159
30
0
41
1
10
24.4208207138466
20
0.0537788517110585
30
0
41
1
10
24.4172372520059
20
0.124828539565271
30
0
41
1
10
24.4126171600339
20
0.218613454874315
30
0
41
1
10
24.4082630527695
20
0.31054393925163
30
0
41
1
10
24.4050773923854
20
0.378782654744299
30
0
41
1
10
24.4040288021195
20
0.401410397356585
30
0
41
1
10
24.4019543542614
20
0.44642264372024
30
0
41
1
10
24.4009353251817
20
0.468658972277581
30
0
41
1
10
24.3979343115766
20
0.534353670007448
30
0
41
1
10
24.3960060156811
20
0.576893977041578
30
0
41
1
10
24.3922152420074
20
0.659487379480993
30
0
41
1
10
24.3903439897902
20
0.699541653470703
30
0
41
1
10
24.3884751207441
20
0.738317903236492
30
0
0
SPLINE
5
1AA
100
AcDbEntity
8
1
62
256
6
ByLayer
370
18
48
1
60
0
100
AcDbSpline
70
4
71
3
72
12
73
8
40
0
40
0
40
0
40
0
40
0.500000000000002
40
0.500000000000002
40
0.750000000000001
40
0.750000000000001
40
1
40
1
40
1
40
1
41
1
10
23.6912653942214
20
1.2775266573293
30
0
41
1
10
23.6965197776115
20
1.23539374314768
30
0
41
1
10
23.7018166401199
20
1.18851821615991
30
0
41
1
10
23.7097937325273
20
1.11111475930633
30
0
41
1
10
23.7124576888315
20
1.08412287403343
30
0
41
1
10
23.7177882168136
20
1.02764343836142
30
0
41
1
10
23.7204628081996
20
0.998056947861244
30
0
41
1
10
23.723104479864
20
0.967460148510099
30
0
0
SPLINE
5
1AB
100
AcDbEntity
8
1
62
256
6
ByLayer
370
18
48
1
60
0
100
AcDbSpline
70
4
71
3
72
12
73
8
40
0
40
0
40
0
40
0
40
0.5
40
0.5
40
0.75
40
0.75
40
1
40
1
40
1
40
1
41
1
10
23.8113804327679
20
0.0851314464867698
30
0
41
1
10
23.8079000240664
20
0.150743685799625
30
0
41
1
10
23.8044158569118
20
0.216046861521193
30
0
41
1
10
23.7992280829632
20
0.313532219050416
30
0
41
1
10
23.7975018375404
20
0.345993607124598
30
0
41
1
10
23.7940661353761
20
0.410564961380516
30
0
41
1
10
23.7923704324182
20
0.442415233102935
30
0
41
1
10
23.7906909072005
20
0.47384080018665
30
0
0
SPLINE
5
1AC
100
AcDbEntity
8
1
62
256
6
ByLayer
370
18
48
1
60
0
100
AcDbSpline
70
4
71
3
72
31
73
27
40
0
40
0
40
0
40
0
40
0.125
40
0.125
40
0.187499999999999
40
0.187499999999999
40
0.218749999999999
40
0.218749999999999
40
0.249999999999998
40
0.374999999999998
40
0.499999999999998
40
0.499999999999998
40
0.562499999999998
40
0.562499999999998
40
0.593749999999998
40
0.593749999999998
40
0.624999999999998
40
0.749999999999998
40
0.749999999999998
40
0.874999999999999
40
0.874999999999999
40
0.937499999999999
40
0.937499999999999
40
0.968749999999999
40
0.968749999999999
40
1
40
1
40
1
40
1
41
1
10
21.7827364949879
20
-0.110441601979886
30
0
41
1
10
21.7856786551105
20
-0.168112019543855
30
0
41
1
10
21.7886397613102
20
-0.225501564432506
30
0
41
1
10
21.7931389251576
20
-0.31115726614749
30
0
41
1
10
21.7946480034856
20
-0.339637577872679
30
0
41
1
10
21.7969277847112
20
-0.382248250940023
30
0
41
1
10
21.7976914035561
20
-0.396451950836621
30
0
41
1
10
21.7992152230581
20
-0.424654824538891
30
0
41
1
10
21.8030203564096
20
-0.494728207543659
30
0
41
1
10
21.8098347254317
20
-0.617023169666282
30
0
41
1
10
21.815856175258
20
-0.720400995268932
30
0
41
1
10
21.8203690444932
20
-0.795906989012877
30
0
41
1
10
21.8218728861828
20
-0.82073696795598
30
0
41
1
10
21.8241304910462
20
-0.857462708528601
30
0
41
1
10
21.8248842446441
20
-0.869632220707246
30
0
41
1
10
21.826383850335
20
-0.893650623777717
30
0
41
1
10
21.8301179299269
20
-0.952969591626612
30
0
41
1
10
21.8337839770987
20
-1.00871525930819
30
0
41
1
10
21.8396198078956
20
-1.09343935792998
30
0
41
1
10
21.84252195777
20
-1.13356680266725
30
0
41
1
10
21.8469170478709
20
-1.19035527067263
30
0
41
1
10
21.848389392431
20
-1.2087163218068
30
0
41
1
10
21.8506204167929
20
-1.23538626278051
30
0
41
1
10
21.8513686861652
20
-1.24413968932694
30
0
41
1
10
21.8528657248623
20
-1.26124747603134
30
0
41
1
10
21.8536154770431
20
-1.26961400135619
30
0
41
1
10
21.8543675463279
20
-1.27779536108846
30
0
0
SPLINE
5
1AD
100
AcDbEntity
8
1
62
256
6
ByLayer
370
18
48
1
60
0
100
AcDbSpline
70
4
71
3
72
8
73
4
40
0
40
0
40
0
40
0
40
1
40
1
40
1
40
1
41
1
10
21.3258282038454
20
-0.886827711072414
30
0
41
1
10
21.3279106938878
20
-0.91992121137875
30
0
41
1
10
21.3299880827988
20
-0.952085279037021
30
0
41
1
10
21.3320705903906
20
-0.983314203911164
30
0
0
SPLINE
5
1AE
100
AcDbEntity
8
1
62
256
6
ByLayer
370
18
48
1
60
0
100
AcDbSpline
70
4
71
3
72
27
73
23
40
0
40
0
40
0
40
0
40
0.0625
40
0.0625
40
0.125
40
0.125
40
0.249999999999999
40
0.249999999999999
40
0.374999999999998
40
0.374999999999998
40
0.437499999999998
40
0.437499999999998
40
0.499999999999998
40
0.499999999999998
40
0.624999999999998
40
0.749999999999999
40
0.749999999999999
40
0.812499999999999
40
0.812499999999999
40
0.874999999999999
40
0.874999999999999
40
1
40
1
40
1
40
1
41
1
10
21.8951066950433
20
-1.2967174549546
30
0
41
1
10
21.8936444459569
20
-1.28097517942982
30
0
41
1
10
21.8921769954442
20
-1.26451429797021
30
0
41
1
10
21.8892202088149
20
-1.23012976547463
30
0
41
1
10
21.887726094082
20
-1.21214541367496
30
0
41
1
10
21.8832390910216
20
-1.15653561183564
30
0
41
1
10
21.8802350694306
20
-1.11722015430985
30
0
41
1
10
21.8741157574405
20
-1.0342450159383
30
0
41
1
10
21.8710156150106
20
-0.990584559451349
30
0
41
1
10
21.8663867222721
20
-0.921807592235183
30
0
41
1
10
21.8648466128281
20
-0.898332962905783
30
0
41
1
10
21.8617774609542
20
-0.850265503535297
30
0
41
1
10
21.8602437076078
20
-0.825592778906895
30
0
41
1
10
21.8557070408521
20
-0.75066218740244
30
0
41
1
10
21.849822162521
20
-0.648157528934547
30
0
41
1
10
21.84410938894
20
-0.540620160806895
30
0
41
1
10
21.8397684723693
20
-0.458070969265975
30
0
41
1
10
21.8383102993643
20
-0.430237933832188
30
0
41
1
10
21.8353500650164
20
-0.373928141658411
30
0
41
1
10
21.8338458136262
20
-0.345361720833694
30
0
41
1
10
21.8293304311591
20
-0.259606334311911
30
0
41
1
10
21.8263114215157
20
-0.202234928927652
30
0
41
1
10
21.8232904085571
20
-0.144668084146929
30
0
0
SPLINE
5
1AF
100
AcDbEntity
8
1
62
256
6
ByLayer
370
13
48
1
60
0
100
AcDbSpline
70
4
71
3
72
10
73
6
40
0
40
0
40
0
40
0
40
0.323798202341437
40
0.944360858304386
40
1
40
1
40
1
40
1
41
1.04
10
22.0664070787109
20
-1.07906315750492
30
0
41
1.04
10
22.0595041767053
20
-1.02390027189352
30
0
41
1.04
10
22.0393689145806
20
-0.827572380401138
30
0
41
1.04
10
22.0177034765925
20
-0.522198994874155
30
0
41
1.04
10
22.0032555000677
20
-0.301993869579839
30
0
41
1.04
10
22.0020680587378
20
-0.283800305929423
30
0
0
SPLINE
5
1B0
100
AcDbEntity
8
1
62
256
6
ByLayer
370
18
48
1
60
0
100
AcDbSpline
70
4
71
3
72
14
73
10
40
0
40
0
40
0
40
0
40
0.25
40
0.25
40
0.5
40
0.5
40
0.75
40
0.75
40
1
40
1
40
1
40
1
41
1
10
19
20
-1.20945060490672
30
0
41
1
10
18.9774248221485
20
-1.19413467927166
30
0
41
1
10
18.9541294655563
20
-1.17997821798491
30
0
41
1
10
18.9061568298747
20
-1.15398255298183
30
0
41
1
10
18.8814236212218
20
-1.14213638388239
30
0
41
1
10
18.8305232671261
20
-1.1209538160081
30
0
41
1
10
18.8043807409472
20
-1.11162135699493
30
0
41
1
10
18.7509414068574
20
-1.09570058167873
30
0
41
1
10
18.7237450325509
20
-1.08914602816662
30
0
41
1
10
18.6963510980467
20
-1.08411779896795
30
0
0
SPLINE
5
1B1
100
AcDbEntity
8
1
62
256
6
ByLayer
370
18
48
1
60
0
100
AcDbSpline
70
4
71
3
72
68
73
64
40
0
40
0
40
0
40
0
40
0.0337143046389107
40
0.0337143046389107
40
0.0674286092778214
40
0.0674286092778214
40
0.13485721855564
40
0.13485721855564
40
0.151714370875095
40
0.151714370875095
40
0.16857152319455
40
0.16857152319455
40
0.202285827833457
40
0.202285827833457
40
0.219142980152911
40
0.219142980152911
40
0.236000132472364
40
0.236000132472364
40
0.269714437111274
40
0.269714437111274
40
0.303428741750183
40
0.303428741750183
40
0.320285894069637
40
0.320285894069637
40
0.33714304638909
40
0.33714304638909
40
0.370857351027998
40
0.370857351027998
40
0.404571655666905
40
0.404571655666905
40
0.472000264944717
40
0.472000264944717
40
0.505714569583624
40
0.505714569583624
40
0.522571721903078
40
0.522571721903078
40
0.539428874222531
40
0.539428874222531
40
0.556286026541985
40
0.556286026541985
40
0.573143178861438
40
0.573143178861438
40
0.606857483500346
40
0.606857483500346
40
0.674286092778162
40
0.674286092778162
40
0.691143245097616
40
0.691143245097616
40
0.708000397417069
40
0.708000397417069
40
0.741714702055974
40
0.741714702055974
40
0.809143311333781
40
0.809143311333781
40
0.876571920611589
40
0.876571920611589
40
0.893429072931041
40
0.893429072931041
40
0.910286225250493
40
0.910286225250493
40
0.944000529889398
40
0.944000529889398
40
1
40
1
40
1
40
1
41
1
10
18.6963510980467
20
-1.08411779896795
30
0
41
1
10
18.6227643894164
20
-1.07061076379153
30
0
41
1
10
18.5494913174077
20
-1.05455698259445
30
0
41
1
10
18.4031215940463
20
-1.01780743370034
30
0
41
1
10
18.329940176919
20
-0.997192484505405
30
0
41
1
10
18.111026803897
20
-0.928261934909727
30
0
41
1
10
17.9657739433721
20
-0.872872052948594
30
0
41
1
10
17.7831360385458
20
-0.793354338246701
30
0
41
1
10
17.7465532512772
20
-0.776940958806335
30
0
41
1
10
17.6732297020161
20
-0.743141036927682
30
0
41
1
10
17.6364334080639
20
-0.725727212469252
30
0
41
1
10
17.5261767054271
20
-0.672310836076122
30
0
41
1
10
17.4529706705513
20
-0.635194495352522
30
0
41
1
10
17.3432882301517
20
-0.577761166961324
30
0
41
1
10
17.3067392806499
20
-0.558337031666042
30
0
41
1
10
17.2336274118577
20
-0.518994551518119
30
0
41
1
10
17.1970888852691
20
-0.499041419037582
30
0
41
1
10
17.0876280103315
20
-0.438182872394549
30
0
41
1
10
17.0148046822846
20
-0.396357379652159
30
0
41
1
10
16.8690645956193
20
-0.310763280688121
30
0
41
1
10
16.7961612133346
20
-0.266974200323091
30
0
41
1
10
16.686481597383
20
-0.200205810948887
30
0
41
1
10
16.6498658282177
20
-0.177771944387729
30
0
41
1
10
16.5764672327974
20
-0.132634507300423
30
0
41
1
10
16.5396403951399
20
-0.109904047699445
30
0
41
1
10
16.4295401096726
20
-0.0418588336597168
30
0
41
1
10
16.3564553482433
20
0.0034359352313231
30
0
41
1
10
16.2105219756862
20
0.0932627557811827
30
0
41
1
10
16.1375817950876
20
0.13764611578506
30
0
41
1
10
15.9191819486572
20
0.269805868756521
30
0
41
1
10
15.7742600485322
20
0.356759439083845
30
0
41
1
10
15.5556846422774
20
0.481818710295641
30
0
41
1
10
15.4826274057744
20
0.522611110074536
30
0
41
1
10
15.3724234519943
20
0.581953004388652
30
0
41
1
10
15.3355903613591
20
0.601421747277499
30
0
41
1
10
15.2621890251561
20
0.639408562169535
30
0
41
1
10
15.2255558809081
20
0.65796215355445
30
0
41
1
10
15.1523785655563
20
0.694147462176915
30
0
41
1
10
15.115835339594
20
0.711780326146567
30
0
41
1
10
15.0427840318328
20
0.746074220485298
30
0
41
1
10
15.0062747305276
20
0.762735607974264
30
0
41
1
10
14.8969452918751
20
0.811456908106095
30
0
41
1
10
14.8242840189428
20
0.842197689322745
30
0
41
1
10
14.6064431083377
20
0.928512462637087
30
0
41
1
10
14.4613991843637
20
0.978147531380785
30
0
41
1
10
14.2784644220357
20
1.02827020166268
30
0
41
1
10
14.241792614595
20
1.03769778345938
30
0
41
1
10
14.1682244639617
20
1.0553117767933
30
0
41
1
10
14.1314069813121
20
1.06347769114402
30
0
41
1
10
14.0212767981613
20
1.08593672555219
30
0
41
1
10
13.9480583732282
20
1.09823253963651
30
0
41
1
10
13.7289508526883
20
1.12734301424734
30
0
41
1
10
13.5841349773208
20
1.13646949756077
30
0
41
1
10
13.2937411029809
20
1.13314363615842
30
0
41
1
10
13.1482209874399
20
1.12070527678793
30
0
41
1
10
12.9639972830565
20
1.09179249303742
30
0
41
1
10
12.9272011063407
20
1.08537120258396
30
0
41
1
10
12.8537320908973
20
1.07132159669885
30
0
41
1
10
12.8170333264768
20
1.06369988246703
30
0
41
1
10
12.7071638842471
20
1.03900522867815
30
0
41
1
10
12.6342946541447
20
1.02004580603972
30
0
41
1
10
12.4408320039082
20
0.963300424938211
30
0
41
1
10
12.3205704627382
20
0.921303741540299
30
0
41
1
10
12.199917455589
20
0.873495248165341
30
0
0
SPLINE
5
1B2
100
AcDbEntity
8
1
62
256
6
ByLayer
370
18
48
1
60
0
100
AcDbSpline
70
4
71
3
72
96
73
92
40
0
40
0
40
0
40
0
40
0.0343188563895002
40
0.0343188563895002
40
0.0686377127790004
40
0.0686377127790004
40
0.102956569168501
40
0.102956569168501
40
0.12011599736325
40
0.12011599736325
40
0.128695711460623
40
0.128695711460623
40
0.137275425557997
40
0.137275425557997
40
0.154434853752743
40
0.154434853752743
40
0.17159428194749
40
0.17159428194749
40
0.205913138336982
40
0.205913138336982
40
0.240231994726474
40
0.240231994726474
40
0.274550851115966
40
0.274550851115966
40
0.308869707505457
40
0.308869707505457
40
0.317449421602829
40
0.317449421602829
40
0.326029135700201
40
0.326029135700201
40
0.343188563894947
40
0.343188563894947
40
0.377507420284439
40
0.377507420284439
40
0.394666848479183
40
0.394666848479183
40
0.411826276673928
40
0.411826276673928
40
0.428985704868673
40
0.428985704868673
40
0.446145133063418
40
0.446145133063418
40
0.480463989452907
40
0.480463989452907
40
0.497623417647651
40
0.497623417647651
40
0.514782845842395
40
0.514782845842395
40
0.54910170223188
40
0.54910170223188
40
0.566261130426624
40
0.566261130426624
40
0.583420558621367
40
0.583420558621367
40
0.617739415010853
40
0.617739415010853
40
0.652058271400338
40
0.652058271400338
40
0.669217699595082
40
0.669217699595082
40
0.686377127789826
40
0.686377127789826
40
0.720695984179315
40
0.720695984179315
40
0.737855412374059
40
0.737855412374059
40
0.746435126471431
40
0.746435126471431
40
0.755014840568803
40
0.755014840568803
40
0.772174268763548
40
0.772174268763548
40
0.789333696958294
40
0.789333696958294
40
0.823652553347788
40
0.823652553347788
40
0.840811981542535
40
0.840811981542535
40
0.857971409737282
40
0.857971409737282
40
0.892290266126776
40
0.892290266126776
40
0.909449694321524
40
0.909449694321524
40
0.926609122516271
40
0.926609122516271
40
0.96092797890577
40
0.96092797890577
40
0.995246835295268
40
0.995246835295268
40
1
40
1
40
1
40
1
41
1
10
10.8930153347424
20
1.13488903377976
30
0
41
1
10
10.9746445017652
20
1.13559229987834
30
0
41
1
10
11.0559581737282
20
1.13294663924515
30
0
41
1
10
11.2184077286181
20
1.12126119935866
30
0
41
1
10
11.299525604805
20
1.11223354818512
30
0
41
1
10
11.4615248197185
20
1.08783635822914
30
0
41
1
10
11.5424225124816
20
1.07245659607932
30
0
41
1
10
11.6639663705916
20
1.04469734123072
30
0
41
1
10
11.7044941937745
20
1.03465414129855
30
0
41
1
10
11.7652216406523
20
1.01830156545481
30
0
41
1
10
11.7854542574199
20
1.01263496198277
30
0
41
1
10
11.8260096052407
20
1.00095027665077
30
0
41
1
10
11.8463278066917
20
0.994929717070306
30
0
41
1
10
11.90739594204
20
0.976331270585774
30
0
41
1
10
11.948265020563
20
0.963207955880364
30
0
41
1
10
12.0302551054912
20
0.935545219798712
30
0
41
1
10
12.0711625736494
20
0.921080252601996
30
0
41
1
10
12.1936333382564
20
0.875834080863996
30
0
41
1
10
12.2749720168386
20
0.843226983195223
30
0
41
1
10
12.4374522962557
20
0.773731045905663
30
0
41
1
10
12.5185381679853
20
0.736785798780261
30
0
41
1
10
12.6804041271477
20
0.658471782677395
30
0
41
1
10
12.761203597586
20
0.617122553798396
30
0
41
1
10
12.9228188199084
20
0.530257657725883
30
0
41
1
10
13.0039134859684
20
0.485138868596067
30
0
41
1
10
13.1059479784679
20
0.427095314110289
30
0
41
1
10
13.1263860003023
20
0.415401022613025
30
0
41
1
10
13.1673321254398
20
0.391853164348333
30
0
41
1
10
13.1878563671504
20
0.379990167850451
30
0
41
1
10
13.2493244725437
20
0.344305015296868
30
0
41
1
10
13.2902193753432
20
0.320358247614337
30
0
41
1
10
13.4127010903695
20
0.248129126133875
30
0
41
1
10
13.4940869889151
20
0.199461639013492
30
0
41
1
10
13.6157853886854
20
0.125727125706504
30
0
41
1
10
13.6562803568515
20
0.101013880598259
30
0
41
1
10
13.7371271780307
20
0.051315482900236
30
0
41
1
10
13.7775210708363
20
0.0263997837157888
30
0
41
1
10
13.85838510699
20
-0.023340632982638
30
0
41
1
10
13.8988230930517
20
-0.0482184376180328
30
0
41
1
10
13.979452582863
20
-0.0984186089950754
30
0
41
1
10
14.0198477972859
20
-0.123403333862029
30
0
41
1
10
14.1413373073019
20
-0.197907123244306
30
0
41
1
10
14.2225654855165
20
-0.247258289417658
30
0
41
1
10
14.3452654046542
20
-0.319969134708771
30
0
41
1
10
14.3863796450454
20
-0.34403714195912
30
0
41
1
10
14.4683686212148
20
-0.391408635981549
30
0
41
1
10
14.5092709854619
20
-0.414736290238665
30
0
41
1
10
14.6317317628652
20
-0.483623637522555
30
0
41
1
10
14.7130526606554
20
-0.528079126522385
30
0
41
1
10
14.8346188819356
20
-0.592478689940947
30
0
41
1
10
14.875060264881
20
-0.613579579590322
30
0
41
1
10
14.955823404935
20
-0.654977291610294
30
0
41
1
10
14.9961720835564
20
-0.675239542375778
30
0
41
1
10
15.1168479020947
20
-0.735036096440183
30
0
41
1
10
15.1976840021648
20
-0.772433179786987
30
0
41
1
10
15.3598642338373
20
-0.842718101143561
30
0
41
1
10
15.4412698246864
20
-0.875516647525501
30
0
41
1
10
15.564231132013
20
-0.920768926120445
30
0
41
1
10
15.6053972544232
20
-0.935218047283371
30
0
41
1
10
15.6873760196423
20
-0.962619111614629
30
0
41
1
10
15.7282582761553
20
-0.975598222739563
30
0
41
1
10
15.8506139861744
20
-1.01236799438291
30
0
41
1
10
15.9317765069718
20
-1.0340093093192
30
0
41
1
10
16.0531163232682
20
-1.06198489245349
30
0
41
1
10
16.0935209043834
20
-1.07055224964057
30
0
41
1
10
16.1538207351131
20
-1.08236084823349
30
0
41
1
10
16.1738565117563
20
-1.08612521974189
30
0
41
1
10
16.2141630311008
20
-1.09314108083672
30
0
41
1
10
16.23439543313
20
-1.09641564364085
30
0
41
1
10
16.2949686831462
20
-1.105704809228
30
0
41
1
10
16.3353139093387
20
-1.11111896756577
30
0
41
1
10
16.4162373825149
20
-1.1202819254608
30
0
41
1
10
16.456770195954
20
-1.12404993357251
30
0
41
1
10
16.578589129144
20
-1.13291474693273
30
0
41
1
10
16.6601491207242
20
-1.13555844506197
30
0
41
1
10
16.7833030489473
20
-1.13457384208218
30
0
41
1
10
16.8244779096673
20
-1.13341759690201
30
0
41
1
10
16.9064457912766
20
-1.12947757825319
30
0
41
1
10
16.9473162108568
20
-1.12669426736417
30
0
41
1
10
17.0695358510477
20
-1.11589445858226
30
0
41
1
10
17.1504496359894
20
-1.10540557283372
30
0
41
1
10
17.2713791824942
20
-1.08475676200973
30
0
41
1
10
17.3116156667991
20
-1.07705228330909
30
0
41
1
10
17.3922117624769
20
-1.06014897055996
30
0
41
1
10
17.4325575087945
20
-1.0509465901489
30
0
41
1
10
17.5537749036773
20
-1.0211521281239
30
0
41
1
10
17.6348052001538
20
-0.998365028784747
30
0
41
1
10
17.7974493561778
20
-0.947089773859659
30
0
41
1
10
17.8791319880217
20
-0.918661799129325
30
0
41
1
10
17.9726235410366
20
-0.883139047073769
30
0
41
1
10
17.984000068425
20
-0.878764770665214
30
0
41
1
10
17.9953757655812
20
-0.874339173935994
30
0
0
SPLINE
5
1B3
100
AcDbEntity
8
1
62
256
6
ByLayer
370
18
48
1
60
0
100
AcDbSpline
70
4
71
3
72
8
73
4
40
0
40
0
40
0
40
0
40
1
40
1
40
1
40
1
41
1
10
22.6939622831386
20
1.54303368147549
30
0
41
1
10
22.680517792781
20
1.54350988942997
30
0
41
1
10
22.6670528009071
20
1.54385983057702
30
0
41
1
10
22.6535673696517
20
1.54408378731813
30
0
0
SPLINE
5
1B4
100
AcDbEntity
8
1
62
256
6
ByLayer
370
18
48
1
60
0
100
AcDbSpline
70
4
71
3
72
8
73
4
40
0
40
0
40
0
40
0
40
1
40
1
40
1
40
1
41
1
10
23.2166588122856
20
1.4624156137196
30
0
41
1
10
23.2032296048463
20
1.46601418593642
30
0
41
1
10
23.1898117147151
20
1.46949667404979
30
0
41
1
10
23.1764040041016
20
1.47286277316309
30
0
0
SPLINE
5
1B5
100
AcDbEntity
8
1
62
256
6
ByLayer
370
18
48
1
60
0
100
AcDbSpline
70
4
71
3
72
10
73
6
40
0
40
0
40
0
40
0
40
0.5
40
0.5
40
1
40
1
40
1
40
1
41
1
10
24.1401746048548
20
0.936399938658269
30
0
41
1
10
24.1809692536691
20
0.904145431706496
30
0
41
1
10
24.2220430540551
20
0.871485949411579
30
0
41
1
10
24.3047969858259
20
0.805435269272664
30
0
41
1
10
24.3464887957779
20
0.772017465989592
30
0
41
1
10
24.3884751207441
20
0.738317903236521
30
0
0
SPLINE
5
1B6
100
AcDbEntity
8
1
62
256
6
ByLayer
370
18
48
1
60
0
100
AcDbSpline
70
4
71
3
72
8
73
4
40
0
40
0
40
0
40
0
40
1
40
1
40
1
40
1
41
1
10
24.3884751207441
20
0.738317903236521
30
0
41
1
10
24.4057691578272
20
0.708256195082697
30
0
41
1
10
24.4231256757911
20
0.678581754907185
30
0
41
1
10
24.4405617430177
20
0.649310341383341
30
0
0
SPLINE
5
1B7
100
AcDbEntity
8
1
62
256
6
ByLayer
370
18
48
1
60
0
100
AcDbSpline
70
4
71
3
72
24
73
20
40
0
40
0
40
0
40
0
40
0.125
40
0.125
40
0.249999999999999
40
0.249999999999999
40
0.374999999999999
40
0.374999999999999
40
0.499999999999998
40
0.499999999999998
40
0.624999999999998
40
0.624999999999998
40
0.749999999999997
40
0.749999999999997
40
0.812499999999997
40
0.812499999999997
40
0.874999999999997
40
0.874999999999997
40
1
40
1
40
1
40
1
41
1
10
24.4405617430177
20
0.649310341383341
30
0
41
1
10
24.4441016920927
20
0.643367526878137
30
0
41
1
10
24.4482394762409
20
0.637622202480856
30
0
41
1
10
24.4574652968391
20
0.62645107308299
30
0
41
1
10
24.4626194974517
20
0.620972863485434
30
0
41
1
10
24.473479372585
20
0.610670405829808
30
0
41
1
10
24.4791859945425
20
0.605828572608431
30
0
41
1
10
24.4911262012036
20
0.596733707787507
30
0
41
1
10
24.4972678015883
20
0.592557103149716
30
0
41
1
10
24.5096446579631
20
0.585077692245108
30
0
41
1
10
24.5159556010049
20
0.581728365525464
30
0
41
1
10
24.5285668225232
20
0.576036820102331
30
0
41
1
10
24.5347341187213
20
0.57374737557322
30
0
41
1
10
24.5437282660758
20
0.571255082474948
30
0
41
1
10
24.5467029298888
20
0.57058096820208
30
0
41
1
10
24.5524040572772
20
0.569621729986778
30
0
41
1
10
24.5551402444931
20
0.56933146095551
30
0
41
1
10
24.562971847859
20
0.569079467561437
30
0
41
1
10
24.5677137511784
20
0.569753656818676
30
0
41
1
10
24.5715125162238
20
0.57143600342485
30
0
0
SPLINE
5
1B8
100
AcDbEntity
8
1
62
256
6
ByLayer
370
18
48
1
60
0
100
AcDbSpline
70
4
71
3
72
8
73
4
40
0
40
0
40
0
40
0
40
1
40
1
40
1
40
1
41
1
10
24.5715125162238
20
0.57143600342485
30
0
41
1
10
24.5770706956947
20
0.573897536122246
30
0
41
1
10
24.5826237092297
20
0.576274814510754
30
0
41
1
10
24.58817216462
20
0.578573102138847
30
0
0
SPLINE
5
1B9
100
AcDbEntity
8
1
62
256
6
ByLayer
370
18
48
1
60
0
100
AcDbSpline
70
4
71
3
72
8
73
4
40
0
40
0
40
0
40
0
40
1
40
1
40
1
40
1
41
1
10
24.5881721646196
20
0.578573102139529
30
0
41
1
10
24.6321906459276
20
0.543632850038705
30
0
41
1
10
24.6763638875534
20
0.5088300081444
30
0
41
1
10
24.7207197708094
20
0.474202418345811
30
0
0
SPLINE
5
1BA
100
AcDbEntity
8
1
62
256
6
ByLayer
370
18
48
1
60
0
100
AcDbSpline
70
4
71
3
72
20
73
16
40
0
40
0
40
0
40
0
40
0.25000000000003
40
0.25000000000003
40
0.375000000000033
40
0.375000000000033
40
0.500000000000036
40
0.500000000000036
40
0.750000000000017
40
0.750000000000017
40
0.875000000000008
40
0.875000000000008
40
0.937500000000004
40
0.937500000000004
40
1
40
1
40
1
40
1
41
1
10
25.1000000000041
20
0.183365039823769
30
0
41
1
10
25.0659240975002
20
0.192156364091545
30
0
41
1
10
25.0323814002385
20
0.206189335798172
30
0
41
1
10
24.9825172423941
20
0.233663140953723
30
0
41
1
10
24.9659185660725
20
0.243942955756126
30
0
41
1
10
24.9333973195597
20
0.266091089209652
30
0
41
1
10
24.9174040209458
20
0.277994198012408
30
0
41
1
10
24.8700711545493
20
0.315944749819835
30
0
41
1
10
24.8393730471649
20
0.344216366846752
30
0
41
1
10
24.7941774085903
20
0.390605178929093
30
0
41
1
10
24.7792121831149
20
0.406813788830959
30
0
41
1
10
24.7571416933882
20
0.43179480861923
30
0
41
1
10
24.7498423813669
20
0.440223755324496
30
0
41
1
10
24.735261540827
20
0.457151894382918
30
0
41
1
10
24.7279840843059
20
0.465656579171139
30
0
41
1
10
24.7207197708068
20
0.474202418345243
30
0
0
SPLINE
5
1BB
100
AcDbEntity
8
1
62
256
6
ByLayer
370
18
48
1
60
0
100
AcDbSpline
70
4
71
3
72
36
73
32
40
0
40
0
40
0
40
0
40
0.0312500000000002
40
0.0312500000000002
40
0.0625000000000004
40
0.0625000000000004
40
0.125000000000001
40
0.125000000000001
40
0.187500000000001
40
0.187500000000001
40
0.218750000000001
40
0.218750000000001
40
0.250000000000001
40
0.250000000000001
40
0.5
40
0.5
40
0.625
40
0.625
40
0.75
40
0.75
40
0.8125
40
0.8125
40
0.84375
40
0.84375
40
0.875
40
0.875
40
0.90625
40
0.90625
40
0.9375
40
0.9375
40
1
40
1
40
1
40
1
41
1
10
25.1
20
0.863281065366863
30
0
41
1
10
25.1
20
0.852403962045315
30
0
41
1
10
25.1
20
0.841581464843131
30
0
41
1
10
25.1
20
0.820048323290592
30
0
41
1
10
25.1
20
0.809354552772703
30
0
41
1
10
25.1
20
0.777869536138496
30
0
41
1
10
25.1
20
0.757527518008601
30
0
41
1
10
25.1
20
0.718106026951176
30
0
41
1
10
25.1
20
0.699031342877191
30
0
41
1
10
25.1
20
0.671381920432538
30
0
41
1
10
25.1
20
0.662323776232824
30
0
41
1
10
25.1
20
0.644560505967462
30
0
41
1
10
25.1
20
0.635968197242221
30
0
41
1
10
25.1
20
0.559053544389371
30
0
41
1
10
25.1
20
0.496286690691051
30
0
41
1
10
25.1
20
0.410430011931993
30
0
41
1
10
25.1
20
0.383193618546443
30
0
41
1
10
25.1
20
0.331552848526485
30
0
41
1
10
25.1
20
0.307090763005107
30
0
41
1
10
25.1
20
0.27302636574862
30
0
41
1
10
25.1
20
0.262087112035516
30
0
41
1
10
25.1
20
0.246318077782035
30
0
41
1
10
25.1
20
0.241129547364352
30
0
41
1
10
25.1
20
0.231256554095666
30
0
41
1
10
25.1
20
0.22661397231596
30
0
41
1
10
25.1
20
0.217854416123345
30
0
41
1
10
25.1
20
0.213742787578667
30
0
41
1
10
25.1
20
0.206073492408137
30
0
41
1
10
25.1
20
0.202507153934135
30
0
41
1
10
25.1
20
0.192737797867892
30
0
41
1
10
25.1
20
0.187452435326151
30
0
41
1
10
25.1
20
0.183365039826583
30
0
0
SPLINE
5
1BC
100
AcDbEntity
8
1
62
256
6
ByLayer
370
18
48
1
60
0
100
AcDbSpline
70
4
71
3
72
18
73
14
40
0
40
0
40
0
40
0
40
0.125
40
0.125
40
0.1875
40
0.1875
40
0.25
40
0.25
40
0.5
40
0.5
40
0.75
40
0.75
40
1
40
1
40
1
40
1
41
1
10
24.678501101141
20
1.27147685573684
30
0
41
1
10
24.696513612629
20
1.25483586008079
30
0
41
1
10
24.7146064811854
20
1.23797607531162
30
0
41
1
10
24.7419103984612
20
1.21232456267893
30
0
41
1
10
24.751050491025
20
1.20369705936218
30
0
41
1
10
24.7693376491612
20
1.18639883338929
30
0
41
1
10
24.778461632829
20
1.177762169527
30
0
41
1
10
24.8238907659251
20
1.13475766600115
30
0
41
1
10
24.8597434413861
20
1.10075328102988
30
0
41
1
10
24.9304411565433
20
1.03298454015714
30
0
41
1
10
24.9652935501995
20
0.999218262718671
30
0
41
1
10
25.0337265706651
20
0.931507347796725
30
0
41
1
10
25.067312014931
20
0.897566458652022
30
0
41
1
10
25.1000000000001
20
0.863281065366834
30
0
0
SPLINE
5
1BD
100
AcDbEntity
8
1
62
256
6
ByLayer
370
18
48
1
60
0
100
AcDbSpline
70
4
71
3
72
10
73
6
40
0
40
0
40
0
40
0
40
0.5
40
0.5
40
1
40
1
40
1
40
1
41
1
10
24.678501101141
20
1.27147685573684
30
0
41
1
10
24.6509976303656
20
1.27742672822188
30
0
41
1
10
24.6235679610669
20
1.28295138569146
30
0
41
1
10
24.5688264071338
20
1.29312063715344
30
0
41
1
10
24.5414914894255
20
1.29776862086541
30
0
41
1
10
24.5142641237109
20
1.30195258236355
30
0
0
SPLINE
5
1BE
100
AcDbEntity
8
1
62
256
6
ByLayer
370
18
48
1
60
0
100
AcDbSpline
70
4
71
3
72
8
73
4
40
0
40
0
40
0
40
0
40
1
40
1
40
1
40
1
41
1
10
24.5142641237109
20
1.30195258236355
30
0
41
1
10
24.4969153734614
20
1.27011299337539
30
0
41
1
10
24.4795130091925
20
1.2379681044915
30
0
41
1
10
24.4620359948964
20
1.20551512598686
30
0
0
SPLINE
5
1BF
100
AcDbEntity
8
1
62
256
6
ByLayer
370
18
48
1
60
0
100
AcDbSpline
70
4
71
3
72
22
73
18
40
0
40
0
40
0
40
0
40
0.125
40
0.125
40
0.25
40
0.25
40
0.375
40
0.375
40
0.5
40
0.5
40
0.625
40
0.625
40
0.75
40
0.75
40
0.875
40
0.875
40
1
40
1
40
1
40
1
41
1
10
24.4620359948964
20
1.20551512598698
30
0
41
1
10
24.4585964831326
20
1.19912831417545
30
0
41
1
10
24.4545871611342
20
1.19334554154398
30
0
41
1
10
24.4456317489015
20
1.1827661085542
30
0
41
1
10
24.4406286106378
20
1.17793887462321
30
0
41
1
10
24.4300641880846
20
1.16954085170244
30
0
41
1
10
24.4244879392485
20
1.16593472766422
30
0
41
1
10
24.4127580943937
20
1.15990720215353
30
0
41
1
10
24.4066346714704
20
1.15751809533336
30
0
41
1
10
24.3942842007124
20
1.15419473227925
30
0
41
1
10
24.3880024003005
20
1.15322620338156
30
0
41
1
10
24.3752104629272
20
1.15293457936315
30
0
41
1
10
24.3688547595124
20
1.15362543276697
30
0
41
1
10
24.3565558613329
20
1.15695552785041
30
0
41
1
10
24.3505551107037
20
1.15963850551043
30
0
41
1
10
24.3397995384835
20
1.16712819739618
30
0
41
1
10
24.3349394861424
20
1.17201624784426
30
0
41
1
10
24.3310946262195
20
1.17792357781599
30
0
0
SPLINE
5
1C0
100
AcDbEntity
8
1
62
256
6
ByLayer
370
18
48
1
60
0
100
AcDbSpline
70
4
71
3
72
14
73
10
40
0
40
0
40
0
40
0
40
0.25
40
0.25
40
0.5
40
0.5
40
0.75
40
0.75
40
1
40
1
40
1
40
1
41
1
10
19
20
0.725834044384868
30
0
41
1
10
18.9774248221485
20
0.733015095577315
30
0
41
1
10
18.9541294655563
20
0.740540356760647
30
0
41
1
10
18.9061568298747
20
0.756353956283789
30
0
41
1
10
18.8814236212218
20
0.764561330108819
30
0
41
1
10
18.830523267126
20
0.781884768081312
30
0
41
1
10
18.8043807409472
20
0.79103744142256
30
0
41
1
10
18.7509414068574
20
0.810877836432127
30
0
41
1
10
18.7237450325509
20
0.821531110227028
30
0
41
1
10
18.6963510980467
20
0.833066113261651
30
0
0
SPLINE
5
1C1
100
AcDbEntity
8
1
62
256
6
ByLayer
370
18
48
1
60
0
100
AcDbSpline
70
4
71
3
72
36
73
32
40
0
40
0
40
0
40
0
40
0.0829772259886001
40
0.0829772259886001
40
0.1659544519772
40
0.1659544519772
40
0.331908903954395
40
0.331908903954395
40
0.373397516948691
40
0.373397516948691
40
0.414886129942986
40
0.414886129942986
40
0.497863355931583
40
0.497863355931583
40
0.539351968925879
40
0.539351968925879
40
0.580840581920175
40
0.580840581920175
40
0.663817807908767
40
0.663817807908767
40
0.746795033897358
40
0.746795033897358
40
0.788283646891651
40
0.788283646891651
40
0.829772259885944
40
0.829772259885944
40
0.91274948587453
40
0.91274948587453
40
0.995726711863116
40
0.995726711863116
40
1
40
1
40
1
40
1
41
1
10
18.6963510980467
20
0.833066113261623
30
0
41
1
10
18.6227643894165
20
0.864051910764516
30
0
41
1
10
18.5494913174077
20
0.892821040053803
30
0
41
1
10
18.4031215940463
20
0.945641851243892
30
0
41
1
10
18.329940176919
20
0.96963571563947
30
0
41
1
10
18.111026803897
20
1.03503584619065
30
0
41
1
10
17.9657739433721
20
1.0696129810099
30
0
41
1
10
17.7831360385458
20
1.09988145350621
30
0
41
1
10
17.7465532512772
20
1.10528925616612
30
0
41
1
10
17.6732297020161
20
1.11478189367861
30
0
41
1
10
17.6364334080639
20
1.11887149961234
30
0
41
1
10
17.5261767054272
20
1.1290766341269
30
0
41
1
10
17.4529706705512
20
1.13312444979618
30
0
41
1
10
17.3432882301517
20
1.13516230437014
30
0
41
1
10
17.30673928065
20
1.13516977802482
30
0
41
1
10
17.2336274118577
20
1.13386952668657
30
0
41
1
10
17.1970888852691
20
1.1325622967843
30
0
41
1
10
17.0876280103315
20
1.12665265774751
30
0
41
1
10
17.0148046822846
20
1.12006028976197
30
0
41
1
10
16.8690645956193
20
1.1015632831251
30
0
41
1
10
16.7961612133346
20
1.08965534181007
30
0
41
1
10
16.686481597383
20
1.06782875428866
30
0
41
1
10
16.6498658282177
20
1.05989364019314
30
0
41
1
10
16.5764672327973
20
1.04272091253154
30
0
41
1
10
16.5396403951399
20
1.03347014495904
30
0
41
1
10
16.4295401096726
20
1.00398952739934
30
0
41
1
10
16.3564553482433
20
0.981987047595567
30
0
41
1
10
16.2105219756862
20
0.93375678757144
30
0
41
1
10
16.1375817950876
20
0.907625973002297
30
0
41
1
10
16.0610326831317
20
0.877959004941232
30
0
41
1
10
16.0572839695324
20
0.876500340058413
30
0
41
1
10
16.05353568033
20
0.875036040596541
30
0
0
SPLINE
5
1C2
100
AcDbEntity
8
1
62
256
6
ByLayer
370
18
48
1
60
0
100
AcDbSpline
70
4
71
3
72
60
73
56
40
0
40
0
40
0
40
0
40
0.0017469914023135
40
0.0017469914023135
40
0.0329423979209851
40
0.0329423979209851
40
0.0641378044396565
40
0.0641378044396565
40
0.126528617477
40
0.126528617477
40
0.188919430514342
40
0.188919430514342
40
0.220114837033015
40
0.220114837033015
40
0.251310243551689
40
0.251310243551689
40
0.313701056589036
40
0.313701056589036
40
0.344896463107711
40
0.344896463107711
40
0.360494166367049
40
0.360494166367049
40
0.376091869626386
40
0.376091869626386
40
0.407287276145065
40
0.407287276145065
40
0.438482682663744
40
0.438482682663744
40
0.500873495701099
40
0.500873495701099
40
0.532068902219778
40
0.532068902219778
40
0.563264308738457
40
0.563264308738457
40
0.625655121775819
40
0.625655121775819
40
0.6568505282945
40
0.6568505282945
40
0.688045934813182
40
0.688045934813182
40
0.750436747850548
40
0.750436747850548
40
0.812827560887914
40
0.812827560887914
40
0.844022967406595
40
0.844022967406595
40
0.875218373925276
40
0.875218373925276
40
0.906413780443957
40
0.906413780443957
40
0.937609186962638
40
0.937609186962638
40
0.968804593481319
40
0.968804593481319
40
1
40
1
40
1
40
1
41
1
10
14.787288258354
20
1.13500001888548
30
0
41
1
10
14.7895579925729
20
1.13500014153149
30
0
41
1
10
14.7918275088664
20
1.13499771498437
30
0
41
1
10
14.8346188819356
20
1.13490389535622
30
0
41
1
10
14.875060264881
20
1.13399960526559
30
0
41
1
10
14.955823404935
20
1.13053880911031
30
0
41
1
10
14.9961720835565
20
1.12798948019665
30
0
41
1
10
15.1168479020947
20
1.11776309427867
30
0
41
1
10
15.1976840021648
20
1.10771154337829
30
0
41
1
10
15.3598642338373
20
1.08121841614496
30
0
41
1
10
15.4412698246864
20
1.06477568286863
30
0
41
1
10
15.564231132013
20
1.03551658326475
30
0
41
1
10
15.6053972544233
20
1.02497948210512
30
0
41
1
10
15.6873760196423
20
1.00251945537448
30
0
41
1
10
15.7282582761554
20
0.990580854168229
30
0
41
1
10
15.8506139861744
20
0.952682186623321
30
0
41
1
10
15.9317765069719
20
0.924623334981362
30
0
41
1
10
16.0531163232682
20
0.878521201140586
30
0
41
1
10
16.0935209043834
20
0.862515063109527
30
0
41
1
10
16.1538207351132
20
0.837253955850969
30
0
41
1
10
16.1738565117563
20
0.82860692991494
30
0
41
1
10
16.2141630311008
20
0.811275067144408
30
0
41
1
10
16.2343954331301
20
0.802550342200362
30
0
41
1
10
16.2949686831462
20
0.775784384580419
30
0
41
1
10
16.3353139093387
20
0.757293476068753
30
0
41
1
10
16.4162373825149
20
0.719395254105109
30
0
41
1
10
16.456770195954
20
0.699934493656428
30
0
41
1
10
16.578589129144
20
0.640029053058754
30
0
41
1
10
16.6601491207242
20
0.598130596352433
30
0
41
1
10
16.7833030489473
20
0.532740636526825
30
0
41
1
10
16.8244779096674
20
0.510513793716427
30
0
41
1
10
16.9064457912766
20
0.465517997706854
30
0
41
1
10
16.9473162108568
20
0.442705041789594
30
0
41
1
10
17.0695358510477
20
0.373240998589722
30
0
41
1
10
17.1504496359894
20
0.325493656090344
30
0
41
1
10
17.2713791824943
20
0.252344050681245
30
0
41
1
10
17.3116156667991
20
0.22770592686129
30
0
41
1
10
17.3922117624769
20
0.178359342265679
30
0
41
1
10
17.4325575087946
20
0.153629009943899
30
0
41
1
10
17.5537749036774
20
0.0793349551308324
30
0
41
1
10
17.6348052001538
20
0.0296338661090374
30
0
41
1
10
17.7974493561778
20
-0.0698621440495231
30
0
41
1
10
17.8791319880218
20
-0.119541194984436
30
0
41
1
10
18.0023092549646
20
-0.193779471638294
30
0
41
1
10
18.0434094279081
20
-0.218466634968195
30
0
41
1
10
18.1253171819217
20
-0.267482847973838
30
0
41
1
10
18.1661832625459
20
-0.291839353376162
30
0
41
1
10
18.2477577094236
20
-0.340214211241403
30
0
41
1
10
18.2884580113179
20
-0.364244715441714
30
0
41
1
10
18.3697844826614
20
-0.411827862491748
30
0
41
1
10
18.4105103644712
20
-0.435229184505289
30
0
41
1
10
18.49195835991
20
-0.481450460215541
30
0
41
1
10
18.5327020389544
20
-0.504236473935322
30
0
41
1
10
18.6143701487668
20
-0.548952331534679
30
0
41
1
10
18.6553027258564
20
-0.57087098840222
30
0
41
1
10
18.6963510980468
20
-0.592328525424733
30
0
0
SPLINE
5
1C3
100
AcDbEntity
8
1
62
256
6
ByLayer
370
18
48
1
60
0
100
AcDbSpline
70
4
71
3
72
16
73
12
40
0
40
0
40
0
40
0
40
0.25
40
0.25
40
0.5
40
0.5
40
0.75
40
0.75
40
0.875
40
0.875
40
1
40
1
40
1
40
1
41
1
10
18.6963510980467
20
-0.592328525424733
30
0
41
1
10
18.7223327640893
20
-0.605910125163462
30
0
41
1
10
18.748241101575
20
-0.619943419317707
30
0
41
1
10
18.7997447506085
20
-0.649163091202553
30
0
41
1
10
18.8253395070834
20
-0.664349420811817
30
0
41
1
10
18.8761174862573
20
-0.696057506243193
30
0
41
1
10
18.901302130071
20
-0.712576149937831
30
0
41
1
10
18.9387432756307
20
-0.73847112336432
30
0
41
1
10
18.9511929510461
20
-0.747306403175116
30
0
41
1
10
18.9758329000884
20
-0.765297220801045
30
0
41
1
10
18.9880067517593
20
-0.774451850031539
30
0
41
1
10
19.0000000000001
20
-0.78381492039
30
0
0
SPLINE
5
1C4
100
AcDbEntity
8
1
62
256
6
ByLayer
370
18
48
1
60
0
100
AcDbSpline
70
4
71
3
72
8
73
4
40
0
40
0
40
0
40
0
40
1
40
1
40
1
40
1
41
1
10
22.8999114721377
20
-1.54379861833485
30
0
41
1
10
22.9132189957671
20
-1.54410620530308
30
0
41
1
10
22.9265268656638
20
-1.54429229687307
30
0
41
1
10
22.9398363932508
20
-1.54435679018007
30
0
0
SPLINE
5
1C5
100
AcDbEntity
8
1
62
256
6
ByLayer
370
18
48
1
60
0
100
AcDbSpline
70
4
71
3
72
10
73
6
40
0
40
0
40
0
40
0
40
0.0296581393160455
40
0.0296581393160455
40
1
40
1
40
1
40
1
41
1
10
22.8132554687165
20
-1.39733482037028
30
0
41
1
10
22.8123388284031
20
-1.39575588741579
30
0
41
1
10
22.8114219766414
20
-1.39417570163292
30
0
41
1
10
22.780500768132
20
-1.34085344981963
30
0
41
1
10
22.7503685264275
20
-1.28794410764706
30
0
41
1
10
22.7200066410014
20
-1.23384386782206
30
0
0
SPLINE
5
1C6
100
AcDbEntity
8
1
62
256
6
ByLayer
370
18
48
1
60
0
100
AcDbSpline
70
4
71
3
72
22
73
18
40
0
40
0
40
0
40
0
40
0.125
40
0.125
40
0.25
40
0.25
40
0.375
40
0.375
40
0.5
40
0.5
40
0.625
40
0.625
40
0.75
40
0.75
40
0.875
40
0.875
40
1
40
1
40
1
40
1
41
1
10
22.7200066410014
20
-1.23384386782206
30
0
41
1
10
22.7165607102037
20
-1.22770374575913
30
0
41
1
10
22.7125448915183
20
-1.22220648356119
30
0
41
1
10
22.7035812823482
20
-1.21225662594699
30
0
41
1
10
22.6985749822759
20
-1.2077746727708
30
0
41
1
10
22.6879849213945
20
-1.20008310931365
30
0
41
1
10
22.6823974621191
20
-1.19684855790101
30
0
41
1
10
22.670651509044
20
-1.19159853359613
30
0
41
1
10
22.6645237989338
20
-1.18961329755734
30
0
41
1
10
22.6521686553863
20
-1.1870988927468
30
0
41
1
10
22.6458870171371
20
-1.18653944071679
30
0
41
1
10
22.633101614794
20
-1.18707735905193
30
0
41
1
10
22.6267585461081
20
-1.18817752267111
30
0
41
1
10
22.6144823182344
20
-1.19229663785575
30
0
41
1
10
22.6084956589067
20
-1.19536250670413
30
0
41
1
10
22.5977654818709
20
-1.2035373654937
30
0
41
1
10
22.5929162120891
20
-1.20873508751686
30
0
41
1
10
22.5890772986428
20
-1.21488960593351
30
0
0
SPLINE
5
1C7
100
AcDbEntity
8
1
62
256
6
ByLayer
370
18
48
1
60
0
100
AcDbSpline
70
4
71
3
72
10
73
6
40
0
40
0
40
0
40
0
40
0.5
40
0.5
40
1
40
1
40
1
40
1
41
1
10
22.5890772986412
20
-1.21488960593615
30
0
41
1
10
22.5603323861618
20
-1.26097324281321
30
0
41
1
10
22.5316349524506
20
-1.30619898626276
30
0
41
1
10
22.4744464093196
20
-1.39464705901835
30
0
41
1
10
22.4459853649819
20
-1.43783394540378
30
0
41
1
10
22.4176487183603
20
-1.47995530172113
30
0
0
SPLINE
5
1C8
100
AcDbEntity
8
1
62
256
6
ByLayer
370
18
48
1
60
0
100
AcDbSpline
70
4
71
3
72
8
73
4
40
0
40
0
40
0
40
0
40
1
40
1
40
1
40
1
41
1
10
22.3776900724962
20
-1.47001218943106
30
0
41
1
10
22.3910085737089
20
-1.47344235598933
30
0
41
1
10
22.4043276776
20
-1.47675690199853
30
0
41
1
10
22.4176487183603
20
-1.47995530172113
30
0
0
SPLINE
5
1C9
100
AcDbEntity
8
1
62
256
6
ByLayer
370
18
48
1
60
0
100
AcDbSpline
70
4
71
3
72
10
73
6
40
0
40
0
40
0
40
0
40
0.5
40
0.5
40
1
40
1
40
1
40
1
41
1
10
22.3776900724979
20
-1.47001218941546
30
0
41
1
10
22.3479762469608
20
-1.41312272720472
30
0
41
1
10
22.3181131196954
20
-1.35558740745034
30
0
41
1
10
22.257964652501
20
-1.23929170248402
30
0
41
1
10
22.2277726060365
20
-1.18069995977672
30
0
41
1
10
22.1973689391389
20
-1.12168101357432
30
0
0
SPLINE
5
1CA
100
AcDbEntity
8
1
62
256
6
ByLayer
370
18
48
1
60
0
100
AcDbSpline
70
4
71
3
72
22
73
18
40
0
40
0
40
0
40
0
40
0.125
40
0.125
40
0.25
40
0.25
40
0.375
40
0.375
40
0.5
40
0.5
40
0.625
40
0.625
40
0.75
40
0.75
40
0.875
40
0.875
40
1
40
1
40
1
40
1
41
1
10
22.1973689391385
20
-1.12168101357378
30
0
41
1
10
22.1939163799672
20
-1.11497897974755
30
0
41
1
10
22.1898940569333
20
-1.10882069143125
30
0
41
1
10
22.180920385293
20
-1.09738685863502
30
0
41
1
10
22.1759108121279
20
-1.09207253035026
30
0
41
1
10
22.1653189773035
20
-1.08260945878331
30
0
41
1
10
22.1597320909764
20
-1.07843456261355
30
0
41
1
10
22.147990040238
20
-1.07118903004633
30
0
41
1
10
22.1418677237578
20
-1.06815457241945
30
0
41
1
10
22.1295210780559
20
-1.06349248130974
30
0
41
1
10
22.1232434351202
20
-1.06182626239684
30
0
41
1
10
22.110464688323
20
-1.06006302374121
30
0
41
1
10
22.1041226247569
20
-1.05999712508998
30
0
41
1
10
22.0918443550049
20
-1.06178947872118
30
0
41
1
10
22.0858534131059
20
-1.06368329041217
30
0
41
1
10
22.0751105193103
20
-1.06965943176945
30
0
41
1
10
22.0702526562546
20
-1.07380839684274
30
0
41
1
10
22.0664070787109
20
-1.07906315750543
30
0
0
SPLINE
5
1CB
100
AcDbEntity
8
1
62
256
6
ByLayer
370
18
48
1
60
0
100
AcDbSpline
70
4
71
3
72
10
73
6
40
0
40
0
40
0
40
0
40
0.5
40
0.5
40
1
40
1
40
1
40
1
41
1
10
22.0664070787105
20
-1.07906315750481
30
0
41
1
10
22.0376808834882
20
-1.11831585204302
30
0
41
1
10
22.0090034239
20
-1.15617110455028
30
0
41
1
10
21.9518566459079
20
-1.22879439127092
30
0
41
1
10
21.9234172680895
20
-1.2635451231175
30
0
41
1
10
21.8951066950433
20
-1.2967174549546
30
0
0
SPLINE
5
1CC
100
AcDbEntity
8
1
62
256
6
ByLayer
370
18
48
1
60
0
100
AcDbSpline
70
4
71
3
72
8
73
4
40
0
40
0
40
0
40
0
40
1
40
1
40
1
40
1
41
1
10
21.8543675463184
20
-1.27779536108872
30
0
41
1
10
21.8679461600051
20
-1.28420762298182
30
0
41
1
10
21.881525382286
20
-1.29051532882775
30
0
41
1
10
21.8951066950433
20
-1.2967174549546
30
0
0
SPLINE
5
1CD
100
AcDbEntity
8
1
62
256
6
ByLayer
370
18
48
1
60
0
100
AcDbSpline
70
4
71
3
72
8
73
4
40
0
40
0
40
0
40
0
40
1
40
1
40
1
40
1
41
1
10
21.3320705903777
20
-0.983314203914347
30
0
41
1
10
21.3454421534519
20
-0.991973581340091
30
0
41
1
10
21.3588143805987
20
-1.00055517892062
30
0
41
1
10
21.3721884900932
20
-1.00905784919956
30
0
0
SPLINE
5
1CE
100
AcDbEntity
8
1
62
256
6
ByLayer
370
18
48
1
60
0
100
AcDbSpline
70
4
71
3
72
42
73
38
40
0
40
0
40
0
40
0
40
0.0267495417534868
40
0.0267495417534868
40
0.0562419798821703
40
0.0562419798821703
40
0.0857344180108538
40
0.0857344180108538
40
0.115226856139537
40
0.115226856139537
40
0.174211732396904
40
0.174211732396904
40
0.292181484911643
40
0.292181484911643
40
0.321673923040327
40
0.321673923040327
40
0.351166361169012
40
0.351166361169012
40
0.410151237426377
40
0.410151237426377
40
0.528120989941107
40
0.528120989941107
40
0.646090742455837
40
0.646090742455837
40
0.675583180584518
40
0.675583180584518
40
0.705075618713198
40
0.705075618713198
40
0.76406049497056
40
0.76406049497056
40
0.882030247485282
40
0.882030247485282
40
0.941015123742641
40
0.941015123742641
40
0.97050756187132
40
0.97050756187132
40
1
40
1
40
1
40
1
41
1
10
15.3989063945933
20
-1.13499990949612
30
0
41
1
10
15.365573393688
20
-1.13499564663957
30
0
41
1
10
15.332177075246
20
-1.13442611541762
30
0
41
1
10
15.262189025156
20
-1.13206018892524
30
0
41
1
10
15.2255558809081
20
-1.13014498793876
30
0
41
1
10
15.1523785655563
20
-1.12499964963416
30
0
41
1
10
15.115835339594
20
-1.1217691604792
30
0
41
1
10
15.0427840318329
20
-1.11403239115202
30
0
41
1
10
15.0062747305276
20
-1.10952885112442
30
0
41
1
10
14.8969452918752
20
-1.09407275743843
30
0
41
1
10
14.8242840189429
20
-1.08117923841056
30
0
41
1
10
14.6064431083378
20
-1.03487655482249
30
0
41
1
10
14.4613991843638
20
-0.993819782032858
30
0
41
1
10
14.2784644220356
20
-0.930728723587976
30
0
41
1
10
14.2417926145949
20
-0.917527223492812
30
0
41
1
10
14.1682244639616
20
-0.890002021101026
30
0
41
1
10
14.131406981312
20
-0.875706108661802
30
0
41
1
10
14.0212767981613
20
-0.831513215556129
30
0
41
1
10
13.9480583732282
20
-0.800276314902845
30
0
41
1
10
13.7289508526885
20
-0.701463569695193
30
0
41
1
10
13.5841349773207
20
-0.628083347221803
30
0
41
1
10
13.2937411029807
20
-0.470430418176562
30
0
41
1
10
13.1482209874399
20
-0.386082679708494
30
0
41
1
10
12.9639972830564
20
-0.276550240847968
30
0
41
1
10
12.9272011063407
20
-0.25454328802212
30
0
41
1
10
12.8537320908973
20
-0.210466232619297
30
0
41
1
10
12.8170333264768
20
-0.188409327885836
30
0
41
1
10
12.7071638842471
20
-0.121981557598531
30
0
41
1
10
12.6342946541453
20
-0.077230064516101
30
0
41
1
10
12.4161857156506
20
0.05736922344974
30
0
41
1
10
12.2715019656455
20
0.14765451041049
30
0
41
1
10
12.0532301434021
20
0.280068123555935
30
0
41
1
10
11.9802692499816
20
0.323710831866094
30
0
41
1
10
11.8702298231885
20
0.387954383572577
30
0
41
1
10
11.8334241444055
20
0.409181393604143
30
0
41
1
10
11.7596690985383
20
0.451068708763415
30
0
41
1
10
11.7228311692755
20
0.471640174182056
30
0
41
1
10
11.6860687580342
20
0.491903450021994
30
0
0
SPLINE
5
1CF
100
AcDbEntity
8
1
62
256
6
ByLayer
370
18
48
1
60
0
100
AcDbSpline
70
4
71
3
72
26
73
22
40
0
40
0
40
0
40
0
40
0.0470905724707161
40
0.0470905724707161
40
0.131746813716604
40
0.131746813716604
40
0.216403054962492
40
0.216403054962492
40
0.30105929620838
40
0.30105929620838
40
0.385715537454267
40
0.385715537454267
40
0.470371778700155
40
0.470371778700155
40
0.639684261191927
40
0.639684261191927
40
0.808996743683699
40
0.808996743683699
40
0.978309226175471
40
0.978309226175471
40
1
40
1
40
1
40
1
41
1
10
11.6859267366522
20
0.491686930098126
30
0
41
1
10
11.6791916283233
20
0.490778682492618
30
0
41
1
10
11.6718779543161
20
0.48904538224599
30
0
41
1
10
11.6479312148256
20
0.479092462368641
30
0
41
1
10
11.6296913817899
20
0.468250692010372
30
0
41
1
10
11.5871152281461
20
0.437064002568661
30
0
41
1
10
11.563083530514
20
0.416896184726056
30
0
41
1
10
11.5108378356445
20
0.368198912081056
30
0
41
1
10
11.4819396615747
20
0.33897020210307
30
0
41
1
10
11.4226076406723
20
0.274344317866706
30
0
41
1
10
11.3914163469021
20
0.237805196388536
30
0
41
1
10
11.3287374787839
20
0.161321811524772
30
0
41
1
10
11.2977497354395
20
0.122250063841392
30
0
41
1
10
11.2058350555648
20
0.0025600481318122
30
0
41
1
10
11.14586483809
20
-0.0808926269043013
30
0
41
1
10
11.0385706123634
20
-0.241117478042128
30
0
41
1
10
10.9882651972072
20
-0.321066609812533
30
0
41
1
10
10.9189549580637
20
-0.454254766305354
30
0
41
1
10
10.8999364639317
20
-0.505654576841209
30
0
41
1
10
10.8937565680892
20
-0.545433595318002
30
0
41
1
10
10.8933422853049
20
-0.549613533715132
30
0
41
1
10
10.8931337764797
20
-0.553551586745499
30
0
0
SPLINE
5
1D0
100
AcDbEntity
8
1
62
256
6
ByLayer
370
18
48
1
60
0
100
AcDbSpline
70
4
71
3
72
48
73
44
40
0
40
0
40
0
40
0
40
0.0755315512187689
40
0.0755315512187689
40
0.151063102437538
40
0.151063102437538
40
0.226594653656307
40
0.226594653656307
40
0.264360429265691
40
0.264360429265691
40
0.283243317070383
40
0.283243317070383
40
0.302126204875076
40
0.302126204875076
40
0.339891980484455
40
0.339891980484455
40
0.377657756093835
40
0.377657756093835
40
0.45318930731259
40
0.45318930731259
40
0.528720858531345
40
0.528720858531345
40
0.6042524097501
40
0.6042524097501
40
0.679783960968855
40
0.679783960968855
40
0.698666848773545
40
0.698666848773545
40
0.717549736578235
40
0.717549736578235
40
0.75531551218761
40
0.75531551218761
40
0.830847063406365
40
0.830847063406365
40
0.868612839015742
40
0.868612839015742
40
0.90637861462512
40
0.90637861462512
40
0.944144390234497
40
0.944144390234497
40
0.981910165843874
40
0.981910165843874
40
1
40
1
40
1
40
1
41
1
10
10.8930153347424
20
-0.553700036003647
30
0
41
1
10
10.9746445017652
20
-0.597603458479313
30
0
41
1
10
11.0559581737282
20
-0.639543324695666
30
0
41
1
10
11.2184077286181
20
-0.719045508332556
30
0
41
1
10
11.299525604805
20
-0.756643283778089
30
0
41
1
10
11.4615248197185
20
-0.827586160483776
30
0
41
1
10
11.5424225124816
20
-0.860899632650046
30
0
41
1
10
11.6639663705916
20
-0.907174112877726
30
0
41
1
10
11.7044941937745
20
-0.922005942947294
30
0
41
1
10
11.7652216406523
20
-0.943414210592778
30
0
41
1
10
11.78545425742
20
-0.950408320295054
30
0
41
1
10
11.8260096052407
20
-0.964008045442426
30
0
41
1
10
11.8463278066917
20
-0.970618567857713
30
0
41
1
10
11.90739594204
20
-0.989892497110418
30
0
41
1
10
11.948265020563
20
-1.00200699127373
30
0
41
1
10
12.0302551054912
20
-1.02474013792403
30
0
41
1
10
12.0711625736494
20
-1.03529862952931
30
0
41
1
10
12.1936333382564
20
-1.06460323816648
30
0
41
1
10
12.2749720168387
20
-1.08095654350746
30
0
41
1
10
12.4374522962557
20
-1.10729058529066
30
0
41
1
10
12.5185381679854
20
-1.11731008967735
30
0
41
1
10
12.6804041271478
20
-1.13100152195287
30
0
41
1
10
12.7612035975861
20
-1.13465984030546
30
0
41
1
10
12.9228188199085
20
-1.13529498172349
30
0
41
1
10
13.0039134859684
20
-1.1322604717158
30
0
41
1
10
13.1059479784679
20
-1.12430545606813
30
0
41
1
10
13.1263860003023
20
-1.12250609928918
30
0
41
1
10
13.1673321254398
20
-1.11849153608685
30
0
41
1
10
13.1878563671504
20
-1.11627417084353
30
0
41
1
10
13.2493244725437
20
-1.10902691906608
30
0
41
1
10
13.2902193753432
20
-1.10339873785335
30
0
41
1
10
13.4127010903695
20
-1.08419938917339
30
0
41
1
10
13.4940869889151
20
-1.06832498086644
30
0
41
1
10
13.6157853886854
20
-1.0399891533076
30
0
41
1
10
13.6562803568515
20
-1.02978274611158
30
0
41
1
10
13.7371271780307
20
-1.0078282957918
30
0
41
1
10
13.7775210708363
20
-0.996108806689136
30
0
41
1
10
13.85838510699
20
-0.971296650109764
30
0
41
1
10
13.8988230930517
20
-0.958183750433506
30
0
41
1
10
13.9794525828631
20
-0.930269421034893
30
0
41
1
10
14.019847797286
20
-0.915650909252378
30
0
41
1
10
14.0797421553616
20
-0.893095314420975
30
0
41
1
10
14.0991534996379
20
-0.885634767983021
30
0
41
1
10
14.1185829575613
20
-0.878023612703913
30
0
0
SPLINE
5
1D1
100
AcDbEntity
8
1
62
256
6
ByLayer
370
18
48
1
60
0
100
AcDbSpline
70
4
71
3
72
8
73
4
40
0
40
0
40
0
40
0
40
1
40
1
40
1
40
1
41
1
10
18.6500970101363
20
1.13499993563695
30
0
41
1
10
18.6654992811023
20
1.13499578013813
30
0
41
1
10
18.6809170043504
20
1.1348731478048
30
0
41
1
10
18.6963510980468
20
1.13463247229228
30
0
0
SPLINE
5
1D2
100
AcDbEntity
8
1
62
256
6
ByLayer
370
18
48
1
60
0
100
AcDbSpline
70
4
71
3
72
16
73
12
40
0
40
0
40
0
40
0
40
0.249999999999988
40
0.249999999999988
40
0.499999999999976
40
0.499999999999976
40
0.749999999999964
40
0.749999999999964
40
0.874999999999982
40
0.874999999999982
40
1
40
1
40
1
40
1
41
1
10
18.6963510980467
20
1.13463247229228
30
0
41
1
10
18.7223327640893
20
1.13422732049565
30
0
41
1
10
18.748241101575
20
1.13517900641679
30
0
41
1
10
18.7997447506086
20
1.13984144198287
30
0
41
1
10
18.8253395070834
20
1.14354889491869
30
0
41
1
10
18.8761174862574
20
1.15388472608868
30
0
41
1
10
18.9013021300711
20
1.16050888483141
30
0
41
1
10
18.9387432756308
20
1.17293537495647
30
0
41
1
10
18.9511929510462
20
1.17750584280978
30
0
41
1
10
18.9758329000884
20
1.18749882367996
30
0
41
1
10
18.9880067517593
20
1.19291120215908
30
0
41
1
10
19.0000000000001
20
1.19873521726868
30
0
0
SPLINE
5
1D3
100
AcDbEntity
8
1
62
256
6
ByLayer
370
18
48
1
60
0
100
AcDbSpline
70
4
71
3
72
24
73
20
40
0
40
0
40
0
40
0
40
0.12500000000001
40
0.12500000000001
40
0.25000000000002
40
0.25000000000002
40
0.375000000000029
40
0.375000000000029
40
0.500000000000039
40
0.500000000000039
40
0.625000000000049
40
0.625000000000049
40
0.750000000000059
40
0.750000000000059
40
0.812500000000065
40
0.812500000000065
40
0.87500000000007
40
0.87500000000007
40
1
40
1
40
1
40
1
41
1
10
22.0020680585708
20
-0.283800303371663
30
0
41
1
10
22.0055935207591
20
-0.285932776005183
30
0
41
1
10
22.0097124297977
20
-0.288448975098845
30
0
41
1
10
22.0188975683118
20
-0.294078880627325
30
0
41
1
10
22.0240288940137
20
-0.297233231411468
30
0
41
1
10
22.0348479616917
20
-0.303905486420007
30
0
41
1
10
22.0405364034692
20
-0.307423649492534
30
0
41
1
10
22.0524459585892
20
-0.314833065700952
30
0
41
1
10
22.0585852381702
20
-0.318673867970602
30
0
41
1
10
22.0709561001209
20
-0.326493375193195
30
0
41
1
10
22.0772583917428
20
-0.330516313879343
30
0
41
1
10
22.0899022641555
20
-0.338726470423495
30
0
41
1
10
22.0960865696757
20
-0.342811142829021
30
0
41
1
10
22.1051075935381
20
-0.348929014992081
30
0
41
1
10
22.1080922928432
20
-0.350981450200578
30
0
41
1
10
22.113815355597
20
-0.354985005559627
30
0
41
1
10
22.1165616762124
20
-0.356941029967544
30
0
41
1
10
22.124420970325
20
-0.362661822252079
30
0
41
1
10
22.1291765114389
20
-0.366301460466644
30
0
41
1
10
22.1329831849339
20
-0.369451861587834
30
0
0
SPLINE
5
1D4
100
AcDbEntity
8
1
62
256
6
ByLayer
370
18
48
1
60
0
100
AcDbSpline
70
4
71
3
72
10
73
6
40
0
40
0
40
0
40
0
40
0.5
40
0.5
40
1
40
1
40
1
40
1
41
1
10
22.1329831849339
20
-0.369451861587834
30
0
41
1
10
22.1620076386892
20
-0.393472485309189
30
0
41
1
10
22.1909218343819
20
-0.419498423330168
30
0
41
1
10
22.2484756851583
20
-0.475360500386643
30
0
41
1
10
22.2770847124894
20
-0.505157688765763
30
0
41
1
10
22.3055464134005
20
-0.536740735141507
30
0
0
SPLINE
5
1D5
100
AcDbEntity
8
1
62
256
6
ByLayer
370
18
48
1
60
0
100
AcDbSpline
70
4
71
3
72
8
73
4
40
0
40
0
40
0
40
0
40
1
40
1
40
1
40
1
41
1
10
22.3454335511485
20
-0.567686198914799
30
0
41
1
10
22.3321375499936
20
-0.557410710448352
30
0
41
1
10
22.3188417211594
20
-0.54709566636609
30
0
41
1
10
22.3055464134002
20
-0.53674073514199
30
0
0
SPLINE
5
1D6
100
AcDbEntity
8
1
62
256
6
ByLayer
370
18
48
1
60
0
100
AcDbSpline
70
4
71
3
72
8
73
4
40
0
40
0
40
0
40
0
40
1
40
1
40
1
40
1
41
1
10
22.3454335511478
20
-0.567686198911076
30
0
41
1
10
22.4043352489171
20
-0.592213217779545
30
0
41
1
10
22.4639854874107
20
-0.607177985501579
30
0
41
1
10
22.5245159286594
20
-0.611945047470471
30
0
0
SPLINE
5
1D7
100
AcDbEntity
8
1
62
256
6
ByLayer
370
18
48
1
60
0
100
AcDbSpline
70
4
71
3
72
24
73
20
40
0
40
0
40
0
40
0
40
0.125
40
0.125
40
0.25
40
0.25
40
0.375000000000001
40
0.375000000000001
40
0.500000000000001
40
0.500000000000001
40
0.625000000000001
40
0.625000000000001
40
0.750000000000001
40
0.750000000000001
40
0.812500000000001
40
0.812500000000001
40
0.875000000000001
40
0.875000000000001
40
1
40
1
40
1
40
1
41
1
10
22.5245159286594
20
-0.611945047470471
30
0
41
1
10
22.5280480759701
20
-0.612223220977739
30
0
41
1
10
22.5321762409589
20
-0.613063641834117
30
0
41
1
10
22.5413832085603
20
-0.615626516814444
30
0
41
1
10
22.5465278518606
20
-0.617379382341682
30
0
41
1
10
22.5573718102164
20
-0.621606858481755
30
0
41
1
10
22.5630719505086
20
-0.62407490563038
30
0
41
1
10
22.5750025362592
20
-0.629718956175907
30
0
41
1
10
22.5811452939152
20
-0.63285689697841
30
0
41
1
10
22.5935216247101
20
-0.639667011379174
30
0
41
1
10
22.5998301686727
20
-0.64337945961492
30
0
41
1
10
22.6124506935262
20
-0.651393586478719
30
0
41
1
10
22.618621857588
20
-0.655601863188906
30
0
41
1
10
22.6276210026509
20
-0.662286669747687
30
0
41
1
10
22.6305974678651
20
-0.664594873898977
30
0
41
1
10
22.6363025137782
20
-0.669240907825724
30
0
41
1
10
22.6390402776316
20
-0.671583941857705
30
0
41
1
10
22.6468756628064
20
-0.678680849639619
30
0
41
1
10
22.6516185227209
20
-0.683537901948739
30
0
41
1
10
22.6554195971673
20
-0.688194146249799
30
0
0
SPLINE
5
1D8
100
AcDbEntity
8
1
62
256
6
ByLayer
370
18
48
1
60
0
100
AcDbSpline
70
4
71
3
72
12
73
8
40
0
40
0
40
0
40
0
40
0.5
40
0.5
40
0.75
40
0.75
40
1
40
1
40
1
40
1
41
1
10
22.6554195971686
20
-0.688194146251391
30
0
41
1
10
22.6844488180048
20
-0.723754392701125
30
0
41
1
10
22.7133523901226
20
-0.761047025728004
30
0
41
1
10
22.7564580061552
20
-0.819488748507723
30
0
41
1
10
22.7707773061115
20
-0.839408343653787
30
0
41
1
10
22.7993248765583
20
-0.879894818562349
30
0
41
1
10
22.8135618147564
20
-0.900442817903269
30
0
41
1
10
22.8277647881355
20
-0.921313782173399
30
0
0
SPLINE
5
1D9
100
AcDbEntity
8
1
62
256
6
ByLayer
370
18
48
1
60
0
100
AcDbSpline
70
4
71
3
72
8
73
4
40
0
40
0
40
0
40
0
40
1
40
1
40
1
40
1
41
1
10
22.868277588751
20
-0.948572422509528
30
0
41
1
10
22.8547754069662
20
-0.93955807207729
30
0
41
1
10
22.8412654340134
20
-0.930477183040637
30
0
41
1
10
22.8277647881352
20
-0.921313782173655
30
0
0
SPLINE
5
1DA
100
AcDbEntity
8
1
62
256
6
ByLayer
370
18
48
1
60
0
100
AcDbSpline
70
4
71
3
72
10
73
6
40
0
40
0
40
0
40
0
40
0.5
40
0.5
40
1
40
1
40
1
40
1
41
1
10
22.8682775887502
20
-0.948572422502565
30
0
41
1
10
22.8976624202815
20
-0.944682553161954
30
0
41
1
10
22.9272213722413
20
-0.938338322768232
30
0
41
1
10
22.9868843094931
20
-0.920491707850346
30
0
41
1
10
23.0168926382523
20
-0.909035919295491
30
0
41
1
10
23.0471693468021
20
-0.895019804362818
30
0
0
SPLINE
5
1DB
100
AcDbEntity
8
1
62
256
6
ByLayer
370
18
48
1
60
0
100
AcDbSpline
70
4
71
3
72
8
73
4
40
0
40
0
40
0
40
0
40
1
40
1
40
1
40
1
41
1
10
23.3907519362068
20
-1.25136514398616
30
0
41
1
10
23.3774241716053
20
-1.2448811808967
30
0
41
1
10
23.3640997034723
20
-1.23830124598641
30
0
41
1
10
23.3507784850374
20
-1.23162533951407
30
0
0
SPLINE
5
1DC
100
AcDbEntity
8
1
62
256
6
ByLayer
370
18
48
1
60
0
100
AcDbSpline
70
4
71
3
72
12
73
8
40
0
40
0
40
0
40
0
40
0.25000000000001
40
0.25000000000001
40
0.50000000000002
40
0.50000000000002
40
1
40
1
40
1
40
1
41
1
10
24.2897379306374
20
-1.35648512882477
30
0
41
1
10
24.3152376881449
20
-1.35176911638362
30
0
41
1
10
24.3408502018156
20
-1.34654313672499
30
0
41
1
10
24.3923252554281
20
-1.33507368179835
30
0
41
1
10
24.4181461929583
20
-1.32883733308347
30
0
41
1
10
24.4955649072199
20
-1.30873490044283
30
0
41
1
10
24.5472695844383
20
-1.29344069405877
30
0
41
1
10
24.5992049249826
20
-1.276360494313
30
0
0
SPLINE
5
1DD
100
AcDbEntity
8
1
62
256
6
ByLayer
370
18
48
1
60
0
100
AcDbSpline
70
4
71
3
72
8
73
4
40
0
40
0
40
0
40
0
40
1
40
1
40
1
40
1
41
1
10
24.5992049249829
20
-1.27636049431294
30
0
41
1
10
24.6043822012206
20
-1.26766195640832
30
0
41
1
10
24.6095669696778
20
-1.2589286212442
30
0
41
1
10
24.6147588416812
20
-1.2501621645136
30
0
0
SPLINE
5
1DE
100
AcDbEntity
8
1
62
256
6
ByLayer
370
18
48
1
60
0
100
AcDbSpline
70
4
71
3
72
22
73
18
40
0
40
0
40
0
40
0
40
0.125
40
0.125
40
0.25
40
0.25
40
0.375
40
0.375
40
0.5
40
0.5
40
0.625
40
0.625
40
0.75
40
0.75
40
0.875
40
0.875
40
1
40
1
40
1
40
1
41
1
10
24.6147588416812
20
-1.2501621645136
30
0
41
1
10
24.6177977283181
20
-1.24503101563539
30
0
41
1
10
24.62128016932
20
-1.24045119506712
30
0
41
1
10
24.6289643529882
20
-1.23217861855017
30
0
41
1
10
24.6331873322715
20
-1.22847609465404
30
0
41
1
10
24.6422389775007
20
-1.22197400621732
30
0
41
1
10
24.64697909604
20
-1.21923248021545
30
0
41
1
10
24.656849710411
20
-1.2146915510553
30
0
41
1
10
24.6620255302466
20
-1.21288509338086
30
0
41
1
10
24.6724938607475
20
-1.21032459845975
30
0
41
1
10
24.6777918198713
20
-1.20955692025416
30
0
41
1
10
24.6885064570852
20
-1.20908253693656
30
0
41
1
10
24.6939788959035
20
-1.20938626477224
30
0
41
1
10
24.7047290132599
20
-1.21118154015247
30
0
41
1
10
24.7099986754371
20
-1.21265585177005
30
0
41
1
10
24.720282183141
20
-1.21692730678853
30
0
41
1
10
24.725291873884
20
-1.21974534670935
30
0
41
1
10
24.72988037922
20
-1.22321511951927
30
0
0
SPLINE
5
1DF
100
AcDbEntity
8
1
62
256
6
ByLayer
370
18
48
1
60
0
100
AcDbSpline
70
4
71
3
72
19
73
15
40
0
40
0
40
0
40
0
40
0.249999999999898
40
0.249999999999898
40
0.312499999999892
40
0.312499999999892
40
0.374999999999885
40
0.499999999999898
40
0.499999999999898
40
0.74999999999995
40
0.74999999999995
40
0.874999999999975
40
0.874999999999975
40
1
40
1
40
1
40
1
41
1
10
25.1000000000001
20
-0.823769739188492
30
0
41
1
10
25.0669009957946
20
-0.855766441080647
30
0
41
1
10
25.0341920959009
20
-0.888991655196151
30
0
41
1
10
24.9935561789382
20
-0.931662731260502
30
0
41
1
10
24.9854340191563
20
-0.940261913693035
30
0
41
1
10
24.9693616808005
20
-0.957398190673359
30
0
41
1
10
24.9454521430148
20
-0.983071278180148
30
0
41
1
10
24.9220735343204
20
-1.00862758686264
30
0
41
1
10
24.8758883041916
20
-1.05952250624833
30
0
41
1
10
24.8458559168229
20
-1.09316337540821
30
0
41
1
10
24.8015526443847
20
-1.14292963550315
30
0
41
1
10
24.7868957899702
20
-1.15942031644892
30
0
41
1
10
24.7581631743138
20
-1.19168868198921
30
0
41
1
10
24.7440247687524
20
-1.20752757797695
30
0
41
1
10
24.72988037922
20
-1.22321511952194
30
0
0
SPLINE
5
1E0
100
AcDbEntity
8
1
62
256
6
ByLayer
370
18
48
1
60
0
100
AcDbSpline
70
4
71
3
72
30
73
26
40
0
40
0
40
0
40
0
40
0.054512337517745
40
0.054512337517745
40
0.0908772476132163
40
0.0908772476132163
40
0.127242157708688
40
0.127242157708688
40
0.418161438472459
40
0.418161438472459
40
0.563621078854344
40
0.563621078854344
40
0.709080719236229
40
0.709080719236229
40
0.781810539427172
40
0.781810539427172
40
0.818175449522643
40
0.818175449522643
40
0.854540359618115
40
0.854540359618115
40
0.890905269713586
40
0.890905269713586
40
0.927270179809057
40
0.927270179809057
40
1
40
1
40
1
40
1
41
1
10
25.1
20
-0.458904739190871
30
0
41
1
10
25.1
20
-0.458927288066349
30
0
41
1
10
25.1
20
-0.459693516857698
30
0
41
1
10
25.1
20
-0.46222030672638
30
0
41
1
10
25.1
20
-0.463571745735123
30
0
41
1
10
25.1
20
-0.466962871980087
30
0
41
1
10
25.1
20
-0.469024101814625
30
0
41
1
10
25.1
20
-0.488098053241487
30
0
41
1
10
25.1
20
-0.512144930020895
30
0
41
1
10
25.1
20
-0.558729539201124
30
0
41
1
10
25.1
20
-0.57601053557002
30
0
41
1
10
25.1
20
-0.614165886892181
30
0
41
1
10
25.1
20
-0.635097694310105
30
0
41
1
10
25.1
20
-0.668781239287682
30
0
41
1
10
25.1
20
-0.680399564205231
30
0
41
1
10
25.1
20
-0.6984287436714
30
0
41
1
10
25.1
20
-0.704502187076997
30
0
41
1
10
25.1
20
-0.717124170885285
30
0
41
1
10
25.1
20
-0.723711710679567
30
0
41
1
10
25.1
20
-0.737381629688855
30
0
41
1
10
25.1
20
-0.744469094124952
30
0
41
1
10
25.1
20
-0.759166136657171
30
0
41
1
10
25.1
20
-0.766797965587642
30
0
41
1
10
25.1
20
-0.790236986085972
30
0
41
1
10
25.1
20
-0.806628857176321
30
0
41
1
10
25.1
20
-0.823769739188805
30
0
0
SPLINE
5
1E1
100
AcDbEntity
8
1
62
256
6
ByLayer
370
18
48
1
60
0
100
AcDbSpline
70
4
71
3
72
18
73
14
40
0
40
0
40
0
40
0
40
0.124999999999972
40
0.124999999999972
40
0.187499999999969
40
0.187499999999969
40
0.249999999999967
40
0.249999999999967
40
0.499999999999978
40
0.499999999999978
40
0.749999999999989
40
0.749999999999989
40
1
40
1
40
1
40
1
41
1
10
24.6785011011407
20
-0.465975308880957
30
0
41
1
10
24.6965291338651
20
-0.466554925788444
30
0
41
1
10
24.7146402573597
20
-0.46663935144403
30
0
41
1
10
24.7419774762958
20
-0.465903143778036
30
0
41
1
10
24.7511301491651
20
-0.465468745425369
30
0
41
1
10
24.7694420741366
20
-0.464516418173105
30
0
41
1
10
24.7785774228285
20
-0.464089873894636
30
0
41
1
10
24.8240570171701
20
-0.462528883335068
30
0
41
1
10
24.859932413032
20
-0.462647598769422
30
0
41
1
10
24.9306413304827
20
-0.464662870851782
30
0
41
1
10
24.9654823718993
20
-0.466546209248435
30
0
41
1
10
25.0338528877967
20
-0.471703057610029
30
0
41
1
10
25.0673871368748
20
-0.474976696160439
30
0
41
1
10
25.1
20
-0.478843304150899
30
0
0
SPLINE
5
1E2
100
AcDbEntity
8
1
62
256
6
ByLayer
370
18
48
1
60
0
100
AcDbSpline
70
4
71
3
72
8
73
4
40
0
40
0
40
0
40
0
40
1
40
1
40
1
40
1
41
1
10
24.678501101141
20
-0.465975308880957
30
0
41
1
10
24.6724504130302
20
-0.46320110930904
30
0
41
1
10
24.6664033004774
20
-0.460404681600835
30
0
41
1
10
24.6603596007719
20
-0.45758611751026
30
0
0
SPLINE
5
1E3
100
AcDbEntity
8
1
62
256
6
ByLayer
370
18
48
1
60
0
100
AcDbSpline
70
4
71
3
72
8
73
4
40
0
40
0
40
0
40
0
40
1
40
1
40
1
40
1
41
1
10
24.6603596007719
20
-0.45758611751026
30
0
41
1
10
24.6523370230586
20
-0.444405239815666
30
0
41
1
10
24.6443014257367
20
-0.431335263366577
30
0
41
1
10
24.6362519449371
20
-0.418375821121998
30
0
0
SPLINE
5
1E4
100
AcDbEntity
8
1
62
256
6
ByLayer
370
18
48
1
60
0
100
AcDbSpline
70
4
71
3
72
22
73
18
40
0
40
0
40
0
40
0
40
0.125
40
0.125
40
0.25
40
0.25
40
0.375
40
0.375
40
0.5
40
0.5
40
0.625
40
0.625
40
0.75
40
0.75
40
0.875
40
0.875
40
1
40
1
40
1
40
1
41
1
10
24.6362519449372
20
-0.418375821122026
30
0
41
1
10
24.6328047781881
20
-0.412825977659622
30
0
41
1
10
24.6287894273206
20
-0.407355455452802
30
0
41
1
10
24.6198306495576
20
-0.396551311547597
30
0
41
1
10
24.6148292083091
20
-0.391168975132217
30
0
41
1
10
24.6042513585612
20
-0.380861980091055
30
0
41
1
10
24.5986704464953
20
-0.375919595058434
30
0
41
1
10
24.5869367197171
20
-0.366442626156669
30
0
41
1
10
24.5808142793755
20
-0.361942227690975
30
0
41
1
10
24.5684655953653
20
-0.353711298751676
30
0
41
1
10
24.5621853380456
20
-0.349934103669085
30
0
41
1
10
24.5493977873458
20
-0.343151030301954
30
0
41
1
10
24.5430447070985
20
-0.340232245191317
30
0
41
1
10
24.5307514728532
20
-0.335613456127476
30
0
41
1
10
24.5247532519294
20
-0.333905359806664
30
0
41
1
10
24.5140022474271
20
-0.332194959593352
30
0
41
1
10
24.509143541687
20
-0.332178556253979
30
0
41
1
10
24.5052992223761
20
-0.333199711662104
30
0
0
SPLINE
5
1E5
100
AcDbEntity
8
1
62
256
6
ByLayer
370
18
48
1
60
0
100
AcDbSpline
70
4
71
3
72
8
73
4
40
0
40
0
40
0
40
0
40
1
40
1
40
1
40
1
41
1
10
24.5052992223745
20
-0.333199711662559
30
0
41
1
10
24.4844961193212
20
-0.338725579697552
30
0
41
1
10
24.4637160259487
20
-0.343048012688087
30
0
41
1
10
24.4429824297035
20
-0.346127452462071
30
0
0
SPLINE
5
1E6
100
AcDbEntity
8
1
62
256
6
ByLayer
370
18
48
1
60
0
100
AcDbSpline
70
4
71
3
72
8
73
4
40
0
40
0
40
0
40
0
40
1
40
1
40
1
40
1
41
1
10
24.4429824297035
20
-0.3461274524619
30
0
41
1
10
24.3684154986785
20
-0.30447793467934
30
0
41
1
10
24.2946634953008
20
-0.259778156283716
30
0
41
1
10
24.2214330614098
20
-0.212277797491396
30
0
0
SPLINE
5
1E7
100
AcDbEntity
8
1
62
256
6
ByLayer
370
18
48
1
60
0
100
AcDbSpline
70
4
71
3
72
8
73
4
40
0
40
0
40
0
40
0
40
1
40
1
40
1
40
1
41
1
10
23.7708385676573
20
0.119115643738724
30
0
41
1
10
23.7843544930171
20
0.107794731172675
30
0
41
1
10
23.7978680069217
20
0.0964661395922803
30
0
41
1
10
23.8113804327679
20
0.0851314464867414
30
0
0
SPLINE
5
1E8
100
AcDbEntity
8
1
62
256
6
ByLayer
370
18
48
1
60
0
100
AcDbSpline
70
4
71
3
72
8
73
4
40
0
40
0
40
0
40
0
40
1
40
1
40
1
40
1
41
1
10
23.248665501439
20
0.545864196965624
30
0
41
1
10
23.2619638990167
20
0.535410148199276
30
0
41
1
10
23.2752602791659
20
0.524915357351318
30
0
41
1
10
23.2885559140535
20
0.514381283976491
30
0
0
SPLINE
5
1E9
100
AcDbEntity
8
1
62
256
6
ByLayer
370
18
48
1
60
0
100
AcDbSpline
70
4
71
3
72
8
73
4
40
0
40
0
40
0
40
0
40
1
40
1
40
1
40
1
41
1
10
22.203425304538
20
1.2380027867377
30
0
41
1
10
22.2167931157143
20
1.23128809840208
30
0
41
1
10
22.2301587695446
20
1.22447648767954
30
0
41
1
10
22.2435235500805
20
1.21756896382155
30
0
0
SPLINE
5
1EA
100
AcDbEntity
8
1
62
256
6
ByLayer
370
18
48
1
60
0
100
AcDbSpline
70
4
71
3
72
8
73
4
40
0
40
0
40
0
40
0
40
1
40
1
40
1
40
1
41
1
10
21.6803867969147
20
1.44749043553969
30
0
41
1
10
21.6938900745334
20
1.44353207320739
30
0
41
1
10
21.7073905632211
20
1.43945689571913
30
0
41
1
10
21.7208899473649
20
1.43526569479312
30
0
0
SPLINE
5
1EB
100
AcDbEntity
8
1
62
256
6
ByLayer
370
18
48
1
60
0
100
AcDbSpline
70
4
71
3
72
10
73
6
40
0
40
0
40
0
40
0
40
0.5
40
0.5
40
1
40
1
40
1
40
1
41
1
10
21.6803867969149
20
1.44749043553961
30
0
41
1
10
21.650776275281
20
1.41483769698607
30
0
41
1
10
21.6210151475156
20
1.38009316636575
30
0
41
1
10
21.5610342404451
20
1.3064435041243
30
0
41
1
10
21.5309087124255
20
1.26767300002831
30
0
41
1
10
21.500553343723
20
1.22692813920383
30
0
0
SPLINE
5
1EC
100
AcDbEntity
8
SK1
62
256
6
ByLayer
370
18
48
1
60
0
100
AcDbSpline
70
4
71
3
72
20
73
16
40
0
40
0
40
0
40
0
40
0.249887114628389
40
0.249887114628389
40
0.499774229256778
40
0.499774229256778
40
0.624717786570973
40
0.624717786570973
40
0.68718956522807
40
0.68718956522807
40
0.749661343885167
40
0.749661343885167
40
0.999548458513556
40
0.999548458513556
40
1
40
1
40
1
40
1
41
1
10
-20
20
1.59999999999997
30
0
41
1
10
-20.0453523828625
20
1.59999999999997
30
0
41
1
10
-20.0877808642702
20
1.59999999999997
30
0
41
1
10
-20.1644957611246
20
1.59999999999997
30
0
41
1
10
-20.1988152848626
20
1.59999999999997
30
0
41
1
10
-20.2420791652243
20
1.59999999999997
30
0
41
1
10
-20.2551247387803
20
1.59999999999997
30
0
41
1
10
-20.2723022023542
20
1.59999999999997
30
0
41
1
10
-20.2776291467594
20
1.59999999999997
30
0
41
1
10
-20.2874263514207
20
1.59999999999997
30
0
41
1
10
-20.2918934336552
20
1.59999999999997
30
0
41
1
10
-20.3117764064999
20
1.59999999999997
30
0
41
1
10
-20.3199717917452
20
1.59999999999997
30
0
41
1
10
-20.3199989908011
20
1.59999999999997
30
0
41
1
10
-20.3200010020445
20
1.59999999999997
30
0
41
1
10
-20.3199990128879
20
1.59999999999997
30
0
0
SPLINE
5
1ED
100
AcDbEntity
8
SK1
62
256
6
ByLayer
370
18
48
1
60
0
100
AcDbSpline
70
4
71
3
72
20
73
16
40
0
40
0
40
0
40
0
40
0.0004511386241228
40
0.0004511386241228
40
0.250338353968092
40
0.250338353968092
40
0.312810157804084
40
0.312810157804084
40
0.375281961640076
40
0.375281961640076
40
0.500225569312061
40
0.500225569312061
40
0.750112784656031
40
0.750112784656031
40
1
40
1
40
1
40
1
41
1
10
-20.3199990128701
20
-1.60000000000002
30
0
41
1
10
-20.3200010020011
20
-1.60000000000002
30
0
41
1
10
-20.319998990732
20
-1.60000000000002
30
0
41
1
10
-20.3199717917452
20
-1.60000000000002
30
0
41
1
10
-20.3117764064999
20
-1.60000000000002
30
0
41
1
10
-20.2918934336552
20
-1.60000000000002
30
0
41
1
10
-20.2874263514207
20
-1.60000000000002
30
0
41
1
10
-20.2776291467594
20
-1.60000000000002
30
0
41
1
10
-20.2723022023542
20
-1.60000000000002
30
0
41
1
10
-20.2551247387803
20
-1.60000000000002
30
0
41
1
10
-20.2420791652243
20
-1.60000000000002
30
0
41
1
10
-20.1988152848626
20
-1.60000000000002
30
0
41
1
10
-20.1644957611246
20
-1.60000000000002
30
0
41
1
10
-20.0877808642702
20
-1.60000000000002
30
0
41
1
10
-20.0453523828625
20
-1.60000000000002
30
0
41
1
10
-19.9999999999999
20
-1.60000000000002
30
0
0
SPLINE
5
1EE
100
AcDbEntity
8
SK1
62
256
6
ByLayer
370
18
48
1
60
0
100
AcDbSpline
70
4
71
3
72
32
73
28
40
0
40
0
40
0
40
0
40
0.0625000000000002
40
0.0625000000000002
40
0.125
40
0.125
40
0.25
40
0.25
40
0.375
40
0.375
40
0.40625
40
0.40625
40
0.4375
40
0.4375
40
0.5
40
0.5
40
0.625
40
0.625
40
0.65625
40
0.65625
40
0.6875
40
0.6875
40
0.75
40
0.75
40
0.875
40
0.875
40
1
40
1
40
1
40
1
41
1
10
-19.9999999999999
20
-1.06131993291399
30
0
41
1
10
-20.0225708546327
20
-1.02048772054235
30
0
41
1
10
-20.0445017353721
20
-0.979182811451864
30
0
41
1
10
-20.0868308244225
20
-0.895440932673864
30
0
41
1
10
-20.1071309624083
20
-0.853191704351332
30
0
41
1
10
-20.1648466069862
20
-0.725486857681005
30
0
41
1
10
-20.1991693082676
20
-0.638943873212781
30
0
41
1
10
-20.2567071335369
20
-0.462097568847668
30
0
41
1
10
-20.2799154037426
20
-0.37179192868598
30
0
41
1
10
-20.2998368856739
20
-0.255832956697532
30
0
41
1
10
-20.303368569846
20
-0.232448205550924
30
0
41
1
10
-20.3094147464491
20
-0.185795172859002
30
0
41
1
10
-20.3119387037088
20
-0.162480876931937
30
0
41
1
10
-20.3179967136122
20
-0.0925750536183045
30
0
41
1
10
-20.320013994322
20
-0.0460206619473524
30
0
41
1
10
-20.3199717917452
20
0.0934933102050763
30
0
41
1
10
-20.3117764064999
20
0.186302663018779
30
0
41
1
10
-20.2918934336552
20
0.302078364994031
30
0
41
1
10
-20.2874263514207
20
0.325273867156028
30
0
41
1
10
-20.2776291467594
20
0.371333260284132
30
0
41
1
10
-20.2723022023542
20
0.394196543650907
30
0
41
1
10
-20.2551247387803
20
0.462321496428132
30
0
41
1
10
-20.2420791652244
20
0.507118880788596
30
0
41
1
10
-20.1988152848626
20
0.639907610155575
30
0
41
1
10
-20.1644957611246
20
0.726305610349954
30
0
41
1
10
-20.0877808642702
20
0.895964099867228
30
0
41
1
10
-20.0453523828626
20
0.979274385293564
30
0
41
1
10
-20
20
1.06131993291371
30
0
0
SPLINE
5
1EF
100
AcDbEntity
8
1
62
256
6
ByLayer
370
18
48
1
60
0
100
AcDbSpline
70
4
71
1
72
4
73
2
40
0
40
0
40
1
40
1
41
1
10
24.287539580783
20
-1.37479912385695
30
0
41
1
10
24.6012194233969
20
-1.27503567937325
30
0
0
SPLINE
5
1F0
100
AcDbEntity
8
1
62
256
6
ByLayer
370
18
48
1
60
0
100
AcDbSpline
70
4
71
2
72
6
73
3
40
0
40
0
40
0
40
1
40
1
40
1
41
1
10
23.9967621425662
20
-1.45406649198421
30
0
41
1
10
24.0571049654506
20
-1.35010805428811
30
0
41
1
10
24.1175795324058
20
-1.24623509591206
30
0
0
SPLINE
5
1F1
100
AcDbEntity
8
1
62
256
6
ByLayer
370
18
48
1
60
0
100
AcDbSpline
70
4
71
1
72
4
73
2
40
0
40
0
40
1
40
1
41
1
10
23.8885761902178
20
-1.50270139839304
30
0
41
1
10
23.9894704841395
20
-1.47058413193906
30
0
0
SPLINE
5
1F2
100
AcDbEntity
8
1
62
256
6
ByLayer
370
18
48
1
60
0
100
AcDbSpline
70
4
71
1
72
4
73
2
40
0
40
0
40
1
40
1
41
1
10
22.8132224333085
20
-1.39728012421026
30
0
41
1
10
22.8961779465594
20
-1.54037948652441
30
0
0
SPLINE
5
1F3
100
AcDbEntity
8
1
62
256
6
ByLayer
370
18
48
1
60
0
100
AcDbSpline
70
4
71
1
72
4
73
2
40
0
40
0
40
1
40
1
41
1
10
22.7708077419682
20
1.41255592581842
30
0
41
1
10
22.6961757654765
20
1.54106822701149
30
0
0
SPLINE
5
1F4
100
AcDbEntity
8
1
62
256
6
ByLayer
370
18
48
1
60
0
100
AcDbSpline
70
4
71
2
72
6
73
3
40
0
40
0
40
0
40
1
40
1
40
1
41
1
10
20.6479238579597
20
-1.2222404511835
30
0
41
1
10
20.6535900418783
20
-1.22122033102727
30
0
41
1
10
20.6603407856317
20
-1.22091038580629
30
0
0
SPLINE
5
1F5
100
AcDbEntity
8
1
62
256
6
ByLayer
370
18
48
1
60
0
100
AcDbSpline
70
4
71
2
72
6
73
3
40
0
40
0
40
0
40
1
40
1
40
1
41
1
10
21.1283440589858
20
1.5087135974307
30
0
41
1
10
21.0510294724793
20
1.37549244952132
30
0
41
1
10
20.9736669399759
20
1.24258252120188
30
0
0
SPLINE
5
1F6
100
AcDbEntity
8
1
62
256
6
ByLayer
370
18
48
1
60
0
100
AcDbSpline
70
4
71
2
72
6
73
3
40
0
40
0
40
0
40
1
40
1
40
1
41
1
10
20.5100966275349
20
-1.43098240869401
30
0
41
1
10
20.5639127612294
20
-1.33832940303617
30
0
41
1
10
20.6177681480721
20
-1.24582189916504
30
0
0
SPLINE
5
1F7
100
AcDbEntity
8
1
62
256
6
ByLayer
370
18
48
1
60
0
100
AcDbSpline
70
4
71
2
72
6
73
3
40
0
40
0
40
0
40
1
40
1
40
1
41
1
10
21.3675317259832
20
1.24611410244267
30
0
41
1
10
21.2868597018188
20
1.38469672079421
30
0
41
1
10
21.2063911443697
20
1.5234076903989
30
0
0
SPLINE
5
1F8
100
AcDbEntity
8
1
62
256
6
ByLayer
370
18
48
1
60
0
100
AcDbSpline
70
4
71
2
72
6
73
3
40
0
40
0
40
0
40
1
40
1
40
1
41
1
10
24.2254986582445
20
-1.24609697325971
30
0
41
1
10
24.2634601395368
20
-1.31141355132416
30
0
41
1
10
24.3013752548982
20
-1.37675683939824
30
0
0
SPLINE
5
1F9
100
AcDbEntity
8
1
62
256
6
ByLayer
370
18
48
1
60
0
100
AcDbSpline
70
4
71
3
72
11
73
7
40
0
40
0
40
0
40
0
40
0.243815781617953
40
0.499528763424403
40
0.75556280291251
40
1
40
1
40
1
40
1
41
1
10
21.4762940586816
20
1.24727949001627
30
0
41
1
10
21.4713725712843
20
1.23824446099701
30
0
41
1
10
21.4576600507135
20
1.2244115832147
30
0
41
1
10
21.4198784939936
20
1.21283863964169
30
0
41
1
10
21.3821379187609
20
1.22642849762991
30
0
41
1
10
21.3684201807958
20
1.24166269180583
30
0
41
1
10
21.363501049997
20
1.25140343633586
30
0
0
SPLINE
5
1FA
100
AcDbEntity
8
1
62
256
6
ByLayer
370
18
48
1
60
0
100
AcDbSpline
70
4
71
3
72
11
73
7
40
0
40
0
40
0
40
0
40
0.244829022394286
40
0.500673804938115
40
0.756102229834834
40
1
40
1
40
1
40
1
41
1
10
24.1169120983603
20
-1.24732988338528
30
0
41
1
10
24.1217926344677
20
-1.2383504358846
30
0
41
1
10
24.1354462193881
20
-1.22463530086532
30
0
41
1
10
24.1731568663902
20
-1.21301789603407
30
0
41
1
10
24.2109166808631
20
-1.22655059071707
30
0
41
1
10
24.2245791392963
20
-1.24170091182751
30
0
41
1
10
24.2294732375256
20
-1.2513907550854
30
0
0
SPLINE
5
1FB
100
AcDbEntity
8
1
62
256
6
ByLayer
370
18
48
1
60
0
100
AcDbSpline
70
4
71
2
72
6
73
3
40
0
40
0
40
0
40
1
40
1
40
1
41
1
10
20.22914538365
20
-1.25088325970208
30
0
41
1
10
20.2751833976396
20
-1.33029262905944
30
0
41
1
10
20.321206663069
20
-1.40973669036001
30
0
0
SPLINE
5
1FC
100
AcDbEntity
8
1
62
256
6
ByLayer
370
18
48
1
60
0
100
AcDbSpline
70
4
71
3
72
11
73
7
40
0
40
0
40
0
40
0
40
0.24780234842017
40
0.501409698616971
40
0.754273587558523
40
1
40
1
40
1
40
1
41
1
10
20.1176071126498
20
-1.24576144906297
30
0
41
1
10
20.1220124161551
20
-1.23750320309989
30
0
41
1
10
20.1348209131188
20
-1.22497925112555
30
0
41
1
10
20.1718525445436
20
-1.21306594435649
30
0
41
1
10
20.2089558931951
20
-1.22560118200465
30
0
41
1
10
20.2218120782169
20
-1.23871793812427
30
0
41
1
10
20.22626578303
20
-1.24725944357709
30
0
0
SPLINE
5
1FD
100
AcDbEntity
8
1
62
256
6
ByLayer
370
18
48
1
60
0
100
AcDbSpline
70
4
71
2
72
6
73
3
40
0
40
0
40
0
40
1
40
1
40
1
41
1
10
20.0494249275921
20
-1.36295648950301
30
0
41
1
10
20.0835055760132
20
-1.30432556881436
30
0
41
1
10
20.1176305987192
20
-1.24572115350216
30
0
0
SPLINE
5
1FE
100
AcDbEntity
8
1
62
256
6
ByLayer
370
18
48
1
60
0
100
AcDbSpline
70
4
71
2
72
6
73
3
40
0
40
0
40
0
40
1
40
1
40
1
41
1
10
21.6462485307886
20
1.54015746984982
30
0
41
1
10
21.5609535033352
20
1.39298148677264
30
0
41
1
10
21.4754681271996
20
1.24592668035095
30
0
0
SPLINE
5
1FF
100
AcDbEntity
8
1
62
256
6
ByLayer
370
18
48
1
60
0
100
AcDbSpline
70
4
71
2
72
6
73
3
40
0
40
0
40
0
40
1
40
1
40
1
41
1
10
23.7242018822971
20
-1.24371866359183
30
0
41
1
10
23.8013725186949
20
-1.37641311586222
30
0
41
1
10
23.8783271656659
20
-1.5091996280168
30
0
0
SPLINE
5
200
100
AcDbEntity
8
1
62
256
6
ByLayer
370
18
48
1
60
0
100
AcDbSpline
70
4
71
2
72
6
73
3
40
0
40
0
40
0
40
1
40
1
40
1
41
1
10
21.868848057038
20
1.24366450835802
30
0
41
1
10
21.782977235779
20
1.39114357601932
30
0
41
1
10
21.6974196585559
20
1.53871568866484
30
0
0
SPLINE
5
201
100
AcDbEntity
8
1
62
256
6
ByLayer
370
18
48
1
60
0
100
AcDbSpline
70
4
71
3
72
11
73
7
40
0
40
0
40
0
40
0
40
0.133563273554479
40
0.424315400441961
40
0.715023421541559
40
1
40
1
40
1
40
1
41
1
10
21.9639806046443
20
1.23414931387242
30
0
41
1
10
21.9616272490672
20
1.23085463155769
30
0
41
1
10
21.9524488091479
20
1.22209603051783
30
0
41
1
10
21.9206303402731
20
1.21338168946687
30
0
41
1
10
21.8844870744874
20
1.22551966651622
30
0
41
1
10
21.8719193540092
20
1.23779150446117
30
0
41
1
10
21.8676924018478
20
1.24577902071985
30
0
0
SPLINE
5
202
100
AcDbEntity
8
1
62
256
6
ByLayer
370
18
48
1
60
0
100
AcDbSpline
70
4
71
3
72
11
73
7
40
0
40
0
40
0
40
0
40
0.248125289702868
40
0.500716626053732
40
0.752897489877342
40
1
40
1
40
1
40
1
41
1
10
23.6186827509391
20
-1.24370017615536
30
0
41
1
10
23.6228891733765
20
-1.23607291302434
30
0
41
1
10
23.6353217951776
20
-1.2245795735632
30
0
41
1
10
23.6719734088613
20
-1.21317191436222
30
0
41
1
10
23.7086698638068
20
-1.22557305921714
30
0
41
1
10
23.7211158501322
20
-1.23780940059501
30
0
41
1
10
23.7253403942149
20
-1.24580113956117
30
0
0
SPLINE
5
203
100
AcDbEntity
8
1
62
256
6
ByLayer
370
18
48
1
60
0
100
AcDbSpline
70
4
71
2
72
6
73
3
40
0
40
0
40
0
40
1
40
1
40
1
41
1
10
19.7254806875463
20
-1.2458287615496
30
0
41
1
10
19.7481913533132
20
-1.28486745237044
30
0
41
1
10
19.7708849106598
20
-1.323916521613
30
0
0
SPLINE
5
204
100
AcDbEntity
8
1
62
256
6
ByLayer
370
18
48
1
60
0
100
AcDbSpline
70
4
71
3
72
11
73
7
40
0
40
0
40
0
40
0
40
0.247326557942685
40
0.500578979167499
40
0.753455362421397
40
1
40
1
40
1
40
1
41
1
10
19.6171967675572
20
-1.24667885331854
30
0
41
1
10
19.6215804382657
20
-1.23833767776227
30
0
41
1
10
19.6343364081661
20
-1.22559074440926
30
0
41
1
10
19.6713086734758
20
-1.21320812527909
30
0
41
1
10
19.7083306467608
20
-1.22512991960824
30
0
41
1
10
19.7210908775187
20
-1.23762393345774
30
0
41
1
10
19.7254849818575
20
-1.24583614336356
30
0
0
SPLINE
5
205
100
AcDbEntity
8
1
62
256
6
ByLayer
370
18
48
1
60
0
100
AcDbSpline
70
4
71
2
72
6
73
3
40
0
40
0
40
0
40
1
40
1
40
1
41
1
10
19.5868888879891
20
-1.29813257160717
30
0
41
1
10
19.6009451809979
20
-1.27394697553731
30
0
41
1
10
19.615003512511
20
-1.24976780303521
30
0
0
SPLINE
5
206
100
AcDbEntity
8
1
62
256
6
ByLayer
370
18
48
1
60
0
100
AcDbSpline
70
4
71
3
72
13
73
9
40
0
40
0
40
0
40
0
40
0.240773180002554
40
0.369369036640043
40
0.500714881622904
40
0.631959568164468
40
0.760263324355829
40
1
40
1
40
1
40
1
41
1
10
23.1088027832222
20
-1.25291693663993
30
0
41
1
10
23.1139355897043
20
-1.24244954398881
30
0
41
1
10
23.1249387212484
20
-1.22959874485122
30
0
41
1
10
23.1474035027313
20
-1.21767822920174
30
0
41
1
10
23.1668861534685
20
-1.21387954034103
30
0
41
1
10
23.1863697352282
20
-1.21569224466523
30
0
41
1
10
23.2088292933444
20
-1.2250081847929
30
0
41
1
10
23.2198416372263
20
-1.23578699839973
30
0
41
1
10
23.2249926571388
20
-1.24484147802917
30
0
0
SPLINE
5
207
100
AcDbEntity
8
1
62
256
6
ByLayer
370
18
48
1
60
0
100
AcDbSpline
70
4
71
3
72
13
73
9
40
0
40
0
40
0
40
0
40
0.240039020756117
40
0.368781189581545
40
0.500498637907314
40
0.63217964108869
40
0.760789285878887
40
1
40
1
40
1
40
1
41
1
10
22.4846518155597
20
1.25370523340322
30
0
41
1
10
22.4794534575394
20
1.24315543423003
30
0
41
1
10
22.468383123018
20
1.23018889213284
30
0
41
1
10
22.4458791010937
20
1.21821732953964
30
0
41
1
10
22.4263526466604
20
1.2143729301319
30
0
41
1
10
22.4068255133902
20
1.21615225995706
30
0
41
1
10
22.3843324044961
20
1.22541268247554
30
0
41
1
10
22.3732355447633
20
1.23623406070527
30
0
41
1
10
22.368004166343
20
1.24532327932695
30
0
0
SPLINE
5
208
100
AcDbEntity
8
1
62
256
6
ByLayer
370
18
48
1
60
0
100
AcDbSpline
70
4
71
2
72
6
73
3
40
0
40
0
40
0
40
1
40
1
40
1
41
1
10
23.4465588526377
20
-1.53998085046044
30
0
41
1
10
23.5316610672947
20
-1.39330108164125
30
0
41
1
10
23.6168578469695
20
-1.24690156170962
30
0
0
SPLINE
5
209
100
AcDbEntity
8
1
62
256
6
ByLayer
370
18
48
1
60
0
100
AcDbSpline
70
4
71
2
72
6
73
3
40
0
40
0
40
0
40
1
40
1
40
1
41
1
10
19.1817179881478
20
-1.22047725767089
30
0
41
1
10
19.2123863024005
20
-1.22196940109663
30
0
41
1
10
19.221525127753
20
-1.23888426122554
30
0
0
SPLINE
5
20A
100
AcDbEntity
8
1
62
256
6
ByLayer
370
18
48
1
60
0
100
AcDbSpline
70
4
71
2
72
6
73
3
40
0
40
0
40
0
40
1
40
1
40
1
41
1
10
22.1466279473997
20
1.54080466781537
30
0
41
1
10
22.06154594007
20
1.39395942518666
30
0
41
1
10
21.9763871714069
20
1.24733915826255
30
0
0
SPLINE
5
20B
100
AcDbEntity
8
1
62
256
6
ByLayer
370
18
48
1
60
0
100
AcDbSpline
70
4
71
2
72
6
73
3
40
0
40
0
40
0
40
1
40
1
40
1
41
1
10
23.2253345679252
20
-1.24543374478375
30
0
41
1
10
23.3115843248339
20
-1.39375163962345
30
0
41
1
10
23.3976147047737
20
-1.54205069482472
30
0
0
SPLINE
5
20C
100
AcDbEntity
8
1
62
256
6
ByLayer
370
18
48
1
60
0
100
AcDbSpline
70
4
71
2
72
6
73
3
40
0
40
0
40
0
40
1
40
1
40
1
41
1
10
22.3667130744527
20
1.24750685555028
30
0
41
1
10
22.2807880840129
20
1.39515864784744
30
0
41
1
10
22.1951689490363
20
1.54268263585769
30
0
0
SPLINE
5
20D
100
AcDbEntity
8
1
62
256
6
ByLayer
370
18
48
1
60
0
100
AcDbSpline
70
4
71
2
72
6
73
3
40
0
40
0
40
0
40
1
40
1
40
1
41
1
10
24.6283128045863
20
-1.22946918384068
30
0
41
1
10
24.6301057391221
20
-1.22958287864839
30
0
41
1
10
24.6359226092652
20
-1.22666288519432
30
0
0
SPLINE
5
20E
100
AcDbEntity
8
1
62
256
6
ByLayer
370
18
48
1
60
0
100
AcDbSpline
70
4
71
2
72
6
73
3
40
0
40
0
40
0
40
1
40
1
40
1
41
1
10
24.5927497948548
20
-1.28875650417018
30
0
41
1
10
24.6051595493789
20
-1.26742756039752
30
0
41
1
10
24.6175754054494
20
-1.24610254035298
30
0
0
LINE
5
81
100
AcDbEntity
8
80
62
256
6
ByLayer
370
18
48
1
60
0
100
AcDbLine
10
0
20
0
30
0
11
-5
21
0
31
0
39
0
210
0
220
0
230
1
0
LINE
5
82
100
AcDbEntity
8
4
62
256
6
ByLayer
370
18
48
0.05
60
0
100
AcDbLine
10
0
20
0
30
0
11
25.1
21
0
31
0
39
0
210
0
220
0
230
1
0
LINE
5
84
100
AcDbEntity
8
81
62
256
6
ByLayer
370
18
48
1
60
0
100
AcDbLine
10
25.1
20
0
30
0
11
30.1
21
0
31
0
39
0
210
0
220
0
230
1
0
LINE
5
85
100
AcDbEntity
8
SK4
62
256
6
ByLayer
370
18
48
0.05
60
0
100
AcDbLine
10
-21
20
0
30
0
11
25.1
21
0
31
0
39
0
210
0
220
0
230
1
0
LINE
5
87
100
AcDbEntity
8
1
62
256
6
ByLayer
370
18
48
1
60
0
100
AcDbLine
10
0
20
2
30
0
11
0
21
-2
31
0
39
0
210
0
220
0
230
1
0
LINE
5
88
100
AcDbEntity
8
1
62
256
6
ByLayer
370
13
48
1
60
0
100
AcDbLine
10
20.977912
20
1.24954
30
0
11
20.973822
21
1.242899
31
0
39
0
210
0
220
0
230
1
0
LINE
5
89
100
AcDbEntity
8
1
62
256
6
ByLayer
370
18
48
1
60
0
100
AcDbLine
10
20.973822
20
1.242899
30
0
11
20.970719
21
1.235678
31
0
39
0
210
0
220
0
230
1
0
LINE
5
8A
100
AcDbEntity
8
1
62
256
6
ByLayer
370
18
48
1
60
0
100
AcDbLine
10
20.620335
20
-1.24067
30
0
11
20.617729
21
-1.24589
31
0
39
0
210
0
220
0
230
1
0
LINE
5
8B
100
AcDbEntity
8
1
62
256
6
ByLayer
370
18
48
1
60
0
100
AcDbLine
10
21.13687
20
1.517828
30
0
11
21.141978
21
1.515864
31
0
39
0
210
0
220
0
230
1
0
LINE
5
8C
100
AcDbEntity
8
1
62
256
6
ByLayer
370
18
48
1
60
0
100
AcDbLine
10
21.207949
20
1.520679
30
0
11
21.200861
21
1.52682
31
0
39
0
210
0
220
0
230
1
0
LINE
5
8D
100
AcDbEntity
8
1
62
256
6
ByLayer
370
13
48
1
60
0
100
AcDbLine
10
21.36964
20
1.242051
30
0
11
21.367635
21
1.245936
31
0
39
0
210
0
220
0
230
1
0
LINE
5
8E
100
AcDbEntity
8
1
62
256
6
ByLayer
370
18
48
1
60
0
100
AcDbLine
10
21.367635
20
1.245936
30
0
11
21.36261
21
1.252131
31
0
39
0
210
0
220
0
230
1
0
LINE
5
8F
100
AcDbEntity
8
1
62
256
6
ByLayer
370
18
48
1
60
0
100
AcDbLine
10
20.50721
20
-1.429357
30
0
11
20.500591
21
-1.422751
31
0
39
0
210
0
220
0
230
1
0
LINE
5
90
100
AcDbEntity
8
1
62
256
6
ByLayer
370
18
48
1
60
0
100
AcDbLine
10
24.23037
20
-1.252157
30
0
11
24.22541
21
-1.245944
31
0
39
0
210
0
220
0
230
1
0
LINE
5
91
100
AcDbEntity
8
1
62
256
6
ByLayer
370
13
48
1
60
0
100
AcDbLine
10
24.22541
20
-1.245944
30
0
11
24.223129
21
-1.241472
31
0
39
0
210
0
220
0
230
1
0
LINE
5
92
100
AcDbEntity
8
1
62
256
6
ByLayer
370
18
48
1
60
0
100
AcDbLine
10
20.229042
20
-1.250781
30
0
11
20.226694
21
-1.247901
31
0
39
0
210
0
220
0
230
1
0
LINE
5
93
100
AcDbEntity
8
1
62
256
6
ByLayer
370
18
48
1
60
0
100
AcDbLine
10
21.477419
20
1.248908
30
0
11
21.475346
21
1.245715
31
0
39
0
210
0
220
0
230
1
0
LINE
5
94
100
AcDbEntity
8
1
62
256
6
ByLayer
370
18
48
1
60
0
100
AcDbLine
10
21.86863
20
1.244084
30
0
11
21.866072
21
1.248302
31
0
39
0
210
0
220
0
230
1
0
LINE
5
95
100
AcDbEntity
8
1
62
256
6
ByLayer
370
18
48
1
60
0
100
AcDbLine
10
19
20
-0.783815
30
0
11
19
21
-1.209451
31
0
39
0
210
0
220
0
230
1
0
LINE
5
96
100
AcDbEntity
8
1
62
256
6
ByLayer
370
18
48
1
60
0
100
AcDbLine
10
19
20
1.198735
30
0
11
19
21
0.725834
31
0
39
0
210
0
220
0
230
1
0
LINE
5
97
100
AcDbEntity
8
1
62
256
6
ByLayer
370
18
48
1
60
0
100
AcDbLine
10
23.111597
20
-1.252224
30
0
11
23.108516
21
-1.252903
31
0
39
0
210
0
220
0
230
1
0
LINE
5
98
100
AcDbEntity
8
1
62
256
6
ByLayer
370
18
48
1
60
0
100
AcDbLine
10
22.484901
20
1.253672
30
0
11
22.481218
21
1.252899
31
0
39
0
210
0
220
0
230
1
0
LINE
5
99
100
AcDbEntity
8
1
62
256
6
ByLayer
370
18
48
1
60
0
100
AcDbLine
10
25.1
20
0.865
30
0
11
25.1
21
0.863281
31
0
39
0
210
0
220
0
230
1
0
LINE
5
9A
100
AcDbEntity
8
1
62
256
6
ByLayer
370
18
48
1
60
0
100
AcDbLine
10
24.601581
20
-1.273587
30
0
11
24.599205
21
-1.27636
31
0
39
0
210
0
220
0
230
1
0
LINE
5
9B
100
AcDbEntity
8
1
62
256
6
ByLayer
370
13
48
1
60
0
100
AcDbLine
10
18.696351
20
-1.084118
30
0
11
18.696351
21
-0.592329
31
0
39
0
210
0
220
0
230
1
0
LINE
5
9C
100
AcDbEntity
8
1
62
256
6
ByLayer
370
13
48
1
60
0
100
AcDbLine
10
18.696351
20
0.833066
30
0
11
18.696351
21
1.134632
31
0
39
0
210
0
220
0
230
1
0
LINE
5
9D
100
AcDbEntity
8
1
62
256
6
ByLayer
370
13
48
1
60
0
100
AcDbLine
10
7.069991
20
-1.135
30
0
11
7.069991
21
1.135
31
0
39
0
210
0
220
0
230
1
0
LINE
5
9E
100
AcDbEntity
8
1
62
256
6
ByLayer
370
18
48
1
60
0
100
AcDbLine
10
25.1
20
0.183365
30
0
11
25.1
21
-0.478843
31
0
39
0
210
0
220
0
230
1
0
LINE
5
9F
100
AcDbEntity
8
1
62
256
6
ByLayer
370
18
48
1
60
0
100
AcDbLine
10
21.325828
20
-0.195298
30
0
11
21.325828
21
-0.886828
31
0
39
0
210
0
220
0
230
1
0
LINE
5
A0
100
AcDbEntity
8
1
62
256
6
ByLayer
370
13
48
1
60
0
100
AcDbLine
10
6.931072
20
1.147154
30
0
11
6.931072
21
-1.147154
31
0
39
0
210
0
220
0
230
1
0
LINE
5
A1
100
AcDbEntity
8
1
62
256
6
ByLayer
370
18
48
1
60
0
100
AcDbLine
10
2.094341
20
2
30
0
11
2.094341
21
-2
31
0
39
0
210
0
220
0
230
1
0
LINE
5
A2
100
AcDbEntity
8
SK1
62
256
6
ByLayer
370
18
48
1
60
0
100
AcDbLine
10
-21
20
0.92
30
0
11
-21
21
-0.92
31
0
39
0
210
0
220
0
230
1
0
LINE
5
A4
100
AcDbEntity
8
SK1
62
256
6
ByLayer
370
18
48
1
60
0
100
AcDbLine
10
-15
20
1.6
30
0
11
-14.68
21
1.92
31
0
39
0
210
0
220
0
230
1
0
LINE
5
A5
100
AcDbEntity
8
SK1
62
256
6
ByLayer
370
18
48
1
60
0
100
AcDbLine
10
-20
20
1.6
30
0
11
-15
21
1.6
31
0
39
0
210
0
220
0
230
1
0
LINE
5
A6
100
AcDbEntity
8
SK1
62
256
6
ByLayer
370
18
48
1
60
0
100
AcDbLine
10
-20
20
1.06132
30
0
11
-20
21
1.6
31
0
39
0
210
0
220
0
230
1
0
LINE
5
A7
100
AcDbEntity
8
SK1
62
256
6
ByLayer
370
18
48
1
60
0
100
AcDbLine
10
-15
20
1.06132
30
0
11
-20
21
1.06132
31
0
39
0
210
0
220
0
230
1
0
LINE
5
A8
100
AcDbEntity
8
SK1
62
256
6
ByLayer
370
18
48
1
60
0
100
AcDbLine
10
-20
20
-1.06132
30
0
11
-15
21
-1.06132
31
0
39
0
210
0
220
0
230
1
0
LINE
5
A9
100
AcDbEntity
8
SK1
62
256
6
ByLayer
370
18
48
1
60
0
100
AcDbLine
10
-20
20
-1.6
30
0
11
-20
21
-1.06132
31
0
39
0
210
0
220
0
230
1
0
LINE
5
AA
100
AcDbEntity
8
SK1
62
256
6
ByLayer
370
18
48
1
60
0
100
AcDbLine
10
-15
20
-1.6
30
0
11
-20
21
-1.6
31
0
39
0
210
0
220
0
230
1
0
LINE
5
AB
100
AcDbEntity
8
SK1
62
256
6
ByLayer
370
18
48
1
60
0
100
AcDbLine
10
-15
20
-1.6
30
0
11
-14.68
21
-1.92
31
0
39
0
210
0
220
0
230
1
0
LINE
5
AC
100
AcDbEntity
8
SK1
62
256
6
ByLayer
370
18
48
1
60
0
100
AcDbLine
10
-15
20
1.06132
30
0
11
-15
21
-1.06132
31
0
39
0
210
0
220
0
230
1
0
LINE
5
AD
100
AcDbEntity
8
SK1
62
256
6
ByLayer
370
18
48
1
60
0
100
AcDbLine
10
0
20
2
30
0
11
0
21
-2
31
0
39
0
210
0
220
0
230
1
0
LINE
5
AE
100
AcDbEntity
8
SK1
62
256
6
ByLayer
370
18
48
1
60
0
100
AcDbLine
10
-14.4
20
1.92
30
0
11
-14.4
21
-1.92
31
0
39
0
210
0
220
0
230
1
0
LINE
5
AF
100
AcDbEntity
8
SK1
62
256
6
ByLayer
370
18
48
1
60
0
100
AcDbLine
10
-14.32
20
-2
30
0
11
-14.32
21
2
31
0
39
0
210
0
220
0
230
1
0
LINE
5
B0
100
AcDbEntity
8
1
62
256
6
ByLayer
370
18
48
1
60
0
100
AcDbLine
10
21.198881
20
1.526541
30
0
11
21.135421
21
1.517622
31
0
39
0
210
0
220
0
230
1
0
LINE
5
B1
100
AcDbEntity
8
1
62
256
6
ByLayer
370
18
48
1
60
0
100
AcDbLine
10
20.318531
20
-1.402816
30
0
11
20.505983
21
-1.429161
31
0
39
0
210
0
220
0
230
1
0
LINE
5
B2
100
AcDbEntity
8
1
62
256
6
ByLayer
370
18
48
1
60
0
100
AcDbLine
10
21.690683
20
1.544382
30
0
11
21.652256
21
1.544382
31
0
39
0
210
0
220
0
230
1
0
LINE
5
B3
100
AcDbEntity
8
1
62
256
6
ByLayer
370
18
48
1
60
0
100
AcDbLine
10
19.77405
20
-1.326294
30
0
11
20.042567
21
-1.364032
31
0
39
0
210
0
220
0
230
1
0
LINE
5
B4
100
AcDbEntity
8
1
62
256
6
ByLayer
370
18
48
1
60
0
100
AcDbLine
10
19.231979
20
-1.250111
30
0
11
19.581141
21
-1.299183
31
0
39
0
210
0
220
0
230
1
0
LINE
5
B5
100
AcDbEntity
8
1
62
256
6
ByLayer
370
18
48
1
60
0
100
AcDbLine
10
2.094341
20
2
30
0
11
0
21
2
31
0
39
0
210
0
220
0
230
1
0
LINE
5
B6
100
AcDbEntity
8
1
62
256
6
ByLayer
370
18
48
1
60
0
100
AcDbLine
10
0
20
-2
30
0
11
2.094341
21
-2
31
0
39
0
210
0
220
0
230
1
0
LINE
5
B7
100
AcDbEntity
8
1
62
256
6
ByLayer
370
18
48
1
60
0
100
AcDbLine
10
25.1
20
0.865
30
0
11
25.010808
21
0.954192
31
0
39
0
210
0
220
0
230
1
0
LINE
5
B8
100
AcDbEntity
8
1
62
256
6
ByLayer
370
18
48
1
60
0
100
AcDbLine
10
23.402236
20
-1.544382
30
0
11
23.440573
21
-1.544382
31
0
39
0
210
0
220
0
230
1
0
LINE
5
B9
100
AcDbEntity
8
1
62
256
6
ByLayer
370
18
48
1
60
0
100
AcDbLine
10
22.190656
20
1.544382
30
0
11
22.152166
21
1.544382
31
0
39
0
210
0
220
0
230
1
0
LINE
5
BA
100
AcDbEntity
8
1
62
256
6
ByLayer
370
18
48
1
60
0
100
AcDbLine
10
7.069991
20
-1.135
30
0
11
9.701766
21
-1.135
31
0
39
0
210
0
220
0
230
1
0
LINE
5
BB
100
AcDbEntity
8
1
62
256
6
ByLayer
370
18
48
1
60
0
100
AcDbLine
10
11.551337
20
-1.135
30
0
11
12.853142
21
-1.135
31
0
39
0
210
0
220
0
230
1
0
LINE
5
BC
100
AcDbEntity
8
1
62
256
6
ByLayer
370
18
48
1
60
0
100
AcDbLine
10
15.399049
20
-1.135
30
0
11
16.718798
21
-1.135
31
0
39
0
210
0
220
0
230
1
0
LINE
5
BD
100
AcDbEntity
8
1
62
256
6
ByLayer
370
18
48
1
60
0
100
AcDbLine
10
18.650022
20
1.135
30
0
11
17.322909
21
1.135
31
0
39
0
210
0
220
0
230
1
0
LINE
5
BE
100
AcDbEntity
8
1
62
256
6
ByLayer
370
18
48
1
60
0
100
AcDbLine
10
14.786656
20
1.135
30
0
11
13.473166
21
1.135
31
0
39
0
210
0
220
0
230
1
0
LINE
5
BF
100
AcDbEntity
8
1
62
256
6
ByLayer
370
18
48
1
60
0
100
AcDbLine
10
10.891787
20
1.135
30
0
11
7.069991
21
1.135
31
0
39
0
210
0
220
0
230
1
0
LINE
5
C0
100
AcDbEntity
8
1
62
256
6
ByLayer
370
18
48
1
60
0
100
AcDbLine
10
6.931072
20
1.147154
30
0
11
2.094341
21
2
31
0
39
0
210
0
220
0
230
1
0
LINE
5
C1
100
AcDbEntity
8
1
62
256
6
ByLayer
370
18
48
1
60
0
100
AcDbLine
10
2.094341
20
-2
30
0
11
6.931072
21
-1.147154
31
0
39
0
210
0
220
0
230
1
0
LINE
5
C2
100
AcDbEntity
8
SK1
62
256
6
ByLayer
370
18
48
1
60
0
100
AcDbLine
10
-21
20
-0.92
30
0
11
-20.32
21
-1.6
31
0
39
0
210
0
220
0
230
1
0
LINE
5
C3
100
AcDbEntity
8
SK1
62
256
6
ByLayer
370
18
48
1
60
0
100
AcDbLine
10
-20.32
20
1.6
30
0
11
-21
21
0.92
31
0
39
0
210
0
220
0
230
1
0
LINE
5
C4
100
AcDbEntity
8
SK1
62
256
6
ByLayer
370
18
48
1
60
0
100
AcDbLine
10
-14.4
20
1.92
30
0
11
-14.68
21
1.92
31
0
39
0
210
0
220
0
230
1
0
LINE
5
C5
100
AcDbEntity
8
SK1
62
256
6
ByLayer
370
18
48
1
60
0
100
AcDbLine
10
-14.68
20
-1.92
30
0
11
-14.4
21
-1.92
31
0
39
0
210
0
220
0
230
1
0
LINE
5
C6
100
AcDbEntity
8
SK1
62
256
6
ByLayer
370
18
48
1
60
0
100
AcDbLine
10
0
20
2
30
0
11
-14.32
21
2
31
0
39
0
210
0
220
0
230
1
0
LINE
5
C7
100
AcDbEntity
8
SK1
62
256
6
ByLayer
370
18
48
1
60
0
100
AcDbLine
10
-14.32
20
-2
30
0
11
0
21
-2
31
0
39
0
210
0
220
0
230
1
0
LINE
5
C8
100
AcDbEntity
8
SK1
62
256
6
ByLayer
370
18
48
1
60
0
100
AcDbLine
10
-14.4
20
-1.92
30
0
11
-14.32
21
-2
31
0
39
0
210
0
220
0
230
1
0
LINE
5
C9
100
AcDbEntity
8
SK1
62
256
6
ByLayer
370
18
48
1
60
0
100
AcDbLine
10
-14.32
20
2
30
0
11
-14.4
21
1.92
31
0
39
0
210
0
220
0
230
1
0
LINE
5
CA
100
AcDbEntity
8
SK2
62
256
6
ByLayer
370
18
48
1
60
0
100
AcDbLine
10
1.887171
20
17.157714
30
0
11
1.887171
21
-9.5
31
0
39
0
210
0
220
0
230
1
0
LINE
5
CC
100
AcDbEntity
8
SK2
62
256
6
ByLayer
370
18
48
1
60
0
100
AcDbLine
10
3.681841
20
-2
30
0
11
3.887171
21
-2
31
0
39
0
210
0
220
0
230
1
0
LINE
5
CD
100
AcDbEntity
8
1
62
256
6
ByLayer
370
18
48
1
60
1
100
AcDbLine
10
1.887171
20
2
30
0
11
1.426387
21
5.499998
31
0
39
0
210
0
220
0
230
1
0
LINE
5
CE
100
AcDbEntity
8
1
62
256
6
ByLayer
370
18
48
1
60
1
100
AcDbLine
10
1.426387
20
5.499998
30
0
11
2.347954
21
5.500002
31
0
39
0
210
0
220
0
230
1
0
LINE
5
CF
100
AcDbEntity
8
1
62
256
6
ByLayer
370
18
48
1
60
1
100
AcDbLine
10
2.347954
20
5.500002
30
0
11
1.887171
21
2
31
0
39
0
210
0
220
0
230
1
0
LINE
5
D0
100
AcDbEntity
8
1
62
256
6
ByLayer
370
18
48
1
60
1
100
AcDbLine
10
1.887171
20
-2
30
0
11
2.347954
21
-5.499998
31
0
39
0
210
0
220
0
230
1
0
LINE
5
D1
100
AcDbEntity
8
1
62
256
6
ByLayer
370
18
48
1
60
1
100
AcDbLine
10
2.347954
20
-5.499998
30
0
11
1.426387
21
-5.500002
31
0
39
0
210
0
220
0
230
1
0
LINE
5
D2
100
AcDbEntity
8
1
62
256
6
ByLayer
370
18
48
1
60
1
100
AcDbLine
10
1.426387
20
-5.500002
30
0
11
1.887171
21
-2
31
0
39
0
210
0
220
0
230
1
0
LINE
5
D3
100
AcDbEntity
8
2
62
256
6
ByLayer
370
18
48
1
60
0
100
AcDbLine
10
25
20
-39.044382
30
0
11
-21
21
-39.044382
31
0
39
0
210
0
220
0
230
1
0
LINE
5
D5
100
AcDbEntity
8
2
62
256
6
ByLayer
370
18
48
1
60
0
100
AcDbLine
10
-21
20
-2.5075
30
0
11
-21
21
-41.044382
31
0
39
0
210
0
220
0
230
1
0
LINE
5
D6
100
AcDbEntity
8
2
62
256
6
ByLayer
370
18
48
1
60
0
100
AcDbLine
10
25
20
-3.131882
30
0
11
25
21
-41.044382
31
0
39
0
210
0
220
0
230
1
0
LINE
5
D7
100
AcDbEntity
8
1
62
256
6
ByLayer
370
18
48
1
60
1
100
AcDbLine
10
-21
20
-39.044382
30
0
11
-17.500002
21
-38.583599
31
0
39
0
210
0
220
0
230
1
0
LINE
5
D8
100
AcDbEntity
8
1
62
256
6
ByLayer
370
18
48
1
60
1
100
AcDbLine
10
-17.500002
20
-38.583599
30
0
11
-17.499998
21
-39.505166
31
0
39
0
210
0
220
0
230
1
0
LINE
5
D9
100
AcDbEntity
8
1
62
256
6
ByLayer
370
18
48
1
60
1
100
AcDbLine
10
-17.499998
20
-39.505166
30
0
11
-21
21
-39.044382
31
0
39
0
210
0
220
0
230
1
0
LINE
5
DA
100
AcDbEntity
8
1
62
256
6
ByLayer
370
18
48
1
60
1
100
AcDbLine
10
25
20
-39.044382
30
0
11
21.500002
21
-39.505166
31
0
39
0
210
0
220
0
230
1
0
LINE
5
DB
100
AcDbEntity
8
1
62
256
6
ByLayer
370
18
48
1
60
1
100
AcDbLine
10
21.500002
20
-39.505166
30
0
11
21.499998
21
-38.583599
31
0
39
0
210
0
220
0
230
1
0
LINE
5
DC
100
AcDbEntity
8
1
62
256
6
ByLayer
370
18
48
1
60
1
100
AcDbLine
10
21.499998
20
-38.583599
30
0
11
25
21
-39.044382
31
0
39
0
210
0
220
0
230
1
0
LINE
5
213
100
AcDbEntity
8
1
62
256
6
ByLayer
370
18
48
1
60
1
100
AcDbLine
10
1.887171
20
2
30
0
11
1.426387
21
5.499998
31
0
39
0
210
0
220
0
230
1
0
LINE
5
214
100
AcDbEntity
8
1
62
256
6
ByLayer
370
18
48
1
60
1
100
AcDbLine
10
1.426387
20
5.499998
30
0
11
2.347954
21
5.500002
31
0
39
0
210
0
220
0
230
1
0
LINE
5
215
100
AcDbEntity
8
1
62
256
6
ByLayer
370
18
48
1
60
1
100
AcDbLine
10
2.347954
20
5.500002
30
0
11
1.887171
21
2
31
0
39
0
210
0
220
0
230
1
0
LINE
5
217
100
AcDbEntity
8
1
62
256
6
ByLayer
370
18
48
1
60
1
100
AcDbLine
10
1.887171
20
-2
30
0
11
2.347954
21
-5.499998
31
0
39
0
210
0
220
0
230
1
0
LINE
5
218
100
AcDbEntity
8
1
62
256
6
ByLayer
370
18
48
1
60
1
100
AcDbLine
10
2.347954
20
-5.499998
30
0
11
1.426387
21
-5.500002
31
0
39
0
210
0
220
0
230
1
0
LINE
5
219
100
AcDbEntity
8
1
62
256
6
ByLayer
370
18
48
1
60
1
100
AcDbLine
10
1.426387
20
-5.500002
30
0
11
1.887171
21
-2
31
0
39
0
210
0
220
0
230
1
0
LINE
5
21C
100
AcDbEntity
8
1
62
256
6
ByLayer
370
18
48
1
60
1
100
AcDbLine
10
-21
20
-39.044382
30
0
11
-17.500002
21
-38.583599
31
0
39
0
210
0
220
0
230
1
0
LINE
5
21D
100
AcDbEntity
8
1
62
256
6
ByLayer
370
18
48
1
60
1
100
AcDbLine
10
-17.500002
20
-38.583599
30
0
11
-17.499998
21
-39.505166
31
0
39
0
210
0
220
0
230
1
0
LINE
5
21E
100
AcDbEntity
8
1
62
256
6
ByLayer
370
18
48
1
60
1
100
AcDbLine
10
-17.499998
20
-39.505166
30
0
11
-21
21
-39.044382
31
0
39
0
210
0
220
0
230
1
0
LINE
5
220
100
AcDbEntity
8
1
62
256
6
ByLayer
370
18
48
1
60
1
100
AcDbLine
10
25
20
-39.044382
30
0
11
21.500002
21
-39.505166
31
0
39
0
210
0
220
0
230
1
0
LINE
5
221
100
AcDbEntity
8
1
62
256
6
ByLayer
370
18
48
1
60
1
100
AcDbLine
10
21.500002
20
-39.505166
30
0
11
21.499998
21
-38.583599
31
0
39
0
210
0
220
0
230
1
0
LINE
5
222
100
AcDbEntity
8
1
62
256
6
ByLayer
370
18
48
1
60
1
100
AcDbLine
10
21.499998
20
-38.583599
30
0
11
25
21
-39.044382
31
0
39
0
210
0
220
0
230
1
0
MTEXT
5
20F
100
AcDbEntity
8
SK2
62
256
6
ByLayer
370
18
48
1
60
0
100
AcDbMText
10
0.546056
20
9.658437
30
0
210
0
220
0
230
1
1
%%c
40
3
41
0
44
1.084337
50
90
71
7
72
5
7
iso_b_vert
0
MTEXT
5
212
100
AcDbEntity
8
SK2
62
256
6
ByLayer
370
18
48
1
60
0
100
AcDbMText
10
0.546056
20
15.635
30
0
210
0
220
0
230
1
1
\W0.6380;4
40
3
41
0
44
1.084337
50
90
71
7
72
5
7
iso_b_vert
0
MTEXT
5
21B
100
AcDbEntity
8
2
62
256
6
ByLayer
370
18
48
1
60
0
100
AcDbMText
10
0.209229
20
-38.159268
30
0
210
0
220
0
230
1
1
\W0.7361;46
40
3
41
0
44
1.084337
50
0
71
7
72
5
7
iso_b_vert
0
MTEXT
5
224
100
AcDbEntity
8
SK6
62
256
6
ByLayer
370
18
48
1
60
0
100
AcDbMText
10
-17.529194
20
-82.114886
30
0
210
0
220
0
230
1
1
\W0.7394;T300-MM100JA-M3     B145
40
3
41
0
44
1.084337
50
0
71
7
72
5
7
iso_b_vert
0
HATCH
5
216
100
AcDbEntity
8
SK2
62
256
6
ByLayer
370
13
48
1
60
0
100
AcDbHatch
10
0
20
0
30
0
210
0
220
0
230
1
2
ANSI31
70
0
71
0
91
1
92
5
93
3
72
1
10
1.88717061301534
20
2
11
1.42638687146257
21
5.49999830744682
72
1
10
1.42638687146257
20
5.49999830744682
11
2.34795435456812
21
5.50000169255318
72
1
10
2.34795435456812
20
5.50000169255318
11
1.88717061301534
21
2
97
0
75
0
76
1
52
0
41
0.0062
77
0
78
1
53
45
43
0
44
0
45
-0.0139193969876572
46
0.0139193969876572
79
0
47
0
98
1
10
0
20
0
0
HATCH
5
21A
100
AcDbEntity
8
SK2
62
256
6
ByLayer
370
13
48
1
60
0
100
AcDbHatch
10
0
20
0
30
0
210
0
220
0
230
1
2
ANSI31
70
0
71
0
91
1
92
5
93
3
72
1
10
1.88717061301534
20
-2
11
2.34795435456812
21
-5.49999830744682
72
1
10
2.34795435456812
20
-5.49999830744682
11
1.42638687146257
21
-5.50000169255318
72
1
10
1.42638687146257
20
-5.50000169255318
11
1.88717061301534
21
-2
97
0
75
0
76
1
52
0
41
0.0062
77
0
78
1
53
45
43
0
44
0
45
-0.0139193969876572
46
0.0139193969876572
79
0
47
0
98
1
10
0
20
0
0
HATCH
5
21F
100
AcDbEntity
8
2
62
256
6
ByLayer
370
13
48
1
60
0
100
AcDbHatch
10
0
20
0
30
0
210
0
220
0
230
1
2
ANSI31
70
0
71
0
91
1
92
5
93
3
72
1
10
-21
20
-39.0443824417144
11
-17.5000016925532
21
-38.5835987001616
72
1
10
-17.5000016925532
20
-38.5835987001616
11
-17.4999983074468
21
-39.5051661832671
72
1
10
-17.4999983074468
20
-39.5051661832671
11
-21
21
-39.0443824417144
97
0
75
0
76
1
52
0
41
0.0062
77
0
78
1
53
45
43
0
44
0
45
-0.0139193969876572
46
0.0139193969876572
79
0
47
0
98
1
10
0
20
0
0
HATCH
5
223
100
AcDbEntity
8
2
62
256
6
ByLayer
370
13
48
1
60
0
100
AcDbHatch
10
0
20
0
30
0
210
0
220
0
230
1
2
ANSI31
70
0
71
0
91
1
92
5
93
3
72
1
10
25
20
-39.0443824417144
11
21.5000016925532
21
-39.5051661832671
72
1
10
21.5000016925532
20
-39.5051661832671
11
21.4999983074468
21
-38.5835987001616
72
1
10
21.4999983074468
20
-38.5835987001616
11
25
21
-39.0443824417144
97
0
75
0
76
1
52
0
41
0.0062
77
0
78
1
53
45
43
0
44
0
45
-0.0139193969876572
46
0.0139193969876572
79
0
47
0
98
1
10
0
20
0
0
DIMENSION
5
227
100
AcDbEntity
8
2
62
256
6
ByLayer
370
18
48
1
60
0
100
AcDbDimension
2
_U0
10
43.840618
20
-1.544382
30
0
11
43.840618
21
18.972954
31
0
70
32
71
1
72
1
41
1
210
0
220
0
230
1
3
Standard
100
AcDbAlignedDimension
13
25
23
1.544382
33
0
14
25
24
-1.544382
34
0
50
90
100
AcDbRotatedDimension
1001
ACAD
1000
DSTYLE
1002
{
1070
   371
1070
    13
1070
   372
1070
    13
1070
     3
1000

1070
   170
1070
     0
1070
   144
1040
1.0
1070
   277
1070
     2
1070
   284
1070
     8
1070
   278
1070
    46
1070
   146
1040
1.166667
1070
   345
1005
16
1070
   347
1005
16
1070
   346
1005
16
1070
   344
1005
0
1070
   343
1005
0
1070
   172
1070
     1
1070
    76
1070
     0
1070
    75
1070
     0
1070
   282
1070
     0
1070
   281
1070
     0
1070
    71
1070
     0
1070
    74
1070
     0
1070
   279
1070
     0
1070
   173
1070
     1
1070
   340
1005
210
1070
   271
1070
     3
1070
   272
1070
     3
1070
    77
1070
     1
1070
    73
1070
     0
1070
   171
1070
     3
1070
   274
1070
     4
1070
   177
1070
     2
1070
   176
1070
     2
1070
   178
1070
     2
1070
    78
1070
     8
1070
    48
1040
-0.1
1070
    41
1040
3.5
1070
   147
1040
1.5
1070
    42
1040
1.5875
1070
    44
1040
2.0
1070
   140
1040
3.0
1002
}
1001
ACAD_DSTYLE_DIM_LINETYPE
1070
   380
1005
16
1001
ACAD_DSTYLE_DIM_EXT1_LINETYPE
1070
   381
1005
16
1001
ACAD_DSTYLE_DIM_EXT2_LINETYPE
1070
   382
1005
16
0
DIMENSION
5
242
100
AcDbEntity
8
SK2
62
256
6
ByLayer
370
18
48
1
60
0
100
AcDbDimension
2
_U1
10
-26
20
1.6
30
0
11
-26
21
17.607142
31
0
70
32
71
1
72
1
41
1
210
0
220
0
230
1
3
Standard
100
AcDbAlignedDimension
13
-20
23
-1.6
33
0
14
-20
24
1.6
34
0
50
90
100
AcDbRotatedDimension
1001
ACAD
1000
DSTYLE
1002
{
1070
   371
1070
    13
1070
   372
1070
    13
1070
     3
1000

1070
   170
1070
     0
1070
   144
1040
1.0
1070
   277
1070
     2
1070
   284
1070
     8
1070
   278
1070
    46
1070
   146
1040
1.166667
1070
   345
1005
16
1070
   347
1005
16
1070
   346
1005
16
1070
   344
1005
0
1070
   343
1005
0
1070
   172
1070
     1
1070
    76
1070
     0
1070
    75
1070
     0
1070
   282
1070
     0
1070
   281
1070
     0
1070
    71
1070
     0
1070
    74
1070
     0
1070
   279
1070
     0
1070
   173
1070
     1
1070
   340
1005
210
1070
   271
1070
     3
1070
   272
1070
     3
1070
    77
1070
     1
1070
    73
1070
     0
1070
   171
1070
     3
1070
   274
1070
     4
1070
   177
1070
     2
1070
   176
1070
     2
1070
   178
1070
     2
1070
    78
1070
     8
1070
    48
1040
-0.1
1070
    41
1040
3.5
1070
   147
1040
1.5
1070
    42
1040
1.5875
1070
    44
1040
2.0
1070
   140
1040
3.0
1002
}
1001
ACAD_DSTYLE_DIM_LINETYPE
1070
   380
1005
16
1001
ACAD_DSTYLE_DIM_EXT1_LINETYPE
1070
   381
1005
16
1001
ACAD_DSTYLE_DIM_EXT2_LINETYPE
1070
   382
1005
16
0
DIMENSION
5
25C
100
AcDbEntity
8
SK2
62
256
6
ByLayer
370
18
48
1
60
0
100
AcDbDimension
2
_U2
10
23.87
20
10.85
30
0
11
24.435
21
10.85
31
0
70
32
71
1
72
1
41
1
210
0
220
0
230
1
3
Standard
100
AcDbAlignedDimension
13
25
23
1.544382
33
0
14
23.87
24
0
34
0
50
0
100
AcDbRotatedDimension
1001
ACAD
1000
DSTYLE
1002
{
1070
   371
1070
    13
1070
   372
1070
    13
1070
   170
1070
     0
1070
   144
1040
1.0
1070
   277
1070
     2
1070
   284
1070
     8
1070
   278
1070
    46
1070
   146
1040
1.166667
1070
   345
1005
16
1070
   347
1005
16
1070
   346
1005
16
1070
   344
1005
0
1070
   343
1005
0
1070
   172
1070
     1
1070
    76
1070
     0
1070
    75
1070
     0
1070
   282
1070
     0
1070
   281
1070
     0
1070
    71
1070
     0
1070
    74
1070
     0
1070
   279
1070
     0
1070
   173
1070
     1
1070
   340
1005
210
1070
   271
1070
     3
1070
   272
1070
     3
1070
    77
1070
     1
1070
    73
1070
     1
1070
   171
1070
     3
1070
   274
1070
     4
1070
   177
1070
     2
1070
   176
1070
     2
1070
   178
1070
     2
1070
    78
1070
     8
1070
    48
1040
-0.1
1070
    41
1040
3.5
1070
   147
1040
1.5
1070
    42
1040
1.5875
1070
    44
1040
2.0
1070
   140
1040
3.0
1002
}
1001
ACAD_DSTYLE_DIM_LINETYPE
1070
   380
1005
16
1001
ACAD_DSTYLE_DIM_EXT1_LINETYPE
1070
   381
1005
16
1001
ACAD_DSTYLE_DIM_EXT2_LINETYPE
1070
   382
1005
16
0
DIMENSION
5
276
100
AcDbEntity
8
SK2
62
256
6
ByLayer
370
18
48
1
60
0
100
AcDbDimension
2
_U3
10
19
20
-8.544382
30
0
11
19.193548
21
-8.544382
31
0
70
32
71
1
72
1
41
1
210
0
220
0
230
1
3
Standard
100
AcDbAlignedDimension
13
25
23
-1.544382
33
0
14
19
24
-1.544382
34
0
50
0
100
AcDbRotatedDimension
1001
ACAD
1000
DSTYLE
1002
{
1070
   371
1070
    13
1070
   372
1070
    13
1070
   170
1070
     0
1070
   144
1040
1.0
1070
   277
1070
     2
1070
   284
1070
     8
1070
   278
1070
    46
1070
   146
1040
1.166667
1070
   345
1005
16
1070
   347
1005
16
1070
   346
1005
16
1070
   344
1005
0
1070
   343
1005
0
1070
   172
1070
     1
1070
    76
1070
     0
1070
    75
1070
     0
1070
   282
1070
     0
1070
   281
1070
     0
1070
    71
1070
     0
1070
    74
1070
     0
1070
   279
1070
     0
1070
   173
1070
     1
1070
   340
1005
210
1070
   271
1070
     1
1070
   272
1070
     3
1070
    77
1070
     1
1070
    73
1070
     1
1070
   171
1070
     3
1070
   274
1070
     4
1070
   177
1070
     2
1070
   176
1070
     2
1070
   178
1070
     2
1070
    78
1070
     8
1070
    48
1040
-0.1
1070
    41
1040
3.5
1070
   147
1040
1.5
1070
    42
1040
1.5875
1070
    44
1040
2.0
1070
   140
1040
3.0
1002
}
1001
ACAD_DSTYLE_DIM_LINETYPE
1070
   380
1005
16
1001
ACAD_DSTYLE_DIM_EXT1_LINETYPE
1070
   381
1005
16
1001
ACAD_DSTYLE_DIM_EXT2_LINETYPE
1070
   382
1005
16
0
DIMENSION
5
28F
100
AcDbEntity
8
SK2
62
256
6
ByLayer
370
18
48
1
60
0
100
AcDbDimension
2
_U4
10
7
20
-31.044382
30
0
11
16
21
-31.044382
31
0
70
32
71
1
72
1
41
1
210
0
220
0
230
1
3
Standard
100
AcDbAlignedDimension
13
25
23
-1.544382
33
0
14
7
24
-1.135
34
0
50
0
100
AcDbRotatedDimension
1001
ACAD
1000
DSTYLE
1002
{
1070
   371
1070
    13
1070
   372
1070
    13
1070
   170
1070
     0
1070
   144
1040
1.0
1070
   277
1070
     2
1070
   284
1070
     8
1070
   278
1070
    46
1070
   146
1040
1.166667
1070
   345
1005
16
1070
   347
1005
16
1070
   346
1005
16
1070
   344
1005
0
1070
   343
1005
0
1070
   172
1070
     1
1070
    76
1070
     0
1070
    75
1070
     0
1070
   282
1070
     0
1070
   281
1070
     0
1070
    71
1070
     0
1070
    74
1070
     0
1070
   279
1070
     0
1070
   173
1070
     1
1070
   340
1005
210
1070
   271
1070
     1
1070
   272
1070
     3
1070
    77
1070
     1
1070
    73
1070
     1
1070
   171
1070
     3
1070
   274
1070
     4
1070
   177
1070
     2
1070
   176
1070
     2
1070
   178
1070
     2
1070
    78
1070
     8
1070
    48
1040
-0.1
1070
    41
1040
3.5
1070
   147
1040
1.5
1070
    42
1040
1.5875
1070
    44
1040
2.0
1070
   140
1040
3.0
1002
}
1001
ACAD_DSTYLE_DIM_LINETYPE
1070
   380
1005
16
1001
ACAD_DSTYLE_DIM_EXT1_LINETYPE
1070
   381
1005
16
1001
ACAD_DSTYLE_DIM_EXT2_LINETYPE
1070
   382
1005
16
0
DIMENSION
5
2A7
100
AcDbEntity
8
2
62
256
6
ByLayer
370
18
48
1
60
0
100
AcDbDimension
2
_U5
10
9.7
20
-20.044382
30
0
11
17.35
21
-20.044382
31
0
70
32
71
1
72
1
41
1
210
0
220
0
230
1
3
Standard
100
AcDbAlignedDimension
13
25
23
-1.544382
33
0
14
9.7
24
0
34
0
50
0
100
AcDbRotatedDimension
1001
ACAD
1000
DSTYLE
1002
{
1070
   371
1070
    13
1070
   372
1070
    13
1070
   170
1070
     0
1070
   144
1040
1.0
1070
   277
1070
     2
1070
   284
1070
     8
1070
   278
1070
    46
1070
   146
1040
1.166667
1070
   345
1005
16
1070
   347
1005
16
1070
   346
1005
16
1070
   344
1005
0
1070
   343
1005
0
1070
   172
1070
     1
1070
    76
1070
     0
1070
    75
1070
     0
1070
   282
1070
     0
1070
   281
1070
     0
1070
    71
1070
     0
1070
    74
1070
     0
1070
   279
1070
     0
1070
   173
1070
     1
1070
   340
1005
210
1070
   271
1070
     1
1070
   272
1070
     3
1070
    77
1070
     1
1070
    73
1070
     1
1070
   171
1070
     3
1070
   274
1070
     4
1070
   177
1070
     2
1070
   176
1070
     2
1070
   178
1070
     2
1070
    78
1070
     8
1070
    48
1040
-0.1
1070
    41
1040
3.5
1070
   147
1040
1.5
1070
    42
1040
1.5875
1070
    44
1040
2.0
1070
   140
1040
3.0
1002
}
1001
ACAD_DSTYLE_DIM_LINETYPE
1070
   380
1005
16
1001
ACAD_DSTYLE_DIM_EXT1_LINETYPE
1070
   381
1005
16
1001
ACAD_DSTYLE_DIM_EXT2_LINETYPE
1070
   382
1005
16
0
ENDSEC
0
SECTION
2
OBJECTS
0
DICTIONARY
5
330
330
0
100
AcDbDictionary
280
0
281
1
3
ACAD_GROUP
350
331
3
ACAD_MLINESTYLE
350
332
0
DICTIONARY
5
331
330
0
100
AcDbDictionary
280
0
281
1
0
DICTIONARY
5
332
330
0
100
AcDbDictionary
280
0
281
1
3
Standard
350
18
0
MLINESTYLE
5
18
330
332
100
AcDbMlineStyle
2
Standard
70
0
3

62
256
51
90
52
90
71
2
49
-0.5
62
256
6
ByLayer
49
0.5
62
256
6
ByLayer
0
RASTERVARIABLES
5
31e
330

100
AcDbRasterVariables
90
0
70
1
71
1
72
1
0
ENDSEC
0
EOF
