0
SECTION
2
HEADER
9
$ACADVER
1
AC1015
9
$DWGCODEPAGE
3
ANSI_1252
9
$HANDSEED
5
321
9
$ANGBASE
50
0
9
$ANGDIR
70
0
9
$ATTMODE
70
1
9
$AUNITS
70
0
9
$AUPREC
70
0
9
$CECOLOR
62
256
9
$CELTSCALE
40
1
9
$CELTYPE
6
ByLayer
9
$CELWEIGHT
370
18
9
$CLAYER
8
0
9
$CMLJUST
70
0
9
$CMLSCALE
40
1
9
$CMLSTYLE
2
Standard
9
$DIMSTYLE
2
Standard
9
$TEXTSIZE
40
0.2
9
$TEXTSTYLE
7
Standard
9
$LUNITS
70
2
9
$LUPREC
70
4
9
$EXTNAMES
290
1
9
$INSUNITS
70
4
9
$LTSCALE
40
1
9
$LWDISPLAY
290
1
9
$PDMODE
70
0
9
$PDSIZE
40
0
9
$PLINEGEN
70
0
0
ENDSEC
0
SECTION
2
CLASSES
0
CLASS
1
RASTERVARIABLES
2
AcDbRasterVariables
3
ISM
90
0
280
0
281
0
0
ENDSEC
0
SECTION
2
TABLES
0
TABLE
2
VPORT
5
317
100
AcDbSymbolTable
0
VPORT
5
1
100
AcDbSymbolTableRecord
100
AcDbViewportTableRecord
2
*Active
70
0
10
0
20
0
11
1
21
1
12
-1
22
1
13
0
23
0
14
0.5
24
0.5
15
10
25
10
16
0
26
0
36
1
17
0
27
0
37
0
0
ENDTAB
0
TABLE
2
LTYPE
5
318
100
AcDbSymbolTable
0
LTYPE
5
14
100
AcDbSymbolTableRecord
100
AcDbLinetypeTableRecord
70
0
2
ByBlock
3

72
65
73
0
40
0
0
LTYPE
5
15
100
AcDbSymbolTableRecord
100
AcDbLinetypeTableRecord
70
0
2
ByLayer
3

72
65
73
0
40
0
0
LTYPE
5
16
100
AcDbSymbolTableRecord
100
AcDbLinetypeTableRecord
70
0
2
Continuous
3
Solid line
72
65
73
0
40
0
0
LTYPE
5
6E
100
AcDbSymbolTableRecord
100
AcDbLinetypeTableRecord
70
0
2
CENTER
3
____ _ ____ _ ____ _ ____
72
65
73
4
40
47.5
49
22
74
0
49
-8.5
74
0
49
8.5
74
0
49
-8.5
74
0
0
LTYPE
5
6F
100
AcDbSymbolTableRecord
100
AcDbLinetypeTableRecord
70
0
2
DASHED
3
__ __ __ __ __ __ __ __ __
72
65
73
2
40
25.72
49
12.86
74
0
49
-12.86
74
0
0
ENDTAB
0
TABLE
2
LAYER
5
319
100
AcDbSymbolTable
0
LAYER
5
10
100
AcDbSymbolTableRecord
100
AcDbLayerTableRecord
2
0
70
0
62
7
6
Continuous
290
1
370
-3
390
0
0
LAYER
5
71
100
AcDbSymbolTableRecord
100
AcDbLayerTableRecord
2
81
70
0
62
-3
6
Continuous
290
1
370
-3
390
0
0
LAYER
5
73
100
AcDbSymbolTableRecord
100
AcDbLayerTableRecord
2
80
70
0
62
-6
6
Continuous
290
1
370
-3
390
0
0
LAYER
5
75
100
AcDbSymbolTableRecord
100
AcDbLayerTableRecord
2
1
70
0
62
4
6
Continuous
290
1
370
-3
390
0
0
LAYER
5
83
100
AcDbSymbolTableRecord
100
AcDbLayerTableRecord
2
4
70
0
62
-2
6
CENTER
290
1
370
-3
390
0
0
LAYER
5
C8
100
AcDbSymbolTableRecord
100
AcDbLayerTableRecord
2
2
70
0
62
7
6
Continuous
290
1
370
-3
390
0
0
LAYER
5
20F
100
AcDbSymbolTableRecord
100
AcDbLayerTableRecord
2
Defpoints
70
0
62
7
6
Continuous
290
0
370
-3
390
0
0
LAYER
5
303
100
AcDbSymbolTableRecord
100
AcDbLayerTableRecord
2
SK4
70
0
62
2
6
CENTER
290
1
370
-3
390
0
0
LAYER
5
304
100
AcDbSymbolTableRecord
100
AcDbLayerTableRecord
2
SK1
70
0
62
4
6
Continuous
290
1
370
-3
390
0
0
LAYER
5
305
100
AcDbSymbolTableRecord
100
AcDbLayerTableRecord
2
SK2
70
0
62
7
6
Continuous
290
1
370
-3
390
0
0
LAYER
5
306
100
AcDbSymbolTableRecord
100
AcDbLayerTableRecord
2
SK6
70
0
62
5
6
Continuous
290
1
370
-3
390
0
0
ENDTAB
0
TABLE
2
STYLE
5
31a
100
AcDbSymbolTable
0
STYLE
5
11
100
AcDbSymbolTableRecord
100
AcDbTextStyleTableRecord
2
Standard
3
txt
70
0
71
0
40
0
41
1
42
0
50
0
0
STYLE
5
1F5
100
AcDbSymbolTableRecord
100
AcDbTextStyleTableRecord
2
iso_b_vert
3
simplex.shx
70
0
71
0
40
0
41
1
42
0
50
0
0
STYLE
5
1F6
100
AcDbSymbolTableRecord
100
AcDbTextStyleTableRecord
2
DWGDirectTextStyle
3
simplex
70
0
71
0
40
0
41
1
42
0
50
0
0
ENDTAB
0
TABLE
2
DIMSTYLE
5
31b
100
AcDbSymbolTable
100
AcDbDimStyleTable
0
DIMSTYLE
105
27
100
AcDbSymbolTableRecord
100
AcDbDimStyleTableRecord
2
Standard
70
0
3
<>
41
0.18
42
0.0625
44
0.18
140
0.18
147
0.09
73
0
74
0
77
1
271
2
275
0
278
52
280
0
340
11
0
ENDTAB
0
TABLE
2
VIEW
5
31c
100
AcDbSymbolTable
0
ENDTAB
0
TABLE
2
UCS
5
31d
100
AcDbSymbolTable
0
ENDTAB
0
TABLE
2
APPID
5
31e
100
AcDbSymbolTable
0
APPID
5
12
100
AcDbSymbolTableRecord
100
AcDbRegAppTableRecord
2
ACAD
70
0
0
APPID
5
20B
100
AcDbSymbolTableRecord
100
AcDbRegAppTableRecord
2
ACAD_DSTYLE_DIMBREAK
70
0
0
APPID
5
2C2
100
AcDbSymbolTableRecord
100
AcDbRegAppTableRecord
2
ACAD_DSTYLE_DIM_LINETYPE
70
0
0
APPID
5
2C3
100
AcDbSymbolTableRecord
100
AcDbRegAppTableRecord
2
ACAD_DSTYLE_DIM_EXT1_LINETYPE
70
0
0
APPID
5
2C4
100
AcDbSymbolTableRecord
100
AcDbRegAppTableRecord
2
ACAD_DSTYLE_DIM_EXT2_LINETYPE
70
0
0
APPID
5
2FF
100
AcDbSymbolTableRecord
100
AcDbRegAppTableRecord
2
ACAD_MLEADERVER
70
0
0
ENDTAB
0
TABLE
2
BLOCK_RECORD
5
31f
100
AcDbSymbolTable
0
BLOCK_RECORD
5
1F
100
AcDbSymbolTableRecord
100
AcDbBlockTableRecord
2
*Model_Space
340
0
70
0
0
BLOCK_RECORD
5
1B
100
AcDbSymbolTableRecord
100
AcDbBlockTableRecord
2
*Paper_Space
340
0
70
0
0
BLOCK_RECORD
5
23
100
AcDbSymbolTableRecord
100
AcDbBlockTableRecord
2
*Paper_Space0
340
0
70
0
0
BLOCK_RECORD
5
210
100
AcDbSymbolTableRecord
100
AcDbBlockTableRecord
2
*D1
340
0
70
0
0
BLOCK_RECORD
5
21E
100
AcDbSymbolTableRecord
100
AcDbBlockTableRecord
2
_U0
340
0
70
0
0
BLOCK_RECORD
5
22A
100
AcDbSymbolTableRecord
100
AcDbBlockTableRecord
2
*D3
340
0
70
0
0
BLOCK_RECORD
5
238
100
AcDbSymbolTableRecord
100
AcDbBlockTableRecord
2
_U1
340
0
70
0
0
BLOCK_RECORD
5
244
100
AcDbSymbolTableRecord
100
AcDbBlockTableRecord
2
*D5
340
0
70
0
0
BLOCK_RECORD
5
251
100
AcDbSymbolTableRecord
100
AcDbBlockTableRecord
2
_U2
340
0
70
0
0
BLOCK_RECORD
5
25E
100
AcDbSymbolTableRecord
100
AcDbBlockTableRecord
2
*D7
340
0
70
0
0
BLOCK_RECORD
5
26B
100
AcDbSymbolTableRecord
100
AcDbBlockTableRecord
2
_U3
340
0
70
0
0
BLOCK_RECORD
5
277
100
AcDbSymbolTableRecord
100
AcDbBlockTableRecord
2
*D9
340
0
70
0
0
BLOCK_RECORD
5
283
100
AcDbSymbolTableRecord
100
AcDbBlockTableRecord
2
_U4
340
0
70
0
0
BLOCK_RECORD
5
28F
100
AcDbSymbolTableRecord
100
AcDbBlockTableRecord
2
*D11
340
0
70
0
0
BLOCK_RECORD
5
29B
100
AcDbSymbolTableRecord
100
AcDbBlockTableRecord
2
_U5
340
0
70
0
0
ENDTAB
0
ENDSEC
0
SECTION
2
BLOCKS
0
BLOCK
5
20
100
AcDbEntity
8
0
100
AcDbBlockBegin
2
*Model_Space
70
0
10
0
20
0
30
0
3
*Model_Space
0
ENDBLK
5
21
100
AcDbEntity
8
0
100
AcDbBlockEnd
0
BLOCK
5
1C
100
AcDbEntity
8
0
100
AcDbBlockBegin
2
*Paper_Space
70
0
10
0
20
0
30
0
3
*Paper_Space
0
ENDBLK
5
1D
100
AcDbEntity
8
0
100
AcDbBlockEnd
0
BLOCK
5
24
100
AcDbEntity
8
0
100
AcDbBlockBegin
2
*Paper_Space0
70
0
10
0
20
0
30
0
3
*Paper_Space0
0
ENDBLK
5
25
100
AcDbEntity
8
0
100
AcDbBlockEnd
0
BLOCK
5
211
100
AcDbEntity
8
0
100
AcDbBlockBegin
2
*D1
70
1
10
0
20
0
30
0
3
*D1
0
LINE
5
213
100
AcDbEntity
8
0
62
256
6
ByLayer
370
-2
48
1
60
0
100
AcDbLine
10
58.7175
20
3.05706
30
0
11
77.66294
21
3.05706
31
0
39
0
210
0
220
0
230
1
0
LINE
5
214
100
AcDbEntity
8
0
62
256
6
ByLayer
370
-2
48
1
60
0
100
AcDbLine
10
58.7175
20
-3.05706
30
0
11
77.66294
21
-3.05706
31
0
39
0
210
0
220
0
230
1
0
LINE
5
215
100
AcDbEntity
8
0
62
256
6
ByLayer
370
-2
48
1
60
0
100
AcDbLine
10
75.66294
20
3.05706
30
0
11
75.66294
21
31.05706
31
0
39
0
210
0
220
0
230
1
0
LINE
5
216
100
AcDbEntity
8
0
62
256
6
ByLayer
370
-2
48
1
60
0
100
AcDbLine
10
75.66294
20
6.55706
30
0
11
75.66294
21
10.05706
31
0
39
0
210
0
220
0
230
1
0
LINE
5
217
100
AcDbEntity
8
0
62
256
6
ByLayer
370
-2
48
1
60
0
100
AcDbLine
10
75.66294
20
-6.55706
30
0
11
75.66294
21
-10.05706
31
0
39
0
210
0
220
0
230
1
0
SOLID
5
218
100
AcDbEntity
8
0
62
256
6
ByLayer
370
-1
48
1
60
0
100
AcDbTrace
10
75.079606
20
6.55706
30
0
11
76.246273
21
6.55706
31
0
12
75.66294
22
3.05706
32
0
13
75.66294
23
3.05706
33
0
39
0
210
0
220
0
230
1
0
SOLID
5
219
100
AcDbEntity
8
0
62
256
6
ByLayer
370
-1
48
1
60
0
100
AcDbTrace
10
76.246273
20
-6.55706
30
0
11
75.079606
21
-6.55706
31
0
12
75.66294
22
-3.05706
32
0
13
75.66294
23
-3.05706
33
0
39
0
210
0
220
0
230
1
0
MTEXT
5
21A
100
AcDbEntity
8
0
62
256
6
ByLayer
370
18
48
1
60
0
100
AcDbMText
10
69.66294
20
20.55706
30
0
210
0
220
0
230
1
1
\A1;6.114
40
3
41
0
44
1
50
90
71
5
72
5
7
iso_b_vert
0
POINT
5
21B
100
AcDbEntity
8
Defpoints
62
0
6
ByLayer
370
-1
48
1
60
0
100
AcDbPoint
10
57.13
20
3.05706
30
0
39
0
210
0
220
0
230
1
50
360
0
POINT
5
21C
100
AcDbEntity
8
Defpoints
62
0
6
ByLayer
370
-1
48
1
60
0
100
AcDbPoint
10
57.13
20
-3.05706
30
0
39
0
210
0
220
0
230
1
50
360
0
POINT
5
21D
100
AcDbEntity
8
Defpoints
62
0
6
ByLayer
370
-1
48
1
60
0
100
AcDbPoint
10
75.66294
20
-3.05706
30
0
39
0
210
0
220
0
230
1
50
360
0
ENDBLK
5
212
100
AcDbEntity
8
0
100
AcDbBlockEnd
0
BLOCK
5
225
100
AcDbEntity
8
0
100
AcDbBlockBegin
2
_U0
70
0
10
0
20
0
30
0
3
_U0
0
MTEXT
5
21F
100
AcDbEntity
8
2
62
256
6
ByLayer
370
18
48
1
60
0
100
AcDbMText
10
75.071825
20
13.19206
30
0
210
0
220
0
230
1
1
\W0.7203;M6
40
3
41
0
44
1.084337
50
90
71
7
72
5
7
iso_b_vert
0
LINE
5
220
100
AcDbEntity
8
2
62
256
6
ByLayer
370
13
48
1
60
0
100
AcDbLine
10
58.7175
20
3.05706
30
0
11
77.66294
21
3.05706
31
0
39
0
210
0
220
0
230
1
0
LINE
5
221
100
AcDbEntity
8
2
62
256
6
ByLayer
370
13
48
1
60
0
100
AcDbLine
10
58.7175
20
-3.05706
30
0
11
77.66294
21
-3.05706
31
0
39
0
210
0
220
0
230
1
0
LINE
5
222
100
AcDbEntity
8
2
62
256
6
ByLayer
370
13
48
1
60
0
100
AcDbLine
10
75.66294
20
-10.55706
30
0
11
75.66294
21
17.31186
31
0
39
0
210
0
220
0
230
1
0
SOLID
5
223
100
AcDbEntity
8
2
62
256
6
ByLayer
370
18
48
1
60
0
100
AcDbTrace
10
75.66294
20
3.05706
30
0
11
75.202156
21
6.557059
31
0
12
76.123724
22
6.557062
32
0
13
76.123724
23
6.557062
33
0
39
0
210
0
220
0
230
1
0
SOLID
5
224
100
AcDbEntity
8
2
62
256
6
ByLayer
370
18
48
1
60
0
100
AcDbTrace
10
75.66294
20
-3.05706
30
0
11
76.123724
21
-6.557059
31
0
12
75.202156
22
-6.557062
32
0
13
75.202156
23
-6.557062
33
0
39
0
210
0
220
0
230
1
0
ENDBLK
5
226
100
AcDbEntity
8
0
100
AcDbBlockEnd
0
BLOCK
5
22B
100
AcDbEntity
8
0
100
AcDbBlockBegin
2
*D3
70
1
10
0
20
0
30
0
3
*D3
0
LINE
5
22D
100
AcDbEntity
8
0
62
256
6
ByLayer
370
-2
48
1
60
0
100
AcDbLine
10
-23.4575
20
-2.425
30
0
11
-29.87
21
-2.425
31
0
39
0
210
0
220
0
230
1
0
LINE
5
22E
100
AcDbEntity
8
0
62
256
6
ByLayer
370
-2
48
1
60
0
100
AcDbLine
10
-24.141413
20
2.425
30
0
11
-29.87
21
2.425
31
0
39
0
210
0
220
0
230
1
0
LINE
5
22F
100
AcDbEntity
8
0
62
256
6
ByLayer
370
-2
48
1
60
0
100
AcDbLine
10
-27.87
20
2.425
30
0
11
-27.87
21
31.927884
31
0
39
0
210
0
220
0
230
1
0
LINE
5
230
100
AcDbEntity
8
0
62
256
6
ByLayer
370
-2
48
1
60
0
100
AcDbLine
10
-27.87
20
-5.925
30
0
11
-27.87
21
-9.425
31
0
39
0
210
0
220
0
230
1
0
LINE
5
231
100
AcDbEntity
8
0
62
256
6
ByLayer
370
-2
48
1
60
0
100
AcDbLine
10
-27.87
20
5.925
30
0
11
-27.87
21
9.425
31
0
39
0
210
0
220
0
230
1
0
SOLID
5
232
100
AcDbEntity
8
0
62
256
6
ByLayer
370
-1
48
1
60
0
100
AcDbTrace
10
-27.286667
20
-5.925
30
0
11
-28.453333
21
-5.925
31
0
12
-27.87
22
-2.425
32
0
13
-27.87
23
-2.425
33
0
39
0
210
0
220
0
230
1
0
SOLID
5
233
100
AcDbEntity
8
0
62
256
6
ByLayer
370
-1
48
1
60
0
100
AcDbTrace
10
-28.453333
20
5.925
30
0
11
-27.286667
21
5.925
31
0
12
-27.87
22
2.425
32
0
13
-27.87
23
2.425
33
0
39
0
210
0
220
0
230
1
0
MTEXT
5
234
100
AcDbEntity
8
0
62
256
6
ByLayer
370
18
48
1
60
0
100
AcDbMText
10
-33.87
20
22.856455
30
0
210
0
220
0
230
1
1
\A1;4.85
40
3
41
0
44
1
50
90
71
5
72
5
7
iso_b_vert
0
POINT
5
235
100
AcDbEntity
8
Defpoints
62
0
6
ByLayer
370
-1
48
1
60
0
100
AcDbPoint
10
-21.87
20
-2.425
30
0
39
0
210
0
220
0
230
1
50
360
0
POINT
5
236
100
AcDbEntity
8
Defpoints
62
0
6
ByLayer
370
-1
48
1
60
0
100
AcDbPoint
10
-22.553913
20
2.425
30
0
39
0
210
0
220
0
230
1
50
360
0
POINT
5
237
100
AcDbEntity
8
Defpoints
62
0
6
ByLayer
370
-1
48
1
60
0
100
AcDbPoint
10
-27.87
20
2.425
30
0
39
0
210
0
220
0
230
1
50
360
0
ENDBLK
5
22C
100
AcDbEntity
8
0
100
AcDbBlockEnd
0
BLOCK
5
23F
100
AcDbEntity
8
0
100
AcDbBlockBegin
2
_U1
70
0
10
0
20
0
30
0
3
_U1
0
MTEXT
5
239
100
AcDbEntity
8
SK2
62
256
6
ByLayer
370
18
48
1
60
0
100
AcDbMText
10
-28.461114
20
11.135
30
0
210
0
220
0
230
1
1
\W0.7671;6.477 x 4.85
40
3
41
0
44
1.084337
50
90
71
7
72
5
7
iso_b_vert
0
LINE
5
23A
100
AcDbEntity
8
SK2
62
256
6
ByLayer
370
13
48
1
60
0
100
AcDbLine
10
-23.4575
20
-2.425
30
0
11
-29.87
21
-2.425
31
0
39
0
210
0
220
0
230
1
0
LINE
5
23B
100
AcDbEntity
8
SK2
62
256
6
ByLayer
370
13
48
1
60
0
100
AcDbLine
10
-24.141413
20
2.425
30
0
11
-29.87
21
2.425
31
0
39
0
210
0
220
0
230
1
0
LINE
5
23C
100
AcDbEntity
8
SK2
62
256
6
ByLayer
370
13
48
1
60
0
100
AcDbLine
10
-27.87
20
34.71291
30
0
11
-27.87
21
-9.925
31
0
39
0
210
0
220
0
230
1
0
SOLID
5
23D
100
AcDbEntity
8
SK2
62
256
6
ByLayer
370
18
48
1
60
0
100
AcDbTrace
10
-27.87
20
-2.425
30
0
11
-27.409216
21
-5.924998
31
0
12
-28.330784
22
-5.925002
32
0
13
-28.330784
23
-5.925002
33
0
39
0
210
0
220
0
230
1
0
SOLID
5
23E
100
AcDbEntity
8
SK2
62
256
6
ByLayer
370
18
48
1
60
0
100
AcDbTrace
10
-27.87
20
2.425
30
0
11
-28.330784
21
5.924998
31
0
12
-27.409216
22
5.925002
32
0
13
-27.409216
23
5.925002
33
0
39
0
210
0
220
0
230
1
0
ENDBLK
5
240
100
AcDbEntity
8
0
100
AcDbBlockEnd
0
BLOCK
5
245
100
AcDbEntity
8
0
100
AcDbBlockBegin
2
*D5
70
1
10
0
20
0
30
0
3
*D5
0
LINE
5
247
100
AcDbEntity
8
0
62
256
6
ByLayer
370
-2
48
1
60
0
100
AcDbLine
10
57.13
20
4.64456
30
0
11
57.13
21
14.148496
31
0
39
0
210
0
220
0
230
1
0
LINE
5
248
100
AcDbEntity
8
0
62
256
6
ByLayer
370
-2
48
1
60
0
100
AcDbLine
10
54.88
20
1.5875
30
0
11
54.88
21
14.148496
31
0
39
0
210
0
220
0
230
1
0
LINE
5
249
100
AcDbEntity
8
0
62
256
6
ByLayer
370
-2
48
1
60
0
100
AcDbLine
10
60.63
20
12.148496
30
0
11
64.13
21
12.148496
31
0
39
0
210
0
220
0
230
1
0
LINE
5
24A
100
AcDbEntity
8
0
62
256
6
ByLayer
370
-2
48
1
60
0
100
AcDbLine
10
51.38
20
12.148496
30
0
11
47.88
21
12.148496
31
0
39
0
210
0
220
0
230
1
0
SOLID
5
24B
100
AcDbEntity
8
0
62
256
6
ByLayer
370
-1
48
1
60
0
100
AcDbTrace
10
60.63
20
12.731829
30
0
11
60.63
21
11.565163
31
0
12
57.13
22
12.148496
32
0
13
57.13
23
12.148496
33
0
39
0
210
0
220
0
230
1
0
SOLID
5
24C
100
AcDbEntity
8
0
62
256
6
ByLayer
370
-1
48
1
60
0
100
AcDbTrace
10
51.38
20
11.565163
30
0
11
51.38
21
12.731829
31
0
12
54.88
22
12.148496
32
0
13
54.88
23
12.148496
33
0
39
0
210
0
220
0
230
1
0
MTEXT
5
24D
100
AcDbEntity
8
0
62
256
6
ByLayer
370
18
48
1
60
0
100
AcDbMText
10
56.005
20
18.148496
30
0
210
0
220
0
230
1
1
\A1;2.25
40
3
41
0
44
1
50
0
71
5
72
5
7
iso_b_vert
0
POINT
5
24E
100
AcDbEntity
8
Defpoints
62
0
6
ByLayer
370
-1
48
1
60
0
100
AcDbPoint
10
57.13
20
3.05706
30
0
39
0
210
0
220
0
230
1
50
360
0
POINT
5
24F
100
AcDbEntity
8
Defpoints
62
0
6
ByLayer
370
-1
48
1
60
0
100
AcDbPoint
10
54.88
20
0
30
0
39
0
210
0
220
0
230
1
50
360
0
POINT
5
250
100
AcDbEntity
8
Defpoints
62
0
6
ByLayer
370
-1
48
1
60
0
100
AcDbPoint
10
54.88
20
12.148496
30
0
39
0
210
0
220
0
230
1
50
360
0
ENDBLK
5
246
100
AcDbEntity
8
0
100
AcDbBlockEnd
0
BLOCK
5
259
100
AcDbEntity
8
0
100
AcDbBlockBegin
2
_U2
70
0
10
0
20
0
30
0
3
_U2
0
MTEXT
5
252
100
AcDbEntity
8
SK2
62
256
6
ByLayer
370
18
48
1
60
0
100
AcDbMText
10
52.670044
20
12.931129
30
0
210
0
220
0
230
1
1
\W0.6474;'C'
40
3.5
41
0
44
1.084337
50
0
71
7
72
5
7
iso_b_vert
0
MTEXT
5
253
100
AcDbEntity
8
SK2
62
256
6
ByLayer
370
18
48
1
60
0
100
AcDbMText
10
52.643544
20
20.03361
30
0
210
0
220
0
230
1
1
\W0.7346;2.25
40
3
41
0
44
1.084337
50
0
71
7
72
5
7
iso_b_vert
0
LINE
5
254
100
AcDbEntity
8
SK2
62
256
6
ByLayer
370
13
48
1
60
0
100
AcDbLine
10
57.13
20
4.64456
30
0
11
57.13
21
14.148496
31
0
39
0
210
0
220
0
230
1
0
LINE
5
255
100
AcDbEntity
8
SK2
62
256
6
ByLayer
370
13
48
1
60
0
100
AcDbLine
10
54.88
20
1.5875
30
0
11
54.88
21
14.148496
31
0
39
0
210
0
220
0
230
1
0
LINE
5
256
100
AcDbEntity
8
SK2
62
256
6
ByLayer
370
13
48
1
60
0
100
AcDbLine
10
64.63
20
12.148496
30
0
11
47.38
21
12.148496
31
0
39
0
210
0
220
0
230
1
0
SOLID
5
257
100
AcDbEntity
8
SK2
62
256
6
ByLayer
370
18
48
1
60
0
100
AcDbTrace
10
57.13
20
12.148496
30
0
11
60.629998
21
12.60928
31
0
12
60.630002
22
11.687712
32
0
13
60.630002
23
11.687712
33
0
39
0
210
0
220
0
230
1
0
SOLID
5
258
100
AcDbEntity
8
SK2
62
256
6
ByLayer
370
18
48
1
60
0
100
AcDbTrace
10
54.88
20
12.148496
30
0
11
51.380002
21
11.687712
31
0
12
51.379998
22
12.60928
32
0
13
51.379998
23
12.60928
33
0
39
0
210
0
220
0
230
1
0
ENDBLK
5
25A
100
AcDbEntity
8
0
100
AcDbBlockEnd
0
BLOCK
5
25F
100
AcDbEntity
8
0
100
AcDbBlockBegin
2
*D7
70
1
10
0
20
0
30
0
3
*D7
0
LINE
5
261
100
AcDbEntity
8
0
62
256
6
ByLayer
370
-2
48
1
60
0
100
AcDbLine
10
57.13
20
-4.64456
30
0
11
57.13
21
-12.05706
31
0
39
0
210
0
220
0
230
1
0
LINE
5
262
100
AcDbEntity
8
0
62
256
6
ByLayer
370
-2
48
1
60
0
100
AcDbLine
10
46.13
20
-4.64456
30
0
11
46.13
21
-12.05706
31
0
39
0
210
0
220
0
230
1
0
LINE
5
263
100
AcDbEntity
8
0
62
256
6
ByLayer
370
-2
48
1
60
0
100
AcDbLine
10
60.63
20
-10.05706
30
0
11
64.13
21
-10.05706
31
0
39
0
210
0
220
0
230
1
0
LINE
5
264
100
AcDbEntity
8
0
62
256
6
ByLayer
370
-2
48
1
60
0
100
AcDbLine
10
42.63
20
-10.05706
30
0
11
39.13
21
-10.05706
31
0
39
0
210
0
220
0
230
1
0
SOLID
5
265
100
AcDbEntity
8
0
62
256
6
ByLayer
370
-1
48
1
60
0
100
AcDbTrace
10
60.63
20
-9.473727
30
0
11
60.63
21
-10.640394
31
0
12
57.13
22
-10.05706
32
0
13
57.13
23
-10.05706
33
0
39
0
210
0
220
0
230
1
0
SOLID
5
266
100
AcDbEntity
8
0
62
256
6
ByLayer
370
-1
48
1
60
0
100
AcDbTrace
10
42.63
20
-10.640394
30
0
11
42.63
21
-9.473727
31
0
12
46.13
22
-10.05706
32
0
13
46.13
23
-10.05706
33
0
39
0
210
0
220
0
230
1
0
MTEXT
5
267
100
AcDbEntity
8
0
62
256
6
ByLayer
370
18
48
1
60
0
100
AcDbMText
10
50.255
20
-4.05706
30
0
210
0
220
0
230
1
1
\A1;11
40
3
41
0
44
1
50
0
71
5
72
5
7
iso_b_vert
0
POINT
5
268
100
AcDbEntity
8
Defpoints
62
0
6
ByLayer
370
-1
48
1
60
0
100
AcDbPoint
10
57.13
20
-3.05706
30
0
39
0
210
0
220
0
230
1
50
360
0
POINT
5
269
100
AcDbEntity
8
Defpoints
62
0
6
ByLayer
370
-1
48
1
60
0
100
AcDbPoint
10
46.13
20
-3.05706
30
0
39
0
210
0
220
0
230
1
50
360
0
POINT
5
26A
100
AcDbEntity
8
Defpoints
62
0
6
ByLayer
370
-1
48
1
60
0
100
AcDbPoint
10
46.13
20
-10.05706
30
0
39
0
210
0
220
0
230
1
50
360
0
ENDBLK
5
260
100
AcDbEntity
8
0
100
AcDbBlockEnd
0
BLOCK
5
272
100
AcDbEntity
8
0
100
AcDbBlockBegin
2
_U3
70
0
10
0
20
0
30
0
3
_U3
0
MTEXT
5
26C
100
AcDbEntity
8
SK2
62
256
6
ByLayer
370
18
48
1
60
0
100
AcDbMText
10
49.372057
20
-9.171946
30
0
210
0
220
0
230
1
1
\W0.4657;11
40
3
41
0
44
1.084337
50
0
71
7
72
5
7
iso_b_vert
0
LINE
5
26D
100
AcDbEntity
8
SK2
62
256
6
ByLayer
370
13
48
1
60
0
100
AcDbLine
10
57.13
20
-4.64456
30
0
11
57.13
21
-12.05706
31
0
39
0
210
0
220
0
230
1
0
LINE
5
26E
100
AcDbEntity
8
SK2
62
256
6
ByLayer
370
13
48
1
60
0
100
AcDbLine
10
46.13
20
-4.64456
30
0
11
46.13
21
-12.05706
31
0
39
0
210
0
220
0
230
1
0
LINE
5
26F
100
AcDbEntity
8
SK2
62
256
6
ByLayer
370
13
48
1
60
0
100
AcDbLine
10
57.13
20
-10.05706
30
0
11
46.13
21
-10.05706
31
0
39
0
210
0
220
0
230
1
0
SOLID
5
270
100
AcDbEntity
8
SK2
62
256
6
ByLayer
370
18
48
1
60
0
100
AcDbTrace
10
57.13
20
-10.05706
30
0
11
53.630002
21
-10.517844
31
0
12
53.629998
22
-9.596276
32
0
13
53.629998
23
-9.596276
33
0
39
0
210
0
220
0
230
1
0
SOLID
5
271
100
AcDbEntity
8
SK2
62
256
6
ByLayer
370
18
48
1
60
0
100
AcDbTrace
10
46.13
20
-10.05706
30
0
11
49.629998
21
-9.596276
31
0
12
49.630002
22
-10.517844
32
0
13
49.630002
23
-10.517844
33
0
39
0
210
0
220
0
230
1
0
ENDBLK
5
273
100
AcDbEntity
8
0
100
AcDbBlockEnd
0
BLOCK
5
278
100
AcDbEntity
8
0
100
AcDbBlockBegin
2
*D9
70
1
10
0
20
0
30
0
3
*D9
0
LINE
5
27A
100
AcDbEntity
8
0
62
256
6
ByLayer
370
-2
48
1
60
0
100
AcDbLine
10
57.13
20
-4.64456
30
0
11
57.13
21
-34.55706
31
0
39
0
210
0
220
0
230
1
0
LINE
5
27B
100
AcDbEntity
8
0
62
256
6
ByLayer
370
-2
48
1
60
0
100
AcDbLine
10
31.13
20
-3.8625
30
0
11
31.13
21
-34.55706
31
0
39
0
210
0
220
0
230
1
0
LINE
5
27C
100
AcDbEntity
8
0
62
256
6
ByLayer
370
-2
48
1
60
0
100
AcDbLine
10
53.63
20
-32.55706
30
0
11
34.63
21
-32.55706
31
0
39
0
210
0
220
0
230
1
0
SOLID
5
27D
100
AcDbEntity
8
0
62
256
6
ByLayer
370
-1
48
1
60
0
100
AcDbTrace
10
53.63
20
-33.140394
30
0
11
53.63
21
-31.973727
31
0
12
57.13
22
-32.55706
32
0
13
57.13
23
-32.55706
33
0
39
0
210
0
220
0
230
1
0
SOLID
5
27E
100
AcDbEntity
8
0
62
256
6
ByLayer
370
-1
48
1
60
0
100
AcDbTrace
10
34.63
20
-31.973727
30
0
11
34.63
21
-33.140394
31
0
12
31.13
22
-32.55706
32
0
13
31.13
23
-32.55706
33
0
39
0
210
0
220
0
230
1
0
MTEXT
5
27F
100
AcDbEntity
8
0
62
256
6
ByLayer
370
18
48
1
60
0
100
AcDbMText
10
44.13
20
-26.55706
30
0
210
0
220
0
230
1
1
\A1;26
40
3
41
0
44
1
50
0
71
5
72
5
7
iso_b_vert
0
POINT
5
280
100
AcDbEntity
8
Defpoints
62
0
6
ByLayer
370
-1
48
1
60
0
100
AcDbPoint
10
57.13
20
-3.05706
30
0
39
0
210
0
220
0
230
1
50
360
0
POINT
5
281
100
AcDbEntity
8
Defpoints
62
0
6
ByLayer
370
-1
48
1
60
0
100
AcDbPoint
10
31.13
20
-2.275
30
0
39
0
210
0
220
0
230
1
50
360
0
POINT
5
282
100
AcDbEntity
8
Defpoints
62
0
6
ByLayer
370
-1
48
1
60
0
100
AcDbPoint
10
31.13
20
-32.55706
30
0
39
0
210
0
220
0
230
1
50
360
0
ENDBLK
5
279
100
AcDbEntity
8
0
100
AcDbBlockEnd
0
BLOCK
5
28A
100
AcDbEntity
8
0
100
AcDbBlockBegin
2
_U4
70
0
10
0
20
0
30
0
3
_U4
0
MTEXT
5
284
100
AcDbEntity
8
SK2
62
256
6
ByLayer
370
18
48
1
60
0
100
AcDbMText
10
42.497172
20
-31.671946
30
0
210
0
220
0
230
1
1
\W0.6740;26
40
3
41
0
44
1.084337
50
0
71
7
72
5
7
iso_b_vert
0
LINE
5
285
100
AcDbEntity
8
SK2
62
256
6
ByLayer
370
13
48
1
60
0
100
AcDbLine
10
57.13
20
-4.64456
30
0
11
57.13
21
-34.55706
31
0
39
0
210
0
220
0
230
1
0
LINE
5
286
100
AcDbEntity
8
SK2
62
256
6
ByLayer
370
13
48
1
60
0
100
AcDbLine
10
31.13
20
-3.8625
30
0
11
31.13
21
-34.55706
31
0
39
0
210
0
220
0
230
1
0
LINE
5
287
100
AcDbEntity
8
SK2
62
256
6
ByLayer
370
13
48
1
60
0
100
AcDbLine
10
57.13
20
-32.55706
30
0
11
31.13
21
-32.55706
31
0
39
0
210
0
220
0
230
1
0
SOLID
5
288
100
AcDbEntity
8
SK2
62
256
6
ByLayer
370
18
48
1
60
0
100
AcDbTrace
10
57.13
20
-32.55706
30
0
11
53.630002
21
-33.017844
31
0
12
53.629998
22
-32.096276
32
0
13
53.629998
23
-32.096276
33
0
39
0
210
0
220
0
230
1
0
SOLID
5
289
100
AcDbEntity
8
SK2
62
256
6
ByLayer
370
18
48
1
60
0
100
AcDbTrace
10
31.13
20
-32.55706
30
0
11
34.629998
21
-32.096276
31
0
12
34.630002
22
-33.017844
32
0
13
34.630002
23
-33.017844
33
0
39
0
210
0
220
0
230
1
0
ENDBLK
5
28B
100
AcDbEntity
8
0
100
AcDbBlockEnd
0
BLOCK
5
290
100
AcDbEntity
8
0
100
AcDbBlockBegin
2
*D11
70
1
10
0
20
0
30
0
3
*D11
0
LINE
5
292
100
AcDbEntity
8
0
62
256
6
ByLayer
370
-2
48
1
60
0
100
AcDbLine
10
57.13
20
-4.64456
30
0
11
57.13
21
-23.55706
31
0
39
0
210
0
220
0
230
1
0
LINE
5
293
100
AcDbEntity
8
0
62
256
6
ByLayer
370
-2
48
1
60
0
100
AcDbLine
10
35.03
20
-1.5875
30
0
11
35.03
21
-23.55706
31
0
39
0
210
0
220
0
230
1
0
LINE
5
294
100
AcDbEntity
8
0
62
256
6
ByLayer
370
-2
48
1
60
0
100
AcDbLine
10
53.63
20
-21.55706
30
0
11
38.53
21
-21.55706
31
0
39
0
210
0
220
0
230
1
0
SOLID
5
295
100
AcDbEntity
8
0
62
256
6
ByLayer
370
-1
48
1
60
0
100
AcDbTrace
10
53.63
20
-22.140394
30
0
11
53.63
21
-20.973727
31
0
12
57.13
22
-21.55706
32
0
13
57.13
23
-21.55706
33
0
39
0
210
0
220
0
230
1
0
SOLID
5
296
100
AcDbEntity
8
0
62
256
6
ByLayer
370
-1
48
1
60
0
100
AcDbTrace
10
38.53
20
-20.973727
30
0
11
38.53
21
-22.140394
31
0
12
35.03
22
-21.55706
32
0
13
35.03
23
-21.55706
33
0
39
0
210
0
220
0
230
1
0
MTEXT
5
297
100
AcDbEntity
8
0
62
256
6
ByLayer
370
18
48
1
60
0
100
AcDbMText
10
46.08
20
-15.55706
30
0
210
0
220
0
230
1
1
\A1;22.1
40
3
41
0
44
1
50
0
71
5
72
5
7
iso_b_vert
0
POINT
5
298
100
AcDbEntity
8
Defpoints
62
0
6
ByLayer
370
-1
48
1
60
0
100
AcDbPoint
10
57.13
20
-3.05706
30
0
39
0
210
0
220
0
230
1
50
360
0
POINT
5
299
100
AcDbEntity
8
Defpoints
62
0
6
ByLayer
370
-1
48
1
60
0
100
AcDbPoint
10
35.03
20
0
30
0
39
0
210
0
220
0
230
1
50
360
0
POINT
5
29A
100
AcDbEntity
8
Defpoints
62
0
6
ByLayer
370
-1
48
1
60
0
100
AcDbPoint
10
35.03
20
-21.55706
30
0
39
0
210
0
220
0
230
1
50
360
0
ENDBLK
5
291
100
AcDbEntity
8
0
100
AcDbBlockEnd
0
BLOCK
5
2A2
100
AcDbEntity
8
0
100
AcDbBlockBegin
2
_U5
70
0
10
0
20
0
30
0
3
_U5
0
MTEXT
5
29C
100
AcDbEntity
8
2
62
256
6
ByLayer
370
18
48
1
60
0
100
AcDbMText
10
43.093486
20
-20.671946
30
0
210
0
220
0
230
1
1
\W0.7208;22.1
40
3
41
0
44
1.084337
50
0
71
7
72
5
7
iso_b_vert
0
LINE
5
29D
100
AcDbEntity
8
2
62
256
6
ByLayer
370
13
48
1
60
0
100
AcDbLine
10
57.13
20
-4.64456
30
0
11
57.13
21
-23.55706
31
0
39
0
210
0
220
0
230
1
0
LINE
5
29E
100
AcDbEntity
8
2
62
256
6
ByLayer
370
13
48
1
60
0
100
AcDbLine
10
35.03
20
-1.5875
30
0
11
35.03
21
-23.55706
31
0
39
0
210
0
220
0
230
1
0
LINE
5
29F
100
AcDbEntity
8
2
62
256
6
ByLayer
370
13
48
1
60
0
100
AcDbLine
10
57.13
20
-21.55706
30
0
11
35.03
21
-21.55706
31
0
39
0
210
0
220
0
230
1
0
SOLID
5
2A0
100
AcDbEntity
8
2
62
256
6
ByLayer
370
18
48
1
60
0
100
AcDbTrace
10
57.13
20
-21.55706
30
0
11
53.630002
21
-22.017844
31
0
12
53.629998
22
-21.096276
32
0
13
53.629998
23
-21.096276
33
0
39
0
210
0
220
0
230
1
0
SOLID
5
2A1
100
AcDbEntity
8
2
62
256
6
ByLayer
370
18
48
1
60
0
100
AcDbTrace
10
35.03
20
-21.55706
30
0
11
38.529998
21
-21.096276
31
0
12
38.530002
22
-22.017844
32
0
13
38.530002
23
-22.017844
33
0
39
0
210
0
220
0
230
1
0
ENDBLK
5
2A3
100
AcDbEntity
8
0
100
AcDbBlockEnd
0
ENDSEC
0
SECTION
2
ENTITIES
0
ARC
5
D1
100
AcDbEntity
8
SK1
62
256
6
ByLayer
370
18
48
1
60
0
100
AcDbCircle
39
0
10
-17.425
20
0
30
0
40
3.10896000000018
210
0
220
0
230
1
100
AcDbArc
50
321.260905
51
38.739095
0
ARC
5
D2
100
AcDbEntity
8
1
62
256
6
ByLayer
370
18
48
1
60
0
100
AcDbCircle
39
0
10
45.647192
20
3.175
30
0
40
0.9
210
0
220
0
230
1
100
AcDbArc
50
270
51
301
0
ARC
5
D3
100
AcDbEntity
8
1
62
256
6
ByLayer
370
18
48
1
60
0
100
AcDbCircle
39
0
10
31.226238
20
-3.375
30
0
40
1.1
210
0
220
0
230
1
100
AcDbArc
50
90
51
100
0
ARC
5
D4
100
AcDbEntity
8
1
62
256
6
ByLayer
370
18
48
1
60
0
100
AcDbCircle
39
0
10
31.226238
20
3.375
30
0
40
1.1
210
0
220
0
230
1
100
AcDbArc
50
260
51
270
0
POINT
5
70
100
AcDbEntity
8
81
62
256
6
ByLayer
370
18
48
1
60
0
100
AcDbPoint
10
57.23
20
0
30
0
39
0
210
0
220
0
230
1
50
360
0
POINT
5
72
100
AcDbEntity
8
80
62
256
6
ByLayer
370
18
48
1
60
0
100
AcDbPoint
10
0
20
0
30
0
39
0
210
0
220
0
230
1
50
360
0
POINT
5
74
100
AcDbEntity
8
1
62
256
6
ByLayer
370
18
48
1
60
1
100
AcDbPoint
10
57.13
20
3.05706
30
0
39
0
210
0
220
0
230
1
50
360
0
POINT
5
76
100
AcDbEntity
8
1
62
256
6
ByLayer
370
18
48
1
60
1
100
AcDbPoint
10
57.13
20
-3.05706
30
0
39
0
210
0
220
0
230
1
50
360
0
POINT
5
77
100
AcDbEntity
8
1
62
256
6
ByLayer
370
18
48
1
60
1
100
AcDbPoint
10
-21.87
20
-2.425
30
0
39
0
210
0
220
0
230
1
50
360
0
POINT
5
78
100
AcDbEntity
8
1
62
256
6
ByLayer
370
18
48
1
60
1
100
AcDbPoint
10
-22.553913
20
2.425
30
0
39
0
210
0
220
0
230
1
50
360
0
POINT
5
79
100
AcDbEntity
8
1
62
256
6
ByLayer
370
18
48
1
60
1
100
AcDbPoint
10
57.13
20
3.05706
30
0
39
0
210
0
220
0
230
1
50
360
0
POINT
5
7A
100
AcDbEntity
8
1
62
256
6
ByLayer
370
18
48
1
60
1
100
AcDbPoint
10
54.88
20
0
30
0
39
0
210
0
220
0
230
1
50
360
0
POINT
5
7B
100
AcDbEntity
8
1
62
256
6
ByLayer
370
18
48
1
60
1
100
AcDbPoint
10
57.13
20
-3.05706
30
0
39
0
210
0
220
0
230
1
50
360
0
POINT
5
7C
100
AcDbEntity
8
1
62
256
6
ByLayer
370
18
48
1
60
1
100
AcDbPoint
10
46.13
20
-3.05706
30
0
39
0
210
0
220
0
230
1
50
360
0
POINT
5
7D
100
AcDbEntity
8
1
62
256
6
ByLayer
370
18
48
1
60
1
100
AcDbPoint
10
57.13
20
-3.05706
30
0
39
0
210
0
220
0
230
1
50
360
0
POINT
5
7E
100
AcDbEntity
8
1
62
256
6
ByLayer
370
18
48
1
60
1
100
AcDbPoint
10
31.13
20
-2.275
30
0
39
0
210
0
220
0
230
1
50
360
0
POINT
5
7F
100
AcDbEntity
8
1
62
256
6
ByLayer
370
18
48
1
60
1
100
AcDbPoint
10
57.13
20
-3.05706
30
0
39
0
210
0
220
0
230
1
50
360
0
POINT
5
80
100
AcDbEntity
8
1
62
256
6
ByLayer
370
18
48
1
60
1
100
AcDbPoint
10
35.03
20
0
30
0
39
0
210
0
220
0
230
1
50
360
0
SPLINE
5
D5
100
AcDbEntity
8
1
62
256
6
ByLayer
370
18
48
1
60
0
100
AcDbSpline
70
4
71
3
72
9
73
5
40
0
40
0
40
0
40
0
40
0.25142133529916
40
1
40
1
40
1
40
1
41
1
10
50.1272510251478
20
-2.94093546471987
30
0
41
1
10
50.125543562081
20
-2.94601094641553
30
0
41
1
10
50.1187596637099
20
-2.9638508390949
30
0
41
1
10
50.1119989927379
20
-2.97241519239682
30
0
41
1
10
50.1069326548041
20
-2.97356161193474
30
0
0
SPLINE
5
D6
100
AcDbEntity
8
1
62
256
6
ByLayer
370
18
48
1
60
0
100
AcDbSpline
70
4
71
3
72
8
73
4
40
0
40
0
40
0
40
0
40
1
40
1
40
1
40
1
41
1
10
49.8910848523213
20
-2.93941420316986
30
0
41
1
10
49.8941783350701
20
-2.94269754803116
30
0
41
1
10
49.8972762731358
20
-2.94456455347498
30
0
41
1
10
49.9003780231737
20
-2.94502441608142
30
0
0
SPLINE
5
D7
100
AcDbEntity
8
1
62
256
6
ByLayer
370
18
48
1
60
0
100
AcDbSpline
70
4
71
3
72
8
73
4
40
0
40
0
40
0
40
0
40
1
40
1
40
1
40
1
41
1
10
55.711672182052
20
-2.63014904166511
30
0
41
1
10
55.714911096365
20
-2.63712395864411
30
0
41
1
10
55.7181296608085
20
-2.64338202353278
30
0
41
1
10
55.7213303442326
20
-2.64892926622358
30
0
0
SPLINE
5
D8
100
AcDbEntity
8
1
62
256
6
ByLayer
370
18
48
1
60
0
100
AcDbSpline
70
4
71
3
72
9
73
5
40
0
40
0
40
0
40
0
40
0.353124400442523
40
1
40
1
40
1
40
1
41
1
10
49.6267174420511
20
-2.48305859246014
30
0
41
1
10
49.6255669289972
20
-2.48197513699333
30
0
41
1
10
49.6223052340724
20
-2.47834479218579
30
0
41
1
10
49.6190331131642
20
-2.47310942665311
30
0
41
1
10
49.6169129622232
20
-2.46905784653222
30
0
0
SPLINE
5
D9
100
AcDbEntity
8
1
62
256
6
ByLayer
370
13
48
1
60
0
100
AcDbSpline
70
4
71
3
72
8
73
4
40
0
40
0
40
0
40
0
40
1
40
1
40
1
40
1
41
1
10
55.6186713197125
20
-2.47222280252066
30
0
41
1
10
55.6155939394093
20
-2.46693029794386
30
0
41
1
10
55.6125283431262
20
-2.46026601735275
30
0
41
1
10
55.6094738339687
20
-2.45227290520273
30
0
0
SPLINE
5
DA
100
AcDbEntity
8
1
62
256
6
ByLayer
370
13
48
1
60
0
100
AcDbSpline
70
4
71
3
72
9
73
5
40
0
40
0
40
0
40
0
40
0.893141750819463
40
1
40
1
40
1
40
1
41
1
10
51.1452794902636
20
2.48317866552628
30
0
41
1
10
51.1374585516018
20
2.49011537826283
30
0
41
1
10
51.1286874756458
20
2.4879935602014
30
0
41
1
10
51.1199589837991
20
2.47453390311387
30
0
41
1
10
51.1190267439479
20
2.47296709346156
30
0
0
SPLINE
5
DB
100
AcDbEntity
8
1
62
256
6
ByLayer
370
13
48
1
60
0
100
AcDbSpline
70
4
71
3
72
9
73
5
40
0
40
0
40
0
40
0
40
0.580195297283274
40
1
40
1
40
1
40
1
41
1.04
10
49.40323898279
20
-2.47221255109272
30
0
41
1.04
10
49.3934551907524
20
-2.48911563653545
30
0
41
1.04
10
49.3764573971259
20
-2.49435823977806
30
0
41
1.04
10
49.3591715052169
20
-2.45526145979997
30
0
41
1.04
10
49.3518984535641
20
-2.4312890872933
30
0
0
SPLINE
5
DC
100
AcDbEntity
8
1
62
256
6
ByLayer
370
13
48
1
60
0
100
AcDbSpline
70
4
71
3
72
9
73
5
40
0
40
0
40
0
40
0
40
0.378948535555449
40
1
40
1
40
1
40
1
41
1.04
10
55.4017934747281
20
-2.47423907461886
30
0
41
1.04
10
55.3943783091263
20
-2.48600942986454
30
0
41
1.04
10
55.3750141682855
20
-2.49561695296422
30
0
41
1.04
10
55.3561303590579
20
-2.45095387335807
30
0
41
1.04
10
55.344548469614
20
-2.40468123200107
30
0
0
SPLINE
5
DD
100
AcDbEntity
8
1
62
256
6
ByLayer
370
18
48
1
60
0
100
AcDbSpline
70
4
71
3
72
16
73
12
40
0
40
0
40
0
40
0
40
0.0220522950280068
40
0.0220522950280068
40
0.348034863352003
40
0.348034863352003
40
0.511026147514002
40
0.511026147514002
40
0.674017431676
40
0.674017431676
40
1
40
1
40
1
40
1
41
1
10
49.1796237504722
20
-2.8437269025857
30
0
41
1
10
49.1792932126883
20
-2.84368106915184
30
0
41
1
10
49.178962522077
20
-2.84361372101679
30
0
41
1
10
49.1737408522729
20
-2.84221129949501
30
0
41
1
10
49.1688033246384
20
-2.83619614254837
30
0
41
1
10
49.1613172599509
20
-2.81992581669013
30
0
41
1
10
49.1588077160026
20
-2.81327197369174
30
0
41
1
10
49.1538237127134
20
-2.79763118511067
30
0
41
1
10
49.1513462187518
20
-2.78864340935829
30
0
41
1
10
49.1439545459409
20
-2.75821523160224
30
0
41
1
10
49.1390863534002
20
-2.73331917276923
30
0
41
1
10
49.1342071615611
20
-2.70379875293645
30
0
0
SPLINE
5
DE
100
AcDbEntity
8
1
62
256
6
ByLayer
370
18
48
1
60
0
100
AcDbSpline
70
4
71
3
72
19
73
15
40
0
40
0
40
0
40
0
40
0.226782646810094
40
0.226782646810094
40
0.453565293620188
40
0.453565293620188
40
0.566956617025235
40
0.623652278727759
40
0.623652278727759
40
0.680347940430282
40
0.680347940430282
40
0.907130587240377
40
0.907130587240377
40
1
40
1
40
1
40
1
41
1
10
48.7359259543753
20
-2.51589057493479
30
0
41
1
10
48.7416637005192
20
-2.5562989677116
30
0
41
1
10
48.7473542448602
20
-2.59226858734851
30
0
41
1
10
48.7587962872877
20
-2.65552815562899
30
0
41
1
10
48.7645433121988
20
-2.68281742022344
30
0
41
1
10
48.7732360076492
20
-2.71718474219676
30
0
41
1
10
48.7775999870055
20
-2.73272371579353
30
0
41
1
10
48.7819939916221
20
-2.74575656785444
30
0
41
1
10
48.7849303002549
20
-2.75388177079935
30
0
41
1
10
48.7864036203464
20
-2.75766616600862
30
0
41
1
10
48.7937496077751
20
-2.77507594671087
30
0
41
1
10
48.7995838215348
20
-2.78425194183555
30
0
41
1
10
48.8077584735437
20
-2.79069977525543
30
0
41
1
10
48.8101275701807
20
-2.79180127838652
30
0
41
1
10
48.8124917316811
20
-2.79213173241311
30
0
0
SPLINE
5
DF
100
AcDbEntity
8
1
62
256
6
ByLayer
370
18
48
1
60
0
100
AcDbSpline
70
4
71
3
72
20
73
16
40
0
40
0
40
0
40
0
40
0.0894431420840434
40
0.0894431420840434
40
0.317082356563032
40
0.317082356563032
40
0.373992160182779
40
0.373992160182779
40
0.430901963802527
40
0.430901963802527
40
0.544721571042021
40
0.544721571042021
40
0.772360785521011
40
0.772360785521011
40
1
40
1
40
1
40
1
41
1
10
55.1819111414014
20
-2.85245832707309
30
0
41
1
10
55.1812296104973
20
-2.85360554765737
30
0
41
1
10
55.1805756599907
20
-2.85401956881367
30
0
41
1
10
55.1783392162073
20
-2.85291169671521
30
0
41
1
10
55.1768840509682
20
-2.84740989956302
30
0
41
1
10
55.1751475514359
20
-2.83456449840878
30
0
41
1
10
55.1748045783432
20
-2.8316960562299
30
0
41
1
10
55.1741268898928
20
-2.82535397720466
30
0
41
1
10
55.1737917771853
20
-2.8218756766795
30
0
41
1
10
55.1728014592523
20
-2.81055437769621
30
0
41
1
10
55.172163110769
20
-2.80185162225374
30
0
41
1
10
55.1703124589162
20
-2.77234167035891
30
0
41
1
10
55.1691768180741
20
-2.74812177464364
30
0
41
1
10
55.166954702536
20
-2.69094082270664
30
0
41
1
10
55.1658642927268
20
-2.65798659364393
30
0
41
1
10
55.1647453854366
20
-2.62065857155474
30
0
0
SPLINE
5
E0
100
AcDbEntity
8
1
62
256
6
ByLayer
370
18
48
1
60
0
100
AcDbSpline
70
4
71
3
72
17
73
13
40
0
40
0
40
0
40
0
40
0.279515727065311
40
0.559031454130622
40
0.559031454130622
40
0.698789317663277
40
0.698789317663277
40
0.768668249429604
40
0.768668249429604
40
0.83854718119593
40
0.83854718119593
40
1
40
1
40
1
40
1
41
1
10
54.776427498521
20
-2.54463290174181
30
0
41
1
10
54.7852406926722
20
-2.59626198752241
30
0
41
1
10
54.8026948761517
20
-2.68946200828228
30
0
41
1
10
54.8201720695403
20
-2.76303690776149
30
0
41
1
10
54.8333960813647
20
-2.81068167023366
30
0
41
1
10
54.8378243457739
20
-2.82530310189262
30
0
41
1
10
54.8444724453849
20
-2.8452963524137
30
0
41
1
10
54.8466877830643
20
-2.85163119850631
30
0
41
1
10
54.8510896994791
20
-2.86357571733183
30
0
41
1
10
54.8532794067745
20
-2.86919518167895
30
0
41
1
10
54.8604875946471
20
-2.88664028864039
30
0
41
1
10
54.8654520035214
20
-2.89695733463071
30
0
41
1
10
54.8703581240862
20
-2.90544261384031
30
0
0
SPLINE
5
E1
100
AcDbEntity
8
1
62
256
6
ByLayer
370
18
48
1
60
0
100
AcDbSpline
70
4
71
3
72
10
73
6
40
0
40
0
40
0
40
0
40
0.866426749900258
40
0.866426749900258
40
1
40
1
40
1
40
1
41
1
10
54.8841191292892
20
-2.92461402336937
30
0
41
1
10
54.8914095510547
20
-2.93226833029882
30
0
41
1
10
54.8985929993423
20
-2.93573759613852
30
0
41
1
10
54.90683781832
20
-2.93482390820563
30
0
41
1
10
54.9079379337299
20
-2.93460039858647
30
0
41
1
10
54.9090368776761
20
-2.93427475614592
30
0
0
SPLINE
5
E2
100
AcDbEntity
8
1
62
256
6
ByLayer
370
13
48
1
60
0
100
AcDbSpline
70
4
71
3
72
9
73
5
40
0
40
0
40
0
40
0
40
0.681688329172376
40
1
40
1
40
1
40
1
41
1
10
48.6189132172009
20
-2.4725860250208
30
0
41
1
10
48.6057888324289
20
-2.45047081586998
30
0
41
1
10
48.5861962066171
20
-2.38062242233903
30
0
41
1
10
48.5659718741066
20
-2.25090514749698
30
0
41
1
10
48.5594654555278
20
-2.2035876121731
30
0
0
SPLINE
5
E3
100
AcDbEntity
8
1
62
256
6
ByLayer
370
13
48
1
60
0
100
AcDbSpline
70
4
71
3
72
9
73
5
40
0
40
0
40
0
40
0
40
0.359341169805811
40
1
40
1
40
1
40
1
41
1
10
54.619993845225
20
-2.47417080514657
30
0
41
1
10
54.611948664774
20
-2.46138410932988
30
0
41
1
10
54.5893600252809
20
-2.39954739374002
30
0
41
1
10
54.5666012647414
20
-2.26211905833367
30
0
41
1
10
54.5519012302473
20
-2.14593363610916
30
0
0
SPLINE
5
E4
100
AcDbEntity
8
1
62
256
6
ByLayer
370
13
48
1
60
0
100
AcDbSpline
70
4
71
3
72
9
73
5
40
0
40
0
40
0
40
0
40
0.67983101677534
40
1
40
1
40
1
40
1
41
1.04
10
48.3990606422199
20
-2.47829189388447
30
0
41
1.04
10
48.3764470894194
20
-2.5078909803096
30
0
41
1.04
10
48.3423382657111
20
-2.44274475900967
30
0
41
1.04
10
48.3062487893685
20
-2.18971725805541
30
0
41
1.04
10
48.2944640660261
20
-2.08963610980237
30
0
0
SPLINE
5
E5
100
AcDbEntity
8
1
62
256
6
ByLayer
370
18
48
1
60
0
100
AcDbSpline
70
4
71
3
72
20
73
16
40
0
40
0
40
0
40
0
40
0.312036745331789
40
0.312036745331789
40
0.468055117997684
40
0.468055117997684
40
0.507059711164156
40
0.507059711164156
40
0.546064304330629
40
0.624073490663574
40
0.624073490663574
40
0.780091863329463
40
0.936110235995353
40
0.936110235995353
40
1
40
1
40
1
40
1
41
1
10
46.9747853600375
20
1.88927889720466
30
0
41
1
10
46.9655762763514
20
1.99371693681857
30
0
41
1
10
46.9565081549309
20
2.08575268437207
30
0
41
1
10
46.9428800618048
20
2.20566561720861
30
0
41
1
10
46.9383317928953
20
2.2425933420806
30
0
41
1
10
46.932601024955
20
2.2848452739278
30
0
41
1
10
46.9314511166804
20
2.29310967517435
30
0
41
1
10
46.9291549156251
20
2.30917760776094
30
0
41
1
10
46.9257152091758
20
2.33259732697027
30
0
41
1
10
46.9222828080042
20
2.35399225272266
30
0
41
1
10
46.9154167233847
20
2.39412364973182
30
0
41
1
10
46.9062714226403
20
2.44055638565283
30
0
41
1
10
46.8971610352575
20
2.47301236248421
30
0
41
1
10
46.8907170204034
20
2.49088771926196
30
0
41
1
10
46.8888417426964
20
2.495485415708
30
0
41
1
10
46.8869599713209
20
2.49947880187918
30
0
0
SPLINE
5
E6
100
AcDbEntity
8
1
62
256
6
ByLayer
370
18
48
1
60
0
100
AcDbSpline
70
4
71
3
72
10
73
6
40
0
40
0
40
0
40
0
40
0.203202216391483
40
0.203202216391483
40
1
40
1
40
1
40
1
41
1
10
46.8816784420376
20
2.50905988091424
30
0
41
1
10
46.8807114777099
20
2.5105163473518
30
0
41
1
10
46.8797433864383
20
2.51181124519601
30
0
41
1
10
46.8749797140357
20
2.5173727415457
30
0
41
1
10
46.871185075148
20
2.51930062922736
30
0
41
1
10
46.8674063164231
20
2.51876636035962
30
0
0
SPLINE
5
E7
100
AcDbEntity
8
1
62
256
6
ByLayer
370
13
48
1
60
0
100
AcDbSpline
70
4
71
3
72
9
73
5
40
0
40
0
40
0
40
0
40
0.129738079179096
40
1
40
1
40
1
40
1
41
1.04
10
52.9955356779127
20
1.91813808155997
30
0
41
1.04
10
52.9916182293572
20
1.95717871541438
30
0
41
1.04
10
52.9613997279274
20
2.24488340597785
30
0
41
1.04
10
52.9311845115144
20
2.42048532714352
30
0
41
1.04
10
52.9045496607426
20
2.46988721634177
30
0
0
SPLINE
5
E8
100
AcDbEntity
8
1
62
256
6
ByLayer
370
13
48
1
60
0
100
AcDbSpline
70
4
71
3
72
9
73
5
40
0
40
0
40
0
40
0
40
0.617113154370627
40
1
40
1
40
1
40
1
41
1.04
10
47.0024489306391
20
1.84739693933906
30
0
41
1.04
10
46.9829005056591
20
2.05190684340739
30
0
41
1.04
10
46.9515836011307
20
2.31214575392037
30
0
41
1.04
10
46.9201806466805
20
2.4359991349585
30
0
41
1.04
10
46.9082304972676
20
2.46240747781038
30
0
0
SPLINE
5
E9
100
AcDbEntity
8
1
62
256
6
ByLayer
370
18
48
1
60
0
100
AcDbSpline
70
4
71
3
72
25
73
21
40
0
40
0
40
0
40
0
40
0.0762974607122851
40
0.0762974607122851
40
0.153272672319592
40
0.153272672319592
40
0.191760278123246
40
0.191760278123246
40
0.2302478839269
40
0.384198307141519
40
0.538148730356137
40
0.538148730356137
40
0.692099153570756
40
0.692099153570756
40
0.730586759374411
40
0.730586759374411
40
0.769074365178066
40
0.846049576785377
40
0.846049576785377
40
1
40
1
40
1
40
1
41
1
10
48.2545842502708
20
-2.71372278569314
30
0
41
1
10
48.2522398955858
20
-2.71338384854209
30
0
41
1
10
48.2498949467649
20
-2.71199672730063
30
0
41
1
10
48.2451744110748
20
-2.70709255159753
30
0
41
1
10
48.2427986536393
20
-2.70355481652922
30
0
41
1
10
48.2392203598574
20
-2.6966092781177
30
0
41
1
10
48.2380248157586
20
-2.69401920575854
30
0
41
1
10
48.235639840401
20
-2.68831885188328
30
0
41
1
10
48.2296853807323
20
-2.6727519184148
30
0
41
1
10
48.2190101300538
20
-2.6330530234311
30
0
41
1
10
48.2094678039655
20
-2.58153054393466
30
0
41
1
10
48.1998710227203
20
-2.52185000768228
30
0
41
1
10
48.1950475183009
20
-2.4879317263748
30
0
41
1
10
48.1889914166967
20
-2.44026485676912
30
0
41
1
10
48.1877789839568
20
-2.43046873628975
30
0
41
1
10
48.1853631972383
20
-2.41044929949686
30
0
41
1
10
48.1817484041411
20
-2.3797427430693
30
0
41
1
10
48.1781572842013
20
-2.34702248800193
30
0
41
1
10
48.1709952179986
20
-2.27892740892918
30
0
41
1
10
48.1662480477854
20
-2.2299974933058
30
0
41
1
10
48.1614872620274
20
-2.1775380197717
30
0
0
SPLINE
5
EA
100
AcDbEntity
8
1
62
256
6
ByLayer
370
18
48
1
60
0
100
AcDbSpline
70
4
71
3
72
25
73
21
40
0
40
0
40
0
40
0
40
0.125000000000001
40
0.125000000000001
40
0.250000000000002
40
0.250000000000002
40
0.312500000000003
40
0.312500000000003
40
0.375000000000004
40
0.375000000000004
40
0.500000000000003
40
0.500000000000003
40
0.625000000000002
40
0.750000000000002
40
0.750000000000002
40
0.812500000000001
40
0.812500000000001
40
0.875000000000001
40
0.875000000000001
40
1
40
1
40
1
40
1
41
1
10
47.5806798513486
20
-1.7756775002207
30
0
41
1
10
47.5862507330198
20
-1.83867698776774
30
0
41
1
10
47.5918619912976
20
-1.89853807045341
30
0
41
1
10
47.6031483035068
20
-2.01211629171951
30
0
41
1
10
47.6088018443613
20
-2.06583193898956
30
0
41
1
10
47.6172546118003
20
-2.14176125445613
30
0
41
1
10
47.6200685421338
20
-2.16629571229274
30
0
41
1
10
47.6256937650311
20
-2.2137924709256
30
0
41
1
10
47.6285113373382
20
-2.23680186004739
30
0
41
1
10
47.6369029359007
20
-2.30282914453451
30
0
41
1
10
47.6424422045947
20
-2.34301283304623
30
0
41
1
10
47.6535048960434
20
-2.41593574931218
30
0
41
1
10
47.6645401235727
20
-2.48141204248751
30
0
41
1
10
47.6756160866106
20
-2.53201538837791
30
0
41
1
10
47.6839786498766
20
-2.56424270305183
30
0
41
1
10
47.6867819560011
20
-2.57404598754187
30
0
41
1
10
47.6923640292313
20
-2.59154444935049
30
0
41
1
10
47.6951470077403
20
-2.59926054448843
30
0
41
1
10
47.7034855790179
20
-2.61935755988137
30
0
41
1
10
47.7090323551295
20
-2.62869427240491
30
0
41
1
10
47.7146027841389
20
-2.63401192853533
30
0
0
SPLINE
5
EB
100
AcDbEntity
8
1
62
256
6
ByLayer
370
13
48
1
60
0
100
AcDbSpline
70
4
71
3
72
9
73
5
40
0
40
0
40
0
40
0
40
0.62200329516285
40
1
40
1
40
1
40
1
41
1
10
47.2674267674038
20
1.68936027950801
30
0
41
1
10
47.2426101727396
20
1.97388672912047
30
0
41
1
10
47.2034507766397
20
2.32384112068689
30
0
41
1
10
47.164156708206
20
2.45986969403555
30
0
41
1
10
47.1494468947196
20
2.47886642712851
30
0
0
SPLINE
5
EC
100
AcDbEntity
8
1
62
256
6
ByLayer
370
18
48
1
60
0
100
AcDbSpline
70
4
71
3
72
8
73
4
40
0
40
0
40
0
40
0
40
1
40
1
40
1
40
1
41
1
10
47.6199984793197
20
-2.47447682231939
30
0
41
1
10
47.6154689157766
20
-2.467273388698
30
0
41
1
10
47.6109284281413
20
-2.45702394340736
30
0
41
1
10
47.6063735875773
20
-2.44372299933212
30
0
0
SPLINE
5
ED
100
AcDbEntity
8
1
62
256
6
ByLayer
370
13
48
1
60
0
100
AcDbSpline
70
4
71
3
72
10
73
6
40
0
40
0
40
0
40
0
40
0.479703002978741
40
0.908828814537457
40
1
40
1
40
1
40
1
41
1
10
47.6063733907203
20
-2.44372242447315
30
0
41
1
10
47.5901851164831
20
-2.39644947802489
30
0
41
1
10
47.5591718848907
20
-2.23386177614472
30
0
41
1
10
47.5237235101062
20
-1.9017591392591
30
0
41
1
10
47.5052231354754
20
-1.69149822270702
30
0
41
1
10
47.5019797349152
20
-1.65358925296746
30
0
0
SPLINE
5
EE
100
AcDbEntity
8
1
62
256
6
ByLayer
370
13
48
1
60
0
100
AcDbSpline
70
4
71
3
72
10
73
6
40
0
40
0
40
0
40
0
40
0.410430017643
40
0.791494186273322
40
1
40
1
40
1
40
1
41
1.04
10
47.3549722646815
20
-2.44117149102245
30
0
41
1.04
10
47.3393618600736
20
-2.39432853835863
30
0
41
1.04
10
47.3089233307351
20
-2.23492494133685
30
0
41
1.04
10
47.2690040437546
20
-1.86394897695902
30
0
41
1.04
10
47.245376513246
20
-1.58387890531289
30
0
41
1.04
10
47.2370113843489
20
-1.47860922843308
30
0
0
SPLINE
5
EF
100
AcDbEntity
8
1
62
256
6
ByLayer
370
18
48
1
60
0
100
AcDbSpline
70
4
71
3
72
8
73
4
40
0
40
0
40
0
40
0
40
1
40
1
40
1
40
1
41
1.04
10
54.4032806543429
20
-2.47225534399969
30
0
41
1.04
10
54.4011013525567
20
-2.47599100312603
30
0
41
1.04
10
54.3989135672673
20
-2.47904167940159
30
0
41
1.04
10
54.3967169430755
20
-2.48138845704724
30
0
0
SPLINE
5
F0
100
AcDbEntity
8
1
62
256
6
ByLayer
370
13
48
1
60
0
100
AcDbSpline
70
4
71
3
72
10
73
6
40
0
40
0
40
0
40
0
40
0.0495325409811771
40
0.467386422137319
40
1
40
1
40
1
40
1
41
1.04
10
54.3967169430756
20
-2.48138845704724
30
0
41
1.04
10
54.3949701133382
20
-2.48325469388183
30
0
41
1.04
10
54.3784343768003
20
-2.49666405778365
30
0
41
1.04
10
54.3419563374782
20
-2.43874220965534
30
0
41
1.04
10
54.3068824313714
20
-2.2045313605306
30
0
41
1.04
10
54.2869806989797
20
-2.02394828100552
30
0
0
SPLINE
5
F1
100
AcDbEntity
8
1
62
256
6
ByLayer
370
18
48
1
60
0
100
AcDbSpline
70
4
71
3
72
8
73
4
40
0
40
0
40
0
40
0
40
1
40
1
40
1
40
1
41
1
10
53.9449390523898
20
-2.33961786736552
30
0
41
1
10
53.9441160825131
20
-2.29123688271025
30
0
41
1
10
53.9432503343652
20
-2.24124060495512
30
0
41
1
10
53.9423244801728
20
-2.18962981745389
30
0
0
SPLINE
5
F2
100
AcDbEntity
8
1
62
256
6
ByLayer
370
13
48
1
60
0
100
AcDbSpline
70
4
71
3
72
10
73
6
40
0
40
0
40
0
40
0
40
0.137265323574252
40
0.903629392060965
40
1
40
1
40
1
40
1
41
1
10
53.6130264120631
20
-2.46110898806839
30
0
41
1
10
53.6075642273663
20
-2.44872502311708
30
0
41
1
10
53.5716836085898
20
-2.3386258571027
30
0
41
1
10
53.5323142893659
20
-2.01232038662653
30
0
41
1
10
53.4982266240163
20
-1.60986280058222
30
0
41
1
10
53.4944166895563
20
-1.56351949079692
30
0
0
SPLINE
5
F3
100
AcDbEntity
8
1
62
256
6
ByLayer
370
18
48
1
60
0
100
AcDbSpline
70
4
71
3
72
28
73
24
40
0
40
0
40
0
40
0
40
0.0477519474348994
40
0.0477519474348994
40
0.115769665475265
40
0.149778524495447
40
0.149778524495447
40
0.18378738351563
40
0.18378738351563
40
0.319822819596359
40
0.319822819596359
40
0.455858255677088
40
0.455858255677088
40
0.591893691757817
40
0.591893691757817
40
0.625902550778
40
0.625902550778
40
0.659911409798182
40
0.659911409798182
40
0.727929127838546
40
0.727929127838546
40
0.863964563919273
40
1
40
1
40
1
40
1
41
1
10
54.0561159853912
20
-3.0570618477781
30
0
41
1
10
54.054329039034
20
-3.05706423798625
30
0
41
1
10
54.0525431594586
20
-3.05650157027296
30
0
41
1
10
54.0482211726363
20
-3.05376199594403
30
0
41
1
10
54.0444208545462
20
-3.04961813195365
30
0
41
1
10
54.0406312457169
20
-3.04283788960203
30
0
41
1
10
54.0381057640872
20
-3.03772517993764
30
0
41
1
10
54.0368429490008
20
-3.03487028267591
30
0
41
1
10
54.0305607649054
20
-3.0191897989119
30
0
41
1
10
54.0256151783985
20
-3.00210850151967
30
0
41
1
10
54.0156798562516
20
-2.95914721999335
30
0
41
1
10
54.0106656402575
20
-2.93326701627314
30
0
41
1
10
54.000563823685
20
-2.87273793434417
30
0
41
1
10
53.9954812244847
20
-2.83808937236986
30
0
41
1
10
53.9890964639583
20
-2.7891672110496
30
0
41
1
10
53.9878178411522
20
-2.77910159491424
30
0
41
1
10
53.9852570747101
20
-2.7584021892998
30
0
41
1
10
53.9839732556713
20
-2.74775379918003
30
0
41
1
10
53.9801335923568
20
-2.71509763440747
30
0
41
1
10
53.9775870820363
20
-2.6923621781738
30
0
41
1
10
53.969980769009
20
-2.62131768808948
30
0
41
1
10
53.9599291788717
20
-2.51903611237705
30
0
41
1
10
53.9499487828842
20
-2.40191773357512
30
0
41
1
10
53.9449390523898
20
-2.33961786736552
30
0
0
SPLINE
5
F4
100
AcDbEntity
8
1
62
256
6
ByLayer
370
18
48
1
60
0
100
AcDbSpline
70
4
71
3
72
22
73
18
40
0
40
0
40
0
40
0
40
0.250000000000001
40
0.250000000000001
40
0.375000000000001
40
0.375000000000001
40
0.500000000000001
40
0.500000000000001
40
0.625000000000001
40
0.750000000000002
40
0.750000000000002
40
0.812500000000002
40
0.812500000000002
40
0.843750000000002
40
0.843750000000002
40
0.875000000000001
40
1
40
1
40
1
40
1
41
1
10
47.3002204008484
20
-2.52726224946824
30
0
41
1
10
47.2909313584266
20
-2.49339440103765
30
0
41
1
10
47.2817364827898
20
-2.44504367546853
30
0
41
1
10
47.2678565672642
20
-2.35125457764806
30
0
41
1
10
47.2632149656125
20
-2.31642439324275
30
0
41
1
10
47.2538663396925
20
-2.23941865251675
30
0
41
1
10
47.2492289135949
20
-2.19779480973881
30
0
41
1
10
47.2400490853393
20
-2.1086103081669
30
0
41
1
10
47.2309597279647
20
-2.0134570923455
30
0
41
1
10
47.2218848428734
20
-1.90645104386283
30
0
41
1
10
47.2149584060118
20
-1.82166123796029
30
0
41
1
10
47.2126264241966
20
-1.79264065035127
30
0
41
1
10
47.2090980167396
20
-1.74795209825354
30
0
41
1
10
47.2079161561306
20
-1.73285259329984
30
0
41
1
10
47.205554851916
20
-1.70241075813962
30
0
41
1
10
47.1996506890711
20
-1.62561640511311
30
0
41
1
10
47.1937577794151
20
-1.54541427196477
30
0
41
1
10
47.1890647341769
20
-1.47910518975488
30
0
0
SPLINE
5
F5
100
AcDbEntity
8
1
62
256
6
ByLayer
370
18
48
1
60
0
100
AcDbSpline
70
4
71
3
72
23
73
19
40
0
40
0
40
0
40
0
40
0.125000000000002
40
0.250000000000004
40
0.250000000000004
40
0.312500000000004
40
0.312500000000004
40
0.375000000000004
40
0.375000000000004
40
0.500000000000004
40
0.625000000000003
40
0.750000000000003
40
0.750000000000003
40
0.812500000000003
40
0.812500000000003
40
0.875000000000002
40
0.875000000000002
40
1
40
1
40
1
40
1
41
1
10
47.1958965449695
20
2.55370909040255
30
0
41
1
10
47.2014367731488
20
2.54680307559016
30
0
41
1
10
47.2125050231544
20
2.5252315659009
30
0
41
1
10
47.223489462248
20
2.48850576722865
30
0
41
1
10
47.2317327053904
20
2.45526741380797
30
0
41
1
10
47.2344818585605
20
2.44323746193828
30
0
41
1
10
47.2399961061191
20
2.41725635993967
30
0
41
1
10
47.2427647869469
20
2.40329068210613
30
0
41
1
10
47.2510975126264
20
2.35855457493827
30
0
41
1
10
47.262143860223
20
2.2920298451327
30
0
41
1
10
47.278575951732
20
2.17229877992378
30
0
41
1
10
47.2895094175404
20
2.07927624591588
30
0
41
1
10
47.297740761931
20
2.00446233826307
30
0
41
1
10
47.3004898851264
20
1.9786817952438
30
0
41
1
10
47.306006960747
20
1.92540172714715
30
0
41
1
10
47.308755830053
20
1.89808630999795
30
0
41
1
10
47.3169784444366
20
1.81422852068783
30
0
41
1
10
47.3224318660947
20
1.75574458314432
30
0
41
1
10
47.3278911241363
20
1.69472509226117
30
0
0
SPLINE
5
F6
100
AcDbEntity
8
1
62
256
6
ByLayer
370
18
48
1
60
0
100
AcDbSpline
70
4
71
3
72
23
73
19
40
0
40
0
40
0
40
0
40
0.125
40
0.249999999999999
40
0.249999999999999
40
0.312499999999999
40
0.312499999999999
40
0.374999999999999
40
0.374999999999999
40
0.5
40
0.625
40
0.75
40
0.75
40
0.8125
40
0.8125
40
0.875
40
0.875
40
1
40
1
40
1
40
1
41
1
10
47.950826444177
20
1.26474000841085
30
0
41
1
10
47.9460775016866
20
1.34016088740179
30
0
41
1
10
47.9366490319753
20
1.48616648888191
30
0
41
1
10
47.9272683847663
20
1.62268044059397
30
0
41
1
10
47.9202058484953
20
1.72147379480293
30
0
41
1
10
47.9178470413306
20
1.75380519711342
30
0
41
1
10
47.9131111256714
20
1.81725024987892
30
0
41
1
10
47.9107305250118
20
1.84840438092658
30
0
41
1
10
47.903617154061
20
1.9391164867871
30
0
41
1
10
47.8941724237305
20
2.05333792961619
30
0
41
1
10
47.8800997170939
20
2.20502252989985
30
0
41
1
10
47.8706776460267
20
2.29302674095348
30
0
41
1
10
47.8635269856727
20
2.35395962384973
30
0
41
1
10
47.861125631092
20
2.37345317964008
30
0
41
1
10
47.8563421758524
20
2.41035987028576
30
0
41
1
10
47.8539551978586
20
2.42781795710033
30
0
41
1
10
47.8468064194407
20
2.47724668108558
30
0
41
1
10
47.8420574215047
20
2.50627862079995
30
0
41
1
10
47.8373115889172
20
2.53141221563203
30
0
0
SPLINE
5
F7
100
AcDbEntity
8
1
62
256
6
ByLayer
370
13
48
1
60
0
100
AcDbSpline
70
4
71
3
72
10
73
6
40
0
40
0
40
0
40
0
40
0.414244639367437
40
0.798078929315186
40
1
40
1
40
1
40
1
41
1.04
10
48.060075570017
20
1.13766171745744
30
0
41
1.04
10
48.0438242528137
20
1.36352454689246
30
0
41
1.04
10
48.0126230868108
20
1.76314780883566
30
0
41
1.04
10
47.9731479345057
20
2.13914006543264
30
0
41
1.04
10
47.9499322890844
20
2.29033958275731
30
0
41
1.04
10
47.9419030867543
20
2.33370911191799
30
0
0
SPLINE
5
F8
100
AcDbEntity
8
1
62
256
6
ByLayer
370
18
48
1
60
0
100
AcDbSpline
70
4
71
3
72
26
73
22
40
0
40
0
40
0
40
0
40
0.0625000000000009
40
0.0625000000000009
40
0.125000000000002
40
0.125000000000002
40
0.250000000000004
40
0.250000000000004
40
0.375000000000005
40
0.375000000000005
40
0.437500000000006
40
0.437500000000006
40
0.468750000000005
40
0.468750000000005
40
0.500000000000005
40
0.500000000000005
40
0.750000000000003
40
0.750000000000003
40
0.875000000000001
40
0.875000000000001
40
1
40
1
40
1
40
1
41
1
10
46.4188194193895
20
-0.862622957929091
30
0
41
1
10
46.4217153110659
20
-0.898782739079422
30
0
41
1
10
46.424601926882
20
-0.934711087244835
30
0
41
1
10
46.4303249604296
20
-1.00553379797566
30
0
41
1
10
46.4331653801622
20
-1.04047810574247
30
0
41
1
10
46.4416481495304
20
-1.14393367387782
30
0
41
1
10
46.4472587848127
20
-1.21107051800374
30
0
41
1
10
46.458474425397
20
-1.34173049337537
30
0
41
1
10
46.4640631969157
20
-1.4052533992446
30
0
41
1
10
46.4725291283715
20
-1.49779808439683
30
0
41
1
10
46.4753702282095
20
-1.52818906737056
30
0
41
1
10
46.4796566289906
20
-1.57307914700081
30
0
41
1
10
46.4810892050867
20
-1.58792638680376
30
0
41
1
10
46.4839604146026
20
-1.61738624007575
30
0
41
1
10
46.4854006404141
20
-1.63201461870099
30
0
41
1
10
46.4983221963244
20
-1.76197737924792
30
0
41
1
10
46.5095562858544
20
-1.86638644125827
30
0
41
1
10
46.5260780830911
20
-2.00691720846416
30
0
41
1
10
46.5315381748507
20
-2.05106304225495
30
0
41
1
10
46.5424441631004
20
-2.133851368504
30
0
41
1
10
46.547903952408
20
-2.17257052236553
30
0
41
1
10
46.5533522856924
20
-2.20803054947953
30
0
0
SPLINE
5
F9
100
AcDbEntity
8
1
62
256
6
ByLayer
370
18
48
1
60
0
100
AcDbSpline
70
4
71
3
72
26
73
22
40
0
40
0
40
0
40
0
40
0.0625000000000005
40
0.0625000000000005
40
0.125000000000001
40
0.125000000000001
40
0.25
40
0.25
40
0.499999999999998
40
0.499999999999998
40
0.562499999999997
40
0.562499999999997
40
0.624999999999997
40
0.624999999999997
40
0.749999999999998
40
0.749999999999998
40
0.874999999999998
40
0.874999999999998
40
0.937499999999999
40
0.937499999999999
40
1
40
1
40
1
40
1
41
1
10
46.3367755282998
20
-2.08857328095678
30
0
41
1
10
46.3347004985693
20
-2.06908652071388
30
0
41
1
10
46.3326299195506
20
-2.04883631391229
30
0
41
1
10
46.328531887694
20
-2.00712598980871
30
0
41
1
10
46.3265025205156
20
-1.985650479393
30
0
41
1
10
46.3204721255577
20
-1.91939439192728
30
0
41
1
10
46.3165305306891
20
-1.87278801707612
30
0
41
1
10
46.3048755432724
20
-1.72577116715956
30
0
41
1
10
46.2973774981278
20
-1.61822568298876
30
0
41
1
10
46.2875949423307
20
-1.47132452655521
30
0
41
1
10
46.2856228173884
20
-1.44148679892578
30
0
41
1
10
46.2816782852316
20
-1.38108211181552
30
0
41
1
10
46.2797046635862
20
-1.35048798592476
30
0
41
1
10
46.2737938410065
20
-1.25754715420598
30
0
41
1
10
46.2698647647259
20
-1.19404425478112
30
0
41
1
10
46.261990740896
20
-1.06398343682653
30
0
41
1
10
46.2580574398156
20
-0.997425787832753
30
0
41
1
10
46.2522105153451
20
-0.895265528479513
30
0
41
1
10
46.2502701891757
20
-0.860824217735569
30
0
41
1
10
46.2464112329512
20
-0.791152838656615
30
0
41
1
10
46.2444901159391
20
-0.755874454302187
30
0
41
1
10
46.2425902805945
20
-0.720382542905526
30
0
0
SPLINE
5
FA
100
AcDbEntity
8
1
62
256
6
ByLayer
370
13
48
1
60
0
100
AcDbSpline
70
4
71
3
72
10
73
6
40
0
40
0
40
0
40
0
40
0.229907710068
40
0.994649050815093
40
1
40
1
40
1
40
1
41
1
10
53.2605356643138
20
1.76671635880882
30
0
41
1
10
53.2515173422861
20
1.86600221476124
30
0
41
1
10
53.2123375336068
20
2.26095908647659
30
0
41
1
10
53.1729525084756
20
2.46779509412514
30
0
41
1
10
53.1421042235962
20
2.48580007195341
30
0
41
1
10
53.1418898503768
20
2.48591835449233
30
0
0
SPLINE
5
FB
100
AcDbEntity
8
1
62
256
6
ByLayer
370
13
48
1
60
0
100
AcDbSpline
70
4
71
3
72
10
73
6
40
0
40
0
40
0
40
0
40
0.0180126800569939
40
0.584040901017194
40
1
40
1
40
1
40
1
41
1.04
10
54.0530845963025
20
1.23385781470168
30
0
41
1.04
10
54.05235444519
20
1.2437670431872
30
0
41
1.04
10
54.028682180686
20
1.56374171530248
30
0
41
1.04
10
53.9883202046122
20
2.03542333546796
30
0
41
1.04
10
53.9502486981531
20
2.29626402419217
30
0
41
1.04
10
53.9345678642328
20
2.37066825103219
30
0
0
SPLINE
5
FC
100
AcDbEntity
8
1
62
256
6
ByLayer
370
18
48
1
60
0
100
AcDbSpline
70
4
71
3
72
29
73
25
40
0
40
0
40
0
40
0
40
0.125
40
0.125
40
0.249999999999999
40
0.249999999999999
40
0.28125
40
0.28125
40
0.3125
40
0.375
40
0.375
40
0.5
40
0.5
40
0.625
40
0.625
40
0.65625
40
0.65625
40
0.6875
40
0.6875
40
0.75
40
0.75
40
0.875
40
0.875
40
1
40
1
40
1
40
1
41
1
10
53.4844869331985
20
3.03446004436407
30
0
41
1
10
53.4900223629848
20
3.02160765237971
30
0
41
1
10
53.4955547116548
20
3.00334595562808
30
0
41
1
10
53.5066302211131
20
2.95601837712349
30
0
41
1
10
53.5121729309845
20
2.92695335185837
30
0
41
1
10
53.5191362219787
20
2.88365605743286
30
0
41
1
10
53.520532784921
20
2.87463311897795
30
0
41
1
10
53.5233176574804
20
2.85596845264485
30
0
41
1
10
53.5274834567956
20
2.8270414660667
30
0
41
1
10
53.5316202351219
20
2.79535892922411
30
0
41
1
10
53.5398720508783
20
2.72838153823909
30
0
41
1
10
53.54534334837
20
2.67892299692781
30
0
41
1
10
53.5563375455605
20
2.57048190789533
30
0
41
1
10
53.5618726191199
20
2.51150009834015
30
0
41
1
10
53.5688733272934
20
2.43168221438137
30
0
41
1
10
53.5702762788247
20
2.41541327693181
30
0
41
1
10
53.573086268512
20
2.38225785155427
30
0
41
1
10
53.5744953323086
20
2.36534621766319
30
0
41
1
10
53.5787063922375
20
2.31393074932396
30
0
41
1
10
53.5814947192213
20
2.27871770474965
30
0
41
1
10
53.5898049591859
20
2.17032823968322
30
0
41
1
10
53.5952669081237
20
2.09440853013362
30
0
41
1
10
53.6061723173349
20
1.93537614850786
30
0
41
1
10
53.6116400656192
20
1.85226442958134
30
0
41
1
10
53.6171687168462
20
1.76550322080956
30
0
0
SPLINE
5
FD
100
AcDbEntity
8
1
62
256
6
ByLayer
370
18
48
1
60
0
100
AcDbSpline
70
4
71
3
72
29
73
25
40
0
40
0
40
0
40
0
40
0.125000000000001
40
0.250000000000002
40
0.250000000000002
40
0.375000000000003
40
0.375000000000003
40
0.406250000000003
40
0.406250000000003
40
0.437500000000003
40
0.437500000000003
40
0.500000000000003
40
0.500000000000003
40
0.625000000000003
40
0.625000000000003
40
0.750000000000002
40
0.750000000000002
40
0.781250000000002
40
0.781250000000002
40
0.812500000000001
40
0.812500000000001
40
0.875000000000001
40
0.875000000000001
40
1
40
1
40
1
40
1
41
1
10
53.7134896398009
20
1.68227989728359
30
0
41
1
10
53.7078540742321
20
1.77155890074278
30
0
41
1
10
53.6966638028456
20
1.94248878958049
30
0
41
1
10
53.6857350459227
20
2.09865423038835
30
0
41
1
10
53.6748632548547
20
2.2474346332445
30
0
41
1
10
53.6694569021403
20
2.31813291869875
30
0
41
1
10
53.6626009118784
20
2.4017341501177
30
0
41
1
10
53.6612227896206
20
2.41823350030197
30
0
41
1
10
53.6584661893938
20
2.45057014511761
30
0
41
1
10
53.657086254236
20
2.46642592891507
30
0
41
1
10
53.6529334608046
20
2.51306598306539
30
0
41
1
10
53.6501442765061
20
2.54292351647891
30
0
41
1
10
53.6417470648855
20
2.62884980694491
30
0
41
1
10
53.6361145460564
20
2.68128210361985
30
0
41
1
10
53.6249094130665
20
2.77652438772671
30
0
41
1
10
53.6193380139283
20
2.81933473994997
30
0
41
1
10
53.6124203631128
20
2.86668522178419
30
0
41
1
10
53.6110388215327
20
2.87584638592372
30
0
41
1
10
53.6082784169487
20
2.89354378377067
30
0
41
1
10
53.6068981112413
20
2.90208790156845
30
0
41
1
10
53.6027814257076
20
2.92663589831562
30
0
41
1
10
53.6000630938978
20
2.94160066496445
30
0
41
1
10
53.5919476638919
20
2.98237707088561
30
0
41
1
10
53.5865835399857
20
3.00408146413807
30
0
41
1
10
53.5811340419181
20
3.02039184706751
30
0
0
SPLINE
5
FE
100
AcDbEntity
8
1
62
256
6
ByLayer
370
13
48
1
60
0
100
AcDbSpline
70
4
71
3
72
10
73
6
40
0
40
0
40
0
40
0
40
0.543748786990831
40
0.927136833168247
40
1
40
1
40
1
40
1
41
1
10
48.3250407462272
20
0.93327308066381
30
0
41
1
10
48.303619633624
20
1.24350221757427
30
0
41
1
10
48.2673882057486
20
1.72530681433875
30
0
41
1
10
48.2278670975282
20
2.09880293006717
30
0
41
1
10
48.2097790760463
20
2.22708159217805
30
0
41
1
10
48.2068882638969
20
2.24646767241154
30
0
0
SPLINE
5
FF
100
AcDbEntity
8
1
62
256
6
ByLayer
370
13
48
1
60
0
100
AcDbSpline
70
4
71
3
72
10
73
6
40
0
40
0
40
0
40
0
40
0.008704220094128
40
0.774406368950084
40
1
40
1
40
1
40
1
41
1.04
10
53.3480789867584
20
-2.41835583938218
30
0
41
1.04
10
53.3477334567516
20
-2.41708923234767
30
0
41
1.04
10
53.3169946055511
20
-2.30286831410826
30
0
41
1.04
10
53.2775912624601
20
-1.97955476919765
30
0
41
1.04
10
53.2383690157146
20
-1.49813251153891
30
0
41
1.04
10
53.2294257651392
20
-1.38179844903308
30
0
0
SPLINE
5
100
100
AcDbEntity
8
1
62
256
6
ByLayer
370
13
48
1
60
0
100
AcDbSpline
70
4
71
3
72
11
73
7
40
0
40
0
40
0
40
0
40
0.0272309488343173
40
0.414774160601402
40
0.985971934658154
40
1
40
1
40
1
40
1
41
1
10
52.5554155969542
20
-2.1733997212427
30
0
41
1
10
52.5543565351449
20
-2.16534999768604
30
0
41
1
10
52.5382217372938
20
-2.04050238676598
30
0
41
1
10
52.4997180141844
20
-1.66325599423334
30
0
41
1
10
52.4612865226929
20
-1.1394750160373
30
0
41
1
10
52.4375675254323
20
-0.78811949880884
30
0
41
1
10
52.4369986332573
20
-0.779677117582111
30
0
0
SPLINE
5
101
100
AcDbEntity
8
1
62
256
6
ByLayer
370
13
48
1
60
0
100
AcDbSpline
70
4
71
3
72
10
73
6
40
0
40
0
40
0
40
0
40
0.124517340061064
40
0.69011983252869
40
1
40
1
40
1
40
1
41
1.04
10
49.117692426887
20
0.280934560584602
30
0
41
1.04
10
49.1121125079606
20
0.367661733000091
30
0
41
1.04
10
49.0816421905817
20
0.838365519723701
30
0
41
1.04
10
49.0418838981957
20
1.40661444127897
30
0
41
1.04
10
49.0103538893699
20
1.76713968631323
30
0
41
1.04
10
48.9994904095966
20
1.87844204276657
30
0
0
SPLINE
5
102
100
AcDbEntity
8
1
62
256
6
ByLayer
370
18
48
1
60
0
100
AcDbSpline
70
4
71
3
72
27
73
23
40
0
40
0
40
0
40
0
40
0.125
40
0.125
40
0.249999999999999
40
0.249999999999999
40
0.281249999999999
40
0.281249999999999
40
0.312499999999998
40
0.312499999999998
40
0.374999999999998
40
0.374999999999998
40
0.499999999999997
40
0.624999999999997
40
0.624999999999997
40
0.687499999999997
40
0.718749999999998
40
0.718749999999998
40
0.749999999999999
40
0.749999999999999
40
0.874999999999999
40
1
40
1
40
1
40
1
41
1
10
48.3508144811215
20
2.42166576498329
30
0
41
1
10
48.3565423152397
20
2.38077611295813
30
0
41
1
10
48.3622710759976
20
2.33608683980296
30
0
41
1
10
48.3737259349256
20
2.23921941649525
30
0
41
1
10
48.3794495244563
20
2.18704083896858
30
0
41
1
10
48.3866232189949
20
2.1170706952565
30
0
41
1
10
48.3880590692823
20
2.10283879480804
30
0
41
1
10
48.390934219128
20
2.07389545984049
30
0
41
1
10
48.3923753776868
20
2.05916455919584
30
0
41
1
10
48.3966896720187
20
2.01441881536721
30
0
41
1
10
48.3995533729256
20
1.98385598506528
30
0
41
1
10
48.4081291329821
20
1.890017398194
30
0
41
1
10
48.419528980666
20
1.75917698528616
30
0
41
1
10
48.4308956492825
20
1.61710221471481
30
0
41
1
10
48.4394354996877
20
1.50629095384878
30
0
41
1
10
48.443709383931
20
1.44981966556546
30
0
41
1
10
48.4479968337686
20
1.39172438955686
30
0
41
1
10
48.4508591882168
20
1.35262918750089
30
0
41
1
10
48.4522923833528
20
1.3328986119605
30
0
41
1
10
48.4594324193287
20
1.23386568191634
30
0
41
1
10
48.4707518501829
20
1.07214357455439
30
0
41
1
10
48.4820192860624
20
0.90407117157315
30
0
41
1
10
48.4876836195703
20
0.818448638628752
30
0
0
SPLINE
5
103
100
AcDbEntity
8
1
62
256
6
ByLayer
370
18
48
1
60
0
100
AcDbSpline
70
4
71
3
72
28
73
24
40
0
40
0
40
0
40
0
40
0.124999999999999
40
0.124999999999999
40
0.249999999999998
40
0.249999999999998
40
0.312499999999998
40
0.312499999999998
40
0.374999999999998
40
0.374999999999998
40
0.499999999999998
40
0.499999999999998
40
0.624999999999999
40
0.624999999999999
40
0.749999999999999
40
0.749999999999999
40
0.781249999999999
40
0.781249999999999
40
0.812499999999999
40
0.812499999999999
40
0.875
40
0.875
40
1
40
1
40
1
40
1
41
1
10
48.926552300655
20
0.410622071313867
30
0
41
1
10
48.9217319908549
20
0.502230336089525
30
0
41
1
10
48.9169864636065
20
0.592573939636566
30
0
41
1
10
48.9074571754336
20
0.770770913528963
30
0
41
1
10
48.9026766540838
20
0.858624525063021
30
0
41
1
10
48.8954271157955
20
0.988520194538552
30
0
41
1
10
48.8929979921942
20
1.03150411375432
30
0
41
1
10
48.8881106453268
20
1.11683325987471
30
0
41
1
10
48.8856504880159
20
1.15921178320463
30
0
41
1
10
48.8782367467394
20
1.28516014421066
30
0
41
1
10
48.8733174191744
20
1.36639966236385
30
0
41
1
10
48.8635369328661
20
1.52361558748802
30
0
41
1
10
48.8586771156384
20
1.59959162935311
30
0
41
1
10
48.8490233453493
20
1.74630817178624
30
0
41
1
10
48.8442255898378
20
1.81704839480508
30
0
41
1
10
48.8381804784773
20
1.90211122112561
30
0
41
1
10
48.836969189219
20
1.91895528619818
30
0
41
1
10
48.8345404553883
20
1.95230259991089
30
0
41
1
10
48.83332165465
20
1.96882369488452
30
0
41
1
10
48.8296692944265
20
2.01766411860882
30
0
41
1
10
48.8272368122664
20
2.04930245086749
30
0
41
1
10
48.8199338765972
20
2.14148404125899
30
0
41
1
10
48.8150572808003
20
2.19930047277583
30
0
41
1
10
48.8101525027811
20
2.25348531384157
30
0
0
SPLINE
5
104
100
AcDbEntity
8
1
62
256
6
ByLayer
370
13
48
1
60
0
100
AcDbSpline
70
4
71
3
72
10
73
6
40
0
40
0
40
0
40
0
40
0.104035068525257
40
0.895292871131254
40
1
40
1
40
1
40
1
41
1.04
10
55.1106519185578
20
0.389560492026046
30
0
41
1.04
10
55.106600291991
20
0.452089562858732
30
0
41
1.04
10
55.0717164818278
20
0.987266264563839
30
0
41
1.04
10
55.0325615327468
20
1.54249704622009
30
0
41
1.04
10
54.9962753498505
20
1.9112232247363
30
0
41
1.04
10
54.99202292174
20
1.95235582615957
30
0
0
SPLINE
5
105
100
AcDbEntity
8
1
62
256
6
ByLayer
370
13
48
1
60
0
100
AcDbSpline
70
4
71
3
72
10
73
6
40
0
40
0
40
0
40
0
40
0.145722257796258
40
0.71588846408034
40
1
40
1
40
1
40
1
41
1
10
54.3181129682098
20
1.0327551353121
30
0
41
1
10
54.3122539285709
20
1.11609287183731
30
0
41
1
10
54.2834220370189
20
1.51598953184188
30
0
41
1
10
54.2433529853893
20
1.98166213531678
30
0
41
1
10
54.2102890075601
20
2.22807790746944
30
0
41
1
10
54.1994732694773
20
2.29338104367568
30
0
0
SPLINE
5
106
100
AcDbEntity
8
1
62
256
6
ByLayer
370
18
48
1
60
0
100
AcDbSpline
70
4
71
3
72
30
73
26
40
0
40
0
40
0
40
0
40
0.124999999999994
40
0.124999999999994
40
0.249999999999987
40
0.249999999999987
40
0.281249999999987
40
0.281249999999987
40
0.312499999999986
40
0.312499999999986
40
0.374999999999986
40
0.374999999999986
40
0.499999999999987
40
0.499999999999987
40
0.624999999999989
40
0.624999999999989
40
0.68749999999999
40
0.68749999999999
40
0.71874999999999
40
0.71874999999999
40
0.749999999999991
40
0.749999999999991
40
0.874999999999996
40
0.874999999999996
40
1
40
1
40
1
40
1
41
1
10
54.4647184262252
20
2.62056004800863
30
0
41
1
10
54.4736051718435
20
2.57821035660558
30
0
41
1
10
54.4823863394571
20
2.53076545001619
30
0
41
1
10
54.5000254811603
20
2.42585456625812
30
0
41
1
10
54.5089310683907
20
2.36840432380345
30
0
41
1
10
54.5201577197307
20
2.2903042735033
30
0
41
1
10
54.5224070781644
20
2.27436881818096
30
0
41
1
10
54.5269126464853
20
2.24186102839707
30
0
41
1
10
54.5291720726557
20
2.22526448076397
30
0
41
1
10
54.5359340710298
20
2.17469535368298
30
0
41
1
10
54.5404124410086
20
2.14000698820507
30
0
41
1
10
54.553750311627
20
2.03306970990332
30
0
41
1
10
54.5625108971435
20
1.95795923379072
30
0
41
1
10
54.5797487498807
20
1.80009553033543
30
0
41
1
10
54.5882338327554
20
1.71735119952552
30
0
41
1
10
54.6009168945204
20
1.58742175951593
30
0
41
1
10
54.6051401846564
20
1.54314023782092
30
0
41
1
10
54.6114767566524
20
1.47522573919085
30
0
41
1
10
54.6135869398383
20
1.45235382581325
30
0
41
1
10
54.6177812660198
20
1.40636782027011
30
0
41
1
10
54.6198682706114
20
1.38322321250743
30
0
41
1
10
54.6302509307328
20
1.26674750205604
30
0
41
1
10
54.6383904332682
20
1.17116651834201
30
0
41
1
10
54.6543386295079
20
0.975203421660495
30
0
41
1
10
54.6621441776687
20
0.874823773426442
30
0
41
1
10
54.6698204790474
20
0.772005078042241
30
0
0
SPLINE
5
107
100
AcDbEntity
8
1
62
256
6
ByLayer
370
18
48
1
60
0
100
AcDbSpline
70
4
71
3
72
26
73
22
40
0
40
0
40
0
40
0
40
0.125
40
0.125
40
0.250000000000001
40
0.250000000000001
40
0.312500000000001
40
0.312500000000001
40
0.375000000000001
40
0.375000000000001
40
0.500000000000001
40
0.500000000000001
40
0.625000000000001
40
0.625000000000001
40
0.6875
40
0.6875
40
0.75
40
0.75
40
0.875
40
0.875
40
1
40
1
40
1
40
1
41
1
10
54.7941809515396
20
0.646144466968764
30
0
41
1
10
54.7915772820542
20
0.739902305048759
30
0
41
1
10
54.7891305544401
20
0.831931647729419
30
0
41
1
10
54.7846053819678
20
1.01254659535053
30
0
41
1
10
54.7825366329045
20
1.10112728325865
30
0
41
1
10
54.7797141758415
20
1.23135620299362
30
0
41
1
10
54.7788172939667
20
1.27432615439804
30
0
41
1
10
54.7770986496987
20
1.35937215205607
30
0
41
1
10
54.7762828922652
20
1.40115079940202
30
0
41
1
10
54.7739504294408
20
1.52396382379223
30
0
41
1
10
54.7725443400461
20
1.60263598721147
30
0
41
1
10
54.7699359311559
20
1.75371751840427
30
0
41
1
10
54.768735552286
20
1.82612450608326
30
0
41
1
10
54.7670371041779
20
1.92996801526306
30
0
41
1
10
54.7664852062778
20
1.96378942522281
30
0
41
1
10
54.7653797854802
20
2.02983889630312
30
0
41
1
10
54.7648248822172
20
2.06213827838749
30
0
41
1
10
54.7631374323873
20
2.15575709072601
30
0
41
1
10
54.761970496323
20
2.21401246294832
30
0
41
1
10
54.7596131198607
20
2.32236147025026
30
0
41
1
10
54.758424336328
20
2.37245448048842
30
0
41
1
10
54.7572298887174
20
2.41836308085479
30
0
0
SPLINE
5
108
100
AcDbEntity
8
1
62
256
6
ByLayer
370
13
48
1
60
0
100
AcDbSpline
70
4
71
3
72
9
73
5
40
0
40
0
40
0
40
0
40
0.234646246036019
40
1
40
1
40
1
40
1
41
1
10
55.3756727937131
20
0.165244756234444
30
0
41
1
10
55.3664971949285
20
0.308275301369179
30
0
41
1
10
55.3273605295197
20
0.914890795614525
30
0
41
1
10
55.2880078907733
20
1.47215147779011
30
0
41
1
10
55.2570221347247
20
1.80499473388122
30
0
0
SPLINE
5
109
100
AcDbEntity
8
1
62
256
6
ByLayer
370
18
48
1
60
0
100
AcDbSpline
70
4
71
3
72
23
73
19
40
0
40
0
40
0
40
0
40
0.250000000000003
40
0.250000000000003
40
0.312500000000002
40
0.312500000000002
40
0.375000000000002
40
0.375000000000002
40
0.500000000000001
40
0.500000000000001
40
0.625
40
0.625
40
0.687500000000001
40
0.687500000000001
40
0.750000000000001
40
0.750000000000001
40
0.875
40
1
40
1
40
1
40
1
41
1
10
55.4000439136793
20
1.91157004829606
30
0
41
1
10
55.4173203787708
20
1.78409530763864
30
0
41
1
10
55.4342799340399
20
1.64326427278556
30
0
41
1
10
55.4550559584808
20
1.45028809043822
30
0
41
1
10
55.4592044070688
20
1.41073156847358
30
0
41
1
10
55.4673933691401
20
1.33064671261587
30
0
41
1
10
55.4714386493664
20
1.29008002845353
30
0
41
1
10
55.4834372453914
20
1.16683384428333
30
0
41
1
10
55.4912538024595
20
1.08261340981821
30
0
41
1
10
55.5065617079676
20
0.910072465299152
30
0
41
1
10
55.5140496823711
20
0.821749455271544
30
0
41
1
10
55.525147587965
20
0.68614428541224
30
0
41
1
10
55.5288259666936
20
0.640421245376587
30
0
41
1
10
55.5361501843446
20
0.547910976286261
30
0
41
1
10
55.5397630835191
20
0.501526557004695
30
0
41
1
10
55.5504552628971
20
0.362084415468729
30
0
41
1
10
55.5643271304536
20
0.175313001798599
30
0
41
1
10
55.577518908231
20
-0.013117320466506
30
0
41
1
10
55.5839731497102
20
-0.107752395308978
30
0
0
SPLINE
5
10A
100
AcDbEntity
8
1
62
256
6
ByLayer
370
18
48
1
60
0
100
AcDbSpline
70
4
71
3
72
25
73
21
40
0
40
0
40
0
40
0
40
0.125000000000001
40
0.250000000000001
40
0.250000000000001
40
0.312500000000001
40
0.312500000000001
40
0.375000000000001
40
0.375000000000001
40
0.500000000000001
40
0.625000000000001
40
0.625000000000001
40
0.75
40
0.75
40
0.78125
40
0.78125
40
0.8125
40
0.875
40
0.875
40
1
40
1
40
1
40
1
41
1
10
56.043197220623
20
-0.494074531274549
30
0
41
1
10
56.0390609234921
20
-0.410993395726706
30
0
41
1
10
56.0313906623362
20
-0.244437635977818
30
0
41
1
10
56.0246266893787
20
-0.0771283755635181
30
0
41
1
10
56.0197394095419
20
0.048629569177848
30
0
41
1
10
56.0181392869188
20
0.0905948599840087
30
0
41
1
10
56.0149777671688
20
0.174617745265579
30
0
41
1
10
56.0134165153579
20
0.216769488883926
30
0
41
1
10
56.008868815208
20
0.342074706831824
30
0
41
1
10
56.0031451406945
20
0.506739579073695
30
0
41
1
10
55.998210552517
20
0.666698329972604
30
0
41
1
10
55.9936909101594
20
0.824280247710902
30
0
41
1
10
55.9916413085062
20
0.901881846258874
30
0
41
1
10
55.989324030012
20
0.997335529699825
30
0
41
1
10
55.9888725997751
20
1.01633229648823
30
0
41
1
10
55.9879952147307
20
1.05395771632126
30
0
41
1
10
55.9867154670783
20
1.1099209400308
30
0
41
1
10
55.9855309589625
20
1.16447952674534
30
0
41
1
10
55.9832534490057
20
1.2717596829502
30
0
41
1
10
55.9818569056465
20
1.3408359414216
30
0
41
1
10
55.9804912125145
20
1.40749378392184
30
0
0
SPLINE
5
10B
100
AcDbEntity
8
1
62
256
6
ByLayer
370
13
48
1
60
0
100
AcDbSpline
70
4
71
3
72
10
73
6
40
0
40
0
40
0
40
0
40
0.244896815707747
40
0.828369530800272
40
1
40
1
40
1
40
1
41
1
10
49.3826858487463
20
0.0558836770159132
30
0
41
1
10
49.371789280882
20
0.226247221038648
30
0
41
1
10
49.3357580031986
20
0.788495141152055
30
0
41
1
10
49.2972173939066
20
1.33771306706171
30
0
41
1
10
49.2704064815718
20
1.65632024867511
30
0
41
1
10
49.26441325369
20
1.72390727939978
30
0
0
SPLINE
5
10C
100
AcDbEntity
8
1
62
256
6
ByLayer
370
13
48
1
60
0
100
AcDbSpline
70
4
71
3
72
10
73
6
40
0
40
0
40
0
40
0
40
0.284793833631997
40
0.859023457170805
40
1
40
1
40
1
40
1
41
1.04
10
52.2904280294544
20
-2.05491111065727
30
0
41
1.04
10
52.2793827410415
20
-1.95761650879697
30
0
41
1.04
10
52.2459713256337
20
-1.6185737655789
30
0
41
1.04
10
52.2066726093834
20
-1.08494641705001
30
0
41
1.04
10
52.1776817513848
20
-0.649073153875654
30
0
41
1.04
10
52.1719370575455
20
-0.561605158762181
30
0
0
SPLINE
5
10D
100
AcDbEntity
8
1
62
256
6
ByLayer
370
13
48
1
60
0
100
AcDbSpline
70
4
71
3
72
9
73
5
40
0
40
0
40
0
40
0
40
0.557068902209318
40
1
40
1
40
1
40
1
41
1.04
10
51.2328182299484
20
-1.42538554373541
30
0
41
1.04
10
51.2110611511426
20
-1.14656332443217
30
0
41
1.04
10
51.1719927995314
20
-0.574470876204048
30
0
41
1.04
10
51.1323246278902
20
0.0542341235376289
30
0
41
1.04
10
51.1145401315944
20
0.329680597916684
30
0
0
SPLINE
5
10E
100
AcDbEntity
8
1
62
256
6
ByLayer
370
13
48
1
60
0
100
AcDbSpline
70
4
71
3
72
9
73
5
40
0
40
0
40
0
40
0
40
0.6860801298266
40
1
40
1
40
1
40
1
41
1
10
51.4978522309463
20
-1.60469685810983
30
0
41
1
10
51.4709517570988
20
-1.28325109545884
30
0
41
1
10
51.4318222370525
20
-0.714926402756021
30
0
41
1
10
51.3920885880902
20
-0.0909191282641473
30
0
41
1
10
51.3795211274594
20
0.10536507395264
30
0
0
SPLINE
5
10F
100
AcDbEntity
8
1
62
256
6
ByLayer
370
18
48
1
60
0
100
AcDbSpline
70
4
71
3
72
31
73
27
40
0
40
0
40
0
40
0
40
0.124999999999997
40
0.124999999999997
40
0.156249999999997
40
0.156249999999997
40
0.187499999999996
40
0.187499999999996
40
0.249999999999996
40
0.249999999999996
40
0.374999999999995
40
0.499999999999994
40
0.499999999999994
40
0.562499999999993
40
0.562499999999993
40
0.593749999999994
40
0.593749999999994
40
0.624999999999994
40
0.749999999999996
40
0.749999999999996
40
0.874999999999998
40
0.874999999999998
40
0.937499999999999
40
0.968749999999999
40
0.968749999999999
40
1
40
1
40
1
40
1
41
1
10
51.7219097664754
20
-0.129859358724985
30
0
41
1
10
51.7274026739346
20
-0.235355295123895
30
0
41
1
10
51.7328918786255
20
-0.340714532840622
30
0
41
1
10
51.7398166033814
20
-0.472235426245391
30
0
41
1
10
51.7412048687373
20
-0.498530666493622
30
0
41
1
10
51.7439904169761
20
-0.551102960195465
30
0
41
1
10
51.7453895002496
20
-0.577410947370453
30
0
41
1
10
51.7495913634434
20
-0.656086794649951
30
0
41
1
10
51.7523884579063
20
-0.708032519972619
30
0
41
1
10
51.7607633712523
20
-0.862388007620865
30
0
41
1
10
51.7718844343938
20
-1.06425218700252
30
0
41
1
10
51.782916245444
20
-1.25837541940706
30
0
41
1
10
51.791185696248
20
-1.40102346526834
30
0
41
1
10
51.7939417621592
20
-1.4480810953421
30
0
41
1
10
51.7980820715256
20
-1.5179153694321
30
0
41
1
10
51.7994649620758
20
-1.54109675124653
30
0
41
1
10
51.8022259114347
20
-1.5870658131665
30
0
41
1
10
51.8091066446737
20
-1.70083997515104
30
0
41
1
10
51.8158969060024
20
-1.80896444854301
30
0
41
1
10
51.826769917998
20
-1.97491794848634
30
0
41
1
10
51.8322119691397
20
-2.05437140435214
30
0
41
1
10
51.8404925493464
20
-2.16823266746602
30
0
41
1
10
51.8446588868963
20
-2.2238310890078
30
0
41
1
10
51.8488594438995
20
-2.27740110854069
30
0
41
1
10
51.8516671952788
20
-2.3126585210085
30
0
41
1
10
51.8530765982736
20
-2.33008174755562
30
0
41
1
10
51.8544850163897
20
-2.34721835970785
30
0
0
SPLINE
5
110
100
AcDbEntity
8
1
62
256
6
ByLayer
370
13
48
1
60
0
100
AcDbSpline
70
4
71
3
72
9
73
5
40
0
40
0
40
0
40
0
40
0.768837344613783
40
1
40
1
40
1
40
1
41
1
10
50.4402605988543
20
-0.827925098635774
30
0
41
1
10
50.4102164271723
20
-0.384939046264577
30
0
41
1
10
50.3715272835152
20
0.243294844619328
30
0
41
1
10
50.3313476934183
20
0.843003980115327
30
0
41
1
10
50.321959976238
20
0.977896423658876
30
0
0
SPLINE
5
111
100
AcDbEntity
8
1
62
256
6
ByLayer
370
18
48
1
60
0
100
AcDbSpline
70
4
71
3
72
22
73
18
40
0
40
0
40
0
40
0
40
0.25
40
0.25
40
0.3125
40
0.3125
40
0.375
40
0.375
40
0.5
40
0.5
40
0.750000000000002
40
0.750000000000002
40
0.812500000000002
40
0.812500000000002
40
0.875000000000001
40
0.875000000000001
40
1
40
1
40
1
40
1
41
1
10
50.697570097702
20
0.33771423556766
30
0
41
1
10
50.7057910550699
20
0.180497048046163
30
0
41
1
10
50.7140349471211
20
0.0219362050109737
30
0
41
1
10
50.7244768168592
20
-0.178000962299933
30
0
41
1
10
50.7265722471593
20
-0.218078254485817
30
0
41
1
10
50.7307425778468
20
-0.297697830997606
30
0
41
1
10
50.7328221467226
20
-0.337329614554818
30
0
41
1
10
50.7390485254635
20
-0.455698422677898
30
0
41
1
10
50.7431829699153
20
-0.533909700173894
30
0
41
1
10
50.7555731400158
20
-0.766469517533153
30
0
41
1
10
50.7638181947579
20
-0.918756551985325
30
0
41
1
10
50.7742250502681
20
-1.10558403765646
30
0
41
1
10
50.776309876411
20
-1.14277204140711
30
0
41
1
10
50.7804844872985
20
-1.21678683370754
30
0
41
1
10
50.7825604306283
20
-1.25336820212215
30
0
41
1
10
50.7887560533223
20
-1.36184639846357
30
0
41
1
10
50.7928423274145
20
-1.4324838395608
30
0
41
1
10
50.7969090752129
20
-1.50147405111562
30
0
0
SPLINE
5
112
100
AcDbEntity
8
1
62
256
6
ByLayer
370
13
48
1
60
0
100
AcDbSpline
70
4
71
3
72
9
73
5
40
0
40
0
40
0
40
0
40
0.641619322143623
40
1
40
1
40
1
40
1
41
1.04
10
50.1752389135687
20
-0.611660484635779
30
0
41
1.04
10
50.1503887987493
20
-0.2350347455396
30
0
41
1.04
10
50.1117621704212
20
0.38522012069229
30
0
41
1.04
10
50.0716648313465
20
0.978694182605722
30
0
41
1.04
10
50.057032585468
20
1.17985746158349
30
0
0
SPLINE
5
113
100
AcDbEntity
8
1
62
256
6
ByLayer
370
18
48
1
60
0
100
AcDbSpline
70
4
71
3
72
8
73
4
40
0
40
0
40
0
40
0
40
1
40
1
40
1
40
1
41
1
10
47.8629721678183
20
-2.65868858554842
30
0
41
1
10
47.8135939243833
20
-2.65170204665958
30
0
41
1
10
47.7641488399283
20
-2.64347250882588
30
0
41
1
10
47.7146027841299
20
-2.63401192853411
30
0
0
SPLINE
5
114
100
AcDbEntity
8
1
62
256
6
ByLayer
370
18
48
1
60
0
100
AcDbSpline
70
4
71
3
72
26
73
22
40
0
40
0
40
0
40
0
40
0.071459695407286
40
0.071459695407286
40
0.226216412839353
40
0.226216412839353
40
0.380973130271419
40
0.380973130271419
40
0.535729847703486
40
0.535729847703486
40
0.613108206419572
40
0.613108206419572
40
0.690486565135658
40
0.690486565135658
40
0.767864923851743
40
0.767864923851743
40
0.845243282567829
40
0.845243282567829
40
0.922621641283914
40
0.922621641283914
40
1
40
1
40
1
40
1
41
1
10
47.57971887411
20
-2.42717308689609
30
0
41
1
10
47.5750599836973
20
-2.42329013282904
30
0
41
1
10
47.5702530167629
20
-2.41966487707225
30
0
41
1
10
47.5547291807826
20
-2.40906374223982
30
0
41
1
10
47.5435926044589
20
-2.40302542665663
30
0
41
1
10
47.5203543404885
20
-2.39328797138509
30
0
41
1
10
47.5081386190123
20
-2.3895805150938
30
0
41
1
10
47.4835397527387
20
-2.38493800385882
30
0
41
1
10
47.4711017671723
20
-2.38395128404437
30
0
41
1
10
47.4522533668097
20
-2.3847526761339
30
0
41
1
10
47.4459384028405
20
-2.38540372420869
30
0
41
1
10
47.4332426003241
20
-2.38758913790301
30
0
41
1
10
47.4268819786491
20
-2.38912682391683
30
0
41
1
10
47.414433534068
20
-2.3931277075323
30
0
41
1
10
47.4083073644417
20
-2.39559524494481
30
0
41
1
10
47.3962884811891
20
-2.40161110911095
30
0
41
1
10
47.3903520978579
20
-2.40519522665431
30
0
41
1
10
47.3791036296847
20
-2.41344300161037
30
0
41
1
10
47.3737664085326
20
-2.41810748935973
30
0
41
1
10
47.3637632553078
20
-2.42869945300109
30
0
41
1
10
47.3590905998839
20
-2.43465624837796
30
0
41
1
10
47.3549722646839
20
-2.4411714910172
30
0
0
SPLINE
5
115
100
AcDbEntity
8
1
62
256
6
ByLayer
370
18
48
1
60
0
100
AcDbSpline
70
4
71
3
72
8
73
4
40
0
40
0
40
0
40
0
40
1
40
1
40
1
40
1
41
1
10
47.3549722646815
20
-2.44117149102254
30
0
41
1
10
47.3366839757554
20
-2.47010372553845
30
0
41
1
10
47.3184348950592
20
-2.49879964510404
30
0
41
1
10
47.3002204008484
20
-2.52726224946824
30
0
0
SPLINE
5
116
100
AcDbEntity
8
1
62
256
6
ByLayer
370
18
48
1
60
0
100
AcDbSpline
70
4
71
3
72
14
73
10
40
0
40
0
40
0
40
0
40
0.124999999999989
40
0.124999999999989
40
0.249999999999977
40
0.249999999999977
40
0.499999999999985
40
0.499999999999985
40
1
40
1
40
1
40
1
41
1
10
47.3002204008484
20
-2.52726224946824
30
0
41
1
10
47.269409746852
20
-2.51733121555506
30
0
41
1
10
47.2385143582604
20
-2.50694337389481
30
0
41
1
10
47.1765294717091
20
-2.48525552165012
30
0
41
1
10
47.1454045834184
20
-2.47394177609189
30
0
41
1
10
47.0520501544486
20
-2.43876864150985
30
0
41
1
10
46.9898057467381
20
-2.41367222762295
30
0
41
1
10
46.8029985665818
20
-2.33360244401831
30
0
41
1
10
46.6784462196818
20
-2.27382714520269
30
0
41
1
10
46.5533522856923
20
-2.2080305494795
30
0
0
SPLINE
5
117
100
AcDbEntity
8
1
62
256
6
ByLayer
370
18
48
1
60
0
100
AcDbSpline
70
4
71
3
72
22
73
18
40
0
40
0
40
0
40
0
40
0.124999999999982
40
0.124999999999982
40
0.249999999999964
40
0.249999999999964
40
0.500000000000014
40
0.500000000000014
40
0.625000000000089
40
0.625000000000089
40
0.750000000000164
40
0.750000000000164
40
0.812500000000148
40
0.812500000000148
40
0.875000000000133
40
0.875000000000133
40
1
40
1
40
1
40
1
41
1
10
46.5533522856924
20
-2.20803054947879
30
0
41
1
10
46.5469965532141
20
-2.19739548521662
30
0
41
1
10
46.5400073386955
20
-2.1874090038346
30
0
41
1
10
46.52494027683
20
-2.16854542463523
30
0
41
1
10
46.5168311157362
20
-2.15965808285202
30
0
41
1
10
46.4916889823049
20
-2.1352577302419
30
0
41
1
10
46.4736535198771
20
-2.12164736820702
30
0
41
1
10
46.4447817356484
20
-2.10522905899546
30
0
41
1
10
46.4350644672994
20
-2.10056313263533
30
0
41
1
10
46.4154641592107
20
-2.09288002223775
30
0
41
1
10
46.4055811746903
20
-2.08986052475203
30
0
41
1
10
46.3906370422138
20
-2.08673740712763
30
0
41
1
10
46.3856356086064
20
-2.0859323531715
30
0
41
1
10
46.3755915288703
20
-2.08485197343364
30
0
41
1
10
46.370568263946
20
-2.08458178197267
30
0
41
1
10
46.3557465861429
20
-2.08466400855056
30
0
41
1
10
46.3461023969576
20
-2.08587748687097
30
0
41
1
10
46.3367755282998
20
-2.08857328095678
30
0
0
SPLINE
5
118
100
AcDbEntity
8
1
62
256
6
ByLayer
370
18
48
1
60
0
100
AcDbSpline
70
4
71
3
72
8
73
4
40
0
40
0
40
0
40
0
40
1
40
1
40
1
40
1
41
1
10
46.3367755282998
20
-2.08857328095678
30
0
41
1
10
46.2681663645043
20
-2.04903022917887
30
0
41
1
10
46.1992799880263
20
-2.00776541066222
30
0
41
1
10
46.13
20
-1.96484350392933
30
0
0
SPLINE
5
119
100
AcDbEntity
8
1
62
256
6
ByLayer
370
18
48
1
60
0
100
AcDbSpline
70
4
71
3
72
8
73
4
40
0
40
0
40
0
40
0
40
1
40
1
40
1
40
1
41
1
10
46.13
20
-1.9648435039293
30
0
41
1
10
46.1235795655475
20
-1.95796320822174
30
0
41
1
10
46.117155038341
20
-1.95107212975876
30
0
41
1
10
46.1107265040214
20
-1.94417064387622
30
0
0
SPLINE
5
11A
100
AcDbEntity
8
1
62
256
6
ByLayer
370
18
48
1
60
0
100
AcDbSpline
70
4
71
3
72
20
73
16
40
0
40
0
40
0
40
0
40
0.0404770032006473
40
0.0404770032006473
40
0.19561345302937
40
0.19561345302937
40
0.350749902858092
40
0.350749902858092
40
0.661022802515536
40
0.661022802515536
40
0.816159252344258
40
0.816159252344258
40
0.97129570217298
40
0.97129570217298
40
1
40
1
40
1
40
1
41
1
10
38.3126247723361
20
2.2422650917203
30
0
41
1
10
38.3068055541951
20
2.22527881359295
30
0
41
1
10
38.3006855736214
20
2.20832725129091
30
0
41
1
10
38.2697017523299
20
2.12656782740322
30
0
41
1
10
38.2408342814842
20
2.06222208910509
30
0
41
1
10
38.1735170831183
20
1.93463665472928
30
0
41
1
10
38.1358465709687
20
1.87365672887444
30
0
41
1
10
38.0136637401445
20
1.70064113150147
30
0
41
1
10
37.9248452667328
20
1.59098457194648
30
0
41
1
10
37.7859640770905
20
1.446472583793
30
0
41
1
10
37.738499986409
20
1.40134151757923
30
0
41
1
10
37.6410963772522
20
1.31750842965062
30
0
41
1
10
37.5911197725487
20
1.27887253759047
30
0
41
1
10
37.5325365425674
20
1.23889746338588
30
0
41
1
10
37.5233926373834
20
1.23280946661131
30
0
41
1
10
37.5142518582291
20
1.22687682919135
30
0
0
SPLINE
5
11B
100
AcDbEntity
8
1
62
256
6
ByLayer
370
18
48
1
60
0
100
AcDbSpline
70
4
71
3
72
10
73
6
40
0
40
0
40
0
40
0
40
0.536839704289388
40
0.536839704289388
40
1
40
1
40
1
40
1
41
1
10
45.6471922366024
20
-1.83752839664476
30
0
41
1
10
45.6868849734924
20
-1.81916527763477
30
0
41
1
10
45.7263962449657
20
-1.80258613831876
30
0
41
1
10
45.7995867018564
20
-1.77503299295111
30
0
41
1
10
45.8333120188912
20
-1.76359412188125
30
0
41
1
10
45.8668030809728
20
-1.75351631464991
30
0
0
SPLINE
5
11C
100
AcDbEntity
8
1
62
256
6
ByLayer
370
18
48
1
60
0
100
AcDbSpline
70
4
71
3
72
20
73
16
40
0
40
0
40
0
40
0
40
0.243763353740283
40
0.243763353740283
40
0.369802794783569
40
0.369802794783569
40
0.495842235826855
40
0.495842235826855
40
0.621881676870141
40
0.621881676870141
40
0.747921117913428
40
0.747921117913428
40
0.873960558956714
40
0.873960558956714
40
1
40
1
40
1
40
1
41
1
10
53.0056917047582
20
2.41522005122647
30
0
41
1
10
53.0176204749201
20
2.41494548289677
30
0
41
1
10
53.0296165225846
20
2.41590955440051
30
0
41
1
10
53.0478894460137
20
2.41946052214391
30
0
41
1
10
53.0541622883068
20
2.42105331315534
30
0
41
1
10
53.0665682061371
20
2.42502791861332
30
0
41
1
10
53.0726790134419
20
2.42739798512824
30
0
41
1
10
53.0846947191133
20
2.43296767439185
30
0
41
1
10
53.0905998427032
20
2.43616639924363
30
0
41
1
10
53.1021692196254
20
2.4435139462708
30
0
41
1
10
53.1078596538187
20
2.44769148472884
30
0
41
1
10
53.1186298039172
20
2.45691490380929
30
0
41
1
10
53.1237457923755
20
2.46197676826856
30
0
41
1
10
53.133353538551
20
2.47314545426636
30
0
41
1
10
53.1378673133938
20
2.4792943817462
30
0
41
1
10
53.1418898508807
20
2.48591835421428
30
0
0
SPLINE
5
11D
100
AcDbEntity
8
1
62
256
6
ByLayer
370
18
48
1
60
0
100
AcDbSpline
70
4
71
3
72
10
73
6
40
0
40
0
40
0
40
0
40
0.5
40
0.5
40
1
40
1
40
1
40
1
41
1
10
53.1418898508807
20
2.48591835421431
30
0
41
1
10
53.2000541857626
20
2.58169843187204
30
0
41
1
10
53.2577166511049
20
2.67558874261644
30
0
41
1
10
53.372000157755
20
2.85881980680506
30
0
41
1
10
53.4285151729113
20
2.9479971580468
30
0
41
1
10
53.4844869331985
20
3.03446004436404
30
0
0
SPLINE
5
11E
100
AcDbEntity
8
1
62
256
6
ByLayer
370
18
48
1
60
0
100
AcDbSpline
70
4
71
3
72
8
73
4
40
0
40
0
40
0
40
0
40
1
40
1
40
1
40
1
41
1
10
53.5811340419287
20
3.02039184706749
30
0
41
1
10
53.5489175010449
20
3.02563314476558
30
0
41
1
10
53.5167006144019
20
3.03034084054696
30
0
41
1
10
53.4844869331985
20
3.03446004436404
30
0
0
SPLINE
5
11F
100
AcDbEntity
8
1
62
256
6
ByLayer
370
18
48
1
60
0
100
AcDbSpline
70
4
71
3
72
10
73
6
40
0
40
0
40
0
40
0
40
0.5
40
0.5
40
1
40
1
40
1
40
1
41
1
10
53.5811340419262
20
3.02039184705362
30
0
41
1
10
53.6388631247464
20
2.91680951072212
30
0
41
1
10
53.6970930379558
20
2.81065843081251
30
0
41
1
10
53.8149674014331
20
2.59355164128476
30
0
41
1
10
53.8743824095416
20
2.48304260989536
30
0
41
1
10
53.9345678642328
20
2.37066825103233
30
0
0
SPLINE
5
120
100
AcDbEntity
8
1
62
256
6
ByLayer
370
18
48
1
60
0
100
AcDbSpline
70
4
71
3
72
28
73
24
40
0
40
0
40
0
40
0
40
0.125
40
0.125
40
0.25
40
0.25
40
0.375000000000001
40
0.375000000000001
40
0.500000000000001
40
0.500000000000001
40
0.625000000000001
40
0.625000000000001
40
0.687500000000001
40
0.687500000000001
40
0.750000000000001
40
0.750000000000001
40
0.8125
40
0.8125
40
0.875
40
0.875
40
0.9375
40
0.9375
40
1
40
1
40
1
40
1
41
1
10
53.9345678642328
20
2.37066825103221
30
0
41
1
10
53.9419853175826
20
2.3568188655145
30
0
41
1
10
53.9506175001527
20
2.34445171256078
30
0
41
1
10
53.9696922549846
20
2.32190214073964
30
0
41
1
10
53.9802521962962
20
2.31167611854232
30
0
41
1
10
54.0021776872198
20
2.29390782301852
30
0
41
1
10
54.0136129743479
20
2.28626144807819
30
0
41
1
10
54.0373335398501
20
2.27327187702741
30
0
41
1
10
54.0496896176744
20
2.2679295933664
30
0
41
1
10
54.0743534119761
20
2.25999283662026
30
0
41
1
10
54.0867588751488
20
2.25732790220294
30
0
41
1
10
54.1054467320324
20
2.25549319557536
30
0
41
1
10
54.1117211679446
20
2.25524713045959
30
0
41
1
10
54.1241300100654
20
2.25557092867763
30
0
41
1
10
54.130242339929
20
2.25613564512412
30
0
41
1
10
54.1422611538342
20
2.25813494642821
30
0
41
1
10
54.1481678657614
20
2.25956859696677
30
0
41
1
10
54.1597403995228
20
2.26342942561729
30
0
41
1
10
54.165432470305
20
2.26587709610763
30
0
41
1
10
54.1762057933729
20
2.27178889443141
30
0
41
1
10
54.1813232855391
20
2.27525822168875
30
0
41
1
10
54.1909338129616
20
2.28338813306422
30
0
41
1
10
54.195449032936
20
2.28808340051927
30
0
41
1
10
54.1994732694774
20
2.29338104367551
30
0
0
SPLINE
5
121
100
AcDbEntity
8
1
62
256
6
ByLayer
370
18
48
1
60
0
100
AcDbSpline
70
4
71
3
72
10
73
6
40
0
40
0
40
0
40
0
40
0.5
40
0.5
40
1
40
1
40
1
40
1
41
1
10
54.1994732694773
20
2.29338104367568
30
0
41
1
10
54.24429802303
20
2.35238988832293
30
0
41
1
10
54.2888275867333
20
2.40923359958214
30
0
41
1
10
54.3772669529307
20
2.51839732694486
30
0
41
1
10
54.4211809880233
20
2.57070833476573
30
0
41
1
10
54.4647184262252
20
2.62056004800874
30
0
0
SPLINE
5
122
100
AcDbEntity
8
1
62
256
6
ByLayer
370
18
48
1
60
0
100
AcDbSpline
70
4
71
3
72
10
73
6
40
0
40
0
40
0
40
0
40
0.5
40
0.5
40
1
40
1
40
1
40
1
41
1
10
54.4647184262256
20
2.62056004800868
30
0
41
1
10
54.5132361907005
20
2.58886193519856
30
0
41
1
10
54.5618622783179
20
2.55616246130606
30
0
41
1
10
54.6593285310181
20
2.48875028245601
30
0
41
1
10
54.7081531810974
20
2.45403679174308
30
0
41
1
10
54.7572298887175
20
2.41836308085507
30
0
0
SPLINE
5
123
100
AcDbEntity
8
1
62
256
6
ByLayer
370
18
48
1
60
0
100
AcDbSpline
70
4
71
3
72
12
73
8
40
0
40
0
40
0
40
0
40
0.250000000000009
40
0.250000000000009
40
0.500000000000019
40
0.500000000000019
40
1
40
1
40
1
40
1
41
1
10
54.7572298887175
20
2.41836308085476
30
0
41
1
10
54.7765515245378
20
2.3795018349166
30
0
41
1
10
54.7959467690443
20
2.34060328041372
30
0
41
1
10
54.8348373541842
20
2.26277149583771
30
0
41
1
10
54.8543137170316
20
2.2238742136509
30
0
41
1
10
54.9129453923873
20
2.1072954202892
30
0
41
1
10
54.9523173644847
20
2.02973432653661
30
0
41
1
10
54.9920229217404
20
1.95235582615496
30
0
0
SPLINE
5
124
100
AcDbEntity
8
1
62
256
6
ByLayer
370
18
48
1
60
0
100
AcDbSpline
70
4
71
3
72
28
73
24
40
0
40
0
40
0
40
0
40
0.125
40
0.125
40
0.249999999999999
40
0.249999999999999
40
0.374999999999999
40
0.374999999999999
40
0.499999999999998
40
0.499999999999998
40
0.624999999999998
40
0.624999999999998
40
0.687499999999998
40
0.687499999999998
40
0.749999999999998
40
0.749999999999998
40
0.812499999999999
40
0.812499999999999
40
0.874999999999999
40
0.874999999999999
40
0.9375
40
0.9375
40
1
40
1
40
1
40
1
41
1
10
54.9920229217404
20
1.95235582615496
30
0
41
1
10
54.9994566135014
20
1.93786898953783
30
0
41
1
10
55.0081072005921
20
1.92436986535381
30
0
41
1
10
55.0272162530539
20
1.89883387869673
30
0
41
1
10
55.0377916062039
20
1.88672580543877
30
0
41
1
10
55.0597390546819
20
1.86468881787806
30
0
41
1
10
55.0711822161332
20
1.85464590570945
30
0
41
1
10
55.0949106758294
20
1.83635706712124
30
0
41
1
10
55.1072664102271
20
1.82809164717955
30
0
41
1
10
55.1319260621326
20
1.81396689388691
30
0
41
1
10
55.1443271748246
20
1.80801808384407
30
0
41
1
10
55.1630046925857
20
1.80092210807544
30
0
41
1
10
55.1692742105628
20
1.79885632368678
30
0
41
1
10
55.1816780129333
20
1.79545721306269
30
0
41
1
10
55.187787962812
20
1.79412678859163
30
0
41
1
10
55.1998022320983
20
1.79226050078864
30
0
41
1
10
55.2057067777174
20
1.79172378294638
30
0
41
1
10
55.2172751054389
20
1.79155569278734
30
0
41
1
10
55.2229668410562
20
1.79193370936395
30
0
41
1
10
55.2337427676039
20
1.79372266517564
30
0
41
1
10
55.2388618083523
20
1.79512706638909
30
0
41
1
10
55.2484756657805
20
1.79911934441577
30
0
41
1
10
55.2529936997036
20
1.80172998190227
30
0
41
1
10
55.2570221347247
20
1.80499473388093
30
0
0
SPLINE
5
125
100
AcDbEntity
8
1
62
256
6
ByLayer
370
18
48
1
60
0
100
AcDbSpline
70
4
71
3
72
8
73
4
40
0
40
0
40
0
40
0
40
1
40
1
40
1
40
1
41
1
10
55.2570221347247
20
1.80499473388119
30
0
41
1
10
55.3050327191194
20
1.84390380144166
30
0
41
1
10
55.3527109858069
20
1.87942169879645
30
0
41
1
10
55.4000439136793
20
1.91157004829614
30
0
0
SPLINE
5
126
100
AcDbEntity
8
1
62
256
6
ByLayer
370
18
48
1
60
0
100
AcDbSpline
70
4
71
3
72
8
73
4
40
0
40
0
40
0
40
0
40
1
40
1
40
1
40
1
41
1
10
55.4000439136793
20
1.91157004829606
30
0
41
1
10
55.5920201230889
20
1.75094859133023
30
0
41
1
10
55.7851078220893
20
1.58250316261555
30
0
41
1
10
55.9804912125145
20
1.40749378392184
30
0
0
SPLINE
5
127
100
AcDbEntity
8
1
62
256
6
ByLayer
370
18
48
1
60
0
100
AcDbSpline
70
4
71
3
72
8
73
4
40
0
40
0
40
0
40
0
40
1
40
1
40
1
40
1
41
1
10
55.9804912125145
20
1.40749378392184
30
0
41
1
10
56.0033845852414
20
1.36567638479721
30
0
41
1
10
56.0263626236404
20
1.32423120100694
30
0
41
1
10
56.0494364726409
20
1.28315933730147
30
0
0
SPLINE
5
128
100
AcDbEntity
8
1
62
256
6
ByLayer
370
18
48
1
60
0
100
AcDbSpline
70
4
71
3
72
28
73
24
40
0
40
0
40
0
40
0
40
0.125
40
0.125
40
0.25
40
0.25
40
0.375000000000001
40
0.375000000000001
40
0.500000000000001
40
0.500000000000001
40
0.625000000000001
40
0.625000000000001
40
0.687500000000001
40
0.687500000000001
40
0.750000000000001
40
0.750000000000001
40
0.8125
40
0.8125
40
0.875
40
0.875
40
0.9375
40
0.9375
40
1
40
1
40
1
40
1
41
1
10
56.0807386066184
20
2.33776335105566
30
0
41
1
10
56.0735837965327
20
2.32390518508387
30
0
41
1
10
56.0652900803721
20
2.31133000056141
30
0
41
1
10
56.0469393811845
20
2.28814320263263
30
0
41
1
10
56.0367883134817
20
2.27749045112347
30
0
41
1
10
56.0155696745035
20
2.25865372148809
30
0
41
1
10
56.0044406908887
20
2.25037422550662
30
0
41
1
10
55.9812111071595
20
2.23600515646172
30
0
41
1
10
55.9689954616055
20
2.22988498143835
30
0
41
1
10
55.9443931167342
20
2.22040902647259
30
0
41
1
10
55.9319523368343
20
2.21698986604199
30
0
41
1
10
55.9130966835969
20
2.21410327722089
30
0
41
1
10
55.9067786819015
20
2.21351846441917
30
0
41
1
10
55.8940757480447
20
2.21321467627993
30
0
41
1
10
55.8877118287759
20
2.21350294668778
30
0
41
1
10
55.8752571220286
20
2.21504927244689
30
0
41
1
10
55.8691279123362
20
2.2163041788296
30
0
41
1
10
55.857103027329
20
2.21992663481126
30
0
41
1
10
55.8511640486138
20
2.22232106702481
30
0
41
1
10
55.8399135322013
20
2.22829246935274
30
0
41
1
10
55.8345756223136
20
2.23186592549715
30
0
41
1
10
55.8245716248857
20
2.24038586858401
30
0
41
1
10
55.8199004814749
20
2.24535847737374
30
0
41
1
10
55.8157843488722
20
2.25098667367507
30
0
0
SPLINE
5
129
100
AcDbEntity
8
1
62
256
6
ByLayer
370
18
48
1
60
0
100
AcDbSpline
70
4
71
3
72
8
73
4
40
0
40
0
40
0
40
0
40
1
40
1
40
1
40
1
41
1
10
55.8157843488696
20
2.25098667368172
30
0
41
1
10
55.7515472496384
20
2.33882130857907
30
0
41
1
10
55.6877465363437
20
2.42220131621448
30
0
41
1
10
55.624477815385
20
2.50096352388943
30
0
0
SPLINE
5
12A
100
AcDbEntity
8
1
62
256
6
ByLayer
370
18
48
1
60
0
100
AcDbSpline
70
4
71
3
72
8
73
4
40
0
40
0
40
0
40
0
40
1
40
1
40
1
40
1
41
1
10
55.624477815385
20
2.50096352388948
30
0
41
1
10
55.5083964470915
20
2.48053098525543
30
0
41
1
10
55.3938013739489
20
2.45315185383586
30
0
41
1
10
55.2801408580635
20
2.41905709067498
30
0
0
SPLINE
5
12B
100
AcDbEntity
8
1
62
256
6
ByLayer
370
18
48
1
60
0
100
AcDbSpline
70
4
71
3
72
10
73
6
40
0
40
0
40
0
40
0
40
0.5
40
0.5
40
1
40
1
40
1
40
1
41
1
10
55.2801408580629
20
2.41905709067513
30
0
41
1
10
55.2378334156853
20
2.33036165345692
30
0
41
1
10
55.1952162734569
20
2.24125076961056
30
0
41
1
10
55.1095671333859
20
2.06311360212061
30
0
41
1
10
55.0665142802271
20
1.9740497118608
30
0
41
1
10
55.0231367712794
20
1.88503452148129
30
0
0
SPLINE
5
12C
100
AcDbEntity
8
1
62
256
6
ByLayer
370
18
48
1
60
0
100
AcDbSpline
70
4
71
3
72
10
73
6
40
0
40
0
40
0
40
0
40
0.5
40
0.5
40
1
40
1
40
1
40
1
41
1
10
50.1752389135688
20
-0.611660484635792
30
0
41
1
10
50.1292629802764
20
-0.613896551200241
30
0
41
1
10
50.0835026567792
20
-0.612378510091872
30
0
41
1
10
49.9925202252476
20
-0.602145781411252
30
0
41
1
10
49.947292143032
20
-0.59341933079881
30
0
41
1
10
49.9024177252275
20
-0.581225066443722
30
0
0
SPLINE
5
12D
100
AcDbEntity
8
1
62
256
6
ByLayer
370
18
48
1
60
0
100
AcDbSpline
70
4
71
3
72
10
73
6
40
0
40
0
40
0
40
0
40
0.5
40
0.5
40
1
40
1
40
1
40
1
41
1
10
49.6470773187974
20
-0.314668917601694
30
0
41
1
10
49.6035623218932
20
-0.2475911361729
30
0
41
1
10
49.5597147226871
20
-0.182951067834097
30
0
41
1
10
49.4715951138982
20
-0.0593151073749993
30
0
41
1
10
49.4273075695176
20
-0.000295988439234
30
0
41
1
10
49.3826858487463
20
0.0558836770159132
30
0
0
SPLINE
5
12E
100
AcDbEntity
8
1
62
256
6
ByLayer
370
18
48
1
60
0
100
AcDbSpline
70
4
71
3
72
28
73
24
40
0
40
0
40
0
40
0
40
0.125000000000032
40
0.125000000000032
40
0.250000000000063
40
0.250000000000063
40
0.375000000000095
40
0.375000000000095
40
0.500000000000126
40
0.500000000000126
40
0.625000000000158
40
0.625000000000158
40
0.687500000000132
40
0.687500000000132
40
0.750000000000105
40
0.750000000000105
40
0.812500000000079
40
0.812500000000079
40
0.875000000000053
40
0.875000000000053
40
0.937500000000026
40
0.937500000000026
40
1
40
1
40
1
40
1
41
1
10
49.3826858487463
20
0.0558836770159132
30
0
41
1
10
49.3755212127372
20
0.0649041013101623
30
0
41
1
10
49.3672151794448
20
0.0744029300947489
30
0
41
1
10
49.3488386681248
20
0.0941051492019085
30
0
41
1
10
49.3386737417887
20
0.104389168070185
30
0
41
1
10
49.317431691342
20
0.124924888907458
30
0
41
1
10
49.3062925792458
20
0.135248341570588
30
0
41
1
10
49.2830467995606
20
0.15603785421402
30
0
41
1
10
49.2708266185265
20
0.16659510827381
30
0
41
1
10
49.2462228086283
20
0.187204634506287
30
0
41
1
10
49.2337824294864
20
0.197313974730179
30
0
41
1
10
49.2149307102418
20
0.21220015341197
30
0
41
1
10
49.2086146806418
20
0.217115513543092
30
0
41
1
10
49.1959167769023
20
0.226848740938152
30
0
41
1
10
49.1895605032193
20
0.231645974700825
30
0
41
1
10
49.1771182112741
20
0.240884279236752
30
0
41
1
10
49.1709950031107
20
0.245354180676173
30
0
41
1
10
49.1589815676235
20
0.253956936778479
30
0
41
1
10
49.1530485513692
20
0.258118549479207
30
0
41
1
10
49.1418089582771
20
0.265804597845346
30
0
41
1
10
49.1364754555408
20
0.269350005091212
30
0
41
1
10
49.1264780679601
20
0.275745829020821
30
0
41
1
10
49.1218085727085
20
0.278597002051185
30
0
41
1
10
49.1176924268895
20
0.280934560588861
30
0
0
SPLINE
5
12F
100
AcDbEntity
8
1
62
256
6
ByLayer
370
18
48
1
60
0
100
AcDbSpline
70
4
71
3
72
8
73
4
40
0
40
0
40
0
40
0
40
1
40
1
40
1
40
1
41
1
10
49.117692426887
20
0.280934560584598
30
0
41
1
10
49.0535029648872
20
0.317387745558108
30
0
41
1
10
48.9897571774015
20
0.360831408499365
30
0
41
1
10
48.9265523006549
20
0.410622071313924
30
0
0
SPLINE
5
130
100
AcDbEntity
8
1
62
256
6
ByLayer
370
18
48
1
60
0
100
AcDbSpline
70
4
71
3
72
12
73
8
40
0
40
0
40
0
40
0
40
0.5
40
0.5
40
0.75
40
0.75
40
1
40
1
40
1
40
1
41
1
10
48.9265523006549
20
0.410622071313924
30
0
41
1
10
48.854186547372
20
0.480474613715103
30
0
41
1
10
48.7815201746261
20
0.549478573406418
30
0
41
1
10
48.6718692955234
20
0.65151072977693
30
0
41
1
10
48.6352102301167
20
0.685275561046609
30
0
41
1
10
48.561638351488
20
0.752276742990347
30
0
41
1
10
48.5246779178967
20
0.785555354031828
30
0
41
1
10
48.4876836195704
20
0.818448638628752
30
0
0
SPLINE
5
131
100
AcDbEntity
8
1
62
256
6
ByLayer
370
18
48
1
60
0
100
AcDbSpline
70
4
71
3
72
8
73
4
40
0
40
0
40
0
40
0
40
1
40
1
40
1
40
1
41
1
10
48.4876836195704
20
0.818448638628752
30
0
41
1
10
48.4338584460465
20
0.861895897089369
30
0
41
1
10
48.3797163848139
20
0.900250016447046
30
0
41
1
10
48.3250407462271
20
0.933273080664605
30
0
0
SPLINE
5
132
100
AcDbEntity
8
1
62
256
6
ByLayer
370
18
48
1
60
0
100
AcDbSpline
70
4
71
3
72
28
73
24
40
0
40
0
40
0
40
0
40
0.124999999999968
40
0.124999999999968
40
0.249999999999936
40
0.249999999999936
40
0.374999999999904
40
0.374999999999904
40
0.499999999999872
40
0.499999999999872
40
0.62499999999984
40
0.62499999999984
40
0.687499999999866
40
0.687499999999866
40
0.749999999999893
40
0.749999999999893
40
0.81249999999992
40
0.81249999999992
40
0.874999999999947
40
0.874999999999947
40
0.937499999999973
40
0.937499999999973
40
1
40
1
40
1
40
1
41
1
10
48.3250407462272
20
0.93327308066381
30
0
41
1
10
48.317879733211
20
0.937598198738471
30
0
41
1
10
48.3095773778526
20
0.942904051970487
30
0
41
1
10
48.2912051796679
20
0.954986138595103
30
0
41
1
10
48.281040283762
20
0.9618322309598
30
0
41
1
10
48.2597937721806
20
0.976410816915489
30
0
41
1
10
48.2486507378015
20
0.984182612505094
30
0
41
1
10
48.2253951032718
20
1.00069378242617
30
0
41
1
10
48.2131691697036
20
1.00951812538094
30
0
41
1
10
48.1885567752785
20
1.02766733819229
30
0
41
1
10
48.1761128142758
20
1.0370287909835
30
0
41
1
10
48.1572575267206
20
1.05161585898179
30
0
41
1
10
48.1509406089211
20
1.0565699531858
30
0
41
1
10
48.1382416774644
20
1.06669880365902
30
0
41
1
10
48.131888005645
20
1.07185227624939
30
0
41
1
10
48.1194505732543
20
1.0821467459167
30
0
41
1
10
48.1133302467372
20
1.08731647922031
30
0
41
1
10
48.1013235115134
20
1.09771594058165
30
0
41
1
10
48.0953947130996
20
1.10298557013013
30
0
41
1
10
48.0841654475068
20
1.11329365507544
30
0
41
1
10
48.0788373601248
20
1.11835362372204
30
0
41
1
10
48.0688508881892
20
1.12825422603959
30
0
41
1
10
48.0641869946311
20
1.13310543312164
30
0
41
1
10
48.0600755700219
20
1.13766171745715
30
0
0
SPLINE
5
133
100
AcDbEntity
8
1
62
256
6
ByLayer
370
18
48
1
60
0
100
AcDbSpline
70
4
71
3
72
8
73
4
40
0
40
0
40
0
40
0
40
1
40
1
40
1
40
1
41
1
10
48.060075570017
20
1.13766171745778
30
0
41
1
10
48.0235099284423
20
1.17818379332556
30
0
41
1
10
47.9870916694671
20
1.22059084690915
30
0
41
1
10
47.950826444177
20
1.26474000841085
30
0
0
SPLINE
5
134
100
AcDbEntity
8
1
62
256
6
ByLayer
370
18
48
1
60
0
100
AcDbSpline
70
4
71
3
72
10
73
6
40
0
40
0
40
0
40
0
40
0.5
40
0.5
40
1
40
1
40
1
40
1
41
1
10
47.950826444177
20
1.26474000841088
30
0
41
1
10
47.8478670099823
20
1.34408502685841
30
0
41
1
10
47.7447079031364
20
1.41977865976509
30
0
41
1
10
47.5373107068309
20
1.56331775710606
30
0
41
1
10
47.4330745476385
20
1.63116368736081
30
0
41
1
10
47.3278911241229
20
1.69472509225923
30
0
0
SPLINE
5
135
100
AcDbEntity
8
1
62
256
6
ByLayer
370
18
48
1
60
0
100
AcDbSpline
70
4
71
3
72
8
73
4
40
0
40
0
40
0
40
0
40
1
40
1
40
1
40
1
41
1
10
47.3278911241305
20
1.69472509225025
30
0
41
1
10
47.3077985885438
20
1.69368390627955
30
0
41
1
10
47.2876471569246
20
1.69189877015117
30
0
41
1
10
47.2674267674038
20
1.68936027950801
30
0
0
SPLINE
5
136
100
AcDbEntity
8
1
62
256
6
ByLayer
370
18
48
1
60
0
100
AcDbSpline
70
4
71
3
72
28
73
24
40
0
40
0
40
0
40
0
40
0.125
40
0.125
40
0.25
40
0.25
40
0.375
40
0.375
40
0.5
40
0.5
40
0.625
40
0.625
40
0.6875
40
0.6875
40
0.75
40
0.75
40
0.8125
40
0.8125
40
0.875
40
0.875
40
0.9375
40
0.9375
40
1
40
1
40
1
40
1
41
1
10
47.2674267674038
20
1.68936027950801
30
0
41
1
10
47.260267044058
20
1.68846143971553
30
0
41
1
10
47.2519686055952
20
1.6889257310178
30
0
41
1
10
47.233610235045
20
1.69190787169802
30
0
41
1
10
47.2234558838808
20
1.6944753835628
30
0
41
1
10
47.2022321904664
20
1.70129889756518
30
0
41
1
10
47.1911014161753
20
1.70555757693575
30
0
41
1
10
47.1678680953486
20
1.71573607136463
30
0
41
1
10
47.1556508297191
20
1.72172405681869
30
0
41
1
10
47.1310444435071
20
1.73513405274346
30
0
41
1
10
47.1186004331457
20
1.74256616288076
30
0
41
1
10
47.0997399475082
20
1.75500443025174
30
0
41
1
10
47.0934204377355
20
1.75936765780457
30
0
41
1
10
47.080714698856
20
1.76860223635697
30
0
41
1
10
47.0743501040938
20
1.7734615595727
30
0
41
1
10
47.0618952202616
20
1.78350682609687
30
0
41
1
10
47.0557665529058
20
1.78871945783973
30
0
41
1
10
47.0437445413315
20
1.79959123789382
30
0
41
1
10
47.0378076931812
20
1.80529752614291
30
0
41
1
10
47.0265619813658
20
1.81691539183092
30
0
41
1
10
47.02122737284
20
1.82284387935167
30
0
41
1
10
47.0112312642902
20
1.8349805167523
30
0
41
1
10
47.0065630686879
20
1.8412092247307
30
0
41
1
10
47.0024489306436
20
1.84739693933625
30
0
0
SPLINE
5
137
100
AcDbEntity
8
1
62
256
6
ByLayer
370
18
48
1
60
0
100
AcDbSpline
70
4
71
3
72
8
73
4
40
0
40
0
40
0
40
0
40
1
40
1
40
1
40
1
41
1
10
47.002448930639
20
1.84739693934006
30
0
41
1
10
46.9932177199213
20
1.86128079466388
30
0
41
1
10
46.9839967468843
20
1.87524197115661
30
0
41
1
10
46.9747853600374
20
1.88927889720466
30
0
0
SPLINE
5
138
100
AcDbEntity
8
1
62
256
6
ByLayer
370
18
48
1
60
0
100
AcDbSpline
70
4
71
3
72
12
73
8
40
0
40
0
40
0
40
0
40
0.25
40
0.25
40
0.5
40
0.5
40
1
40
1
40
1
40
1
41
1
10
46.9747853600374
20
1.88927889720466
30
0
41
1
10
46.9048626516939
20
1.9240251009262
30
0
41
1
10
46.8349128229049
20
1.95654808760287
30
0
41
1
10
46.6949106963751
20
2.0172080407543
30
0
41
1
10
46.6248405866644
20
2.04532792809673
30
0
41
1
10
46.4140835184483
20
2.12288870316027
30
0
41
1
10
46.2728739512435
20
2.16555039471035
30
0
41
1
10
46.13
20
2.19863826426737
30
0
0
SPLINE
5
139
100
AcDbEntity
8
1
62
256
6
ByLayer
370
18
48
1
60
0
100
AcDbSpline
70
4
71
3
72
8
73
4
40
0
40
0
40
0
40
0
40
1
40
1
40
1
40
1
41
1
10
46.13
20
2.19863826426737
30
0
41
1
10
46.1235795655475
20
2.1977891324525
30
0
41
1
10
46.117155038341
20
2.19690570941805
30
0
41
1
10
46.1107265040214
20
2.19598800400857
30
0
0
SPLINE
5
13A
100
AcDbEntity
8
1
62
256
6
ByLayer
370
18
48
1
60
0
100
AcDbSpline
70
4
71
3
72
8
73
4
40
0
40
0
40
0
40
0
40
1
40
1
40
1
40
1
41
1
10
46.1107265040214
20
-0.613414423098845
30
0
41
1
10
46.1171551655048
20
-0.618797482359184
30
0
41
1
10
46.1235804953859
20
-0.624193612096093
30
0
41
1
10
46.13
20
-0.629606715766414
30
0
0
SPLINE
5
13B
100
AcDbEntity
8
1
62
256
6
ByLayer
370
18
48
1
60
0
100
AcDbSpline
70
4
71
3
72
8
73
4
40
0
40
0
40
0
40
0
40
1
40
1
40
1
40
1
41
1
10
46.1300000000001
20
-0.629606715766585
30
0
41
1
10
46.1676432662639
20
-0.659931785192214
30
0
41
1
10
46.2051705081906
20
-0.690193494105813
30
0
41
1
10
46.2425902805945
20
-0.720382542905526
30
0
0
SPLINE
5
13C
100
AcDbEntity
8
1
62
256
6
ByLayer
370
18
48
1
60
0
100
AcDbSpline
70
4
71
3
72
18
73
14
40
0
40
0
40
0
40
0
40
0.249999999999931
40
0.249999999999931
40
0.499999999999862
40
0.499999999999862
40
0.624999999999897
40
0.624999999999897
40
0.749999999999931
40
0.749999999999931
40
0.874999999999965
40
0.874999999999965
40
1
40
1
40
1
40
1
41
1
10
46.2425902805946
20
-0.720382542905071
30
0
41
1
10
46.2561987439843
20
-0.730335913933203
30
0
41
1
10
46.270497059237
20
-0.740959448388821
30
0
41
1
10
46.3003838194093
20
-0.763614324300619
30
0
41
1
10
46.3155199996128
20
-0.77530418515903
30
0
41
1
10
46.3383390503263
20
-0.793409124742624
30
0
41
1
10
46.3459708133394
20
-0.799544958599625
30
0
41
1
10
46.3612779380772
20
-0.812060195738695
30
0
41
1
10
46.3689208746742
20
-0.818414822480094
30
0
41
1
10
46.383815842235
20
-0.831059758985191
30
0
41
1
10
46.3911157453414
20
-0.837388503937063
30
0
41
1
10
46.4053591362922
20
-0.850073486081214
30
0
41
1
10
46.4123277019037
20
-0.856456769039568
30
0
41
1
10
46.4188194193895
20
-0.862622957931393
30
0
0
SPLINE
5
13D
100
AcDbEntity
8
1
62
256
6
ByLayer
370
18
48
1
60
0
100
AcDbSpline
70
4
71
3
72
18
73
14
40
0
40
0
40
0
40
0
40
0.25
40
0.25
40
0.5
40
0.5
40
0.625
40
0.625
40
0.75
40
0.75
40
0.875
40
0.875
40
1
40
1
40
1
40
1
41
1
10
46.4188194193895
20
-0.862622957929062
30
0
41
1
10
46.4840402573017
20
-0.915275504901444
30
0
41
1
10
46.5489521846943
20
-0.967675787423275
30
0
41
1
10
46.6781615349329
20
-1.07194886074123
30
0
41
1
10
46.7424589540948
20
-1.12382061863582
30
0
41
1
10
46.8386228432235
20
-1.20102825248085
30
0
41
1
10
46.870646127285
20
-1.22664855239722
30
0
41
1
10
46.9345373511842
20
-1.27774733624713
30
0
41
1
10
46.9663277303464
20
-1.30330261768285
30
0
41
1
10
47.02989130724
20
-1.35412583276329
30
0
41
1
10
47.0617047125597
20
-1.37935467115241
30
0
41
1
10
47.1254169738257
20
-1.4294265228111
30
0
41
1
10
47.1572527454527
20
-1.45433103288838
30
0
41
1
10
47.1890647341852
20
-1.47910518975513
30
0
0
SPLINE
5
13E
100
AcDbEntity
8
1
62
256
6
ByLayer
370
18
48
1
60
0
100
AcDbSpline
70
4
71
3
72
8
73
4
40
0
40
0
40
0
40
0
40
1
40
1
40
1
40
1
41
1
10
47.1890647341797
20
-1.4791051897484
30
0
41
1
10
47.2049981377046
20
-1.47939538272431
30
0
41
1
10
47.2209792721304
20
-1.479229063774
30
0
41
1
10
47.2370113843489
20
-1.4786092284331
30
0
0
SPLINE
5
13F
100
AcDbEntity
8
1
62
256
6
ByLayer
370
18
48
1
60
0
100
AcDbSpline
70
4
71
3
72
28
73
24
40
0
40
0
40
0
40
0
40
0.125000000000032
40
0.125000000000032
40
0.250000000000063
40
0.250000000000063
40
0.375000000000094
40
0.375000000000094
40
0.500000000000125
40
0.500000000000125
40
0.625000000000156
40
0.625000000000156
40
0.68750000000013
40
0.68750000000013
40
0.750000000000104
40
0.750000000000104
40
0.812500000000078
40
0.812500000000078
40
0.875000000000052
40
0.875000000000052
40
0.937500000000026
40
0.937500000000026
40
1
40
1
40
1
40
1
41
1
10
47.2370113843489
20
-1.47860922843307
30
0
41
1
10
47.244413077597
20
-1.47832306333007
30
0
41
1
10
47.2530219595853
20
-1.47957165848032
30
0
41
1
10
47.2720412274963
20
-1.48430711500185
30
0
41
1
10
47.2825659052392
20
-1.48786302491024
30
0
41
1
10
47.3044257625934
20
-1.49670115699453
30
0
41
1
10
47.3158305577916
20
-1.50199240385439
30
0
41
1
10
47.3394974594582
20
-1.51423795789449
30
0
41
1
10
47.3518366364474
20
-1.52124986749393
30
0
41
1
10
47.3764878211072
20
-1.53655389011982
30
0
41
1
10
47.388893808466
20
-1.5448857792646
30
0
41
1
10
47.4075932298858
20
-1.55856692208761
30
0
41
1
10
47.4138686835204
20
-1.56334826460281
30
0
41
1
10
47.4263185852615
20
-1.57326847734734
30
0
41
1
10
47.4324523127042
20
-1.57837306878733
30
0
41
1
10
47.4445153554079
20
-1.58890240964715
30
0
41
1
10
47.450444898955
20
-1.59432680403546
30
0
41
1
10
47.4620641545547
20
-1.60554829811457
30
0
41
1
10
47.4677831694478
20
-1.61138046016561
30
0
41
1
10
47.4786099193589
20
-1.62315081518412
30
0
41
1
10
47.4837524131725
20
-1.62911847225732
30
0
41
1
10
47.4934079762028
20
-1.64124557688618
30
0
41
1
10
47.4979427955268
20
-1.64744182075847
30
0
41
1
10
47.5019797349153
20
-1.65358925296826
30
0
0
SPLINE
5
140
100
AcDbEntity
8
1
62
256
6
ByLayer
370
18
48
1
60
0
100
AcDbSpline
70
4
71
3
72
8
73
4
40
0
40
0
40
0
40
0
40
1
40
1
40
1
40
1
41
1
10
47.5019797349153
20
-1.65358925296783
30
0
41
1
10
47.5283122065559
20
-1.69368821625423
30
0
41
1
10
47.5545390152756
20
-1.73439311116522
30
0
41
1
10
47.5806798513486
20
-1.7756775002207
30
0
0
SPLINE
5
141
100
AcDbEntity
8
1
62
256
6
ByLayer
370
18
48
1
60
0
100
AcDbSpline
70
4
71
3
72
13
73
9
40
0
40
0
40
0
40
0
40
0.125000000000015
40
0.125000000000015
40
0.25000000000003
40
0.50000000000002
40
0.50000000000002
40
1
40
1
40
1
40
1
41
1
10
47.5806798513486
20
-1.7756775002207
30
0
41
1
10
47.6052073507448
20
-1.79365063027214
30
0
41
1
10
47.629771232365
20
-1.81153200531776
30
0
41
1
10
47.6787910401839
20
-1.84697452135649
30
0
41
1
10
47.7521592398854
20
-1.89965807073619
30
0
41
1
10
47.8250608709043
20
-1.9508916651271
30
0
41
1
10
47.9702668586238
20
-2.05140396750099
30
0
41
1
10
48.0662760284954
20
-2.11581090761362
30
0
41
1
10
48.1614872620324
20
-2.17753801976897
30
0
0
SPLINE
5
142
100
AcDbEntity
8
1
62
256
6
ByLayer
370
18
48
1
60
0
100
AcDbSpline
70
4
71
3
72
8
73
4
40
0
40
0
40
0
40
0
40
1
40
1
40
1
40
1
41
1
10
48.1614872620294
20
-2.17753801976383
30
0
41
1
10
48.2055074008054
20
-2.15142596999348
30
0
41
1
10
48.2497829167894
20
-2.12219199845776
30
0
41
1
10
48.294464066026
20
-2.08963610980237
30
0
0
SPLINE
5
143
100
AcDbEntity
8
1
62
256
6
ByLayer
370
18
48
1
60
0
100
AcDbSpline
70
4
71
3
72
26
73
22
40
0
40
0
40
0
40
0
40
0.125
40
0.125
40
0.25
40
0.25
40
0.375
40
0.375
40
0.5
40
0.5
40
0.625000000000001
40
0.625000000000001
40
0.750000000000001
40
0.750000000000001
40
0.8125
40
0.8125
40
0.875
40
0.875
40
0.9375
40
0.9375
40
1
40
1
40
1
40
1
41
1
10
48.294464066026
20
-2.08963610980237
30
0
41
1
10
48.3018664758872
20
-2.08424251462242
30
0
41
1
10
48.3104747183468
20
-2.08065207886955
30
0
41
1
10
48.3294923156614
20
-2.07610299755967
30
0
41
1
10
48.3400148108016
20
-2.07518545834319
30
0
41
1
10
48.3618727029747
20
-2.0757482676386
30
0
41
1
10
48.3732786015875
20
-2.07719762938342
30
0
41
1
10
48.3969510743398
20
-2.08230827469842
30
0
41
1
10
48.4092948864539
20
-2.08601570524326
30
0
41
1
10
48.4339545133074
20
-2.09550463591566
30
0
41
1
10
48.4463640967452
20
-2.10129251134003
30
0
41
1
10
48.4712992781579
20
-2.11523884989509
30
0
41
1
10
48.4838946265053
20
-2.12346984659845
30
0
41
1
10
48.5019884922767
20
-2.13747929504686
30
0
41
1
10
48.5079172885532
20
-2.14244346248816
30
0
41
1
10
48.5195344470219
20
-2.15305122614078
30
0
41
1
10
48.5252535300668
20
-2.15873282588325
30
0
41
1
10
48.5360832827256
20
-2.17057207647059
30
0
41
1
10
48.5412273369173
20
-2.17675385668846
30
0
41
1
10
48.5508863894021
20
-2.1897263873949
30
0
41
1
10
48.5554241708213
20
-2.19656151158415
30
0
41
1
10
48.559465455528
20
-2.20358761217472
30
0
0
SPLINE
5
144
100
AcDbEntity
8
1
62
256
6
ByLayer
370
18
48
1
60
0
100
AcDbSpline
70
4
71
3
72
8
73
4
40
0
40
0
40
0
40
0
40
1
40
1
40
1
40
1
41
1
10
48.559465455528
20
-2.20358761217452
30
0
41
1
10
48.618793064377
20
-2.30673346252462
30
0
41
1
10
48.6776134641204
20
-2.41101015052286
30
0
41
1
10
48.7359259543753
20
-2.51589057493482
30
0
0
SPLINE
5
145
100
AcDbEntity
8
1
62
256
6
ByLayer
370
18
48
1
60
0
100
AcDbSpline
70
4
71
3
72
12
73
8
40
0
40
0
40
0
40
0
40
0.5
40
0.5
40
0.75
40
0.75
40
1
40
1
40
1
40
1
41
1
10
48.7359259543751
20
-2.51589057493473
30
0
41
1
10
48.8022071693425
20
-2.5505021585094
30
0
41
1
10
48.8685288934697
20
-2.5835037422394
30
0
41
1
10
48.9681039793199
20
-2.63051464321234
30
0
41
1
10
49.0013107482117
20
-2.64576952680301
30
0
41
1
10
49.0677561718514
20
-2.67543266196878
30
0
41
1
10
49.1010394051564
20
-2.68985950148593
30
0
41
1
10
49.1342071615611
20
-2.70379875293642
30
0
0
SPLINE
5
146
100
AcDbEntity
8
1
62
256
6
ByLayer
370
18
48
1
60
0
100
AcDbSpline
70
4
71
3
72
10
73
6
40
0
40
0
40
0
40
0
40
0.5
40
0.5
40
1
40
1
40
1
40
1
41
1
10
49.1342071615611
20
-2.70379875293645
30
0
41
1
10
49.1700568679161
20
-2.66187735400729
30
0
41
1
10
49.2061437585177
20
-2.61814579933673
30
0
41
1
10
49.2786714401745
20
-2.52731704860517
30
0
41
1
10
49.315146418903
20
-2.4801757281945
30
0
41
1
10
49.3518984535642
20
-2.43128908729375
30
0
0
SPLINE
5
147
100
AcDbEntity
8
1
62
256
6
ByLayer
370
18
48
1
60
0
100
AcDbSpline
70
4
71
3
72
28
73
24
40
0
40
0
40
0
40
0
40
0.124999999999969
40
0.124999999999969
40
0.249999999999938
40
0.249999999999938
40
0.374999999999907
40
0.374999999999907
40
0.499999999999875
40
0.499999999999875
40
0.624999999999844
40
0.624999999999844
40
0.68749999999987
40
0.68749999999987
40
0.749999999999896
40
0.749999999999896
40
0.812499999999922
40
0.812499999999922
40
0.874999999999948
40
0.874999999999948
40
0.937499999999974
40
0.937499999999974
40
1
40
1
40
1
40
1
41
1
10
49.3518984535642
20
-2.43128908729375
30
0
41
1
10
49.3593180085147
20
-2.42141978014237
30
0
41
1
10
49.3679540399777
20
-2.41339337059779
30
0
41
1
10
49.3870435535589
20
-2.40005037354399
30
0
41
1
10
49.3976126308808
20
-2.39474117587528
30
0
41
1
10
49.4195591950764
20
-2.38691957098851
30
0
41
1
10
49.431007750415
20
-2.38433851736536
30
0
41
1
10
49.45475048951
20
-2.38167699456338
30
0
41
1
10
49.4671144157355
20
-2.38162581064361
30
0
41
1
10
49.491780368926
20
-2.384125844343
30
0
41
1
10
49.504178643013
20
-2.38664991792839
30
0
41
1
10
49.5228464963868
20
-2.39256736277963
30
0
41
1
10
49.5291121911375
20
-2.39491279916845
30
0
41
1
10
49.5415077576152
20
-2.40034716050596
30
0
41
1
10
49.5476145471391
20
-2.40342163675521
30
0
41
1
10
49.5596260533697
20
-2.4103474532447
30
0
41
1
10
49.5655309957976
20
-2.41419793413235
30
0
41
1
10
49.5771051769156
20
-2.4227920114669
30
0
41
1
10
49.5828009285433
20
-2.42756697902283
30
0
41
1
10
49.5935879785163
20
-2.43788971071913
30
0
41
1
10
49.5987152459926
20
-2.4434572819903
30
0
41
1
10
49.6083495408717
20
-2.45553946233204
30
0
41
1
10
49.6128780548463
20
-2.4620974211071
30
0
41
1
10
49.6169129622233
20
-2.46905784653234
30
0
0
SPLINE
5
148
100
AcDbEntity
8
1
62
256
6
ByLayer
370
18
48
1
60
0
100
AcDbSpline
70
4
71
3
72
10
73
6
40
0
40
0
40
0
40
0
40
0.5
40
0.5
40
1
40
1
40
1
40
1
41
1
10
49.6169129622233
20
-2.46905784653225
30
0
41
1
10
49.6632460921876
20
-2.54898490946087
30
0
41
1
10
49.7092733204434
20
-2.62830447511286
30
0
41
1
10
49.8006814627656
20
-2.78525535496183
30
0
41
1
10
49.8460664542141
20
-2.86289050152877
30
0
41
1
10
49.891084852316
20
-2.93941420316043
30
0
0
SPLINE
5
149
100
AcDbEntity
8
1
62
256
6
ByLayer
370
18
48
1
60
0
100
AcDbSpline
70
4
71
3
72
8
73
4
40
0
40
0
40
0
40
0
40
1
40
1
40
1
40
1
41
1
10
49.8910848523088
20
-2.93941420316813
30
0
41
1
10
49.9448472067858
20
-2.9498284624546
30
0
41
1
10
49.9985941164686
20
-2.95882173008477
30
0
41
1
10
50.0523386790757
20
-2.96637915168657
30
0
0
SPLINE
5
14A
100
AcDbEntity
8
1
62
256
6
ByLayer
370
18
48
1
60
0
100
AcDbSpline
70
4
71
3
72
12
73
8
40
0
40
0
40
0
40
0
40
0.25
40
0.25
40
0.499999999999999
40
0.499999999999999
40
1
40
1
40
1
40
1
41
1
10
50.1069326548041
20
-2.97356161193477
30
0
41
1
10
50.1317088462212
20
-2.93300279177123
30
0
41
1
10
50.1565857894311
20
-2.89184444670693
30
0
41
1
10
50.2065765727711
20
-2.80833331783362
30
0
41
1
10
50.2317060890751
20
-2.76595364241322
30
0
41
1
10
50.3073537585419
20
-2.63728360802588
30
0
41
1
10
50.3581477946068
20
-2.54943639224172
30
0
41
1
10
50.4094518989117
20
-2.45955960980069
30
0
0
SPLINE
5
14B
100
AcDbEntity
8
1
62
256
6
ByLayer
370
18
48
1
60
0
100
AcDbSpline
70
4
71
3
72
28
73
24
40
0
40
0
40
0
40
0
40
0.125
40
0.125
40
0.25
40
0.25
40
0.375
40
0.375
40
0.5
40
0.5
40
0.625
40
0.625
40
0.6875
40
0.6875
40
0.75
40
0.75
40
0.8125
40
0.8125
40
0.875
40
0.875
40
0.9375
40
0.9375
40
1
40
1
40
1
40
1
41
1
10
50.4094518989117
20
-2.45955960980069
30
0
41
1
10
50.4168641952404
20
-2.44657442365349
30
0
41
1
10
50.4254901205383
20
-2.43522627769437
30
0
41
1
10
50.4445519435962
20
-2.41494313297434
30
0
41
1
10
50.4551042930151
20
-2.40597926831882
30
0
41
1
10
50.4770166931324
20
-2.39084363876688
30
0
41
1
10
50.4884463350535
20
-2.38457629731173
30
0
41
1
10
50.5121563199286
20
-2.37446891786442
30
0
41
1
10
50.5245094199913
20
-2.37063784888826
30
0
41
1
10
50.5491709783796
20
-2.36575468161416
30
0
41
1
10
50.5615759773905
20
-2.36464391027781
30
0
41
1
10
50.5802645045259
20
-2.3651953804295
30
0
41
1
10
50.5865381961602
20
-2.36575780738124
30
0
41
1
10
50.5989565130651
20
-2.36770217753309
30
0
41
1
10
50.6050737841923
20
-2.36907545565572
30
0
41
1
10
50.6171029814351
20
-2.37268994682375
30
0
41
1
10
50.6230151292757
20
-2.37493020953514
30
0
41
1
10
50.6345992051155
20
-2.38040397141828
30
0
41
1
10
50.6402983029654
20
-2.38366244646178
30
0
41
1
10
50.6510863425508
20
-2.39115194334116
30
0
41
1
10
50.6562110873277
20
-2.3953926259496
30
0
41
1
10
50.665835493611
20
-2.40502646601837
30
0
41
1
10
50.6703570468117
20
-2.41045823169242
30
0
41
1
10
50.6743852489576
20
-2.41644824666452
30
0
0
SPLINE
5
14C
100
AcDbEntity
8
1
62
256
6
ByLayer
370
18
48
1
60
0
100
AcDbSpline
70
4
71
3
72
10
73
6
40
0
40
0
40
0
40
0
40
0.5
40
0.5
40
1
40
1
40
1
40
1
41
1
10
50.6743852489575
20
-2.41644824666466
30
0
41
1
10
50.7325520818929
20
-2.50294345905442
30
0
41
1
10
50.7902095261693
20
-2.58645507170266
30
0
41
1
10
50.9044433016776
20
-2.74680902340651
30
0
41
1
10
50.9608943755155
20
-2.82342327812629
30
0
41
1
10
51.0168813828707
20
-2.89672091144141
30
0
0
SPLINE
5
14D
100
AcDbEntity
8
1
62
256
6
ByLayer
370
18
48
1
60
0
100
AcDbSpline
70
4
71
3
72
8
73
4
40
0
40
0
40
0
40
0
40
1
40
1
40
1
40
1
41
1
10
51.113012195186
20
-2.86283163085548
30
0
41
1
10
51.0809108572261
20
-2.87465274861813
30
0
41
1
10
51.0488668507977
20
-2.88594908054026
30
0
41
1
10
51.0168813828706
20
-2.89672091144149
30
0
0
SPLINE
5
14E
100
AcDbEntity
8
1
62
256
6
ByLayer
370
18
48
1
60
0
100
AcDbSpline
70
4
71
3
72
10
73
6
40
0
40
0
40
0
40
0
40
0.5
40
0.5
40
1
40
1
40
1
40
1
41
1
10
51.113012195186
20
-2.8628316308556
30
0
41
1
10
51.1708189954927
20
-2.74958640085563
30
0
41
1
10
51.2291433383986
20
-2.6349978100329
30
0
41
1
10
51.34725193367
20
-2.40336717457834
30
0
41
1
10
51.4067826546071
20
-2.28683107402503
30
0
41
1
10
51.4670294529463
20
-2.16967955269115
30
0
0
SPLINE
5
14F
100
AcDbEntity
8
1
62
256
6
ByLayer
370
18
48
1
60
0
100
AcDbSpline
70
4
71
3
72
28
73
24
40
0
40
0
40
0
40
0
40
0.125
40
0.125
40
0.25
40
0.25
40
0.375
40
0.375
40
0.499999999999999
40
0.499999999999999
40
0.624999999999999
40
0.624999999999999
40
0.687499999999999
40
0.687499999999999
40
0.749999999999999
40
0.749999999999999
40
0.8125
40
0.8125
40
0.875
40
0.875
40
0.9375
40
0.9375
40
1
40
1
40
1
40
1
41
1
10
51.4670294529463
20
-2.16967955269115
30
0
41
1
10
51.4744428042183
20
-2.1552640915616
30
0
41
1
10
51.4830696482795
20
-2.14206809450755
30
0
41
1
10
51.5021326406521
20
-2.11748125192608
30
0
41
1
10
51.5126857529189
20
-2.10602972655701
30
0
41
1
10
51.5345994326734
20
-2.0855603532608
30
0
41
1
10
51.5460292305873
20
-2.07643236685888
30
0
41
1
10
51.56973929628
20
-2.06022740518432
30
0
41
1
10
51.5820924167649
20
-2.05313827193822
30
0
41
1
10
51.6067543954217
20
-2.04156018732346
30
0
41
1
10
51.619159815921
20
-2.03698901746293
30
0
41
1
10
51.6378491598128
20
-2.03214330389088
30
0
41
1
10
51.6441232460274
20
-2.03086265871701
30
0
41
1
10
51.6565417998362
20
-2.02908497742641
30
0
41
1
10
51.6626591291657
20
-2.02858779006795
30
0
41
1
10
51.6746882269981
20
-2.0284381303623
30
0
41
1
10
51.6806002216931
20
-2.02878474342271
30
0
41
1
10
51.692183576336
20
-2.03044217934846
30
0
41
1
10
51.6978819115793
20
-2.0317677916355
30
0
41
1
10
51.7086673644003
20
-2.03546627990707
30
0
41
1
10
51.7137904448842
20
-2.03783777040604
30
0
41
1
10
51.7234108004588
20
-2.04379338160402
30
0
41
1
10
51.7279299297875
20
-2.04740598647149
30
0
41
1
10
51.7319558495439
20
-2.05166086386015
30
0
0
SPLINE
5
150
100
AcDbEntity
8
1
62
256
6
ByLayer
370
18
48
1
60
0
100
AcDbSpline
70
4
71
3
72
8
73
4
40
0
40
0
40
0
40
0
40
1
40
1
40
1
40
1
41
1
10
52.0335710335451
20
-2.33292590254899
30
0
41
1
10
52.0472077839493
20
-2.34385225472749
30
0
41
1
10
52.0608127702821
20
-2.35449638297689
30
0
41
1
10
52.0743874885637
20
-2.3648573869406
30
0
0
SPLINE
5
151
100
AcDbEntity
8
1
62
256
6
ByLayer
370
18
48
1
60
0
100
AcDbSpline
70
4
71
3
72
8
73
4
40
0
40
0
40
0
40
0
40
1
40
1
40
1
40
1
41
1
10
52.1708815891061
20
-2.29928679183442
30
0
41
1
10
52.1387488745594
20
-2.3216281485517
30
0
41
1
10
52.1065706022753
20
-2.34347437462748
30
0
41
1
10
52.0743874885635
20
-2.36485738694094
30
0
0
SPLINE
5
152
100
AcDbEntity
8
1
62
256
6
ByLayer
370
18
48
1
60
0
100
AcDbSpline
70
4
71
3
72
10
73
6
40
0
40
0
40
0
40
0
40
0.7175201605729
40
0.7175201605729
40
1
40
1
40
1
40
1
41
1
10
52.1708815891059
20
-2.29928679182191
30
0
41
1
10
52.1997648349866
20
-2.23984083383524
30
0
41
1
10
52.2287198629666
20
-2.18056343009906
30
0
41
1
10
52.2693137017636
20
-2.09829583823955
30
0
41
1
10
52.280809020441
20
-2.07509538537681
30
0
41
1
10
52.2923341861766
20
-2.05193572545266
30
0
0
SPLINE
5
153
100
AcDbEntity
8
1
62
256
6
ByLayer
370
18
48
1
60
0
100
AcDbSpline
70
4
71
3
72
12
73
8
40
0
40
0
40
0
40
0
40
0.16265381817262
40
0.16265381817262
40
0.58132690908631
40
0.58132690908631
40
1
40
1
40
1
40
1
41
1
10
54.2675830481193
20
-2.70549122279019
30
0
41
1
10
54.2565472192637
20
-2.72447779694193
30
0
41
1
10
54.2455266777376
20
-2.74343424361092
30
0
41
1
10
54.2061958082756
20
-2.81106565506562
30
0
41
1
10
54.1779810338617
20
-2.85954114297039
30
0
41
1
10
54.1218277576914
20
-2.95585156592625
30
0
41
1
10
54.0938751825418
20
-3.00371066075081
30
0
41
1
10
54.0660246957848
20
-3.05126881157764
30
0
0
SPLINE
5
154
100
AcDbEntity
8
1
62
256
6
ByLayer
370
18
48
1
60
0
100
AcDbSpline
70
4
71
3
72
28
73
24
40
0
40
0
40
0
40
0
40
0.125
40
0.125
40
0.25
40
0.25
40
0.375
40
0.375
40
0.5
40
0.5
40
0.625
40
0.625
40
0.6875
40
0.6875
40
0.75
40
0.75
40
0.8125
40
0.8125
40
0.875
40
0.875
40
0.9375
40
0.9375
40
1
40
1
40
1
40
1
41
1
10
53.6130264120631
20
-2.46110898806839
30
0
41
1
10
53.6058715128588
20
-2.44852733905043
30
0
41
1
10
53.5975771918076
20
-2.43739045367957
30
0
41
1
10
53.5792221286857
20
-2.41732219789282
30
0
41
1
10
53.5690665889011
20
-2.40836443102441
30
0
41
1
10
53.5478355007825
20
-2.3930293319637
30
0
41
1
10
53.5366988875113
20
-2.38656738801743
30
0
41
1
10
53.5134523112402
20
-2.37597056925915
30
0
41
1
10
53.5012280592396
20
-2.37182371299158
30
0
41
1
10
53.4766141346223
20
-2.36632016834059
30
0
41
1
10
53.4641683818749
20
-2.36490887306749
30
0
41
1
10
53.4453089123148
20
-2.36508019038328
30
0
41
1
10
53.4389903488857
20
-2.36552234956702
30
0
41
1
10
53.426287582245
20
-2.36729208101923
30
0
41
1
10
53.4199288193634
20
-2.36862268174062
30
0
41
1
10
53.4074832423716
20
-2.37222073126756
30
0
41
1
10
53.4013590284416
20
-2.37449125658489
30
0
41
1
10
53.3893449779156
20
-2.38012267047773
30
0
41
1
10
53.3834124123564
20
-2.3835176793859
30
0
41
1
10
53.3721762838095
20
-2.39140490144214
30
0
41
1
10
53.3668454704168
20
-2.3958984684833
30
0
41
1
10
53.3568550353015
20
-2.40617005165686
30
0
41
1
10
53.3521902255266
20
-2.41197550453381
30
0
41
1
10
53.3480789867609
20
-2.41835583937623
30
0
0
SPLINE
5
155
100
AcDbEntity
8
1
62
256
6
ByLayer
370
18
48
1
60
0
100
AcDbSpline
70
4
71
3
72
12
73
8
40
0
40
0
40
0
40
0
40
0.500000000000015
40
0.500000000000015
40
0.750000000000007
40
0.750000000000007
40
1
40
1
40
1
40
1
41
1
10
53.3480789867584
20
-2.41835583938217
30
0
41
1
10
53.2906637074008
20
-2.50746005548169
30
0
41
1
10
53.2335941480764
20
-2.59401445180589
30
0
41
1
10
53.1486258797057
20
-2.71965229020074
30
0
41
1
10
53.1204154501369
20
-2.76082030704833
30
0
41
1
10
53.0642725075443
20
-2.8416133770246
30
0
41
1
10
53.0363257615723
20
-2.88125903587826
30
0
41
1
10
53.0084812962261
20
-2.92016251808906
30
0
0
SPLINE
5
156
100
AcDbEntity
8
1
62
256
6
ByLayer
370
18
48
1
60
0
100
AcDbSpline
70
4
71
3
72
10
73
6
40
0
40
0
40
0
40
0
40
0.5
40
0.5
40
1
40
1
40
1
40
1
41
1
10
52.912201457552
20
-2.88877227854718
30
0
41
1
10
52.8536845412897
20
-2.7730285116277
30
0
41
1
10
52.794775473168
20
-2.65536798947832
30
0
41
1
10
52.6757482850389
20
-2.41635814834203
30
0
41
1
10
52.6158808452107
20
-2.29551619785417
30
0
41
1
10
52.5554155969543
20
-2.17339972124344
30
0
0
SPLINE
5
157
100
AcDbEntity
8
1
62
256
6
ByLayer
370
18
48
1
60
0
100
AcDbSpline
70
4
71
3
72
28
73
24
40
0
40
0
40
0
40
0
40
0.125000000000032
40
0.125000000000032
40
0.250000000000063
40
0.250000000000063
40
0.375000000000094
40
0.375000000000094
40
0.500000000000126
40
0.500000000000126
40
0.625000000000157
40
0.625000000000157
40
0.687500000000131
40
0.687500000000131
40
0.750000000000105
40
0.750000000000105
40
0.812500000000079
40
0.812500000000079
40
0.875000000000052
40
0.875000000000052
40
0.937500000000026
40
0.937500000000026
40
1
40
1
40
1
40
1
41
1
10
52.5554155969538
20
-2.17339972124256
30
0
41
1
10
52.548260472144
20
-2.15894912926322
30
0
41
1
10
52.5399684860554
20
-2.14561871399016
30
0
41
1
10
52.5216253160042
20
-2.1206744441221
30
0
41
1
10
52.5114803436122
20
-2.10900899125477
30
0
41
1
10
52.49027434795
20
-2.08798650201709
30
0
41
1
10
52.4791519828854
20
-2.07852858688616
30
0
41
1
10
52.4559336093228
20
-2.06163362311514
30
0
41
1
10
52.4437220202188
20
-2.05415179284054
30
0
41
1
10
52.4191198223627
20
-2.04185568477146
30
0
41
1
10
52.4066763100023
20
-2.03697427841772
30
0
41
1
10
52.387813517618
20
-2.03179826126126
30
0
41
1
10
52.3814927395679
20
-2.0304340292094
30
0
41
1
10
52.3687832103615
20
-2.02853285960612
30
0
41
1
10
52.3624109385331
20
-2.02800516704474
30
0
41
1
10
52.3499426349553
20
-2.02791938257059
30
0
41
1
10
52.3438071046004
20
-2.0283530788779
30
0
41
1
10
52.3317713352949
20
-2.03031833653972
30
0
41
1
10
52.3258269763143
20
-2.03187032720194
30
0
41
1
10
52.3145661442331
20
-2.03618697763855
30
0
41
1
10
52.309224813717
20
-2.03894441654703
30
0
41
1
10
52.2992173093292
20
-2.04585585103428
30
0
41
1
10
52.2945447125766
20
-2.05003518792321
30
0
41
1
10
52.2904280294567
20
-2.05491111065129
30
0
0
SPLINE
5
158
100
AcDbEntity
8
1
62
256
6
ByLayer
370
18
48
1
60
0
100
AcDbSpline
70
4
71
3
72
12
73
8
40
0
40
0
40
0
40
0
40
0.499999999999985
40
0.499999999999985
40
0.749999999999992
40
0.749999999999992
40
1
40
1
40
1
40
1
41
1
10
52.2904280294542
20
-2.05491111065723
30
0
41
1
10
52.2329913698271
20
-2.12294080980666
30
0
41
1
10
52.1758991963308
20
-2.18665279194909
30
0
41
1
10
52.0909142128835
20
-2.27561261630481
30
0
41
1
10
52.0627011346437
20
-2.30415488954881
30
0
41
1
10
52.0065594015597
20
-2.35897548697039
30
0
41
1
10
51.9786161068382
20
-2.38526840808004
30
0
41
1
10
51.9507770225204
20
-2.41046895555056
30
0
0
SPLINE
5
159
100
AcDbEntity
8
1
62
256
6
ByLayer
370
18
48
1
60
0
100
AcDbSpline
70
4
71
3
72
10
73
6
40
0
40
0
40
0
40
0
40
0.5
40
0.5
40
1
40
1
40
1
40
1
41
1
10
51.8544850163862
20
-2.34721835970265
30
0
41
1
10
51.7959713955756
20
-2.22236375696818
30
0
41
1
10
51.7370652049567
20
-2.0978313308251
30
0
41
1
10
51.6180791338743
20
-1.84970123934514
30
0
41
1
10
51.5582554436915
20
-1.72663141123016
30
0
41
1
10
51.4978522309463
20
-1.60469685810983
30
0
0
SPLINE
5
15A
100
AcDbEntity
8
1
62
256
6
ByLayer
370
18
48
1
60
0
100
AcDbSpline
70
4
71
3
72
28
73
24
40
0
40
0
40
0
40
0
40
0.125000000000032
40
0.125000000000032
40
0.250000000000064
40
0.250000000000064
40
0.375000000000097
40
0.375000000000097
40
0.500000000000129
40
0.500000000000129
40
0.625000000000161
40
0.625000000000161
40
0.687500000000134
40
0.687500000000134
40
0.750000000000107
40
0.750000000000107
40
0.812500000000081
40
0.812500000000081
40
0.875000000000054
40
0.875000000000054
40
0.937500000000027
40
0.937500000000027
40
1
40
1
40
1
40
1
41
1
10
51.4978522309463
20
-1.60469685810983
30
0
41
1
10
51.49069042357
20
-1.59023948502878
30
0
41
1
10
51.4823902675852
20
-1.57643104769926
30
0
41
1
10
51.464030792821
20
-1.54981991591799
30
0
41
1
10
51.4538779934443
20
-1.53694701429336
30
0
41
1
10
51.4326601987097
20
-1.51294555219536
30
0
41
1
10
51.4215332155621
20
-1.50171214033574
30
0
41
1
10
51.3983098167601
20
-1.48070209322196
30
0
41
1
10
51.3860984295807
20
-1.47085493418143
30
0
41
1
10
51.3615002366058
20
-1.4533571761323
30
0
41
1
10
51.3490602828993
20
-1.44563456552842
30
0
41
1
10
51.3302050591825
20
-1.43576727878988
30
0
41
1
10
51.3238871721331
20
-1.43276700737133
30
0
41
1
10
51.3111840816209
20
-1.4274242123029
30
0
41
1
10
51.3048149035253
20
-1.42509392136338
30
0
41
1
10
51.2923513419611
20
-1.42130381850481
30
0
41
1
10
51.2862176128205
20
-1.41982559975477
30
0
41
1
10
51.2741837321525
20
-1.4178275734395
30
0
41
1
10
51.2682394132722
20
-1.41731105943549
30
0
41
1
10
51.2569755222324
20
-1.41744425311583
30
0
41
1
10
51.251631425055
20
-1.41808070262039
30
0
41
1
10
51.2416164307122
20
-1.42068381429246
30
0
41
1
10
51.2369392723899
20
-1.4226689769487
30
0
41
1
10
51.2328182299523
20
-1.42538554373144
30
0
0
SPLINE
5
15B
100
AcDbEntity
8
1
62
256
6
ByLayer
370
18
48
1
60
0
100
AcDbSpline
70
4
71
3
72
12
73
8
40
0
40
0
40
0
40
0
40
0.499999999999986
40
0.499999999999986
40
0.749999999999993
40
0.749999999999993
40
1
40
1
40
1
40
1
41
1
10
51.2328182299471
20
-1.42538554373522
30
0
41
1
10
51.175370451961
20
-1.46325477896511
30
0
41
1
10
51.118260266796
20
-1.49573387269206
30
0
41
1
10
51.0332365831973
20
-1.5364584094817
30
0
41
1
10
51.0050088426653
20
-1.54869398852779
30
0
41
1
10
50.9488385529178
20
-1.57047770399251
30
0
41
1
10
50.9208819621188
20
-1.5800288125001
30
0
41
1
10
50.8930319332364
20
-1.58826029805647
30
0
0
SPLINE
5
15C
100
AcDbEntity
8
1
62
256
6
ByLayer
370
18
48
1
60
0
100
AcDbSpline
70
4
71
3
72
10
73
6
40
0
40
0
40
0
40
0
40
0.5
40
0.5
40
1
40
1
40
1
40
1
41
1
10
50.7969090752094
20
-1.50147405111269
30
0
41
1
10
50.738464072226
20
-1.38362460802193
30
0
41
1
10
50.6795963635449
20
-1.26833341395891
30
0
41
1
10
50.5606031584044
20
-1.04322074408466
30
0
41
1
10
50.5007269422743
20
-0.933881689950908
30
0
41
1
10
50.4402605988543
20
-0.827925098635774
30
0
0
SPLINE
5
15D
100
AcDbEntity
8
1
62
256
6
ByLayer
370
18
48
1
60
0
100
AcDbSpline
70
4
71
3
72
28
73
24
40
0
40
0
40
0
40
0
40
0.125000000000032
40
0.125000000000032
40
0.250000000000063
40
0.250000000000063
40
0.375000000000095
40
0.375000000000095
40
0.500000000000127
40
0.500000000000127
40
0.625000000000158
40
0.625000000000158
40
0.687500000000132
40
0.687500000000132
40
0.750000000000105
40
0.750000000000105
40
0.812500000000079
40
0.812500000000079
40
0.875000000000053
40
0.875000000000053
40
0.937500000000026
40
0.937500000000026
40
1
40
1
40
1
40
1
41
1
10
50.4402605988543
20
-0.827925098635774
30
0
41
1
10
50.4330912189948
20
-0.815362026209272
30
0
41
1
10
50.4247811248006
20
-0.802891230674646
30
0
41
1
10
50.4063998130572
20
-0.778112977489798
30
0
41
1
10
50.3962344978443
20
-0.765724830098719
30
0
41
1
10
50.3749947535451
20
-0.741902776375809
30
0
41
1
10
50.3638580926303
20
-0.730374102947735
30
0
41
1
10
50.3406194540216
20
-0.708022507819067
30
0
41
1
10
50.3284035135977
20
-0.697113396905024
30
0
41
1
10
50.3038046586667
20
-0.676740638919995
30
0
41
1
10
50.2913667201959
20
-0.667208052693837
30
0
41
1
10
50.2725184204319
20
-0.653976081596511
30
0
41
1
10
50.266203493317
20
-0.64974490821055
30
0
41
1
10
50.2535077356522
20
-0.641686475689511
30
0
41
1
10
50.2471475858151
20
-0.637875721741779
30
0
41
1
10
50.2346997213309
20
-0.630909782560906
30
0
41
1
10
50.2285737641814
20
-0.627729207373022
30
0
41
1
10
50.2165550796488
20
-0.622060164842594
30
0
41
1
10
50.2106187875112
20
-0.619557827274406
30
0
41
1
10
50.1993706399025
20
-0.615515751440341
30
0
41
1
10
50.1940334069154
20
-0.613958293279296
30
0
41
1
10
50.1840299229746
20
-0.611925914623612
30
0
41
1
10
50.1793572373898
20
-0.611460187528593
30
0
41
1
10
50.1752389135712
20
-0.611660484630107
30
0
0
SPLINE
5
15E
100
AcDbEntity
8
1
62
256
6
ByLayer
370
18
48
1
60
0
100
AcDbSpline
70
4
71
3
72
27
73
23
40
0
40
0
40
0
40
0
40
0.125000000000004
40
0.125000000000004
40
0.250000000000007
40
0.250000000000007
40
0.312500000000009
40
0.312500000000009
40
0.343750000000009
40
0.343750000000009
40
0.375000000000009
40
0.500000000000007
40
0.500000000000007
40
0.625000000000005
40
0.625000000000005
40
0.687500000000004
40
0.687500000000004
40
0.750000000000004
40
0.750000000000004
40
0.875000000000002
40
0.875000000000002
40
1
40
1
40
1
40
1
41
1
10
49.5060720346613
20
1.87804655720691
30
0
41
1
10
49.5120259941569
20
1.80368209673989
30
0
41
1
10
49.5179054152638
20
1.72639965682657
30
0
41
1
10
49.5295466666074
20
1.56609258513151
30
0
41
1
10
49.5353270863355
20
1.48307025258362
30
0
41
1
10
49.5440652420766
20
1.35418353886152
30
0
41
1
10
49.5469890621209
20
1.31049437005885
30
0
41
1
10
49.5514049343902
20
1.24385052821438
30
0
41
1
10
49.552884018882
20
1.22141829263506
30
0
41
1
10
49.5558402253513
20
1.17639102030088
30
0
41
1
10
49.5632271867226
20
1.0633813168898
30
0
41
1
10
49.5706253881322
20
0.948201035354032
30
0
41
1
10
49.5825066407722
20
0.761206690275628
30
0
41
1
10
49.5884708117933
20
0.666356609774283
30
0
41
1
10
49.5973880128625
20
0.522033887741088
30
0
41
1
10
49.6003535238873
20
0.473584192210524
30
0
41
1
10
49.606266374602
20
0.375989991180944
30
0
41
1
10
49.6092168445838
20
0.326794107012859
30
0
41
1
10
49.6180376787769
20
0.178470228284084
30
0
41
1
10
49.6238091714062
20
0.0796907031321439
30
0
41
1
10
49.635361337508
20
-0.117654308918816
30
0
41
1
10
49.6411722929828
20
-0.216218084526304
30
0
41
1
10
49.6470773188026
20
-0.314668917597459
30
0
0
SPLINE
5
15F
100
AcDbEntity
8
1
62
256
6
ByLayer
370
18
48
1
60
0
100
AcDbSpline
70
4
71
3
72
10
73
6
40
0
40
0
40
0
40
0
40
0.5
40
0.5
40
1
40
1
40
1
40
1
41
1
10
49.9024177252254
20
-0.581225066452333
30
0
41
1
10
49.8599905536264
20
-0.536736008143521
30
0
41
1
10
49.817319319171
20
-0.492055153004145
30
0
41
1
10
49.7321477926412
20
-0.403107349030307
30
0
41
1
10
49.6896044771031
20
-0.358795460061742
30
0
41
1
10
49.6470773187909
20
-0.314668917598112
30
0
0
SPLINE
5
160
100
AcDbEntity
8
1
62
256
6
ByLayer
370
18
48
1
60
0
100
AcDbSpline
70
4
71
3
72
26
73
22
40
0
40
0
40
0
40
0
40
0.125
40
0.249999999999999
40
0.249999999999999
40
0.312499999999999
40
0.312499999999999
40
0.374999999999998
40
0.374999999999998
40
0.499999999999999
40
0.499999999999999
40
0.624999999999999
40
0.624999999999999
40
0.749999999999999
40
0.749999999999999
40
0.781249999999999
40
0.781249999999999
40
0.8125
40
0.875
40
0.875
40
1
40
1
40
1
40
1
41
1
10
49.9024177252139
20
-0.581225066446336
30
0
41
1
10
49.8974633748052
20
-0.483554171221726
30
0
41
1
10
49.8876037916455
20
-0.287364791569274
30
0
41
1
10
49.877730227523
20
-0.089513676213727
30
0
41
1
10
49.8702760167936
20
0.0595043835588456
30
0
41
1
10
49.8677830863155
20
0.109282221021061
30
0
41
1
10
49.8627733575478
20
0.209051792338443
30
0
41
1
10
49.8602516743619
20
0.259139120639077
30
0
41
1
10
49.8527238524854
20
0.408068387159005
30
0
41
1
10
49.8477301705242
20
0.506062514473314
30
0
41
1
10
49.8377497133183
20
0.699534301548198
30
0
41
1
10
49.8327640217784
20
0.79501190156293
30
0
41
1
10
49.8227920156563
20
0.983442222813551
30
0
41
1
10
49.8178055719777
20
1.07639517301757
30
0
41
1
10
49.8115388490886
20
1.19095115682788
30
0
41
1
10
49.8102842306105
20
1.21377075761416
30
0
41
1
10
49.807782610473
20
1.25902183535192
30
0
41
1
10
49.8040370445943
20
1.32639953014331
30
0
41
1
10
49.8003065707019
20
1.39229097555824
30
0
41
1
10
49.7928502479128
20
1.52210540230738
30
0
41
1
10
49.7878854080544
20
1.6060288311806
30
0
41
1
10
49.7828844569825
20
1.6873060423907
30
0
0
SPLINE
5
161
100
AcDbEntity
8
1
62
256
6
ByLayer
370
18
48
1
60
0
100
AcDbSpline
70
4
71
3
72
12
73
8
40
0
40
0
40
0
40
0
40
0.499999999999985
40
0.499999999999985
40
0.749999999999992
40
0.749999999999992
40
1
40
1
40
1
40
1
41
1
10
50.8803301961001
20
2.48586894075242
30
0
41
1
10
50.8249943184882
20
2.5784784292166
30
0
41
1
10
50.7699865533427
20
2.66978546447751
30
0
41
1
10
50.6880823889958
20
2.80428075664167
30
0
41
1
10
50.6608795257088
20
2.84870447562932
30
0
41
1
10
50.6067434150705
20
2.93655448026345
30
0
41
1
10
50.5797947246032
20
2.98000580783651
30
0
41
1
10
50.5529445208558
20
3.02298612371092
30
0
0
SPLINE
5
162
100
AcDbEntity
8
1
62
256
6
ByLayer
370
18
48
1
60
0
100
AcDbSpline
70
4
71
3
72
8
73
4
40
0
40
0
40
0
40
0
40
1
40
1
40
1
40
1
41
1
10
50.5529445208559
20
3.02298612371087
30
0
41
1
10
50.5087744223126
20
3.01230949398408
30
0
41
1
10
50.464552316407
20
3.00054631797951
30
0
41
1
10
50.4202521319953
20
2.98770464321853
30
0
0
SPLINE
5
163
100
AcDbEntity
8
1
62
256
6
ByLayer
370
18
48
1
60
0
100
AcDbSpline
70
4
71
3
72
12
73
8
40
0
40
0
40
0
40
0
40
0.250000000000006
40
0.250000000000006
40
0.500000000000011
40
0.500000000000011
40
1
40
1
40
1
40
1
41
1
10
50.4202521320001
20
2.98770464321328
30
0
41
1
10
50.3929646351829
20
2.93896976312064
30
0
41
1
10
50.3655853920473
20
2.88957377484707
30
0
41
1
10
50.3105996358255
20
2.78945941924664
30
0
41
1
10
50.282978467321
20
2.73871378865255
30
0
41
1
10
50.1998061832911
20
2.58467308238133
30
0
41
1
10
50.1440398557281
20
2.47974833444979
30
0
41
1
10
50.0877549257785
20
2.37261059249494
30
0
0
SPLINE
5
164
100
AcDbEntity
8
1
62
256
6
ByLayer
370
18
48
1
60
0
100
AcDbSpline
70
4
71
3
72
28
73
24
40
0
40
0
40
0
40
0
40
0.124999999999968
40
0.124999999999968
40
0.249999999999936
40
0.249999999999936
40
0.374999999999904
40
0.374999999999904
40
0.499999999999872
40
0.499999999999872
40
0.624999999999841
40
0.624999999999841
40
0.687499999999867
40
0.687499999999867
40
0.749999999999894
40
0.749999999999894
40
0.81249999999992
40
0.81249999999992
40
0.874999999999947
40
0.874999999999947
40
0.937499999999973
40
0.937499999999973
40
1
40
1
40
1
40
1
41
1
10
50.0877549257785
20
2.37261059249494
30
0
41
1
10
50.0805909469091
20
2.35897403791156
30
0
41
1
10
50.0722877790737
20
2.34666683890751
30
0
41
1
10
50.0539211018602
20
2.32408039595754
30
0
41
1
10
50.043763610575
20
2.31376371744403
30
0
41
1
10
50.0225368056259
20
2.29563305971314
30
0
41
1
10
50.0114055842417
20
2.28772527612753
30
0
41
1
10
49.9881744858365
20
2.27413508415634
30
0
41
1
10
49.9759600380002
20
2.26842582954248
30
0
41
1
10
49.9513593266654
20
2.25978299045451
30
0
41
1
10
49.93891884896
20
2.25678853326298
30
0
41
1
10
49.9200642735075
20
2.25455524064398
30
0
41
1
10
49.913746844591
20
2.25419083101175
30
0
41
1
10
49.9010452696147
20
2.25433455860176
30
0
41
1
10
49.8946801555041
20
2.25484935619116
30
0
41
1
10
49.8822238120349
20
2.25684520332385
30
0
41
1
10
49.876093833368
20
2.25832439919151
30
0
41
1
10
49.8640677851248
20
2.26239445229041
30
0
41
1
10
49.858127951928
20
2.2650139881668
30
0
41
1
10
49.8468741582616
20
2.27142294137644
30
0
41
1
10
49.8415349537636
20
2.27520919710145
30
0
41
1
10
49.8315292236525
20
2.28413994830939
30
0
41
1
10
49.8268563848741
20
2.28931208497588
30
0
41
1
10
49.8227386542303
20
2.29512520183079
30
0
0
SPLINE
5
165
100
AcDbEntity
8
1
62
256
6
ByLayer
370
18
48
1
60
0
100
AcDbSpline
70
4
71
3
72
10
73
6
40
0
40
0
40
0
40
0
40
0.5
40
0.5
40
1
40
1
40
1
40
1
41
1
10
49.8227386542279
20
2.29512520183687
30
0
41
1
10
49.7814436545394
20
2.35342252128373
30
0
41
1
10
49.7403225256328
20
2.41001239240458
30
0
41
1
10
49.6584989297806
20
2.51959239675565
30
0
41
1
10
49.6177866176411
20
2.5725890044055
30
0
41
1
10
49.577369370786
20
2.62359955136208
30
0
0
SPLINE
5
166
100
AcDbEntity
8
1
62
256
6
ByLayer
370
18
48
1
60
0
100
AcDbSpline
70
4
71
3
72
8
73
4
40
0
40
0
40
0
40
0
40
1
40
1
40
1
40
1
41
1
10
49.5773693707823
20
2.62359955137461
30
0
41
1
10
49.4719225322181
20
2.56416671971414
30
0
41
1
10
49.3665283298093
20
2.49999158768492
30
0
41
1
10
49.2608826299961
20
2.4313532326866
30
0
0
SPLINE
5
167
100
AcDbEntity
8
1
62
256
6
ByLayer
370
18
48
1
60
0
100
AcDbSpline
70
4
71
3
72
10
73
6
40
0
40
0
40
0
40
0
40
0.5
40
0.5
40
1
40
1
40
1
40
1
41
1
10
49.260882629996
20
2.4313532326866
30
0
41
1
10
49.2228340452382
20
2.35233980782127
30
0
41
1
10
49.1845362022756
20
2.27293127970566
30
0
41
1
10
49.1076440455981
20
2.11403581080546
30
0
41
1
10
49.0690156454778
20
2.03448021146505
30
0
41
1
10
49.0301452780777
20
1.954841890018
30
0
0
SPLINE
5
168
100
AcDbEntity
8
1
62
256
6
ByLayer
370
18
48
1
60
0
100
AcDbSpline
70
4
71
3
72
10
73
6
40
0
40
0
40
0
40
0
40
0.590274332033214
40
0.590274332033214
40
1
40
1
40
1
40
1
41
1
10
49.0301452780777
20
1.95484189001817
30
0
41
1
10
49.0229735721119
20
1.9401483673376
30
0
41
1
10
49.0146607076289
20
1.92638828300849
30
0
41
1
10
48.9990859105935
20
1.90429065558189
30
0
41
1
10
48.9922348786693
20
1.89555263180975
30
0
41
1
10
48.9850883575192
20
1.88726250338027
30
0
0
SPLINE
5
169
100
AcDbEntity
8
1
62
256
6
ByLayer
370
18
48
1
60
0
100
AcDbSpline
70
4
71
3
72
20
73
16
40
0
40
0
40
0
40
0
40
0.152921880001637
40
0.152921880001637
40
0.364691410001228
40
0.364691410001228
40
0.576460940000819
40
0.576460940000819
40
0.682345705000614
40
0.682345705000614
40
0.788230470000409
40
0.788230470000409
40
0.894115235000205
40
0.894115235000205
40
1
40
1
40
1
40
1
41
1
10
46.9850088673641
20
2.41724970195168
30
0
41
1
10
46.9937091678199
20
2.41522596511635
30
0
41
1
10
47.0025974065264
20
2.41386972730956
30
0
41
1
10
47.0237874815579
20
2.41232858602214
30
0
41
1
10
47.0361779358028
20
2.41275002808928
30
0
41
1
10
47.0611042841166
20
2.41655114657542
30
0
41
1
10
47.0737189993783
20
2.41998744153381
30
0
41
1
10
47.0918501937421
20
2.42766168736176
30
0
41
1
10
47.0977923013898
20
2.43064406190749
30
0
41
1
10
47.1094353856438
20
2.43758199367795
30
0
41
1
10
47.1151676654881
20
2.44156846285193
30
0
41
1
10
47.1260216254033
20
2.45045472413955
30
0
41
1
10
47.1311764377451
20
2.45536622512029
30
0
41
1
10
47.14085423737
20
2.46627774677316
30
0
41
1
10
47.1453999788817
20
2.47232047573323
30
0
41
1
10
47.1494468947196
20
2.47886642712845
30
0
0
SPLINE
5
16A
100
AcDbEntity
8
1
62
256
6
ByLayer
370
18
48
1
60
0
100
AcDbSpline
70
4
71
3
72
8
73
4
40
0
40
0
40
0
40
0
40
1
40
1
40
1
40
1
41
1
10
47.1494468947196
20
2.47886642712851
30
0
41
1
10
47.1649671643498
20
2.50397071264072
30
0
41
1
10
47.1804485751742
20
2.528916316536
30
0
41
1
10
47.1958965449695
20
2.55370909040255
30
0
0
SPLINE
5
16B
100
AcDbEntity
8
1
62
256
6
ByLayer
370
18
48
1
60
0
100
AcDbSpline
70
4
71
3
72
16
73
12
40
0
40
0
40
0
40
0
40
0.249999999999981
40
0.249999999999981
40
0.499999999999963
40
0.499999999999963
40
0.624999999999972
40
0.624999999999972
40
0.749999999999981
40
0.749999999999981
40
1
40
1
40
1
40
1
41
1
10
47.1958965449695
20
2.55370909040255
30
0
41
1
10
47.2493392363767
20
2.55691972076986
30
0
41
1
10
47.3027403433757
20
2.55887291899225
30
0
41
1
10
47.4096416738925
20
2.56026352670207
30
0
41
1
10
47.4631457526444
20
2.55970411200593
30
0
41
1
10
47.5434994388644
20
2.55694724424021
30
0
41
1
10
47.5703000338787
20
2.55570843757627
30
0
41
1
10
47.6239342213544
20
2.55258229323763
30
0
41
1
10
47.6507780453481
20
2.55069318655472
30
0
41
1
10
47.7310404914516
20
2.54407041398744
30
0
41
1
10
47.7842956720663
20
2.53837754435944
30
0
41
1
10
47.8373115889171
20
2.531412215632
30
0
0
SPLINE
5
16C
100
AcDbEntity
8
1
62
256
6
ByLayer
370
18
48
1
60
0
100
AcDbSpline
70
4
71
3
72
8
73
4
40
0
40
0
40
0
40
0
40
1
40
1
40
1
40
1
41
1
10
47.8373115889172
20
2.53141221563203
30
0
41
1
10
47.8719709127454
20
2.46607104209289
30
0
41
1
10
47.9068201274233
20
2.40016348034664
30
0
41
1
10
47.9419030867546
20
2.33370911191707
30
0
0
SPLINE
5
16D
100
AcDbEntity
8
1
62
256
6
ByLayer
370
18
48
1
60
0
100
AcDbSpline
70
4
71
3
72
28
73
24
40
0
40
0
40
0
40
0
40
0.125
40
0.125
40
0.249999999999999
40
0.249999999999999
40
0.374999999999999
40
0.374999999999999
40
0.499999999999998
40
0.499999999999998
40
0.624999999999998
40
0.624999999999998
40
0.687499999999998
40
0.687499999999998
40
0.749999999999999
40
0.749999999999999
40
0.812499999999999
40
0.812499999999999
40
0.874999999999999
40
0.874999999999999
40
0.9375
40
0.9375
40
1
40
1
40
1
40
1
41
1
10
47.9419030867546
20
2.33370911191707
30
0
41
1
10
47.9493122075443
20
2.31967470740602
30
0
41
1
10
47.9579333712106
20
2.30706174508134
30
0
41
1
10
47.976983991758
20
2.28393801321215
30
0
41
1
10
47.9875283332563
20
2.27338097430388
30
0
41
1
10
48.0094255702551
20
2.25489602575638
30
0
41
1
10
48.020848686725
20
2.2468620642409
30
0
41
1
10
48.044547017222
20
2.23304283928218
30
0
41
1
10
48.056896343005
20
2.22725355833248
30
0
41
1
10
48.0815549034622
20
2.21839587974921
30
0
41
1
10
48.0939597013045
20
2.21525456762029
30
0
41
1
10
48.1126492652658
20
2.21267729250616
30
0
41
1
10
48.1189219964332
20
2.21217746286624
30
0
41
1
10
48.1313504287468
20
2.21199048335433
30
0
41
1
10
48.1374731026962
20
2.21229989922699
30
0
41
1
10
48.1495139365455
20
2.21378949394833
30
0
41
1
10
48.1554323219059
20
2.21496871618513
30
0
41
1
10
48.1670298484182
20
2.21832311207189
30
0
41
1
10
48.172737509928
20
2.22051819874252
30
0
41
1
10
48.1835445171082
20
2.22594719752587
30
0
41
1
10
48.1886788039961
20
2.22918398262192
30
0
41
1
10
48.1983218524089
20
2.23687322083822
30
0
41
1
10
48.2028526448173
20
2.24135940848905
30
0
41
1
10
48.2068882638969
20
2.24646767241131
30
0
0
SPLINE
5
16E
100
AcDbEntity
8
1
62
256
6
ByLayer
370
18
48
1
60
0
100
AcDbSpline
70
4
71
3
72
8
73
4
40
0
40
0
40
0
40
0
40
1
40
1
40
1
40
1
41
1
10
48.2068882638969
20
2.24646767241154
30
0
41
1
10
48.2552180255559
20
2.30764321276595
30
0
41
1
10
48.3031850571994
20
2.3659915668886
30
0
41
1
10
48.3508144811215
20
2.42166576498329
30
0
0
SPLINE
5
16F
100
AcDbEntity
8
1
62
256
6
ByLayer
370
18
48
1
60
0
100
AcDbSpline
70
4
71
3
72
10
73
6
40
0
40
0
40
0
40
0
40
0.5
40
0.5
40
1
40
1
40
1
40
1
41
1
10
48.3508144811215
20
2.42166576498329
30
0
41
1
10
48.4274688611083
20
2.39892559759863
30
0
41
1
10
48.5040667590219
20
2.37356231436468
30
0
41
1
10
48.6570718708505
20
2.317458224148
30
0
41
1
10
48.7335752285384
20
2.28678440098557
30
0
41
1
10
48.810152502781
20
2.25348531384162
30
0
0
SPLINE
5
170
100
AcDbEntity
8
1
62
256
6
ByLayer
370
18
48
1
60
0
100
AcDbSpline
70
4
71
3
72
8
73
4
40
0
40
0
40
0
40
0
40
1
40
1
40
1
40
1
41
1
10
48.8101525027811
20
2.25348531384157
30
0
41
1
10
48.87264501959
20
2.12787894209222
30
0
41
1
10
48.9356882466903
20
2.00276228488141
30
0
41
1
10
48.9994904095966
20
1.87844204276661
30
0
0
SPLINE
5
171
100
AcDbEntity
8
1
62
256
6
ByLayer
370
18
48
1
60
0
100
AcDbSpline
70
4
71
3
72
28
73
24
40
0
40
0
40
0
40
0
40
0.125
40
0.125
40
0.25
40
0.25
40
0.375
40
0.375
40
0.5
40
0.5
40
0.625
40
0.625
40
0.6875
40
0.6875
40
0.75
40
0.75
40
0.8125
40
0.8125
40
0.875
40
0.875
40
0.9375
40
0.9375
40
1
40
1
40
1
40
1
41
1
10
48.9994904095966
20
1.87844204276661
30
0
41
1
10
49.0068919730737
20
1.8640198959053
30
0
41
1
10
49.0155044073598
20
1.85050350402383
30
0
41
1
10
49.0345375065797
20
1.82482091807876
30
0
41
1
10
49.0450738639831
20
1.81258013150548
30
0
41
1
10
49.0669584404444
20
1.79018267092357
30
0
41
1
10
49.0783757781423
20
1.77991379767846
30
0
41
1
10
49.1020648880664
20
1.76109148203324
30
0
41
1
10
49.1144113958123
20
1.75251276862784
30
0
41
1
10
49.139066530612
20
1.73770441150404
30
0
41
1
10
49.1514707513508
20
1.73138410220872
30
0
41
1
10
49.1701633565938
20
1.72368435878729
30
0
41
1
10
49.1764380749771
20
1.72140879377446
30
0
41
1
10
49.1888701939197
20
1.71757519781994
30
0
41
1
10
49.1949949195592
20
1.7160238708552
30
0
41
1
10
49.2070401618732
20
1.71370849816219
30
0
41
1
10
49.2129609055573
20
1.7129435924615
30
0
41
1
10
49.2245632140381
20
1.71231198208423
30
0
41
1
10
49.2302722172398
20
1.71245348626442
30
0
41
1
10
49.241078925206
20
1.71377533764996
30
0
41
1
10
49.2462125754446
20
1.71494785202395
30
0
41
1
10
49.2558532402613
20
1.71848213954425
30
0
41
1
10
49.260381423181
20
1.72086511286869
30
0
41
1
10
49.2644132536886
20
1.72390727939805
30
0
0
SPLINE
5
172
100
AcDbEntity
8
1
62
256
6
ByLayer
370
18
48
1
60
0
100
AcDbSpline
70
4
71
3
72
10
73
6
40
0
40
0
40
0
40
0
40
0.5
40
0.5
40
1
40
1
40
1
40
1
41
1
10
49.26441325369
20
1.72390727939978
30
0
41
1
10
49.3051897543551
20
1.75467467036069
30
0
41
1
10
49.3457290798325
20
1.78292993091287
30
0
41
1
10
49.4263180690114
20
1.83444960366302
30
0
41
1
10
49.4663740161601
20
1.85766750107365
30
0
41
1
10
49.5060720346578
20
1.87804655719805
30
0
0
SPLINE
5
173
100
AcDbEntity
8
1
62
256
6
ByLayer
370
18
48
1
60
0
100
AcDbSpline
70
4
71
3
72
10
73
6
40
0
40
0
40
0
40
0
40
0.5
40
0.5
40
1
40
1
40
1
40
1
41
1
10
49.506072034653
20
1.87804655720586
30
0
41
1
10
49.5524943054663
20
1.84795394936708
30
0
41
1
10
49.5986041459413
20
1.8168665188621
30
0
41
1
10
49.6908211199984
20
1.75323904756723
30
0
41
1
10
49.7368718755947
20
1.7206512822784
30
0
41
1
10
49.7828844569878
20
1.68730604239565
30
0
0
SPLINE
5
174
100
AcDbEntity
8
1
62
256
6
ByLayer
370
18
48
1
60
0
100
AcDbSpline
70
4
71
3
72
12
73
8
40
0
40
0
40
0
40
0
40
0.25
40
0.25
40
0.5
40
0.5
40
1
40
1
40
1
40
1
41
1
10
49.7828844569848
20
1.68730604239443
30
0
41
1
10
49.805354887343
20
1.64355302044277
30
0
41
1
10
49.8279167125952
20
1.60012027237431
30
0
41
1
10
49.8732531245653
20
1.51391450065776
30
0
41
1
10
49.8960311141697
20
1.47113599687458
30
0
41
1
10
49.9645660559351
20
1.344127695145
30
0
41
1
10
50.0105803124863
20
1.26112780870847
30
0
41
1
10
50.0570325854681
20
1.17985746158354
30
0
0
SPLINE
5
175
100
AcDbEntity
8
1
62
256
6
ByLayer
370
18
48
1
60
0
100
AcDbSpline
70
4
71
3
72
27
73
23
40
0
40
0
40
0
40
0
40
0.125
40
0.125
40
0.25
40
0.25
40
0.375000000000001
40
0.375000000000001
40
0.500000000000001
40
0.500000000000001
40
0.625000000000001
40
0.625000000000001
40
0.687500000000001
40
0.687500000000001
40
0.750000000000001
40
0.8125
40
0.8125
40
0.875
40
0.875
40
0.9375
40
0.9375
40
1
40
1
40
1
40
1
41
1
10
50.0570325854681
20
1.17985746158354
30
0
41
1
10
50.0644360037193
20
1.16690484737194
30
0
41
1
10
50.0730499872678
20
1.15422676888915
30
0
41
1
10
50.092085546116
20
1.12929682983173
30
0
41
1
10
50.1026230381949
20
1.11695259664475
30
0
41
1
10
50.1245096055056
20
1.09353734749968
30
0
41
1
10
50.1359277810224
20
1.0823616111785
30
0
41
1
10
50.1596197536853
20
1.06097274975838
30
0
41
1
10
50.1719679871186
20
1.050717093706
30
0
41
1
10
50.1966273967294
20
1.03188120012615
30
0
41
1
10
50.2090344746273
20
1.02320417279719
30
0
41
1
10
50.2277310621787
20
1.01138196765203
30
0
41
1
10
50.2340074750815
20
1.00762560561952
30
0
41
1
10
50.2464397784735
20
1.00064173451497
30
0
41
1
10
50.2586886200612
20
0.994217866694271
30
0
41
1
10
50.2705282445755
20
0.988989785799163
30
0
41
1
10
50.2821277890208
20
0.98444173045425
30
0
41
1
10
50.2878349288437
20
0.982503342742177
30
0
41
1
10
50.2986373281368
20
0.97952834894275
30
0
41
1
10
50.3037685020609
20
0.978473752781639
30
0
41
1
10
50.3134038869975
20
0.977369980908747
30
0
41
1
10
50.317929599703
20
0.977327057602082
30
0
41
1
10
50.321959976238
20
0.977896423658365
30
0
0
SPLINE
5
176
100
AcDbEntity
8
1
62
256
6
ByLayer
370
18
48
1
60
0
100
AcDbSpline
70
4
71
3
72
10
73
6
40
0
40
0
40
0
40
0
40
0.5
40
0.5
40
1
40
1
40
1
40
1
41
1
10
50.321959976238
20
0.977896423658876
30
0
41
1
10
50.3795571924471
20
0.986033107554476
30
0
41
1
10
50.4366763730906
20
0.988601848474701
30
0
41
1
10
50.5499114634789
20
0.98289448234263
30
0
41
1
10
50.6059284702029
20
0.974598045782443
30
0
41
1
10
50.6614416809181
20
0.960968665700307
30
0
0
SPLINE
5
177
100
AcDbEntity
8
1
62
256
6
ByLayer
370
18
48
1
60
0
100
AcDbSpline
70
4
71
3
72
8
73
4
40
0
40
0
40
0
40
0
40
1
40
1
40
1
40
1
41
1
10
50.6614416809181
20
0.960968665700307
30
0
41
1
10
50.673494166726
20
0.949794625443218
30
0
41
1
10
50.6855368988461
20
0.938579314288262
30
0
41
1
10
50.6975700976945
20
0.927322820208303
30
0
0
SPLINE
5
178
100
AcDbEntity
8
1
62
256
6
ByLayer
370
18
48
1
60
0
100
AcDbSpline
70
4
71
3
72
10
73
6
40
0
40
0
40
0
40
0
40
0.5
40
0.5
40
1
40
1
40
1
40
1
41
1
10
50.760502888094
20
0.864301362951949
30
0
41
1
10
50.8184241885506
20
0.767003777385014
30
0
41
1
10
50.8767716744019
20
0.673436899788584
30
0
41
1
10
50.9948063490357
20
0.494487202642261
30
0
41
1
10
51.0542914495935
20
0.409651163092633
30
0
41
1
10
51.1145401315944
20
0.329680597916678
30
0
0
SPLINE
5
179
100
AcDbEntity
8
1
62
256
6
ByLayer
370
18
48
1
60
0
100
AcDbSpline
70
4
71
3
72
28
73
24
40
0
40
0
40
0
40
0
40
0.125
40
0.125
40
0.25
40
0.25
40
0.375
40
0.375
40
0.499999999999999
40
0.499999999999999
40
0.624999999999999
40
0.624999999999999
40
0.687499999999999
40
0.687499999999999
40
0.749999999999999
40
0.749999999999999
40
0.8125
40
0.8125
40
0.875
40
0.875
40
0.9375
40
0.9375
40
1
40
1
40
1
40
1
41
1
10
51.1145401315944
20
0.329680597916678
30
0
41
1
10
51.1219538483244
20
0.319840065356232
30
0
41
1
10
51.1305786237284
20
0.309602902232456
30
0
41
1
10
51.1496325499758
20
0.288572181619458
30
0
41
1
10
51.1601769678904
20
0.277680926860626
30
0
41
1
10
51.1820716508954
20
0.256196945031718
30
0
41
1
10
51.1934921291489
20
0.245519416738347
30
0
41
1
10
51.2171849992237
20
0.224247774536849
30
0
41
1
10
51.2295318336706
20
0.213598683279116
30
0
41
1
10
51.2541878684083
20
0.193081466187806
30
0
41
1
10
51.266592496483
20
0.183123297869912
30
0
41
1
10
51.2852837075853
20
0.168635618531681
30
0
41
1
10
51.291557199161
20
0.163860525436462
30
0
41
1
10
51.3039886349289
20
0.1545771697335
30
0
41
1
10
51.3101127628172
20
0.150093217411921
30
0
41
1
10
51.3221560006463
20
0.141458821181743
30
0
41
1
10
51.3280753375613
20
0.137308021245786
30
0
41
1
10
51.3396737277128
20
0.129381449778151
30
0
41
1
10
51.345381578657
20
0.125588220260425
30
0
41
1
10
51.3561875763132
20
0.118651808880117
30
0
41
1
10
51.3613204892654
20
0.115483378788298
30
0
41
1
10
51.3709591089856
20
0.109842362557743
30
0
41
1
10
51.3754872670762
20
0.107359571470624
30
0
41
1
10
51.3795211274601
20
0.105365073941584
30
0
0
SPLINE
5
17A
100
AcDbEntity
8
1
62
256
6
ByLayer
370
18
48
1
60
0
100
AcDbSpline
70
4
71
3
72
10
73
6
40
0
40
0
40
0
40
0
40
0.5
40
0.5
40
1
40
1
40
1
40
1
41
1
10
51.37952112746
20
0.105365073942096
30
0
41
1
10
51.437601370537
20
0.0766479418950041
30
0
41
1
10
51.4951978310993
20
0.0424537004753063
30
0
41
1
10
51.6093956932776
20
-0.0361943407699812
30
0
41
1
10
51.6658950083778
20
-0.0806033238516193
30
0
41
1
10
51.7219097664754
20
-0.129859358725014
30
0
0
SPLINE
5
17B
100
AcDbEntity
8
1
62
256
6
ByLayer
370
18
48
1
60
0
100
AcDbSpline
70
4
71
3
72
12
73
8
40
0
40
0
40
0
40
0
40
0.500000000000012
40
0.500000000000012
40
0.750000000000006
40
0.750000000000006
40
1
40
1
40
1
40
1
41
1
10
51.8181655088891
20
-0.229809089577657
30
0
41
1
10
51.8760471018922
20
-0.295786269284804
30
0
41
1
10
51.9343811270151
20
-0.356597703015098
30
0
41
1
10
52.0228860189146
20
-0.43981028202785
30
0
41
1
10
52.0524958299096
20
-0.466154462191838
30
0
41
1
10
52.1119941783829
20
-0.516008691163734
30
0
41
1
10
52.141889687791
20
-0.539491889918736
30
0
41
1
10
52.1719370575455
20
-0.561605158762347
30
0
0
SPLINE
5
17C
100
AcDbEntity
8
1
62
256
6
ByLayer
370
18
48
1
60
0
100
AcDbSpline
70
4
71
3
72
26
73
22
40
0
40
0
40
0
40
0
40
0.125
40
0.125
40
0.25
40
0.25
40
0.375
40
0.375
40
0.5
40
0.5
40
0.625
40
0.625
40
0.75
40
0.75
40
0.8125
40
0.8125
40
0.875
40
0.875
40
0.9375
40
0.9375
40
1
40
1
40
1
40
1
41
1
10
52.1719370575455
20
-0.561605158762404
30
0
41
1
10
52.1793642334108
20
-0.567071165870516
30
0
41
1
10
52.1880005897812
20
-0.573570930350513
30
0
41
1
10
52.2070568955727
20
-0.588068719425934
30
0
41
1
10
52.2175905980838
20
-0.596156495643356
30
0
41
1
10
52.2394500810417
20
-0.61304394364555
30
0
41
1
10
52.2508487071748
20
-0.621896149053214
30
0
41
1
10
52.2745088828948
20
-0.640377718406171
30
0
41
1
10
52.2868474014824
20
-0.65007156691189
30
0
41
1
10
52.31151040203
20
-0.669640192895997
30
0
41
1
10
52.3239301429461
20
-0.679583486640894
30
0
41
1
10
52.3488867468749
20
-0.699921354885362
30
0
41
1
10
52.3614949524655
20
-0.710382481389871
30
0
41
1
10
52.3795889556356
20
-0.725855842448738
30
0
41
1
10
52.3855146661347
20
-0.731001908379938
30
0
41
1
10
52.3971197665687
20
-0.741272841826543
30
0
41
1
10
52.4028324403063
20
-0.746429398824716
30
0
41
1
10
52.413651416654
20
-0.756435825624067
30
0
41
1
10
52.4187879847332
20
-0.76131106019605
30
0
41
1
10
52.4284296499839
20
-0.770763746626841
30
0
41
1
10
52.4329596962893
20
-0.77536868927919
30
0
41
1
10
52.4369986332573
20
-0.779677117582366
30
0
0
SPLINE
5
17D
100
AcDbEntity
8
1
62
256
6
ByLayer
370
18
48
1
60
0
100
AcDbSpline
70
4
71
3
72
10
73
6
40
0
40
0
40
0
40
0
40
0.5
40
0.5
40
1
40
1
40
1
40
1
41
1
10
52.4369986332573
20
-0.779677117582111
30
0
41
1
10
52.4951293896771
20
-0.84168655180423
30
0
41
1
10
52.5527444474204
20
-0.908517612324403
30
0
41
1
10
52.6669911001019
20
-1.05039001967899
30
0
41
1
10
52.7235248577086
20
-1.12532475141956
30
0
41
1
10
52.7795901657669
20
-1.20395906140192
30
0
0
SPLINE
5
17E
100
AcDbEntity
8
1
62
256
6
ByLayer
370
18
48
1
60
0
100
AcDbSpline
70
4
71
3
72
10
73
6
40
0
40
0
40
0
40
0
40
0.5
40
0.5
40
1
40
1
40
1
40
1
41
1
10
52.8757514958342
20
-1.29529747691669
30
0
41
1
10
52.9335759885238
20
-1.32172974765439
30
0
41
1
10
52.9918827206562
20
-1.34224463197407
30
0
41
1
10
53.1098664722906
20
-1.37122882019366
30
0
41
1
10
53.1693026159069
20
-1.37962849329838
30
0
41
1
10
53.2294257651392
20
-1.38179844903308
30
0
0
SPLINE
5
17F
100
AcDbEntity
8
1
62
256
6
ByLayer
370
18
48
1
60
0
100
AcDbSpline
70
4
71
3
72
28
73
24
40
0
40
0
40
0
40
0
40
0.124999999999968
40
0.124999999999968
40
0.249999999999937
40
0.249999999999937
40
0.374999999999906
40
0.374999999999906
40
0.499999999999874
40
0.499999999999874
40
0.624999999999843
40
0.624999999999843
40
0.687499999999869
40
0.687499999999869
40
0.749999999999895
40
0.749999999999895
40
0.812499999999921
40
0.812499999999921
40
0.874999999999947
40
0.874999999999947
40
0.937499999999974
40
0.937499999999974
40
1
40
1
40
1
40
1
41
1
10
53.2294257651392
20
-1.38179844903311
30
0
41
1
10
53.2368577560366
20
-1.38206668334007
30
0
41
1
10
53.2455081414151
20
-1.38385103181003
30
0
41
1
10
53.2646201852194
20
-1.38962648229298
30
0
41
1
10
53.2751987249978
20
-1.39369131702006
30
0
41
1
10
53.2971538362852
20
-1.40347764784198
30
0
41
1
10
53.3086014726853
20
-1.40921284738019
30
0
41
1
10
53.3323392323224
20
-1.42228826796216
30
0
41
1
10
53.3446993631358
20
-1.42968289294228
30
0
41
1
10
53.3693648544894
20
-1.44565895436978
30
0
41
1
10
53.3817681867549
20
-1.45428650790953
30
0
41
1
10
53.400447241978
20
-1.46834009729113
30
0
41
1
10
53.4067174477654
20
-1.47323776706824
30
0
41
1
10
53.4191173290823
20
-1.48333340874578
30
0
41
1
10
53.4252248417058
20
-1.48851109983113
30
0
41
1
10
53.4372332895598
20
-1.49915451917604
30
0
41
1
10
53.4431344477571
20
-1.50461993635395
30
0
41
1
10
53.4546953141827
20
-1.51588574202051
30
0
41
1
10
53.4603827687232
20
-1.52171946232636
30
0
41
1
10
53.4711507158204
20
-1.53345017890709
30
0
41
1
10
53.4762660699072
20
-1.53937742695982
30
0
41
1
10
53.4858738519132
20
-1.55137444908453
30
0
41
1
10
53.4903895837876
20
-1.55748185487934
30
0
41
1
10
53.4944166895563
20
-1.56351949079718
30
0
0
SPLINE
5
180
100
AcDbEntity
8
1
62
256
6
ByLayer
370
18
48
1
60
0
100
AcDbSpline
70
4
71
3
72
12
73
8
40
0
40
0
40
0
40
0
40
0.249999999999993
40
0.249999999999993
40
0.499999999999985
40
0.499999999999985
40
1
40
1
40
1
40
1
41
1
10
53.4944166895563
20
-1.56351949079692
30
0
41
1
10
53.5234888045463
20
-1.60710584182721
30
0
41
1
10
53.5524097773928
20
-1.65155504095287
30
0
41
1
10
53.6100612967712
20
-1.74181767294516
30
0
41
1
10
53.6387558811018
20
-1.787649201086
30
0
41
1
10
53.7244513825444
20
-1.92723339047671
30
0
41
1
10
53.7809634977627
20
-2.02282615508841
30
0
41
1
10
53.8370126507348
20
-2.12056914499718
30
0
0
SPLINE
5
181
100
AcDbEntity
8
1
62
256
6
ByLayer
370
18
48
1
60
0
100
AcDbSpline
70
4
71
3
72
8
73
4
40
0
40
0
40
0
40
0
40
1
40
1
40
1
40
1
41
1
10
53.8781640065203
20
-2.15139157333073
30
0
41
1
10
53.8995382837179
20
-2.16439958369813
30
0
41
1
10
53.9209245244139
20
-2.17714495596059
30
0
41
1
10
53.9423244801731
20
-2.18962981745378
30
0
0
SPLINE
5
182
100
AcDbEntity
8
1
62
256
6
ByLayer
370
18
48
1
60
0
100
AcDbSpline
70
4
71
3
72
10
73
6
40
0
40
0
40
0
40
0
40
0.5
40
0.5
40
1
40
1
40
1
40
1
41
1
10
53.9423244801728
20
-2.18962981745383
30
0
41
1
10
53.9986612589902
20
-2.17327233294898
30
0
41
1
10
54.0554903539194
20
-2.15127672232435
30
0
41
1
10
54.1704539838875
20
-2.09598046639061
30
0
41
1
10
54.2283809878558
20
-2.06276267812783
30
0
41
1
10
54.2869806989797
20
-2.02394828100552
30
0
0
SPLINE
5
183
100
AcDbEntity
8
1
62
256
6
ByLayer
370
18
48
1
60
0
100
AcDbSpline
70
4
71
3
72
27
73
23
40
0
40
0
40
0
40
0
40
0.125000000000001
40
0.125000000000001
40
0.250000000000002
40
0.250000000000002
40
0.375000000000003
40
0.375000000000003
40
0.500000000000003
40
0.500000000000003
40
0.625000000000004
40
0.625000000000004
40
0.687500000000003
40
0.687500000000003
40
0.750000000000003
40
0.812500000000002
40
0.812500000000002
40
0.875000000000001
40
0.875000000000001
40
0.937500000000001
40
0.937500000000001
40
1
40
1
40
1
40
1
41
1
10
54.2869806989797
20
-2.02394828100552
30
0
41
1
10
54.2944052976702
20
-2.01903048676309
30
0
41
1
10
54.3030479348455
20
-2.01592096781866
30
0
41
1
10
54.3221466135131
20
-2.01234502157163
30
0
41
1
10
54.3327206928459
20
-2.01192380635734
30
0
41
1
10
54.3546711573773
20
-2.0134548564898
30
0
41
1
10
54.3661174010392
20
-2.01537931516418
30
0
41
1
10
54.3898549979615
20
-2.02141586288141
30
0
41
1
10
54.4022160904054
20
-2.02557356477379
30
0
41
1
10
54.4268822310145
20
-2.03589170507533
30
0
41
1
10
54.4392855872304
20
-2.04206476229527
30
0
41
1
10
54.4579658728085
20
-2.05304751763831
30
0
41
1
10
54.4642375881321
20
-2.05702110504225
30
0
41
1
10
54.4766344689794
20
-2.06551392495555
30
0
41
1
10
54.4888467985553
20
-2.07451914278167
30
0
41
1
10
54.5006472601053
20
-2.08464269607637
30
0
41
1
10
54.5122070940905
20
-2.09540975626797
30
0
41
1
10
54.5178924635471
20
-2.1011489833202
30
0
41
1
10
54.5286536995173
20
-2.1130517015205
30
0
41
1
10
54.533765832237
20
-2.11924349283135
30
0
41
1
10
54.5433673397542
20
-2.1321848377176
30
0
41
1
10
54.5478790483982
20
-2.13897749305264
30
0
41
1
10
54.5519012302473
20
-2.14593363610942
30
0
0
SPLINE
5
184
100
AcDbEntity
8
1
62
256
6
ByLayer
370
18
48
1
60
0
100
AcDbSpline
70
4
71
3
72
10
73
6
40
0
40
0
40
0
40
0
40
0.5
40
0.5
40
1
40
1
40
1
40
1
41
1
10
54.5519012302473
20
-2.14593363610919
30
0
41
1
10
54.5897726547856
20
-2.21143018915848
30
0
41
1
10
54.6274182661064
20
-2.27750825860557
30
0
41
1
10
54.7022704992379
20
-2.41053544052625
30
0
41
1
10
54.7394847137416
20
-2.47748485772317
30
0
41
1
10
54.7764274985211
20
-2.54463290174181
30
0
0
SPLINE
5
185
100
AcDbEntity
8
1
62
256
6
ByLayer
370
18
48
1
60
0
100
AcDbSpline
70
4
71
3
72
14
73
10
40
0
40
0
40
0
40
0
40
0.25
40
0.25
40
0.5
40
0.5
40
0.75
40
0.75
40
1
40
1
40
1
40
1
41
1
10
54.7764274985213
20
-2.54463290174215
30
0
41
1
10
54.8084378911667
20
-2.55326161956003
30
0
41
1
10
54.8404221259082
20
-2.56141639914773
30
0
41
1
10
54.9045894454256
20
-2.57658212439668
30
0
41
1
10
54.9368483668717
20
-2.5835376976716
30
0
41
1
10
55.0016813375325
20
-2.59623518031569
30
0
41
1
10
55.0342978870263
20
-2.60198876961425
30
0
41
1
10
55.099511442668
20
-2.61224946324003
30
0
41
1
10
55.1321220997974
20
-2.61675914652366
30
0
41
1
10
55.1647453854365
20
-2.62065857155463
30
0
0
SPLINE
5
186
100
AcDbEntity
8
1
62
256
6
ByLayer
370
18
48
1
60
0
100
AcDbSpline
70
4
71
3
72
8
73
4
40
0
40
0
40
0
40
0
40
1
40
1
40
1
40
1
41
1
10
55.1647453854364
20
-2.62065857155463
30
0
41
1
10
55.2241143195446
20
-2.55356302388256
30
0
41
1
10
55.283963674542
20
-2.48156549159248
30
0
41
1
10
55.344548469614
20
-2.40468123200122
30
0
0
SPLINE
5
187
100
AcDbEntity
8
1
62
256
6
ByLayer
370
18
48
1
60
0
100
AcDbSpline
70
4
71
3
72
27
73
23
40
0
40
0
40
0
40
0
40
0.125000000000032
40
0.125000000000032
40
0.250000000000063
40
0.250000000000063
40
0.375000000000094
40
0.375000000000094
40
0.500000000000126
40
0.500000000000126
40
0.625000000000157
40
0.625000000000157
40
0.687500000000131
40
0.687500000000131
40
0.750000000000105
40
0.812500000000079
40
0.812500000000079
40
0.875000000000052
40
0.875000000000052
40
0.937500000000026
40
0.937500000000026
40
1
40
1
40
1
40
1
41
1
10
55.3445484696138
20
-2.40468123200111
30
0
41
1
10
55.3519762777723
20
-2.39525507928448
30
0
41
1
10
55.3606220815312
20
-2.38770321590354
30
0
41
1
10
55.3797256256371
20
-2.37534230410347
30
0
41
1
10
55.390301633498
20
-2.37054434997148
30
0
41
1
10
55.4122540938973
20
-2.36372835997454
30
0
41
1
10
55.423700494412
20
-2.36164552008202
30
0
41
1
10
55.4474371990023
20
-2.35996359523639
30
0
41
1
10
55.4597970798321
20
-2.36039590413986
30
0
41
1
10
55.4844617461599
20
-2.36381373162189
30
0
41
1
10
55.4968647476583
20
-2.36677665005186
30
0
41
1
10
55.5155448506105
20
-2.37332887818877
30
0
41
1
10
55.5218164925924
20
-2.37588361898867
30
0
41
1
10
55.5342134668907
20
-2.38171830393944
30
0
41
1
10
55.5464257002277
20
-2.388251972088
30
0
41
1
10
55.5582263256064
20
-2.39629938086864
30
0
41
1
10
55.5697858030657
20
-2.40521611458385
30
0
41
1
10
55.5754709342557
20
-2.41014072836487
30
0
41
1
10
55.5862312470249
20
-2.42072215513289
30
0
41
1
10
55.5913426424479
20
-2.42640021088926
30
0
41
1
10
55.6009420698643
20
-2.43865490003205
30
0
41
1
10
55.60545256527
20
-2.44527585786426
30
0
41
1
10
55.6094738339685
20
-2.45227290520231
30
0
0
SPLINE
5
188
100
AcDbEntity
8
1
62
256
6
ByLayer
370
18
48
1
60
0
100
AcDbSpline
70
4
71
3
72
8
73
4
40
0
40
0
40
0
40
0
40
1
40
1
40
1
40
1
41
1
10
55.6094738339684
20
-2.45227290520219
30
0
41
1
10
55.6437149932826
20
-2.51185286132682
30
0
41
1
10
55.6777743681497
20
-2.57116218608581
30
0
41
1
10
55.711672182052
20
-2.63014904166511
30
0
0
SPLINE
5
189
100
AcDbEntity
8
1
62
256
6
ByLayer
370
18
48
1
60
0
100
AcDbSpline
70
4
71
3
72
8
73
4
40
0
40
0
40
0
40
0
40
1
40
1
40
1
40
1
41
1
10
56.1683046816037
20
-0.505727098774173
30
0
41
1
10
56.1264056432462
20
-0.505032730929543
30
0
41
1
10
56.0846907297613
20
-0.501084050035388
30
0
41
1
10
56.0431972206229
20
-0.494074531274578
30
0
0
SPLINE
5
18A
100
AcDbEntity
8
1
62
256
6
ByLayer
370
18
48
1
60
0
100
AcDbSpline
70
4
71
3
72
10
73
6
40
0
40
0
40
0
40
0
40
0.5
40
0.5
40
1
40
1
40
1
40
1
41
1
10
56.043197220623
20
-0.494074531274663
30
0
41
1
10
55.9660729844003
20
-0.433315240623927
30
0
41
1
10
55.8891140072575
20
-0.37044747387219
30
0
41
1
10
55.7354569222011
20
-0.240973803390233
30
0
41
1
10
55.6594132095339
20
-0.174924305601621
30
0
41
1
10
55.5839731497104
20
-0.107752395308978
30
0
0
SPLINE
5
18B
100
AcDbEntity
8
1
62
256
6
ByLayer
370
18
48
1
60
0
100
AcDbSpline
70
4
71
3
72
10
73
6
40
0
40
0
40
0
40
0
40
0.5
40
0.5
40
1
40
1
40
1
40
1
41
1
10
55.5839731497103
20
-0.107752395308921
30
0
41
1
10
55.5495759893086
20
-0.0588037599825384
30
0
41
1
10
55.5149985435807
20
-0.011479320730615
30
0
41
1
10
55.4455914248119
20
0.0795575340111156
30
0
41
1
10
55.4107315298752
20
0.123303022074026
30
0
41
1
10
55.3756727937131
20
0.165244756234358
30
0
0
SPLINE
5
18C
100
AcDbEntity
8
1
62
256
6
ByLayer
370
18
48
1
60
0
100
AcDbSpline
70
4
71
3
72
28
73
24
40
0
40
0
40
0
40
0
40
0.124999999999968
40
0.124999999999968
40
0.249999999999937
40
0.249999999999937
40
0.374999999999905
40
0.374999999999905
40
0.499999999999873
40
0.499999999999873
40
0.624999999999842
40
0.624999999999842
40
0.687499999999868
40
0.687499999999868
40
0.749999999999895
40
0.749999999999895
40
0.812499999999921
40
0.812499999999921
40
0.874999999999947
40
0.874999999999947
40
0.937499999999974
40
0.937499999999974
40
1
40
1
40
1
40
1
41
1
10
55.3756727937131
20
0.165244756234444
30
0
41
1
10
55.3685149523575
20
0.173807879500146
30
0
41
1
10
55.3602200495852
20
0.182909918950315
30
0
41
1
10
55.3418713412896
20
0.201908055784344
30
0
41
1
10
55.3317241028636
20
0.211883312086343
30
0
41
1
10
55.3105151735465
20
0.23190382450008
30
0
41
1
10
55.299391759268
20
0.242017571524229
30
0
41
1
10
55.2761729746769
20
0.262478138488746
30
0
41
1
10
55.2639622946881
20
0.272917651437808
30
0
41
1
10
55.2393627447192
20
0.293401823385068
30
0
41
1
10
55.2269212663192
20
0.303498854000566
30
0
41
1
10
55.2080618649334
20
0.318452249114358
30
0
41
1
10
55.2017422974318
20
0.323404479886051
30
0
41
1
10
55.1890352552174
20
0.333244998024924
30
0
41
1
10
55.1826634525418
20
0.33812028669135
30
0
41
1
10
55.1701951893999
20
0.347543936374308
30
0
41
1
10
55.1640592024883
20
0.352123189237034
30
0
41
1
10
55.1520211066733
20
0.36098386159901
30
0
41
1
10
55.1460748579576
20
0.365296414147366
30
0
41
1
10
55.1348086073829
20
0.373324567319855
30
0
41
1
10
55.1294637773206
20
0.377059749136947
30
0
41
1
10
55.1194482413898
20
0.383880203122658
30
0
41
1
10
55.1147717560102
20
0.386967416842367
30
0
41
1
10
55.1106519185603
20
0.389560492030114
30
0
0
SPLINE
5
18D
100
AcDbEntity
8
1
62
256
6
ByLayer
370
18
48
1
60
0
100
AcDbSpline
70
4
71
3
72
12
73
8
40
0
40
0
40
0
40
0
40
0.500000000000017
40
0.500000000000017
40
0.750000000000009
40
0.750000000000009
40
1
40
1
40
1
40
1
41
1
10
55.1106519185578
20
0.38956049202605
30
0
41
1
10
55.0572090594809
20
0.423198069604439
30
0
41
1
10
55.0040540465831
20
0.461636514790399
30
0
41
1
10
54.9248771994316
20
0.525956068199065
30
0
41
1
10
54.8985695222723
20
0.548519851412181
30
0
41
1
10
54.8462122816223
20
0.59574924045134
30
0
41
1
10
54.820148356354
20
0.620426898615136
30
0
41
1
10
54.7941809515392
20
0.646144466968963
30
0
0
SPLINE
5
18E
100
AcDbEntity
8
1
62
256
6
ByLayer
370
18
48
1
60
0
100
AcDbSpline
70
4
71
3
72
10
73
6
40
0
40
0
40
0
40
0
40
0.5
40
0.5
40
1
40
1
40
1
40
1
41
1
10
54.6698204790474
20
0.772005078042213
30
0
41
1
10
54.6121464211766
20
0.827168292181227
30
0
41
1
10
54.5540584723574
20
0.876655437010015
30
0
41
1
10
54.4367186065208
20
0.963875433619023
30
0
41
1
10
54.3776966677797
20
1.00142190411793
30
0
41
1
10
54.3181129682097
20
1.03275513531227
30
0
0
SPLINE
5
18F
100
AcDbEntity
8
1
62
256
6
ByLayer
370
18
48
1
60
0
100
AcDbSpline
70
4
71
3
72
28
73
24
40
0
40
0
40
0
40
0
40
0.125
40
0.125
40
0.249999999999999
40
0.249999999999999
40
0.374999999999999
40
0.374999999999999
40
0.499999999999998
40
0.499999999999998
40
0.624999999999998
40
0.624999999999998
40
0.687499999999998
40
0.687499999999998
40
0.749999999999999
40
0.749999999999999
40
0.812499999999999
40
0.812499999999999
40
0.874999999999999
40
0.874999999999999
40
0.9375
40
0.9375
40
1
40
1
40
1
40
1
41
1
10
54.3181129682098
20
1.0327551353121
30
0
41
1
10
54.3109482858663
20
1.03652282093623
30
0
41
1
10
54.3026445360676
20
1.04132835949892
30
0
41
1
10
54.2842772321542
20
1.05249450441391
30
0
41
1
10
54.2741200132333
20
1.05892260522768
30
0
41
1
10
54.25289461641
20
1.07276550351543
30
0
41
1
10
54.2417643548428
20
1.08021628422011
30
0
41
1
10
54.2185362084628
20
1.09617063692187
30
0
41
1
10
54.2063237368292
20
1.10475857453614
30
0
41
1
10
54.1817263489252
20
1.12254625270415
30
0
41
1
10
54.1692877196741
20
1.1317776775511
30
0
41
1
10
54.1504359328598
20
1.14625546571887
30
0
41
1
10
54.1441194325991
20
1.15118757547034
30
0
41
1
10
54.1314196036249
20
1.16130569703034
30
0
41
1
10
54.1250536522736
20
1.16647955536999
30
0
41
1
10
54.1125955911667
20
1.17684838769563
30
0
41
1
10
54.106464485011
20
1.18207385337541
30
0
41
1
10
54.0944354993574
20
1.19262793963728
30
0
41
1
10
54.0884936729344
20
1.19799880500403
30
0
41
1
10
54.0772345664808
20
1.20855959015478
30
0
41
1
10
54.0718924143701
20
1.213768349757
30
0
41
1
10
54.0618804909447
20
1.22401942394973
30
0
41
1
10
54.0572046572777
20
1.22907398042807
30
0
41
1
10
54.0530845963067
20
1.23385781470145
30
0
0
SPLINE
5
190
100
AcDbEntity
8
1
62
256
6
ByLayer
370
18
48
1
60
0
100
AcDbSpline
70
4
71
3
72
12
73
8
40
0
40
0
40
0
40
0
40
0.499999999999999
40
0.499999999999999
40
0.75
40
0.75
40
1
40
1
40
1
40
1
41
1
10
54.0530845963025
20
1.23385781470168
30
0
41
1
10
53.9956840483563
20
1.3005060295026
30
0
41
1
10
53.9386189104728
20
1.37157575962138
30
0
41
1
10
53.8536468530379
20
1.48398372232106
30
0
41
1
10
53.8254336085024
20
1.52241594082841
30
0
41
1
10
53.7692849731014
20
1.60102253554842
30
0
41
1
10
53.7413354064841
20
1.64121638705919
30
0
41
1
10
53.7134896398009
20
1.68227989728359
30
0
0
SPLINE
5
191
100
AcDbEntity
8
1
62
256
6
ByLayer
370
18
48
1
60
0
100
AcDbSpline
70
4
71
3
72
8
73
4
40
0
40
0
40
0
40
0
40
1
40
1
40
1
40
1
41
1
10
53.6171687168366
20
1.7655032208063
30
0
41
1
10
53.6492883461107
20
1.7380673167352
30
0
41
1
10
53.6813922819701
20
1.71032362636365
30
0
41
1
10
53.7134896398009
20
1.68227989728362
30
0
0
SPLINE
5
192
100
AcDbEntity
8
1
62
256
6
ByLayer
370
18
48
1
60
0
100
AcDbSpline
70
4
71
3
72
10
73
6
40
0
40
0
40
0
40
0
40
0.5
40
0.5
40
1
40
1
40
1
40
1
41
1
10
53.6171687168378
20
1.76550322079942
30
0
41
1
10
53.5587127865072
20
1.77867971041687
30
0
41
1
10
53.4998447422005
20
1.78545615984149
30
0
41
1
10
53.3808672738388
20
1.78591615142418
30
0
41
1
10
53.3210074768423
20
1.77961273791325
30
0
41
1
10
53.2605356643138
20
1.76671635880885
30
0
0
SPLINE
5
193
100
AcDbEntity
8
1
62
256
6
ByLayer
370
18
48
1
60
0
100
AcDbSpline
70
4
71
3
72
28
73
24
40
0
40
0
40
0
40
0
40
0.125000000000032
40
0.125000000000032
40
0.250000000000063
40
0.250000000000063
40
0.375000000000095
40
0.375000000000095
40
0.500000000000127
40
0.500000000000127
40
0.625000000000158
40
0.625000000000158
40
0.687500000000132
40
0.687500000000132
40
0.750000000000105
40
0.750000000000105
40
0.812500000000079
40
0.812500000000079
40
0.875000000000053
40
0.875000000000053
40
0.937500000000026
40
0.937500000000026
40
1
40
1
40
1
40
1
41
1
10
53.2605356643138
20
1.76671635880882
30
0
41
1
10
53.2533713029382
20
1.76518846810279
30
0
41
1
10
53.2450665592473
20
1.76506017772155
30
0
41
1
10
53.22669414014
20
1.76691632432735
30
0
41
1
10
53.2165322411696
20
1.76894771451583
30
0
41
1
10
53.1952963384547
20
1.77478847646884
30
0
41
1
10
53.1841603377629
20
1.77859614765688
30
0
41
1
10
53.1609203556384
20
1.78794948608206
30
0
41
1
10
53.1487025391395
20
1.79356048628407
30
0
41
1
10
53.1241005210917
20
1.80632105743587
30
0
41
1
10
53.1116604073964
20
1.81347817710201
30
0
41
1
10
53.0928080076092
20
1.82558532726497
30
0
41
1
10
53.0864915733916
20
1.82985187270228
30
0
41
1
10
53.0737924891915
20
1.83892380926525
30
0
41
1
10
53.0674331167805
20
1.84371638720813
30
0
41
1
10
53.0549857518249
20
1.85366765581122
30
0
41
1
10
53.0488600049113
20
1.85885205945431
30
0
41
1
10
53.0368416013872
20
1.8697105078586
30
0
41
1
10
53.0309058544362
20
1.87543175712233
30
0
41
1
10
53.0196606319654
20
1.88712883977664
30
0
41
1
10
53.0143246949868
20
1.89312188757205
30
0
41
1
10
53.0043234002651
20
1.9054463129896
30
0
41
1
10
52.9996524517312
20
1.91179776563666
30
0
41
1
10
52.9955356779153
20
1.91813808155936
30
0
0
SPLINE
5
194
100
AcDbEntity
8
1
62
256
6
ByLayer
370
18
48
1
60
0
100
AcDbSpline
70
4
71
3
72
12
73
8
40
0
40
0
40
0
40
0
40
0.499999999999985
40
0.499999999999985
40
0.749999999999992
40
0.749999999999992
40
1
40
1
40
1
40
1
41
1
10
52.9955356779127
20
1.91813808155999
30
0
41
1
10
52.9381188144652
20
2.00656680508155
30
0
41
1
10
52.8810483039891
20
2.097769157004
30
0
41
1
10
52.7960798994202
20
2.23785915462034
30
0
41
1
10
52.7678696373195
20
2.28509505835547
30
0
41
1
10
52.7117268162979
20
2.38044131590365
30
0
41
1
10
52.6837802713429
20
2.42857524990976
30
0
41
1
10
52.6559361652305
20
2.47715081854742
30
0
0
SPLINE
5
195
100
AcDbEntity
8
1
62
256
6
ByLayer
370
18
48
1
60
0
100
AcDbSpline
70
4
71
3
72
10
73
6
40
0
40
0
40
0
40
0
40
0.5
40
0.5
40
1
40
1
40
1
40
1
41
1
10
51.5019114051857
20
2.97576199023962
30
0
41
1
10
51.4434157518358
20
2.90322175795973
30
0
41
1
10
51.3845539171658
20
2.82584411671715
30
0
41
1
10
51.2656097241014
20
2.66132806450273
30
0
41
1
10
51.2057696327168
20
2.57454563527835
30
0
41
1
10
51.1452794902636
20
2.48317866552628
30
0
0
SPLINE
5
196
100
AcDbEntity
8
1
62
256
6
ByLayer
370
18
48
1
60
0
100
AcDbSpline
70
4
71
3
72
28
73
24
40
0
40
0
40
0
40
0
40
0.124999999999968
40
0.124999999999968
40
0.249999999999936
40
0.249999999999936
40
0.374999999999905
40
0.374999999999905
40
0.499999999999873
40
0.499999999999873
40
0.624999999999841
40
0.624999999999841
40
0.687499999999868
40
0.687499999999868
40
0.749999999999894
40
0.749999999999894
40
0.812499999999921
40
0.812499999999921
40
0.874999999999947
40
0.874999999999947
40
0.937499999999974
40
0.937499999999974
40
1
40
1
40
1
40
1
41
1
10
51.1452794902636
20
2.48317866552628
30
0
41
1
10
51.1381247146261
20
2.47237177794517
30
0
41
1
10
51.1298320029059
20
2.46311422438376
30
0
41
1
10
51.1114839198047
20
2.44695672324735
30
0
41
1
10
51.1013340330469
20
2.4400468679396
30
0
41
1
10
51.0801164808431
20
2.42880991960419
30
0
41
1
10
51.0689876074945
20
2.42441216871788
30
0
41
1
10
51.0457550975781
20
2.4179793979624
30
0
41
1
10
51.0335368353755
20
2.41595077010984
30
0
41
1
10
51.0089282073777
20
2.41459261403386
30
0
41
1
10
50.9964820887691
20
2.41521984708089
30
0
41
1
10
50.9776167213268
20
2.41840527974046
30
0
41
1
10
50.9712952813206
20
2.41984482393019
30
0
41
1
10
50.9585852957056
20
2.42359488033191
30
0
41
1
10
50.9522209156329
20
2.42590477990638
30
0
41
1
10
50.9397655849028
20
2.43139416927127
30
0
41
1
10
50.9336367179349
20
2.43458273163975
30
0
41
1
10
50.9216143918965
20
2.44198714215608
30
0
41
1
10
50.9156778853835
20
2.44624328190653
30
0
41
1
10
50.9044349631144
20
2.45572826120247
30
0
41
1
10
50.8991017604892
20
2.46096236393862
30
0
41
1
10
50.8891084326043
20
2.47257741132643
30
0
41
1
10
50.8844423469434
20
2.47898689238673
30
0
41
1
10
50.8803301961026
20
2.48586894074771
30
0
0
SPLINE
5
197
100
AcDbEntity
8
1
62
256
6
ByLayer
370
18
48
1
60
0
100
AcDbSpline
70
4
71
3
72
8
73
4
40
0
40
0
40
0
40
0
40
1
40
1
40
1
40
1
41
1.04
10
56.4156143695865
20
-2.44338895878577
30
0
41
1.04
10
56.4111231504879
20
-2.45642044605975
30
0
41
1.04
10
56.4066158805218
20
-2.46658997336258
30
0
41
1.04
10
56.4020920394627
20
-2.4738183160975
30
0
0
SPLINE
5
198
100
AcDbEntity
8
1
62
256
6
ByLayer
370
18
48
1
60
0
100
AcDbSpline
70
4
71
3
72
14
73
10
40
0
40
0
40
0
40
0
40
0.0984496676534334
40
0.0984496676534334
40
0.323837250740075
40
0.323837250740075
40
0.549224833826717
40
0.549224833826717
40
1
40
1
40
1
40
1
41
1
10
51.4653545471177
20
3.05706156134508
30
0
41
1
10
51.4665710926748
20
3.05706037472888
30
0
41
1
10
51.4677867569483
20
3.05679647433786
30
0
41
1
10
51.4717804896194
20
3.05506049405912
30
0
41
1
10
51.4745539201944
20
3.05246656158542
30
0
41
1
10
51.4800957382128
20
3.04444428572302
30
0
41
1
10
51.4828405891404
20
3.03904949138229
30
0
41
1
10
51.4910279970157
20
3.01881412302768
30
0
41
1
10
51.4964384262858
20
2.99992999487731
30
0
41
1
10
51.5019114051894
20
2.9757619902459
30
0
0
SPLINE
5
199
100
AcDbEntity
8
1
62
256
6
ByLayer
370
18
48
1
60
0
100
AcDbSpline
70
4
71
3
72
14
73
10
40
0
40
0
40
0
40
0
40
0.394414490680841
40
0.394414490680841
40
0.788828981361683
40
0.788828981361683
40
0.986036226702103
40
0.986036226702103
40
1
40
1
40
1
40
1
41
1
10
51.5983444433631
20
2.9510289374939
30
0
41
1
10
51.592799929685
20
2.978619162629
30
0
41
1
10
51.5872536119475
20
3.00087471956547
30
0
41
1
10
51.5761548099512
20
3.03468269252801
30
0
41
1
10
51.5706025186939
20
3.04623622133835
30
0
41
1
10
51.5622373068923
20
3.05524735769643
30
0
41
1
10
51.5594626344692
20
3.05683745575587
30
0
41
1
10
51.5565084245048
20
3.05705262450894
30
0
41
1
10
51.556313144065
20
3.05705989989568
30
0
41
1
10
51.5561179295727
20
3.05706022964105
30
0
0
SPLINE
5
19A
100
AcDbEntity
8
1
62
256
6
ByLayer
370
13
48
1
60
0
100
AcDbSpline
70
4
71
3
72
8
73
4
40
0
40
0
40
0
40
0
40
1
40
1
40
1
40
1
41
1.04
10
51.9379463631497
20
2.35463652951636
30
0
41
1.04
10
51.92621956722
20
2.41373020335858
30
0
41
1.04
10
51.9145102134447
20
2.45327349295196
30
0
41
1.04
10
51.9027839803246
20
2.47282857419438
30
0
0
SPLINE
5
19B
100
AcDbEntity
8
1
62
256
6
ByLayer
370
13
48
1
60
0
100
AcDbSpline
70
4
71
3
72
9
73
5
40
0
40
0
40
0
40
0
40
0.167535971560312
40
1
40
1
40
1
40
1
41
1
10
52.202914211793
20
2.27249501958423
30
0
41
1
10
52.1982565935954
20
2.30216061778461
30
0
41
1
10
52.1704832225911
20
2.4615839898851
30
0
41
1
10
52.1428150681957
20
2.511389720046
30
0
41
1
10
52.1195928106774
20
2.47371773121137
30
0
0
SPLINE
5
19C
100
AcDbEntity
8
1
62
256
6
ByLayer
370
18
48
1
60
0
100
AcDbSpline
70
4
71
3
72
25
73
21
40
0
40
0
40
0
40
0
40
0.122964180026001
40
0.298371344020798
40
0.298371344020798
40
0.342223135019498
40
0.342223135019498
40
0.386074926018198
40
0.386074926018198
40
0.473778508015599
40
0.473778508015599
40
0.649185672010399
40
0.649185672010399
40
0.8245928360052
40
0.8245928360052
40
0.9122964180026
40
0.9122964180026
40
0.9561482090013
40
0.9561482090013
40
1
40
1
40
1
40
1
41
1
10
52.4653804006589
20
3.0570620884497
30
0
41
1
10
52.46924309974
20
3.05705508927113
30
0
41
1
10
52.4785759442093
20
3.05051093360734
30
0
41
1
10
52.4878654910349
20
3.02820284007871
30
0
41
1
10
52.4947309852906
20
3.00482250254396
30
0
41
1
10
52.4961061429651
20
2.99979617157291
30
0
41
1
10
52.4988624675508
20
2.98903480788053
30
0
41
1
10
52.5002434737121
20
2.98329908309279
30
0
41
1
10
52.5043739536185
20
2.96513113831438
30
0
41
1
10
52.5071190601891
20
2.95170807526026
30
0
41
1
10
52.5153545535919
20
2.90758245204512
30
0
41
1
10
52.5208587834635
20
2.87303385546773
30
0
41
1
10
52.5319225654268
20
2.79382417149793
30
0
41
1
10
52.5374703120419
20
2.74916296056219
30
0
41
1
10
52.5458106076863
20
2.67445167525506
30
0
41
1
10
52.548594243172
20
2.64825878062021
30
0
41
1
10
52.5527783097828
20
2.60699438651636
30
0
41
1
10
52.5541741809461
20
2.59291181572667
30
0
41
1
10
52.5569531877324
20
2.56425489018818
30
0
41
1
10
52.5583383950298
20
2.54966037881826
30
0
41
1
10
52.5597198671654
20
2.53480269793209
30
0
0
SPLINE
5
19D
100
AcDbEntity
8
1
62
256
6
ByLayer
370
18
48
1
60
0
100
AcDbSpline
70
4
71
3
72
25
73
21
40
0
40
0
40
0
40
0
40
0.0830853936043259
40
0.124628090406489
40
0.124628090406489
40
0.166170787208652
40
0.166170787208652
40
0.332341574417304
40
0.332341574417304
40
0.498512361625956
40
0.664683148834607
40
0.664683148834607
40
0.70622584563677
40
0.70622584563677
40
0.747768542438932
40
0.830853936043259
40
0.830853936043259
40
0.997024723251912
40
0.997024723251912
40
1
40
1
40
1
40
1
41
1
10
52.6559361652306
20
2.47715081854733
30
0
41
1
10
52.6532023862964
20
2.50812995600182
30
0
41
1
10
52.649075307259
20
2.55301643938702
30
0
41
1
10
52.6449113325131
20
2.59549397218316
30
0
41
1
10
52.6421273040796
20
2.62327088453699
30
0
41
1
10
52.6407295438578
20
2.63690503078476
30
0
41
1
10
52.6337414228407
20
2.70350822710247
30
0
41
1
10
52.6281878026745
20
2.75148448807562
30
0
41
1
10
52.6171363548978
20
2.83718907562934
30
0
41
1
10
52.6061406359736
20
2.91264283297804
30
0
41
1
10
52.5951563444659
20
2.96764566481704
30
0
41
1
10
52.5882440345487
20
2.99543631800756
30
0
41
1
10
52.5868574024977
20
3.00067028040215
30
0
41
1
10
52.584086159812
20
3.01044007204032
30
0
41
1
10
52.5799382113581
20
3.02402938395278
30
0
41
1
10
52.5758097495147
20
3.03446282725722
30
0
41
1
10
52.567559492163
20
3.05119480739234
30
0
41
1
10
52.5620605253787
20
3.05684709787923
30
0
41
1
10
52.5564438256106
20
3.05705803957636
30
0
41
1
10
52.5563450248656
20
3.05706000453867
30
0
41
1
10
52.5562462209862
20
3.05706022331177
30
0
0
SPLINE
5
19E
100
AcDbEntity
8
1
62
256
6
ByLayer
370
18
48
1
60
0
100
AcDbSpline
70
4
71
3
72
8
73
4
40
0
40
0
40
0
40
0
40
1
40
1
40
1
40
1
41
1
10
53.9449390523898
20
-2.33961786736552
30
0
41
1
10
53.9223850193735
20
-2.28020963413013
30
0
41
1
10
53.9001279031936
20
-2.21749381054255
30
0
41
1
10
53.8781640065203
20
-2.15139157333073
30
0
0
SPLINE
5
19F
100
AcDbEntity
8
1
62
256
6
ByLayer
370
18
48
1
60
0
100
AcDbSpline
70
4
71
3
72
32
73
28
40
0
40
0
40
0
40
0
40
0.0323644818925652
40
0.0323644818925652
40
0.0647289637851304
40
0.0647289637851304
40
0.129457927570261
40
0.129457927570261
40
0.258915855140523
40
0.388373782710785
40
0.388373782710785
40
0.453102746495916
40
0.453102746495916
40
0.485467228388481
40
0.485467228388481
40
0.517831710281046
40
0.517831710281046
40
0.647289637851304
40
0.647289637851304
40
0.776747565421562
40
0.776747565421562
40
0.841476529206691
40
0.873841011099255
40
0.873841011099255
40
0.906205492991819
40
0.906205492991819
40
1
40
1
40
1
40
1
41
1
10
53.8370126507347
20
-2.12056914499718
30
0
41
1
10
53.8384081770611
20
-2.13973939056538
30
0
41
1
10
53.8398093440503
20
-2.1587017674033
30
0
41
1
10
53.8426220723147
20
-2.19620603298333
30
0
41
1
10
53.8440342672446
20
-2.21475521062629
30
0
41
1
10
53.8482602651317
20
-2.26944404444217
30
0
41
1
10
53.8510715417908
20
-2.30473590927752
30
0
41
1
10
53.8594809253307
20
-2.40717872860088
30
0
41
1
10
53.8706252522039
20
-2.53463332457224
30
0
41
1
10
53.8816399071024
20
-2.64409011173086
30
0
41
1
10
53.8898931427877
20
-2.71931532148719
30
0
41
1
10
53.8926433346651
20
-2.74324354395043
30
0
41
1
10
53.8967762792246
20
-2.77737895988315
30
0
41
1
10
53.8981557030738
20
-2.78846704157078
30
0
41
1
10
53.9009026729587
20
-2.8099259049537
30
0
41
1
10
53.9022722449791
20
-2.82031379779519
30
0
41
1
10
53.9091055981861
20
-2.87056409662966
30
0
41
1
10
53.9145248271112
20
-2.90537287066556
30
0
41
1
10
53.9254148675675
20
-2.96445258833535
30
0
41
1
10
53.9309002067391
20
-2.98872303234637
30
0
41
1
10
53.9391981438202
20
-3.01715293871607
30
0
41
1
10
53.9433627782228
20
-3.02937001950949
30
0
41
1
10
53.9475514866843
20
-3.03853946637796
30
0
41
1
10
53.950349708805
20
-3.04396675708929
30
0
41
1
10
53.9517520206913
20
-3.04633690501586
30
0
41
1
10
53.9571980083722
20
-3.05418469248394
30
0
41
1
10
53.9612199361772
20
-3.05706670820925
30
0
41
1
10
53.9652247588756
20
-3.05706209334662
30
0
0
SPLINE
5
1A0
100
AcDbEntity
8
1
62
256
6
ByLayer
370
18
48
1
60
0
100
AcDbSpline
70
4
71
3
72
28
73
24
40
0
40
0
40
0
40
0
40
0.172065207106885
40
0.172065207106885
40
0.258097810660327
40
0.258097810660327
40
0.344130414213769
40
0.344130414213769
40
0.365638565102132
40
0.365638565102132
40
0.387146715990495
40
0.387146715990495
40
0.43016301776722
40
0.43016301776722
40
0.516195621320662
40
0.516195621320662
40
0.688260828427539
40
0.688260828427539
40
0.860326035534415
40
0.860326035534415
40
0.946358639087853
40
0.946358639087853
40
1
40
1
40
1
40
1
41
1
10
38.312624433828
20
2.24226410361894
30
0
41
1
10
38.2088411022422
20
2.22796674983485
30
0
41
1
10
38.1021427250812
20
2.20989503682318
30
0
41
1
10
37.9358562258535
20
2.18054742345274
30
0
41
1
10
37.8794102830216
20
2.17038563932687
30
0
41
1
10
37.7640154001281
20
2.15001688044001
30
0
41
1
10
37.7050881904001
20
2.13980289712754
30
0
41
1
10
37.6298076262782
20
2.12734272053385
30
0
41
1
10
37.6146705309918
20
2.12486591920805
30
0
41
1
10
37.5842325847174
20
2.11995086951913
30
0
41
1
10
37.5689200836429
20
2.11751983359642
30
0
41
1
10
37.5228609558416
20
2.11021843960054
30
0
41
1
10
37.4919388933132
20
2.10534624731537
30
0
41
1
10
37.3988916503024
20
2.09083907896414
30
0
41
1
10
37.3364922451602
20
2.08131351313122
30
0
41
1
10
37.1480866200187
20
2.05369339690648
30
0
41
1
10
37.0208844127667
20
2.0365399325668
30
0
41
1
10
36.7624834876746
20
2.00785123475117
30
0
41
1
10
36.6313079536873
20
1.99629324259936
30
0
41
1
10
36.4310281281973
20
1.98510935050271
30
0
41
1
10
36.3642288691893
20
1.98242917046588
30
0
41
1
10
36.2557363402507
20
1.98006847895419
30
0
41
1
10
36.2140576342406
20
1.97963589134523
30
0
41
1
10
36.1723652779456
20
1.97972260734502
30
0
0
SPLINE
5
1A1
100
AcDbEntity
8
1
62
256
6
ByLayer
370
18
48
1
60
0
100
AcDbSpline
70
4
71
3
72
28
73
24
40
0
40
0
40
0
40
0
40
0.0040312769007313
40
0.0040312769007313
40
0.0514583589530824
40
0.0514583589530824
40
0.146312523057779
40
0.146312523057779
40
0.241166687162475
40
0.241166687162475
40
0.28859376921482
40
0.28859376921482
40
0.336020851267165
40
0.336020851267165
40
0.430875015371855
40
0.430875015371855
40
0.620583343581234
40
0.620583343581234
40
0.810291671790613
40
0.810291671790613
40
0.905145835895307
40
0.905145835895307
40
1
40
1
40
1
40
1
41
1
10
35.1732646331211
20
2.27499835856162
30
0
41
1
10
35.1747066954944
20
2.27499549483579
30
0
41
1
10
35.1761541526783
20
2.27498858382563
30
0
41
1
10
35.1946956632689
20
2.27484917484656
30
0
41
1
10
35.212535454224
20
2.27417085353847
30
0
41
1
10
35.2678464683199
20
2.27065568485853
30
0
41
1
10
35.3070924110891
20
2.26634818870374
30
0
41
1
10
35.3888332451268
20
2.2543509110771
30
0
41
1
10
35.4313427602831
20
2.24665553995411
30
0
41
1
10
35.4969060162749
20
2.23278171588126
30
0
41
1
10
35.5190702458625
20
2.22776445728113
30
0
41
1
10
35.563664729448
20
2.2170387479965
30
0
41
1
10
35.5861282702255
20
2.21132360801818
30
0
41
1
10
35.6539320658148
20
2.19316286003357
30
0
41
1
10
35.6996815424346
20
2.17970451981904
30
0
41
1
10
35.8380739849922
20
2.13548804662599
30
0
41
1
10
35.9318311079448
20
2.10090984044777
30
0
41
1
10
36.120859294114
20
2.02189504427625
30
0
41
1
10
36.2161466348708
20
1.97744650399767
30
0
41
1
10
36.3597933926146
20
1.90318483955591
30
0
41
1
10
36.4078473063877
20
1.87713091018813
30
0
41
1
10
36.5039201078127
20
1.82255726734792
30
0
41
1
10
36.551884407736
20
1.79407115228605
30
0
41
1
10
36.5997836115165
20
1.76437830964014
30
0
0
SPLINE
5
1A2
100
AcDbEntity
8
1
62
256
6
ByLayer
370
13
48
1
60
0
100
AcDbSpline
70
4
71
3
72
9
73
5
40
0
40
0
40
0
40
0
40
0.459373908892506
40
1
40
1
40
1
40
1
41
1
10
56.4332576031429
20
-0.723840590490113
30
0
41
1
10
56.4156260620491
20
-0.459993858606452
30
0
41
1
10
56.3763495693407
20
0.157058803307706
30
0
41
1
10
56.336314130649
20
0.776828402383273
30
0
41
1
10
56.3145224267403
20
1.08354249274476
30
0
0
SPLINE
5
1A3
100
AcDbEntity
8
1
62
256
6
ByLayer
370
18
48
1
60
0
100
AcDbSpline
70
4
71
3
72
26
73
22
40
0
40
0
40
0
40
0
40
0.25
40
0.25
40
0.375
40
0.375
40
0.4375
40
0.4375
40
0.5
40
0.5
40
0.624999999999999
40
0.624999999999999
40
0.749999999999999
40
0.749999999999999
40
0.78125
40
0.78125
40
0.8125
40
0.8125
40
0.875
40
0.875
40
1
40
1
40
1
40
1
41
1
10
56.333836218922
20
1.08709914108067
30
0
41
1
10
56.3492794764445
20
0.942131259050171
30
0
41
1
10
56.363911913243
20
0.791311040134985
30
0
41
1
10
56.3849034709148
20
0.556545877860856
30
0
41
1
10
56.3917532477074
20
0.47686283774533
30
0
41
1
10
56.4018954933375
20
0.355134018332365
30
0
41
1
10
56.4052326132556
20
0.314450816874967
30
0
41
1
10
56.4118199418479
20
0.233118972033708
30
0
41
1
10
56.4150734399011
20
0.192430714673321
30
0
41
1
10
56.4247455238447
20
0.0703020843807849
30
0
41
1
10
56.4310899497241
20
-0.0112009687845784
30
0
41
1
10
56.4435057013158
20
-0.174379090128213
30
0
41
1
10
56.4495734985172
20
-0.256054411476526
30
0
41
1
10
56.456957905346
20
-0.358260987018724
30
0
41
1
10
56.4584249034435
20
-0.378707926346692
30
0
41
1
10
56.4613390888734
20
-0.419613177882724
30
0
41
1
10
56.462786797365
20
-0.440079324721694
30
0
41
1
10
56.4670796009265
20
-0.501194077123898
30
0
41
1
10
56.4698812900118
20
-0.541657667362017
30
0
41
1
10
56.478120052084
20
-0.66221659279779
30
0
41
1
10
56.4833906025394
20
-0.741483594993525
30
0
41
1
10
56.4884947679861
20
-0.819628660175226
30
0
0
SPLINE
5
1A4
100
AcDbEntity
8
1
62
256
6
ByLayer
370
18
48
1
60
0
100
AcDbSpline
70
4
71
3
72
23
73
19
40
0
40
0
40
0
40
0
40
0.250000000000001
40
0.250000000000001
40
0.375
40
0.375
40
0.40625
40
0.40625
40
0.4375
40
0.499999999999999
40
0.499999999999999
40
0.749999999999998
40
0.749999999999998
40
0.812499999999999
40
0.812499999999999
40
0.874999999999999
40
0.874999999999999
40
1
40
1
40
1
40
1
41
1
10
56.9415832857121
20
0.541691678889038
30
0
41
1
10
56.9282207534462
20
0.413503177098335
30
0
41
1
10
56.916233585662
20
0.282618595887811
30
0
41
1
10
56.9000473422676
20
0.0823509214883131
30
0
41
1
10
56.8949565351379
20
0.0149330667013317
30
0
41
1
10
56.8889818840968
20
-0.070194833013403
30
0
41
1
10
56.8878054143803
20
-0.0872797634170297
30
0
41
1
10
56.8855036097913
20
-0.121362453713886
30
0
41
1
10
56.8821237185705
20
-0.172409577121527
30
0
41
1
10
56.8789602689598
20
-0.223228254473213
30
0
41
1
10
56.8688914116213
20
-0.39212299542632
30
0
41
1
10
56.8623529790106
20
-0.525648573540565
30
0
41
1
10
56.8560914512552
20
-0.690546755791473
30
0
41
1
10
56.8549357083568
20
-0.723425118154495
30
0
41
1
10
56.852825248654
20
-0.788974993563073
30
0
41
1
10
56.8518698046713
20
-0.821694857631144
30
0
41
1
10
56.8493405292191
20
-0.918496580091869
30
0
41
1
10
56.8480928338589
20
-0.981548943272713
30
0
41
1
10
56.8472645465953
20
-1.04316075852054
30
0
0
SPLINE
5
1A5
100
AcDbEntity
8
1
62
256
6
ByLayer
370
13
48
1
60
0
100
AcDbSpline
70
4
71
3
72
9
73
5
40
0
40
0
40
0
40
0
40
0.328635479074102
40
1
40
1
40
1
40
1
41
1.04
10
56.1683046816028
20
-0.505727098760043
30
0
41
1.04
10
56.1555956568199
20
-0.31116441778767
30
0
41
1.04
10
56.1164007658569
20
0.303051893750377
30
0
41
1.04
10
56.0764539238722
20
0.921317954962165
30
0
41
1.04
10
56.0494364726409
20
1.28315933730142
30
0
0
SPLINE
5
1A6
100
AcDbEntity
8
1
62
256
6
ByLayer
370
18
48
1
60
0
100
AcDbSpline
70
4
71
3
72
23
73
19
40
0
40
0
40
0
40
0
40
0.124999999999999
40
0.249999999999997
40
0.249999999999997
40
0.312499999999997
40
0.312499999999997
40
0.374999999999997
40
0.374999999999997
40
0.499999999999998
40
0.499999999999998
40
0.624999999999998
40
0.624999999999998
40
0.749999999999999
40
0.749999999999999
40
0.874999999999999
40
0.874999999999999
40
1
40
1
40
1
40
1
41
1
10
53.0084812962261
20
-2.92016251808909
30
0
41
1
10
53.0028732764331
20
-2.88868363510298
30
0
41
1
10
52.9916934427381
20
-2.81553574092914
30
0
41
1
10
52.9806224475051
20
-2.72242284364717
30
0
41
1
10
52.97233747812
20
-2.64501331939684
30
0
41
1
10
52.9695784766528
20
-2.61794517210714
30
0
41
1
10
52.9640569139378
20
-2.56123280213723
30
0
41
1
10
52.9612877123171
20
-2.53150929123075
30
0
41
1
10
52.9530464675294
20
-2.43941518465857
30
0
41
1
10
52.9476191415474
20
-2.37392050347975
30
0
41
1
10
52.936762705939
20
-2.23496989292613
30
0
41
1
10
52.9313315846686
20
-2.16151347698093
30
0
41
1
10
52.9203051218346
20
-2.00661481546825
30
0
41
1
10
52.9147235248608
20
-1.925173055351
30
0
41
1
10
52.9034569809192
20
-1.75400668834663
30
0
41
1
10
52.8978709287169
20
-1.66578278910916
30
0
41
1
10
52.8867741871339
20
-1.48431699758959
30
0
41
1
10
52.8812607172269
20
-1.39106236340649
30
0
41
1
10
52.8757514958261
20
-1.29529747692348
30
0
0
SPLINE
5
1A7
100
AcDbEntity
8
1
62
256
6
ByLayer
370
18
48
1
60
0
100
AcDbSpline
70
4
71
3
72
24
73
20
40
0
40
0
40
0
40
0
40
0.125
40
0.25
40
0.25
40
0.3125
40
0.3125
40
0.375
40
0.375
40
0.499999999999999
40
0.499999999999999
40
0.624999999999998
40
0.624999999999998
40
0.687499999999998
40
0.687499999999998
40
0.749999999999998
40
0.749999999999998
40
0.874999999999999
40
1
40
1
40
1
40
1
41
1
10
52.7795901657669
20
-1.20395906140189
30
0
41
1
10
52.7851168692509
20
-1.30147936826779
30
0
41
1
10
52.7961460208745
20
-1.49123153374737
30
0
41
1
10
52.8071835836669
20
-1.67054125387773
30
0
41
1
10
52.8154985401071
20
-1.80102962181232
30
0
41
1
10
52.8182764965667
20
-1.84385875523432
30
0
41
1
10
52.8238535411211
20
-1.92815285502132
30
0
41
1
10
52.8266323377686
20
-1.96930936924198
30
0
41
1
10
52.8349351274952
20
-2.08956867614955
30
0
41
1
10
52.8404399791297
20
-2.16560365631915
30
0
41
1
10
52.8514297201568
20
-2.30956758786772
30
0
41
1
10
52.8569106399694
20
-2.37749645701314
30
0
41
1
10
52.8651588623504
20
-2.47323843515886
30
0
41
1
10
52.8679131511279
20
-2.50412516269077
30
0
41
1
10
52.8734449100351
20
-2.56380637102302
30
0
41
1
10
52.8762294081568
20
-2.59266583956747
30
0
41
1
10
52.8845534080573
20
-2.67515131199849
30
0
41
1
10
52.8956255263416
20
-2.77474143059408
30
0
41
1
10
52.9066701896553
20
-2.85413968321541
30
0
41
1
10
52.912201457561
20
-2.88877227856162
30
0
0
SPLINE
5
1A8
100
AcDbEntity
8
1
62
256
6
ByLayer
370
18
48
1
60
0
100
AcDbSpline
70
4
71
3
72
29
73
25
40
0
40
0
40
0
40
0
40
0.125000000000002
40
0.125000000000002
40
0.187500000000003
40
0.187500000000003
40
0.218750000000003
40
0.218750000000003
40
0.250000000000003
40
0.250000000000003
40
0.375
40
0.375
40
0.499999999999997
40
0.499999999999997
40
0.562499999999996
40
0.593749999999996
40
0.593749999999996
40
0.624999999999996
40
0.624999999999996
40
0.749999999999997
40
0.749999999999997
40
0.874999999999999
40
0.874999999999999
40
1
40
1
40
1
40
1
41
1
10
50.8930319332364
20
-1.58826029805644
30
0
41
1
10
50.887488311418
20
-1.49802097544446
30
0
41
1
10
50.8819707711006
20
-1.40495972013011
30
0
41
1
10
50.8736943310322
20
-1.26107178917317
30
0
41
1
10
50.8709351626646
20
-1.21239173134697
30
0
41
1
10
50.8667878226601
20
-1.13827421788849
30
0
41
1
10
50.8654019189403
20
-1.11334894922737
30
0
41
1
10
50.8626392137146
20
-1.06337501994784
30
0
41
1
10
50.8612617721253
20
-1.03831544896201
30
0
41
1
10
50.8543896842867
20
-0.912658914521813
30
0
41
1
10
50.8489410388975
20
-0.810988837726256
30
0
41
1
10
50.8380173820747
20
-0.605421962631823
30
0
41
1
10
50.832531371547
20
-0.501525634439389
30
0
41
1
10
50.8242587603986
20
-0.344000102401736
30
0
41
1
10
50.820112581754
20
-0.264816187754036
30
0
41
1
10
50.8159481466845
20
-0.184990592137979
30
0
41
1
10
50.8131669711465
20
-0.131629269161948
30
0
41
1
10
50.8117720009319
20
-0.104838819905865
30
0
41
1
10
50.8048180713255
20
0.0287966162951534
30
0
41
1
10
50.7993093036732
20
0.134959106745299
30
0
41
1
10
50.7883129671863
20
0.345836650036006
30
0
41
1
10
50.7828250554344
20
0.450551547444178
30
0
41
1
10
50.7717536940911
20
0.658528516820184
30
0
41
1
10
50.7661510559913
20
0.761789738996242
30
0
41
1
10
50.760502888094
20
0.86430136295192
30
0
0
SPLINE
5
1A9
100
AcDbEntity
8
1
62
256
6
ByLayer
370
18
48
1
60
0
100
AcDbSpline
70
4
71
3
72
31
73
27
40
0
40
0
40
0
40
0
40
0.0625000000000011
40
0.0625000000000011
40
0.0937500000000012
40
0.0937500000000012
40
0.125000000000001
40
0.250000000000003
40
0.250000000000003
40
0.375000000000006
40
0.375000000000006
40
0.437500000000006
40
0.468750000000006
40
0.468750000000006
40
0.500000000000006
40
0.500000000000006
40
0.625000000000005
40
0.625000000000005
40
0.750000000000004
40
0.750000000000004
40
0.875000000000003
40
0.875000000000003
40
0.906250000000002
40
0.906250000000002
40
0.937500000000001
40
1
40
1
40
1
40
1
41
1
10
51.9507770225204
20
-2.41046895555056
30
0
41
1
10
51.9480033149374
20
-2.37782234038372
30
0
41
1
10
51.9452243078478
20
-2.34399441767476
30
0
41
1
10
51.9410423440502
20
-2.29144289173064
30
0
41
1
10
51.9396461967924
20
-2.27362429685823
30
0
41
1
10
51.9368647132722
20
-2.23759479204307
30
0
41
1
10
51.9299287237379
20
-2.14640865313055
30
0
41
1
10
51.9230516941869
20
-2.04974651658068
30
0
41
1
10
51.9120697385593
20
-1.88823838716732
30
0
41
1
10
51.9065918574
20
-1.80405961766357
30
0
41
1
10
51.8983469497958
20
-1.67260714640489
30
0
41
1
10
51.8942171689558
20
-1.60558228254081
30
0
41
1
10
51.890064910556
20
-1.53657647402883
30
0
41
1
10
51.8872903105665
20
-1.49012693252814
30
0
41
1
10
51.8859001028572
20
-1.46668381136496
30
0
41
1
10
51.8789707388766
20
-1.34904853804531
30
0
41
1
10
51.873463170574
20
-1.25305339505283
30
0
41
1
10
51.8624348017493
20
-1.05740816363522
30
0
41
1
10
51.8569052447634
20
-0.957758236670657
30
0
41
1
10
51.8458240895795
20
-0.754797637094185
30
0
41
1
10
51.8402818285002
20
-0.651486839693916
30
0
41
1
10
51.8333302700573
20
-0.519981621776253
30
0
41
1
10
51.8319390134703
20
-0.493571273210819
30
0
41
1
10
51.8291684853563
20
-0.440825336370636
30
0
41
1
10
51.8250244686029
20
-0.36170263155455
30
0
41
1
10
51.8209074641443
20
-0.282569071797127
30
0
41
1
10
51.8181655088893
20
-0.229809089577628
30
0
0
SPLINE
5
1AA
100
AcDbEntity
8
1
62
256
6
ByLayer
370
18
48
1
60
0
100
AcDbSpline
70
4
71
3
72
10
73
6
40
0
40
0
40
0
40
0
40
0.5
40
0.5
40
1
40
1
40
1
40
1
41
1
10
50.6614416809181
20
0.960968665700307
30
0
41
1
10
50.6674741324505
20
0.859896432597878
30
0
41
1
10
50.6734585785771
20
0.757415893191109
30
0
41
1
10
50.6854692798883
20
0.549670263908808
30
0
41
1
10
50.6914933005045
20
0.444405122615564
30
0
41
1
10
50.6975700977021
20
0.337714235567745
30
0
0
SPLINE
5
1AB
100
AcDbEntity
8
1
62
256
6
ByLayer
370
18
48
1
60
0
100
AcDbSpline
70
4
71
3
72
12
73
8
40
0
40
0
40
0
40
0
40
0.25
40
0.25
40
0.5
40
0.5
40
1
40
1
40
1
40
1
41
1
10
46.1107265040214
20
-1.94417064387622
30
0
41
1
10
46.076275602184
20
-1.90718516618352
30
0
41
1
10
46.0408100039356
20
-1.87189890735706
30
0
41
1
10
45.9672943584891
20
-1.80496901385487
30
0
41
1
10
45.9292988692278
20
-1.7733231052361
30
0
41
1
10
45.8124963909121
20
-1.68357172141364
30
0
41
1
10
45.730885243019
20
-1.63062356270586
30
0
41
1
10
45.6471922366024
20
-1.58410126807416
30
0
0
SPLINE
5
1AC
100
AcDbEntity
8
1
62
256
6
ByLayer
370
18
48
1
60
0
100
AcDbSpline
70
4
71
3
72
65
73
61
40
0
40
0
40
0
40
0
40
0.0312500000000011
40
0.0312500000000011
40
0.0625000000000022
40
0.0625000000000022
40
0.125000000000004
40
0.125000000000004
40
0.156250000000006
40
0.156250000000006
40
0.187500000000007
40
0.187500000000007
40
0.203125000000007
40
0.203125000000007
40
0.218750000000008
40
0.250000000000009
40
0.250000000000009
40
0.312500000000011
40
0.312500000000011
40
0.343750000000014
40
0.343750000000014
40
0.375000000000017
40
0.375000000000017
40
0.390625000000018
40
0.390625000000018
40
0.40625000000002
40
0.40625000000002
40
0.437500000000023
40
0.437500000000023
40
0.500000000000029
40
0.500000000000029
40
0.531250000000033
40
0.531250000000033
40
0.562500000000038
40
0.562500000000038
40
0.593750000000043
40
0.593750000000043
40
0.609375000000043
40
0.609375000000043
40
0.625000000000044
40
0.625000000000044
40
0.687500000000042
40
0.687500000000042
40
0.71875000000004
40
0.71875000000004
40
0.750000000000038
40
0.750000000000038
40
0.812500000000025
40
0.812500000000025
40
0.828125000000023
40
0.828125000000023
40
0.843750000000021
40
0.843750000000021
40
0.875000000000017
40
0.875000000000017
40
0.906250000000013
40
0.906250000000013
40
0.937500000000009
40
0.937500000000009
40
1
40
1
40
1
40
1
41
1
10
45.6471922366024
20
-1.58410126807416
30
0
41
1
10
45.5699430101811
20
-1.54116086689231
30
0
41
1
10
45.4930228437172
20
-1.49668899914457
30
0
41
1
10
45.3397227123982
20
-1.40482236805488
30
0
41
1
10
45.2633247160827
20
-1.35744477911015
30
0
41
1
10
45.0345257218598
20
-1.21137342381897
30
0
41
1
10
44.8825220339151
20
-1.10873507125581
30
0
41
1
10
44.6538417781917
20
-0.94854957551027
30
0
41
1
10
44.5775019444239
20
-0.894118080235046
30
0
41
1
10
44.424361704795
20
-0.783456133759159
30
0
41
1
10
44.3475167160473
20
-0.727283069317451
30
0
41
1
10
44.2319184898529
20
-0.641638721715452
30
0
41
1
10
44.1932978228516
20
-0.612812776987823
30
0
41
1
10
44.1162636568369
20
-0.554949194668637
30
0
41
1
10
44.0009560911832
20
-0.467786398054045
30
0
41
1
10
43.8862509279529
20
-0.379687962761295
30
0
41
1
10
43.6572868868888
20
-0.202706122857279
30
0
41
1
10
43.505244995623
20
-0.0836639518976199
30
0
41
1
10
43.2766153672972
20
0.0945754230999967
30
0
41
1
10
43.2003081658988
20
0.153930806379975
30
0
41
1
10
43.0472529474965
20
0.272205924304558
30
0
41
1
10
42.970477438251
20
0.331089605693137
30
0
41
1
10
42.855151813155
20
0.419308850967212
30
0
41
1
10
42.8166724804346
20
0.448684054709077
30
0
41
1
10
42.7396039092403
20
0.507326873900041
30
0
41
1
10
42.7010862199012
20
0.536540316804775
30
0
41
1
10
42.5858724225774
20
0.623543711245674
30
0
41
1
10
42.5093771005672
20
0.68079940590431
30
0
41
1
10
42.2804780054452
20
0.84992557507266
30
0
41
1
10
42.1286764026339
20
0.959170691683454
30
0
41
1
10
41.9007023901729
20
1.11615263339701
30
0
41
1
10
41.8246311868271
20
1.16729432699219
30
0
41
1
10
41.6722094264449
20
1.26708712636559
30
0
41
1
10
41.5959096862484
20
1.31579544378343
30
0
41
1
10
41.4431609517422
20
1.41083345039462
30
0
41
1
10
41.3666877906173
20
1.45713548665984
30
0
41
1
10
41.2516397128602
20
1.52452818695497
30
0
41
1
10
41.2132342204646
20
1.54664933441148
30
0
41
1
10
41.1362804096508
20
1.59016778911734
30
0
41
1
10
41.0977736373186
20
1.61154036938376
30
0
41
1
10
40.9058300612475
20
1.71595973254762
30
0
41
1
10
40.7534076427378
20
1.7920894478267
30
0
41
1
10
40.5250062772932
20
1.89439224943686
30
0
41
1
10
40.4488883363612
20
1.92649720831031
30
0
41
1
10
40.2965880122864
20
1.9866972315557
30
0
41
1
10
40.2205130715704
20
2.01486250701697
30
0
41
1
10
39.9922637109073
20
2.09333215586196
30
0
41
1
10
39.8400059481746
20
2.13757015503484
30
0
41
1
10
39.6484023967776
20
2.18187472215789
30
0
41
1
10
39.6100172422752
20
2.19018602043295
30
0
41
1
10
39.5330872614911
20
2.20568710451022
30
0
41
1
10
39.4945571849831
20
2.21287193780304
30
0
41
1
10
39.379307260123
20
2.23261671825631
30
0
41
1
10
39.302719733045
20
2.24340973365761
30
0
41
1
10
39.149774661881
20
2.26031603803375
30
0
41
1
10
39.0733782803296
20
2.26642888523406
30
0
41
1
10
38.9208839774653
20
2.27406661639645
30
0
41
1
10
38.8448043940121
20
2.27558730435797
30
0
41
1
10
38.6167959637334
20
2.2732177739322
30
0
41
1
10
38.4650506433958
20
2.26238748508089
30
0
41
1
10
38.3126119892741
20
2.24226611735051
30
0
0
SPLINE
5
1AD
100
AcDbEntity
8
1
62
256
6
ByLayer
370
18
48
1
60
0
100
AcDbSpline
70
4
71
3
72
101
73
97
40
0
40
0
40
0
40
0
40
0.0312499999999986
40
0.0312499999999986
40
0.0624999999999972
40
0.0624999999999972
40
0.0937499999999958
40
0.0937499999999958
40
0.124999999999994
40
0.124999999999994
40
0.140624999999994
40
0.140624999999994
40
0.156249999999994
40
0.156249999999994
40
0.171874999999994
40
0.171874999999994
40
0.187499999999994
40
0.187499999999994
40
0.218749999999996
40
0.218749999999996
40
0.249999999999997
40
0.249999999999997
40
0.265624999999998
40
0.265624999999998
40
0.281249999999999
40
0.281249999999999
40
0.312499999999999
40
0.312499999999999
40
0.328124999999999
40
0.328124999999999
40
0.3359375
40
0.3359375
40
0.343750000000002
40
0.343750000000002
40
0.37500000000001
40
0.37500000000001
40
0.406250000000019
40
0.406250000000019
40
0.437500000000027
40
0.437500000000027
40
0.468750000000036
40
0.468750000000036
40
0.500000000000045
40
0.500000000000045
40
0.51562500000005
40
0.51562500000005
40
0.523437500000052
40
0.523437500000052
40
0.531250000000053
40
0.546875000000056
40
0.546875000000056
40
0.562500000000059
40
0.562500000000059
40
0.570312500000059
40
0.570312500000059
40
0.578125000000059
40
0.578125000000059
40
0.593750000000056
40
0.593750000000056
40
0.609375000000053
40
0.609375000000053
40
0.62500000000005
40
0.62500000000005
40
0.656250000000044
40
0.656250000000044
40
0.687500000000039
40
0.687500000000039
40
0.695312500000038
40
0.695312500000038
40
0.703125000000037
40
0.703125000000037
40
0.718750000000035
40
0.718750000000035
40
0.75000000000003
40
0.75000000000003
40
0.781250000000024
40
0.781250000000024
40
0.812500000000018
40
0.812500000000018
40
0.843750000000012
40
0.843750000000012
40
0.851562500000011
40
0.851562500000011
40
0.859375000000009
40
0.859375000000009
40
0.875000000000009
40
0.875000000000009
40
0.890625000000009
40
0.890625000000009
40
0.906250000000009
40
0.906250000000009
40
0.937500000000006
40
0.937500000000006
40
0.968750000000003
40
0.968750000000003
40
1
40
1
40
1
40
1
41
1
10
36.5997658541015
20
1.7643677165037
30
0
41
1
10
36.694339550033
20
1.71789651228593
30
0
41
1
10
36.7884493260415
20
1.66877105344884
30
0
41
1
10
36.976630033808
20
1.56610966561826
30
0
41
1
10
37.0706621039043
20
1.51254924660699
30
0
41
1
10
37.2586104103966
20
1.40104154496618
30
0
41
1
10
37.3525451226919
20
1.34311195309368
30
0
41
1
10
37.5403902810767
20
1.22292598445546
30
0
41
1
10
37.6342694877899
20
1.16063536264488
30
0
41
1
10
37.7751201373458
20
1.06390001619548
30
0
41
1
10
37.8221087173636
20
1.03114069292906
30
0
41
1
10
37.9164470300257
20
0.964924079881428
30
0
41
1
10
37.9637633427054
20
0.931429250165792
30
0
41
1
10
38.0586150263169
20
0.863567301942709
30
0
41
1
10
38.106175904023
20
0.829216592934387
30
0
41
1
10
38.2010004771735
20
0.760245486903443
30
0
41
1
10
38.2483388167329
20
0.725562719743863
30
0
41
1
10
38.3901684987042
20
0.620974282980711
30
0
41
1
10
38.4844803828879
20
0.550536652896227
30
0
41
1
10
38.6726633190932
20
0.408304614011399
30
0
41
1
10
38.7665151847558
20
0.336484588033386
30
0
41
1
10
38.9072808816828
20
0.228146693360827
30
0
41
1
10
38.9541798658293
20
0.191906055841173
30
0
41
1
10
39.0477073828104
20
0.118873071774686
30
0
41
1
10
39.0943921675154
20
0.0821532681640065
30
0
41
1
10
39.2347723076758
20
-0.0278833275481816
30
0
41
1
10
39.3286620341109
20
-0.101247861151904
30
0
41
1
10
39.4702522815286
20
-0.210907002186133
30
0
41
1
10
39.5175696158412
20
-0.247402472101697
30
0
41
1
10
39.588731489906
20
-0.302053435992974
30
0
41
1
10
39.6124827284326
20
-0.320255546914581
30
0
41
1
10
39.6600481838395
20
-0.35662793838253
30
0
41
1
10
39.6838782238971
20
-0.374809644787518
30
0
41
1
10
39.8028278863147
20
-0.465347367761581
30
0
41
1
10
39.8975794948176
20
-0.536756890402359
30
0
41
1
10
40.0863514693102
20
-0.677489357038439
30
0
41
1
10
40.1803439763397
20
-0.746846977134879
30
0
41
1
10
40.3676924211401
20
-0.883346280208144
30
0
41
1
10
40.4609577055896
20
-0.950586969547544
30
0
41
1
10
40.6481419750171
20
-1.08129919320243
30
0
41
1
10
40.7419253061359
20
-1.14494017696993
30
0
41
1
10
40.9301078434835
20
-1.26854273529412
30
0
41
1
10
41.0245133748085
20
-1.32849845486425
30
0
41
1
10
41.1666779578877
20
-1.41554407958577
30
0
41
1
10
41.2141582409731
20
-1.44407816668863
30
0
41
1
10
41.2855254258546
20
-1.48613996013211
30
0
41
1
10
41.3093502943681
20
-1.50004376487132
30
0
41
1
10
41.356895012808
20
-1.5275140668258
30
0
41
1
10
41.4281054549358
20
-1.56824634703213
30
0
41
1
10
41.4990156988495
20
-1.60754633375399
30
0
41
1
10
41.593322061333
20
-1.65865453863489
30
0
41
1
10
41.6403964619333
20
-1.6835282645915
30
0
41
1
10
41.7105835784876
20
-1.72007668015266
30
0
41
1
10
41.7339351597105
20
-1.73210753489695
30
0
41
1
10
41.780717527631
20
-1.75572513266641
30
0
41
1
10
41.8041560792588
20
-1.7673062466618
30
0
41
1
10
41.8745589481939
20
-1.80142557330805
30
0
41
1
10
41.9214467495367
20
-1.82347313901354
30
0
41
1
10
42.0151249269014
20
-1.86617269440785
30
0
41
1
10
42.061939018634
20
-1.88680531829237
30
0
41
1
10
42.1556576716338
20
-1.92654053042591
30
0
41
1
10
42.2025609734681
20
-1.94564511052252
30
0
41
1
10
42.343424613597
20
-2.00066911332777
30
0
41
1
10
42.4375440246769
20
-2.03430130709671
30
0
41
1
10
42.6261788647784
20
-2.09544356870225
30
0
41
1
10
42.720660093957
20
-2.12296908107749
30
0
41
1
10
42.8390979039579
20
-2.15337766455036
30
0
41
1
10
42.8628032870124
20
-2.15925880952062
30
0
41
1
10
42.9102479028128
20
-2.17061631638569
30
0
41
1
10
42.9339967322404
20
-2.17609508054073
30
0
41
1
10
43.005039743342
20
-2.19187261913919
30
0
41
1
10
43.0522043333091
20
-2.2015258761526
30
0
41
1
10
43.1937320794243
20
-2.2277143906268
30
0
41
1
10
43.2877184597734
20
-2.24161784563256
30
0
41
1
10
43.4756731781023
20
-2.26233921675208
30
0
41
1
10
43.5696226540164
20
-2.26917490311243
30
0
41
1
10
43.7574834622588
20
-2.27591653467326
30
0
41
1
10
43.8514140397589
20
-2.27581915381344
30
0
41
1
10
44.039388577574
20
-2.26865672801608
30
0
41
1
10
44.1334038110738
20
-2.26158948843633
30
0
41
1
10
44.251054272828
20
-2.24828466229451
30
0
41
1
10
44.2745970839032
20
-2.2454015820274
30
0
41
1
10
44.3216069127569
20
-2.23916157841777
30
0
41
1
10
44.3450790207461
20
-2.23580401527556
30
0
41
1
10
44.4157297968908
20
-2.22509494707177
30
0
41
1
10
44.4630265656083
20
-2.21708369345623
30
0
41
1
10
44.5578995274877
20
-2.19928492777208
30
0
41
1
10
44.6054219114192
20
-2.18951570129502
30
0
41
1
10
44.7002767835702
20
-2.16832956095934
30
0
41
1
10
44.7476671423083
20
-2.15690436734784
30
0
41
1
10
44.8897783099401
20
-2.12018304573357
30
0
41
1
10
44.9844449510041
20
-2.09244813218243
30
0
41
1
10
45.1737586856892
20
-2.03060286743073
30
0
41
1
10
45.2683991201268
20
-1.99648923736771
30
0
41
1
10
45.4577558700937
20
-1.92187181748258
30
0
41
1
10
45.5524534187615
20
-1.88135757858552
30
0
41
1
10
45.6471922366024
20
-1.83752839664479
30
0
0
SPLINE
5
1AE
100
AcDbEntity
8
1
62
256
6
ByLayer
370
18
48
1
60
0
100
AcDbSpline
70
4
71
3
72
27
73
23
40
0
40
0
40
0
40
0
40
0.124999999999968
40
0.124999999999968
40
0.249999999999937
40
0.249999999999937
40
0.374999999999905
40
0.374999999999905
40
0.499999999999873
40
0.499999999999873
40
0.624999999999842
40
0.624999999999842
40
0.687499999999868
40
0.687499999999868
40
0.749999999999895
40
0.812499999999921
40
0.812499999999921
40
0.874999999999947
40
0.874999999999947
40
0.937499999999974
40
0.937499999999974
40
1
40
1
40
1
40
1
41
1
10
56.0494364726409
20
1.28315933730144
30
0
41
1
10
56.0568870350775
20
1.26989720297297
30
0
41
1
10
56.0655591034542
20
1.25698883559556
30
0
41
1
10
56.0847106867311
20
1.23170717330277
30
0
41
1
10
56.0953063787119
20
1.21924393226834
30
0
41
1
10
56.1172814070765
20
1.19570106844125
30
0
41
1
10
56.1287334792773
20
1.18451100830612
30
0
41
1
10
56.1524659026721
20
1.16317790502967
30
0
41
1
10
56.1648154918963
20
1.15299884398721
30
0
41
1
10
56.189456141493
20
1.13438669903556
30
0
41
1
10
56.2018442666325
20
1.12585615479369
30
0
41
1
10
56.2205013304843
20
1.11431532496934
30
0
41
1
10
56.2267635235507
20
1.11066338187445
30
0
41
1
10
56.2391552996901
20
1.10391391862987
30
0
41
1
10
56.2513652574362
20
1.09774100837805
30
0
41
1
10
56.2631702750643
20
1.0928030038628
30
0
41
1
10
56.2747372573844
20
1.08856759042178
30
0
41
1
10
56.2804301254678
20
1.08679738605201
30
0
41
1
10
56.2912123394274
20
1.08417431651023
30
0
41
1
10
56.2963360217793
20
1.08330468736244
30
0
41
1
10
56.3059613553755
20
1.08259211938994
30
0
41
1
10
56.3104865303981
20
1.08275626486929
30
0
41
1
10
56.3145224267404
20
1.08354249274441
30
0
0
SPLINE
5
1AF
100
AcDbEntity
8
1
62
256
6
ByLayer
370
18
48
1
60
0
100
AcDbSpline
70
4
71
3
72
8
73
4
40
0
40
0
40
0
40
0
40
1
40
1
40
1
40
1
41
1
10
56.3145224267403
20
1.08354249274476
30
0
41
1
10
56.3209669753936
20
1.08479794713801
30
0
41
1
10
56.3274047720279
20
1.08598301374661
30
0
41
1
10
56.333836218922
20
1.08709914108067
30
0
0
SPLINE
5
1B0
100
AcDbEntity
8
1
62
256
6
ByLayer
370
18
48
1
60
0
100
AcDbSpline
70
4
71
3
72
15
73
11
40
0
40
0
40
0
40
0
40
0.124999999999986
40
0.124999999999986
40
0.249999999999972
40
0.499999999999981
40
0.499999999999981
40
0.749999999999991
40
0.749999999999991
40
1
40
1
40
1
40
1
41
1
10
56.333836218922
20
1.08709914108067
30
0
41
1
10
56.3588933093308
20
1.06429279932112
30
0
41
1
10
56.3840499432631
20
1.04141587818663
30
0
41
1
10
56.434354618819
20
0.995723813677216
30
0
41
1
10
56.5098700580814
20
0.927213764711212
30
0
41
1
10
56.5855914429111
20
0.858823328478167
30
0
41
1
10
56.6867788646706
20
0.767791910998625
30
0
41
1
10
56.7374824821033
20
0.72235100923595
30
0
41
1
10
56.839200900286
20
0.631722227327629
30
0
41
1
10
56.8902419220015
20
0.586563143822218
30
0
41
1
10
56.9415832857243
20
0.541691678887304
30
0
0
SPLINE
5
1B1
100
AcDbEntity
8
1
62
256
6
ByLayer
370
18
48
1
60
0
100
AcDbSpline
70
4
71
3
72
13
73
9
40
0
40
0
40
0
40
0
40
0.124999999999993
40
0.124999999999993
40
0.249999999999987
40
0.249999999999987
40
0.499999999999973
40
1
40
1
40
1
40
1
41
1
10
57.2300000000062
20
0.267568021789032
30
0
41
1
10
57.2173613911554
20
0.277011097724483
30
0
41
1
10
57.2047733250653
20
0.2867615975224
30
0
41
1
10
57.1796863926432
20
0.306862195277944
30
0
41
1
10
57.1671768457427
20
0.317222578370888
30
0
41
1
10
57.130025532902
20
0.348956958559171
30
0
41
1
10
57.0569720569947
20
0.415224759068025
30
0
41
1
10
56.9871139621964
20
0.489261717080609
30
0
41
1
10
56.9415832857209
20
0.5416916788881
30
0
0
SPLINE
5
1B2
100
AcDbEntity
8
1
62
256
6
ByLayer
370
18
48
1
60
0
100
AcDbSpline
70
4
71
3
72
44
73
40
40
0
40
0
40
0
40
0
40
0.0312499999999989
40
0.0312499999999989
40
0.0468749999999986
40
0.0468749999999986
40
0.0624999999999985
40
0.0624999999999985
40
0.0937499999999985
40
0.0937499999999985
40
0.124999999999999
40
0.124999999999999
40
0.249999999999999
40
0.249999999999999
40
0.374999999999999
40
0.374999999999999
40
0.406249999999999
40
0.406249999999999
40
0.437499999999999
40
0.437499999999999
40
0.499999999999999
40
0.499999999999999
40
0.624999999999999
40
0.624999999999999
40
0.687499999999999
40
0.687499999999999
40
0.749999999999999
40
0.749999999999999
40
0.78125
40
0.78125
40
0.8125
40
0.8125
40
0.875
40
0.875
40
0.90625
40
0.90625
40
0.9375
40
0.9375
40
1
40
1
40
1
40
1
41
1
10
57.2300000000001
20
2.08929863794668
30
0
41
1
10
57.2300000000001
20
2.05906950545821
30
0
41
1
10
57.23
20
2.02930106888277
30
0
41
1
10
57.23
20
1.98533883840932
30
0
41
1
10
57.23
20
1.97080343451123
30
0
41
1
10
57.23
20
1.94194423746257
30
0
41
1
10
57.23
20
1.92761553010283
30
0
41
1
10
57.23
20
1.88465788881311
30
0
41
1
10
57.23
20
1.85613414742056
30
0
41
1
10
57.23
20
1.7993613488218
30
0
41
1
10
57.23
20
1.77108869085981
30
0
41
1
10
57.23
20
1.63136588410887
30
0
41
1
10
57.23
20
1.52403499610887
30
0
41
1
10
57.23
20
1.31799207310434
30
0
41
1
10
57.23
20
1.21928196063914
30
0
41
1
10
57.23
20
1.10142320993103
30
0
41
1
10
57.23
20
1.07812932946348
30
0
41
1
10
57.23
20
1.03210458228651
30
0
41
1
10
57.23
20
1.00942456017
30
0
41
1
10
57.23
20
0.94273499536024
30
0
41
1
10
57.23
20
0.899931045508737
30
0
41
1
10
57.23
20
0.776365694375215
30
0
41
1
10
57.23
20
0.700435134163115
30
0
41
1
10
57.23
20
0.596205893707179
30
0
41
1
10
57.23
20
0.563083760895722
30
0
41
1
10
57.23
20
0.500130516065212
30
0
41
1
10
57.23
20
0.470239155619652
30
0
41
1
10
57.23
20
0.428497666776423
30
0
41
1
10
57.23
20
0.415087198037412
30
0
41
1
10
57.23
20
0.389201446624469
30
0
41
1
10
57.23
20
0.376614483214894
30
0
41
1
10
57.23
20
0.341300393008737
30
0
41
1
10
57.23
20
0.32181919739358
30
0
41
1
10
57.23
20
0.298814673216072
30
0
41
1
10
57.23
20
0.292196173996501
30
0
41
1
10
57.23
20
0.281298053564797
30
0
41
1
10
57.23
20
0.276975284857514
30
0
41
1
10
57.23
20
0.267289964035967
30
0
41
1
10
57.23
20
0.265195165199231
30
0
41
1
10
57.23
20
0.267568021793096
30
0
0
SPLINE
5
1B3
100
AcDbEntity
8
1
62
256
6
ByLayer
370
18
48
1
60
0
100
AcDbSpline
70
4
71
3
72
16
73
12
40
0
40
0
40
0
40
0
40
0.124999999999983
40
0.124999999999983
40
0.187499999999974
40
0.187499999999974
40
0.249999999999966
40
0.249999999999966
40
0.499999999999977
40
0.499999999999977
40
1
40
1
40
1
40
1
41
1
10
56.8472645466017
20
2.4631460337724
30
0
41
1
10
56.8637186642617
20
2.44756786676047
30
0
41
1
10
56.8802285517617
20
2.43186031108124
30
0
41
1
10
56.9050851870671
20
2.4081040241752
30
0
41
1
10
56.9133849029867
20
2.40015442366169
30
0
41
1
10
56.9299290519755
20
2.38429471135967
30
0
41
1
10
56.938167732401
20
2.3763913018268
30
0
41
1
10
56.9792032654468
20
2.33698594601509
30
0
41
1
10
57.0115834783187
20
2.30575150631063
30
0
41
1
10
57.1074227509303
20
2.21253674055495
30
0
41
1
10
57.1696217841069
20
2.15100881421571
30
0
41
1
10
57.2299999999979
20
2.08929863794691
30
0
0
SPLINE
5
1B4
100
AcDbEntity
8
1
62
256
6
ByLayer
370
18
48
1
60
0
100
AcDbSpline
70
4
71
3
72
10
73
6
40
0
40
0
40
0
40
0
40
0.5
40
0.5
40
1
40
1
40
1
40
1
41
1
10
56.8472645466039
20
2.4631460337763
30
0
41
1
10
56.7353217334623
20
2.48793044199994
30
0
41
1
10
56.6247516307835
20
2.5071608472482
30
0
41
1
10
56.4053285082644
20
2.53428621114031
30
0
41
1
10
56.2964745618581
20
2.54219048630975
30
0
41
1
10
56.1880655668198
20
2.5443337647325
30
0
0
SPLINE
5
1B5
100
AcDbEntity
8
1
62
256
6
ByLayer
370
18
48
1
60
0
100
AcDbSpline
70
4
71
3
72
8
73
4
40
0
40
0
40
0
40
0
40
1
40
1
40
1
40
1
41
1
10
56.1880655668199
20
2.54433376473241
30
0
41
1
10
56.1524727450081
20
2.47630298763085
30
0
41
1
10
56.1167102088857
20
2.40743681946591
30
0
41
1
10
56.0807386066184
20
2.33776335105566
30
0
0
SPLINE
5
1B6
100
AcDbEntity
8
1
62
256
6
ByLayer
370
18
48
1
60
0
100
AcDbSpline
70
4
71
3
72
12
73
8
40
0
40
0
40
0
40
0
40
0.250000000000012
40
0.250000000000012
40
0.500000000000025
40
0.500000000000025
40
1
40
1
40
1
40
1
41
1
10
46.1107265040214
20
2.19598800400857
30
0
41
1
10
46.076275602184
20
2.19106996555593
30
0
41
1
10
46.0408100039356
20
2.18755946314948
30
0
41
1
10
45.9672943584891
20
2.18280778622329
30
0
41
1
10
45.9292988692279
20
2.18166196806086
30
0
41
1
10
45.8124963909121
20
2.18303426912485
30
0
41
1
10
45.730885243019
20
2.19032808245896
30
0
41
1
10
45.6471922366024
20
2.20615322202866
30
0
0
SPLINE
5
1B7
100
AcDbEntity
8
1
62
256
6
ByLayer
370
18
48
1
60
0
100
AcDbSpline
70
4
71
3
72
29
73
25
40
0
40
0
40
0
40
0
40
0.0814796741030894
40
0.0814796741030894
40
0.162959348206179
40
0.162959348206179
40
0.325918696412357
40
0.325918696412357
40
0.407398370515447
40
0.407398370515447
40
0.488878044618536
40
0.488878044618536
40
0.529617881670076
40
0.529617881670076
40
0.570357718721616
40
0.651837392824697
40
0.651837392824697
40
0.814796741030858
40
0.814796741030858
40
0.896276415133933
40
0.896276415133933
40
0.977756089237009
40
0.977756089237009
40
1
40
1
40
1
40
1
41
1
10
45.6471922366024
20
2.20615322202866
30
0
41
1
10
45.5699430101811
20
2.22075993580452
30
0
41
1
10
45.4930228437172
20
2.2330421778158
30
0
41
1
10
45.3397227123982
20
2.25297277634215
30
0
41
1
10
45.2633247160827
20
2.26061495256346
30
0
41
1
10
45.0345257218598
20
2.27654872884972
30
0
41
1
10
44.8825220339151
20
2.27784078133118
30
0
41
1
10
44.6538417781917
20
2.26579980019062
30
0
41
1
10
44.5775019444239
20
2.25945821512576
30
0
41
1
10
44.424361704795
20
2.24213977525136
30
0
41
1
10
44.3475167160473
20
2.23117749980625
30
0
41
1
10
44.2319184898529
20
2.21121955530686
30
0
41
1
10
44.1932978228517
20
2.20396697506771
30
0
41
1
10
44.116263656837
20
2.18834203071387
30
0
41
1
10
44.0009560911832
20
2.16321733305878
30
0
41
1
10
43.8862509279529
20
2.13310404414347
30
0
41
1
10
43.6572868868888
20
2.0664367629868
30
0
41
1
10
43.5052449956231
20
2.01339513648586
30
0
41
1
10
43.2766153672973
20
1.92188938540318
30
0
41
1
10
43.2003081658988
20
1.88940024924071
30
0
41
1
10
43.0472529474966
20
1.82062718020356
30
0
41
1
10
42.970477438251
20
1.78437217548222
30
0
41
1
10
42.8726044624154
20
1.73565859702001
30
0
41
1
10
42.8516040699479
20
1.72506389686575
30
0
41
1
10
42.830589663085
20
1.71432254843353
30
0
0
SPLINE
5
1B8
100
AcDbEntity
8
1
62
256
6
ByLayer
370
18
48
1
60
0
100
AcDbSpline
70
4
71
3
72
63
73
59
40
0
40
0
40
0
40
0
40
0.0212164841833063
40
0.0212164841833063
40
0.0787919851137099
40
0.0787919851137099
40
0.107579735578914
40
0.107579735578914
40
0.121973610811514
40
0.121973610811514
40
0.136367486044113
40
0.165155236509313
40
0.165155236509313
40
0.193942986974512
40
0.193942986974512
40
0.208336862207111
40
0.208336862207111
40
0.222730737439711
40
0.222730737439711
40
0.25151848790491
40
0.25151848790491
40
0.280306238370109
40
0.280306238370109
40
0.309093988835308
40
0.309093988835308
40
0.366669489765701
40
0.366669489765701
40
0.424244990696094
40
0.424244990696094
40
0.438638865928692
40
0.438638865928692
40
0.453032741161291
40
0.453032741161291
40
0.481820491626487
40
0.481820491626487
40
0.539395992556886
40
0.539395992556886
40
0.596971493487284
40
0.596971493487284
40
0.654546994417683
40
0.654546994417683
40
0.712122495348081
40
0.712122495348081
40
0.726516370580679
40
0.726516370580679
40
0.740910245813278
40
0.740910245813278
40
0.769697996278469
40
0.769697996278469
40
0.79848574674366
40
0.79848574674366
40
0.827273497208852
40
0.827273497208852
40
0.884848998139235
40
0.884848998139235
40
0.942424499069617
40
0.942424499069617
40
1
40
1
40
1
40
1
41
1
10
40.7321187122537
20
2.27500050588367
30
0
41
1
10
40.7667134123119
20
2.2749979491405
30
0
41
1
10
40.8013440859673
20
2.27451925260655
30
0
41
1
10
40.9301078434835
20
2.27097669462924
30
0
41
1
10
41.0245133748085
20
2.26489154352456
30
0
41
1
10
41.1666779578877
20
2.25046433402622
30
0
41
1
10
41.2141582409731
20
2.24477083091057
30
0
41
1
10
41.2855254258546
20
2.23488545084086
30
0
41
1
10
41.3093502943681
20
2.2313639051381
30
0
41
1
10
41.356895012808
20
2.22389341141263
30
0
41
1
10
41.4281054549358
20
2.21203938272012
30
0
41
1
10
41.4990156988495
20
2.19825345834076
30
0
41
1
10
41.593322061333
20
2.17817049065738
30
0
41
1
10
41.6403964619332
20
2.16729740529826
30
0
41
1
10
41.7105835784876
20
2.14960259926244
30
0
41
1
10
41.7339351597106
20
2.14348281598683
30
0
41
1
10
41.780717527631
20
2.1308766533559
30
0
41
1
10
41.8041560792588
20
2.12439474850515
30
0
41
1
10
41.8745589481939
20
2.10440145408555
30
0
41
1
10
41.9214467495367
20
2.09026378106665
30
0
41
1
10
42.0151249269014
20
2.06036923579043
30
0
41
1
10
42.061939018634
20
2.04462371243866
30
0
41
1
10
42.1556576716337
20
2.01162360666638
30
0
41
1
10
42.2025609734681
20
1.99436944861824
30
0
41
1
10
42.343424613597
20
1.94037337705484
30
0
41
1
10
42.4375440246769
20
1.90140774189226
30
0
41
1
10
42.6261788647784
20
1.8174841776364
30
0
41
1
10
42.720660093957
20
1.77249657557928
30
0
41
1
10
42.839097903958
20
1.71245329628516
30
0
41
1
10
42.8628032870124
20
1.70025486087283
30
0
41
1
10
42.9102479028128
20
1.67547213280014
30
0
41
1
10
42.9339967322403
20
1.66288114420945
30
0
41
1
10
43.005039743342
20
1.62463154657536
30
0
41
1
10
43.0522043333091
20
1.59845785769153
30
0
41
1
10
43.1937320794243
20
1.51852950409921
30
0
41
1
10
43.2877184597734
20
1.46297698130391
30
0
41
1
10
43.4756731781022
20
1.3481554510067
30
0
41
1
10
43.5696226540164
20
1.28887443738293
30
0
41
1
10
43.7574834622588
20
1.16665452288635
30
0
41
1
10
43.851414039759
20
1.10373559500246
30
0
41
1
10
44.039388577574
20
0.974390987176236
30
0
41
1
10
44.1334038110739
20
0.907931759378386
30
0
41
1
10
44.251054272828
20
0.822673805827492
30
0
41
1
10
44.2745970839033
20
0.805520696357348
30
0
41
1
10
44.3216069127569
20
0.770881807022477
30
0
41
1
10
44.3450790207461
20
0.753401435021573
30
0
41
1
10
44.4157297968909
20
0.700892810857681
30
0
41
1
10
44.4630265656083
20
0.665653618482054
30
0
41
1
10
44.5578995274877
20
0.594563840880767
30
0
41
1
10
44.6054219114192
20
0.558798530633624
30
0
41
1
10
44.7002767835702
20
0.487091222469161
30
0
41
1
10
44.7476671423083
20
0.451115713092321
30
0
41
1
10
44.8897783099401
20
0.342891984120371
30
0
41
1
10
44.9844449510041
20
0.270354328313516
30
0
41
1
10
45.1737586856892
20
0.124673994495652
30
0
41
1
10
45.2683991201268
20
0.0515227458759
30
0
41
1
10
45.4577558700937
20
-0.0952675747416549
30
0
41
1
10
45.5524534187615
20
-0.168930910457732
30
0
41
1
10
45.6471922366025
20
-0.242844941467212
30
0
0
SPLINE
5
1B9
100
AcDbEntity
8
1
62
256
6
ByLayer
370
18
48
1
60
0
100
AcDbSpline
70
4
71
3
72
16
73
12
40
0
40
0
40
0
40
0
40
0.25
40
0.25
40
0.5
40
0.5
40
0.75
40
0.75
40
0.875
40
0.875
40
1
40
1
40
1
40
1
41
1
10
45.6471922366024
20
-0.242844941467183
30
0
41
1
10
45.6868849734924
20
-0.27381271425773
30
0
41
1
10
45.7263962449657
20
-0.304673412067075
30
0
41
1
10
45.8049793314337
20
-0.366266709422831
30
0
41
1
10
45.8440376535451
20
-0.397016563650652
30
0
41
1
10
45.9214989431631
20
-0.45861712482565
30
0
41
1
10
45.9599021247377
20
-0.489468585314285
30
0
41
1
10
46.016914912351
20
-0.535875194616011
30
0
41
1
10
46.0358201226054
20
-0.551365744712513
30
0
41
1
10
46.0734323909403
20
-0.582367563378511
30
0
41
1
10
46.0921519919711
20
-0.597860998897261
30
0
41
1
10
46.1107265040215
20
-0.613414423098845
30
0
0
SPLINE
5
1BA
100
AcDbEntity
8
1
62
256
6
ByLayer
370
18
48
1
60
0
100
AcDbSpline
70
4
71
3
72
8
73
4
40
0
40
0
40
0
40
0
40
1
40
1
40
1
40
1
41
1
10
52.9122014575502
20
-2.88877227856264
30
0
41
1
10
52.9442895029338
20
-2.89975903449204
30
0
41
1
10
52.9763797348253
20
-2.91022354801459
30
0
41
1
10
53.0084812962261
20
-2.92016251808909
30
0
0
SPLINE
5
1BB
100
AcDbEntity
8
1
62
256
6
ByLayer
370
18
48
1
60
0
100
AcDbSpline
70
4
71
3
72
8
73
4
40
0
40
0
40
0
40
0
40
1
40
1
40
1
40
1
41
1
10
51.8544850163855
20
-2.34721835970774
30
0
41
1
10
51.8865772776352
20
-2.36872751330864
30
0
41
1
10
51.9186717635965
20
-2.38981292175825
30
0
41
1
10
51.9507770225204
20
-2.41046895555053
30
0
0
SPLINE
5
1BC
100
AcDbEntity
8
1
62
256
6
ByLayer
370
18
48
1
60
0
100
AcDbSpline
70
4
71
3
72
8
73
4
40
0
40
0
40
0
40
0
40
1
40
1
40
1
40
1
41
1
10
50.7969090752088
20
-1.50147405111608
30
0
41
1
10
50.828946298976
20
-1.53067380939899
30
0
41
1
10
50.8609842240184
20
-1.55960518598434
30
0
41
1
10
50.8930319332364
20
-1.58826029805647
30
0
0
SPLINE
5
1BD
100
AcDbEntity
8
1
62
256
6
ByLayer
370
18
48
1
60
0
100
AcDbSpline
70
4
71
3
72
36
73
32
40
0
40
0
40
0
40
0
40
0.0340652430475576
40
0.0340652430475576
40
0.0984608935110474
40
0.0984608935110474
40
0.162856543974537
40
0.162856543974537
40
0.195054369206282
40
0.195054369206282
40
0.227252194438027
40
0.227252194438027
40
0.356043495365013
40
0.356043495365013
40
0.42043914582851
40
0.42043914582851
40
0.484834796292007
40
0.484834796292007
40
0.613626097219001
40
0.613626097219001
40
0.645823922450751
40
0.645823922450751
40
0.678021747682502
40
0.678021747682502
40
0.742417398146002
40
0.742417398146002
40
0.806813048609503
40
0.806813048609503
40
0.871208699073003
40
0.871208699073003
40
1
40
1
40
1
40
1
41
1
10
41.8692583670963
20
-2.27500019083112
30
0
41
1
10
41.8290121980364
20
-2.27500864706133
30
0
41
1
10
41.7887357959259
20
-2.27437225673222
30
0
41
1
10
41.6722094264449
20
-2.27067597310816
30
0
41
1
10
41.5959096862483
20
-2.26596270904969
30
0
41
1
10
41.443160951742
20
-2.25187169439945
30
0
41
1
10
41.3666877906171
20
-2.24249303834364
30
0
41
1
10
41.2516397128599
20
-2.22488163920531
30
0
41
1
10
41.2132342204644
20
-2.21842064113656
30
0
41
1
10
41.1362804096505
20
-2.20431073876719
30
0
41
1
10
41.0977736373183
20
-2.19666782447052
30
0
41
1
10
40.9058300612473
20
-2.15571583808105
30
0
41
1
10
40.7534076427378
20
-2.11405902149383
30
0
41
1
10
40.5250062772932
20
-2.039354256205
30
0
41
1
10
40.4488883363612
20
-2.01243178377587
30
0
41
1
10
40.2965880122864
20
-1.95465218240824
30
0
41
1
10
40.2205130715704
20
-1.92372561055038
30
0
41
1
10
39.9922637109073
20
-1.82493870077025
30
0
41
1
10
39.8400059481746
20
-1.75110740214632
30
0
41
1
10
39.6484023967773
20
-1.64946902939323
30
0
41
1
10
39.610017242275
20
-1.62867441420491
30
0
41
1
10
39.5330872614908
20
-1.58616902800117
30
0
41
1
10
39.4945571849829
20
-1.56446502231839
30
0
41
1
10
39.3793072601229
20
-1.498381371086
30
0
41
1
10
39.3027197330449
20
-1.45291711053943
30
0
41
1
10
39.149774661881
20
-1.35949517549551
30
0
41
1
10
39.0733782803296
20
-1.3115810431664
30
0
41
1
10
38.9208839774653
20
-1.2132260322764
30
0
41
1
10
38.8448043940122
20
-1.16276249147899
30
0
41
1
10
38.6167959637335
20
-1.00780292740626
30
0
41
1
10
38.4650506433958
20
-0.899786631754495
30
0
41
1
10
38.3126119892741
20
-0.788115425153393
30
0
0
SPLINE
5
1BE
100
AcDbEntity
8
1
62
256
6
ByLayer
370
18
48
1
60
0
100
AcDbSpline
70
4
71
3
72
40
73
36
40
0
40
0
40
0
40
0
40
0.0889442417559713
40
0.0889442417559713
40
0.177888483511943
40
0.177888483511943
40
0.266832725267914
40
0.266832725267914
40
0.355776967023885
40
0.355776967023885
40
0.400249087901869
40
0.400249087901869
40
0.444721208779852
40
0.444721208779852
40
0.489193329657836
40
0.489193329657836
40
0.53366545053582
40
0.53366545053582
40
0.622609692291791
40
0.622609692291791
40
0.711553934047762
40
0.711553934047762
40
0.75602605492575
40
0.75602605492575
40
0.800498175803738
40
0.800498175803738
40
0.889442417559713
40
0.889442417559713
40
0.933914538437701
40
0.933914538437701
40
0.956150598876696
40
0.956150598876696
40
0.978386659315696
40
0.978386659315696
40
1
40
1
40
1
40
1
41
1
10
36.5997658541015
20
-2.1259578211243
30
0
41
1
10
36.694339550033
20
-2.15216385486508
30
0
41
1
10
36.7884493260415
20
-2.17495148525953
30
0
41
1
10
36.976630033808
20
-2.21350584463986
30
0
41
1
10
37.0706621039043
20
-2.22930436647678
30
0
41
1
10
37.2586104103966
20
-2.25405946971299
30
0
41
1
10
37.3525451226919
20
-2.26301066035816
30
0
41
1
10
37.5403902810767
20
-2.27400000743674
30
0
41
1
10
37.6342694877917
20
-2.27604031085463
30
0
41
1
10
37.7751201373476
20
-2.2737369918224
30
0
41
1
10
37.8221087173636
20
-2.27207211148109
30
0
41
1
10
37.9164470300257
20
-2.26695858995578
30
0
41
1
10
37.9637633427054
20
-2.26351079119621
30
0
41
1
10
38.0586150263169
20
-2.25481135981221
30
0
41
1
10
38.106175904023
20
-2.24955640112623
30
0
41
1
10
38.2010004771735
20
-2.23733968420535
30
0
41
1
10
38.2483388167329
20
-2.23037122963001
30
0
41
1
10
38.3901684987042
20
-2.2069386758688
30
0
41
1
10
38.4844803828879
20
-2.18795496783767
30
0
41
1
10
38.6726633190932
20
-2.1433927896224
30
0
41
1
10
38.7665151847558
20
-2.1177981968429
30
0
41
1
10
38.9072808816829
20
-2.07460185550508
30
0
41
1
10
38.9541798658293
20
-2.05939454157647
30
0
41
1
10
39.0477073828104
20
-2.02720822560488
30
0
41
1
10
39.0943921675154
20
-2.01025572397515
30
0
41
1
10
39.2347723076758
20
-1.95714262431056
30
0
41
1
10
39.328662034111
20
-1.91865575022081
30
0
41
1
10
39.4702522815286
20
-1.85652647889682
30
0
41
1
10
39.5175696158412
20
-1.83508003826196
30
0
41
1
10
39.588731489906
20
-1.80180311863887
30
0
41
1
10
39.6124827284326
20
-1.79052588769082
30
0
41
1
10
39.6600481838396
20
-1.76760093193403
30
0
41
1
10
39.6838782238971
20
-1.75594551166128
30
0
41
1
10
39.7307918530009
20
-1.73266911805084
30
0
41
1
10
39.7538914507043
20
-1.72105074745329
30
0
41
1
10
39.7769675593125
20
-1.70928811193545
30
0
0
SPLINE
5
1BF
100
AcDbEntity
8
1
62
256
6
ByLayer
370
18
48
1
60
0
100
AcDbSpline
70
4
71
3
72
8
73
4
40
0
40
0
40
0
40
0
40
1
40
1
40
1
40
1
41
1
10
50.7605028880939
20
0.864301362951892
30
0
41
1
10
50.7395327352287
20
0.885394559317746
30
0
41
1
10
50.7185554196511
20
0.906401844017495
30
0
41
1
10
50.6975700976944
20
0.92732282020873
30
0
0
SPLINE
5
1C0
100
AcDbEntity
8
1
62
256
6
ByLayer
370
18
48
1
60
0
100
AcDbSpline
70
4
71
3
72
8
73
4
40
0
40
0
40
0
40
0
40
1
40
1
40
1
40
1
41
1
10
51.8181655088891
20
-0.229809089577628
30
0
41
1
10
51.7860775829382
20
-0.196506859356816
30
0
41
1
10
51.7539930540264
20
-0.163189578753958
30
0
41
1
10
51.7219097664754
20
-0.129859358724985
30
0
0
SPLINE
5
1C1
100
AcDbEntity
8
1
62
256
6
ByLayer
370
18
48
1
60
0
100
AcDbSpline
70
4
71
3
72
8
73
4
40
0
40
0
40
0
40
0
40
1
40
1
40
1
40
1
41
1
10
52.8757514958348
20
-1.2952974769214
30
0
41
1
10
52.8436744891449
20
-1.26507615645522
30
0
41
1
10
52.81162137635
20
-1.23462945276617
30
0
41
1
10
52.7795901657669
20
-1.20395906140189
30
0
0
SPLINE
5
1C2
100
AcDbEntity
8
1
62
256
6
ByLayer
370
18
48
1
60
0
100
AcDbSpline
70
4
71
3
72
8
73
4
40
0
40
0
40
0
40
0
40
1
40
1
40
1
40
1
41
1
10
53.8781640065203
20
-2.15139157333073
30
0
41
1
10
53.8644406336682
20
-2.14119033399959
30
0
41
1
10
53.8507239551105
20
-2.13091591787878
30
0
41
1
10
53.8370126507348
20
-2.12056914499718
30
0
0
SPLINE
5
1C3
100
AcDbEntity
8
1
62
256
6
ByLayer
370
18
48
1
60
0
100
AcDbSpline
70
4
71
3
72
14
73
10
40
0
40
0
40
0
40
0
40
0.499999999999984
40
0.499999999999984
40
0.749999999999976
40
0.749999999999976
40
0.874999999999988
40
0.874999999999988
40
1
40
1
40
1
40
1
41
1
10
55.711672182052
20
-2.63014904166511
30
0
41
1
10
55.8231037354639
20
-2.62096907889907
30
0
41
1
10
55.9351298757547
20
-2.60511307824126
30
0
41
1
10
56.1043497977766
20
-2.57139916623203
30
0
41
1
10
56.1609091783614
20
-2.55851682694168
30
0
41
1
10
56.2462355870766
20
-2.53662277319481
30
0
41
1
10
56.2747751193973
20
-2.52889109032398
30
0
41
1
10
56.3320958127388
20
-2.51254926228964
30
0
41
1
10
56.3609051070059
20
-2.50393025902864
30
0
41
1
10
56.3897465529761
20
-2.49490200997096
30
0
0
SPLINE
5
1C4
100
AcDbEntity
8
1
62
256
6
ByLayer
370
18
48
1
60
0
100
AcDbSpline
70
4
71
3
72
8
73
4
40
0
40
0
40
0
40
0
40
1
40
1
40
1
40
1
41
1
10
56.3897465529761
20
-2.49490200997099
30
0
41
1
10
56.393858240305
20
-2.48788848376441
30
0
41
1
10
56.3979733912299
20
-2.48086055168804
30
0
41
1
10
56.4020920394627
20
-2.47381831609749
30
0
0
SPLINE
5
1C5
100
AcDbEntity
8
1
62
256
6
ByLayer
370
18
48
1
60
0
100
AcDbSpline
70
4
71
3
72
27
73
23
40
0
40
0
40
0
40
0
40
0.124999999999998
40
0.124999999999998
40
0.187499999999998
40
0.187499999999998
40
0.249999999999999
40
0.249999999999999
40
0.374999999999999
40
0.374999999999999
40
0.5
40
0.5
40
0.625
40
0.625
40
0.75
40
0.75
40
0.8125
40
0.8125
40
0.875
40
0.9375
40
0.9375
40
1
40
1
40
1
40
1
41
1
10
56.4020920394626
20
-2.47381831609749
30
0
41
1
10
56.4085095442778
20
-2.46284540016714
30
0
41
1
10
56.4158399068269
20
-2.45314560793801
30
0
41
1
10
56.4278798435477
20
-2.44003358375323
30
0
41
1
10
56.4320707962942
20
-2.43590784399345
30
0
41
1
10
56.4407843705977
20
-2.42811318652906
30
0
41
1
10
56.4453260760771
20
-2.42443243882502
30
0
41
1
10
56.4591943049197
20
-2.41421816012809
30
0
41
1
10
56.4688106749194
20
-2.40844735858732
30
0
41
1
10
56.4886883602043
20
-2.39875679541561
30
0
41
1
10
56.4989583643496
20
-2.39483703204002
30
0
41
1
10
56.5200968221323
20
-2.38889349201548
30
0
41
1
10
56.5307299072969
20
-2.38693450993489
30
0
41
1
10
56.5520893633646
20
-2.38504080680946
30
0
41
1
10
56.5628159555946
20
-2.38510333010939
30
0
41
1
10
56.578957650633
20
-2.38691944334369
30
0
41
1
10
56.584362407677
20
-2.38782035312994
30
0
41
1
10
56.5949880485064
20
-2.39022010772706
30
0
41
1
10
56.6054729540233
20
-2.39321932170887
30
0
41
1
10
56.6156468843616
20
-2.39750764947863
30
0
41
1
10
56.6256424042864
20
-2.4025209387533
30
0
41
1
10
56.6305805173019
20
-2.40541205995876
30
0
41
1
10
56.635311588127
20
-2.40865839140921
30
0
0
SPLINE
5
1C6
100
AcDbEntity
8
1
62
256
6
ByLayer
370
18
48
1
60
0
100
AcDbSpline
70
4
71
3
72
10
73
6
40
0
40
0
40
0
40
0
40
0.5
40
0.5
40
1
40
1
40
1
40
1
41
1
10
56.6353115881266
20
-2.40865839140949
30
0
41
1
10
56.6860495883258
20
-2.38895104336501
30
0
41
1
10
56.7368980298752
20
-2.3680613121862
30
0
41
1
10
56.8389071998419
20
-2.32398260924444
30
0
41
1
10
56.8900941742862
20
-2.30078999505241
30
0
41
1
10
56.9415832857208
20
-2.27648218331683
30
0
0
SPLINE
5
1C7
100
AcDbEntity
8
1
62
256
6
ByLayer
370
18
48
1
60
0
100
AcDbSpline
70
4
71
3
72
13
73
9
40
0
40
0
40
0
40
0
40
0.124999999999972
40
0.124999999999972
40
0.249999999999944
40
0.249999999999944
40
0.499999999999943
40
1
40
1
40
1
40
1
41
1
10
57.23
20
-1.92888303749251
30
0
41
1
10
57.2173670779456
20
-1.94357847952449
30
0
41
1
10
57.2047853658323
20
-1.95830925449914
30
0
41
1
10
57.1797124300299
20
-1.98783109781672
30
0
41
1
10
57.1672027365585
20
-2.00264432547121
30
0
41
1
10
57.1300350233801
20
-2.04687069161068
30
0
41
1
10
57.0569587890056
20
-2.13468136561187
30
0
41
1
10
56.9871033346492
20
-2.22040571828381
30
0
41
1
10
56.94158328572
20
-2.27648218331188
30
0
0
SPLINE
5
1C8
100
AcDbEntity
8
1
62
256
6
ByLayer
370
18
48
1
60
0
100
AcDbSpline
70
4
71
3
72
24
73
20
40
0
40
0
40
0
40
0
40
0.185613166723712
40
0.185613166723712
40
0.457075444482474
40
0.457075444482474
40
0.524941013922165
40
0.524941013922165
40
0.592806583361855
40
0.592806583361855
40
0.728537722241237
40
0.728537722241237
40
0.796403291680928
40
0.796403291680928
40
0.830336076400773
40
0.830336076400773
40
0.864268861120618
40
0.864268861120618
40
1
40
1
40
1
40
1
41
1
10
57.23
20
-1.14412203748995
30
0
41
1
10
57.23
20
-1.17155580346852
30
0
41
1
10
57.23
20
-1.20256722488094
30
0
41
1
10
57.23
20
-1.28763435126783
30
0
41
1
10
57.23
20
-1.34570015114252
30
0
41
1
10
57.23
20
-1.42811951513096
30
0
41
1
10
57.23
20
-1.44508623713003
30
0
41
1
10
57.23
20
-1.47974029311098
30
0
41
1
10
57.23
20
-1.49735949103086
30
0
41
1
10
57.23
20
-1.55227397192797
30
0
41
1
10
57.23
20
-1.59222320709668
30
0
41
1
10
57.23
20
-1.65712152769279
30
0
41
1
10
57.23
20
-1.67959336670231
30
0
41
1
10
57.23
20
-1.71460163802766
30
0
41
1
10
57.23
20
-1.7265089942789
30
0
41
1
10
57.23
20
-1.75056021323596
30
0
41
1
10
57.23
20
-1.76272153905182
30
0
41
1
10
57.23
20
-1.82419390210606
30
0
41
1
10
57.23
20
-1.87549058762809
30
0
41
1
10
57.23
20
-1.92888303749248
30
0
0
SPLINE
5
1C9
100
AcDbEntity
8
1
62
256
6
ByLayer
370
18
48
1
60
0
100
AcDbSpline
70
4
71
3
72
16
73
12
40
0
40
0
40
0
40
0
40
0.125000000000016
40
0.125000000000016
40
0.187500000000024
40
0.187500000000024
40
0.250000000000031
40
0.250000000000031
40
0.500000000000021
40
0.500000000000021
40
1
40
1
40
1
40
1
41
1
10
56.8472645466017
20
-1.04316075851526
30
0
41
1
10
56.8637192692539
20
-1.04458840409814
30
0
41
1
10
56.880229847884
20
-1.04574060626953
30
0
41
1
10
56.9050876609218
20
-1.04704489291032
30
0
41
1
10
56.9133877878788
20
-1.04741299969552
30
0
41
1
10
56.9299326718365
20
-1.0482775643637
30
0
41
1
10
56.938171670244
20
-1.04879159534045
30
0
41
1
10
56.9792085951769
20
-1.05172637094884
30
0
41
1
10
57.0115893296757
20
-1.05506505283276
30
0
41
1
10
57.1074285953323
20
-1.06738234162952
30
0
41
1
10
57.1696255823511
20
-1.0785554032405
30
0
41
1
10
57.2299999999999
20
-1.09153642926796
30
0
0
SPLINE
5
1CA
100
AcDbEntity
8
1
62
256
6
ByLayer
370
18
48
1
60
0
100
AcDbSpline
70
4
71
3
72
8
73
4
40
0
40
0
40
0
40
0
40
1
40
1
40
1
40
1
41
1
10
56.8472645466038
20
-1.04316075851955
30
0
41
1
10
56.7262876496812
20
-0.974066498732981
30
0
41
1
10
56.6069119058491
20
-0.899363076473804
30
0
41
1
10
56.4884947679866
20
-0.819628660174487
30
0
0
SPLINE
5
1CB
100
AcDbEntity
8
1
62
256
6
ByLayer
370
18
48
1
60
0
100
AcDbSpline
70
4
71
3
72
8
73
4
40
0
40
0
40
0
40
0
40
1
40
1
40
1
40
1
41
1
10
56.4884947679863
20
-0.819628660174658
30
0
41
1
10
56.4701287836473
20
-0.787349216830705
30
0
41
1
10
56.4517182908257
20
-0.755420122463107
30
0
41
1
10
56.4332576031429
20
-0.723840590490141
30
0
0
SPLINE
5
1CC
100
AcDbEntity
8
1
62
256
6
ByLayer
370
18
48
1
60
0
100
AcDbSpline
70
4
71
3
72
28
73
24
40
0
40
0
40
0
40
0
40
0.125
40
0.125
40
0.25
40
0.25
40
0.375
40
0.375
40
0.499999999999999
40
0.499999999999999
40
0.624999999999999
40
0.624999999999999
40
0.687499999999999
40
0.687499999999999
40
0.749999999999999
40
0.749999999999999
40
0.8125
40
0.8125
40
0.875
40
0.875
40
0.9375
40
0.9375
40
1
40
1
40
1
40
1
41
1
10
56.4332576031429
20
-0.723840590490141
30
0
41
1
10
56.4261116316823
20
-0.711616428633732
30
0
41
1
10
56.4178306295343
20
-0.699418421099352
30
0
41
1
10
56.3995091569686
20
-0.675087661311125
30
0
41
1
10
56.3893751171935
20
-0.662873830881296
30
0
41
1
10
56.3681867029314
20
-0.639296847549275
30
0
41
1
10
56.3570713804699
20
-0.627842184756759
30
0
41
1
10
56.3338624391865
20
-0.605547991818838
30
0
41
1
10
56.3216518761537
20
-0.594620502121501
30
0
41
1
10
56.2970488425109
20
-0.574117340806623
30
0
41
1
10
56.2846042784706
20
-0.564474364765402
30
0
41
1
10
56.2657364827498
20
-0.551001891517473
30
0
41
1
10
56.25941328605
20
-0.546678162280131
30
0
41
1
10
56.2466973486957
20
-0.538405714482138
30
0
41
1
10
56.2403214315681
20
-0.534471049409575
30
0
41
1
10
56.2278460772185
20
-0.527233914693511
30
0
41
1
10
56.2217069835128
20
-0.523904501620535
30
0
41
1
10
56.2096639945227
20
-0.517905103730584
30
0
41
1
10
56.2037161358161
20
-0.515219468902586
30
0
41
1
10
56.1924501925837
20
-0.510781245747069
30
0
41
1
10
56.187106555957
20
-0.50901054015381
30
0
41
1
10
56.1770949696464
20
-0.506513411489692
30
0
41
1
10
56.1724215351894
20
-0.505795324935121
30
0
41
1
10
56.1683046816086
20
-0.505727098768517
30
0
0
SPLINE
5
1CD
100
AcDbEntity
8
1
62
256
6
ByLayer
370
18
48
1
60
0
100
AcDbSpline
70
4
71
3
72
8
73
4
40
0
40
0
40
0
40
0
40
1
40
1
40
1
40
1
41
1
10
54.7941809515391
20
0.64614446696902
30
0
41
1
10
54.7526922077022
20
0.687893782735131
30
0
41
1
10
54.7112476368557
20
0.729855927931908
30
0
41
1
10
54.6698204790474
20
0.772005078042213
30
0
0
SPLINE
5
1CE
100
AcDbEntity
8
1
62
256
6
ByLayer
370
18
48
1
60
0
100
AcDbSpline
70
4
71
3
72
8
73
4
40
0
40
0
40
0
40
0
40
1
40
1
40
1
40
1
41
1
10
52.5597198671574
20
2.53480269793181
30
0
41
1
10
52.5918037485687
20
2.51603327047556
30
0
41
1
10
52.623872803199
20
2.49681401869162
30
0
41
1
10
52.6559361652304
20
2.4771508185473
30
0
0
SPLINE
5
1CF
100
AcDbEntity
8
1
62
256
6
ByLayer
370
18
48
1
60
0
100
AcDbSpline
70
4
71
3
72
10
73
6
40
0
40
0
40
0
40
0
40
0.5
40
0.5
40
1
40
1
40
1
40
1
41
1
10
52.5597198671584
20
2.53480269792277
30
0
41
1
10
52.5012549401857
20
2.50312595770259
30
0
41
1
10
52.4423896007637
20
2.46553328076411
30
0
41
1
10
52.3233638297477
20
2.37804693180547
30
0
41
1
10
52.2634514646562
20
2.32830637373118
30
0
41
1
10
52.202914211793
20
2.27249501958445
30
0
0
SPLINE
5
1D0
100
AcDbEntity
8
1
62
256
6
ByLayer
370
18
48
1
60
0
100
AcDbSpline
70
4
71
3
72
28
73
24
40
0
40
0
40
0
40
0
40
0.124999999999999
40
0.124999999999999
40
0.249999999999998
40
0.249999999999998
40
0.374999999999998
40
0.374999999999998
40
0.499999999999997
40
0.499999999999997
40
0.624999999999997
40
0.624999999999997
40
0.687499999999997
40
0.687499999999997
40
0.749999999999998
40
0.749999999999998
40
0.812499999999998
40
0.812499999999998
40
0.874999999999999
40
0.874999999999999
40
0.937499999999999
40
0.937499999999999
40
1
40
1
40
1
40
1
41
1
10
52.202914211793
20
2.27249501958431
30
0
41
1
10
52.1957519624868
20
2.26589189814075
30
0
41
1
10
52.1874486050132
20
2.26086457574567
30
0
41
1
10
52.1690758496156
20
2.25319946827767
30
0
41
1
10
52.1589114949827
20
2.25058139849836
30
0
41
1
10
52.1376676082954
20
2.2476787948481
30
0
41
1
10
52.1265266290177
20
2.24735533661965
30
0
41
1
10
52.1032764078346
20
2.24890245469211
30
0
41
1
10
52.0910535413706
20
2.25081143965699
30
0
41
1
10
52.0664449939918
20
2.25689424040928
30
0
41
1
10
52.0540027298727
20
2.26104910898127
30
0
41
1
10
52.0351494804675
20
2.26921243212601
30
0
41
1
10
52.0288331572775
20
2.27225850808586
30
0
41
1
10
52.0161352084045
20
2.27910324878275
30
0
41
1
10
52.0097796353499
20
2.28289325294529
30
0
41
1
10
51.997339342966
20
2.29113367747939
30
0
41
1
10
51.991217512364
20
2.29560235284555
30
0
41
1
10
51.9792076794478
20
2.30535011880471
30
0
41
1
10
51.9732770007486
20
2.3106756276249
30
0
41
1
10
51.9620434376079
20
2.32198228029859
30
0
41
1
10
51.9567133950735
20
2.32797599108463
30
0
41
1
10
51.9467236130831
20
2.34075893706662
30
0
41
1
10
51.9420584065183
20
2.34757375158182
30
0
41
1
10
51.9379463631523
20
2.35463652951338
30
0
0
SPLINE
5
1D1
100
AcDbEntity
8
1
62
256
6
ByLayer
370
18
48
1
60
0
100
AcDbSpline
70
4
71
3
72
12
73
8
40
0
40
0
40
0
40
0
40
0.500000000000014
40
0.500000000000014
40
0.750000000000007
40
0.750000000000007
40
1
40
1
40
1
40
1
41
1
10
51.9379463631497
20
2.35463652951643
30
0
41
1
10
51.8805293915771
20
2.45325497383922
30
0
41
1
10
51.8234583083844
20
2.5526300623834
30
0
41
1
10
51.7384889608897
20
2.70204526362502
30
0
41
1
10
51.7102783576948
20
2.75189805089144
30
0
41
1
10
51.6541352159063
20
2.8515050721206
30
0
41
1
10
51.6261885498059
20
2.90128433211854
30
0
41
1
10
51.5983444433631
20
2.9510289374939
30
0
0
SPLINE
5
1D2
100
AcDbEntity
8
1
62
256
6
ByLayer
370
18
48
1
60
0
100
AcDbSpline
70
4
71
3
72
8
73
4
40
0
40
0
40
0
40
0
40
1
40
1
40
1
40
1
41
1
10
51.5019114051852
20
2.97576199024567
30
0
41
1
10
51.5340671649078
20
2.96805356332897
30
0
41
1
10
51.5662083641958
20
2.9598081093979
30
0
41
1
10
51.5983444433631
20
2.9510289374939
30
0
0
SPLINE
5
1D3
100
AcDbEntity
8
1
62
256
6
ByLayer
370
18
48
1
60
0
100
AcDbSpline
70
4
71
3
72
91
73
87
40
0
40
0
40
0
40
0
40
0.0625000000000132
40
0.0625000000000132
40
0.0937500000000185
40
0.0937500000000185
40
0.125000000000024
40
0.125000000000024
40
0.132812500000024
40
0.132812500000024
40
0.140625000000025
40
0.140625000000025
40
0.156250000000026
40
0.156250000000026
40
0.187500000000028
40
0.187500000000028
40
0.250000000000033
40
0.250000000000033
40
0.312500000000037
40
0.312500000000037
40
0.343750000000039
40
0.343750000000039
40
0.375000000000042
40
0.375000000000042
40
0.390625000000043
40
0.390625000000043
40
0.406250000000044
40
0.406250000000044
40
0.437500000000043
40
0.437500000000043
40
0.468750000000042
40
0.468750000000042
40
0.484375000000041
40
0.484375000000041
40
0.500000000000041
40
0.500000000000041
40
0.515625000000041
40
0.515625000000041
40
0.523437500000042
40
0.523437500000042
40
0.531250000000043
40
0.531250000000043
40
0.546875000000044
40
0.546875000000044
40
0.554687500000045
40
0.554687500000045
40
0.558593750000046
40
0.558593750000046
40
0.562500000000046
40
0.578125000000045
40
0.578125000000045
40
0.585937500000044
40
0.585937500000044
40
0.593750000000043
40
0.593750000000043
40
0.609375000000041
40
0.609375000000041
40
0.61718750000004
40
0.61718750000004
40
0.625000000000039
40
0.625000000000039
40
0.640625000000037
40
0.640625000000037
40
0.656250000000034
40
0.656250000000034
40
0.671875000000032
40
0.671875000000032
40
0.68750000000003
40
0.68750000000003
40
0.718750000000027
40
0.718750000000027
40
0.750000000000024
40
0.750000000000024
40
0.765625000000023
40
0.765625000000023
40
0.781250000000021
40
0.781250000000021
40
0.812500000000019
40
0.812500000000019
40
0.875000000000013
40
0.875000000000013
40
0.937500000000008
40
0.937500000000008
40
0.968750000000004
40
0.968750000000004
40
1
40
1
40
1
40
1
41
1
10
38.3126244338292
20
-0.788104249351733
30
0
41
1
10
38.2088411022435
20
-0.708757899479849
30
0
41
1
10
38.1021427250827
20
-0.632801570040442
30
0
41
1
10
37.935856225855
20
-0.527591762461611
30
0
41
1
10
37.879410283023
20
-0.493940640873916
30
0
41
1
10
37.7640154001296
20
-0.430353441916367
30
0
41
1
10
37.7050881904017
20
-0.400383249065072
30
0
41
1
10
37.6298076262798
20
-0.365411980135576
30
0
41
1
10
37.6146705309934
20
-0.358542125318536
30
0
41
1
10
37.584232584719
20
-0.345055914345664
30
0
41
1
10
37.5689200836446
20
-0.33845871769276
30
0
41
1
10
37.5228609558433
20
-0.31884611490284
30
0
41
1
10
37.4919388933149
20
-0.30603028724903
30
0
41
1
10
37.398891650304
20
-0.268574462709523
30
0
41
1
10
37.3364922451618
20
-0.244922917212563
30
0
41
1
10
37.1480866200202
20
-0.178337113461168
30
0
41
1
10
37.0208844127682
20
-0.13972981636411
30
0
41
1
10
36.7624834876761
20
-0.077181838299623
30
0
41
1
10
36.6313079536887
20
-0.0531569013853357
30
0
41
1
10
36.4310281281988
20
-0.0301261774890804
30
0
41
1
10
36.3642288691906
20
-0.0246711321403552
30
0
41
1
10
36.2305762623301
20
-0.0187570567043736
30
0
41
1
10
36.1637178549401
20
-0.0182820976087044
30
0
41
1
10
36.0633748487838
20
-0.0218525514332555
30
0
41
1
10
36.0299179020103
20
-0.0237600272293719
30
0
41
1
10
35.9629838229649
20
-0.0291354299540103
30
0
41
1
10
35.9294589259654
20
-0.0326195276541057
30
0
41
1
10
35.8297495109624
20
-0.0455437235251566
30
0
41
1
10
35.7641583127489
20
-0.0574052983616582
30
0
41
1
10
35.6351440285482
20
-0.0890931928470877
30
0
41
1
10
35.5716962881145
20
-0.108829299073307
30
0
41
1
10
35.4786657211437
20
-0.146276784653708
30
0
41
1
10
35.448002506844
20
-0.160084258301822
30
0
41
1
10
35.3876069047258
20
-0.190884906351727
30
0
41
1
10
35.3583458566034
20
-0.20764053312962
30
0
41
1
10
35.3019760133533
20
-0.244249276427837
30
0
41
1
10
35.274864790468
20
-0.264099006442535
30
0
41
1
10
35.2361148982977
20
-0.296616870734454
30
0
41
1
10
35.2234767990652
20
-0.30796299116227
30
0
41
1
10
35.1992568329729
20
-0.331337269409772
30
0
41
1
10
35.1876474678529
20
-0.343382785283978
30
0
41
1
10
35.154387852263
20
-0.380634527691939
30
0
41
1
10
35.134300827898
20
-0.406952585721569
30
0
41
1
10
35.1076472897389
20
-0.448867575502049
30
0
41
1
10
35.0993434874987
20
-0.46324633241116
30
0
41
1
10
35.0878156142076
20
-0.485460155749052
30
0
41
1
10
35.0841214593524
20
-0.492988280650024
30
0
41
1
10
35.0771316154199
20
-0.508088722561098
30
0
41
1
10
35.0606030822697
20
-0.546041287069585
30
0
41
1
10
35.0487047188064
20
-0.584964604422453
30
0
41
1
10
35.0386070647798
20
-0.632496241944409
30
0
41
1
10
35.035954033828
20
-0.648481601301683
30
0
41
1
10
35.0318930421632
20
-0.680681579358009
30
0
41
1
10
35.0305155233128
20
-0.696898424801873
30
0
41
1
10
35.0285020677686
20
-0.745015769044329
30
0
41
1
10
35.029949216533
20
-0.776682307506718
30
0
41
1
10
35.0362098371427
20
-0.823581107054281
30
0
41
1
10
35.0389757145237
20
-0.839113992441497
30
0
41
1
10
35.0458249892149
20
-0.869983439532405
30
0
41
1
10
35.0498933656502
20
-0.885185665381556
30
0
41
1
10
35.0635485545538
20
-0.929936196294904
30
0
41
1
10
35.0746265111357
20
-0.958761933080041
30
0
41
1
10
35.0997245128395
20
-1.01482983312903
30
0
41
1
10
35.1137526870565
20
-1.04206859818427
30
0
41
1
10
35.1441340192126
20
-1.0952290019705
30
0
41
1
10
35.1605177469088
20
-1.12117386395698
30
0
41
1
10
35.1946956632686
20
-1.17126535900408
30
0
41
1
10
35.2125354542238
20
-1.19551993848847
30
0
41
1
10
35.2678464683196
20
-1.26629884114862
30
0
41
1
10
35.3070924110889
20
-1.31085452464063
30
0
41
1
10
35.3888332451265
20
-1.3959642144786
30
0
41
1
10
35.4313427602829
20
-1.43650576222728
30
0
41
1
10
35.4969060162747
20
-1.49483833412236
30
0
41
1
10
35.5190702458622
20
-1.51386951204108
30
0
41
1
10
35.5636647294477
20
-1.55095024672019
30
0
41
1
10
35.5861282702252
20
-1.56902991305481
30
0
41
1
10
35.6539320658146
20
-1.62200275436175
30
0
41
1
10
35.6996815424344
20
-1.65563570758206
30
0
41
1
10
35.838073984992
20
-1.75213489981405
30
0
41
1
10
35.9318311079447
20
-1.81064785366712
30
0
41
1
10
36.120859294114
20
-1.91770837085906
30
0
41
1
10
36.2161466348708
20
-1.96623039104563
30
0
41
1
10
36.3597933926145
20
-2.0317613722421
30
0
41
1
10
36.4078473063877
20
-2.05241080971334
30
0
41
1
10
36.5039201078128
20
-2.09114327418266
30
0
41
1
10
36.551884407736
20
-2.10920698855068
30
0
41
1
10
36.5997836115166
20
-2.12595184735915
30
0
0
SPLINE
5
1D4
100
AcDbEntity
8
1
62
256
6
ByLayer
370
18
48
1
60
0
100
AcDbSpline
70
4
71
3
72
26
73
22
40
0
40
0
40
0
40
0
40
0.0784527403932192
40
0.0784527403932192
40
0.16164505805445
40
0.16164505805445
40
0.244837375715682
40
0.244837375715682
40
0.328029693376913
40
0.328029693376913
40
0.494414328699375
40
0.494414328699375
40
0.660798964021837
40
0.660798964021837
40
0.743991281683068
40
0.743991281683068
40
0.827183599344298
40
0.827183599344298
40
0.993568234666759
40
0.993568234666759
40
1
40
1
40
1
40
1
41
1
10
37.8243341519195
20
-0.469916511621307
30
0
41
1
10
37.7805518747299
20
-0.46698453813616
30
0
41
1
10
37.7357253796619
20
-0.468259209026996
30
0
41
1
10
37.6410963772522
20
-0.480021830190964
30
0
41
1
10
37.5911197725487
20
-0.49117704794233
30
0
41
1
10
37.4922473034722
20
-0.523373437402853
30
0
41
1
10
37.4429013358758
20
-0.544437972054254
30
0
41
1
10
37.3444012288153
20
-0.597121112341569
30
0
41
1
10
37.294792861202
20
-0.629084323684538
30
0
41
1
10
37.1495557752218
20
-0.740305045307593
30
0
41
1
10
37.0592962636858
20
-0.832978861405394
30
0
41
1
10
36.8946553482242
20
-1.05250634828397
30
0
41
1
10
36.8238025515735
20
-1.17481906578468
30
0
41
1
10
36.7342283572458
20
-1.369981057377
30
0
41
1
10
36.7070979608563
20
-1.43577828827714
30
0
41
1
10
36.6628656558486
20
-1.57010530735425
30
0
41
1
10
36.6451666830482
20
-1.63881625299072
30
0
41
1
10
36.6048286895706
20
-1.84621338822458
30
0
41
1
10
36.5953609876835
20
-1.98108500642115
30
0
41
1
10
36.5994043525353
20
-2.11595325823521
30
0
41
1
10
36.599581688189
20
-2.1209581905608
30
0
41
1
10
36.5997835321601
20
-2.12594988487035
30
0
0
SPLINE
5
1D5
100
AcDbEntity
8
SK1
62
256
6
ByLayer
370
18
48
1
60
0
100
AcDbSpline
70
4
71
3
72
22
73
18
40
0
40
0
40
0
40
0
40
0.125064128197436
40
0.125064128197436
40
0.187596192296154
40
0.187596192296154
40
0.250128256394872
40
0.250128256394872
40
0.500256512789743
40
0.500256512789743
40
0.625320640987179
40
0.625320640987179
40
0.750384769184615
40
0.750384769184615
40
0.87544889738205
40
0.87544889738205
40
1
40
1
40
1
40
1
41
1
10
-21.87
20
2.42499999999998
30
0
41
1
10
-21.9161286994883
20
2.42499999999998
30
0
41
1
10
-21.9611809603311
20
2.42499999999998
30
0
41
1
10
-22.0267735041401
20
2.42499999999998
30
0
41
1
10
-22.0483224129895
20
2.42499999999998
30
0
41
1
10
-22.0905995560873
20
2.42499999999998
30
0
41
1
10
-22.1113088348484
20
2.42499999999998
30
0
41
1
10
-22.2125001674621
20
2.42499999999998
30
0
41
1
10
-22.2860194291454
20
2.42499999999998
30
0
41
1
10
-22.3799881112948
20
2.42499999999998
30
0
41
1
10
-22.4085719462844
20
2.42499999999998
30
0
41
1
10
-22.4591338700697
20
2.42499999999998
30
0
41
1
10
-22.4811148066356
20
2.42499999999998
30
0
41
1
10
-22.5171473245934
20
2.42499999999998
30
0
41
1
10
-22.5308921377331
20
2.42499999999998
30
0
41
1
10
-22.5492656355006
20
2.42499999999998
30
0
41
1
10
-22.5539296341644
20
2.42499999999998
30
0
41
1
10
-22.5539599999999
20
2.42499999999998
30
0
0
SPLINE
5
1D6
100
AcDbEntity
8
SK1
62
256
6
ByLayer
370
18
48
1
60
0
100
AcDbSpline
70
4
71
3
72
23
73
19
40
0
40
0
40
0
40
0
40
0.0003019488173554
40
0.125264205215186
40
0.125264205215186
40
0.250226461613016
40
0.250226461613016
40
0.375188718010847
40
0.375188718010847
40
0.500150974408678
40
0.500150974408678
40
0.750075487204339
40
0.750075487204339
40
0.812556615403254
40
0.812556615403254
40
0.875037743602169
40
0.875037743602169
40
1
40
1
40
1
40
1
41
1
10
-22.5539592396082
20
-2.42500000000001
30
0
41
1
10
-22.5539602397082
20
-2.42500000000001
30
0
41
1
10
-22.5539789523455
20
-2.42500000000001
30
0
41
1
10
-22.5493033979172
20
-2.42500000000004
30
0
41
1
10
-22.5308921377331
20
-2.42500000000004
30
0
41
1
10
-22.5171473245934
20
-2.42500000000004
30
0
41
1
10
-22.4811148066356
20
-2.42500000000004
30
0
41
1
10
-22.4591338700697
20
-2.42500000000004
30
0
41
1
10
-22.4085719462844
20
-2.42500000000004
30
0
41
1
10
-22.3799881112948
20
-2.42500000000004
30
0
41
1
10
-22.2860194291454
20
-2.42500000000004
30
0
41
1
10
-22.2125001674621
20
-2.42500000000004
30
0
41
1
10
-22.1113088348484
20
-2.42500000000004
30
0
41
1
10
-22.0905995560873
20
-2.42500000000004
30
0
41
1
10
-22.0483224129895
20
-2.42500000000004
30
0
41
1
10
-22.0267735041401
20
-2.42500000000004
30
0
41
1
10
-21.9611809603311
20
-2.42500000000004
30
0
41
1
10
-21.9161286994882
20
-2.42500000000004
30
0
41
1
10
-21.87
20
-2.42500000000001
30
0
0
SPLINE
5
1D7
100
AcDbEntity
8
SK1
62
256
6
ByLayer
370
18
48
1
60
0
100
AcDbSpline
70
4
71
3
72
39
73
35
40
0
40
0
40
0
40
0
40
0.125
40
0.125
40
0.15625
40
0.15625
40
0.1875
40
0.1875
40
0.25
40
0.25
40
0.375
40
0.375
40
0.40625
40
0.40625
40
0.421875
40
0.421875
40
0.4375
40
0.4375
40
0.5
40
0.5625
40
0.5625
40
0.625
40
0.625
40
0.6875
40
0.6875
40
0.75
40
0.75
40
0.875
40
0.875
40
0.90625
40
0.90625
40
0.9375
40
0.9375
40
1
40
1
40
1
40
1
41
1
10
-21.8700000000001
20
-1.94550951722172
30
0
41
1
10
-21.9617651518119
20
-1.79886711642567
30
0
41
1
10
-22.0492873517802
20
-1.64913452522694
30
0
41
1
10
-22.1505892647162
20
-1.45606885388207
30
0
41
1
10
-22.1704385682289
20
-1.41715632601688
30
0
41
1
10
-22.2092172904702
20
-1.33866130766719
30
0
41
1
10
-22.2280943359419
20
-1.2991823626638
30
0
41
1
10
-22.2829175461676
20
-1.18024215816848
30
0
41
1
10
-22.3171107315207
20
-1.100177554439
30
0
41
1
10
-22.4112462683972
20
-0.857219516933043
30
0
41
1
10
-22.4628058776618
20
-0.691581916396188
30
0
41
1
10
-22.5076299776698
20
-0.478110359126191
30
0
41
1
10
-22.5156089333792
20
-0.435093316048409
30
0
41
1
10
-22.5259821127037
20
-0.370045530477853
30
0
41
1
10
-22.5291781080732
20
-0.348242856020761
30
0
41
1
10
-22.534994808535
20
-0.304643440516486
30
0
41
1
10
-22.537615614096
20
-0.282853877047046
30
0
41
1
10
-22.5492720364585
20
-0.173957129743428
30
0
41
1
10
-22.5586325615654
20
-5.00669868018E-05
30
0
41
1
10
-22.5493033979172
20
0.173197642612138
30
0
41
1
10
-22.5308921377331
20
0.346124945108073
30
0
41
1
10
-22.5171473245934
20
0.432428458607632
30
0
41
1
10
-22.4811148066356
20
0.604734101101201
30
0
41
1
10
-22.4591338700697
20
0.689343813069286
30
0
41
1
10
-22.4085719462844
20
0.855900645063912
30
0
41
1
10
-22.3799881112948
20
0.937864176391628
30
0
41
1
10
-22.2860194291454
20
1.18048348504715
30
0
41
1
10
-22.2125001674621
20
1.33790092513371
30
0
41
1
10
-22.1113088348484
20
1.53097344768682
30
0
41
1
10
-22.0905995560873
20
1.56940044067241
30
0
41
1
10
-22.0483224129895
20
1.64591262089519
30
0
41
1
10
-22.0267735041401
20
1.68396212476608
30
0
41
1
10
-21.9611809603311
20
1.79726421471696
30
0
41
1
10
-21.9161286994883
20
1.87179500681108
30
0
41
1
10
-21.87
20
1.94550951722161
30
0
0
SPLINE
5
1D8
100
AcDbEntity
8
1
62
256
6
ByLayer
370
18
48
1
60
0
100
AcDbSpline
70
4
71
2
72
6
73
3
40
0
40
0
40
0
40
1
40
1
40
1
41
1
10
55.6186669722865
20
-2.47221532485463
30
0
41
1
10
55.6674639623016
20
-2.55614433942603
30
0
41
1
10
55.7162046691932
20
-2.640111536115
30
0
0
SPLINE
5
1D9
100
AcDbEntity
8
1
62
256
6
ByLayer
370
18
48
1
60
0
100
AcDbSpline
70
4
71
2
72
6
73
3
40
0
40
0
40
0
40
1
40
1
40
1
41
1
10
51.0594420787331
20
2.42301452646126
30
0
41
1
10
51.0412295478739
20
2.4197578828622
30
0
41
1
10
51.0183251931584
20
2.42310723057741
30
0
0
SPLINE
5
1DA
100
AcDbEntity
8
1
62
256
6
ByLayer
370
18
48
1
60
0
100
AcDbSpline
70
4
71
1
72
4
73
2
40
0
40
0
40
1
40
1
41
1
10
49.6188592275024
20
-2.47259189127075
30
0
41
1
10
49.6871256396503
20
-2.59013580642522
30
0
0
SPLINE
5
1DB
100
AcDbEntity
8
1
62
256
6
ByLayer
370
18
48
1
60
0
100
AcDbSpline
70
4
71
3
72
11
73
7
40
0
40
0
40
0
40
0
40
0.24458757245779
40
0.49930868561247
40
0.754279520065206
40
1
40
1
40
1
40
1
41
1
10
49.4032603054257
20
-2.47217569062607
30
0
41
1
10
49.4127889489959
20
-2.45489112435149
30
0
41
1
10
49.4396396133965
20
-2.42865227292546
30
0
41
1
10
49.5147159233123
20
-2.40618843810518
30
0
41
1
10
49.5897882023476
20
-2.43370300440972
30
0
41
1
10
49.6165300463539
20
-2.46332880944743
30
0
41
1
10
49.6259747374182
20
-2.48233176527219
30
0
0
SPLINE
5
1DC
100
AcDbEntity
8
1
62
256
6
ByLayer
370
18
48
1
60
0
100
AcDbSpline
70
4
71
3
72
11
73
7
40
0
40
0
40
0
40
0
40
0.248910705522537
40
0.503315202832878
40
0.756068232273454
40
1
40
1
40
1
40
1
41
1
10
55.4031235631978
20
-2.47204193933933
30
0
41
1
10
55.411973668491
20
-2.45543679882479
30
0
41
1
10
55.43771385166
20
-2.43033216716043
30
0
41
1
10
55.5118647601132
20
-2.40666803141323
30
0
41
1
10
55.5862950798739
20
-2.43206387870342
30
0
41
1
10
55.6123055449937
20
-2.4590840519088
30
0
41
1
10
55.6214101807905
20
-2.4765652642277
30
0
0
SPLINE
5
1DD
100
AcDbEntity
8
1
62
256
6
ByLayer
370
18
48
1
60
0
100
AcDbSpline
70
4
71
2
72
6
73
3
40
0
40
0
40
0
40
1
40
1
40
1
41
1
10
51.4549389102613
20
3.05152480623758
30
0
41
1
10
51.2872121169838
20
2.76236474252363
30
0
41
1
10
51.1187160217395
20
2.47244007624551
30
0
0
SPLINE
5
1DE
100
AcDbEntity
8
1
62
256
6
ByLayer
370
18
48
1
60
0
100
AcDbSpline
70
4
71
2
72
6
73
3
40
0
40
0
40
0
40
1
40
1
40
1
41
1
10
51.9031272051723
20
2.47225048443721
30
0
41
1
10
51.7362442148415
20
2.75884897819674
30
0
41
1
10
51.5695823383436
20
3.04606015462136
30
0
0
SPLINE
5
1DF
100
AcDbEntity
8
1
62
256
6
ByLayer
370
18
48
1
60
0
100
AcDbSpline
70
4
71
2
72
6
73
3
40
0
40
0
40
0
40
1
40
1
40
1
41
1
10
49.1876581797614
20
-2.84297797097347
30
0
41
1
10
49.2953961985455
20
-2.65744160290501
30
0
41
1
10
49.4033742697007
20
-2.47197792901827
30
0
0
SPLINE
5
1E0
100
AcDbEntity
8
1
62
256
6
ByLayer
370
18
48
1
60
0
100
AcDbSpline
70
4
71
2
72
6
73
3
40
0
40
0
40
0
40
1
40
1
40
1
41
1
10
55.183565192687
20
-2.84963145624502
30
0
41
1
10
55.2926870697551
20
-2.66169727406813
30
0
41
1
10
55.4019100603344
20
-2.47405335439092
30
0
0
SPLINE
5
1E1
100
AcDbEntity
8
1
62
256
6
ByLayer
370
18
48
1
60
0
100
AcDbSpline
70
4
71
3
72
11
73
7
40
0
40
0
40
0
40
0
40
0.247229092658838
40
0.499897120784194
40
0.752688761571404
40
1
40
1
40
1
40
1
41
1
10
52.1180746854519
20
2.47114269180707
30
0
41
1
10
52.109491211395
20
2.45512280665872
30
0
41
1
10
52.0843349802647
20
2.43077123221278
30
0
41
1
10
52.0106792720291
20
2.40689215497312
30
0
41
1
10
51.9370683454218
20
2.43115932343969
30
0
41
1
10
51.9118787856372
20
2.45581621607255
30
0
41
1
10
51.9032769597917
20
2.47199467262405
30
0
0
SPLINE
5
1E2
100
AcDbEntity
8
1
62
256
6
ByLayer
370
18
48
1
60
0
100
AcDbSpline
70
4
71
2
72
6
73
3
40
0
40
0
40
0
40
1
40
1
40
1
41
1
10
48.6198839792257
20
-2.47417600743717
30
0
41
1
10
48.7111791376666
20
-2.63130194967925
30
0
41
1
10
48.8024480054578
20
-2.78858736666572
30
0
0
SPLINE
5
1E3
100
AcDbEntity
8
1
62
256
6
ByLayer
370
18
48
1
60
0
100
AcDbSpline
70
4
71
1
72
4
73
2
40
0
40
0
40
1
40
1
41
1
10
54.9115751969179
20
-2.93352210160157
30
0
41
1
10
55.1811336108926
20
-2.85361379865051
30
0
0
SPLINE
5
1E4
100
AcDbEntity
8
1
62
256
6
ByLayer
370
18
48
1
60
0
100
AcDbSpline
70
4
71
2
72
6
73
3
40
0
40
0
40
0
40
1
40
1
40
1
41
1
10
54.6187031191416
20
-2.47203942888493
30
0
41
1
10
54.7426567206456
20
-2.68522452846199
30
0
41
1
10
54.8663557090134
20
-2.89856466398058
30
0
0
SPLINE
5
1E5
100
AcDbEntity
8
1
62
256
6
ByLayer
370
18
48
1
60
0
100
AcDbSpline
70
4
71
3
72
11
73
7
40
0
40
0
40
0
40
0
40
0.245387318091618
40
0.498518242612529
40
0.752283568402566
40
1
40
1
40
1
40
1
41
1
10
48.4006241925725
20
-2.47612643193759
30
0
41
1
10
48.4096412417313
20
-2.4587468626851
30
0
41
1
10
48.4355419612181
20
-2.43198070208808
30
0
41
1
10
48.5098283856287
20
-2.40661094426289
30
0
41
1
10
48.5840351301484
20
-2.43029573307982
30
0
41
1
10
48.6097412064927
20
-2.45545003954453
30
0
41
1
10
48.6185975137733
20
-2.47204920705835
30
0
0
SPLINE
5
1E6
100
AcDbEntity
8
1
62
256
6
ByLayer
370
18
48
1
60
0
100
AcDbSpline
70
4
71
3
72
11
73
7
40
0
40
0
40
0
40
0
40
0.243975141807055
40
0.498087825011163
40
0.753003153929525
40
1
40
1
40
1
40
1
41
1
10
54.3973679126205
20
-2.48067210887672
30
0
41
1
10
54.4068025581302
20
-2.46205132417813
30
0
41
1
10
54.4334427990354
20
-2.43301855459822
30
0
41
1
10
54.5082951671047
20
-2.40621324132673
30
0
41
1
10
54.5830762079702
20
-2.42914071996123
30
0
41
1
10
54.6094859754091
20
-2.45499484478981
30
0
41
1
10
54.6187308561648
20
-2.47208691187421
30
0
0
SPLINE
5
1E7
100
AcDbEntity
8
1
62
256
6
ByLayer
370
18
48
1
60
0
100
AcDbSpline
70
4
71
2
72
6
73
3
40
0
40
0
40
0
40
1
40
1
40
1
41
1
10
48.2680690539493
20
-2.70428734231686
30
0
41
1
10
48.3356204128771
20
-2.58808608531564
30
0
41
1
10
48.4032593597638
20
-2.4719389503467
30
0
0
SPLINE
5
1E8
100
AcDbEntity
8
1
62
256
6
ByLayer
370
18
48
1
60
0
100
AcDbSpline
70
4
71
2
72
6
73
3
40
0
40
0
40
0
40
1
40
1
40
1
41
1
10
46.9067950010577
20
2.46547935206982
30
0
41
1
10
46.893162476178
20
2.48884752436862
30
0
41
1
10
46.8795310852393
20
2.51222253464272
30
0
0
SPLINE
5
1E9
100
AcDbEntity
8
1
62
256
6
ByLayer
370
18
48
1
60
0
100
AcDbSpline
70
4
71
2
72
6
73
3
40
0
40
0
40
0
40
1
40
1
40
1
41
1
10
52.4524138611862
20
3.04717940968504
30
0
41
1
10
52.2859930496985
20
2.76004897480703
30
0
41
1
10
52.1194065427478
20
2.47341387013608
30
0
0
SPLINE
5
1EA
100
AcDbEntity
8
1
62
256
6
ByLayer
370
18
48
1
60
0
100
AcDbSpline
70
4
71
2
72
6
73
3
40
0
40
0
40
0
40
1
40
1
40
1
41
1
10
53.0057731274288
20
2.42330849016099
30
0
41
1
10
52.9321836872228
20
2.41216173286938
30
0
41
1
10
52.9059639158515
20
2.46716635747424
30
0
0
SPLINE
5
1EB
100
AcDbEntity
8
1
62
256
6
ByLayer
370
18
48
1
60
0
100
AcDbSpline
70
4
71
2
72
6
73
3
40
0
40
0
40
0
40
1
40
1
40
1
41
1
10
52.9015933716976
20
2.47494265994706
30
0
41
1
10
52.7336294706358
20
2.76350287484905
30
0
41
1
10
52.5662321463462
20
3.05191373447573
30
0
0
SPLINE
5
1EC
100
AcDbEntity
8
1
62
256
6
ByLayer
370
18
48
1
60
0
100
AcDbSpline
70
4
71
2
72
6
73
3
40
0
40
0
40
0
40
1
40
1
40
1
41
1
10
46.9866619538122
20
2.42246889884112
30
0
41
1
10
46.9245279378346
20
2.42412537552593
30
0
41
1
10
46.9090428330413
20
2.46058021907723
30
0
0
SPLINE
5
1ED
100
AcDbEntity
8
1
62
256
6
ByLayer
370
18
48
1
60
0
100
AcDbSpline
70
4
71
2
72
6
73
3
40
0
40
0
40
0
40
1
40
1
40
1
41
1
10
47.6186781038105
20
-2.472291265248
30
0
41
1
10
47.6629023078366
20
-2.54836490894317
30
0
41
1
10
47.7070946272231
20
-2.62446039439578
30
0
0
SPLINE
5
1EE
100
AcDbEntity
8
1
62
256
6
ByLayer
370
18
48
1
60
0
100
AcDbSpline
70
4
71
2
72
6
73
3
40
0
40
0
40
0
40
1
40
1
40
1
41
1
10
47.5794545049862
20
-2.42766345256828
30
0
41
1
10
47.586593793911
20
-2.4302165119966
30
0
41
1
10
47.5913841915527
20
-2.43177267728578
30
0
0
SPLINE
5
1EF
100
AcDbEntity
8
1
62
256
6
ByLayer
370
18
48
1
60
0
100
AcDbSpline
70
4
71
1
72
4
73
2
40
0
40
0
40
1
40
1
41
1
10
47.5996062533827
20
-2.43409113339837
30
0
41
1
10
47.6035880039177
20
-2.43521391974124
30
0
0
SPLINE
5
1F0
100
AcDbEntity
8
1
62
256
6
ByLayer
370
18
48
1
60
0
100
AcDbSpline
70
4
71
1
72
4
73
2
40
0
40
0
40
1
40
1
41
1
10
54.2677124312395
20
-2.70531395697102
30
0
41
1
10
54.4033119088687
20
-2.47220172096684
30
0
0
SPLINE
5
1F1
100
AcDbEntity
8
1
62
256
6
ByLayer
370
18
48
1
60
0
100
AcDbSpline
70
4
71
2
72
6
73
3
40
0
40
0
40
0
40
1
40
1
40
1
41
1
10
53.6129507378557
20
-2.46093713871102
30
0
41
1
10
53.7792749685453
20
-2.74604785981828
30
0
41
1
10
53.9455055906668
20
-3.03196630438998
30
0
0
SPLINE
5
1F2
100
AcDbEntity
8
1
62
256
6
ByLayer
370
18
48
1
60
0
100
AcDbSpline
70
4
71
2
72
6
73
3
40
0
40
0
40
0
40
1
40
1
40
1
41
1
10
56.4248892321477
20
-2.43026420400295
30
0
41
1
10
56.42899828613
20
-2.43110243892326
30
0
41
1
10
56.4438583514766
20
-2.42624869580467
30
0
0
SPLINE
5
1F3
100
AcDbEntity
8
1
62
256
6
ByLayer
370
18
48
1
60
0
100
AcDbSpline
70
4
71
1
72
4
73
2
40
0
40
0
40
1
40
1
41
1
10
55.7688375018628
20
-2.67923962676889
30
0
41
1
10
56.3669837568062
20
-2.50193387367219
30
0
0
LINE
5
81
100
AcDbEntity
8
80
62
256
6
ByLayer
370
18
48
1
60
0
100
AcDbLine
10
0
20
0
30
0
11
-5
21
0
31
0
39
0
210
0
220
0
230
1
0
LINE
5
82
100
AcDbEntity
8
4
62
256
6
ByLayer
370
18
48
0.05
60
0
100
AcDbLine
10
0
20
0
30
0
11
57.23
21
0
31
0
39
0
210
0
220
0
230
1
0
LINE
5
84
100
AcDbEntity
8
81
62
256
6
ByLayer
370
18
48
1
60
0
100
AcDbLine
10
57.23
20
0
30
0
11
62.23
21
0
31
0
39
0
210
0
220
0
230
1
0
LINE
5
85
100
AcDbEntity
8
SK4
62
256
6
ByLayer
370
18
48
0.05
60
0
100
AcDbLine
10
-22.87
20
0
30
0
11
57.23
21
0
31
0
39
0
210
0
220
0
230
1
0
LINE
5
87
100
AcDbEntity
8
1
62
256
6
ByLayer
370
18
48
1
60
0
100
AcDbLine
10
0
20
3.2385
30
0
11
0
21
-3.2385
31
0
39
0
210
0
220
0
230
1
0
LINE
5
88
100
AcDbEntity
8
1
62
256
6
ByLayer
370
18
48
1
60
0
100
AcDbLine
10
55.622511
20
-2.478103
30
0
11
55.618671
21
-2.472223
31
0
39
0
210
0
220
0
230
1
0
LINE
5
89
100
AcDbEntity
8
1
62
256
6
ByLayer
370
18
48
1
60
0
100
AcDbLine
10
48.403331
20
-2.471816
30
0
11
48.399061
21
-2.478292
31
0
39
0
210
0
220
0
230
1
0
LINE
5
8A
100
AcDbEntity
8
1
62
256
6
ByLayer
370
18
48
1
60
0
100
AcDbLine
10
46.13
20
2.41513
30
0
11
46.13
21
2.198638
31
0
39
0
210
0
220
0
230
1
0
LINE
5
8B
100
AcDbEntity
8
1
62
256
6
ByLayer
370
18
48
1
60
0
100
AcDbLine
10
52.90455
20
2.469887
30
0
11
52.901572
21
2.474976
31
0
39
0
210
0
220
0
230
1
0
LINE
5
8C
100
AcDbEntity
8
1
62
256
6
ByLayer
370
18
48
1
60
0
100
AcDbLine
10
46.13
20
-0.629607
30
0
11
46.13
21
-1.964844
31
0
39
0
210
0
220
0
230
1
0
LINE
5
8D
100
AcDbEntity
8
1
62
256
6
ByLayer
370
18
48
1
60
0
100
AcDbLine
10
50.69757
20
0.927323
30
0
11
50.69757
21
0.337714
31
0
39
0
210
0
220
0
230
1
0
LINE
5
8E
100
AcDbEntity
8
1
62
256
6
ByLayer
370
18
48
1
60
0
100
AcDbLine
10
57.23
20
2.09
30
0
11
57.23
21
2.089299
31
0
39
0
210
0
220
0
230
1
0
LINE
5
8F
100
AcDbEntity
8
1
62
256
6
ByLayer
370
13
48
1
60
0
100
AcDbLine
10
46.110727
20
2.403549
30
0
11
46.110727
21
2.195988
31
0
39
0
210
0
220
0
230
1
0
LINE
5
90
100
AcDbEntity
8
1
62
256
6
ByLayer
370
13
48
1
60
0
100
AcDbLine
10
45.647192
20
2.275
30
0
11
45.647192
21
2.206153
31
0
39
0
210
0
220
0
230
1
0
LINE
5
91
100
AcDbEntity
8
1
62
256
6
ByLayer
370
13
48
1
60
0
100
AcDbLine
10
31.226238
20
-2.275
30
0
11
31.226238
21
2.275
31
0
39
0
210
0
220
0
230
1
0
LINE
5
92
100
AcDbEntity
8
1
62
256
6
ByLayer
370
13
48
1
60
0
100
AcDbLine
10
45.647192
20
-1.584101
30
0
11
45.647192
21
-0.242845
31
0
39
0
210
0
220
0
230
1
0
LINE
5
93
100
AcDbEntity
8
1
62
256
6
ByLayer
370
13
48
1
60
0
100
AcDbLine
10
46.110727
20
-0.613414
30
0
11
46.110727
21
-1.944171
31
0
39
0
210
0
220
0
230
1
0
LINE
5
94
100
AcDbEntity
8
1
62
256
6
ByLayer
370
18
48
1
60
0
100
AcDbLine
10
57.23
20
0.267568
30
0
11
57.23
21
-1.091536
31
0
39
0
210
0
220
0
230
1
0
LINE
5
95
100
AcDbEntity
8
1
62
256
6
ByLayer
370
13
48
1
60
0
100
AcDbLine
10
31.035225
20
2.291711
30
0
11
31.035225
21
-2.291711
31
0
39
0
210
0
220
0
230
1
0
LINE
5
96
100
AcDbEntity
8
1
62
256
6
ByLayer
370
18
48
1
60
0
100
AcDbLine
10
25.66572
20
3.2385
30
0
11
25.66572
21
-3.2385
31
0
39
0
210
0
220
0
230
1
0
LINE
5
97
100
AcDbEntity
8
SK1
62
256
6
ByLayer
370
18
48
1
60
0
100
AcDbLine
10
-22.87
20
2.10896
30
0
11
-22.87
21
-2.10896
31
0
39
0
210
0
220
0
230
1
0
LINE
5
99
100
AcDbEntity
8
SK1
62
256
6
ByLayer
370
18
48
1
60
0
100
AcDbLine
10
-15
20
1.94551
30
0
11
-15
21
-1.94551
31
0
39
0
210
0
220
0
230
1
0
LINE
5
9A
100
AcDbEntity
8
SK1
62
256
6
ByLayer
370
18
48
1
60
0
100
AcDbLine
10
-15
20
2.425
30
0
11
-14.31604
21
3.10896
31
0
39
0
210
0
220
0
230
1
0
LINE
5
9B
100
AcDbEntity
8
SK1
62
256
6
ByLayer
370
18
48
1
60
0
100
AcDbLine
10
-21.87
20
2.425
30
0
11
-15
21
2.425
31
0
39
0
210
0
220
0
230
1
0
LINE
5
9C
100
AcDbEntity
8
SK1
62
256
6
ByLayer
370
18
48
1
60
0
100
AcDbLine
10
-21.87
20
1.94551
30
0
11
-21.87
21
2.425
31
0
39
0
210
0
220
0
230
1
0
LINE
5
9D
100
AcDbEntity
8
SK1
62
256
6
ByLayer
370
18
48
1
60
0
100
AcDbLine
10
-15
20
1.94551
30
0
11
-21.87
21
1.94551
31
0
39
0
210
0
220
0
230
1
0
LINE
5
9E
100
AcDbEntity
8
SK1
62
256
6
ByLayer
370
18
48
1
60
0
100
AcDbLine
10
-21.87
20
-1.94551
30
0
11
-15
21
-1.94551
31
0
39
0
210
0
220
0
230
1
0
LINE
5
9F
100
AcDbEntity
8
SK1
62
256
6
ByLayer
370
18
48
1
60
0
100
AcDbLine
10
-21.87
20
-2.425
30
0
11
-21.87
21
-1.94551
31
0
39
0
210
0
220
0
230
1
0
LINE
5
A0
100
AcDbEntity
8
SK1
62
256
6
ByLayer
370
18
48
1
60
0
100
AcDbLine
10
-15
20
-2.425
30
0
11
-21.87
21
-2.425
31
0
39
0
210
0
220
0
230
1
0
LINE
5
A1
100
AcDbEntity
8
SK1
62
256
6
ByLayer
370
18
48
1
60
0
100
AcDbLine
10
-15
20
-2.425
30
0
11
-14.31604
21
-3.10896
31
0
39
0
210
0
220
0
230
1
0
LINE
5
A2
100
AcDbEntity
8
SK1
62
256
6
ByLayer
370
18
48
1
60
0
100
AcDbLine
10
0
20
3.2385
30
0
11
0
21
-3.2385
31
0
39
0
210
0
220
0
230
1
0
LINE
5
A3
100
AcDbEntity
8
SK1
62
256
6
ByLayer
370
18
48
1
60
0
100
AcDbLine
10
-14.213
20
3.10896
30
0
11
-14.213
21
-3.10896
31
0
39
0
210
0
220
0
230
1
0
LINE
5
A4
100
AcDbEntity
8
SK1
62
256
6
ByLayer
370
18
48
1
60
0
100
AcDbLine
10
-14.08346
20
-3.2385
30
0
11
-14.08346
21
3.2385
31
0
39
0
210
0
220
0
230
1
0
LINE
5
A5
100
AcDbEntity
8
1
62
256
6
ByLayer
370
18
48
1
60
0
100
AcDbLine
10
49.898198
20
-2.944716
30
0
11
50.052073
21
-2.966341
31
0
39
0
210
0
220
0
230
1
0
LINE
5
A6
100
AcDbEntity
8
1
62
256
6
ByLayer
370
18
48
1
60
0
100
AcDbLine
10
47.861077
20
-2.658417
30
0
11
48.251738
21
-2.713321
31
0
39
0
210
0
220
0
230
1
0
LINE
5
A7
100
AcDbEntity
8
1
62
256
6
ByLayer
370
18
48
1
60
0
100
AcDbLine
10
53.965215
20
-3.05706
30
0
11
54.056174
21
-3.05706
31
0
39
0
210
0
220
0
230
1
0
LINE
5
A8
100
AcDbEntity
8
1
62
256
6
ByLayer
370
18
48
1
60
0
100
AcDbLine
10
25.66572
20
3.2385
30
0
11
0
21
3.2385
31
0
39
0
210
0
220
0
230
1
0
LINE
5
A9
100
AcDbEntity
8
1
62
256
6
ByLayer
370
18
48
1
60
0
100
AcDbLine
10
0
20
-3.2385
30
0
11
25.66572
21
-3.2385
31
0
39
0
210
0
220
0
230
1
0
LINE
5
AA
100
AcDbEntity
8
1
62
256
6
ByLayer
370
18
48
1
60
0
100
AcDbLine
10
48.812078
20
-2.792072
30
0
11
49.178607
21
-2.843584
31
0
39
0
210
0
220
0
230
1
0
LINE
5
AB
100
AcDbEntity
8
1
62
256
6
ByLayer
370
18
48
1
60
0
100
AcDbLine
10
46.867126
20
2.518726
30
0
11
46.13
21
2.41513
31
0
39
0
210
0
220
0
230
1
0
LINE
5
AC
100
AcDbEntity
8
1
62
256
6
ByLayer
370
18
48
1
60
0
100
AcDbLine
10
57.23
20
2.09
30
0
11
57.155026
21
2.164974
31
0
39
0
210
0
220
0
230
1
0
LINE
5
AD
100
AcDbEntity
8
1
62
256
6
ByLayer
370
18
48
1
60
0
100
AcDbLine
10
51.556136
20
3.05706
30
0
11
51.465284
21
3.05706
31
0
39
0
210
0
220
0
230
1
0
LINE
5
AE
100
AcDbEntity
8
1
62
256
6
ByLayer
370
18
48
1
60
0
100
AcDbLine
10
46.13
20
2.41513
30
0
11
46.110727
21
2.403549
31
0
39
0
210
0
220
0
230
1
0
LINE
5
AF
100
AcDbEntity
8
1
62
256
6
ByLayer
370
18
48
1
60
0
100
AcDbLine
10
52.556237
20
3.05706
30
0
11
52.465342
21
3.05706
31
0
39
0
210
0
220
0
230
1
0
LINE
5
B0
100
AcDbEntity
8
1
62
256
6
ByLayer
370
18
48
1
60
0
100
AcDbLine
10
31.226238
20
-2.275
30
0
11
37.666321
21
-2.275
31
0
39
0
210
0
220
0
230
1
0
LINE
5
B1
100
AcDbEntity
8
1
62
256
6
ByLayer
370
18
48
1
60
0
100
AcDbLine
10
41.868872
20
-2.275
30
0
11
43.799371
21
-2.275
31
0
39
0
210
0
220
0
230
1
0
LINE
5
B2
100
AcDbEntity
8
1
62
256
6
ByLayer
370
18
48
1
60
0
100
AcDbLine
10
45.647192
20
2.275
30
0
11
44.926844
21
2.275
31
0
39
0
210
0
220
0
230
1
0
LINE
5
B3
100
AcDbEntity
8
1
62
256
6
ByLayer
370
18
48
1
60
0
100
AcDbLine
10
40.73282
20
2.275
30
0
11
38.808388
21
2.275
31
0
39
0
210
0
220
0
230
1
0
LINE
5
B4
100
AcDbEntity
8
1
62
256
6
ByLayer
370
18
48
1
60
0
100
AcDbLine
10
35.178522
20
2.275
30
0
11
31.226238
21
2.275
31
0
39
0
210
0
220
0
230
1
0
LINE
5
B5
100
AcDbEntity
8
1
62
256
6
ByLayer
370
18
48
1
60
0
100
AcDbLine
10
31.035225
20
2.291711
30
0
11
25.66572
21
3.2385
31
0
39
0
210
0
220
0
230
1
0
LINE
5
B6
100
AcDbEntity
8
1
62
256
6
ByLayer
370
18
48
1
60
0
100
AcDbLine
10
25.66572
20
-3.2385
30
0
11
31.035225
21
-2.291711
31
0
39
0
210
0
220
0
230
1
0
LINE
5
B7
100
AcDbEntity
8
SK1
62
256
6
ByLayer
370
18
48
1
60
0
100
AcDbLine
10
-22.87
20
-2.10896
30
0
11
-22.55396
21
-2.425
31
0
39
0
210
0
220
0
230
1
0
LINE
5
B8
100
AcDbEntity
8
SK1
62
256
6
ByLayer
370
18
48
1
60
0
100
AcDbLine
10
-22.55396
20
2.425
30
0
11
-22.87
21
2.10896
31
0
39
0
210
0
220
0
230
1
0
LINE
5
B9
100
AcDbEntity
8
SK1
62
256
6
ByLayer
370
18
48
1
60
0
100
AcDbLine
10
-14.213
20
3.10896
30
0
11
-14.31604
21
3.10896
31
0
39
0
210
0
220
0
230
1
0
LINE
5
BA
100
AcDbEntity
8
SK1
62
256
6
ByLayer
370
18
48
1
60
0
100
AcDbLine
10
-14.31604
20
-3.10896
30
0
11
-14.213
21
-3.10896
31
0
39
0
210
0
220
0
230
1
0
LINE
5
BB
100
AcDbEntity
8
SK1
62
256
6
ByLayer
370
18
48
1
60
0
100
AcDbLine
10
0
20
3.2385
30
0
11
-14.08346
21
3.2385
31
0
39
0
210
0
220
0
230
1
0
LINE
5
BC
100
AcDbEntity
8
SK1
62
256
6
ByLayer
370
18
48
1
60
0
100
AcDbLine
10
-14.08346
20
-3.2385
30
0
11
0
21
-3.2385
31
0
39
0
210
0
220
0
230
1
0
LINE
5
BD
100
AcDbEntity
8
SK1
62
256
6
ByLayer
370
18
48
1
60
0
100
AcDbLine
10
-14.213
20
-3.10896
30
0
11
-14.08346
21
-3.2385
31
0
39
0
210
0
220
0
230
1
0
LINE
5
BE
100
AcDbEntity
8
SK1
62
256
6
ByLayer
370
18
48
1
60
0
100
AcDbLine
10
-14.08346
20
3.2385
30
0
11
-14.213
21
3.10896
31
0
39
0
210
0
220
0
230
1
0
LINE
5
BF
100
AcDbEntity
8
SK2
62
256
6
ByLayer
370
18
48
1
60
0
100
AcDbLine
10
13.79113
20
26.337127
30
0
11
13.79113
21
-10.7385
31
0
39
0
210
0
220
0
230
1
0
LINE
5
C1
100
AcDbEntity
8
1
62
256
6
ByLayer
370
18
48
1
60
1
100
AcDbLine
10
13.79113
20
3.2385
30
0
11
13.330346
21
6.738498
31
0
39
0
210
0
220
0
230
1
0
LINE
5
C2
100
AcDbEntity
8
1
62
256
6
ByLayer
370
18
48
1
60
1
100
AcDbLine
10
13.330346
20
6.738498
30
0
11
14.251914
21
6.738502
31
0
39
0
210
0
220
0
230
1
0
LINE
5
C3
100
AcDbEntity
8
1
62
256
6
ByLayer
370
18
48
1
60
1
100
AcDbLine
10
14.251914
20
6.738502
30
0
11
13.79113
21
3.2385
31
0
39
0
210
0
220
0
230
1
0
LINE
5
C4
100
AcDbEntity
8
1
62
256
6
ByLayer
370
18
48
1
60
1
100
AcDbLine
10
13.79113
20
-3.2385
30
0
11
14.251914
21
-6.738498
31
0
39
0
210
0
220
0
230
1
0
LINE
5
C5
100
AcDbEntity
8
1
62
256
6
ByLayer
370
18
48
1
60
1
100
AcDbLine
10
14.251914
20
-6.738498
30
0
11
13.330346
21
-6.738502
31
0
39
0
210
0
220
0
230
1
0
LINE
5
C6
100
AcDbEntity
8
1
62
256
6
ByLayer
370
18
48
1
60
1
100
AcDbLine
10
13.330346
20
-6.738502
30
0
11
13.79113
21
-3.2385
31
0
39
0
210
0
220
0
230
1
0
LINE
5
C7
100
AcDbEntity
8
2
62
256
6
ByLayer
370
18
48
1
60
0
100
AcDbLine
10
57.13
20
-40.55706
30
0
11
-22.87
21
-40.55706
31
0
39
0
210
0
220
0
230
1
0
LINE
5
C9
100
AcDbEntity
8
2
62
256
6
ByLayer
370
18
48
1
60
0
100
AcDbLine
10
-22.87
20
-3.69646
30
0
11
-22.87
21
-42.55706
31
0
39
0
210
0
220
0
230
1
0
LINE
5
CA
100
AcDbEntity
8
2
62
256
6
ByLayer
370
18
48
1
60
0
100
AcDbLine
10
57.13
20
-4.64456
30
0
11
57.13
21
-42.55706
31
0
39
0
210
0
220
0
230
1
0
LINE
5
CB
100
AcDbEntity
8
1
62
256
6
ByLayer
370
18
48
1
60
1
100
AcDbLine
10
-22.87
20
-40.55706
30
0
11
-19.370002
21
-40.096276
31
0
39
0
210
0
220
0
230
1
0
LINE
5
CC
100
AcDbEntity
8
1
62
256
6
ByLayer
370
18
48
1
60
1
100
AcDbLine
10
-19.370002
20
-40.096276
30
0
11
-19.369998
21
-41.017844
31
0
39
0
210
0
220
0
230
1
0
LINE
5
CD
100
AcDbEntity
8
1
62
256
6
ByLayer
370
18
48
1
60
1
100
AcDbLine
10
-19.369998
20
-41.017844
30
0
11
-22.87
21
-40.55706
31
0
39
0
210
0
220
0
230
1
0
LINE
5
CE
100
AcDbEntity
8
1
62
256
6
ByLayer
370
18
48
1
60
1
100
AcDbLine
10
57.13
20
-40.55706
30
0
11
53.630002
21
-41.017844
31
0
39
0
210
0
220
0
230
1
0
LINE
5
CF
100
AcDbEntity
8
1
62
256
6
ByLayer
370
18
48
1
60
1
100
AcDbLine
10
53.630002
20
-41.017844
30
0
11
53.629998
21
-40.096276
31
0
39
0
210
0
220
0
230
1
0
LINE
5
D0
100
AcDbEntity
8
1
62
256
6
ByLayer
370
18
48
1
60
1
100
AcDbLine
10
53.629998
20
-40.096276
30
0
11
57.13
21
-40.55706
31
0
39
0
210
0
220
0
230
1
0
LINE
5
1F8
100
AcDbEntity
8
1
62
256
6
ByLayer
370
18
48
1
60
1
100
AcDbLine
10
13.79113
20
3.2385
30
0
11
13.330346
21
6.738498
31
0
39
0
210
0
220
0
230
1
0
LINE
5
1F9
100
AcDbEntity
8
1
62
256
6
ByLayer
370
18
48
1
60
1
100
AcDbLine
10
13.330346
20
6.738498
30
0
11
14.251914
21
6.738502
31
0
39
0
210
0
220
0
230
1
0
LINE
5
1FA
100
AcDbEntity
8
1
62
256
6
ByLayer
370
18
48
1
60
1
100
AcDbLine
10
14.251914
20
6.738502
30
0
11
13.79113
21
3.2385
31
0
39
0
210
0
220
0
230
1
0
LINE
5
1FC
100
AcDbEntity
8
1
62
256
6
ByLayer
370
18
48
1
60
1
100
AcDbLine
10
13.79113
20
-3.2385
30
0
11
14.251914
21
-6.738498
31
0
39
0
210
0
220
0
230
1
0
LINE
5
1FD
100
AcDbEntity
8
1
62
256
6
ByLayer
370
18
48
1
60
1
100
AcDbLine
10
14.251914
20
-6.738498
30
0
11
13.330346
21
-6.738502
31
0
39
0
210
0
220
0
230
1
0
LINE
5
1FE
100
AcDbEntity
8
1
62
256
6
ByLayer
370
18
48
1
60
1
100
AcDbLine
10
13.330346
20
-6.738502
30
0
11
13.79113
21
-3.2385
31
0
39
0
210
0
220
0
230
1
0
LINE
5
201
100
AcDbEntity
8
1
62
256
6
ByLayer
370
18
48
1
60
1
100
AcDbLine
10
-22.87
20
-40.55706
30
0
11
-19.370002
21
-40.096276
31
0
39
0
210
0
220
0
230
1
0
LINE
5
202
100
AcDbEntity
8
1
62
256
6
ByLayer
370
18
48
1
60
1
100
AcDbLine
10
-19.370002
20
-40.096276
30
0
11
-19.369998
21
-41.017844
31
0
39
0
210
0
220
0
230
1
0
LINE
5
203
100
AcDbEntity
8
1
62
256
6
ByLayer
370
18
48
1
60
1
100
AcDbLine
10
-19.369998
20
-41.017844
30
0
11
-22.87
21
-40.55706
31
0
39
0
210
0
220
0
230
1
0
LINE
5
205
100
AcDbEntity
8
1
62
256
6
ByLayer
370
18
48
1
60
1
100
AcDbLine
10
57.13
20
-40.55706
30
0
11
53.630002
21
-41.017844
31
0
39
0
210
0
220
0
230
1
0
LINE
5
206
100
AcDbEntity
8
1
62
256
6
ByLayer
370
18
48
1
60
1
100
AcDbLine
10
53.630002
20
-41.017844
30
0
11
53.629998
21
-40.096276
31
0
39
0
210
0
220
0
230
1
0
LINE
5
207
100
AcDbEntity
8
1
62
256
6
ByLayer
370
18
48
1
60
1
100
AcDbLine
10
53.629998
20
-40.096276
30
0
11
57.13
21
-40.55706
31
0
39
0
210
0
220
0
230
1
0
MTEXT
5
1F4
100
AcDbEntity
8
SK2
62
256
6
ByLayer
370
18
48
1
60
0
100
AcDbMText
10
12.450016
20
10.896938
30
0
210
0
220
0
230
1
1
%%c
40
3
41
0
44
1.084337
50
90
71
7
72
5
7
iso_b_vert
0
MTEXT
5
1F7
100
AcDbEntity
8
SK2
62
256
6
ByLayer
370
18
48
1
60
0
100
AcDbMText
10
12.450016
20
16.8735
30
0
210
0
220
0
230
1
1
\W0.7694;6.477
40
3
41
0
44
1.084337
50
90
71
7
72
5
7
iso_b_vert
0
MTEXT
5
200
100
AcDbEntity
8
2
62
256
6
ByLayer
370
18
48
1
60
0
100
AcDbMText
10
15.497172
20
-39.671946
30
0
210
0
220
0
230
1
1
\W0.6740;80
40
3
41
0
44
1.084337
50
0
71
7
72
5
7
iso_b_vert
0
MTEXT
5
209
100
AcDbEntity
8
SK6
62
256
6
ByLayer
370
18
48
1
60
0
100
AcDbMText
10
-1.512116
20
-82.114886
30
0
210
0
220
0
230
1
1
\W0.7312;T300-MM100AA-M6     C110
40
3
41
0
44
1.084337
50
0
71
7
72
5
7
iso_b_vert
0
HATCH
5
1FB
100
AcDbEntity
8
SK2
62
256
6
ByLayer
370
13
48
1
60
0
100
AcDbHatch
10
0
20
0
30
0
210
0
220
0
230
1
2
ANSI31
70
0
71
0
91
1
92
5
93
3
72
1
10
13.7911299833992
20
3.23850000000002
11
13.3303462418464
21
6.73849830744683
72
1
10
13.3303462418464
20
6.73849830744683
11
14.251913724952
21
6.7385016925532
72
1
10
14.251913724952
20
6.7385016925532
11
13.7911299833992
21
3.23850000000002
97
0
75
0
76
1
52
0
41
0.0062
77
0
78
1
53
45
43
0
44
0
45
-0.0139193969876572
46
0.0139193969876572
79
0
47
0
98
1
10
0
20
0
0
HATCH
5
1FF
100
AcDbEntity
8
SK2
62
256
6
ByLayer
370
13
48
1
60
0
100
AcDbHatch
10
0
20
0
30
0
210
0
220
0
230
1
2
ANSI31
70
0
71
0
91
1
92
5
93
3
72
1
10
13.7911299833992
20
-3.23849999999999
11
14.251913724952
21
-6.7384983074468
72
1
10
14.251913724952
20
-6.7384983074468
11
13.3303462418464
21
-6.73850169255317
72
1
10
13.3303462418464
20
-6.73850169255317
11
13.7911299833992
21
-3.23849999999999
97
0
75
0
76
1
52
0
41
0.0062
77
0
78
1
53
45
43
0
44
0
45
-0.0139193969876572
46
0.0139193969876572
79
0
47
0
98
1
10
0
20
0
0
HATCH
5
204
100
AcDbEntity
8
2
62
256
6
ByLayer
370
13
48
1
60
0
100
AcDbHatch
10
0
20
0
30
0
210
0
220
0
230
1
2
ANSI31
70
0
71
0
91
1
92
5
93
3
72
1
10
-22.87
20
-40.5570602281852
11
-19.3700016925532
21
-40.0962764866324
72
1
10
-19.3700016925532
20
-40.0962764866324
11
-19.3699983074468
21
-41.0178439697379
72
1
10
-19.3699983074468
20
-41.0178439697379
11
-22.87
21
-40.5570602281852
97
0
75
0
76
1
52
0
41
0.0062
77
0
78
1
53
45
43
0
44
0
45
-0.0139193969876572
46
0.0139193969876572
79
0
47
0
98
1
10
0
20
0
0
HATCH
5
208
100
AcDbEntity
8
2
62
256
6
ByLayer
370
13
48
1
60
0
100
AcDbHatch
10
0
20
0
30
0
210
0
220
0
230
1
2
ANSI31
70
0
71
0
91
1
92
5
93
3
72
1
10
57.13
20
-40.5570602281852
11
53.6300016925532
21
-41.0178439697379
72
1
10
53.6300016925532
20
-41.0178439697379
11
53.6299983074468
21
-40.0962764866324
72
1
10
53.6299983074468
20
-40.0962764866324
11
57.13
21
-40.5570602281852
97
0
75
0
76
1
52
0
41
0.0062
77
0
78
1
53
45
43
0
44
0
45
-0.0139193969876572
46
0.0139193969876572
79
0
47
0
98
1
10
0
20
0
0
DIMENSION
5
20C
100
AcDbEntity
8
2
62
256
6
ByLayer
370
18
48
1
60
0
100
AcDbDimension
2
_U0
10
75.66294
20
-3.05706
30
0
11
75.66294
21
20.55706
31
0
70
32
71
1
72
1
41
1
210
0
220
0
230
1
3
Standard
100
AcDbAlignedDimension
13
57.13
23
3.05706
33
0
14
57.13
24
-3.05706
34
0
50
90
100
AcDbRotatedDimension
1001
ACAD
1000
DSTYLE
1002
{
1070
   371
1070
    13
1070
   372
1070
    13
1070
     3
1000

1070
   170
1070
     0
1070
   144
1040
1.0
1070
   277
1070
     2
1070
   284
1070
     8
1070
   278
1070
    46
1070
   146
1040
1.166667
1070
   345
1005
16
1070
   347
1005
16
1070
   346
1005
16
1070
   344
1005
0
1070
   343
1005
0
1070
   172
1070
     1
1070
    76
1070
     0
1070
    75
1070
     0
1070
   282
1070
     0
1070
   281
1070
     0
1070
    71
1070
     0
1070
    74
1070
     0
1070
   279
1070
     0
1070
   173
1070
     1
1070
   340
1005
1F5
1070
   271
1070
     3
1070
   272
1070
     3
1070
    77
1070
     1
1070
    73
1070
     0
1070
   171
1070
     3
1070
   274
1070
     4
1070
   177
1070
     2
1070
   176
1070
     2
1070
   178
1070
     2
1070
    78
1070
     8
1070
    48
1040
-0.1
1070
    41
1040
3.5
1070
   147
1040
1.5
1070
    42
1040
1.5875
1070
    44
1040
2.0
1070
   140
1040
3.0
1002
}
1001
ACAD_DSTYLE_DIM_LINETYPE
1070
   380
1005
16
1001
ACAD_DSTYLE_DIM_EXT1_LINETYPE
1070
   381
1005
16
1001
ACAD_DSTYLE_DIM_EXT2_LINETYPE
1070
   382
1005
16
0
DIMENSION
5
227
100
AcDbEntity
8
SK2
62
256
6
ByLayer
370
18
48
1
60
0
100
AcDbDimension
2
_U1
10
-27.87
20
2.425
30
0
11
-27.87
21
22.856455
31
0
70
32
71
1
72
1
41
1
210
0
220
0
230
1
3
Standard
100
AcDbAlignedDimension
13
-21.87
23
-2.425
33
0
14
-22.553913
24
2.425
34
0
50
90
100
AcDbRotatedDimension
1001
ACAD
1000
DSTYLE
1002
{
1070
   371
1070
    13
1070
   372
1070
    13
1070
     3
1000

1070
   170
1070
     0
1070
   144
1040
1.0
1070
   277
1070
     2
1070
   284
1070
     8
1070
   278
1070
    46
1070
   146
1040
1.166667
1070
   345
1005
16
1070
   347
1005
16
1070
   346
1005
16
1070
   344
1005
0
1070
   343
1005
0
1070
   172
1070
     1
1070
    76
1070
     0
1070
    75
1070
     0
1070
   282
1070
     0
1070
   281
1070
     0
1070
    71
1070
     0
1070
    74
1070
     0
1070
   279
1070
     0
1070
   173
1070
     1
1070
   340
1005
1F5
1070
   271
1070
     3
1070
   272
1070
     3
1070
    77
1070
     1
1070
    73
1070
     0
1070
   171
1070
     3
1070
   274
1070
     4
1070
   177
1070
     2
1070
   176
1070
     2
1070
   178
1070
     2
1070
    78
1070
     8
1070
    48
1040
-0.1
1070
    41
1040
3.5
1070
   147
1040
1.5
1070
    42
1040
1.5875
1070
    44
1040
2.0
1070
   140
1040
3.0
1002
}
1001
ACAD_DSTYLE_DIM_LINETYPE
1070
   380
1005
16
1001
ACAD_DSTYLE_DIM_EXT1_LINETYPE
1070
   381
1005
16
1001
ACAD_DSTYLE_DIM_EXT2_LINETYPE
1070
   382
1005
16
0
DIMENSION
5
241
100
AcDbEntity
8
SK2
62
256
6
ByLayer
370
18
48
1
60
0
100
AcDbDimension
2
_U2
10
54.88
20
12.148496
30
0
11
56.005
21
12.148496
31
0
70
32
71
1
72
1
41
1
210
0
220
0
230
1
3
Standard
100
AcDbAlignedDimension
13
57.13
23
3.05706
33
0
14
54.88
24
0
34
0
50
0
100
AcDbRotatedDimension
1001
ACAD
1000
DSTYLE
1002
{
1070
   371
1070
    13
1070
   372
1070
    13
1070
   170
1070
     0
1070
   144
1040
1.0
1070
   277
1070
     2
1070
   284
1070
     8
1070
   278
1070
    46
1070
   146
1040
1.166667
1070
   345
1005
16
1070
   347
1005
16
1070
   346
1005
16
1070
   344
1005
0
1070
   343
1005
0
1070
   172
1070
     1
1070
    76
1070
     0
1070
    75
1070
     0
1070
   282
1070
     0
1070
   281
1070
     0
1070
    71
1070
     0
1070
    74
1070
     0
1070
   279
1070
     0
1070
   173
1070
     1
1070
   340
1005
1F5
1070
   271
1070
     3
1070
   272
1070
     3
1070
    77
1070
     1
1070
    73
1070
     1
1070
   171
1070
     3
1070
   274
1070
     4
1070
   177
1070
     2
1070
   176
1070
     2
1070
   178
1070
     2
1070
    78
1070
     8
1070
    48
1040
-0.1
1070
    41
1040
3.5
1070
   147
1040
1.5
1070
    42
1040
1.5875
1070
    44
1040
2.0
1070
   140
1040
3.0
1002
}
1001
ACAD_DSTYLE_DIM_LINETYPE
1070
   380
1005
16
1001
ACAD_DSTYLE_DIM_EXT1_LINETYPE
1070
   381
1005
16
1001
ACAD_DSTYLE_DIM_EXT2_LINETYPE
1070
   382
1005
16
0
DIMENSION
5
25B
100
AcDbEntity
8
SK2
62
256
6
ByLayer
370
18
48
1
60
0
100
AcDbDimension
2
_U3
10
46.13
20
-10.05706
30
0
11
50.255
21
-10.05706
31
0
70
32
71
1
72
1
41
1
210
0
220
0
230
1
3
Standard
100
AcDbAlignedDimension
13
57.13
23
-3.05706
33
0
14
46.13
24
-3.05706
34
0
50
0
100
AcDbRotatedDimension
1001
ACAD
1000
DSTYLE
1002
{
1070
   371
1070
    13
1070
   372
1070
    13
1070
   170
1070
     0
1070
   144
1040
1.0
1070
   277
1070
     2
1070
   284
1070
     8
1070
   278
1070
    46
1070
   146
1040
1.166667
1070
   345
1005
16
1070
   347
1005
16
1070
   346
1005
16
1070
   344
1005
0
1070
   343
1005
0
1070
   172
1070
     1
1070
    76
1070
     0
1070
    75
1070
     0
1070
   282
1070
     0
1070
   281
1070
     0
1070
    71
1070
     0
1070
    74
1070
     0
1070
   279
1070
     0
1070
   173
1070
     1
1070
   340
1005
1F5
1070
   271
1070
     1
1070
   272
1070
     3
1070
    77
1070
     1
1070
    73
1070
     1
1070
   171
1070
     3
1070
   274
1070
     4
1070
   177
1070
     2
1070
   176
1070
     2
1070
   178
1070
     2
1070
    78
1070
     8
1070
    48
1040
-0.1
1070
    41
1040
3.5
1070
   147
1040
1.5
1070
    42
1040
1.5875
1070
    44
1040
2.0
1070
   140
1040
3.0
1002
}
1001
ACAD_DSTYLE_DIM_LINETYPE
1070
   380
1005
16
1001
ACAD_DSTYLE_DIM_EXT1_LINETYPE
1070
   381
1005
16
1001
ACAD_DSTYLE_DIM_EXT2_LINETYPE
1070
   382
1005
16
0
DIMENSION
5
274
100
AcDbEntity
8
SK2
62
256
6
ByLayer
370
18
48
1
60
0
100
AcDbDimension
2
_U4
10
31.13
20
-32.55706
30
0
11
44.13
21
-32.55706
31
0
70
32
71
1
72
1
41
1
210
0
220
0
230
1
3
Standard
100
AcDbAlignedDimension
13
57.13
23
-3.05706
33
0
14
31.13
24
-2.275
34
0
50
0
100
AcDbRotatedDimension
1001
ACAD
1000
DSTYLE
1002
{
1070
   371
1070
    13
1070
   372
1070
    13
1070
   170
1070
     0
1070
   144
1040
1.0
1070
   277
1070
     2
1070
   284
1070
     8
1070
   278
1070
    46
1070
   146
1040
1.166667
1070
   345
1005
16
1070
   347
1005
16
1070
   346
1005
16
1070
   344
1005
0
1070
   343
1005
0
1070
   172
1070
     1
1070
    76
1070
     0
1070
    75
1070
     0
1070
   282
1070
     0
1070
   281
1070
     0
1070
    71
1070
     0
1070
    74
1070
     0
1070
   279
1070
     0
1070
   173
1070
     1
1070
   340
1005
1F5
1070
   271
1070
     1
1070
   272
1070
     3
1070
    77
1070
     1
1070
    73
1070
     1
1070
   171
1070
     3
1070
   274
1070
     4
1070
   177
1070
     2
1070
   176
1070
     2
1070
   178
1070
     2
1070
    78
1070
     8
1070
    48
1040
-0.1
1070
    41
1040
3.5
1070
   147
1040
1.5
1070
    42
1040
1.5875
1070
    44
1040
2.0
1070
   140
1040
3.0
1002
}
1001
ACAD_DSTYLE_DIM_LINETYPE
1070
   380
1005
16
1001
ACAD_DSTYLE_DIM_EXT1_LINETYPE
1070
   381
1005
16
1001
ACAD_DSTYLE_DIM_EXT2_LINETYPE
1070
   382
1005
16
0
DIMENSION
5
28C
100
AcDbEntity
8
2
62
256
6
ByLayer
370
18
48
1
60
0
100
AcDbDimension
2
_U5
10
35.03
20
-21.55706
30
0
11
46.08
21
-21.55706
31
0
70
32
71
1
72
1
41
1
210
0
220
0
230
1
3
Standard
100
AcDbAlignedDimension
13
57.13
23
-3.05706
33
0
14
35.03
24
0
34
0
50
0
100
AcDbRotatedDimension
1001
ACAD
1000
DSTYLE
1002
{
1070
   371
1070
    13
1070
   372
1070
    13
1070
   170
1070
     0
1070
   144
1040
1.0
1070
   277
1070
     2
1070
   284
1070
     8
1070
   278
1070
    46
1070
   146
1040
1.166667
1070
   345
1005
16
1070
   347
1005
16
1070
   346
1005
16
1070
   344
1005
0
1070
   343
1005
0
1070
   172
1070
     1
1070
    76
1070
     0
1070
    75
1070
     0
1070
   282
1070
     0
1070
   281
1070
     0
1070
    71
1070
     0
1070
    74
1070
     0
1070
   279
1070
     0
1070
   173
1070
     1
1070
   340
1005
1F5
1070
   271
1070
     1
1070
   272
1070
     3
1070
    77
1070
     1
1070
    73
1070
     1
1070
   171
1070
     3
1070
   274
1070
     4
1070
   177
1070
     2
1070
   176
1070
     2
1070
   178
1070
     2
1070
    78
1070
     8
1070
    48
1040
-0.1
1070
    41
1040
3.5
1070
   147
1040
1.5
1070
    42
1040
1.5875
1070
    44
1040
2.0
1070
   140
1040
3.0
1002
}
1001
ACAD_DSTYLE_DIM_LINETYPE
1070
   380
1005
16
1001
ACAD_DSTYLE_DIM_EXT1_LINETYPE
1070
   381
1005
16
1001
ACAD_DSTYLE_DIM_EXT2_LINETYPE
1070
   382
1005
16
0
ENDSEC
0
SECTION
2
OBJECTS
0
DICTIONARY
5
314
330
0
100
AcDbDictionary
280
0
281
1
3
ACAD_GROUP
350
315
3
ACAD_MLINESTYLE
350
316
0
DICTIONARY
5
315
330
0
100
AcDbDictionary
280
0
281
1
0
DICTIONARY
5
316
330
0
100
AcDbDictionary
280
0
281
1
3
Standard
350
18
0
MLINESTYLE
5
18
330
316
100
AcDbMlineStyle
2
Standard
70
0
3

62
256
51
90
52
90
71
2
49
-0.5
62
256
6
ByLayer
49
0.5
62
256
6
ByLayer
0
RASTERVARIABLES
5
302
330

100
AcDbRasterVariables
90
0
70
1
71
1
72
1
0
ENDSEC
0
EOF
