0
SECTION
2
HEADER
9
$ACADVER
1
AC1015
9
$DWGCODEPAGE
3
ANSI_1252
9
$HANDSEED
5
1e7
9
$ANGBASE
50
0
9
$ANGDIR
70
0
9
$ATTMODE
70
1
9
$AUNITS
70
0
9
$AUPREC
70
0
9
$CECOLOR
62
256
9
$CELTSCALE
40
1
9
$CELTYPE
6
ByLayer
9
$CELWEIGHT
370
18
9
$CLAYER
8
0
9
$CMLJUST
70
0
9
$CMLSCALE
40
1
9
$CMLSTYLE
2
Standard
9
$DIMSTYLE
2
Standard
9
$TEXTSIZE
40
0.2
9
$TEXTSTYLE
7
Standard
9
$LUNITS
70
2
9
$LUPREC
70
4
9
$EXTNAMES
290
1
9
$INSUNITS
70
4
9
$LTSCALE
40
1
9
$LWDISPLAY
290
1
9
$PDMODE
70
0
9
$PDSIZE
40
0
9
$PLINEGEN
70
0
0
ENDSEC
0
SECTION
2
CLASSES
0
CLASS
1
RASTERVARIABLES
2
AcDbRasterVariables
3
ISM
90
0
280
0
281
0
0
ENDSEC
0
SECTION
2
TABLES
0
TABLE
2
VPORT
5
1dd
100
AcDbSymbolTable
0
VPORT
5
1
100
AcDbSymbolTableRecord
100
AcDbViewportTableRecord
2
*Active
70
0
10
0
20
0
11
1
21
1
12
-1
22
1
13
0
23
0
14
0.5
24
0.5
15
10
25
10
16
0
26
0
36
1
17
0
27
0
37
0
0
ENDTAB
0
TABLE
2
LTYPE
5
1de
100
AcDbSymbolTable
0
LTYPE
5
14
100
AcDbSymbolTableRecord
100
AcDbLinetypeTableRecord
70
0
2
ByBlock
3

72
65
73
0
40
0
0
LTYPE
5
15
100
AcDbSymbolTableRecord
100
AcDbLinetypeTableRecord
70
0
2
ByLayer
3

72
65
73
0
40
0
0
LTYPE
5
16
100
AcDbSymbolTableRecord
100
AcDbLinetypeTableRecord
70
0
2
Continuous
3
Solid line
72
65
73
0
40
0
0
LTYPE
5
6E
100
AcDbSymbolTableRecord
100
AcDbLinetypeTableRecord
70
0
2
CENTER
3
____ _ ____ _ ____ _ ____
72
65
73
4
40
47.5
49
22
74
0
49
-8.5
74
0
49
8.5
74
0
49
-8.5
74
0
0
LTYPE
5
6F
100
AcDbSymbolTableRecord
100
AcDbLinetypeTableRecord
70
0
2
DASHED
3
__ __ __ __ __ __ __ __ __
72
65
73
2
40
25.72
49
12.86
74
0
49
-12.86
74
0
0
ENDTAB
0
TABLE
2
LAYER
5
1df
100
AcDbSymbolTable
0
LAYER
5
10
100
AcDbSymbolTableRecord
100
AcDbLayerTableRecord
2
0
70
0
62
7
6
Continuous
290
1
370
-3
390
0
0
LAYER
5
71
100
AcDbSymbolTableRecord
100
AcDbLayerTableRecord
2
81
70
0
62
-3
6
Continuous
290
1
370
-3
390
0
0
LAYER
5
73
100
AcDbSymbolTableRecord
100
AcDbLayerTableRecord
2
80
70
0
62
-6
6
Continuous
290
1
370
-3
390
0
0
LAYER
5
75
100
AcDbSymbolTableRecord
100
AcDbLayerTableRecord
2
1
70
0
62
4
6
Continuous
290
1
370
-3
390
0
0
LAYER
5
7C
100
AcDbSymbolTableRecord
100
AcDbLayerTableRecord
2
4
70
0
62
-2
6
CENTER
290
1
370
-3
390
0
0
LAYER
5
C2
100
AcDbSymbolTableRecord
100
AcDbLayerTableRecord
2
2
70
0
62
7
6
Continuous
290
1
370
-3
390
0
0
LAYER
5
153
100
AcDbSymbolTableRecord
100
AcDbLayerTableRecord
2
Defpoints
70
0
62
7
6
Continuous
290
0
370
-3
390
0
0
LAYER
5
1c9
100
AcDbSymbolTableRecord
100
AcDbLayerTableRecord
2
SK4
70
0
62
2
6
CENTER
290
1
370
-3
390
0
0
LAYER
5
1ca
100
AcDbSymbolTableRecord
100
AcDbLayerTableRecord
2
SK1
70
0
62
4
6
Continuous
290
1
370
-3
390
0
0
LAYER
5
1cb
100
AcDbSymbolTableRecord
100
AcDbLayerTableRecord
2
SK2
70
0
62
7
6
Continuous
290
1
370
-3
390
0
0
LAYER
5
1cc
100
AcDbSymbolTableRecord
100
AcDbLayerTableRecord
2
SK6
70
0
62
5
6
Continuous
290
1
370
-3
390
0
0
ENDTAB
0
TABLE
2
STYLE
5
1e0
100
AcDbSymbolTable
0
STYLE
5
11
100
AcDbSymbolTableRecord
100
AcDbTextStyleTableRecord
2
Standard
3
txt
70
0
71
0
40
0
41
1
42
0
50
0
0
STYLE
5
12F
100
AcDbSymbolTableRecord
100
AcDbTextStyleTableRecord
2
iso_b_vert
3
simplex.shx
70
0
71
0
40
0
41
1
42
0
50
0
0
STYLE
5
130
100
AcDbSymbolTableRecord
100
AcDbTextStyleTableRecord
2
DWGDirectTextStyle
3
simplex
70
0
71
0
40
0
41
1
42
0
50
0
0
ENDTAB
0
TABLE
2
DIMSTYLE
5
1e1
100
AcDbSymbolTable
100
AcDbDimStyleTable
0
DIMSTYLE
105
27
100
AcDbSymbolTableRecord
100
AcDbDimStyleTableRecord
2
Standard
70
0
3
<>
41
0.18
42
0.0625
44
0.18
140
0.18
147
0.09
73
0
74
0
77
1
271
2
275
0
278
52
280
0
340
11
0
ENDTAB
0
TABLE
2
VIEW
5
1e2
100
AcDbSymbolTable
0
ENDTAB
0
TABLE
2
UCS
5
1e3
100
AcDbSymbolTable
0
ENDTAB
0
TABLE
2
APPID
5
1e4
100
AcDbSymbolTable
0
APPID
5
12
100
AcDbSymbolTableRecord
100
AcDbRegAppTableRecord
2
ACAD
70
0
0
APPID
5
14F
100
AcDbSymbolTableRecord
100
AcDbRegAppTableRecord
2
ACAD_DSTYLE_DIMBREAK
70
0
0
APPID
5
188
100
AcDbSymbolTableRecord
100
AcDbRegAppTableRecord
2
ACAD_DSTYLE_DIM_LINETYPE
70
0
0
APPID
5
189
100
AcDbSymbolTableRecord
100
AcDbRegAppTableRecord
2
ACAD_DSTYLE_DIM_EXT1_LINETYPE
70
0
0
APPID
5
18A
100
AcDbSymbolTableRecord
100
AcDbRegAppTableRecord
2
ACAD_DSTYLE_DIM_EXT2_LINETYPE
70
0
0
APPID
5
1C5
100
AcDbSymbolTableRecord
100
AcDbRegAppTableRecord
2
ACAD_MLEADERVER
70
0
0
ENDTAB
0
TABLE
2
BLOCK_RECORD
5
1e5
100
AcDbSymbolTable
0
BLOCK_RECORD
5
1F
100
AcDbSymbolTableRecord
100
AcDbBlockTableRecord
2
*Model_Space
340
0
70
0
0
BLOCK_RECORD
5
1B
100
AcDbSymbolTableRecord
100
AcDbBlockTableRecord
2
*Paper_Space
340
0
70
0
0
BLOCK_RECORD
5
23
100
AcDbSymbolTableRecord
100
AcDbBlockTableRecord
2
*Paper_Space0
340
0
70
0
0
BLOCK_RECORD
5
154
100
AcDbSymbolTableRecord
100
AcDbBlockTableRecord
2
*D1
340
0
70
0
0
BLOCK_RECORD
5
161
100
AcDbSymbolTableRecord
100
AcDbBlockTableRecord
2
_U0
340
0
70
0
0
ENDTAB
0
ENDSEC
0
SECTION
2
BLOCKS
0
BLOCK
5
20
100
AcDbEntity
8
0
100
AcDbBlockBegin
2
*Model_Space
70
0
10
0
20
0
30
0
3
*Model_Space
0
ENDBLK
5
21
100
AcDbEntity
8
0
100
AcDbBlockEnd
0
BLOCK
5
1C
100
AcDbEntity
8
0
100
AcDbBlockBegin
2
*Paper_Space
70
0
10
0
20
0
30
0
3
*Paper_Space
0
ENDBLK
5
1D
100
AcDbEntity
8
0
100
AcDbBlockEnd
0
BLOCK
5
24
100
AcDbEntity
8
0
100
AcDbBlockBegin
2
*Paper_Space0
70
0
10
0
20
0
30
0
3
*Paper_Space0
0
ENDBLK
5
25
100
AcDbEntity
8
0
100
AcDbBlockEnd
0
BLOCK
5
155
100
AcDbEntity
8
0
100
AcDbBlockBegin
2
*D1
70
1
10
0
20
0
30
0
3
*D1
0
LINE
5
157
100
AcDbEntity
8
0
62
256
6
ByLayer
370
-2
48
1
60
0
100
AcDbLine
10
21
20
-4.0876
30
0
11
21
21
-19.1
31
0
39
0
210
0
220
0
230
1
0
LINE
5
158
100
AcDbEntity
8
0
62
256
6
ByLayer
370
-2
48
1
60
0
100
AcDbLine
10
11
20
-4.0876
30
0
11
11
21
-19.1
31
0
39
0
210
0
220
0
230
1
0
LINE
5
159
100
AcDbEntity
8
0
62
256
6
ByLayer
370
-2
48
1
60
0
100
AcDbLine
10
24.5
20
-17.1
30
0
11
28
21
-17.1
31
0
39
0
210
0
220
0
230
1
0
LINE
5
15A
100
AcDbEntity
8
0
62
256
6
ByLayer
370
-2
48
1
60
0
100
AcDbLine
10
7.5
20
-17.1
30
0
11
4
21
-17.1
31
0
39
0
210
0
220
0
230
1
0
SOLID
5
15B
100
AcDbEntity
8
0
62
256
6
ByLayer
370
-1
48
1
60
0
100
AcDbTrace
10
24.5
20
-16.516667
30
0
11
24.5
21
-17.683333
31
0
12
21
22
-17.1
32
0
13
21
23
-17.1
33
0
39
0
210
0
220
0
230
1
0
SOLID
5
15C
100
AcDbEntity
8
0
62
256
6
ByLayer
370
-1
48
1
60
0
100
AcDbTrace
10
7.5
20
-17.683333
30
0
11
7.5
21
-16.516667
31
0
12
11
22
-17.1
32
0
13
11
23
-17.1
33
0
39
0
210
0
220
0
230
1
0
MTEXT
5
15D
100
AcDbEntity
8
0
62
256
6
ByLayer
370
18
48
1
60
0
100
AcDbMText
10
16
20
-10.1
30
0
210
0
220
0
230
1
1
\A1;10
40
3.5
41
0
44
1
50
0
71
5
72
5
7
iso_b_vert
0
POINT
5
15E
100
AcDbEntity
8
Defpoints
62
0
6
ByLayer
370
-1
48
1
60
0
100
AcDbPoint
10
21
20
-2.5001
30
0
39
0
210
0
220
0
230
1
50
360
0
POINT
5
15F
100
AcDbEntity
8
Defpoints
62
0
6
ByLayer
370
-1
48
1
60
0
100
AcDbPoint
10
11
20
-2.5001
30
0
39
0
210
0
220
0
230
1
50
360
0
POINT
5
160
100
AcDbEntity
8
Defpoints
62
0
6
ByLayer
370
-1
48
1
60
0
100
AcDbPoint
10
11
20
-17.1
30
0
39
0
210
0
220
0
230
1
50
360
0
ENDBLK
5
156
100
AcDbEntity
8
0
100
AcDbBlockEnd
0
BLOCK
5
168
100
AcDbEntity
8
0
100
AcDbBlockBegin
2
_U0
70
0
10
0
20
0
30
0
3
_U0
0
MTEXT
5
162
100
AcDbEntity
8
2
62
256
6
ByLayer
370
18
48
1
60
0
100
AcDbMText
10
14.532467
20
-16.067366
30
0
210
0
220
0
230
1
1
\W0.5321;10
40
3.5
41
0
44
1.084337
50
0
71
7
72
5
7
iso_b_vert
0
LINE
5
163
100
AcDbEntity
8
2
62
256
6
ByLayer
370
13
48
1
60
0
100
AcDbLine
10
21
20
-4.0876
30
0
11
21
21
-19.1
31
0
39
0
210
0
220
0
230
1
0
LINE
5
164
100
AcDbEntity
8
2
62
256
6
ByLayer
370
13
48
1
60
0
100
AcDbLine
10
11
20
-4.0876
30
0
11
11
21
-19.1
31
0
39
0
210
0
220
0
230
1
0
LINE
5
165
100
AcDbEntity
8
2
62
256
6
ByLayer
370
13
48
1
60
0
100
AcDbLine
10
21
20
-17.1
30
0
11
11
21
-17.1
31
0
39
0
210
0
220
0
230
1
0
SOLID
5
166
100
AcDbEntity
8
2
62
256
6
ByLayer
370
18
48
1
60
0
100
AcDbTrace
10
21
20
-17.1
30
0
11
17.500002
21
-17.560784
31
0
12
17.499998
22
-16.639216
32
0
13
17.499998
23
-16.639216
33
0
39
0
210
0
220
0
230
1
0
SOLID
5
167
100
AcDbEntity
8
2
62
256
6
ByLayer
370
18
48
1
60
0
100
AcDbTrace
10
11
20
-17.1
30
0
11
14.499998
21
-16.639216
31
0
12
14.500002
22
-17.560784
32
0
13
14.500002
23
-17.560784
33
0
39
0
210
0
220
0
230
1
0
ENDBLK
5
169
100
AcDbEntity
8
0
100
AcDbBlockEnd
0
ENDSEC
0
SECTION
2
ENTITIES
0
ARC
5
D4
100
AcDbEntity
8
1
62
256
6
ByLayer
370
18
48
1
60
0
100
AcDbCircle
39
0
10
3.997679
20
3.5
30
0
40
1
210
0
220
0
230
1
100
AcDbArc
50
240
51
270
0
ARC
5
D5
100
AcDbEntity
8
1
62
256
6
ByLayer
370
18
48
1
60
0
100
AcDbCircle
39
0
10
3.997679
20
-3.5
30
0
40
1
210
0
220
0
230
1
100
AcDbArc
50
90
51
120
0
ELLIPSE
5
D6
100
AcDbEntity
8
1
62
256
6
ByLayer
370
18
48
1
60
0
100
AcDbEllipse
10
13.262045
20
0
30
0
11
4.50146088091237
21
0.867666505577254
31
0
210
0
220
0
230
1
40
0.520853
41
-2.7557072551666
42
-2.32302918005836
0
ELLIPSE
5
D7
100
AcDbEntity
8
1
62
256
6
ByLayer
370
18
48
1
60
0
100
AcDbEllipse
10
13.259564
20
4E-06
30
0
11
13.0122776678799
21
-2.48938080655866
31
0
210
0
220
0
230
1
40
0.017683
41
1.7487116036434
42
1.76841911564219
0
ELLIPSE
5
D8
100
AcDbEntity
8
1
62
256
6
ByLayer
370
18
48
1
60
0
100
AcDbEllipse
10
13.483905
20
0
30
0
11
4.96770667412629
21
-2.4991864244719
31
0
210
0
220
0
230
1
40
0.012838
41
2.22730896591367
42
2.6602558712025
0
ELLIPSE
5
D9
100
AcDbEntity
8
1
62
256
6
ByLayer
370
18
48
1
60
0
100
AcDbEllipse
10
12.931288
20
-1E-06
30
0
11
11.1213044194185
21
0.498784676002942
31
0
210
0
220
0
230
1
40
0.220274
41
-1.77625096623219
42
-1.77165800575009
0
POINT
5
70
100
AcDbEntity
8
81
62
256
6
ByLayer
370
18
48
1
60
0
100
AcDbPoint
10
21
20
0
30
0
39
0
210
0
220
0
230
1
50
360
0
POINT
5
72
100
AcDbEntity
8
80
62
256
6
ByLayer
370
18
48
1
60
0
100
AcDbPoint
10
0
20
0
30
0
39
0
210
0
220
0
230
1
50
360
0
POINT
5
74
100
AcDbEntity
8
1
62
256
6
ByLayer
370
18
48
1
60
1
100
AcDbPoint
10
21
20
-2.5001
30
0
39
0
210
0
220
0
230
1
50
360
0
POINT
5
76
100
AcDbEntity
8
1
62
256
6
ByLayer
370
18
48
1
60
1
100
AcDbPoint
10
11
20
-2.5001
30
0
39
0
210
0
220
0
230
1
50
360
0
SPLINE
5
DA
100
AcDbEntity
8
1
62
256
6
ByLayer
370
18
48
1
60
0
100
AcDbSpline
70
4
71
3
72
8
73
4
40
0
40
0
40
0
40
0
40
1
40
1
40
1
40
1
41
1
10
20.7667988406554
20
2.49339346540975
30
0
41
1
10
20.7828421304848
20
2.43587170671248
30
0
41
1
10
20.8000512565458
20
2.37871022958669
30
0
41
1
10
20.8186907780019
20
2.32199079306517
30
0
0
SPLINE
5
DB
100
AcDbEntity
8
1
62
256
6
ByLayer
370
18
48
1
60
0
100
AcDbSpline
70
4
71
3
72
20
73
16
40
0
40
0
40
0
40
0
40
0.0283176191552727
40
0.0283176191552727
40
0.0977235035013221
40
0.0977235035013221
40
0.167129387847372
40
0.167129387847372
40
0.444752925231581
40
0.444752925231581
40
0.722376462615791
40
0.722376462615791
40
0.861188231307896
40
0.861188231307896
40
1
40
1
40
1
40
1
41
1
10
18.5695566154291
20
1.81262285118652
30
0
41
1
10
18.5903956124361
20
1.8238127640694
30
0
41
1
10
18.6112515341943
20
1.8348981689137
30
0
41
1
10
18.6832876307426
20
1.87278727099084
30
0
41
1
10
18.7346223009612
20
1.89908737336137
30
0
41
1
10
18.8369146616265
20
1.95003702185159
30
0
41
1
10
18.8879376576086
20
1.97472254092565
30
0
41
1
10
19.1425500030849
20
2.09415459066267
30
0
41
1
10
19.344629596673
20
2.17694258776555
30
0
41
1
10
19.7485326721655
20
2.31565212677444
30
0
41
1
10
19.9503559473995
20
2.37159103043993
30
0
41
1
10
20.255139702958
20
2.4339258182284
30
0
41
1
10
20.3570763695984
20
2.45110271327522
30
0
41
1
10
20.5620007023871
20
2.47797819927237
30
0
41
1
10
20.6644129115669
20
2.48759739913862
30
0
41
1
10
20.7667988406577
20
2.49339346541197
30
0
0
SPLINE
5
DC
100
AcDbEntity
8
1
62
256
6
ByLayer
370
18
48
1
60
0
100
AcDbSpline
70
4
71
3
72
8
73
4
40
0
40
0
40
0
40
0
40
1
40
1
40
1
40
1
41
1
10
20.7667988406577
20
2.49339346541197
30
0
41
1
10
20.7813812862233
20
2.49331118590985
30
0
41
1
10
20.7959646597906
20
2.49328897291613
30
0
41
1
10
20.8105482195258
20
2.49332666483914
30
0
0
SPLINE
5
DD
100
AcDbEntity
8
1
62
256
6
ByLayer
370
18
48
1
60
0
100
AcDbSpline
70
4
71
3
72
37
73
33
40
0
40
0
40
0
40
0
40
0.06573323464654
40
0.06573323464654
40
0.13146646929308
40
0.13146646929308
40
0.16433308661635
40
0.16433308661635
40
0.197199703939619
40
0.230066321262889
40
0.230066321262889
40
0.262932938586159
40
0.262932938586159
40
0.328666173232702
40
0.328666173232702
40
0.361532790555974
40
0.361532790555974
40
0.394399407879245
40
0.394399407879245
40
0.460132642525779
40
0.460132642525779
40
0.525865877172313
40
0.525865877172313
40
0.591599111818847
40
0.591599111818847
40
0.65733234646538
40
0.65733234646538
40
0.788798815758447
40
0.788798815758447
40
0.920265285051514
40
0.920265285051514
40
1
40
1
40
1
40
1
41
1
10
20.8186907494452
20
2.32199078383496
30
0
41
1
10
20.8285173344131
20
2.29207848838112
30
0
41
1
10
20.8365988111726
20
2.261837745767
30
0
41
1
10
20.8486613403367
20
2.20058451443524
30
0
41
1
10
20.8526482812828
20
2.16957313502223
30
0
41
1
10
20.8548388821968
20
2.12234278270964
30
0
41
1
10
20.854925302024
20
2.10648605123649
30
0
41
1
10
20.8537154568841
20
2.07509546145246
30
0
41
1
10
20.8511328113958
20
2.04388849459463
30
0
41
1
10
20.8456616108727
20
2.01306789486432
30
0
41
1
10
20.8386623347068
20
1.98245168736139
30
0
41
1
10
20.8343797172342
20
1.96719081452761
30
0
41
1
10
20.8192208246898
20
1.92210293686316
30
0
41
1
10
20.8062542611706
20
1.89354142887456
30
0
41
1
10
20.7828432631413
20
1.85277218593842
30
0
41
1
10
20.7743786908881
20
1.83952831519318
30
0
41
1
10
20.7561758334502
20
1.8137071552062
30
0
41
1
10
20.7464051541353
20
1.80110105365273
30
0
41
1
10
20.715869345943
20
1.76492420767764
30
0
41
1
10
20.6937323014924
20
1.74273480799116
30
0
41
1
10
20.6466183182857
20
1.70143310125007
30
0
41
1
10
20.6216285426342
20
1.68231811853028
30
0
41
1
10
20.5693482618124
20
1.6466479247542
30
0
41
1
10
20.5424877420734
20
1.63037768012469
30
0
41
1
10
20.4876598715602
20
1.60024151727782
30
0
41
1
10
20.4596904519505
20
1.58638009311196
30
0
41
1
10
20.3744491560604
20
1.54769152566092
30
0
41
1
10
20.3158588356745
20
1.52572100486941
30
0
41
1
10
20.1962409449537
20
1.48710387730353
30
0
41
1
10
20.1360432690602
20
1.47073783632359
30
0
41
1
10
20.0388943877955
20
1.44778527371977
30
0
41
1
10
20.0021158611089
20
1.43989164878425
30
0
41
1
10
19.9652495249175
20
1.43266270400178
30
0
0
SPLINE
5
DE
100
AcDbEntity
8
1
62
256
6
ByLayer
370
13
48
1
60
0
100
AcDbSpline
70
4
71
3
72
10
73
6
40
0
40
0
40
0
40
0
40
0.521206089491869
40
0.826021869556106
40
1
40
1
40
1
40
1
41
1
10
20.8186907543427
20
2.32199078319005
30
0
41
1
10
20.4624605028951
20
2.30322883458805
30
0
41
0.999999999999999
10
19.8978969181142
20
2.20279715354744
30
0
41
1
10
19.2144239913207
20
1.96389112089042
30
0
41
1
10
18.8871813159749
20
1.81974380503561
30
0
41
1
10
18.7682719739624
20
1.76364402391289
30
0
0
SPLINE
5
DF
100
AcDbEntity
8
1
62
256
6
ByLayer
370
18
48
1
60
0
100
AcDbSpline
70
4
71
3
72
9
73
5
40
0
40
0
40
0
40
0
40
0.323079324574593
40
1
40
1
40
1
40
1
41
1
10
12.8465974602039
20
-2.18572200452272
30
0
41
1
10
12.647731640136
20
-2.21950054772367
30
0
41
1
10
12.0321991534014
20
-2.28509543469519
30
0
41
1
10
11.4166666666668
20
-2.22438489251371
30
0
41
1
10
11.0000000000001
20
-2.12795842922145
30
0
0
SPLINE
5
E0
100
AcDbEntity
8
1
62
256
6
ByLayer
370
18
48
1
60
0
100
AcDbSpline
70
4
71
3
72
26
73
22
40
0
40
0
40
0
40
0
40
0.0133203519656092
40
0.0133203519656092
40
0.13665530796991
40
0.13665530796991
40
0.198322785972061
40
0.198322785972061
40
0.259990263974211
40
0.259990263974211
40
0.383325219978511
40
0.383325219978511
40
0.506660175982813
40
0.506660175982813
40
0.568327653984963
40
0.568327653984963
40
0.629995131987113
40
0.629995131987113
40
0.753330087991409
40
0.753330087991409
40
1
40
1
40
1
40
1
41
1
10
13.4753123335339
20
-2.14282334510384
30
0
41
1
10
13.4643108612859
20
-2.14671362596187
30
0
41
1
10
13.4533087752119
20
-2.15056742329878
30
0
41
1
10
13.3404286487305
20
-2.1897303956892
30
0
41
1
10
13.2385134173095
20
-2.22189299385047
30
0
41
1
10
13.0854330080763
20
-2.26504918020319
30
0
41
1
10
13.0343290956198
20
-2.27859547929901
30
0
41
1
10
12.9322639491941
20
-2.30386829647395
30
0
41
1
10
12.8813068464543
20
-2.31558930964692
30
0
41
1
10
12.7285825072055
20
-2.34801339937056
30
0
41
1
10
12.6269204611535
20
-2.36608177560035
30
0
41
1
10
12.4234756771958
20
-2.39532172360825
30
0
41
1
10
12.3217288083854
20
-2.40639277343581
30
0
41
1
10
12.1688303017867
20
-2.41742166593423
30
0
41
1
10
12.1178024719531
20
-2.42016839670993
30
0
41
1
10
12.0159930637061
20
-2.42375439289359
30
0
41
1
10
11.9651669051794
20
-2.42459168061177
30
0
41
1
10
11.8128415143577
20
-2.42427074410591
30
0
41
1
10
11.7114550970031
20
-2.42039112726277
30
0
41
1
10
11.4071326193815
20
-2.39835897699319
30
0
41
1
10
11.2042129741295
20
-2.3692833954679
30
0
41
1
10
11.0000000000001
20
-2.32521326911805
30
0
0
SPLINE
5
E1
100
AcDbEntity
8
1
62
256
6
ByLayer
370
18
48
1
60
0
100
AcDbSpline
70
4
71
3
72
8
73
4
40
0
40
0
40
0
40
0
40
1
40
1
40
1
40
1
41
1
10
20.8105482195454
20
2.49332666482479
30
0
41
1
10
20.8344341487328
20
2.4892801956986
30
0
41
1
10
20.8583479214059
20
2.48541051861059
30
0
41
1
10
20.8822888125476
20
2.48171302978704
30
0
0
SPLINE
5
E2
100
AcDbEntity
8
1
62
256
6
ByLayer
370
18
48
1
60
0
100
AcDbSpline
70
4
71
3
72
27
73
23
40
0
40
0
40
0
40
0
40
0.0499658959975596
40
0.0999198554961377
40
0.149864792931335
40
0.199803536908208
40
0.249738833726186
40
0.29967335073736
40
0.349609679533063
40
0.399550338043023
40
0.449497771708188
40
0.499454356248514
40
0.549422399685881
40
0.599404144180891
40
0.649401767799181
40
0.699417386208835
40
0.749453054310814
40
0.799510767804057
40
0.849592464687331
40
0.899700026699808
40
0.949835280702058
40
1
40
1
40
1
40
1
41
1
10
10.6863182564548
20
-2.25630597416523
30
0
41
1
10
10.6809705879149
20
-2.25873920000231
30
0
41
1
10
10.6702765283553
20
-2.26360507039604
30
0
41
1
10
10.6543596162188
20
-2.27127810773203
30
0
41
1
10
10.6385365842408
20
-2.27921968230501
30
0
41
1
10
10.622816184191
20
-2.28745375380024
30
0
41
1
10
10.6071961091593
20
-2.29596987452001
30
0
41
1
10
10.5916770155577
20
-2.30476686302632
30
0
41
1
10
10.5762587656008
20
-2.31384110104884
30
0
41
1
10
10.5609414388114
20
-2.32318967464917
30
0
41
1
10
10.5457250662481
20
-2.33280953520088
30
0
41
1
10
10.5306096893862
20
-2.34269770194109
30
0
41
1
10
10.515595342642
20
-2.35285120417922
30
0
41
1
10
10.5006820596421
20
-2.36326709931342
30
0
41
1
10
10.4858698661898
20
-2.37394245600524
30
0
41
1
10
10.4711588028157
20
-2.38487440088321
30
0
41
1
10
10.4565488422464
20
-2.39605994588931
30
0
41
1
10
10.4420401978195
20
-2.40749663001245
30
0
41
1
10
10.4276321722808
20
-2.41918012098051
30
0
41
1
10
10.4133274577571
20
-2.43111317039043
30
0
41
1
10
10.3991160758933
20
-2.44327216446368
30
0
41
1
10
10.3897317994846
20
-2.45157622798544
30
0
41
1
10
10.3850382828627
20
-2.45572947949583
30
0
0
SPLINE
5
E3
100
AcDbEntity
8
1
62
256
6
ByLayer
370
13
48
1
60
0
100
AcDbSpline
70
4
71
3
72
9
73
5
40
0
40
0
40
0
40
0
40
0.0170532792892274
40
1
40
1
40
1
40
1
41
1
10
12.2716864237526
20
-2.19864603493926
30
0
41
1
10
12.264457615835
20
-2.19874798995127
30
0
41
1
10
11.8405621412508
20
-2.20372922259702
30
0
41
1
10
11.4166666666666
20
-2.15014587910122
30
0
41
1
10
10.9999999999999
20
-2.04428732845088
30
0
0
SPLINE
5
E4
100
AcDbEntity
8
1
62
256
6
ByLayer
370
18
48
1
60
0
100
AcDbSpline
70
4
71
3
72
12
73
8
40
0
40
0
40
0
40
0
40
0.499999999999947
40
0.499999999999947
40
0.749999999999973
40
0.749999999999973
40
1
40
1
40
1
40
1
41
1
10
19.5655148512391
20
-0.757952877313301
30
0
41
1
10
19.5789479285231
20
-0.74033708091477
30
0
41
1
10
19.5931527271633
20
-0.723245674069148
30
0
41
1
10
19.6158551738203
20
-0.699520048354003
30
0
41
1
10
19.6236617257227
20
-0.691923499225737
30
0
41
1
10
19.6396491360372
20
-0.677622771299042
30
0
41
1
10
19.6478538106798
20
-0.670891972431406
30
0
41
1
10
19.6563166922704
20
-0.664617632572686
30
0
0
SPLINE
5
E5
100
AcDbEntity
8
1
62
256
6
ByLayer
370
13
48
1
60
0
100
AcDbSpline
70
4
71
3
72
10
73
6
40
0
40
0
40
0
40
0
40
0.310617742084453
40
0.540411828056302
40
1
40
1
40
1
40
1
41
1
10
13.7198263060458
20
-1.21357922045817
30
0
41
1
10
13.4382175373639
20
-1.15598348280852
30
0
41
1
10
12.9482754353486
20
-1.03539416954931
30
0
41
1
10
12.0416666666667
20
-0.757286030122089
30
0
41
1
10
11.4166666666667
20
-0.52837306250467
30
0
41
1
10
11
20
-0.367128098677142
30
0
0
SPLINE
5
E6
100
AcDbEntity
8
1
62
256
6
ByLayer
370
18
48
1
60
0
100
AcDbSpline
70
4
71
3
72
12
73
8
40
0
40
0
40
0
40
0
40
0.0474284496992317
40
0.220623277026644
40
0.480415518017763
40
0.653610345345175
40
1
40
1
40
1
40
1
41
1
10
14.6086528081955
20
-1.92398945305621
30
0
41
1
10
14.5516018721303
20
-1.93990937836469
30
0
41
1
10
14.2862176027318
20
-2.00971267584555
30
0
41
1
10
13.7083333333333
20
-2.1173167391847
30
0
41
1
10
12.9791666666666
20
-2.13500791851672
30
0
41
1
10
12.0416666666667
20
-2.00717214730401
30
0
41
1
10
11.4166666666667
20
-1.80651736438057
30
0
41
1
10
11
20
-1.62825189393575
30
0
0
SPLINE
5
E7
100
AcDbEntity
8
1
62
256
6
ByLayer
370
18
48
1
60
0
100
AcDbSpline
70
4
71
3
72
8
73
4
40
0
40
0
40
0
40
0
40
1
40
1
40
1
40
1
41
1
10
10.5163093767608
20
-2.30479705148892
30
0
41
1
10
10.5728625405265
20
-2.28783872625462
30
0
41
1
10
10.6295320766065
20
-2.27167646458577
30
0
41
1
10
10.68631739851
20
-2.25630625449861
30
0
0
SPLINE
5
E8
100
AcDbEntity
8
1
62
256
6
ByLayer
370
18
48
1
60
0
100
AcDbSpline
70
4
71
3
72
8
73
4
40
0
40
0
40
0
40
0
40
1
40
1
40
1
40
1
41
1
10
11.0000000000001
20
-2.32521326911805
30
0
41
1
10
10.894509062205
20
-2.30523634188353
30
0
41
1
10
10.7899270734705
20
-2.282336092111
30
0
41
1
10
10.6863182548199
20
-2.25630597492966
30
0
0
SPLINE
5
E9
100
AcDbEntity
8
1
62
256
6
ByLayer
370
18
48
1
60
0
100
AcDbSpline
70
4
71
3
72
16
73
12
40
0
40
0
40
0
40
0
40
0.152070423277432
40
0.152070423277432
40
0.364052817458061
40
0.364052817458061
40
0.470044014548384
40
0.470044014548384
40
0.576035211638707
40
0.576035211638707
40
1
40
1
40
1
40
1
41
1
10
19.8656231094566
20
1.47096725703165
30
0
41
1
10
19.8908368370187
20
1.46478956319609
30
0
41
1
10
19.9163385640962
20
1.4575047542053
30
0
41
1
10
19.9780286337521
20
1.4376065020972
30
0
41
1
10
20.0144750497439
20
1.42400098443923
30
0
41
1
10
20.0698902220736
20
1.40072670358521
30
0
41
1
10
20.0885064317969
20
1.39248069237721
30
0
41
1
10
20.1258952701326
20
1.37509011591595
30
0
41
1
10
20.1446045597104
20
1.36597604726177
30
0
41
1
10
20.2382220050449
20
1.31840627420655
30
0
41
1
10
20.3133412986252
20
1.27400450726236
30
0
41
1
10
20.3886600201123
20
1.22398645240492
30
0
0
SPLINE
5
EA
100
AcDbEntity
8
1
62
256
6
ByLayer
370
18
48
1
60
0
100
AcDbSpline
70
4
71
3
72
14
73
10
40
0
40
0
40
0
40
0
40
0.5
40
0.5
40
0.75
40
0.75
40
0.875
40
0.875
40
1
40
1
40
1
40
1
41
1
10
20.4018261585614
20
-1.82862906297086
30
0
41
1
10
20.4042825775538
20
-1.88363735623636
30
0
41
1
10
20.4097316193771
20
-1.93170608988908
30
0
41
1
10
20.4222197070068
20
-1.99380428684336
30
0
41
1
10
20.4271019798736
20
-2.01283506679331
30
0
41
1
10
20.4355118360719
20
-2.03886188715717
30
0
41
1
10
20.4384951338637
20
-2.0471092835584
30
0
41
1
10
20.4447881217661
20
-2.06266743043082
30
0
41
1
10
20.4481017530956
20
-2.06999096925088
30
0
41
1
10
20.4515812597865
20
-2.07686241309702
30
0
0
SPLINE
5
EB
100
AcDbEntity
8
1
62
256
6
ByLayer
370
18
48
1
60
0
100
AcDbSpline
70
4
71
3
72
22
73
18
40
0
40
0
40
0
40
0
40
0.0625000000000018
40
0.0625000000000018
40
0.125000000000004
40
0.125000000000004
40
0.250000000000007
40
0.250000000000007
40
0.500000000000014
40
0.500000000000014
40
0.562500000000011
40
0.562500000000011
40
0.625000000000008
40
0.625000000000008
40
0.750000000000002
40
0.750000000000002
40
1
40
1
40
1
40
1
41
1
10
19.5274829307691
20
-1.02314280427265
30
0
41
1
10
19.5425658775554
20
-1.04745294375445
30
0
41
1
10
19.5580457441484
20
-1.07135367770209
30
0
41
1
10
19.5897718583147
20
-1.11836465691604
30
0
41
1
10
19.6060584361098
20
-1.1415260706267
30
0
41
1
10
19.6554730892163
20
-1.20910709045725
30
0
41
1
10
19.6892898144553
20
-1.25185495140715
30
0
41
1
10
19.7930230526051
20
-1.37407180579496
30
0
41
1
10
19.8652011168583
20
-1.44757085480677
30
0
41
1
10
19.9586112284815
20
-1.53103036019161
30
0
41
1
10
19.9774546024538
20
-1.54729633223886
30
0
41
1
10
20.0154562575414
20
-1.57899699821513
30
0
41
1
10
20.0345406291308
20
-1.59436910109864
30
0
41
1
10
20.0918666602
20
-1.63898689418482
30
0
41
1
10
20.130252990809
20
-1.66679759743724
30
0
41
1
10
20.2458759491011
20
-1.74491808608775
30
0
41
1
10
20.3235732002425
20
-1.78995452207585
30
0
41
1
10
20.4018261585619
20
-1.82862906297081
30
0
0
SPLINE
5
EC
100
AcDbEntity
8
1
62
256
6
ByLayer
370
18
48
1
60
0
100
AcDbSpline
70
4
71
3
72
24
73
20
40
0
40
0
40
0
40
0
40
0.124999999999985
40
0.124999999999985
40
0.187499999999988
40
0.187499999999988
40
0.24999999999999
40
0.24999999999999
40
0.374999999999995
40
0.374999999999995
40
0.437499999999997
40
0.437499999999997
40
0.5
40
0.5
40
0.624999999999992
40
0.624999999999992
40
0.749999999999984
40
0.749999999999984
40
1
40
1
40
1
40
1
41
1
10
19.5274829307691
20
-1.02314280427265
30
0
41
1
10
19.5213992184154
20
-1.01333730021696
30
0
41
1
10
19.5162777243155
20
-1.00307549946828
30
0
41
1
10
19.5101015697467
20
-0.986961606781591
30
0
41
1
10
19.5082945203352
20
-0.98146981135983
30
0
41
1
10
19.5052029809582
20
-0.970235060488648
30
0
41
1
10
19.503913566936
20
-0.96445761321803
30
0
41
1
10
19.5009139417057
20
-0.947029739031336
30
0
41
1
10
19.5000538947043
20
-0.935300532873839
30
0
41
1
10
19.5003436671336
20
-0.917551623124723
30
0
41
1
10
19.5007044262402
20
-0.911609404511438
30
0
41
1
10
19.501941775227
20
-0.899674255092691
30
0
41
1
10
19.50282219609
20
-0.893676653494879
30
0
41
1
10
19.5061430051546
20
-0.875958578710765
30
0
41
1
10
19.5092675475356
20
-0.864389758032416
30
0
41
1
10
19.5170614333366
20
-0.841665263223689
30
0
41
1
10
19.5217505206864
20
-0.830473955680532
30
0
41
1
10
19.5377641197039
20
-0.797694030648159
30
0
41
1
10
19.5507723704497
20
-0.777286331840486
30
0
41
1
10
19.5655148512255
20
-0.757952877307673
30
0
0
SPLINE
5
ED
100
AcDbEntity
8
1
62
256
6
ByLayer
370
13
48
1
60
0
100
AcDbSpline
70
4
71
3
72
16
73
12
40
0
40
0
40
0
40
0
40
0.0830125632850145
40
0.25967920201647
40
0.377456961170774
40
0.55412359990223
40
0.671901359056534
40
0.789679118210838
40
0.907456877365142
40
0.99579019673087
40
1
40
1
40
1
40
1
41
1
10
19.5655148512391
20
-0.757952877313301
30
0
41
1
10
19.4186765674927
20
-0.69709182943518
30
0
41
1
10
18.9593382837464
20
-0.498330747136038
30
0
41
1
10
18.2916666666666
20
-0.181790426690298
30
0
41
1
10
17.4583333333333
20
0.229395683638813
30
0
41
1
10
16.7291666666666
20
0.571595301351692
30
0
41
1
10
16
20
0.86819580628358
30
0
41
1
10
15.375
20
1.08484015013269
30
0
41
1
10
14.8020833333333
20
1.23666399878004
30
0
41
1
10
14.4300534128512
20
1.30404901588497
30
0
41
1
10
14.2663568257024
20
1.32727410037495
30
0
41
1
10
14.2589102385535
20
1.32831730918866
30
0
0
SPLINE
5
EE
100
AcDbEntity
8
1
62
256
6
ByLayer
370
18
48
1
60
0
100
AcDbSpline
70
4
71
3
72
8
73
4
40
0
40
0
40
0
40
0
40
1
40
1
40
1
40
1
41
1
10
11
20
1.88382364508826
30
0
41
1
10
11
20
1.88392073988493
30
0
41
1
10
11
20
1.8610669317614
30
0
41
1
10
11
20
1.81723726128354
30
0
0
SPLINE
5
EF
100
AcDbEntity
8
1
62
256
6
ByLayer
370
18
48
1
60
0
100
AcDbSpline
70
4
71
3
72
20
73
16
40
0
40
0
40
0
40
0
40
0.25000000000001
40
0.25000000000001
40
0.375000000000018
40
0.375000000000018
40
0.437500000000019
40
0.437500000000019
40
0.500000000000021
40
0.500000000000021
40
0.75000000000001
40
0.75000000000001
40
0.875000000000005
40
0.875000000000005
40
1
40
1
40
1
40
1
41
1
10
20.4515812597893
20
-2.07686241309628
30
0
41
1
10
20.4702544010614
20
-2.09094080332056
30
0
41
1
10
20.4913812724841
20
-2.0960709407139
30
0
41
1
10
20.5262955564823
20
-2.0920089615083
30
0
41
1
10
20.5384772758664
20
-2.08867248009852
30
0
41
1
10
20.5575546682741
20
-2.08073276810049
30
0
41
1
10
20.5640605491363
20
-2.07758810673801
30
0
41
1
10
20.5772372937494
20
-2.07037560631687
30
0
41
1
10
20.5839167428342
20
-2.06630532352179
30
0
41
1
10
20.6177560573599
20
-2.04370158495473
30
0
41
1
10
20.6462253956705
20
-2.01849641668656
30
0
41
1
10
20.6908729013006
20
-1.97078661798253
30
0
41
1
10
20.7060959476487
20
-1.9532019387602
30
0
41
1
10
20.7371402493317
20
-1.91475778493626
30
0
41
1
10
20.7528779697922
20
-1.89400407669729
30
0
41
1
10
20.7688292429948
20
-1.87173306723619
30
0
0
SPLINE
5
F0
100
AcDbEntity
8
1
62
256
6
ByLayer
370
18
48
1
60
0
100
AcDbSpline
70
4
71
3
72
25
73
21
40
0
40
0
40
0
40
0
40
0.074228982485282
40
0.140355483736333
40
0.23954523561291
40
0.305671736863961
40
0.404861488740538
40
0.47098798999159
40
0.537114491242641
40
0.603240992493692
40
0.652835868431981
40
0.702430744370269
40
0.735493994995795
40
0.76855724562132
40
0.801620496246846
40
0.834683746872372
40
0.867746997497897
40
0.900810248123423
40
0.933873498748949
40
1
40
1
40
1
40
1
41
1
10
20.4515812597913
20
-2.07686241309685
30
0
41
1
10
20.2177208398608
20
-2.08570835578138
30
0
41
1
10
19.7755270865971
20
-2.07617740830625
30
0
41
1
10
19.0208333333333
20
-1.97608042889652
30
0
41
1
10
18.2916666666666
20
-1.78690021301594
30
0
41
1
10
17.4583333333333
20
-1.47743073178472
30
0
41
1
10
16.7291666666666
20
-1.13765428633619
30
0
41
1
10
16
20
-0.746669136086581
30
0
41
1
10
15.375
20
-0.387677067092625
30
0
41
1
10
14.8020833333333
20
-0.0475404205009511
30
0
41
1
10
14.28125
20
0.261716935410306
30
0
41
1
10
13.8645833333333
20
0.504824569744159
30
0
41
1
10
13.5
20
0.711150902178929
30
0
41
1
10
13.1875
20
0.883009017111391
30
0
41
1
10
12.875
20
1.04607642330453
30
0
41
1
10
12.5625
20
1.20335258206805
30
0
41
1
10
12.25
20
1.35077624362245
30
0
41
1
10
11.9375
20
1.48845326959596
30
0
41
1
10
11.5208333333333
20
1.65157347128695
30
0
41
1
10
11.2083333333333
20
1.75787976080446
30
0
41
1
10
11
20
1.81723726128354
30
0
0
SPLINE
5
F1
100
AcDbEntity
8
1
62
256
6
ByLayer
370
18
48
1
60
0
100
AcDbSpline
70
4
71
3
72
9
73
5
40
0
40
0
40
0
40
0
40
0.5
40
1
40
1
40
1
40
1
41
1
10
11
20
1.81723726128354
30
0
41
1
10
11
20
1.7802087029219
30
0
41
1
10
11
20
1.66186513355785
30
0
41
1
10
11
20
1.46638433161016
30
0
41
1
10
11
20
1.35496502712863
30
0
0
SPLINE
5
F2
100
AcDbEntity
8
1
62
256
6
ByLayer
370
18
48
1
60
0
100
AcDbSpline
70
4
71
3
72
12
73
8
40
0
40
0
40
0
40
0
40
0.237523105039494
40
0.44232045058689
40
0.647117796134286
40
0.851915141681681
40
1
40
1
40
1
40
1
41
1
10
20.4748723866654
20
0.690841498717646
30
0
41
1
10
20.233248257777
20
0.856271385139479
30
0
41
1
10
19.7832907955551
20
1.15122249518456
30
0
41
1
10
19.125
20
1.52147966350574
30
0
41
1
10
18.5
20
1.80576492320768
30
0
41
1
10
17.9326916730755
20
1.98724932654056
30
0
41
1
10
17.5737166794844
20
2.0576193618073
30
0
41
1
10
17.4230750192266
20
2.07898227996054
30
0
0
SPLINE
5
F3
100
AcDbEntity
8
1
62
256
6
ByLayer
370
18
48
1
60
0
100
AcDbSpline
70
4
71
3
72
8
73
4
40
0
40
0
40
0
40
0
40
1
40
1
40
1
40
1
41
1
10
10.4772396468887
20
1.57591636710575
30
0
41
1
10
10.5370798823269
20
1.54549716199295
30
0
41
1
10
10.5970767792219
20
1.51502703942813
30
0
41
1
10
10.6572301818996
20
1.48450605000789
30
0
0
SPLINE
5
F4
100
AcDbEntity
8
1
62
256
6
ByLayer
370
18
48
1
60
0
100
AcDbSpline
70
4
71
3
72
14
73
10
40
0
40
0
40
0
40
0
40
0.25
40
0.25
40
0.5
40
0.5
40
0.75
40
0.75
40
1
40
1
40
1
40
1
41
1
10
20.7688292455319
20
-1.87173306735531
30
0
41
1
10
20.7729327739039
20
-1.8660039611903
30
0
41
1
10
20.7769209756497
20
-1.86102688495191
30
0
41
1
10
20.7846419015191
20
-1.85273873904711
30
0
41
1
10
20.7883170864395
20
-1.84949250778069
30
0
41
1
10
20.795175431481
20
-1.84510451249145
30
0
41
1
10
20.7983773712661
20
-1.84393778092368
30
0
41
1
10
20.8041362975874
20
-1.84437105046598
30
0
41
1
10
20.8065904710977
20
-1.84595393347007
30
0
41
1
10
20.8084797639795
20
-1.84935150212874
30
0
0
SPLINE
5
F5
100
AcDbEntity
8
1
62
256
6
ByLayer
370
13
48
1
60
0
100
AcDbSpline
70
4
71
3
72
23
73
19
40
0
40
0
40
0
40
0
40
0.0913931838837202
40
0.170402472241658
40
0.288916404778564
40
0.367925693136501
40
0.446934981494438
40
0.525944269852376
40
0.585201236120829
40
0.644458202389282
40
0.68396284656825
40
0.723467490747219
40
0.762972134926188
40
0.802476779105157
40
0.841981423284125
40
0.881486067463094
40
0.920990711642063
40
1
40
1
40
1
40
1
41
1
10
18.9104623391688
20
-2.19857952796562
30
0
41
1
10
18.6694748927792
20
-2.20193928549276
30
0
41
1
10
18.2201541130562
20
-2.1790747077176
30
0
41
1
10
17.4583333333333
20
-2.0502300616514
30
0
41
1
10
16.7291666666666
20
-1.83004837407435
30
0
41
1
10
16
20
-1.52725832397729
30
0
41
1
10
15.3749999999999
20
-1.22019875211737
30
0
41
1
10
14.8020833333333
20
-0.902493472587765
30
0
41
1
10
14.28125
20
-0.593042160948641
30
0
41
1
10
13.8645833333333
20
-0.336331297601987
30
0
41
1
10
13.5
20
-0.108814699004597
30
0
41
1
10
13.1875
20
0.0870037296393207
30
0
41
1
10
12.8749999999999
20
0.282417487909498
30
0
41
1
10
12.5625
20
0.475945913214161
30
0
41
1
10
12.2499999999999
20
0.665953142849133
30
0
41
1
10
11.9375
20
0.850708811027772
30
0
41
0.999999999999999
10
11.5208333333333
20
1.08775539576223
30
0
41
1
10
11.2083333333333
20
1.25263166975895
30
0
41
1
10
11
20
1.35496502712863
30
0
0
SPLINE
5
F6
100
AcDbEntity
8
1
62
256
6
ByLayer
370
13
48
1
60
0
100
AcDbSpline
70
4
71
3
72
11
73
7
40
0
40
0
40
0
40
0
40
0.385999624447133
40
0.626138986336852
40
0.866278348226571
40
1
40
1
40
1
40
1
41
1
10
20.7546239957539
20
-0.17852345560317
30
0
41
1
10
20.4197493305026
20
0.0721977804562925
30
0
41
0.999999999999999
10
19.876541331918
20
0.484914785286861
30
0
41
1
10
19.125
20
1.01327015434848
30
0
41
1
10
18.5923228749329
20
1.35117485719098
30
0
41
1
10
18.2679790831992
20
1.52950158316088
30
0
41
1
10
18.1519686247988
20
1.58952832119678
30
0
0
SPLINE
5
F7
100
AcDbEntity
8
1
62
256
6
ByLayer
370
18
48
1
60
0
100
AcDbSpline
70
4
71
3
72
18
73
14
40
0
40
0
40
0
40
0
40
0.250000000000002
40
0.250000000000002
40
0.500000000000004
40
0.500000000000004
40
0.562500000000004
40
0.562500000000004
40
0.625000000000004
40
0.625000000000004
40
0.750000000000004
40
0.750000000000004
40
1
40
1
40
1
40
1
41
1
10
20.3886600201139
20
1.22398645240449
30
0
41
1
10
20.3882258473567
20
1.19605289938613
30
0
41
1
10
20.3897930396619
20
1.1636719527248
30
0
41
1
10
20.3967649142767
20
1.09038246542571
30
0
41
1
10
20.4021700580661
20
1.0494728992968
30
0
41
1
10
20.411339471146
20
0.992973858034674
30
0
41
1
10
20.4132944532896
20
0.981404944819957
30
0
41
1
10
20.4174488071218
20
0.957724040803896
30
0
41
1
10
20.4196454505459
20
0.945629139634519
30
0
41
1
10
20.4265533743404
20
0.908787567356086
30
0
41
1
10
20.4315951795039
20
0.88341036802413
30
0
41
1
10
20.4479902618685
20
0.804904918148992
30
0
41
1
10
20.4606082920475
20
0.749412003072308
30
0
41
1
10
20.4748723866583
20
0.690841498722563
30
0
0
SPLINE
5
F8
100
AcDbEntity
8
1
62
256
6
ByLayer
370
18
48
1
60
0
100
AcDbSpline
70
4
71
3
72
18
73
14
40
0
40
0
40
0
40
0
40
0.249999999999994
40
0.249999999999994
40
0.374999999999994
40
0.374999999999994
40
0.499999999999994
40
0.499999999999994
40
0.624999999999993
40
0.624999999999993
40
0.749999999999993
40
0.749999999999993
40
1
40
1
40
1
40
1
41
1
10
20.4748723866637
20
0.690841498715031
30
0
41
1
10
20.4931715981929
20
0.62349517769988
30
0
41
1
10
20.5130460021065
20
0.554100775159355
30
0
41
1
10
20.5450420132617
20
0.4471689848898
30
0
41
1
10
20.5560600645575
20
0.411096697632303
30
0
41
1
10
20.5786391500381
20
0.33857277949366
30
0
41
1
10
20.5902192603054
20
0.302057081205675
30
0
41
1
10
20.6139443253116
20
0.228532432006489
30
0
41
1
10
20.6261070891767
20
0.191472359700498
30
0
41
1
10
20.6507812127311
20
0.117485123744188
30
0
41
1
10
20.6633142144913
20
0.0804892353192486
30
0
41
1
10
20.7014818027803
20
-0.0305050183887374
30
0
41
1
10
20.7276821298966
20
-0.104509939263494
30
0
41
1
10
20.7546240003585
20
-0.178523452647397
30
0
0
SPLINE
5
F9
100
AcDbEntity
8
1
62
256
6
ByLayer
370
18
48
1
60
0
100
AcDbSpline
70
4
71
3
72
14
73
10
40
0
40
0
40
0
40
0
40
0.25
40
0.25
40
0.5
40
0.5
40
0.75
40
0.75
40
1
40
1
40
1
40
1
41
1
10
20.7546239973041
20
-0.178523453574798
30
0
41
1
10
20.7588751985799
20
-0.190202024094589
30
0
41
1
10
20.7629909816428
20
-0.20184717251658
30
0
41
1
10
20.7709280885517
20
-0.225064802160659
30
0
41
1
10
20.7747505654643
20
-0.236637566214569
30
0
41
1
10
20.7820278046258
20
-0.259692344664728
30
0
41
1
10
20.7854335686077
20
-0.271021391914672
30
0
41
1
10
20.7914915853916
20
-0.292712321658058
30
0
41
1
10
20.7940924984018
20
-0.302876487764621
30
0
41
1
10
20.7960688700429
20
-0.312002276587947
30
0
0
SPLINE
5
FA
100
AcDbEntity
8
1
62
256
6
ByLayer
370
13
48
1
60
0
100
AcDbSpline
70
4
71
3
72
15
73
11
40
0
40
0
40
0
40
0
40
0.0863515345925397
40
0.202738292051404
40
0.319125049510269
40
0.435511806969134
40
0.61009194315743
40
0.726478700616295
40
0.901058836804592
40
1
40
1
40
1
40
1
41
1
10
14.2862899500022
20
1.33521808285363
30
0
41
1
10
14.4408599666681
20
1.31792321225407
30
0
41
1
10
14.8037633166674
20
1.26413122292041
30
0
41
1
10
15.375
20
1.13229482059884
30
0
41
1
10
16
20
0.936594090932772
30
0
41
1
10
16.7291666666667
20
0.662243233301297
30
0
41
1
10
17.4583333333333
20
0.339028430569044
30
0
41
1
10
18.2916666666666
20
-0.0560748609306074
30
0
41
1
10
18.9896055640901
20
-0.380594705874046
30
0
41
1
10
19.4792111281803
20
-0.591704961221069
30
0
41
1
10
19.6563166922705
20
-0.664617632572686
30
0
0
SPLINE
5
FB
100
AcDbEntity
8
1
62
256
6
ByLayer
370
18
48
1
60
0
100
AcDbSpline
70
4
71
3
72
18
73
14
40
0
40
0
40
0
40
0
40
0.250000000000084
40
0.250000000000084
40
0.375000000000094
40
0.375000000000094
40
0.500000000000104
40
0.500000000000104
40
0.750000000000052
40
0.750000000000052
40
0.875000000000026
40
0.875000000000026
40
1
40
1
40
1
40
1
41
1
10
19.6563166922705
20
-0.664617632572714
30
0
41
1
10
19.6740480119922
20
-0.651471708967279
30
0
41
1
10
19.6927847654333
20
-0.640480812545349
30
0
41
1
10
19.7224714999881
20
-0.627061772837891
30
0
41
1
10
19.732632655554
20
-0.623103109067671
30
0
41
1
10
19.7535226479833
20
-0.616221616764847
30
0
41
1
10
19.7642538718689
20
-0.613307366824557
30
0
41
1
10
19.7965979206028
20
-0.606278036851563
30
0
41
1
10
19.8186002244968
20
-0.603777044018784
30
0
41
1
10
19.8523716066933
20
-0.603029652800643
30
0
41
1
10
19.8638037408233
20
-0.603288311512188
30
0
41
1
10
19.88667078214
20
-0.604774676183297
30
0
41
1
10
19.8981065348752
20
-0.605997085900867
30
0
41
1
10
19.9095522203556
20
-0.607667850866164
30
0
0
SPLINE
5
FC
100
AcDbEntity
8
1
62
256
6
ByLayer
370
18
48
1
60
0
100
AcDbSpline
70
4
71
3
72
10
73
6
40
0
40
0
40
0
40
0
40
0.0974745151932648
40
0.0974745151932648
40
1
40
1
40
1
40
1
41
1
10
20.1144286696056
20
-0.641063802354893
30
0
41
1
10
20.10780447017
20
-0.639859277105074
30
0
41
1
10
20.1011767706484
20
-0.638667597309052
30
0
41
1
10
20.0331479490273
20
-0.626569188889277
30
0
41
1
10
19.9714627227355
20
-0.616705133827082
30
0
41
1
10
19.9095522203557
20
-0.607667850866932
30
0
0
SPLINE
5
FD
100
AcDbEntity
8
1
62
256
6
ByLayer
370
13
48
1
60
0
100
AcDbSpline
70
4
71
3
72
10
73
6
40
0
40
0
40
0
40
0
40
0.519807163377611
40
0.779710745066416
40
1
40
1
40
1
40
1
41
1
10
11
20
-0.187430612585587
30
0
41
1
10
11.4166666666667
20
-0.349122792819997
30
0
41
1
10
12.0416666666667
20
-0.585259915901446
30
0
41
1
10
12.8432459753457
20
-0.849807947538466
30
0
41
1
10
13.2281586173582
20
-0.960932930703336
30
0
41
1
10
13.4047379260373
20
-1.00803803829831
30
0
0
SPLINE
5
FE
100
AcDbEntity
8
1
62
256
6
ByLayer
370
18
48
1
60
0
100
AcDbSpline
70
4
71
3
72
24
73
20
40
0
40
0
40
0
40
0
40
0.249999999999984
40
0.249999999999984
40
0.375000000000017
40
0.375000000000017
40
0.50000000000005
40
0.50000000000005
40
0.562500000000044
40
0.562500000000044
40
0.625000000000037
40
0.625000000000037
40
0.687500000000031
40
0.687500000000031
40
0.750000000000025
40
0.750000000000025
40
0.875000000000012
40
0.875000000000012
40
1
40
1
40
1
40
1
41
1
10
9.09549888232365
20
2.24474637565623
30
0
41
1
10
9.08650852617222
20
2.2489957840458
30
0
41
1
10
9.07791128182461
20
2.2533365697586
30
0
41
1
10
9.06618215160165
20
2.26016524805823
30
0
41
1
10
9.06246141820128
20
2.26250209445317
30
0
41
1
10
9.05576554512095
20
2.2673069550986
30
0
41
1
10
9.05274344562878
20
2.26979610806259
30
0
41
1
10
9.04935996269793
20
2.27366515360882
30
0
41
1
10
9.04842880476525
20
2.27497406441358
30
0
41
1
10
9.04718251585666
20
2.27765631315876
30
0
41
1
10
9.04687514448656
20
2.27902659113701
30
0
41
1
10
9.04729522444205
20
2.28172962822379
30
0
41
1
10
9.04804258283804
20
2.28306693245716
30
0
41
1
10
9.05087249244309
20
2.2855077191951
30
0
41
1
10
9.05292478961243
20
2.28658107012444
30
0
41
1
10
9.06040570084625
20
2.28924957285656
30
0
41
1
10
9.06671972978506
20
2.29024249256733
30
0
41
1
10
9.07946306093825
20
2.29149143028746
30
0
41
1
10
9.08608405677649
20
2.29175459283539
30
0
41
1
10
9.09269144229916
20
2.29183521075106
30
0
0
SPLINE
5
FF
100
AcDbEntity
8
1
62
256
6
ByLayer
370
18
48
1
60
0
100
AcDbSpline
70
4
71
3
72
30
73
26
40
0
40
0
40
0
40
0
40
0.125000000000016
40
0.125000000000016
40
0.250000000000033
40
0.250000000000033
40
0.31250000000003
40
0.31250000000003
40
0.375000000000026
40
0.437500000000023
40
0.437500000000023
40
0.50000000000002
40
0.50000000000002
40
0.624999999999996
40
0.624999999999996
40
0.656249999999997
40
0.656249999999997
40
0.687499999999998
40
0.749999999999999
40
0.749999999999999
40
0.812500000000001
40
0.812500000000001
40
0.875000000000003
40
0.875000000000003
40
1
40
1
40
1
40
1
41
1
10
9.09269144230237
20
2.29183521072437
30
0
41
1
10
9.13008239440742
20
2.29229142455298
30
0
41
1
10
9.16729658504977
20
2.29329938781845
30
0
41
1
10
9.24125074461693
20
2.29676487276339
30
0
41
1
10
9.27799229422376
20
2.29921967995119
30
0
41
1
10
9.3326050299593
20
2.30436225510181
30
0
41
1
10
9.35064799610478
20
2.30631595026074
30
0
41
1
10
9.38605885944102
20
2.31072352089041
30
0
41
1
10
9.42087878788257
20
2.31563895245094
30
0
41
1
10
9.45433815385769
20
2.32166806116879
30
0
41
1
10
9.48700826095777
20
2.32830355446177
30
0
41
1
10
9.50303886286275
20
2.33195105950378
30
0
41
1
10
9.54865056261843
20
2.34357435480251
30
0
41
1
10
9.57600222951555
20
2.35227215006077
30
0
41
1
10
9.60615959510193
20
2.36404037389798
30
0
41
1
10
9.61200478779512
20
2.36644524008315
30
0
41
1
10
9.62314859386481
20
2.37127019801898
30
0
41
1
10
9.63909199238543
20
2.37854713671527
30
0
41
1
10
9.65284193348566
20
2.385887493826
30
0
41
1
10
9.66942078093572
20
2.39564100295243
30
0
41
1
10
9.67683970704661
20
2.40050588054774
30
0
41
1
10
9.69006542706705
20
2.41009987058985
30
0
41
1
10
9.69580074096586
20
2.41477431448735
30
0
41
1
10
9.71078786252696
20
2.42836789108009
30
0
41
1
10
9.71784210070658
20
2.4368547903328
30
0
41
1
10
9.72270687171752
20
2.44464379326291
30
0
0
SPLINE
5
100
100
AcDbEntity
8
1
62
256
6
ByLayer
370
18
48
1
60
0
100
AcDbSpline
70
4
71
3
72
17
73
13
40
0
40
0
40
0
40
0
40
0.250000000000001
40
0.250000000000001
40
0.375000000000001
40
0.375000000000001
40
0.500000000000001
40
0.625000000000001
40
0.625000000000001
40
0.750000000000001
40
0.750000000000001
40
1
40
1
40
1
40
1
41
1
10
10.384124577926
20
-2.45594702871631
30
0
41
1
10
10.3750337682303
20
-2.44731152616291
30
0
41
1
10
10.3703697118815
20
-2.43739310908813
30
0
41
1
10
10.3710528188605
20
-2.4205349977594
30
0
41
1
10
10.372570932119
20
-2.41457489856677
30
0
41
1
10
10.3784249562887
20
-2.40202238143638
30
0
41
1
10
10.3869857290076
20
-2.38906808817299
30
0
41
1
10
10.4008797936121
20
-2.37543543701491
30
0
41
1
10
10.4174369022369
20
-2.36152523643062
30
0
41
1
10
10.4270712755304
20
-2.35441540456841
30
0
41
1
10
10.4598685111138
20
-2.33286352560438
30
0
41
1
10
10.4861981371745
20
-2.31865025007588
30
0
41
1
10
10.5163093767686
20
-2.30479705148704
30
0
0
SPLINE
5
101
100
AcDbEntity
8
1
62
256
6
ByLayer
370
18
48
1
60
0
100
AcDbSpline
70
4
71
3
72
24
73
20
40
0
40
0
40
0
40
0
40
0.249999999999968
40
0.249999999999968
40
0.374999999999953
40
0.374999999999953
40
0.499999999999938
40
0.499999999999938
40
0.624999999999923
40
0.624999999999923
40
0.687499999999914
40
0.687499999999914
40
0.749999999999905
40
0.749999999999905
40
0.812499999999896
40
0.812499999999896
40
0.874999999999887
40
0.874999999999887
40
1
40
1
40
1
40
1
41
1
10
9.26169255869422
20
-1.68632313405021
30
0
41
1
10
9.25351904464955
20
-1.67918373955422
30
0
41
1
10
9.24574299571592
20
-1.67179716622749
30
0
41
1
10
9.23521353536097
20
-1.66004493838508
30
0
41
1
10
9.23188587514636
20
-1.65600078564071
30
0
41
1
10
9.22589728247522
20
-1.64761338878887
30
0
41
1
10
9.22323899335024
20
-1.64329991047364
30
0
41
1
10
9.21919190409403
20
-1.63423569711173
30
0
41
1
10
9.21776652351593
20
-1.62942110647563
30
0
41
1
10
9.21803256636719
20
-1.62219404893136
30
0
41
1
10
9.21852587663858
20
-1.61982929682748
30
0
41
1
10
9.22070504086429
20
-1.61523518955849
30
0
41
1
10
9.22236898190101
20
-1.61312472762091
30
0
41
1
10
9.22669457420668
20
-1.60950940709611
30
0
41
1
10
9.22929473206545
20
-1.60804217384407
30
0
41
1
10
9.23488905616782
20
-1.60571297873156
30
0
41
1
10
9.23784936351763
20
-1.60484983507246
30
0
41
1
10
9.24704671849079
20
-1.60284669901722
30
0
41
1
10
9.25339303238417
20
-1.60231403553829
30
0
41
1
10
9.2597665407842
20
-1.60216270816488
30
0
0
SPLINE
5
102
100
AcDbEntity
8
1
62
256
6
ByLayer
370
18
48
1
60
0
100
AcDbSpline
70
4
71
3
72
28
73
24
40
0
40
0
40
0
40
0
40
0.125000000000004
40
0.125000000000004
40
0.250000000000007
40
0.250000000000007
40
0.312499999999994
40
0.312499999999994
40
0.374999999999981
40
0.374999999999981
40
0.499999999999984
40
0.499999999999984
40
0.562499999999986
40
0.562499999999986
40
0.624999999999988
40
0.624999999999988
40
0.749999999999992
40
0.749999999999992
40
0.812499999999993
40
0.812499999999993
40
0.874999999999995
40
0.874999999999995
40
1
40
1
40
1
40
1
41
1
10
9.25976654078417
20
-1.60216270816488
30
0
41
1
10
9.28867886277803
20
-1.60147623762597
30
0
41
1
10
9.31746148530164
20
-1.60002976494354
30
0
41
1
10
9.37469647656462
20
-1.59519087388324
30
0
41
1
10
9.4031494202703
20
-1.59180237100682
30
0
41
1
10
9.44550368127508
20
-1.58478224751306
30
0
41
1
10
9.45961386477541
20
-1.58210628826268
30
0
41
1
10
9.48742846292436
20
-1.57605496927656
30
0
41
1
10
9.50113141396545
20
-1.57268279163117
30
0
41
1
10
9.54156397976087
20
-1.56140747545041
30
0
41
1
10
9.56762052463316
20
-1.55235329878914
30
0
41
1
10
9.60505297498432
20
-1.5358683491522
30
0
41
1
10
9.61725430420452
20
-1.52988761893545
30
0
41
1
10
9.64104344962726
20
-1.51682933041465
30
0
41
1
10
9.65266542259809
20
-1.50971770585409
30
0
41
1
10
9.68565238229746
20
-1.48716711808282
30
0
41
1
10
9.70543650210359
20
-1.470368868517
30
0
41
1
10
9.73193474920905
20
-1.44249120972702
30
0
41
1
10
9.74027026292572
20
-1.43270919958007
30
0
41
1
10
9.75575553021477
20
-1.41245741374047
30
0
41
1
10
9.76287550039049
20
-1.4020388972481
30
0
41
1
10
9.78256806881657
20
-1.36996320109202
30
0
41
1
10
9.7934812879856
20
-1.3474884533789
30
0
41
1
10
9.80260227466746
20
-1.32404040332202
30
0
0
SPLINE
5
103
100
AcDbEntity
8
1
62
256
6
ByLayer
370
18
48
1
60
0
100
AcDbSpline
70
4
71
3
72
37
73
33
40
0
40
0
40
0
40
0
40
0.062500000000014
40
0.062500000000014
40
0.0937500000000175
40
0.0937500000000175
40
0.125000000000021
40
0.125000000000021
40
0.187500000000019
40
0.187500000000019
40
0.250000000000018
40
0.250000000000018
40
0.312500000000016
40
0.312500000000016
40
0.375000000000015
40
0.375000000000015
40
0.437500000000013
40
0.437500000000013
40
0.500000000000012
40
0.500000000000012
40
0.56250000000001
40
0.56250000000001
40
0.625000000000009
40
0.625000000000009
40
0.687500000000008
40
0.687500000000008
40
0.750000000000006
40
0.812500000000005
40
0.812500000000005
40
0.875000000000003
40
0.875000000000003
40
1
40
1
40
1
40
1
41
1
10
9.23527896064704
20
0.26091533508179
30
0
41
1
10
9.2485205026081
20
0.293786117241808
30
0
41
1
10
9.26529118030953
20
0.32424417721586
30
0
41
1
10
9.29468158034464
20
0.36705632795838
30
0
41
1
10
9.30519030502805
20
0.380843587963454
30
0
41
1
10
9.32751325005557
20
0.407534863304988
30
0
41
1
10
9.33936615392679
20
0.420476889433274
30
0
41
1
10
9.37648724776599
20
0.457818086955513
30
0
41
1
10
9.40291198329084
20
0.480393631613111
30
0
41
1
10
9.45834677222638
20
0.522001397455767
30
0
41
1
10
9.48736408918205
20
0.541023334862757
30
0
41
1
10
9.54755289192443
20
0.576140246774315
30
0
41
1
10
9.57880699088491
20
0.592257269458486
30
0
41
1
10
9.64231322316056
20
0.621574049685364
30
0
41
1
10
9.67466288395227
20
0.634836114555014
30
0
41
1
10
9.74039473427044
20
0.658966026777165
30
0
41
1
10
9.7738333554812
20
0.669845471757043
30
0
41
1
10
9.8412447266719
20
0.689347000788615
30
0
41
1
10
9.87524353606381
20
0.697981926500148
30
0
41
1
10
9.94377540776179
20
0.713234421371823
30
0
41
1
10
9.97834996132619
20
0.719857057577855
30
0
41
1
10
10.0477677722807
20
0.731178366734184
30
0
41
1
10
10.0826044906135
20
0.735878591837604
30
0
41
1
10
10.1525202635093
20
0.743467463675273
30
0
41
1
10
10.187631590041
20
0.74635725765188
30
0
41
1
10
10.2579329098798
20
0.750374454711931
30
0
41
1
10
10.3282413449377
20
0.752628485519665
30
0
41
1
10
10.3985636185878
20
0.751457850737125
30
0
41
1
10
10.4688927430683
20
0.748590636168615
30
0
41
1
10
10.5040699386582
20
0.746305699309687
30
0
41
1
10
10.6091495817
20
0.736941533200763
30
0
41
1
10
10.6787548911987
20
0.727359707045082
30
0
41
1
10
10.7479099301607
20
0.714383298073074
30
0
0
SPLINE
5
104
100
AcDbEntity
8
1
62
256
6
ByLayer
370
18
48
1
60
0
100
AcDbSpline
70
4
71
3
72
18
73
14
40
0
40
0
40
0
40
0
40
0.250000000000022
40
0.250000000000022
40
0.375000000000018
40
0.375000000000018
40
0.500000000000014
40
0.500000000000014
40
0.750000000000007
40
0.750000000000007
40
0.875000000000004
40
0.875000000000004
40
1
40
1
40
1
40
1
41
1
10
9.24597329919999
20
0.0785008397597551
30
0
41
1
10
9.23941485767836
20
0.0928480950896642
30
0
41
1
10
9.23393782588903
20
0.107506364308449
30
0
41
1
10
9.22767026619752
20
0.130054421732154
30
0
41
1
10
9.22590719483608
20
0.13766430431582
30
0
41
1
10
9.22311210031074
20
0.153094601331418
30
0
41
1
10
9.22207932702895
20
0.160956362653934
30
0
41
1
10
9.22025394948838
20
0.184419177592275
30
0
41
1
10
9.22069558245539
20
0.199984654462298
30
0
41
1
10
9.22410572523307
20
0.223208541657527
30
0
41
1
10
9.22571426256695
20
0.230963322450691
30
0
41
1
10
9.22982784788763
20
0.246147102784533
30
0
41
1
10
9.23233203341735
20
0.253599887734794
30
0
41
1
10
9.23527896064707
20
0.26091533508179
30
0
0
SPLINE
5
105
100
AcDbEntity
8
1
62
256
6
ByLayer
370
18
48
1
60
0
100
AcDbSpline
70
4
71
3
72
20
73
16
40
0
40
0
40
0
40
0
40
0.125
40
0.125
40
0.25
40
0.25
40
0.375
40
0.375
40
0.5
40
0.5
40
0.625
40
0.625
40
0.75
40
0.75
40
1
40
1
40
1
40
1
41
1
10
9.80260227466746
20
-1.32404040332202
30
0
41
1
10
9.78119137350578
20
-1.27126243793273
30
0
41
1
10
9.75990581947752
20
-1.21732961214204
30
0
41
1
10
9.71720029592967
20
-1.10727651077175
30
0
41
1
10
9.69576011286458
20
-1.05109799078542
30
0
41
1
10
9.65260733191633
20
-0.937182591657347
30
0
41
1
10
9.63087666840869
20
-0.879397831179517
30
0
41
1
10
9.58678803712672
20
-0.762285208350477
30
0
41
1
10
9.56452883108682
20
-0.703219382814865
30
0
41
1
10
9.51930729710801
20
-0.584279845205486
30
0
41
1
10
9.4963408691832
20
-0.524392889112704
30
0
41
1
10
9.44938079872148
20
-0.403911985766115
30
0
41
1
10
9.42535222302544
20
-0.343234438371695
30
0
41
1
10
9.35179381703503
20
-0.161773063163793
30
0
41
1
10
9.30066429846977
20
-0.0411412624354739
30
0
41
1
10
9.24597329919999
20
0.0785008397597551
30
0
0
SPLINE
5
106
100
AcDbEntity
8
1
62
256
6
ByLayer
370
18
48
1
60
0
100
AcDbSpline
70
4
71
3
72
8
73
4
40
0
40
0
40
0
40
0
40
1
40
1
40
1
40
1
41
1
10
11.3614829943459
20
0.416698763408391
30
0
41
1
10
11.2409886628972
20
0.495462339924558
30
0
41
1
10
11.1204943314486
20
0.573483531028216
30
0
41
1
10
11
20
0.650337163449393
30
0
0
SPLINE
5
107
100
AcDbEntity
8
1
62
256
6
ByLayer
370
18
48
1
60
0
100
AcDbSpline
70
4
71
3
72
8
73
4
40
0
40
0
40
0
40
0
40
1
40
1
40
1
40
1
41
1
10
20.8231358818238
20
-0.865040763565531
30
0
41
1
10
20.8399484461192
20
-0.967998911241665
30
0
41
1
10
20.8586483509002
20
-1.07021207427249
30
0
41
1
10
20.8798853698135
20
-1.17119468333962
30
0
0
SPLINE
5
108
100
AcDbEntity
8
1
62
256
6
ByLayer
370
18
48
1
60
0
100
AcDbSpline
70
4
71
3
72
8
73
4
40
0
40
0
40
0
40
0
40
1
40
1
40
1
40
1
41
1
10
20.7713832442944
20
-0.427473446031485
30
0
41
1
10
20.7911468203877
20
-0.573632142733857
30
0
41
1
10
20.808095575075
20
-0.719473477124552
30
0
41
1
10
20.823135881824
20
-0.865040763565531
30
0
0
SPLINE
5
109
100
AcDbEntity
8
1
62
256
6
ByLayer
370
18
48
1
60
0
100
AcDbSpline
70
4
71
3
72
8
73
4
40
0
40
0
40
0
40
0
40
1
40
1
40
1
40
1
41
1
10
20.8282975351964
20
-1.1715903086708
30
0
41
1
10
20.8454744362132
20
-1.17140712406382
30
0
41
1
10
20.8626705140837
20
-1.17127560775941
30
0
41
1
10
20.8798853698135
20
-1.17119468333962
30
0
0
SPLINE
5
10A
100
AcDbEntity
8
1
62
256
6
ByLayer
370
18
48
1
60
0
100
AcDbSpline
70
4
71
3
72
8
73
4
40
0
40
0
40
0
40
0
40
1
40
1
40
1
40
1
41
1
10
20.7713832442955
20
-0.427473446031087
30
0
41
1
10
20.7695315447089
20
-0.424832913891493
30
0
41
1
10
20.767678389064
20
-0.422194351178319
30
0
41
1
10
20.7658237753719
20
-0.419557760581881
30
0
0
SPLINE
5
10B
100
AcDbEntity
8
1
62
256
6
ByLayer
370
18
48
1
60
0
100
AcDbSpline
70
4
71
3
72
8
73
4
40
0
40
0
40
0
40
0
40
1
40
1
40
1
40
1
41
1
10
20.7658237753718
20
-0.419557760581682
30
0
41
1
10
20.7840110817102
20
-0.421129474464351
30
0
41
1
10
20.8022248351774
20
-0.422334759746633
30
0
41
1
10
20.8204658925295
20
-0.423161745954246
30
0
0
SPLINE
5
10C
100
AcDbEntity
8
1
62
256
6
ByLayer
370
18
48
1
60
0
100
AcDbSpline
70
4
71
3
72
8
73
4
40
0
40
0
40
0
40
0
40
1
40
1
40
1
40
1
41
1
10
20.7960688743117
20
-0.312002278346682
30
0
41
1
10
20.8040265739413
20
-0.348734709471699
30
0
41
1
10
20.8121555282321
20
-0.38578165216461
30
0
41
1
10
20.8204658925295
20
-0.423161745954246
30
0
0
SPLINE
5
10D
100
AcDbEntity
8
1
62
256
6
ByLayer
370
13
48
1
60
0
100
AcDbSpline
70
4
71
3
72
10
73
6
40
0
40
0
40
0
40
0
40
0.491846897430815
40
0.785713121782262
40
1
40
1
40
1
40
1
41
1
10
20.7960688756346
20
-0.312002276656813
30
0
41
1
10
20.4473792504231
20
-0.0463347453965071
30
0
41
1
10
19.8903562918783
20
0.389131585042293
30
0
41
1
10
19.181416930803
20
0.90773614454551
30
0
41
1
10
18.8211671949391
20
1.15136104455823
30
0
41
1
10
18.6692507924086
20
1.24887464598444
30
0
0
SPLINE
5
10E
100
AcDbEntity
8
1
62
256
6
ByLayer
370
18
48
1
60
0
100
AcDbSpline
70
4
71
3
72
42
73
38
40
0
40
0
40
0
40
0
40
0.116509387897946
40
0.116509387897946
40
0.145636734872433
40
0.145636734872433
40
0.17476408184692
40
0.17476408184692
40
0.233018775795895
40
0.233018775795895
40
0.291273469744869
40
0.291273469744869
40
0.349528163693843
40
0.349528163693843
40
0.407782857642817
40
0.407782857642817
40
0.422346531130061
40
0.422346531130061
40
0.436910204617305
40
0.436910204617305
40
0.466037551591792
40
0.466037551591792
40
0.58254693948974
40
0.58254693948974
40
0.699056327387688
40
0.699056327387688
40
0.728183674362175
40
0.728183674362175
40
0.757311021336661
40
0.757311021336661
40
0.815565715285633
40
0.815565715285633
40
0.932075103183579
40
0.932075103183579
40
0.990329797132553
40
0.990329797132553
40
1
40
1
40
1
40
1
41
1
10
20.7713832442957
20
-0.427473446032337
30
0
41
1
10
20.5667163754065
20
-0.260857667972914
30
0
41
1
10
20.36294705413
20
-0.0913677342685162
30
0
41
1
10
20.106729895999
20
0.120830277024567
30
0
41
1
10
20.0553479504467
20
0.163340758188383
30
0
41
1
10
19.9529298634471
20
0.24786085818414
30
0
41
1
10
19.9018437427166
20
0.28991184479716
30
0
41
1
10
19.74885527327
20
0.415333861637009
30
0
41
1
10
19.6472135982879
20
0.497961158656579
30
0
41
1
10
19.444324343982
20
0.660869212162424
30
0
41
1
10
19.3430789644965
20
0.741155965466419
30
0
41
1
10
19.1406251985975
20
0.898987175627184
30
0
41
1
10
19.0394334742159
20
0.976549377434537
30
0
41
1
10
18.8365861920784
20
1.12833192094553
30
0
41
1
10
18.7349205666235
20
1.20253959815622
30
0
41
1
10
18.6071358477136
20
1.29272946775942
30
0
41
1
10
18.5815437019281
20
1.31063895647455
30
0
41
1
10
18.5302790470823
20
1.34618911717601
30
0
41
1
10
18.5045954057483
20
1.36383676978676
30
0
41
1
10
18.4276956916
20
1.41616717447289
30
0
41
1
10
18.3765424979135
20
1.45030266952875
30
0
41
1
10
18.121257873693
20
1.61719953212403
30
0
41
1
10
17.9186041721552
20
1.73871417125568
30
0
41
1
10
17.5135907824269
20
1.95592996331439
30
0
41
1
10
17.3112068500734
20
2.05151596392034
30
0
41
1
10
17.0558963594666
20
2.15236201837266
30
0
41
1
10
17.0046724675405
20
2.17161460960327
30
0
41
1
10
16.9021089459994
20
2.2081257377032
30
0
41
1
10
16.8509672604713
20
2.22531543107118
30
0
41
1
10
16.6978607363115
20
2.273702487522
30
0
41
1
10
16.5962075442892
20
2.30171725652659
30
0
41
1
10
16.2918262250558
20
2.37315749917064
30
0
41
1
10
16.0897694684963
20
2.40401837993645
30
0
41
1
10
15.7854057451385
20
2.42394110631403
30
0
41
1
10
15.6837331952691
20
2.42619524293761
30
0
41
1
10
15.5646601015584
20
2.42359318225442
30
0
41
1
10
15.547695565556
20
2.42309974040484
30
0
41
1
10
15.5307171911622
20
2.42248404685912
30
0
0
SPLINE
5
10F
100
AcDbEntity
8
1
62
256
6
ByLayer
370
18
48
1
60
0
100
AcDbSpline
70
4
71
3
72
10
73
6
40
0
40
0
40
0
40
0
40
0.5
40
0.5
40
1
40
1
40
1
40
1
41
1
10
11.0000000000001
20
1.31579277933019
30
0
41
1
10
10.942434796326
20
1.34417875949117
30
0
41
1
10
10.8850880932357
20
1.37243116423142
30
0
41
1
10
10.7708252528862
20
1.42867275696855
30
0
41
1
10
10.7139076369913
20
1.45666284889643
30
0
41
1
10
10.6572309070212
20
1.48450568062816
30
0
0
SPLINE
5
110
100
AcDbEntity
8
1
62
256
6
ByLayer
370
18
48
1
60
0
100
AcDbSpline
70
4
71
3
72
26
73
22
40
0
40
0
40
0
40
0
40
0.0526763921117477
40
0.105335323945094
40
0.157979214589574
40
0.21061042052575
40
0.263231240502199
40
0.315843940986621
40
0.368450745859144
40
0.421053817355673
40
0.473655256472339
40
0.52625710380398
40
0.5788613403909
40
0.63146988857304
40
0.684084612850503
40
0.736707320750051
40
0.789339763696416
40
0.841983637887853
40
0.894640585175336
40
0.947312193944549
40
1
40
1
40
1
40
1
41
1
10
10.6572309070282
20
1.48450568063691
30
0
41
1
10
10.6517857808056
20
1.47767792553893
30
0
41
1
10
10.6408973332187
20
1.4640246784916
30
0
41
1
10
10.6246866475725
20
1.44369886550263
30
0
41
1
10
10.6085690664745
20
1.42349093282996
30
0
41
1
10
10.5925530814226
20
1.40341180445941
30
0
41
1
10
10.5766363781651
20
1.38345874349252
30
0
41
1
10
10.5608195541643
20
1.36363266029235
30
0
41
1
10
10.5451024373013
20
1.34393346108112
30
0
41
1
10
10.5294850572234
20
1.3243612637641
30
0
41
1
10
10.5139673878268
20
1.30491607581959
30
0
41
1
10
10.4985494165128
20
1.28559788138429
30
0
41
1
10
10.4832311270956
20
1.26640662021006
30
0
41
1
10
10.4680124991984
20
1.24734218726419
30
0
41
1
10
10.452893527994
20
1.22840445780764
30
0
41
1
10
10.4378741460584
20
1.20959318988292
30
0
41
1
10
10.4229545165049
20
1.19090839177156
30
0
41
1
10
10.408133938513
20
1.17234895169347
30
0
41
1
10
10.3934149335854
20
1.15391775554369
30
0
41
1
10
10.3787879897216
20
1.13560258174883
30
0
41
1
10
10.3691232541144
20
1.12350112463241
30
0
41
1
10
10.3642901434133
20
1.11744946587368
30
0
0
SPLINE
5
111
100
AcDbEntity
8
1
62
256
6
ByLayer
370
18
48
1
60
0
100
AcDbSpline
70
4
71
3
72
8
73
4
40
0
40
0
40
0
40
0
40
1
40
1
40
1
40
1
41
1
10
20.7771389681594
20
-1.93730293192107
30
0
41
1
10
20.7747670721235
20
-1.93743028938943
30
0
41
1
10
20.7723932439689
20
-1.93755342301014
30
0
41
1
10
20.7700174818102
20
-1.93767232866239
30
0
0
SPLINE
5
112
100
AcDbEntity
8
1
62
256
6
ByLayer
370
18
48
1
60
0
100
AcDbSpline
70
4
71
3
72
8
73
4
40
0
40
0
40
0
40
0
40
1
40
1
40
1
40
1
41
1
10
20.7700174818102
20
-1.93767232866239
30
0
41
1
10
20.7902450894858
20
-1.9207868249396
30
0
41
1
10
20.8104670513038
20
-1.90411811625907
30
0
41
1
10
20.8306832090401
20
-1.88767227827384
30
0
0
SPLINE
5
113
100
AcDbEntity
8
1
62
256
6
ByLayer
370
18
48
1
60
0
100
AcDbSpline
70
4
71
3
72
8
73
4
40
0
40
0
40
0
40
0
40
1
40
1
40
1
40
1
41
1
10
20.8084797648223
20
-1.84935150107489
30
0
41
1
10
20.8157625076697
20
-1.86246572056652
30
0
41
1
10
20.8231618603964
20
-1.87524447671535
30
0
41
1
10
20.8306832090402
20
-1.88767227827384
30
0
0
SPLINE
5
114
100
AcDbEntity
8
1
62
256
6
ByLayer
370
13
48
1
60
0
100
AcDbSpline
70
4
71
3
72
8
73
4
40
0
40
0
40
0
40
0
40
1
40
1
40
1
40
1
41
1
10
20.8084797653327
20
-1.84935150122317
30
0
41
1
10
20.7992332001122
20
-1.85274654364636
30
0
41
1
10
20.7899866348918
20
-1.85612178788011
30
0
41
1
10
20.7807400696714
20
-1.85947716878408
30
0
0
SPLINE
5
115
100
AcDbEntity
8
1
62
256
6
ByLayer
370
13
48
1
60
0
100
AcDbSpline
70
4
71
3
72
24
73
20
40
0
40
0
40
0
40
0
40
0.0484846293707202
40
0.163278873188566
40
0.239808369067129
40
0.354602612884975
40
0.431132108763539
40
0.507661604642102
40
0.584191100520666
40
0.641588222429589
40
0.698985344338512
40
0.737250092277794
40
0.775514840217075
40
0.813779588156357
40
0.852044336095639
40
0.890309084034921
40
0.928573831974203
40
0.966838579913485
40
1
40
1
40
1
40
1
41
1
10
19.5209635825223
20
-2.18762368091933
30
0
41
1
10
19.3889757216816
20
-2.20785428582411
30
0
41
1
10
18.9444878608409
20
-2.26035754688769
30
0
41
1
10
18.2916666666667
20
-2.25731096177998
30
0
41
1
10
17.4583333333334
20
-2.13563233650362
30
0
41
1
10
16.7291666666667
20
-1.92843542738495
30
0
41
1
10
16.0000000000001
20
-1.63402804582753
30
0
41
1
10
15.3750000000001
20
-1.33076459901642
30
0
41
1
10
14.8020833333334
20
-1.01331782510036
30
0
41
1
10
14.2812500000001
20
-0.701538381166557
30
0
41
1
10
13.8645833333334
20
-0.441251083154924
30
0
41
1
10
13.5000000000001
20
-0.209400570976243
30
0
41
1
10
13.1875000000001
20
-0.0090650889853237
30
0
41
1
10
12.8750000000001
20
0.191635601937008
30
0
41
1
10
12.5625000000001
20
0.39117877506726
30
0
41
1
10
12.2500000000001
20
0.587877031002392
30
0
41
1
10
11.9375000000001
20
0.779940869966879
30
0
41
1
10
11.6388925951421
20
0.957334588192623
30
0
41
1
10
11.4444518569508
20
1.06813272932152
30
0
41
1
10
11.3541777854261
20
1.11840103700473
30
0
0
SPLINE
5
116
100
AcDbEntity
8
1
62
256
6
ByLayer
370
18
48
1
60
0
100
AcDbSpline
70
4
71
3
72
8
73
4
40
0
40
0
40
0
40
0
40
1
40
1
40
1
40
1
41
1
10
11.3541777854685
20
1.11840103698103
30
0
41
1
10
11.2740752886832
20
1.1630053944296
30
0
41
1
10
11.1939727918979
20
1.20668654448073
30
0
41
1
10
11.1138702951126
20
1.24933508161445
30
0
0
SPLINE
5
117
100
AcDbEntity
8
1
62
256
6
ByLayer
370
18
48
1
60
0
100
AcDbSpline
70
4
71
3
72
8
73
4
40
0
40
0
40
0
40
0
40
1
40
1
40
1
40
1
41
1
10
20.7771389681596
20
-1.93730293192095
30
0
41
1
10
20.745212717002
20
-1.95062994409568
30
0
41
1
10
20.7132959691656
20
-1.96370169459385
30
0
41
1
10
20.6813852586062
20
-1.97651676445835
30
0
0
SPLINE
5
118
100
AcDbEntity
8
1
62
256
6
ByLayer
370
18
48
1
60
0
100
AcDbSpline
70
4
71
3
72
68
73
64
40
0
40
0
40
0
40
0
40
0.0135796899255993
40
0.0135796899255993
40
0.0464603669280826
40
0.0464603669280826
40
0.0793410439305659
40
0.0793410439305659
40
0.112221720933049
40
0.112221720933049
40
0.12866205943429
40
0.12866205943429
40
0.145102397935531
40
0.145102397935531
40
0.210863751940495
40
0.210863751940495
40
0.227304090441735
40
0.227304090441735
40
0.243744428942975
40
0.243744428942975
40
0.276625105945455
40
0.276625105945455
40
0.342386459950414
40
0.342386459950414
40
0.408147813955373
40
0.408147813955373
40
0.441028490957852
40
0.441028490957852
40
0.457468829459091
40
0.457468829459091
40
0.473909167960331
40
0.473909167960331
40
0.539670521965287
40
0.539670521965287
40
0.556110860466526
40
0.556110860466526
40
0.572551198967765
40
0.572551198967765
40
0.605431875970246
40
0.605431875970246
40
0.638312552972726
40
0.638312552972726
40
0.671193229975206
40
0.671193229975206
40
0.704073906977687
40
0.704073906977687
40
0.736954583980167
40
0.736954583980167
40
0.769835260982647
40
0.769835260982647
40
0.786275599483887
40
0.786275599483887
40
0.802715937985126
40
0.802715937985126
40
0.835596614987605
40
0.835596614987605
40
0.868477291990083
40
0.868477291990083
40
0.901357968992562
40
0.901357968992562
40
0.934238645995041
40
0.934238645995041
40
1
40
1
40
1
40
1
41
1
10
20.2910151330345
20
-2.12040785681074
30
0
41
1
10
20.2488307405221
20
-2.13454604858316
30
0
41
1
10
20.2066322025112
20
-2.1482258053525
30
0
41
1
10
20.0621820347519
20
-2.19344887634514
30
0
41
1
10
19.9597491317414
20
-2.22275530450244
30
0
41
1
10
19.7554374686656
20
-2.27558427696906
30
0
41
1
10
19.6534511918262
20
-2.29914728247675
30
0
41
1
10
19.4495380165439
20
-2.34040235132494
30
0
41
1
10
19.3476069067395
20
-2.35808897985777
30
0
41
1
10
19.1944954871892
20
-2.38007638220665
30
0
41
1
10
19.1434219343473
20
-2.3866489673114
30
0
41
1
10
19.0411601323899
20
-2.39826451651402
30
0
41
1
10
18.9899969801284
20
-2.40330425662412
30
0
41
1
10
18.7344889440274
20
-2.42461351655985
30
0
41
1
10
18.5305880816607
20
-2.42928227849771
30
0
41
1
10
18.275188488146
20
-2.41973018971615
30
0
41
1
10
18.2240819666489
20
-2.41704977725073
30
0
41
1
10
18.1217854481807
20
-2.4101497036857
30
0
41
1
10
18.0705497915419
20
-2.40592479224117
30
0
41
1
10
17.917201746378
20
-2.39099588268323
30
0
41
1
10
17.8153488611414
20
-2.37804149337617
30
0
41
1
10
17.5105930686909
20
-2.33038524648853
30
0
41
1
10
17.3085144784036
20
-2.28685528205773
30
0
41
1
10
16.9044564575548
20
-2.17739792702596
30
0
41
1
10
16.7024590324816
20
-2.11150475181063
30
0
41
1
10
16.397929370339
20
-1.99673278569719
30
0
41
1
10
16.2961669747614
20
-1.95581855485594
30
0
41
1
10
16.1429408565429
20
-1.89059494713075
30
0
41
1
10
16.0917302826747
20
-1.86819428654084
30
0
41
1
10
15.9894628902413
20
-1.8223068731582
30
0
41
1
10
15.9383668035605
20
-1.79880469397725
30
0
41
1
10
15.6830133731862
20
-1.67857071201627
30
0
41
1
10
15.4791602990582
20
-1.57366458653857
30
0
41
1
10
15.2238123557461
20
-1.43263215730693
30
0
41
1
10
15.172714941331
20
-1.40393073715438
30
0
41
1
10
15.0704318629891
20
-1.34556768185698
30
0
41
1
10
15.0192728219713
20
-1.3159210830932
30
0
41
1
10
14.8660313752213
20
-1.22584588599284
30
0
41
1
10
14.764059312213
20
-1.16419919244328
30
0
41
1
10
14.5601935199476
20
-1.0381302639457
30
0
41
1
10
14.4582736598435
20
-0.973780476962389
30
0
41
1
10
14.2541839212707
20
-0.842855673274784
30
0
41
1
10
14.1520119315027
20
-0.776219446067387
30
0
41
1
10
13.9473062331405
20
-0.640859922700031
30
0
41
1
10
13.8451721005523
20
-0.572383514517554
30
0
41
1
10
13.6410779592877
20
-0.434205054920994
30
0
41
1
10
13.5390713939764
20
-0.364594193201128
30
0
41
1
10
13.3348933334914
20
-0.22472463338417
30
0
41
1
10
13.2327501215247
20
-0.154412411926216
30
0
41
1
10
13.0793429734772
20
-0.0485058727135197
30
0
41
1
10
13.0281208809827
20
-0.013094798624337
30
0
41
1
10
12.9259219061445
20
0.0576030271606101
30
0
41
1
10
12.8749404051904
20
0.0928970845860135
30
0
41
1
10
12.7222777761092
20
0.1985250641319
30
0
41
1
10
12.6208391074901
20
0.268574669005915
30
0
41
1
10
12.4183101356143
20
0.407540100595753
30
0
41
1
10
12.3172528372626
20
0.47647964513439
30
0
41
1
10
12.115336140304
20
0.612918142123448
30
0
41
1
10
12.0144787602584
20
0.680417620735653
30
0
41
1
10
11.8126961799247
20
0.813564635763953
30
0
41
1
10
11.7117368318868
20
0.879197291197727
30
0
41
1
10
11.4081624692613
20
1.07271370819271
30
0
41
1
10
11.2049750811438
20
1.19726861298983
30
0
41
1
10
11.0000000000001
20
1.31579277933022
30
0
0
SPLINE
5
119
100
AcDbEntity
8
1
62
256
6
ByLayer
370
13
48
1
60
0
100
AcDbSpline
70
4
71
3
72
20
73
16
40
0
40
0
40
0
40
0
40
0.105130706253722
40
0.203406899039317
40
0.35082118821771
40
0.449097381003305
40
0.547373573788901
40
0.645649766574496
40
0.719356911163692
40
0.793064055752889
40
0.842202152145686
40
0.891340248538484
40
0.940478344931281
40
0.989616441324079
40
1
40
1
40
1
40
1
41
1
10
18.8560921538691
20
0.433720184590356
30
0
41
1
10
18.6332281025794
20
0.607466849679525
30
0
41
1
10
18.2020307179564
20
0.936015122641038
30
0
41
1
10
17.4583333333333
20
1.44853203821427
30
0
41
1
10
16.7291666666666
20
1.86406586675486
30
0
41
1
10
16
20
2.15404921681619
30
0
41
1
10
15.375
20
2.29850213661044
30
0
41
1
10
14.8020833333333
20
2.3364773228769
30
0
41
1
10
14.28125
20
2.29655051514581
30
0
41
1
10
13.8645833333333
20
2.2137136133434
30
0
41
1
10
13.5
20
2.10413777780619
30
0
41
1
10
13.1875
20
1.98477426891117
30
0
41
1
10
12.875
20
1.84223636821301
30
0
41
1
10
12.644654810799
20
1.72174194783361
30
0
41
1
10
12.5184762882646
20
1.65115926368438
30
0
41
1
10
12.496464432397
20
1.63871020391542
30
0
0
SPLINE
5
11A
100
AcDbEntity
8
1
62
256
6
ByLayer
370
18
48
1
60
0
100
AcDbSpline
70
4
71
3
72
8
73
4
40
0
40
0
40
0
40
0
40
1
40
1
40
1
40
1
41
1
10
20.7889342526641
20
-1.16869586537132
30
0
41
1
10
20.802054630226
20
-1.16963375064816
30
0
41
1
10
20.8151759914053
20
-1.17059862028182
30
0
41
1
10
20.8282975351413
20
-1.17159030922528
30
0
0
SPLINE
5
11B
100
AcDbEntity
8
1
62
256
6
ByLayer
370
18
48
1
60
0
100
AcDbSpline
70
4
71
3
72
13
73
9
40
0
40
0
40
0
40
0
40
0.142476383088766
40
0.311186441096208
40
0.479896499103649
40
0.817316615118533
40
0.986026673125974
40
1
40
1
40
1
40
1
41
1
10
10.3850382828633
20
-2.45572947949594
30
0
41
1
10
10.4504312185023
20
-2.46525515682944
30
0
41
1
10
10.5932454616222
20
-2.48269889088519
30
0
41
1
10
10.813421637652
20
-2.49822188320653
30
0
41
1
10
11.1229080022463
20
-2.50252671362119
30
0
41
1
10
11.4321566050891
20
-2.48036172742539
30
0
41
1
10
11.6702109448509
20
-2.44343574101441
30
0
41
1
10
11.7537830564794
20
-2.42799076895372
30
0
41
1
10
11.7601751759222
20
-2.42679493227442
30
0
0
SPLINE
5
11C
100
AcDbEntity
8
1
62
256
6
ByLayer
370
18
48
1
60
0
100
AcDbSpline
70
4
71
3
72
21
73
17
40
0
40
0
40
0
40
0
40
0.250000000000008
40
0.250000000000008
40
0.312500000000009
40
0.312500000000009
40
0.37500000000001
40
0.37500000000001
40
0.500000000000012
40
0.625000000000015
40
0.625000000000015
40
0.687500000000015
40
0.687500000000015
40
0.750000000000016
40
0.750000000000016
40
1
40
1
40
1
40
1
41
1
10
10.3634179590603
20
1.11814314188734
30
0
41
1
10
10.3515680205117
20
1.16031038961256
30
0
41
1
10
10.3443820581905
20
1.20223443037844
30
0
41
1
10
10.3421742554902
20
1.25436707122392
30
0
41
1
10
10.3420736476313
20
1.2647800908818
30
0
41
1
10
10.3425881322781
20
1.28558042456819
30
0
41
1
10
10.3432069913025
20
1.29600258614138
30
0
41
1
10
10.3461676828649
20
1.32696622564308
30
0
41
1
10
10.3530157187536
20
1.36724401518165
30
0
41
1
10
10.3655783316915
20
1.4055955109406
30
0
41
1
10
10.3771407261696
20
1.43366179827751
30
0
41
1
10
10.3813519095501
20
1.44290092498858
30
0
41
1
10
10.3904917566714
20
1.46114981935557
30
0
41
1
10
10.395437980832
20
1.4701863888549
30
0
41
1
10
10.4216504082512
20
1.51427932513579
30
0
41
1
10
10.4474186136568
20
1.54637129433195
30
0
41
1
10
10.4772396468811
20
1.57591636709842
30
0
0
SPLINE
5
11D
100
AcDbEntity
8
1
62
256
6
ByLayer
370
18
48
1
60
0
100
AcDbSpline
70
4
71
3
72
14
73
10
40
0
40
0
40
0
40
0
40
0.295702330730224
40
0.295702330730224
40
0.591404661460448
40
0.591404661460448
40
0.887106992190672
40
0.887106992190672
40
1
40
1
40
1
40
1
41
1
10
9.72270687171752
20
2.44464379326291
30
0
41
1
10
9.73195521546666
20
2.45543052727163
30
0
41
1
10
9.73826883796752
20
2.46468986878662
30
0
41
1
10
9.74679538149667
20
2.48006732550914
30
0
41
1
10
9.74899072281522
20
2.48618642091068
30
0
41
1
10
9.75022964880441
20
2.49519959893937
30
0
41
1
10
9.74926263802456
20
2.49806212068626
30
0
41
1
10
9.74620004028844
20
2.49976833287613
30
0
41
1
10
9.74517104324724
20
2.50000277630548
30
0
41
1
10
9.74396980191193
20
2.50000027224874
30
0
0
SPLINE
5
11E
100
AcDbEntity
8
1
62
256
6
ByLayer
370
18
48
1
60
0
100
AcDbSpline
70
4
71
3
72
20
73
16
40
0
40
0
40
0
40
0
40
0.0290374335461112
40
0.0290374335461112
40
0.150407754352841
40
0.150407754352841
40
0.27177807515957
40
0.27177807515957
40
0.3931483959663
40
0.3931483959663
40
0.51451871677303
40
0.51451871677303
40
0.757259358386515
40
0.757259358386515
40
1
40
1
40
1
40
1
41
1
10
9.97187630920061
20
-2.49999484479534
30
0
41
1
10
9.97941880849606
20
-2.4999907033658
30
0
41
1
10
9.98697750153192
20
-2.49998430011854
30
0
41
1
10
10.0262119738727
20
-2.49994197003036
30
0
41
1
10
10.0581488845123
20
-2.49987664645525
30
0
41
1
10
10.1225461467484
20
-2.49973331985001
30
0
41
1
10
10.1549071824171
20
-2.49965546976173
30
0
41
1
10
10.2197533778686
20
-2.49952040349905
30
0
41
1
10
10.2522682884794
20
-2.49946301972588
30
0
41
1
10
10.3174756579562
20
-2.4993863835108
30
0
41
1
10
10.3502283735254
20
-2.49936712947161
30
0
41
1
10
10.4481372794903
20
-2.49937395227442
30
0
41
1
10
10.513023058506
20
-2.49946948902337
30
0
41
1
10
10.6420525740026
20
-2.4997356159129
30
0
41
1
10
10.7061957483268
20
-2.49990652153653
30
0
41
1
10
10.7699641972578
20
-2.49997363338673
30
0
0
SPLINE
5
11F
100
AcDbEntity
8
1
62
256
6
ByLayer
370
18
48
1
60
0
100
AcDbSpline
70
4
71
3
72
12
73
8
40
0
40
0
40
0
40
0
40
0.272331348993854
40
0.272331348993854
40
0.544662697987709
40
0.544662697987709
40
1
40
1
40
1
40
1
41
1
10
10.36991935253
20
-2.45966514571592
30
0
41
1
10
10.4221583251528
20
-2.4670243946257
30
0
41
1
10
10.4743964783306
20
-2.4733738753601
30
0
41
1
10
10.5790982448005
20
-2.48403720184331
30
0
41
1
10
10.6315744940864
20
-2.48835172566805
30
0
41
1
10
10.7720699144719
20
-2.49721875482214
30
0
41
1
10
10.8602037069312
20
-2.5000113556913
30
0
41
1
10
10.9482179837082
20
-2.50000193885359
30
0
0
SPLINE
5
120
100
AcDbEntity
8
1
62
256
6
ByLayer
370
13
48
1
60
0
100
AcDbSpline
70
4
71
3
72
9
73
5
40
0
40
0
40
0
40
0
40
0.499694786496576
40
1
40
1
40
1
40
1
41
1
10
10.3699193374676
20
-2.45966514972642
30
0
41
1
10
10.3724338112111
20
-2.45899427473583
30
0
41
1
10
10.3774658303785
20
-2.45765170521392
30
0
41
1
10
10.3825131096513
20
-2.45637048277175
30
0
41
1
10
10.3850382897855
20
-2.45572948050426
30
0
0
SPLINE
5
121
100
AcDbEntity
8
1
62
256
6
ByLayer
370
18
48
1
60
0
100
AcDbSpline
70
4
71
3
72
33
73
29
40
0
40
0
40
0
40
0
40
0.146076021316348
40
0.146076021316348
40
0.182595026645436
40
0.182595026645436
40
0.219114031974524
40
0.219114031974524
40
0.292152042632696
40
0.292152042632696
40
0.365190053290869
40
0.365190053290869
40
0.401709058619955
40
0.401709058619955
40
0.438228063949041
40
0.438228063949041
40
0.584304085265389
40
0.584304085265389
40
0.657342095923565
40
0.657342095923565
40
0.73038010658174
40
0.73038010658174
40
0.876456127898094
40
0.876456127898094
40
0.912975133227183
40
0.912975133227183
40
0.949494138556272
40
1
40
1
40
1
40
1
41
1
10
11.0000000000001
20
0.667034058877078
30
0
41
1
10
11.2034327952651
20
0.527176944049671
30
0
41
1
10
11.4062481603961
20
0.38434992972077
30
0
41
1
10
11.6602304328842
20
0.203830862807081
30
0
41
1
10
11.7110814373846
20
0.167606768948133
30
0
41
1
10
11.8126890542881
20
0.0951352845862345
30
0
41
1
10
11.8634427765073
20
0.0588900758165209
30
0
41
1
10
12.0156064436224
20
-0.0497998191495697
30
0
41
1
10
12.1169195596356
20
-0.122197364705272
30
0
41
1
10
12.3195647948966
20
-0.266482872515013
30
0
41
1
10
12.4208966300187
20
-0.338371398163019
30
0
41
1
10
12.5731143431619
20
-0.445533933444494
30
0
41
1
10
12.623890226658
20
-0.481143041774942
30
0
41
1
10
12.7255497399224
20
-0.552088964382421
30
0
41
1
10
12.7764229681279
20
-0.58741817561517
30
0
41
1
10
13.0304299253969
20
-0.762780061913986
30
0
41
1
10
13.2330583813846
20
-0.899341165208284
30
0
41
1
10
13.5375464945362
20
-1.09682514593078
30
0
41
1
10
13.6391742256775
20
-1.16144847866934
30
0
41
1
10
13.8426550326652
20
-1.28780879840167
30
0
41
1
10
13.9441631822402
20
-1.34933934643149
30
0
41
1
10
14.2483685411279
20
-1.52860330520983
30
0
41
1
10
14.45074135928
20
-1.64103695127028
30
0
41
1
10
14.7046483530229
20
-1.77097630470189
30
0
41
1
10
14.7555033317779
20
-1.79644547233488
30
0
41
1
10
14.8570748685519
20
-1.84614905656929
30
0
41
1
10
14.9779971442572
20
-1.90393532142065
30
0
41
1
10
15.0987816054276
20
-1.95822938746881
30
0
41
1
10
15.168877215847
20
-1.98853163931662
30
0
0
SPLINE
5
122
100
AcDbEntity
8
1
62
256
6
ByLayer
370
13
48
1
60
0
100
AcDbSpline
70
4
71
3
72
8
73
4
40
0
40
0
40
0
40
0
40
1
40
1
40
1
40
1
41
1
10
10.3501524597418
20
1.09970961084449
30
0
41
1
10
10.354574290063
20
1.10586659795825
30
0
41
1
10
10.3589961203842
20
1.11201117933245
30
0
41
1
10
10.3634179507053
20
1.11814314702076
30
0
0
SPLINE
5
123
100
AcDbEntity
8
1
62
256
6
ByLayer
370
18
48
1
60
0
100
AcDbSpline
70
4
71
3
72
10
73
6
40
0
40
0
40
0
40
0
40
0.5
40
0.5
40
1
40
1
40
1
40
1
41
1
10
10.9999999999806
20
0.667476324202909
30
0
41
1
10
10.8917375701127
20
0.742048079540126
30
0
41
1
10
10.7831082706675
20
0.815196035349715
30
0
41
1
10
10.5663136973424
20
0.959188672561737
30
0
41
1
10
10.458189111107
20
1.03011585642051
30
0
41
1
10
10.3501499381691
20
1.09970612274296
30
0
0
SPLINE
5
124
100
AcDbEntity
8
1
62
256
6
ByLayer
370
18
48
1
60
0
100
AcDbSpline
70
4
71
3
72
24
73
20
40
0
40
0
40
0
40
0
40
0.0464913065595316
40
0.094395471182467
40
0.142299635805402
40
0.238107965051273
40
0.286012129674208
40
0.333916294297143
40
0.429724623543014
40
0.47762878816595
40
0.525532952788885
40
0.57343711741182
40
0.621341282034755
40
0.669245446657691
40
0.717149611280626
40
0.812957940526497
40
0.860862105149432
40
0.908766269772367
40
1
40
1
40
1
40
1
41
1
10
10.3642901434133
20
1.11744946587368
30
0
41
1
10
10.4386697806414
20
1.06999346371697
30
0
41
1
10
10.5897839339373
20
0.972046803442709
30
0
41
1
10
10.8178820921371
20
0.820118594710749
30
0
41
1
10
11.1254515931272
20
0.610534629337621
30
0
41
1
10
11.4336454387632
20
0.394725239744275
30
0
41
1
10
11.7422227203927
20
0.175709026876405
30
0
41
1
10
12.0509802880801
20
-0.0444544989589417
30
0
41
1
10
12.3598995254647
20
-0.264844974518013
30
0
41
1
10
12.6687365304845
20
-0.482381615426192
30
0
41
1
10
12.9002682126075
20
-0.643355114992318
30
0
41
1
10
13.1316279433569
20
-0.801384484080984
30
0
41
1
10
13.3627182115826
20
-0.955765871139818
30
0
41
1
10
13.5934289632229
20
-1.10576410984271
30
0
41
1
10
13.9004011395354
20
-1.2989694876367
30
0
41
1
10
14.2062343588149
20
-1.48064673364846
30
0
41
1
10
14.5106180071325
20
-1.64861161251787
30
0
41
1
10
14.8066539377994
20
-1.80292588400957
30
0
41
1
10
15.0257859591859
20
-1.90669690438301
30
0
41
1
10
15.1692432176471
20
-1.96968817210501
30
0
0
SPLINE
5
125
100
AcDbEntity
8
1
62
256
6
ByLayer
370
18
48
1
60
0
100
AcDbSpline
70
4
71
3
72
11
73
7
40
0
40
0
40
0
40
0
40
0.0739203499586094
40
0.393056162434996
40
0.712191974911382
40
1
40
1
40
1
40
1
41
1
10
16.8976531807953
20
-2.46363145800475
30
0
41
1
10
16.9329987877357
20
-2.46789860186436
30
0
41
1
10
17.1211619679388
20
-2.48861582520368
30
0
41
1
10
17.4643996336499
20
-2.50694031288836
30
0
41
1
10
17.9172484196393
20
-2.48829801671295
30
0
41
1
10
18.2192107323088
20
-2.44846739358269
30
0
41
1
10
18.3637988547629
20
-2.4231477456627
30
0
0
SPLINE
5
126
100
AcDbEntity
8
1
62
256
6
ByLayer
370
18
48
1
60
0
100
AcDbSpline
70
4
71
3
72
67
73
63
40
0
40
0
40
0
40
0
40
0.0633499450752452
40
0.0633499450752452
40
0.0813624461314905
40
0.0813624461314905
40
0.0903686966596132
40
0.0903686966596132
40
0.0993749471877359
40
0.135399949300225
40
0.135399949300225
40
0.171424951412714
40
0.171424951412714
40
0.207449953525204
40
0.207449953525204
40
0.243474955637693
40
0.243474955637693
40
0.261487456693937
40
0.261487456693937
40
0.27049370722206
40
0.27049370722206
40
0.279499957750182
40
0.279499957750182
40
0.351549961975174
40
0.351549961975174
40
0.423599966200165
40
0.423599966200165
40
0.441612467256412
40
0.441612467256412
40
0.450618717784535
40
0.450618717784535
40
0.459624968312658
40
0.495649970425149
40
0.495649970425149
40
0.567699974650133
40
0.567699974650133
40
0.603724976762625
40
0.603724976762625
40
0.621737477818871
40
0.621737477818871
40
0.630743728346993
40
0.630743728346993
40
0.639749978875116
40
0.639749978875116
40
0.711799983100096
40
0.711799983100096
40
0.783849987325076
40
0.783849987325076
40
0.80186248838132
40
0.80186248838132
40
0.810868738909442
40
0.810868738909442
40
0.819874989437564
40
0.855899991550051
40
0.855899991550051
40
0.927949995775026
40
0.927949995775026
40
0.963974997887513
40
0.963974997887513
40
0.981987498943756
40
0.981987498943756
40
1
40
1
40
1
40
1
41
1
10
12.3018835327078
20
1.66595122489736
30
0
41
1
10
12.4805312824403
20
1.77999903647861
30
0
41
1
10
12.6591431712987
20
1.88447535644409
30
0
41
1
10
12.8902267708146
20
2.00498192671259
30
0
41
1
10
12.9414900106171
20
2.03080007435779
30
0
41
1
10
13.0185855842906
20
2.06819118761462
30
0
41
1
10
13.0443398553668
20
2.08044227298089
30
0
41
1
10
13.095764327424
20
2.10441716855465
30
0
41
1
10
13.2241594460169
20
2.16305931025184
30
0
41
1
10
13.3518213859454
20
2.21521851560934
30
0
41
1
10
13.5555211516183
20
2.29036475745647
30
0
41
1
10
13.6570817847853
20
2.32378195385877
30
0
41
1
10
13.860025905055
20
2.38221782710454
30
0
41
1
10
13.9614076178448
20
2.40725505383912
30
0
41
1
10
14.1644600733254
20
2.44867300952487
30
0
41
1
10
14.2661323661446
20
2.46504455372696
30
0
41
1
10
14.4192598440387
20
2.48284261293705
30
0
41
1
10
14.470405734074
20
2.48764981068408
30
0
41
1
10
14.5473318921183
20
2.49314366482037
30
0
41
1
10
14.5730309628049
20
2.49468954089761
30
0
41
1
10
14.6243326084392
20
2.49719650574849
30
0
41
1
10
14.6499481152532
20
2.49815905229357
30
0
41
1
10
14.8802099400554
20
2.50422442860602
30
0
41
1
10
15.0829444296599
20
2.49119844407173
30
0
41
1
10
15.4886448042994
20
2.43000227489137
30
0
41
1
10
15.6916182869026
20
2.38180885767528
30
0
41
1
10
15.9475461490205
20
2.29983007372022
30
0
41
1
10
15.9988392811299
20
2.28234508007591
30
0
41
1
10
16.0759737635882
20
2.25447535635496
30
0
41
1
10
16.101739731756
20
2.24490307874456
30
0
41
1
10
16.1531677842879
20
2.22527814039915
30
0
41
1
10
16.2815482261575
20
2.17499127781861
30
0
41
1
10
16.4090649725406
20
2.11868093582939
30
0
41
1
10
16.714152315496
20
1.97259566382451
30
0
41
1
10
16.9162614607201
20
1.86061529708894
30
0
41
1
10
17.2205677309854
20
1.67297040935955
30
0
41
1
10
17.3221969058312
20
1.60714756801826
30
0
41
1
10
17.4753393990324
20
1.50378183068227
30
0
41
1
10
17.5265034682278
20
1.46855462165823
30
0
41
1
10
17.60347638401
20
1.41458999963959
30
0
41
1
10
17.6291937387724
20
1.39639871765985
30
0
41
1
10
17.6805363062196
20
1.35977395935453
30
0
41
1
10
17.7061755854642
20
1.34133090584922
30
0
41
1
10
17.936679201287
20
1.17421419931938
30
0
41
1
10
18.1398682461158
20
1.01773348434546
30
0
41
1
10
18.5460941283858
20
0.692842456701868
30
0
41
1
10
18.7490561408568
20
0.524355475562544
30
0
41
1
10
19.0046799392019
20
0.30842618922307
30
0
41
1
10
19.0559025964298
20
0.264975146714761
30
0
41
1
10
19.1329285342505
20
0.199445429646829
30
0
41
1
10
19.1586568361003
20
0.177525325535214
30
0
41
1
10
19.21000584234
20
0.133729204777012
30
0
41
1
10
19.3381872338909
20
0.0242831019350547
30
0
41
1
10
19.4655191102623
20
-0.0848218905422584
30
0
41
1
10
19.7702915373178
20
-0.345108984174516
30
0
41
1
10
19.9723922320557
20
-0.516535306156868
30
0
41
1
10
20.2769604863196
20
-0.767001369809208
30
0
41
1
10
20.3787161761554
20
-0.849380430697181
30
0
41
1
10
20.5320499829583
20
-0.970864359498194
30
0
41
1
10
20.5832777037199
20
-1.0110118279955
30
0
41
1
10
20.6860203459921
20
-1.0905467551178
30
0
41
1
10
20.7375126384693
20
-1.12991512084278
30
0
41
1
10
20.7889342526641
20
-1.16869586537129
30
0
0
SPLINE
5
127
100
AcDbEntity
8
1
62
256
6
ByLayer
370
18
48
1
60
0
100
AcDbSpline
70
4
71
3
72
24
73
20
40
0
40
0
40
0
40
0
40
0.0645276963081389
40
0.104469944357797
40
0.144412192407456
40
0.224296688506773
40
0.30418118460609
40
0.384065680705407
40
0.463950176804724
40
0.543834672904041
40
0.623719169003358
40
0.663661417053017
40
0.703603665102676
40
0.783488161201993
40
0.823430409251651
40
0.86337265730131
40
0.903314905350968
40
0.943257153400627
40
1
40
1
40
1
40
1
41
1
10
14.8159832816649
20
2.49964401366634
30
0
41
1
10
14.9357747764722
20
2.49915137797146
30
0
41
1
10
15.1292825894523
20
2.48820674916553
30
0
41
1
10
15.3963475941214
20
2.45074768754463
30
0
41
1
10
15.6917476912893
20
2.39062338623822
30
0
41
1
10
16.0613966377513
20
2.28078344548237
30
0
41
1
10
16.507159070471
20
2.09567639266101
30
0
41
1
10
16.9569733910668
20
1.85999152551818
30
0
41
1
10
17.4126741567834
20
1.57642623665598
30
0
41
1
10
17.8762575074031
20
1.24869952726377
30
0
41
1
10
18.271343725998
20
0.942734840944297
30
0
41
1
10
18.5940427195981
20
0.680691908634941
30
0
41
1
10
18.9216939161679
20
0.408176798808114
30
0
41
1
10
19.2576042977545
20
0.1218534063199
30
0
41
1
10
19.6036816287208
20
-0.173707671304243
30
0
41
1
10
19.8687995457629
20
-0.39890222766158
30
0
41
1
10
20.140073004827
20
-0.626005826980531
30
0
41
1
10
20.4572422366985
20
-0.885148326687187
30
0
41
1
10
20.6891948445889
20
-1.06667521145539
30
0
41
1
10
20.8282975352515
20
-1.17159030810916
30
0
0
SPLINE
5
128
100
AcDbEntity
8
1
62
256
6
ByLayer
370
18
48
1
60
0
100
AcDbSpline
70
4
71
3
72
11
73
7
40
0
40
0
40
0
40
0
40
0.315573875938057
40
0.503438548787109
40
0.689531757754412
40
1
40
1
40
1
40
1
41
1
10
12.2679233762627
20
-2.19869757242611
30
0
41
1
10
12.4369796636611
20
-2.19611649113926
30
0
41
1
10
12.7068925031072
20
-2.18673455513689
30
0
41
1
10
13.0769825190114
20
-2.16226128433124
30
0
41
1
10
13.4448083668378
20
-2.12972697433656
30
0
41
1
10
13.7114996102022
20
-2.09851747495813
30
0
41
1
10
13.8782446464582
20
-2.07599536614532
30
0
0
SPLINE
5
129
100
AcDbEntity
8
1
62
256
6
ByLayer
370
18
48
1
60
0
100
AcDbSpline
70
4
71
3
72
8
73
4
40
0
40
0
40
0
40
0
40
1
40
1
40
1
40
1
41
1
10
14.5893573667413
20
-1.92933890924235
30
0
41
1
10
14.6876398966491
20
-1.90214298651645
30
0
41
1
10
14.7859609974089
20
-1.87510928253326
30
0
41
1
10
14.8843192852329
20
-1.84821319113215
30
0
0
SPLINE
5
12A
100
AcDbEntity
8
1
62
256
6
ByLayer
370
18
48
1
60
0
100
AcDbSpline
70
4
71
3
72
12
73
8
40
0
40
0
40
0
40
0
40
0.111130151609943
40
0.256202973471731
40
0.448658892059411
40
0.690162157591893
40
1
40
1
40
1
40
1
41
1
10
19.8665283298846
20
1.47120554550332
30
0
41
1
10
19.7959422516237
20
1.48766750497452
30
0
41
1
10
19.633336711026
20
1.52630732517721
30
0
41
1
10
19.349185079544
20
1.5972762420088
30
0
41
1
10
18.9830488123424
20
1.69200944278344
30
0
41
1
10
18.5131534836842
20
1.81891968396764
30
0
41
1
10
18.1650802391701
20
1.91294625442069
30
0
41
1
10
17.9695638686188
20
1.96624934364991
30
0
0
SPLINE
5
12B
100
AcDbEntity
8
1
62
256
6
ByLayer
370
18
48
1
60
0
100
AcDbSpline
70
4
71
3
72
15
73
11
40
0
40
0
40
0
40
0
40
0.174072505279526
40
0.291846781816565
40
0.38390180445016
40
0.475660041171372
40
0.557668113382722
40
0.647352831530495
40
0.794005782344738
40
1
40
1
40
1
40
1
41
1
10
14.3376385612798
20
1.31679304077366
30
0
41
1
10
14.1437009853371
20
1.3465293776602
30
0
41
1
10
13.8188608095173
20
1.39810746771255
30
0
41
1
10
13.3933463526862
20
1.47096103729677
30
0
41
1
10
13.0579183765032
20
1.52864975504176
30
0
41
1
10
12.76222593962
20
1.5812515164389
30
0
41
1
10
12.469313565555
20
1.63332440047776
30
0
41
1
10
12.1150496629554
20
1.69643168076885
30
0
41
1
10
11.6227573995102
20
1.78232605329515
30
0
41
1
10
11.2297248357016
20
1.84709630967956
30
0
41
1
10
11
20
1.88382367357855
30
0
0
SPLINE
5
12C
100
AcDbEntity
8
1
62
256
6
ByLayer
370
18
48
1
60
0
100
AcDbSpline
70
4
71
2
72
6
73
3
40
0
40
0
40
0
40
1
40
1
40
1
41
1
10
18.9112844534659
20
-2.19856800574675
30
0
41
1
10
19.7233652815788
20
-2.18982194343033
30
0
41
1
10
20.5289752279699
20
-2.08477823966646
30
0
0
SPLINE
5
12D
100
AcDbEntity
8
1
62
256
6
ByLayer
370
18
48
1
60
0
100
AcDbSpline
70
4
71
3
72
8
73
4
40
0
40
0
40
0
40
0
40
1
40
1
40
1
40
1
41
1
10
17.4485774341615
20
2.07528774559023
30
0
41
1
10
17.3365724335296
20
2.0920030946279
30
0
41
1
10
17.2245495968576
20
2.10706691165927
30
0
41
1
10
17.112513809543
20
2.12050769751488
30
0
0
LINE
5
77
100
AcDbEntity
8
80
62
256
6
ByLayer
370
18
48
1
60
0
100
AcDbLine
10
0
20
0
30
0
11
-5
21
0
31
0
39
0
210
0
220
0
230
1
0
LINE
5
78
100
AcDbEntity
8
SK4
62
256
6
ByLayer
370
18
48
0.05
60
0
100
AcDbLine
10
-36
20
0
30
0
11
21
21
0
31
0
39
0
210
0
220
0
230
1
0
LINE
5
7A
100
AcDbEntity
8
81
62
256
6
ByLayer
370
18
48
1
60
0
100
AcDbLine
10
21
20
0
30
0
11
26
21
0
31
0
39
0
210
0
220
0
230
1
0
LINE
5
7B
100
AcDbEntity
8
4
62
256
6
ByLayer
370
18
48
0.05
60
0
100
AcDbLine
10
0
20
0
30
0
11
21
21
0
31
0
39
0
210
0
220
0
230
1
0
LINE
5
7D
100
AcDbEntity
8
1
62
256
6
ByLayer
370
18
48
1
60
0
100
AcDbLine
10
0
20
3
30
0
11
0
21
0
31
0
39
0
210
0
220
0
230
1
0
LINE
5
7E
100
AcDbEntity
8
1
62
256
6
ByLayer
370
18
48
1
60
0
100
AcDbLine
10
0
20
0
30
0
11
0
21
-3
31
0
39
0
210
0
220
0
230
1
0
LINE
5
7F
100
AcDbEntity
8
1
62
256
6
ByLayer
370
18
48
1
60
0
100
AcDbLine
10
20.996678
20
-1.382959
30
0
11
20.942315
21
-1.653879
31
0
39
0
210
0
220
0
230
1
0
LINE
5
80
100
AcDbEntity
8
1
62
256
6
ByLayer
370
18
48
1
60
0
100
AcDbLine
10
20.985609
20
-1.131583
30
0
11
20.996678
21
-1.382959
31
0
39
0
210
0
220
0
230
1
0
LINE
5
81
100
AcDbEntity
8
1
62
256
6
ByLayer
370
18
48
1
60
0
100
AcDbLine
10
20.882289
20
2.481713
30
0
11
20.996678
21
2.368662
31
0
39
0
210
0
220
0
230
1
0
LINE
5
82
100
AcDbEntity
8
1
62
256
6
ByLayer
370
18
48
1
60
0
100
AcDbLine
10
20.895567
20
-0.087281
30
0
11
20.931283
21
-0.092619
31
0
39
0
210
0
220
0
230
1
0
LINE
5
83
100
AcDbEntity
8
1
62
256
6
ByLayer
370
18
48
1
60
0
100
AcDbLine
10
20.931283
20
-0.092619
30
0
11
20.996678
21
2.368662
31
0
39
0
210
0
220
0
230
1
0
LINE
5
84
100
AcDbEntity
8
1
62
256
6
ByLayer
370
18
48
1
60
0
100
AcDbLine
10
20.942315
20
-1.653879
30
0
11
20.830683
21
-1.887672
31
0
39
0
210
0
220
0
230
1
0
LINE
5
85
100
AcDbEntity
8
1
62
256
6
ByLayer
370
18
48
1
60
0
100
AcDbLine
10
20.942315
20
-1.653879
30
0
11
20.920691
21
-1.155912
31
0
39
0
210
0
220
0
230
1
0
LINE
5
86
100
AcDbEntity
8
1
62
256
6
ByLayer
370
18
48
1
60
0
100
AcDbLine
10
20.401826
20
-1.828629
30
0
11
20.774014
21
-1.157346
31
0
39
0
210
0
220
0
230
1
0
LINE
5
87
100
AcDbEntity
8
1
62
256
6
ByLayer
370
13
48
1
60
0
100
AcDbLine
10
20.113567
20
-0.642691
30
0
11
19.527483
21
-1.023143
31
0
39
0
210
0
220
0
230
1
0
LINE
5
88
100
AcDbEntity
8
1
62
256
6
ByLayer
370
18
48
1
60
0
100
AcDbLine
10
9.722707
20
2.444644
30
0
11
11
21
1.817237
31
0
39
0
210
0
220
0
230
1
0
LINE
5
89
100
AcDbEntity
8
1
62
256
6
ByLayer
370
13
48
1
60
0
100
AcDbLine
10
9.092691
20
2.291835
30
0
11
11
21
1.354965
31
0
39
0
210
0
220
0
230
1
0
LINE
5
8A
100
AcDbEntity
8
1
62
256
6
ByLayer
370
18
48
1
60
0
100
AcDbLine
10
11
20
-2.127958
30
0
11
11
21
-2.325213
31
0
39
0
210
0
220
0
230
1
0
LINE
5
8B
100
AcDbEntity
8
1
62
256
6
ByLayer
370
13
48
1
60
0
100
AcDbLine
10
9.261693
20
-1.686323
30
0
11
11
21
-2.127958
31
0
39
0
210
0
220
0
230
1
0
LINE
5
8C
100
AcDbEntity
8
1
62
256
6
ByLayer
370
18
48
1
60
0
100
AcDbLine
10
11
20
-2.127958
30
0
11
11
21
-2.044287
31
0
39
0
210
0
220
0
230
1
0
LINE
5
8D
100
AcDbEntity
8
1
62
256
6
ByLayer
370
13
48
1
60
0
100
AcDbLine
10
9.259767
20
-1.602163
30
0
11
11
21
-2.044287
31
0
39
0
210
0
220
0
230
1
0
LINE
5
8E
100
AcDbEntity
8
1
62
256
6
ByLayer
370
18
48
1
60
0
100
AcDbLine
10
11
20
-2.044287
30
0
11
11
21
-1.628252
31
0
39
0
210
0
220
0
230
1
0
LINE
5
8F
100
AcDbEntity
8
1
62
256
6
ByLayer
370
18
48
1
60
0
100
AcDbLine
10
20.959081
20
-0.481598
30
0
11
20.996678
21
-1.12744
31
0
39
0
210
0
220
0
230
1
0
LINE
5
90
100
AcDbEntity
8
1
62
256
6
ByLayer
370
18
48
1
60
0
100
AcDbLine
10
20.908526
20
-0.1208
30
0
11
20.959081
21
-0.481598
31
0
39
0
210
0
220
0
230
1
0
LINE
5
91
100
AcDbEntity
8
1
62
256
6
ByLayer
370
18
48
1
60
0
100
AcDbLine
10
11
20
1.354965
30
0
11
11
21
1.315793
31
0
39
0
210
0
220
0
230
1
0
LINE
5
92
100
AcDbEntity
8
1
62
256
6
ByLayer
370
18
48
1
60
0
100
AcDbLine
10
20.942315
20
-0.704887
30
0
11
20.908526
21
-0.1208
31
0
39
0
210
0
220
0
230
1
0
LINE
5
93
100
AcDbEntity
8
1
62
256
6
ByLayer
370
18
48
1
60
0
100
AcDbLine
10
20.38866
20
1.223986
30
0
11
20.908526
21
-0.1208
31
0
39
0
210
0
220
0
230
1
0
LINE
5
94
100
AcDbEntity
8
1
62
256
6
ByLayer
370
18
48
1
60
0
100
AcDbLine
10
20.879885
20
-1.171195
30
0
11
20.996678
21
-1.12744
31
0
39
0
210
0
220
0
230
1
0
LINE
5
95
100
AcDbEntity
8
1
62
256
6
ByLayer
370
18
48
1
60
0
100
AcDbLine
10
20.996678
20
-1.12744
30
0
11
20.942315
21
-0.704887
31
0
39
0
210
0
220
0
230
1
0
LINE
5
96
100
AcDbEntity
8
1
62
256
6
ByLayer
370
18
48
1
60
0
100
AcDbLine
10
20.942315
20
-0.704887
30
0
11
20.820466
21
-0.423162
31
0
39
0
210
0
220
0
230
1
0
LINE
5
97
100
AcDbEntity
8
1
62
256
6
ByLayer
370
18
48
1
60
0
100
AcDbLine
10
11
20
-0.187431
30
0
11
11
21
0.650337
31
0
39
0
210
0
220
0
230
1
0
LINE
5
98
100
AcDbEntity
8
1
62
256
6
ByLayer
370
13
48
1
60
0
100
AcDbLine
10
10.74791
20
0.714383
30
0
11
11
21
0.650337
31
0
39
0
210
0
220
0
230
1
0
LINE
5
99
100
AcDbEntity
8
1
62
256
6
ByLayer
370
18
48
1
60
0
100
AcDbLine
10
11
20
-0.367128
30
0
11
11
21
-0.187431
31
0
39
0
210
0
220
0
230
1
0
LINE
5
9A
100
AcDbEntity
8
1
62
256
6
ByLayer
370
13
48
1
60
0
100
AcDbLine
10
9.235279
20
0.260915
30
0
11
11
21
-0.187431
31
0
39
0
210
0
220
0
230
1
0
LINE
5
9B
100
AcDbEntity
8
1
62
256
6
ByLayer
370
18
48
1
60
0
100
AcDbLine
10
9.802602
20
-1.32404
30
0
11
11
21
-1.628252
31
0
39
0
210
0
220
0
230
1
0
LINE
5
9C
100
AcDbEntity
8
1
62
256
6
ByLayer
370
18
48
1
60
0
100
AcDbLine
10
11
20
-1.628252
30
0
11
11
21
-0.367128
31
0
39
0
210
0
220
0
230
1
0
LINE
5
9D
100
AcDbEntity
8
1
62
256
6
ByLayer
370
13
48
1
60
0
100
AcDbLine
10
9.245973
20
0.078501
30
0
11
11
21
-0.367128
31
0
39
0
210
0
220
0
230
1
0
LINE
5
9E
100
AcDbEntity
8
1
62
256
6
ByLayer
370
18
48
1
60
0
100
AcDbLine
10
11
20
0.667033
30
0
11
11
21
0.650337
31
0
39
0
210
0
220
0
230
1
0
LINE
5
9F
100
AcDbEntity
8
1
62
256
6
ByLayer
370
18
48
1
60
0
100
AcDbLine
10
11
20
0.667033
30
0
11
11
21
0.667476
31
0
39
0
210
0
220
0
230
1
0
LINE
5
A0
100
AcDbEntity
8
1
62
256
6
ByLayer
370
13
48
1
60
0
100
AcDbLine
10
3.997679
20
-2.5
30
0
11
3.997679
21
0
31
0
39
0
210
0
220
0
230
1
0
LINE
5
A1
100
AcDbEntity
8
1
62
256
6
ByLayer
370
13
48
1
60
0
100
AcDbLine
10
3.997679
20
0
30
0
11
3.997679
21
2.5
31
0
39
0
210
0
220
0
230
1
0
LINE
5
A2
100
AcDbEntity
8
1
62
256
6
ByLayer
370
13
48
1
60
0
100
AcDbLine
10
3.497679
20
2.633975
30
0
11
3.497679
21
0
31
0
39
0
210
0
220
0
230
1
0
LINE
5
A3
100
AcDbEntity
8
1
62
256
6
ByLayer
370
13
48
1
60
0
100
AcDbLine
10
3.497679
20
0
30
0
11
3.497679
21
-2.633975
31
0
39
0
210
0
220
0
230
1
0
LINE
5
A4
100
AcDbEntity
8
1
62
256
6
ByLayer
370
18
48
1
60
0
100
AcDbLine
10
2.863704
20
3
30
0
11
2.863704
21
0
31
0
39
0
210
0
220
0
230
1
0
LINE
5
A5
100
AcDbEntity
8
1
62
256
6
ByLayer
370
18
48
1
60
0
100
AcDbLine
10
2.863704
20
0
30
0
11
2.863704
21
-3
31
0
39
0
210
0
220
0
230
1
0
LINE
5
A6
100
AcDbEntity
8
SK1
62
256
6
ByLayer
370
18
48
1
60
0
100
AcDbLine
10
-36
20
-2.6
30
0
11
-36
21
2.6
31
0
39
0
210
0
220
0
230
1
0
LINE
5
A8
100
AcDbEntity
8
SK1
62
256
6
ByLayer
370
18
48
1
60
0
100
AcDbLine
10
0
20
3
30
0
11
0
21
0
31
0
39
0
210
0
220
0
230
1
0
LINE
5
A9
100
AcDbEntity
8
SK1
62
256
6
ByLayer
370
18
48
1
60
0
100
AcDbLine
10
0
20
0
30
0
11
0
21
-3
31
0
39
0
210
0
220
0
230
1
0
LINE
5
AA
100
AcDbEntity
8
SK1
62
256
6
ByLayer
370
18
48
1
60
0
100
AcDbLine
10
-35.6
20
3
30
0
11
-35.6
21
-3
31
0
39
0
210
0
220
0
230
1
0
LINE
5
AB
100
AcDbEntity
8
1
62
256
6
ByLayer
370
18
48
1
60
0
100
AcDbLine
10
2.863704
20
3
30
0
11
0
21
3
31
0
39
0
210
0
220
0
230
1
0
LINE
5
AC
100
AcDbEntity
8
1
62
256
6
ByLayer
370
18
48
1
60
0
100
AcDbLine
10
0
20
-3
30
0
11
2.863704
21
-3
31
0
39
0
210
0
220
0
230
1
0
LINE
5
AD
100
AcDbEntity
8
1
62
256
6
ByLayer
370
18
48
1
60
0
100
AcDbLine
10
11.005866
20
1.880972
30
0
11
9.745652
21
2.499989
31
0
39
0
210
0
220
0
230
1
0
LINE
5
AE
100
AcDbEntity
8
1
62
256
6
ByLayer
370
18
48
1
60
0
100
AcDbLine
10
9.740612
20
2.5
30
0
11
3.997679
21
2.5
31
0
39
0
210
0
220
0
230
1
0
LINE
5
AF
100
AcDbEntity
8
1
62
256
6
ByLayer
370
18
48
1
60
0
100
AcDbLine
10
3.997679
20
-2.5
30
0
11
9.973215
21
-2.5
31
0
39
0
210
0
220
0
230
1
0
LINE
5
B0
100
AcDbEntity
8
1
62
256
6
ByLayer
370
18
48
1
60
0
100
AcDbLine
10
10.820093
20
-2.5
30
0
11
10.948113
21
-2.5
31
0
39
0
210
0
220
0
230
1
0
LINE
5
B1
100
AcDbEntity
8
1
62
256
6
ByLayer
370
18
48
1
60
0
100
AcDbLine
10
3.497679
20
2.633975
30
0
11
2.863704
21
3
31
0
39
0
210
0
220
0
230
1
0
LINE
5
B2
100
AcDbEntity
8
1
62
256
6
ByLayer
370
18
48
1
60
0
100
AcDbLine
10
2.863704
20
-3
30
0
11
3.497679
21
-2.633975
31
0
39
0
210
0
220
0
230
1
0
LINE
5
B3
100
AcDbEntity
8
SK1
62
256
6
ByLayer
370
18
48
1
60
0
100
AcDbLine
10
-36
20
-2.6
30
0
11
-35.6
21
-3
31
0
39
0
210
0
220
0
230
1
0
LINE
5
B4
100
AcDbEntity
8
SK1
62
256
6
ByLayer
370
18
48
1
60
0
100
AcDbLine
10
-35.6
20
3
30
0
11
-36
21
2.6
31
0
39
0
210
0
220
0
230
1
0
LINE
5
B5
100
AcDbEntity
8
SK1
62
256
6
ByLayer
370
18
48
1
60
0
100
AcDbLine
10
0
20
3
30
0
11
-35.6
21
3
31
0
39
0
210
0
220
0
230
1
0
LINE
5
B6
100
AcDbEntity
8
SK1
62
256
6
ByLayer
370
18
48
1
60
0
100
AcDbLine
10
-35.6
20
-3
30
0
11
0
21
-3
31
0
39
0
210
0
220
0
230
1
0
LINE
5
B7
100
AcDbEntity
8
SK2
62
256
6
ByLayer
370
18
48
1
60
0
100
AcDbLine
10
-43.85
20
11.75
30
0
11
-43.85
21
-19.315466
31
0
39
0
210
0
220
0
230
1
0
LINE
5
B9
100
AcDbEntity
8
SK2
62
256
6
ByLayer
370
18
48
1
60
0
100
AcDbLine
10
-37.1875
20
3
30
0
11
-45.85
21
3
31
0
39
0
210
0
220
0
230
1
0
LINE
5
BA
100
AcDbEntity
8
SK2
62
256
6
ByLayer
370
18
48
1
60
0
100
AcDbLine
10
-37.1875
20
-3
30
0
11
-45.85
21
-3
31
0
39
0
210
0
220
0
230
1
0
LINE
5
BB
100
AcDbEntity
8
1
62
256
6
ByLayer
370
18
48
1
60
1
100
AcDbLine
10
-43.85
20
3
30
0
11
-44.310784
21
6.499998
31
0
39
0
210
0
220
0
230
1
0
LINE
5
BC
100
AcDbEntity
8
1
62
256
6
ByLayer
370
18
48
1
60
1
100
AcDbLine
10
-44.310784
20
6.499998
30
0
11
-43.389216
21
6.500002
31
0
39
0
210
0
220
0
230
1
0
LINE
5
BD
100
AcDbEntity
8
1
62
256
6
ByLayer
370
18
48
1
60
1
100
AcDbLine
10
-43.389216
20
6.500002
30
0
11
-43.85
21
3
31
0
39
0
210
0
220
0
230
1
0
LINE
5
BE
100
AcDbEntity
8
1
62
256
6
ByLayer
370
18
48
1
60
1
100
AcDbLine
10
-43.85
20
-3
30
0
11
-43.389216
21
-6.499998
31
0
39
0
210
0
220
0
230
1
0
LINE
5
BF
100
AcDbEntity
8
1
62
256
6
ByLayer
370
18
48
1
60
1
100
AcDbLine
10
-43.389216
20
-6.499998
30
0
11
-44.310784
21
-6.500002
31
0
39
0
210
0
220
0
230
1
0
LINE
5
C0
100
AcDbEntity
8
1
62
256
6
ByLayer
370
18
48
1
60
1
100
AcDbLine
10
-44.310784
20
-6.500002
30
0
11
-43.85
21
-3
31
0
39
0
210
0
220
0
230
1
0
LINE
5
C1
100
AcDbEntity
8
2
62
256
6
ByLayer
370
18
48
1
60
0
100
AcDbLine
10
33
20
18.815566
30
0
11
33
21
-11.2501
31
0
39
0
210
0
220
0
230
1
0
LINE
5
C3
100
AcDbEntity
8
2
62
256
6
ByLayer
370
18
48
1
60
0
100
AcDbLine
10
22.5875
20
2.5001
30
0
11
35
21
2.5001
31
0
39
0
210
0
220
0
230
1
0
LINE
5
C4
100
AcDbEntity
8
2
62
256
6
ByLayer
370
18
48
1
60
0
100
AcDbLine
10
22.5875
20
-2.5001
30
0
11
35
21
-2.5001
31
0
39
0
210
0
220
0
230
1
0
LINE
5
C5
100
AcDbEntity
8
1
62
256
6
ByLayer
370
18
48
1
60
1
100
AcDbLine
10
33
20
2.5001
30
0
11
32.539216
21
6.000098
31
0
39
0
210
0
220
0
230
1
0
LINE
5
C6
100
AcDbEntity
8
1
62
256
6
ByLayer
370
18
48
1
60
1
100
AcDbLine
10
32.539216
20
6.000098
30
0
11
33.460784
21
6.000102
31
0
39
0
210
0
220
0
230
1
0
LINE
5
C7
100
AcDbEntity
8
1
62
256
6
ByLayer
370
18
48
1
60
1
100
AcDbLine
10
33.460784
20
6.000102
30
0
11
33
21
2.5001
31
0
39
0
210
0
220
0
230
1
0
LINE
5
C8
100
AcDbEntity
8
1
62
256
6
ByLayer
370
18
48
1
60
1
100
AcDbLine
10
33
20
-2.5001
30
0
11
33.460784
21
-6.000098
31
0
39
0
210
0
220
0
230
1
0
LINE
5
C9
100
AcDbEntity
8
1
62
256
6
ByLayer
370
18
48
1
60
1
100
AcDbLine
10
33.460784
20
-6.000098
30
0
11
32.539216
21
-6.000102
31
0
39
0
210
0
220
0
230
1
0
LINE
5
CA
100
AcDbEntity
8
1
62
256
6
ByLayer
370
18
48
1
60
1
100
AcDbLine
10
32.539216
20
-6.000102
30
0
11
33
21
-2.5001
31
0
39
0
210
0
220
0
230
1
0
LINE
5
CB
100
AcDbEntity
8
SK2
62
256
6
ByLayer
370
18
48
1
60
0
100
AcDbLine
10
21
20
-33.1
30
0
11
-36
21
-33.1
31
0
39
0
210
0
220
0
230
1
0
LINE
5
CC
100
AcDbEntity
8
SK2
62
256
6
ByLayer
370
18
48
1
60
0
100
AcDbLine
10
-36
20
-4.1875
30
0
11
-36
21
-35.1
31
0
39
0
210
0
220
0
230
1
0
LINE
5
CD
100
AcDbEntity
8
SK2
62
256
6
ByLayer
370
18
48
1
60
0
100
AcDbLine
10
21
20
-4.0876
30
0
11
21
21
-35.1
31
0
39
0
210
0
220
0
230
1
0
LINE
5
CE
100
AcDbEntity
8
1
62
256
6
ByLayer
370
18
48
1
60
1
100
AcDbLine
10
-36
20
-33.1
30
0
11
-32.500002
21
-32.639216
31
0
39
0
210
0
220
0
230
1
0
LINE
5
CF
100
AcDbEntity
8
1
62
256
6
ByLayer
370
18
48
1
60
1
100
AcDbLine
10
-32.500002
20
-32.639216
30
0
11
-32.499998
21
-33.560784
31
0
39
0
210
0
220
0
230
1
0
LINE
5
D0
100
AcDbEntity
8
1
62
256
6
ByLayer
370
18
48
1
60
1
100
AcDbLine
10
-32.499998
20
-33.560784
30
0
11
-36
21
-33.1
31
0
39
0
210
0
220
0
230
1
0
LINE
5
D1
100
AcDbEntity
8
1
62
256
6
ByLayer
370
18
48
1
60
1
100
AcDbLine
10
21
20
-33.1
30
0
11
17.500002
21
-33.560784
31
0
39
0
210
0
220
0
230
1
0
LINE
5
D2
100
AcDbEntity
8
1
62
256
6
ByLayer
370
18
48
1
60
1
100
AcDbLine
10
17.500002
20
-33.560784
30
0
11
17.499998
21
-32.639216
31
0
39
0
210
0
220
0
230
1
0
LINE
5
D3
100
AcDbEntity
8
1
62
256
6
ByLayer
370
18
48
1
60
1
100
AcDbLine
10
17.499998
20
-32.639216
30
0
11
21
21
-33.1
31
0
39
0
210
0
220
0
230
1
0
LINE
5
132
100
AcDbEntity
8
1
62
256
6
ByLayer
370
18
48
1
60
1
100
AcDbLine
10
-43.85
20
3
30
0
11
-44.310784
21
6.499998
31
0
39
0
210
0
220
0
230
1
0
LINE
5
133
100
AcDbEntity
8
1
62
256
6
ByLayer
370
18
48
1
60
1
100
AcDbLine
10
-44.310784
20
6.499998
30
0
11
-43.389216
21
6.500002
31
0
39
0
210
0
220
0
230
1
0
LINE
5
134
100
AcDbEntity
8
1
62
256
6
ByLayer
370
18
48
1
60
1
100
AcDbLine
10
-43.389216
20
6.500002
30
0
11
-43.85
21
3
31
0
39
0
210
0
220
0
230
1
0
LINE
5
136
100
AcDbEntity
8
1
62
256
6
ByLayer
370
18
48
1
60
1
100
AcDbLine
10
-43.85
20
-3
30
0
11
-43.389216
21
-6.499998
31
0
39
0
210
0
220
0
230
1
0
LINE
5
137
100
AcDbEntity
8
1
62
256
6
ByLayer
370
18
48
1
60
1
100
AcDbLine
10
-43.389216
20
-6.499998
30
0
11
-44.310784
21
-6.500002
31
0
39
0
210
0
220
0
230
1
0
LINE
5
138
100
AcDbEntity
8
1
62
256
6
ByLayer
370
18
48
1
60
1
100
AcDbLine
10
-44.310784
20
-6.500002
30
0
11
-43.85
21
-3
31
0
39
0
210
0
220
0
230
1
0
LINE
5
13C
100
AcDbEntity
8
1
62
256
6
ByLayer
370
18
48
1
60
1
100
AcDbLine
10
33
20
2.5001
30
0
11
32.539216
21
6.000098
31
0
39
0
210
0
220
0
230
1
0
LINE
5
13D
100
AcDbEntity
8
1
62
256
6
ByLayer
370
18
48
1
60
1
100
AcDbLine
10
32.539216
20
6.000098
30
0
11
33.460784
21
6.000102
31
0
39
0
210
0
220
0
230
1
0
LINE
5
13E
100
AcDbEntity
8
1
62
256
6
ByLayer
370
18
48
1
60
1
100
AcDbLine
10
33.460784
20
6.000102
30
0
11
33
21
2.5001
31
0
39
0
210
0
220
0
230
1
0
LINE
5
140
100
AcDbEntity
8
1
62
256
6
ByLayer
370
18
48
1
60
1
100
AcDbLine
10
33
20
-2.5001
30
0
11
33.460784
21
-6.000098
31
0
39
0
210
0
220
0
230
1
0
LINE
5
141
100
AcDbEntity
8
1
62
256
6
ByLayer
370
18
48
1
60
1
100
AcDbLine
10
33.460784
20
-6.000098
30
0
11
32.539216
21
-6.000102
31
0
39
0
210
0
220
0
230
1
0
LINE
5
142
100
AcDbEntity
8
1
62
256
6
ByLayer
370
18
48
1
60
1
100
AcDbLine
10
32.539216
20
-6.000102
30
0
11
33
21
-2.5001
31
0
39
0
210
0
220
0
230
1
0
LINE
5
145
100
AcDbEntity
8
1
62
256
6
ByLayer
370
18
48
1
60
1
100
AcDbLine
10
-36
20
-33.1
30
0
11
-32.500002
21
-32.639216
31
0
39
0
210
0
220
0
230
1
0
LINE
5
146
100
AcDbEntity
8
1
62
256
6
ByLayer
370
18
48
1
60
1
100
AcDbLine
10
-32.500002
20
-32.639216
30
0
11
-32.499998
21
-33.560784
31
0
39
0
210
0
220
0
230
1
0
LINE
5
147
100
AcDbEntity
8
1
62
256
6
ByLayer
370
18
48
1
60
1
100
AcDbLine
10
-32.499998
20
-33.560784
30
0
11
-36
21
-33.1
31
0
39
0
210
0
220
0
230
1
0
LINE
5
149
100
AcDbEntity
8
1
62
256
6
ByLayer
370
18
48
1
60
1
100
AcDbLine
10
21
20
-33.1
30
0
11
17.500002
21
-33.560784
31
0
39
0
210
0
220
0
230
1
0
LINE
5
14A
100
AcDbEntity
8
1
62
256
6
ByLayer
370
18
48
1
60
1
100
AcDbLine
10
17.500002
20
-33.560784
30
0
11
17.499998
21
-32.639216
31
0
39
0
210
0
220
0
230
1
0
LINE
5
14B
100
AcDbEntity
8
1
62
256
6
ByLayer
370
18
48
1
60
1
100
AcDbLine
10
17.499998
20
-32.639216
30
0
11
21
21
-33.1
31
0
39
0
210
0
220
0
230
1
0
MTEXT
5
12E
100
AcDbEntity
8
SK2
62
256
6
ByLayer
370
18
48
1
60
0
100
AcDbMText
10
-45.414634
20
-17.380622
30
0
210
0
220
0
230
1
1
%%c
40
3.5
41
0
44
1.084337
50
90
71
7
72
5
7
iso_b_vert
0
MTEXT
5
131
100
AcDbEntity
8
SK2
62
256
6
ByLayer
370
18
48
1
60
0
100
AcDbMText
10
-45.414634
20
-10.407966
30
0
210
0
220
0
230
1
1
\W0.5404;6
40
3.5
41
0
44
1.084337
50
90
71
7
72
5
7
iso_b_vert
0
MTEXT
5
13A
100
AcDbEntity
8
2
62
256
6
ByLayer
370
18
48
1
60
0
100
AcDbMText
10
31.435366
20
10.434944
30
0
210
0
220
0
230
1
1
%%c
40
3.5
41
0
44
1.084337
50
90
71
7
72
5
7
iso_b_vert
0
MTEXT
5
13B
100
AcDbEntity
8
2
62
256
6
ByLayer
370
18
48
1
60
0
100
AcDbMText
10
31.435366
20
17.4076
30
0
210
0
220
0
230
1
1
\W0.5404;5
40
3.5
41
0
44
1.084337
50
90
71
7
72
5
7
iso_b_vert
0
MTEXT
5
144
100
AcDbEntity
8
SK2
62
256
6
ByLayer
370
18
48
1
60
0
100
AcDbMText
10
-9.404966
20
-32.067366
30
0
210
0
220
0
230
1
1
\W0.6740;57
40
3.5
41
0
44
1.084337
50
0
71
7
72
5
7
iso_b_vert
0
MTEXT
5
14D
100
AcDbEntity
8
SK6
62
256
6
ByLayer
370
18
48
1
60
0
100
AcDbMText
10
-32.290242
20
-62.114886
30
0
210
0
220
0
230
1
1
\W0.7073;1K333-0500-XA       1730
40
3
41
0
44
1.084337
50
0
71
7
72
5
7
iso_b_vert
0
HATCH
5
135
100
AcDbEntity
8
SK2
62
256
6
ByLayer
370
13
48
1
60
0
100
AcDbHatch
10
0
20
0
30
0
210
0
220
0
230
1
2
ANSI31
70
0
71
0
91
1
92
5
93
3
72
1
10
-43.85
20
3
11
-44.3107837415528
21
6.49999830744682
72
1
10
-44.3107837415528
20
6.49999830744682
11
-43.3892162584472
21
6.50000169255318
72
1
10
-43.3892162584472
20
6.50000169255318
11
-43.85
21
3
97
0
75
0
76
1
52
0
41
0.0062
77
0
78
1
53
45
43
0
44
0
45
-0.0139193969876572
46
0.0139193969876572
79
0
47
0
98
1
10
0
20
0
0
HATCH
5
139
100
AcDbEntity
8
SK2
62
256
6
ByLayer
370
13
48
1
60
0
100
AcDbHatch
10
0
20
0
30
0
210
0
220
0
230
1
2
ANSI31
70
0
71
0
91
1
92
5
93
3
72
1
10
-43.85
20
-3
11
-43.3892162584472
21
-6.49999830744682
72
1
10
-43.3892162584472
20
-6.49999830744682
11
-44.3107837415528
21
-6.50000169255318
72
1
10
-44.3107837415528
20
-6.50000169255318
11
-43.85
21
-3
97
0
75
0
76
1
52
0
41
0.0062
77
0
78
1
53
45
43
0
44
0
45
-0.0139193969876572
46
0.0139193969876572
79
0
47
0
98
1
10
0
20
0
0
HATCH
5
13F
100
AcDbEntity
8
2
62
256
6
ByLayer
370
13
48
1
60
0
100
AcDbHatch
10
0
20
0
30
0
210
0
220
0
230
1
2
ANSI31
70
0
71
0
91
1
92
5
93
3
72
1
10
33
20
2.50009999999992
11
32.5392162584472
21
6.00009830744673
72
1
10
32.5392162584472
20
6.00009830744673
11
33.4607837415528
21
6.0001016925531
72
1
10
33.4607837415528
20
6.0001016925531
11
33
21
2.50009999999992
97
0
75
0
76
1
52
0
41
0.0062
77
0
78
1
53
45
43
0
44
0
45
-0.0139193969876572
46
0.0139193969876572
79
0
47
0
98
1
10
0
20
0
0
HATCH
5
143
100
AcDbEntity
8
2
62
256
6
ByLayer
370
13
48
1
60
0
100
AcDbHatch
10
0
20
0
30
0
210
0
220
0
230
1
2
ANSI31
70
0
71
0
91
1
92
5
93
3
72
1
10
33
20
-2.50010000000009
11
33.4607837415528
21
-6.0000983074469
72
1
10
33.4607837415528
20
-6.0000983074469
11
32.5392162584472
21
-6.00010169255327
72
1
10
32.5392162584472
20
-6.00010169255327
11
33
21
-2.50010000000009
97
0
75
0
76
1
52
0
41
0.0062
77
0
78
1
53
45
43
0
44
0
45
-0.0139193969876572
46
0.0139193969876572
79
0
47
0
98
1
10
0
20
0
0
HATCH
5
148
100
AcDbEntity
8
SK2
62
256
6
ByLayer
370
13
48
1
60
0
100
AcDbHatch
10
0
20
0
30
0
210
0
220
0
230
1
2
ANSI31
70
0
71
0
91
1
92
5
93
3
72
1
10
-36
20
-33.1000000000001
11
-32.5000016925532
21
-32.6392162584473
72
1
10
-32.5000016925532
20
-32.6392162584473
11
-32.4999983074468
21
-33.5607837415528
72
1
10
-32.4999983074468
20
-33.5607837415528
11
-36
21
-33.1000000000001
97
0
75
0
76
1
52
0
41
0.0062
77
0
78
1
53
45
43
0
44
0
45
-0.0139193969876572
46
0.0139193969876572
79
0
47
0
98
1
10
0
20
0
0
HATCH
5
14C
100
AcDbEntity
8
SK2
62
256
6
ByLayer
370
13
48
1
60
0
100
AcDbHatch
10
0
20
0
30
0
210
0
220
0
230
1
2
ANSI31
70
0
71
0
91
1
92
5
93
3
72
1
10
21
20
-33.1000000000001
11
17.5000016925532
21
-33.5607837415528
72
1
10
17.5000016925532
20
-33.5607837415528
11
17.4999983074468
21
-32.6392162584473
72
1
10
17.4999983074468
20
-32.6392162584473
11
21
21
-33.1000000000001
97
0
75
0
76
1
52
0
41
0.0062
77
0
78
1
53
45
43
0
44
0
45
-0.0139193969876572
46
0.0139193969876572
79
0
47
0
98
1
10
0
20
0
0
DIMENSION
5
150
100
AcDbEntity
8
2
62
256
6
ByLayer
370
18
48
1
60
0
100
AcDbDimension
2
_U0
10
11
20
-17.1
30
0
11
16
21
-17.1
31
0
70
32
71
1
72
1
41
1
210
0
220
0
230
1
3
Standard
100
AcDbAlignedDimension
13
21
23
-2.5001
33
0
14
11
24
-2.5001
34
0
50
0
100
AcDbRotatedDimension
1001
ACAD
1000
DSTYLE
1002
{
1070
   371
1070
    13
1070
   372
1070
    13
1070
   170
1070
     0
1070
   144
1040
1.0
1070
   277
1070
     2
1070
   284
1070
     8
1070
   278
1070
    46
1070
   146
1040
1.0
1070
   345
1005
16
1070
   347
1005
16
1070
   346
1005
16
1070
   344
1005
0
1070
   343
1005
0
1070
   172
1070
     1
1070
    76
1070
     0
1070
    75
1070
     0
1070
   282
1070
     0
1070
   281
1070
     0
1070
    71
1070
     0
1070
    74
1070
     0
1070
   279
1070
     0
1070
   173
1070
     1
1070
   340
1005
12F
1070
   271
1070
     2
1070
   272
1070
     2
1070
    77
1070
     1
1070
    73
1070
     1
1070
   171
1070
     3
1070
   274
1070
     4
1070
   177
1070
     2
1070
   176
1070
     2
1070
   178
1070
     2
1070
    78
1070
     8
1070
    48
1040
-0.1
1070
    41
1040
3.5
1070
   147
1040
1.75
1070
    42
1040
1.5875
1070
    44
1040
2.0
1070
   140
1040
3.5
1002
}
1001
ACAD_DSTYLE_DIM_LINETYPE
1070
   380
1005
16
1001
ACAD_DSTYLE_DIM_EXT1_LINETYPE
1070
   381
1005
16
1001
ACAD_DSTYLE_DIM_EXT2_LINETYPE
1070
   382
1005
16
0
ENDSEC
0
SECTION
2
OBJECTS
0
DICTIONARY
5
1da
330
0
100
AcDbDictionary
280
0
281
1
3
ACAD_GROUP
350
1db
3
ACAD_MLINESTYLE
350
1dc
0
DICTIONARY
5
1db
330
0
100
AcDbDictionary
280
0
281
1
0
DICTIONARY
5
1dc
330
0
100
AcDbDictionary
280
0
281
1
3
Standard
350
18
0
MLINESTYLE
5
18
330
1dc
100
AcDbMlineStyle
2
Standard
70
0
3

62
256
51
90
52
90
71
2
49
-0.5
62
256
6
ByLayer
49
0.5
62
256
6
ByLayer
0
RASTERVARIABLES
5
1c8
330

100
AcDbRasterVariables
90
0
70
1
71
1
72
1
0
ENDSEC
0
EOF
