0
SECTION
2
HEADER
9
$ACADVER
1
AC1015
9
$DWGCODEPAGE
3
ANSI_1252
9
$HANDSEED
5
1e4
9
$ANGBASE
50
0
9
$ANGDIR
70
0
9
$ATTMODE
70
1
9
$AUNITS
70
0
9
$AUPREC
70
0
9
$CECOLOR
62
256
9
$CELTSCALE
40
1
9
$CELTYPE
6
ByLayer
9
$CELWEIGHT
370
18
9
$CLAYER
8
0
9
$CMLJUST
70
0
9
$CMLSCALE
40
1
9
$CMLSTYLE
2
Standard
9
$DIMSTYLE
2
Standard
9
$TEXTSIZE
40
0.2
9
$TEXTSTYLE
7
Standard
9
$LUNITS
70
2
9
$LUPREC
70
4
9
$EXTNAMES
290
1
9
$INSUNITS
70
4
9
$LTSCALE
40
1
9
$LWDISPLAY
290
1
9
$PDMODE
70
0
9
$PDSIZE
40
0
9
$PLINEGEN
70
0
0
ENDSEC
0
SECTION
2
CLASSES
0
CLASS
1
RASTERVARIABLES
2
AcDbRasterVariables
3
ISM
90
0
280
0
281
0
0
ENDSEC
0
SECTION
2
TABLES
0
TABLE
2
VPORT
5
1da
100
AcDbSymbolTable
0
VPORT
5
1
100
AcDbSymbolTableRecord
100
AcDbViewportTableRecord
2
*Active
70
0
10
0
20
0
11
1
21
1
12
-1
22
1
13
0
23
0
14
0.5
24
0.5
15
10
25
10
16
0
26
0
36
1
17
0
27
0
37
0
0
ENDTAB
0
TABLE
2
LTYPE
5
1db
100
AcDbSymbolTable
0
LTYPE
5
14
100
AcDbSymbolTableRecord
100
AcDbLinetypeTableRecord
70
0
2
ByBlock
3

72
65
73
0
40
0
0
LTYPE
5
15
100
AcDbSymbolTableRecord
100
AcDbLinetypeTableRecord
70
0
2
ByLayer
3

72
65
73
0
40
0
0
LTYPE
5
16
100
AcDbSymbolTableRecord
100
AcDbLinetypeTableRecord
70
0
2
Continuous
3
Solid line
72
65
73
0
40
0
0
LTYPE
5
6E
100
AcDbSymbolTableRecord
100
AcDbLinetypeTableRecord
70
0
2
CENTER
3
____ _ ____ _ ____ _ ____
72
65
73
4
40
47.5
49
22
74
0
49
-8.5
74
0
49
8.5
74
0
49
-8.5
74
0
0
LTYPE
5
6F
100
AcDbSymbolTableRecord
100
AcDbLinetypeTableRecord
70
0
2
DASHED
3
__ __ __ __ __ __ __ __ __
72
65
73
2
40
25.72
49
12.86
74
0
49
-12.86
74
0
0
ENDTAB
0
TABLE
2
LAYER
5
1dc
100
AcDbSymbolTable
0
LAYER
5
10
100
AcDbSymbolTableRecord
100
AcDbLayerTableRecord
2
0
70
0
62
7
6
Continuous
290
1
370
-3
390
0
0
LAYER
5
71
100
AcDbSymbolTableRecord
100
AcDbLayerTableRecord
2
81
70
0
62
-3
6
Continuous
290
1
370
-3
390
0
0
LAYER
5
73
100
AcDbSymbolTableRecord
100
AcDbLayerTableRecord
2
80
70
0
62
-6
6
Continuous
290
1
370
-3
390
0
0
LAYER
5
75
100
AcDbSymbolTableRecord
100
AcDbLayerTableRecord
2
1
70
0
62
4
6
Continuous
290
1
370
-3
390
0
0
LAYER
5
79
100
AcDbSymbolTableRecord
100
AcDbLayerTableRecord
2
4
70
0
62
-2
6
CENTER
290
1
370
-3
390
0
0
LAYER
5
C0
100
AcDbSymbolTableRecord
100
AcDbLayerTableRecord
2
2
70
0
62
7
6
Continuous
290
1
370
-3
390
0
0
LAYER
5
150
100
AcDbSymbolTableRecord
100
AcDbLayerTableRecord
2
Defpoints
70
0
62
7
6
Continuous
290
0
370
-3
390
0
0
LAYER
5
1c6
100
AcDbSymbolTableRecord
100
AcDbLayerTableRecord
2
SK4
70
0
62
2
6
CENTER
290
1
370
-3
390
0
0
LAYER
5
1c7
100
AcDbSymbolTableRecord
100
AcDbLayerTableRecord
2
SK1
70
0
62
4
6
Continuous
290
1
370
-3
390
0
0
LAYER
5
1c8
100
AcDbSymbolTableRecord
100
AcDbLayerTableRecord
2
SK2
70
0
62
7
6
Continuous
290
1
370
-3
390
0
0
LAYER
5
1c9
100
AcDbSymbolTableRecord
100
AcDbLayerTableRecord
2
SK6
70
0
62
5
6
Continuous
290
1
370
-3
390
0
0
ENDTAB
0
TABLE
2
STYLE
5
1dd
100
AcDbSymbolTable
0
STYLE
5
11
100
AcDbSymbolTableRecord
100
AcDbTextStyleTableRecord
2
Standard
3
txt
70
0
71
0
40
0
41
1
42
0
50
0
0
STYLE
5
12C
100
AcDbSymbolTableRecord
100
AcDbTextStyleTableRecord
2
iso_b_vert
3
simplex.shx
70
0
71
0
40
0
41
1
42
0
50
0
0
STYLE
5
12D
100
AcDbSymbolTableRecord
100
AcDbTextStyleTableRecord
2
DWGDirectTextStyle
3
simplex
70
0
71
0
40
0
41
1
42
0
50
0
0
ENDTAB
0
TABLE
2
DIMSTYLE
5
1de
100
AcDbSymbolTable
100
AcDbDimStyleTable
0
DIMSTYLE
105
27
100
AcDbSymbolTableRecord
100
AcDbDimStyleTableRecord
2
Standard
70
0
3
<>
41
0.18
42
0.0625
44
0.18
140
0.18
147
0.09
73
0
74
0
77
1
271
2
275
0
278
52
280
0
340
11
0
ENDTAB
0
TABLE
2
VIEW
5
1df
100
AcDbSymbolTable
0
ENDTAB
0
TABLE
2
UCS
5
1e0
100
AcDbSymbolTable
0
ENDTAB
0
TABLE
2
APPID
5
1e1
100
AcDbSymbolTable
0
APPID
5
12
100
AcDbSymbolTableRecord
100
AcDbRegAppTableRecord
2
ACAD
70
0
0
APPID
5
14C
100
AcDbSymbolTableRecord
100
AcDbRegAppTableRecord
2
ACAD_DSTYLE_DIMBREAK
70
0
0
APPID
5
185
100
AcDbSymbolTableRecord
100
AcDbRegAppTableRecord
2
ACAD_DSTYLE_DIM_LINETYPE
70
0
0
APPID
5
186
100
AcDbSymbolTableRecord
100
AcDbRegAppTableRecord
2
ACAD_DSTYLE_DIM_EXT1_LINETYPE
70
0
0
APPID
5
187
100
AcDbSymbolTableRecord
100
AcDbRegAppTableRecord
2
ACAD_DSTYLE_DIM_EXT2_LINETYPE
70
0
0
APPID
5
1C2
100
AcDbSymbolTableRecord
100
AcDbRegAppTableRecord
2
ACAD_MLEADERVER
70
0
0
ENDTAB
0
TABLE
2
BLOCK_RECORD
5
1e2
100
AcDbSymbolTable
0
BLOCK_RECORD
5
1F
100
AcDbSymbolTableRecord
100
AcDbBlockTableRecord
2
*Model_Space
340
0
70
0
0
BLOCK_RECORD
5
1B
100
AcDbSymbolTableRecord
100
AcDbBlockTableRecord
2
*Paper_Space
340
0
70
0
0
BLOCK_RECORD
5
23
100
AcDbSymbolTableRecord
100
AcDbBlockTableRecord
2
*Paper_Space0
340
0
70
0
0
BLOCK_RECORD
5
151
100
AcDbSymbolTableRecord
100
AcDbBlockTableRecord
2
*D1
340
0
70
0
0
BLOCK_RECORD
5
15E
100
AcDbSymbolTableRecord
100
AcDbBlockTableRecord
2
_U0
340
0
70
0
0
ENDTAB
0
ENDSEC
0
SECTION
2
BLOCKS
0
BLOCK
5
20
100
AcDbEntity
8
0
100
AcDbBlockBegin
2
*Model_Space
70
0
10
0
20
0
30
0
3
*Model_Space
0
ENDBLK
5
21
100
AcDbEntity
8
0
100
AcDbBlockEnd
0
BLOCK
5
1C
100
AcDbEntity
8
0
100
AcDbBlockBegin
2
*Paper_Space
70
0
10
0
20
0
30
0
3
*Paper_Space
0
ENDBLK
5
1D
100
AcDbEntity
8
0
100
AcDbBlockEnd
0
BLOCK
5
24
100
AcDbEntity
8
0
100
AcDbBlockBegin
2
*Paper_Space0
70
0
10
0
20
0
30
0
3
*Paper_Space0
0
ENDBLK
5
25
100
AcDbEntity
8
0
100
AcDbBlockEnd
0
BLOCK
5
152
100
AcDbEntity
8
0
100
AcDbBlockBegin
2
*D1
70
1
10
0
20
0
30
0
3
*D1
0
LINE
5
154
100
AcDbEntity
8
0
62
256
6
ByLayer
370
-2
48
1
60
0
100
AcDbLine
10
14
20
-2.4876
30
0
11
14
21
-19.1
31
0
39
0
210
0
220
0
230
1
0
LINE
5
155
100
AcDbEntity
8
0
62
256
6
ByLayer
370
-2
48
1
60
0
100
AcDbLine
10
10.4
20
-2.4876
30
0
11
10.4
21
-19.1
31
0
39
0
210
0
220
0
230
1
0
LINE
5
156
100
AcDbEntity
8
0
62
256
6
ByLayer
370
-2
48
1
60
0
100
AcDbLine
10
17.5
20
-17.1
30
0
11
21
21
-17.1
31
0
39
0
210
0
220
0
230
1
0
LINE
5
157
100
AcDbEntity
8
0
62
256
6
ByLayer
370
-2
48
1
60
0
100
AcDbLine
10
6.9
20
-17.1
30
0
11
3.4
21
-17.1
31
0
39
0
210
0
220
0
230
1
0
SOLID
5
158
100
AcDbEntity
8
0
62
256
6
ByLayer
370
-1
48
1
60
0
100
AcDbTrace
10
17.5
20
-16.516667
30
0
11
17.5
21
-17.683333
31
0
12
14
22
-17.1
32
0
13
14
23
-17.1
33
0
39
0
210
0
220
0
230
1
0
SOLID
5
159
100
AcDbEntity
8
0
62
256
6
ByLayer
370
-1
48
1
60
0
100
AcDbTrace
10
6.9
20
-17.683333
30
0
11
6.9
21
-16.516667
31
0
12
10.4
22
-17.1
32
0
13
10.4
23
-17.1
33
0
39
0
210
0
220
0
230
1
0
MTEXT
5
15A
100
AcDbEntity
8
0
62
256
6
ByLayer
370
18
48
1
60
0
100
AcDbMText
10
12.2
20
-10.1
30
0
210
0
220
0
230
1
1
\A1;3.6
40
3.5
41
0
44
1
50
0
71
5
72
5
7
iso_b_vert
0
POINT
5
15B
100
AcDbEntity
8
Defpoints
62
0
6
ByLayer
370
-1
48
1
60
0
100
AcDbPoint
10
14
20
-0.9001
30
0
39
0
210
0
220
0
230
1
50
360
0
POINT
5
15C
100
AcDbEntity
8
Defpoints
62
0
6
ByLayer
370
-1
48
1
60
0
100
AcDbPoint
10
10.4
20
-0.9001
30
0
39
0
210
0
220
0
230
1
50
360
0
POINT
5
15D
100
AcDbEntity
8
Defpoints
62
0
6
ByLayer
370
-1
48
1
60
0
100
AcDbPoint
10
10.4
20
-17.1
30
0
39
0
210
0
220
0
230
1
50
360
0
ENDBLK
5
153
100
AcDbEntity
8
0
100
AcDbBlockEnd
0
BLOCK
5
165
100
AcDbEntity
8
0
100
AcDbBlockBegin
2
_U0
70
0
10
0
20
0
30
0
3
_U0
0
MTEXT
5
15F
100
AcDbEntity
8
2
62
256
6
ByLayer
370
18
48
1
60
0
100
AcDbMText
10
9.586034
20
-16.067366
30
0
210
0
220
0
230
1
1
\W0.7121;3.6
40
3.5
41
0
44
1.084337
50
0
71
7
72
5
7
iso_b_vert
0
LINE
5
160
100
AcDbEntity
8
2
62
256
6
ByLayer
370
13
48
1
60
0
100
AcDbLine
10
14
20
-2.4876
30
0
11
14
21
-19.1
31
0
39
0
210
0
220
0
230
1
0
LINE
5
161
100
AcDbEntity
8
2
62
256
6
ByLayer
370
13
48
1
60
0
100
AcDbLine
10
10.4
20
-2.4876
30
0
11
10.4
21
-19.1
31
0
39
0
210
0
220
0
230
1
0
LINE
5
162
100
AcDbEntity
8
2
62
256
6
ByLayer
370
13
48
1
60
0
100
AcDbLine
10
22.75
20
-17.1
30
0
11
1.65
21
-17.1
31
0
39
0
210
0
220
0
230
1
0
SOLID
5
163
100
AcDbEntity
8
2
62
256
6
ByLayer
370
18
48
1
60
0
100
AcDbTrace
10
14
20
-17.1
30
0
11
17.499998
21
-16.639216
31
0
12
17.500002
22
-17.560784
32
0
13
17.500002
23
-17.560784
33
0
39
0
210
0
220
0
230
1
0
SOLID
5
164
100
AcDbEntity
8
2
62
256
6
ByLayer
370
18
48
1
60
0
100
AcDbTrace
10
10.4
20
-17.1
30
0
11
6.900002
21
-17.560784
31
0
12
6.899998
22
-16.639216
32
0
13
6.899998
23
-16.639216
33
0
39
0
210
0
220
0
230
1
0
ENDBLK
5
166
100
AcDbEntity
8
0
100
AcDbBlockEnd
0
ENDSEC
0
SECTION
2
ENTITIES
0
ARC
5
D2
100
AcDbEntity
8
1
62
256
6
ByLayer
370
18
48
1
60
0
100
AcDbCircle
39
0
10
4.997679
20
1.9
30
0
40
1
210
0
220
0
230
1
100
AcDbArc
50
240
51
270
0
ARC
5
D3
100
AcDbEntity
8
1
62
256
6
ByLayer
370
18
48
1
60
0
100
AcDbCircle
39
0
10
4.997679
20
-1.9
30
0
40
1
210
0
220
0
230
1
100
AcDbArc
50
90
51
120
0
ELLIPSE
5
D4
100
AcDbEntity
8
1
62
256
6
ByLayer
370
18
48
1
60
0
100
AcDbEllipse
10
11.216498
20
0
30
0
11
1.62950927140112
21
-0.877962349320999
31
0
210
0
220
0
230
1
40
0.121475
41
2.27399532204793
42
2.72981694535377
0
ELLIPSE
5
D5
100
AcDbEntity
8
1
62
256
6
ByLayer
370
18
48
1
60
0
100
AcDbEllipse
10
11.216498
20
0
30
0
11
1.62583021099469
21
0.291812980538687
31
0
210
0
220
0
230
1
40
0.523658
41
-2.75817434465374
42
-2.30235272141245
0
POINT
5
70
100
AcDbEntity
8
81
62
256
6
ByLayer
370
18
48
1
60
0
100
AcDbPoint
10
14
20
0
30
0
39
0
210
0
220
0
230
1
50
360
0
POINT
5
72
100
AcDbEntity
8
80
62
256
6
ByLayer
370
18
48
1
60
0
100
AcDbPoint
10
0
20
0
30
0
39
0
210
0
220
0
230
1
50
360
0
POINT
5
74
100
AcDbEntity
8
1
62
256
6
ByLayer
370
18
48
1
60
1
100
AcDbPoint
10
14
20
-0.9001
30
0
39
0
210
0
220
0
230
1
50
360
0
POINT
5
76
100
AcDbEntity
8
1
62
256
6
ByLayer
370
18
48
1
60
1
100
AcDbPoint
10
10.4
20
-0.9001
30
0
39
0
210
0
220
0
230
1
50
360
0
SPLINE
5
D6
100
AcDbEntity
8
1
62
256
6
ByLayer
370
18
48
1
60
0
100
AcDbSpline
70
4
71
3
72
8
73
4
40
0
40
0
40
0
40
0
40
1
40
1
40
1
40
1
41
1
10
13.9993359592927
20
0.874301604176594
30
0
41
1
10
13.9985081732536
20
0.86218241158619
30
0
41
1
10
13.9976847360337
20
0.850056266382609
30
0
41
1
10
13.9968655957157
20
0.837923483629254
30
0
0
SPLINE
5
D7
100
AcDbEntity
8
1
62
256
6
ByLayer
370
18
48
1
60
0
100
AcDbSpline
70
4
71
3
72
8
73
4
40
0
40
0
40
0
40
0
40
1
40
1
40
1
40
1
41
1
10
13.9913397516195
20
0.899971877381546
30
0
41
1
10
13.99392642247
20
0.891390194432688
30
0
41
1
10
13.9965896901929
20
0.882832760842433
30
0
41
1
10
13.9993359592941
20
0.874301604176424
30
0
0
SPLINE
5
D8
100
AcDbEntity
8
1
62
256
6
ByLayer
370
18
48
1
60
0
100
AcDbSpline
70
4
71
3
72
8
73
4
40
0
40
0
40
0
40
0
40
1
40
1
40
1
40
1
41
1
10
13.9913397516323
20
0.899971877386406
30
0
41
1
10
13.9942264141664
20
0.899939831519418
30
0
41
1
10
13.9971131781331
20
0.899914272398718
30
0
41
1
10
14
20
0.899895188457378
30
0
0
SPLINE
5
D9
100
AcDbEntity
8
1
62
256
6
ByLayer
370
18
48
1
60
0
100
AcDbSpline
70
4
71
3
72
8
73
4
40
0
40
0
40
0
40
0
40
1
40
1
40
1
40
1
41
1
10
10.3960936425418
20
-0.89988147132172
30
0
41
1
10
10.3973957413528
20
-0.899861359508037
30
0
41
1
10
10.3986978605121
20
-0.899842742709012
30
0
41
1
10
10.4000000000001
20
-0.899825619497875
30
0
0
SPLINE
5
DA
100
AcDbEntity
8
1
62
256
6
ByLayer
370
18
48
1
60
0
100
AcDbSpline
70
4
71
3
72
12
73
8
40
0
40
0
40
0
40
0
40
0.5
40
0.5
40
0.75
40
0.75
40
1
40
1
40
1
40
1
41
1
10
13.9968655957175
20
0.8379234836286
30
0
41
1
10
13.9947493904896
20
0.806578092974632
30
0
41
1
10
13.9934186648464
20
0.775100810204378
30
0
41
1
10
13.9925475784376
20
0.727695983747282
30
0
41
1
10
13.9924502874601
20
0.711731293040657
30
0
41
1
10
13.9926453294525
20
0.680763345986406
30
0
41
1
10
13.9929328265078
20
0.665675968797615
30
0
41
1
10
13.993401287371
20
0.650966373861706
30
0
0
SPLINE
5
DB
100
AcDbEntity
8
1
62
256
6
ByLayer
370
18
48
1
60
0
100
AcDbSpline
70
4
71
3
72
9
73
5
40
0
40
0
40
0
40
0
40
0.564956418357772
40
1
40
1
40
1
40
1
41
1
10
13.996865595718
20
0.837923483628543
30
0
41
1
10
13.8479103971453
20
0.836170040742332
30
0
41
1
10
13.5842525401275
20
0.793876424755183
30
0
41
1
10
13.3205946831096
20
0.692879658633728
30
0
41
1
10
13.2058920246645
20
0.639285230440379
30
0
0
SPLINE
5
DC
100
AcDbEntity
8
1
62
256
6
ByLayer
370
18
48
1
60
0
100
AcDbSpline
70
4
71
3
72
20
73
16
40
0
40
0
40
0
40
0
40
0.145563018507734
40
0.145563018507734
40
0.218344527761581
40
0.218344527761581
40
0.291126037015427
40
0.291126037015427
40
0.436689055523119
40
0.436689055523119
40
0.582252074030812
40
0.582252074030812
40
0.873378111046196
40
0.873378111046196
40
1
40
1
40
1
40
1
41
1
10
13.9934012873709
20
0.65096637386165
30
0
41
1
10
13.9823700044358
20
0.63601391699774
30
0
41
1
10
13.9693651226522
20
0.623013849885893
30
0
41
1
10
13.9477578208333
20
0.605591161131116
30
0
41
1
10
13.9401604521612
20
0.600111779929875
30
0
41
1
10
13.924647200109
20
0.589941824859778
30
0
41
1
10
13.9167119054319
20
0.585229561379862
30
0
41
1
10
13.8924737452937
20
0.571994526116612
30
0
41
1
10
13.8757439862877
20
0.564362281145975
30
0
41
1
10
13.8414842297408
20
0.550767139173473
30
0
41
1
10
13.8238825298838
20
0.544794569720665
30
0
41
1
10
13.7709432361999
20
0.528999763591173
30
0
41
1
10
13.7352932267756
20
0.521146339656895
30
0
41
1
10
13.6838293160357
20
0.512187877177496
30
0
41
1
10
13.6681885305996
20
0.509785514319788
30
0
41
1
10
13.6525106545042
20
0.507661107558306
30
0
0
SPLINE
5
DD
100
AcDbEntity
8
1
62
256
6
ByLayer
370
18
48
1
60
0
100
AcDbSpline
70
4
71
3
72
8
73
4
40
0
40
0
40
0
40
0
40
1
40
1
40
1
40
1
41
1
10
11.0144173379331
20
-0.797437455023072
30
0
41
1
10
10.809611558622
20
-0.823419217262085
30
0
41
1
10
10.6048057793111
20
-0.812304592549793
30
0
41
1
10
10.4000000000001
20
-0.761187955003521
30
0
0
SPLINE
5
DE
100
AcDbEntity
8
1
62
256
6
ByLayer
370
18
48
1
60
0
100
AcDbSpline
70
4
71
3
72
22
73
18
40
0
40
0
40
0
40
0
40
0.111851620381035
40
0.111851620381035
40
0.222870167833399
40
0.222870167833399
40
0.278379441559587
40
0.278379441559587
40
0.333888715285776
40
0.333888715285776
40
0.555925810190517
40
0.555925810190517
40
0.777962905095259
40
0.777962905095259
40
0.88898145254763
40
0.88898145254763
40
1
40
1
40
1
40
1
41
1
10
11.3958210224639
20
-0.743143465069068
30
0
41
1
10
11.3588411099164
20
-0.758195613760279
30
0
41
1
10
11.3218565020476
20
-0.772076704432919
30
0
41
1
10
11.2480334921688
20
-0.797267428611178
30
0
41
1
10
11.2111906689111
20
-0.808615283371751
30
0
41
1
10
11.1557313719858
20
-0.823826055193365
30
0
41
1
10
11.1372123695793
20
-0.828594752169778
30
0
41
1
10
11.1000953382576
20
-0.837516645611885
30
0
41
1
10
11.0814664922727
20
-0.841675706649198
30
0
41
1
10
10.9885698127602
20
-0.860799074046042
30
0
41
1
10
10.914981401135
20
-0.870813562896416
30
0
41
1
10
10.7682881104597
20
-0.880159069805728
30
0
41
1
10
10.6951898170984
20
-0.879475734078284
30
0
41
1
10
10.5851167960451
20
-0.869962825388797
30
0
41
1
10
10.5483475805602
20
-0.865388270404424
30
0
41
1
10
10.4744642027279
20
-0.853687439518382
30
0
41
1
10
10.4373473488206
20
-0.846586357213482
30
0
41
1
10
10.4000000000001
20
-0.838264177521182
30
0
0
SPLINE
5
DF
100
AcDbEntity
8
1
62
256
6
ByLayer
370
18
48
1
60
0
100
AcDbSpline
70
4
71
3
72
8
73
4
40
0
40
0
40
0
40
0
40
1
40
1
40
1
40
1
41
1
10
10.9242593887899
20
-0.790175481971147
30
0
41
1
10
10.7495062591932
20
-0.797482150728826
30
0
41
1
10
10.5747531295966
20
-0.778025122466233
30
0
41
1
10
10.4
20
-0.730605646681369
30
0
0
SPLINE
5
E0
100
AcDbEntity
8
1
62
256
6
ByLayer
370
18
48
1
60
0
100
AcDbSpline
70
4
71
3
72
10
73
6
40
0
40
0
40
0
40
0
40
0.5
40
0.5
40
1
40
1
40
1
40
1
41
1
10
13.4549906782268
20
-0.265128580157267
30
0
41
1
10
13.461710489014
20
-0.259009182601716
30
0
41
1
10
13.4688084373703
20
-0.253229603127863
30
0
41
1
10
13.4837853244125
20
-0.24304938551839
30
0
41
1
10
13.4916586366128
20
-0.23865541024594
30
0
41
1
10
13.4998821173187
20
-0.23518555643588
30
0
0
SPLINE
5
E1
100
AcDbEntity
8
1
62
256
6
ByLayer
370
18
48
1
60
0
100
AcDbSpline
70
4
71
3
72
9
73
5
40
0
40
0
40
0
40
0
40
0.184485920731175
40
1
40
1
40
1
40
1
41
1
10
11.503598359463
20
-0.412473837533725
30
0
41
1
10
11.435732239642
20
-0.395262660775074
30
0
41
1
10
11.0678661198211
20
-0.290376200008154
30
0
41
0.999999999999999
10
10.7
20
-0.128848369037769
30
0
41
1
10
10.4
20
0.0026009742844622
30
0
0
SPLINE
5
E2
100
AcDbEntity
8
1
62
256
6
ByLayer
370
18
48
1
60
0
100
AcDbSpline
70
4
71
3
72
9
73
5
40
0
40
0
40
0
40
0
40
0.277387537938309
40
1
40
1
40
1
40
1
41
1
10
11.6454808728764
20
-0.711239417705912
30
0
41
1
10
11.5303205819176
20
-0.739235450966874
30
0
41
1
10
11.1151602909589
20
-0.801848884649729
30
0
41
0.999999999999999
10
10.7
20
-0.712111482034914
30
0
41
1
10
10.4
20
-0.581638201691476
30
0
0
SPLINE
5
E3
100
AcDbEntity
8
1
62
256
6
ByLayer
370
18
48
1
60
0
100
AcDbSpline
70
4
71
3
72
8
73
4
40
0
40
0
40
0
40
0
40
1
40
1
40
1
40
1
41
1
10
10.4
20
-0.838264177521182
30
0
41
1
10
10.3645484151196
20
-0.831312427771223
30
0
41
1
10
10.329346014104
20
-0.823540711566835
30
0
41
1
10
10.2944527962841
20
-0.814751594620873
30
0
0
SPLINE
5
E4
100
AcDbEntity
8
1
62
256
6
ByLayer
370
18
48
1
60
0
100
AcDbSpline
70
4
71
3
72
14
73
10
40
0
40
0
40
0
40
0
40
0.242890071718124
40
0.242890071718124
40
0.432167553788582
40
0.432167553788582
40
0.621445035859038
40
0.621445035859038
40
1
40
1
40
1
40
1
41
1
10
13.6079607443285
20
0.527740087160709
30
0
41
1
10
13.6302143188171
20
0.522764228410068
30
0
41
1
10
13.6525577366256
20
0.517008051991269
30
0
41
1
10
13.6924655389126
20
0.505439304726735
30
0
41
1
10
13.7100173571209
20
0.499908666919737
30
0
41
1
10
13.7449659123622
20
0.48803733850076
30
0
41
1
10
13.7623917871641
20
0.48168920125832
30
0
41
1
10
13.8145277612116
20
0.461437691379302
30
0
41
1
10
13.8490968721484
20
0.446332862363704
30
0
41
1
10
13.8834783920228
20
0.429629443502506
30
0
0
SPLINE
5
E5
100
AcDbEntity
8
1
62
256
6
ByLayer
370
18
48
1
60
0
100
AcDbSpline
70
4
71
3
72
18
73
14
40
0
40
0
40
0
40
0
40
0.249999999999996
40
0.249999999999996
40
0.374999999999995
40
0.374999999999995
40
0.499999999999994
40
0.499999999999994
40
0.749999999999995
40
0.749999999999995
40
0.874999999999997
40
0.874999999999997
40
1
40
1
40
1
40
1
41
1
10
13.8835754350395
20
-0.613982065895954
30
0
41
1
10
13.8838204370709
20
-0.631889180233856
30
0
41
1
10
13.8843912963835
20
-0.648227646626651
30
0
41
1
10
13.8857551777028
20
-0.670291841824564
30
0
41
1
10
13.8862920937037
20
-0.677185794736857
30
0
41
1
10
13.8875179658456
20
-0.689962985153215
30
0
41
1
10
13.8882080570532
20
-0.695865074019622
30
0
41
1
10
13.8905054990964
20
-0.712138916523145
30
0
41
1
10
13.8923389724356
20
-0.721084841152162
30
0
41
1
10
13.8955441764048
20
-0.731634736392408
30
0
41
1
10
13.8966913358785
20
-0.73467669699366
30
0
41
1
10
13.8991284937965
20
-0.739752466273984
30
0
41
1
10
13.900415365526
20
-0.741782931890384
30
0
41
1
10
13.9017700588077
20
-0.743309479726236
30
0
0
SPLINE
5
E6
100
AcDbEntity
8
1
62
256
6
ByLayer
370
18
48
1
60
0
100
AcDbSpline
70
4
71
3
72
16
73
12
40
0
40
0
40
0
40
0
40
0.25
40
0.25
40
0.375
40
0.375
40
0.5
40
0.5
40
0.75
40
0.75
40
1
40
1
40
1
40
1
41
1
10
13.4434664613553
20
-0.407314872817636
30
0
41
1
10
13.4795044459306
20
-0.43151615583426
30
0
41
1
10
13.5158992641191
20
-0.453796582919438
30
0
41
1
10
13.5709576538125
20
-0.484707844391124
30
0
41
1
10
13.5893887467788
20
-0.494590124166592
30
0
41
1
10
13.6264012032668
20
-0.513545768644889
30
0
41
1
10
13.6450155093344
20
-0.522632972429193
30
0
41
1
10
13.7006130816867
20
-0.548496331173453
30
0
41
1
10
13.7374743776742
20
-0.563951410050436
30
0
41
1
10
13.810813568828
20
-0.591498666387281
30
0
41
1
10
13.8472912409059
20
-0.60358888708322
30
0
41
1
10
13.8835754350397
20
-0.61398206589601
30
0
0
SPLINE
5
E7
100
AcDbEntity
8
1
62
256
6
ByLayer
370
18
48
1
60
0
100
AcDbSpline
70
4
71
3
72
26
73
22
40
0
40
0
40
0
40
0
40
0.125000000000009
40
0.125000000000009
40
0.187500000000014
40
0.187500000000014
40
0.250000000000019
40
0.250000000000019
40
0.375000000000028
40
0.375000000000028
40
0.437500000000025
40
0.437500000000025
40
0.500000000000022
40
0.500000000000022
40
0.625000000000016
40
0.625000000000016
40
0.750000000000011
40
0.750000000000011
40
0.875000000000005
40
0.875000000000005
40
1
40
1
40
1
40
1
41
1
10
13.4434664613551
20
-0.407314872817011
30
0
41
1
10
13.4378614779506
20
-0.403550850181574
30
0
41
1
10
13.4327282994136
20
-0.399271698475559
30
0
41
1
10
13.4259048078492
20
-0.391874186214324
30
0
41
1
10
13.4237654693661
20
-0.389222412256316
30
0
41
1
10
13.4199338189754
20
-0.383685914709162
30
0
41
1
10
13.4182305269307
20
-0.380794187934185
30
0
41
1
10
13.4137975278875
20
-0.37172245627454
30
0
41
1
10
13.4117376656769
20
-0.365005885374131
30
0
41
1
10
13.4103406001224
20
-0.354732047006308
30
0
41
1
10
13.4101417762292
20
-0.351263664848517
30
0
41
1
10
13.4102608011896
20
-0.344241793403114
30
0
41
1
10
13.4105847142276
20
-0.340672283085866
30
0
41
1
10
13.4122544945066
20
-0.330160036172714
30
0
41
1
10
13.4143113168725
20
-0.32324528456536
30
0
41
1
10
13.4197877694868
20
-0.309990428768856
30
0
41
1
10
13.4231629975686
20
-0.303710511900732
30
0
41
1
10
13.4308886424426
20
-0.291683559069298
30
0
41
1
10
13.4352685087414
20
-0.285915105907719
30
0
41
1
10
13.4446566012844
20
-0.275070457643523
30
0
41
1
10
13.4496811158071
20
-0.269963942784415
30
0
41
1
10
13.4549906782256
20
-0.265128580156784
30
0
0
SPLINE
5
E8
100
AcDbEntity
8
1
62
256
6
ByLayer
370
18
48
1
60
0
100
AcDbSpline
70
4
71
3
72
13
73
9
40
0
40
0
40
0
40
0
40
0.183001484849888
40
0.356986338326458
40
0.530971191803028
40
0.704956045279598
40
0.878940898756169
40
1
40
1
40
1
40
1
41
1
10
13.4549906782268
20
-0.265128580157267
30
0
41
1
10
13.3366604521512
20
-0.220848520966285
30
0
41
1
10
13.1058302260756
20
-0.126701588665611
30
0
41
1
10
12.7625
20
0.0256238939546449
30
0
41
1
10
12.425
20
0.172521771571326
30
0
41
0.999999999999999
10
12.0875
20
0.303995138165192
30
0
41
1
10
11.7842222153665
20
0.400468747685295
30
0
41
1
10
11.593444430733
20
0.443733862326383
30
0
41
1
10
11.5151666460995
20
0.458297376003685
30
0
0
SPLINE
5
E9
100
AcDbEntity
8
1
62
256
6
ByLayer
370
18
48
1
60
0
100
AcDbSpline
70
4
71
3
72
11
73
7
40
0
40
0
40
0
40
0
40
0.266337267140767
40
0.607047815415871
40
0.862580726622199
40
1
40
1
40
1
40
1
41
1
10
13.9017700605987
20
0.215777886582004
30
0
41
1
10
13.7845133737325
20
0.291112976703261
30
0
41
1
10
13.5172566868662
20
0.452046204788928
30
0
41
1
10
13.1375
20
0.632361876593876
30
0
41
1
10
12.8145002851804
20
0.725850208566612
30
0
41
1
10
12.6415005703609
20
0.751442594183487
30
0
41
1
10
12.5810008555413
20
0.757238865230534
30
0
0
SPLINE
5
EA
100
AcDbEntity
8
1
62
256
6
ByLayer
370
18
48
1
60
0
100
AcDbSpline
70
4
71
3
72
14
73
10
40
0
40
0
40
0
40
0
40
0.25
40
0.25
40
0.5
40
0.5
40
0.75
40
0.75
40
1
40
1
40
1
40
1
41
1
10
13.9017700601497
20
-0.743309478944298
30
0
41
1
10
13.9043194597749
20
-0.742094554150839
30
0
41
1
10
13.9070198711008
20
-0.739423818707849
30
0
41
1
10
13.9127145834471
20
-0.731249185285776
30
0
41
1
10
13.9157079485158
20
-0.72573576991465
30
0
41
1
10
13.921901874105
20
-0.71206000100409
30
0
41
1
10
13.9251240165107
20
-0.703849079297811
30
0
41
1
10
13.931722498624
20
-0.684951939640854
30
0
41
1
10
13.9351004154435
20
-0.674271017645907
30
0
41
1
10
13.9385568585656
20
-0.662360084618371
30
0
0
SPLINE
5
EB
100
AcDbEntity
8
1
62
256
6
ByLayer
370
18
48
1
60
0
100
AcDbSpline
70
4
71
3
72
15
73
11
40
0
40
0
40
0
40
0
40
0.100454928368014
40
0.228961367172583
40
0.32534119627601
40
0.421721025379438
40
0.518100854482865
40
0.614480683586292
40
0.742987122390861
40
1
40
1
40
1
40
1
41
1
10
13.9017700605987
20
-0.74330947921257
30
0
41
1
10
13.7845133737325
20
-0.762165035204021
30
0
41
1
10
13.5172566868662
20
-0.776698576142053
30
0
41
1
10
13.1375
20
-0.708667271240472
30
0
41
1
10
12.7625
20
-0.566202373719762
30
0
41
1
10
12.425
20
-0.392584814990613
30
0
41
0.999999999999999
10
12.0875
20
-0.181079679166032
30
0
41
1
10
11.7125
20
0.0706826018152072
30
0
41
1
10
11.1500000000001
20
0.438185988931337
30
0
41
0.999999999999999
10
10.7
20
0.655870223995863
30
0
41
1
10
10.4
20
0.720272341620245
30
0
0
SPLINE
5
EC
100
AcDbEntity
8
1
62
256
6
ByLayer
370
18
48
1
60
0
100
AcDbSpline
70
4
71
3
72
10
73
6
40
0
40
0
40
0
40
0
40
0.416649219472182
40
0.899183870602298
40
1
40
1
40
1
40
1
41
1
10
13.9385568597475
20
-0.0442809513946258
30
0
41
1
10
13.8090379064983
20
0.046725955896278
30
0
41
1
10
13.5295189532492
20
0.237217128729981
30
0
41
1
10
13.21866044879
20
0.428500257589064
30
0
41
1
10
13.0373208975802
20
0.523490844470444
30
0
41
1
10
13.0059813463703
20
0.539338330513829
30
0
0
SPLINE
5
ED
100
AcDbEntity
8
1
62
256
6
ByLayer
370
18
48
1
60
0
100
AcDbSpline
70
4
71
3
72
14
73
10
40
0
40
0
40
0
40
0
40
0.25
40
0.25
40
0.5
40
0.5
40
0.75
40
0.75
40
1
40
1
40
1
40
1
41
1
10
13.9385568594093
20
-0.662360084624396
30
0
41
1
10
13.9391316003169
20
-0.660379724080457
30
0
41
1
10
13.9396813398012
20
-0.658733920789615
30
0
41
1
10
13.940730712481
20
-0.656112858162174
30
0
41
1
10
13.9412361699411
20
-0.655131234818754
30
0
41
1
10
13.9421572987067
20
-0.653978924595123
30
0
41
1
10
13.942572042022
20
-0.653798975782621
30
0
41
1
10
13.9433021058124
20
-0.654298769070664
30
0
41
1
10
13.9436180670143
20
-0.654993495727922
30
0
41
1
10
13.9438609784049
20
-0.656164075305782
30
0
0
SPLINE
5
EE
100
AcDbEntity
8
1
62
256
6
ByLayer
370
18
48
1
60
0
100
AcDbSpline
70
4
71
3
72
14
73
10
40
0
40
0
40
0
40
0
40
0.11823357531917
40
0.238750504724233
40
0.359267434129296
40
0.479784363534359
40
0.600301292939422
40
0.760990532146173
40
1
40
1
40
1
40
1
41
1
10
13.4311056120264
20
-0.783788982243067
30
0
41
1
10
13.3207370746842
20
-0.794307428665831
30
0
41
1
10
13.0978685373422
20
-0.794464563635245
30
0
41
1
10
12.7625
20
-0.726919531557854
30
0
41
1
10
12.425
20
-0.596702788245864
30
0
41
0.999999999999999
10
12.0875
20
-0.417125464370287
30
0
41
1
10
11.7125
20
-0.17672226121914
30
0
41
1
10
11.2268897260634
20
0.163341437036877
30
0
41
1
10
10.8537794521268
20
0.406392196704559
30
0
41
1
10
10.6306691781903
20
0.521747967029086
30
0
0
SPLINE
5
EF
100
AcDbEntity
8
1
62
256
6
ByLayer
370
18
48
1
60
0
100
AcDbSpline
70
4
71
3
72
13
73
9
40
0
40
0
40
0
40
0
40
0.128227959502695
40
0.296366750542323
40
0.464505541581951
40
0.632644332621579
40
0.800783123661207
40
1
40
1
40
1
40
1
41
1
10
11.4926118264288
20
0.469311689366293
30
0
41
1
10
11.5784078842859
20
0.457616641713542
30
0
41
1
10
11.7767039421429
20
0.421539237236971
30
0
41
0.999999999999999
10
12.0875
20
0.334415639880717
30
0
41
1
10
12.425
20
0.212953228873545
30
0
41
1
10
12.7625
20
0.0725815741648148
30
0
41
1
10
13.1207940391063
20
-0.0838455170908503
30
0
41
1
10
13.3665880782125
20
-0.184846306542255
30
0
41
1
10
13.4998821173188
20
-0.23518555643588
30
0
0
SPLINE
5
F0
100
AcDbEntity
8
1
62
256
6
ByLayer
370
18
48
1
60
0
100
AcDbSpline
70
4
71
3
72
12
73
8
40
0
40
0
40
0
40
0
40
0.5
40
0.5
40
0.75
40
0.75
40
1
40
1
40
1
40
1
41
1
10
13.4998821173187
20
-0.235185556435908
30
0
41
1
10
13.5109999829229
20
-0.230494274833774
30
0
41
1
10
13.522525419658
20
-0.227437733853463
30
0
41
1
10
13.5404867068024
20
-0.225104194198337
30
0
41
1
10
13.546615491614
20
-0.224708385699245
30
0
41
1
10
13.5588286324362
20
-0.224666798377996
30
0
41
1
10
13.564941706842
20
-0.225013816221264
30
0
41
1
10
13.5710651212981
20
-0.225705872198006
30
0
0
SPLINE
5
F1
100
AcDbEntity
8
1
62
256
6
ByLayer
370
18
48
1
60
0
100
AcDbSpline
70
4
71
3
72
10
73
6
40
0
40
0
40
0
40
0
40
0.313570894026582
40
0.313570894026582
40
1
40
1
40
1
40
1
41
1
10
13.7358272821983
20
-0.248840709604963
30
0
41
1
10
13.718762877682
20
-0.24588666555303
30
0
41
1
10
13.7016379586758
20
-0.243139005565979
30
0
41
1
10
13.6468766858151
20
-0.234883599196877
30
0
41
1
10
13.6090574162841
20
-0.229999684908591
30
0
41
1
10
13.5710651213014
20
-0.225705872199882
30
0
0
SPLINE
5
F2
100
AcDbEntity
8
1
62
256
6
ByLayer
370
18
48
1
60
0
100
AcDbSpline
70
4
71
3
72
12
73
8
40
0
40
0
40
0
40
0
40
0.5
40
0.5
40
0.75
40
0.75
40
1
40
1
40
1
40
1
41
1
10
13.9968655957175
20
-0.407512721443709
30
0
41
1
10
13.9947493904896
20
-0.385800263785058
30
0
41
1
10
13.9934186648464
20
-0.368371085854847
30
0
41
1
10
13.9925475784376
20
-0.348362040443618
30
0
41
1
10
13.99245028746
20
-0.342703261176467
30
0
41
1
10
13.9926453294525
20
-0.333839865717323
30
0
41
1
10
13.9929328265078
20
-0.330581624321582
30
0
41
1
10
13.993401287371
20
-0.328441171807356
30
0
0
SPLINE
5
F3
100
AcDbEntity
8
1
62
256
6
ByLayer
370
18
48
1
60
0
100
AcDbSpline
70
4
71
3
72
16
73
12
40
0
40
0
40
0
40
0
40
0.25
40
0.25
40
0.375
40
0.375
40
0.499999999999999
40
0.499999999999999
40
0.75
40
0.75
40
1
40
1
40
1
40
1
41
1
10
13.8834783920228
20
0.429629443502535
30
0
41
1
10
13.8836170298887
20
0.41941568109641
30
0
41
1
10
13.8841096285535
20
0.40713675471352
30
0
41
1
10
13.8853958574686
20
0.385524994296134
30
0
41
1
10
13.8859176073686
20
0.377774819763033
30
0
41
1
10
13.8871267935073
20
0.36146735910819
30
0
41
1
10
13.8878157717953
20
0.352880766643722
30
0
41
1
10
13.8901302454768
20
0.325851214957453
30
0
41
1
10
13.8920020483494
20
0.306144797710516
30
0
41
1
10
13.896404180306
20
0.263353989354698
30
0
41
1
10
13.8989447236354
20
0.240193367278351
30
0
41
1
10
13.9017700588078
20
0.215777886330869
30
0
0
SPLINE
5
F4
100
AcDbEntity
8
1
62
256
6
ByLayer
370
18
48
1
60
0
100
AcDbSpline
70
4
71
3
72
14
73
10
40
0
40
0
40
0
40
0
40
0.25
40
0.25
40
0.5
40
0.5
40
0.75
40
0.75
40
1
40
1
40
1
40
1
41
1
10
13.9017700601497
20
0.215777885906363
30
0
41
1
10
13.9043194597749
20
0.195678506597346
30
0
41
1
10
13.9070198711007
20
0.175042451931802
30
0
41
1
10
13.912714583447
20
0.132725915730617
30
0
41
1
10
13.9157079485158
20
0.111057511114694
30
0
41
1
10
13.921901874105
20
0.0672922203221447
30
0
41
1
10
13.9251240165107
20
0.0450432732097852
30
0
41
1
10
13.931722498624
20
0.0004646167235478
30
0
41
1
10
13.9351004154436
20
-0.0218803841765123
30
0
41
1
10
13.9385568585656
20
-0.0442809519873322
30
0
0
SPLINE
5
F5
100
AcDbEntity
8
1
62
256
6
ByLayer
370
18
48
1
60
0
100
AcDbSpline
70
4
71
3
72
14
73
10
40
0
40
0
40
0
40
0
40
0.25
40
0.25
40
0.5
40
0.5
40
0.75
40
0.75
40
1
40
1
40
1
40
1
41
1
10
13.9385568594093
20
-0.04428095187248
30
0
41
1
10
13.9391316003169
20
-0.0480058365341733
30
0
41
1
10
13.9396813398012
20
-0.0516860755317055
30
0
41
1
10
13.940730712481
20
-0.0589570709855707
30
0
41
1
10
13.9412361699412
20
-0.0625920570694234
30
0
41
1
10
13.9421572987068
20
-0.0695171300061759
30
0
41
1
10
13.9425720420219
20
-0.0727953151236136
30
0
41
1
10
13.9433021058124
20
-0.07895167864109
30
0
41
1
10
13.9436180670143
20
-0.0818421334127493
30
0
41
1
10
13.9438609784049
20
-0.0843650701145009
30
0
0
SPLINE
5
F6
100
AcDbEntity
8
1
62
256
6
ByLayer
370
18
48
1
60
0
100
AcDbSpline
70
4
71
3
72
9
73
5
40
0
40
0
40
0
40
0
40
0.864767525686084
40
1
40
1
40
1
40
1
41
1
10
10.4
20
0.0495774925585977
30
0
41
0.999999999999999
10
10.7
20
-0.0782452507451695
30
0
41
1
10
11.0469140446296
20
-0.232326906048058
30
0
41
1
10
11.3938280892591
20
-0.342149434879218
30
0
41
1
10
11.4407421338886
20
-0.356110502876192
30
0
0
SPLINE
5
F7
100
AcDbEntity
8
1
62
256
6
ByLayer
370
18
48
1
60
0
100
AcDbSpline
70
4
71
3
72
8
73
4
40
0
40
0
40
0
40
0
40
1
40
1
40
1
40
1
41
1
10
13.9956955802194
20
-0.478574377184827
30
0
41
1
10
13.9801603229135
20
-0.548689836227766
30
0
41
1
10
13.9646468244688
20
-0.616282204491995
30
0
41
1
10
13.949191933918
20
-0.68121046276471
30
0
0
SPLINE
5
F8
100
AcDbEntity
8
1
62
256
6
ByLayer
370
18
48
1
60
0
100
AcDbSpline
70
4
71
3
72
8
73
4
40
0
40
0
40
0
40
0
40
1
40
1
40
1
40
1
41
1
10
13.9438609790995
20
-0.656164074442302
30
0
41
1
10
13.9456175853503
20
-0.664646022332903
30
0
41
1
10
13.9473943251855
20
-0.672996417390152
30
0
41
1
10
13.9491919339182
20
-0.68121046275914
30
0
0
SPLINE
5
F9
100
AcDbEntity
8
1
62
256
6
ByLayer
370
18
48
1
60
0
100
AcDbSpline
70
4
71
3
72
14
73
10
40
0
40
0
40
0
40
0
40
0.15435296903826
40
0.280234279237462
40
0.406115589436663
40
0.531996899635865
40
0.657878209835067
40
0.825719956767336
40
1
40
1
40
1
40
1
41
1
10
13.5138352783904
20
-0.784514969956575
30
0
41
1
10
13.3758901855936
20
-0.808711812352101
30
0
41
1
10
13.1254450927968
20
-0.823095390719857
30
0
41
1
10
12.7625000000001
20
-0.759074086267901
30
0
41
1
10
12.4250000000001
20
-0.634489052427426
30
0
41
1
10
12.0875000000001
20
-0.457431574061701
30
0
41
1
10
11.7125000000001
20
-0.215939322925152
30
0
41
1
10
11.2942461010882
20
0.082991474366338
30
0
41
1
10
10.9884922021761
20
0.292786297270737
30
0
41
1
10
10.8327383032641
20
0.389051447596671
30
0
0
SPLINE
5
FA
100
AcDbEntity
8
1
62
256
6
ByLayer
370
18
48
1
60
0
100
AcDbSpline
70
4
71
3
72
8
73
4
40
0
40
0
40
0
40
0
40
1
40
1
40
1
40
1
41
1
10
10.8092562410714
20
0.137259791105379
30
0
41
1
10
10.6728374940476
20
0.235262587158815
30
0
41
1
10
10.5364187470238
20
0.330473365262322
30
0
41
1
10
10.4
20
0.4165475334554
30
0
0
SPLINE
5
FB
100
AcDbEntity
8
1
62
256
6
ByLayer
370
18
48
1
60
0
100
AcDbSpline
70
4
71
3
72
8
73
4
40
0
40
0
40
0
40
0
40
1
40
1
40
1
40
1
41
1
10
14
20
-0.455233785257093
30
0
41
1
10
13.9985661045534
20
-0.463030311805028
30
0
41
1
10
13.9971312815854
20
-0.470810607717539
30
0
41
1
10
13.9956955801615
20
-0.47857437717542
30
0
0
SPLINE
5
FC
100
AcDbEntity
8
1
62
256
6
ByLayer
370
18
48
1
60
0
100
AcDbSpline
70
4
71
3
72
8
73
4
40
0
40
0
40
0
40
0
40
1
40
1
40
1
40
1
41
1
10
13.9993359592927
20
-0.43279049616666
30
0
41
1
10
13.9985081732536
20
-0.424342915157638
30
0
41
1
10
13.9976847360337
20
-0.415917051851267
30
0
41
1
10
13.9968655957157
20
-0.40751272144189
30
0
0
SPLINE
5
FD
100
AcDbEntity
8
1
62
256
6
ByLayer
370
18
48
1
60
0
100
AcDbSpline
70
4
71
3
72
14
73
10
40
0
40
0
40
0
40
0
40
0.057377128011772
40
0.194862623581438
40
0.332348119151103
40
0.469833614720769
40
0.607319110290435
40
0.790633104383322
40
1
40
1
40
1
40
1
41
1
10
13.2408496265277
20
0.124244297546681
30
0
41
1
10
13.1938997510185
20
0.157972821926819
30
0
41
1
10
13.0344498755093
20
0.27140558300394
30
0
41
1
10
12.7625
20
0.453349900947188
30
0
41
1
10
12.425
20
0.642140488242745
30
0
41
0.999999999999999
10
12.0875
20
0.776183177688325
30
0
41
1
10
11.7125
20
0.848728268696903
30
0
41
1
10
11.2786817408681
20
0.830021287002637
30
0
41
1
10
10.9573634817363
20
0.716634209548971
30
0
41
1
10
10.7860452226043
20
0.635607377199392
30
0
0
SPLINE
5
FE
100
AcDbEntity
8
1
62
256
6
ByLayer
370
18
48
1
60
0
100
AcDbSpline
70
4
71
3
72
8
73
4
40
0
40
0
40
0
40
0
40
1
40
1
40
1
40
1
41
1
10
13.9913397516336
20
-0.444126398833021
30
0
41
1
10
13.9942264141673
20
-0.444330381826063
30
0
41
1
10
13.9971131781335
20
-0.444537390254169
30
0
41
1
10
14
20
-0.444747415435103
30
0
0
SPLINE
5
FF
100
AcDbEntity
8
1
62
256
6
ByLayer
370
18
48
1
60
0
100
AcDbSpline
70
4
71
3
72
8
73
4
40
0
40
0
40
0
40
0
40
1
40
1
40
1
40
1
41
1
10
14
20
-0.444659651943113
30
0
41
1
10
13.9985661045534
20
-0.436716055286809
30
0
41
1
10
13.9971312815854
20
-0.428757267789336
30
0
41
1
10
13.9956955801615
20
-0.420783547547217
30
0
0
SPLINE
5
100
100
AcDbEntity
8
1
62
256
6
ByLayer
370
18
48
1
60
0
100
AcDbSpline
70
4
71
3
72
18
73
14
40
0
40
0
40
0
40
0
40
0.229584284389813
40
0.229584284389813
40
0.293785594023993
40
0.293785594023993
40
0.357986903658172
40
0.357986903658172
40
0.486389522926532
40
0.486389522926532
40
0.743194761463266
40
0.743194761463266
40
1
40
1
40
1
40
1
41
1
10
13.1162727342591
20
0.647833168487125
30
0
41
1
10
13.1836781746841
20
0.68429904434737
30
0
41
1
10
13.2508024974064
20
0.71734361675945
30
0
41
1
10
13.3368148642665
20
0.754871595384543
30
0
41
1
10
13.3556189732188
20
0.762780915846974
30
0
41
1
10
13.3932609563628
20
0.777999980224934
30
0
41
1
10
13.4121186480139
20
0.785316617826709
30
0
41
1
10
13.4685231272597
20
0.806252452686067
30
0
41
1
10
13.5059568570404
20
0.818882587917216
30
0
41
1
10
13.6179783005444
20
0.852746274588355
30
0
41
1
10
13.6922908234817
20
0.869960794708646
30
0
41
1
10
13.8412954426902
20
0.893345156924454
30
0
41
1
10
13.9159930407098
20
0.899508707715938
30
0
41
1
10
13.9913397516315
20
0.899971877386662
30
0
0
SPLINE
5
101
100
AcDbEntity
8
1
62
256
6
ByLayer
370
18
48
1
60
0
100
AcDbSpline
70
4
71
3
72
9
73
5
40
0
40
0
40
0
40
0
40
0.25887583331874
40
1
40
1
40
1
40
1
41
1
10
10.3999885701612
20
-0.899791628927176
30
0
41
1
10
10.4177656505943
20
-0.90003077013472
30
0
41
1
10
10.486386529737
20
-0.899726485911572
30
0
41
1
10
10.5547800482316
20
-0.894683219627467
30
0
41
1
10
10.6053379633442
20
-0.888366657654103
30
0
0
SPLINE
5
102
100
AcDbEntity
8
1
62
256
6
ByLayer
370
18
48
1
60
0
100
AcDbSpline
70
4
71
3
72
59
73
55
40
0
40
0
40
0
40
0
40
0.0176655836205513
40
0.0176655836205513
40
0.0504100641665292
40
0.0504100641665292
40
0.0831545447125071
40
0.115899025258485
40
0.115899025258485
40
0.148643505804463
40
0.148643505804463
40
0.214132466896419
40
0.214132466896419
40
0.246876947442399
40
0.246876947442399
40
0.279621427988379
40
0.279621427988379
40
0.312365908534359
40
0.312365908534359
40
0.345110389080338
40
0.345110389080338
40
0.410599350172298
40
0.410599350172298
40
0.426971590445288
40
0.426971590445288
40
0.443343830718278
40
0.443343830718278
40
0.476088311264262
40
0.476088311264262
40
0.508832791810245
40
0.508832791810245
40
0.541577272356229
40
0.541577272356229
40
0.574321752902213
40
0.574321752902213
40
0.607066233448196
40
0.607066233448196
40
0.672555194540167
40
0.672555194540167
40
0.738044155632139
40
0.738044155632139
40
0.770788636178126
40
0.770788636178126
40
0.787160876451118
40
0.787160876451118
40
0.80353311672411
40
0.80353311672411
40
0.869022077816073
40
0.869022077816073
40
0.934511038908037
40
0.934511038908037
40
0.967255519454018
40
0.967255519454018
40
1
40
1
40
1
40
1
41
1
10
13.787499768254
20
-0.752860289250208
30
0
41
1
10
13.767529565759
20
-0.76070199331528
30
0
41
1
10
13.7475318703271
20
-0.76818584846265
30
0
41
1
10
13.6903727267182
20
-0.788534272552482
30
0
41
1
10
13.6530994376432
20
-0.800541356636955
30
0
41
1
10
13.5784266806254
20
-0.822050859545101
30
0
41
1
10
13.5038725048828
20
-0.840992696988508
30
0
41
1
10
13.4294221409383
20
-0.854809332751984
30
0
41
1
10
13.3549379157411
20
-0.866028170161115
30
0
41
1
10
13.3176264224516
20
-0.870342964685278
30
0
41
1
10
13.2058764435902
20
-0.879243443186084
30
0
41
1
10
13.1318313324857
20
-0.87978218132551
30
0
41
1
10
13.0206522201017
20
-0.872347354039391
30
0
41
1
10
12.9835106779225
20
-0.868484500545094
30
0
41
1
10
12.9094164242827
20
-0.85804680250277
30
0
41
1
10
12.8724493697212
20
-0.851477690092963
30
0
41
1
10
12.7985074160293
20
-0.835721701127625
30
0
41
1
10
12.7615309202267
20
-0.826540227706516
30
0
41
1
10
12.6874153129978
20
-0.805614193223761
30
0
41
1
10
12.6502394996938
20
-0.79385040263918
30
0
41
1
10
12.5389820665252
20
-0.754977853481023
30
0
41
1
10
12.4649224639795
20
-0.724362851866857
30
0
41
1
10
12.3719896008773
20
-0.680388756506005
30
0
41
1
10
12.3533658283482
20
-0.67130560175184
30
0
41
1
10
12.3162187684513
20
-0.652706881127955
30
0
41
1
10
12.2976811668073
20
-0.643185023354874
30
0
41
1
10
12.2421710442107
20
-0.613943508556105
30
0
41
1
10
12.2053078814721
20
-0.593531795705871
30
0
41
1
10
12.1317346037639
20
-0.551038101330505
30
0
41
1
10
12.0950198446472
20
-0.528965784150358
30
0
41
1
10
12.0215868565914
20
-0.483362891223408
30
0
41
1
10
11.9848739421449
20
-0.459826415219595
30
0
41
1
10
11.9113802890034
20
-0.411277309533375
30
0
41
1
10
11.8746028956886
20
-0.386251024077325
30
0
41
1
10
11.8008525840196
20
-0.334791274799358
30
0
41
1
10
11.7638717850031
20
-0.308379186002867
30
0
41
1
10
11.6523611032549
20
-0.227520190299259
30
0
41
1
10
11.5786585807142
20
-0.17252266347171
30
0
41
1
10
11.4316455260331
20
-0.0615141749676695
30
0
41
1
10
11.3583540892004
20
-0.0054751785799567
30
0
41
1
10
11.2480334921688
20
0.0784640340731642
30
0
41
1
10
11.211190668911
20
0.106415433768433
30
0
41
1
10
11.1557313719857
20
0.148176023035745
30
0
41
1
10
11.1372123695792
20
0.162068370855309
30
0
41
1
10
11.1000953382575
20
0.189779070111996
30
0
41
1
10
11.0814664922727
20
0.203620127650453
30
0
41
1
10
10.9885698127601
20
0.272234696299506
30
0
41
1
10
10.9149814011349
20
0.325297874516707
30
0
41
1
10
10.7682881104596
20
0.426585254529641
30
0
41
1
10
10.6951898170985
20
0.474809802190037
30
0
41
1
10
10.5851167960451
20
0.542368062269674
30
0
41
1
10
10.5483475805602
20
0.564088249490453
30
0
41
1
10
10.4744642027279
20
0.605841727354971
30
0
41
1
10
10.4373473488206
20
0.62588463975888
30
0
41
1
10
10.4000000000001
20
0.645044839020102
30
0
0
SPLINE
5
103
100
AcDbEntity
8
1
62
256
6
ByLayer
370
18
48
1
60
0
100
AcDbSpline
70
4
71
3
72
8
73
4
40
0
40
0
40
0
40
0
40
1
40
1
40
1
40
1
41
1
10
13.9956955802194
20
-0.420783547540708
30
0
41
1
10
13.9801603229136
20
-0.327937327549506
30
0
41
1
10
13.9646468244689
20
-0.234075322790403
30
0
41
1
10
13.9491919339181
20
-0.139429711124961
30
0
0
SPLINE
5
104
100
AcDbEntity
8
1
62
256
6
ByLayer
370
18
48
1
60
0
100
AcDbSpline
70
4
71
3
72
8
73
4
40
0
40
0
40
0
40
0
40
1
40
1
40
1
40
1
41
1
10
13.9438609790995
20
-0.0843650706232211
30
0
41
1
10
13.9456175853503
20
-0.102617613314692
30
0
41
1
10
13.9473943251855
20
-0.120971264585961
30
0
41
1
10
13.9491919339182
20
-0.139429711123313
30
0
0
SPLINE
5
105
100
AcDbEntity
8
1
62
256
6
ByLayer
370
18
48
1
60
0
100
AcDbSpline
70
4
71
3
72
9
73
5
40
0
40
0
40
0
40
0
40
0.493916781639378
40
1
40
1
40
1
40
1
41
1
10
13.9438609793357
20
-0.0843650702995831
30
0
41
1
10
13.8125739862239
20
0.0098303083894109
30
0
41
1
10
13.5467660647434
20
0.196227183292905
30
0
41
1
10
13.2809581432629
20
0.368266828817355
30
0
41
1
10
13.1464372148944
20
0.447075424541481
30
0
0
SPLINE
5
106
100
AcDbEntity
8
1
62
256
6
ByLayer
370
18
48
1
60
0
100
AcDbSpline
70
4
71
3
72
39
73
35
40
0
40
0
40
0
40
0
40
0.107793486114986
40
0.107793486114986
40
0.161690229172482
40
0.161690229172482
40
0.215586972229979
40
0.269483715287475
40
0.269483715287475
40
0.323380458344971
40
0.323380458344971
40
0.431173944459964
40
0.431173944459964
40
0.485070687517463
40
0.485070687517463
40
0.538967430574962
40
0.538967430574962
40
0.592864173632462
40
0.592864173632462
40
0.646760916689961
40
0.646760916689961
40
0.75455440280496
40
0.75455440280496
40
0.781502774333708
40
0.781502774333708
40
0.808451145862457
40
0.808451145862457
40
0.862347888919953
40
0.862347888919953
40
0.916244631977449
40
0.916244631977449
40
0.970141375034945
40
0.970141375034945
40
1
40
1
40
1
40
1
41
1
10
13.9491919339012
20
-0.139429711115639
30
0
41
1
10
13.8755610822365
20
-0.0828505517621636
30
0
41
1
10
13.8017580123876
20
-0.0262405731828892
30
0
41
1
10
13.6903727267186
20
0.0581328673929704
30
0
41
1
10
13.6530994376435
20
0.0861978933012324
30
0
41
1
10
13.5784266806257
20
0.141967241076713
30
0
41
1
10
13.5038725048832
20
0.197195715196187
30
0
41
1
10
13.4294221409387
20
0.251185835422859
30
0
41
1
10
13.3549379157414
20
0.304444966258046
30
0
41
1
10
13.317626422452
20
0.330745312655466
30
0
41
1
10
13.2058764435905
20
0.408064397557212
30
0
41
1
10
13.1318313324861
20
0.457380023628644
30
0
41
1
10
13.0206522201021
20
0.527025845853245
30
0
41
1
10
12.9835106779228
20
0.54954981133892
30
0
41
1
10
12.9094164242829
20
0.592727310912181
30
0
41
1
10
12.8724493697215
20
0.613392462622073
30
0
41
1
10
12.7985074160296
20
0.652739680257923
30
0
41
1
10
12.761530920227
20
0.671423935507534
30
0
41
1
10
12.6874153129981
20
0.706667895823841
30
0
41
1
10
12.650239499694
20
0.723239616233428
30
0
41
1
10
12.5389820665255
20
0.769257951545512
30
0
41
1
10
12.4649224639798
20
0.795190455394618
30
0
41
1
10
12.3719896008775
20
0.821179826877909
30
0
41
1
10
12.3533658283485
20
0.826065642322448
30
0
41
1
10
12.3162187684516
20
0.835189300530033
30
0
41
1
10
12.2976811668075
20
0.839432182175585
30
0
41
1
10
12.242171044211
20
0.851178720930278
30
0
41
1
10
12.2053078814724
20
0.857685457209044
30
0
41
1
10
12.1317346037641
20
0.868067355795176
30
0
41
1
10
12.0950198446474
20
0.87195010058818
30
0
41
1
10
12.0215868565916
20
0.877139236882698
30
0
41
1
10
11.984873942145
20
0.878446041134481
30
0
41
1
10
11.9277694900298
20
0.878348795671343
30
0
41
1
10
11.9074024831697
20
0.877888551260185
30
0
41
1
10
11.887014669794
20
0.876993916618773
30
0
0
SPLINE
5
107
100
AcDbEntity
8
1
62
256
6
ByLayer
370
18
48
1
60
0
100
AcDbSpline
70
4
71
3
72
19
73
15
40
0
40
0
40
0
40
0
40
0.0835125000978306
40
0.166953835469823
40
0.250336289713858
40
0.333672060025936
40
0.416973049754955
40
0.500250649141219
40
0.583515739980207
40
0.666778704490279
40
0.75004943474634
40
0.833337342608303
40
0.916651370075
40
1
40
1
40
1
40
1
41
1
10
10.2944527966334
20
-0.814751594462024
30
0
41
1
10
10.2913073940427
20
-0.816125531162982
30
0
41
1
10
10.2850192691993
20
-0.81887223377214
30
0
41
1
10
10.2757035218036
20
-0.823341460844574
30
0
41
1
10
10.2664790956487
20
-0.828058049885954
30
0
41
1
10
10.257354159551
20
-0.833043139454958
30
0
41
1
10
10.24832676304
20
-0.838285615941345
30
0
41
1
10
10.2393976393496
20
-0.843783040360421
30
0
41
1
10
10.2305667196478
20
-0.849530531501443
30
0
41
1
10
10.2218343388167
20
-0.855524319886655
30
0
41
1
10
10.2131999117753
20
-0.861758646209381
30
0
41
1
10
10.2046660303499
20
-0.868234625178559
30
0
41
1
10
10.1962234008463
20
-0.874927889034893
30
0
41
1
10
10.1906804826694
20
-0.879580991052109
30
0
41
1
10
10.1879084481714
20
-0.881908025098625
30
0
0
SPLINE
5
108
100
AcDbEntity
8
1
62
256
6
ByLayer
370
18
48
1
60
0
100
AcDbSpline
70
4
71
3
72
8
73
4
40
0
40
0
40
0
40
0
40
1
40
1
40
1
40
1
41
1
10
10.1879084481714
20
-0.881908025098625
30
0
41
1
10
10.1970183568751
20
-0.883320637592419
30
0
41
1
10
10.2061273585379
20
-0.884650162630379
30
0
41
1
10
10.2152351599296
20
-0.885896598866651
30
0
0
SPLINE
5
109
100
AcDbEntity
8
1
62
256
6
ByLayer
370
18
48
1
60
0
100
AcDbSpline
70
4
71
3
72
9
73
5
40
0
40
0
40
0
40
0
40
0.311286310350824
40
1
40
1
40
1
40
1
41
1
10
10.21523515993
20
-0.885896598866708
30
0
41
1
10
10.2344324771814
20
-0.888523822587558
30
0
41
1
10
10.2960862797526
20
-0.895777849130326
30
0
41
1
10
10.3576567125652
20
-0.899222171440584
30
0
41
1
10
10.3999885701612
20
-0.899791628927176
30
0
0
SPLINE
5
10A
100
AcDbEntity
8
1
62
256
6
ByLayer
370
18
48
1
60
0
100
AcDbSpline
70
4
71
3
72
8
73
4
40
0
40
0
40
0
40
0
40
1
40
1
40
1
40
1
41
1
10
10.2441081564978
20
0.718731876126839
30
0
41
1
10
10.2608784665677
20
0.709139292763183
30
0
41
1
10
10.2776598932448
20
0.699567319472038
30
0
41
1
10
10.2944523574852
20
0.690015809706921
30
0
0
SPLINE
5
10B
100
AcDbEntity
8
1
62
256
6
ByLayer
370
18
48
1
60
0
100
AcDbSpline
70
4
71
3
72
8
73
4
40
0
40
0
40
0
40
0
40
1
40
1
40
1
40
1
41
1
10
10.2441081564816
20
-0.828480388580147
30
0
41
1
10
10.260877985458
20
-0.823815014618503
30
0
41
1
10
10.2776594126178
20
-0.819238993485271
30
0
41
1
10
10.294452357473
20
-0.814751705097564
30
0
0
SPLINE
5
10C
100
AcDbEntity
8
1
62
256
6
ByLayer
370
18
48
1
60
0
100
AcDbSpline
70
4
71
3
72
14
73
10
40
0
40
0
40
0
40
0
40
0.25
40
0.25
40
0.5
40
0.5
40
0.75
40
0.75
40
1
40
1
40
1
40
1
41
1
10
10.1879549262655
20
0.596597166061343
30
0
41
1
10
10.1857082590684
20
0.608778873400581
30
0
41
1
10
10.1849983732631
20
0.620639396023762
30
0
41
1
10
10.1871651223153
20
0.643719353155404
30
0
41
1
10
10.1901341003902
20
0.655036080538054
30
0
41
1
10
10.1997501641844
20
0.675884281536526
30
0
41
1
10
10.2063893573753
20
0.685577415404765
30
0
41
1
10
10.2231851273814
20
0.703544068259617
30
0
41
1
10
10.2330438272457
20
0.711522037989027
30
0
41
1
10
10.2441081564928
20
0.718731876123826
30
0
0
SPLINE
5
10D
100
AcDbEntity
8
1
62
256
6
ByLayer
370
18
48
1
60
0
100
AcDbSpline
70
4
71
3
72
20
73
16
40
0
40
0
40
0
40
0
40
0.249999999999978
40
0.249999999999978
40
0.499999999999957
40
0.499999999999957
40
0.624999999999946
40
0.624999999999946
40
0.687499999999954
40
0.687499999999954
40
0.749999999999963
40
0.749999999999963
40
0.874999999999981
40
0.874999999999981
40
1
40
1
40
1
40
1
41
1
10
9.76588219680411
20
0.883799697982568
30
0
41
1
10
9.76298585168149
20
0.884456245952634
30
0
41
1
10
9.76023500366384
20
0.88511302460708
30
0
41
1
10
9.75529595872777
20
0.886451708609769
30
0
41
1
10
9.7530299616721
20
0.887139139084326
30
0
41
1
10
9.75103524922292
20
0.888197780952737
30
0
41
1
10
9.75060291733334
20
0.888559487439238
30
0
41
1
10
9.75086836433059
20
0.889091191568326
30
0
41
1
10
9.75112467285186
20
0.889266628105645
30
0
41
1
10
9.75203827482633
20
0.889582609730326
30
0
41
1
10
9.7527106097418
20
0.889726383869998
30
0
41
1
10
9.75516447267165
20
0.89008001873961
30
0
41
1
10
9.7573307656379
20
0.890217200008038
30
0
41
1
10
9.76173792749267
20
0.890381523777535
30
0
41
1
10
9.76398912404275
20
0.890411946758377
30
0
41
1
10
9.7662630284967
20
0.890418138560648
30
0
0
SPLINE
5
10E
100
AcDbEntity
8
1
62
256
6
ByLayer
370
18
48
1
60
0
100
AcDbSpline
70
4
71
3
72
21
73
17
40
0
40
0
40
0
40
0
40
0.24999999999991
40
0.24999999999991
40
0.374999999999907
40
0.374999999999907
40
0.499999999999904
40
0.499999999999904
40
0.6249999999999
40
0.6249999999999
40
0.749999999999897
40
0.749999999999897
40
0.812499999999923
40
0.812499999999923
40
0.874999999999948
40
1
40
1
40
1
40
1
41
1
10
9.76626302849667
20
0.890418138560648
30
0
41
1
10
9.78682177485717
20
0.890474119669364
30
0
41
1
10
9.80722735925451
20
0.890725181546713
30
0
41
1
10
9.83745202149268
20
0.891529451233055
30
0
41
1
10
9.84749284798517
20
0.891871471195316
30
0
41
1
10
9.86693178667903
20
0.892696740936486
30
0
41
1
10
9.87637914293114
20
0.893181306807946
30
0
41
1
10
9.89459422918571
20
0.894277871322231
30
0
41
1
10
9.90342333898801
20
0.894896631395966
30
0
41
1
10
9.91954139992441
20
0.896150437879015
30
0
41
1
10
9.92691295132224
20
0.896789096681829
30
0
41
1
10
9.93691993436408
20
0.897684889909698
30
0
41
1
10
9.94007952586821
20
0.89797274067169
30
0
41
1
10
9.94592684746038
20
0.898500454311346
30
0
41
1
10
9.95404962825674
20
0.899225597424504
30
0
41
1
10
9.96041364004196
20
0.899700666715916
30
0
41
1
10
9.96400651074316
20
0.899867036042195
30
0
0
SPLINE
5
10F
100
AcDbEntity
8
1
62
256
6
ByLayer
370
18
48
1
60
0
100
AcDbSpline
70
4
71
3
72
10
73
6
40
0
40
0
40
0
40
0
40
0.5
40
0.5
40
1
40
1
40
1
40
1
41
1
10
10.3960936425472
20
-0.899881471321663
30
0
41
1
10
10.3581457630133
20
-0.900346474313636
30
0
41
1
10
10.3205780360214
20
-0.899455838636982
30
0
41
1
10
10.2464444866644
20
-0.894714012024792
30
0
41
1
10
10.2099037507429
20
-0.890844748189863
30
0
41
1
10
10.1736100228604
20
-0.885378638950272
30
0
0
SPLINE
5
110
100
AcDbEntity
8
1
62
256
6
ByLayer
370
13
48
1
60
0
100
AcDbSpline
70
4
71
3
72
8
73
4
40
0
40
0
40
0
40
0
40
1
40
1
40
1
40
1
41
1
10
10.173614739161
20
-0.885377338948842
30
0
41
1
10
10.1781300015492
20
-0.884331670330482
30
0
41
1
10
10.1826452639373
20
-0.88323037735546
30
0
41
1
10
10.1871605263255
20
-0.882073667573763
30
0
0
SPLINE
5
111
100
AcDbEntity
8
1
62
256
6
ByLayer
370
18
48
1
60
0
100
AcDbSpline
70
4
71
3
72
14
73
10
40
0
40
0
40
0
40
0
40
0.25
40
0.25
40
0.5
40
0.5
40
0.75
40
0.75
40
1
40
1
40
1
40
1
41
1
10
10.1879549262656
20
-0.88186851550293
30
0
41
1
10
10.1857082590685
20
-0.878619136316161
30
0
41
1
10
10.1849983732631
20
-0.874945421605929
30
0
41
1
10
10.1871651223153
20
-0.866759849496134
30
0
41
1
10
10.1901341003902
20
-0.862191388784595
30
0
41
1
10
10.1997501641844
20
-0.852786892316459
30
0
41
1
10
10.2063893573753
20
-0.847899945259172
30
0
41
1
10
10.2231851273815
20
-0.83800136757597
30
0
41
1
10
10.2330438272458
20
-0.833160133013251
30
0
41
1
10
10.2441081564928
20
-0.828480388577731
30
0
0
SPLINE
5
112
100
AcDbEntity
8
1
62
256
6
ByLayer
370
18
48
1
60
0
100
AcDbSpline
70
4
71
3
72
20
73
16
40
0
40
0
40
0
40
0
40
0.249999999999865
40
0.249999999999865
40
0.49999999999973
40
0.49999999999973
40
0.624999999999663
40
0.624999999999663
40
0.687499999999627
40
0.687499999999627
40
0.749999999999592
40
0.749999999999592
40
0.874999999999796
40
0.874999999999796
40
1
40
1
40
1
40
1
41
1
10
9.76588219680468
20
-0.589119312325693
30
0
41
1
10
9.76298585168206
20
-0.586491505209807
30
0
41
1
10
9.76023500366443
20
-0.583772375619674
30
0
41
1
10
9.75529595872837
20
-0.577996941805338
30
0
41
1
10
9.75302996167264
20
-0.57491657268244
30
0
41
1
10
9.75103524922349
20
-0.569924195997686
30
0
41
1
10
9.75060291733391
20
-0.568176381574887
30
0
41
1
10
9.75086836433113
20
-0.565535686429627
30
0
41
1
10
9.75112467285237
20
-0.564651851842342
30
0
41
1
10
9.75203827482687
20
-0.563040561348885
30
0
41
1
10
9.75271060974239
20
-0.562296942530196
30
0
41
1
10
9.75516447267222
20
-0.560452433999842
30
0
41
1
10
9.75733076563844
20
-0.559717669203536
30
0
41
1
10
9.76173792749324
20
-0.558838431121785
30
0
41
1
10
9.76398912404329
20
-0.558673700773795
30
0
41
1
10
9.76626302849724
20
-0.558640343149818
30
0
0
SPLINE
5
113
100
AcDbEntity
8
1
62
256
6
ByLayer
370
18
48
1
60
0
100
AcDbSpline
70
4
71
3
72
21
73
17
40
0
40
0
40
0
40
0
40
0.249999999999938
40
0.249999999999938
40
0.374999999999948
40
0.374999999999948
40
0.499999999999958
40
0.499999999999958
40
0.624999999999969
40
0.624999999999969
40
0.749999999999979
40
0.749999999999979
40
0.812499999999984
40
0.812499999999984
40
0.87499999999999
40
1
40
1
40
1
40
1
41
1
10
9.76626302849721
20
-0.558640343149818
30
0
41
1
10
9.78682177485771
20
-0.558338751352721
30
0
41
1
10
9.80722735925505
20
-0.557021202870487
30
0
41
1
10
9.83745202149316
20
-0.552461574432186
30
0
41
1
10
9.84749284798565
20
-0.550489257134018
30
0
41
1
10
9.86693178667949
20
-0.545478972482783
30
0
41
1
10
9.8763791429316
20
-0.5424374150777
30
0
41
1
10
9.89459422918611
20
-0.534982851183031
30
0
41
1
10
9.9034233389884
20
-0.530512861388132
30
0
41
1
10
9.91954139992481
20
-0.520293630238399
30
0
41
1
10
9.92691295132261
20
-0.514524013461568
30
0
41
1
10
9.93691993436448
20
-0.504814836332173
30
0
41
1
10
9.94007952586858
20
-0.501398731201391
30
0
41
1
10
9.94592684746073
20
-0.494372705093866
30
0
41
1
10
9.95404962825711
20
-0.483488178190868
30
0
41
1
10
9.96041364004225
20
-0.471628634457829
30
0
41
1
10
9.9640065107435
20
-0.463330834299001
30
0
0
SPLINE
5
114
100
AcDbEntity
8
1
62
256
6
ByLayer
370
18
48
1
60
0
100
AcDbSpline
70
4
71
3
72
22
73
18
40
0
40
0
40
0
40
0
40
0.125
40
0.125
40
0.25
40
0.25
40
0.375
40
0.375
40
0.5
40
0.5
40
0.625
40
0.625
40
0.75
40
0.75
40
0.875
40
0.875
40
1
40
1
40
1
40
1
41
1
10
9.96400651074347
20
-0.463330834299001
30
0
41
1
10
9.96130084397785
20
-0.439288218596175
30
0
41
1
10
9.95776638966854
20
-0.414731566050364
30
0
41
1
10
9.94954472658557
20
-0.364560265171775
30
0
41
1
10
9.94485012080446
20
-0.338966633816682
30
0
41
1
10
9.9345624655268
20
-0.287133554700802
30
0
41
1
10
9.92894506559611
20
-0.26079023224753
30
0
41
1
10
9.91693294432508
20
-0.207797003869786
30
0
41
1
10
9.91053108334577
20
-0.181110571606496
30
0
41
1
10
9.89690247382043
20
-0.127376081734695
30
0
41
1
10
9.88967356367743
20
-0.100331823578671
30
0
41
1
10
9.87444538337053
20
-0.0464660400314472
30
0
41
1
10
9.86642911136349
20
-0.0195749407852759
30
0
41
1
10
9.8494490588055
20
0.0340789456835751
30
0
41
1
10
9.84051702391409
20
0.0607350005357148
30
0
41
1
10
9.82169148424771
20
0.113365119159965
30
0
41
1
10
9.81178452278502
20
0.139384113903191
30
0
41
1
10
9.80126416425588
20
0.165068676752014
30
0
0
SPLINE
5
115
100
AcDbEntity
8
1
62
256
6
ByLayer
370
18
48
1
60
0
100
AcDbSpline
70
4
71
3
72
12
73
8
40
0
40
0
40
0
40
0
40
0.499999999999976
40
0.499999999999976
40
0.749999999999988
40
0.749999999999988
40
1
40
1
40
1
40
1
41
1
10
9.80126416425458
20
0.165068676752611
30
0
41
1
10
9.79810276214766
20
0.17278697179745
30
0
41
1
10
9.79592888220785
20
0.180714960167791
30
0
41
1
10
9.79452030703402
20
0.19300128566735
30
0
41
1
10
9.79437024180868
20
0.197153283538853
30
0
41
1
10
9.79475257705133
20
0.205336186739544
30
0
41
1
10
9.79528008928122
20
0.209398500621319
30
0
41
1
10
9.79615702800032
20
0.213431022705237
30
0
0
SPLINE
5
116
100
AcDbEntity
8
1
62
256
6
ByLayer
370
18
48
1
60
0
100
AcDbSpline
70
4
71
3
72
28
73
24
40
0
40
0
40
0
40
0
40
0.0624999999999788
40
0.0624999999999788
40
0.0937499999999752
40
0.0937499999999752
40
0.124999999999972
40
0.124999999999972
40
0.249999999999976
40
0.249999999999976
40
0.312499999999978
40
0.312499999999978
40
0.37499999999998
40
0.37499999999998
40
0.499999999999984
40
0.499999999999984
40
0.624999999999988
40
0.624999999999988
40
0.749999999999992
40
0.749999999999992
40
0.874999999999996
40
0.874999999999996
40
1
40
1
40
1
40
1
41
1
10
9.79615702800228
20
0.213431022704924
30
0
41
1
10
9.79880936188391
20
0.225627536233731
30
0
41
1
10
9.80282059478225
20
0.237186124720552
30
0
41
1
10
9.81056225379871
20
0.253723739336351
30
0
41
1
10
9.81343184515032
20
0.259102153283067
30
0
41
1
10
9.81971231073487
20
0.269609517914034
30
0
41
1
10
9.82314180917427
20
0.274762840316725
30
0
41
1
10
9.84132581066291
20
0.299619762696267
30
0
41
1
10
9.85891122141754
20
0.316538683631762
30
0
41
1
10
9.88824656843585
20
0.339110767420749
30
0
41
1
10
9.89849919962501
20
0.346116811157742
30
0
41
1
10
9.91955698558033
20
0.359124006718105
30
0
41
1
10
9.93039979723952
20
0.365152770740508
30
0
41
1
10
9.96373843048332
20
0.382033974033732
30
0
41
1
10
9.98683948577943
20
0.391597985346039
30
0
41
1
10
10.0342662571244
20
0.408078204742395
30
0
41
1
10
10.0584229046559
20
0.414928791143638
30
0
41
1
10
10.1074636971611
20
0.42629722650176
30
0
41
1
10
10.1324103288171
20
0.430815930459204
30
0
41
1
10
10.1825788381479
20
0.437603708081895
30
0
41
1
10
10.2078863653391
20
0.439885840870659
30
0
41
1
10
10.2586066902654
20
0.442214105057218
30
0
41
1
10
10.2839840092752
20
0.442262862659192
30
0
41
1
10
10.3093793911334
20
0.441137546679698
30
0
0
SPLINE
5
117
100
AcDbEntity
8
1
62
256
6
ByLayer
370
18
48
1
60
0
100
AcDbSpline
70
4
71
2
72
6
73
3
40
0
40
0
40
0
40
1
40
1
40
1
41
0.500000748502849
10
10.3093793911333
20
0.441137546679716
30
0
41
0.499999251497151
10
10.3527175096122
20
0.439217155109419
30
0
41
0.500000748502849
10
10.3960936425411
20
0.437291499362845
30
0
0
SPLINE
5
118
100
AcDbEntity
8
1
62
256
6
ByLayer
370
18
48
1
60
0
100
AcDbSpline
70
4
71
3
72
8
73
4
40
0
40
0
40
0
40
0
40
1
40
1
40
1
40
1
41
1
10
10.3999999999999
20
0.645044839020187
30
0
41
1
10
10.3645497522884
20
0.660424674577172
30
0
41
1
10
10.3293474281037
20
0.675443894404225
30
0
41
1
10
10.2944527962737
20
0.690015562098409
30
0
0
SPLINE
5
119
100
AcDbEntity
8
1
62
256
6
ByLayer
370
18
48
1
60
0
100
AcDbSpline
70
4
71
3
72
19
73
15
40
0
40
0
40
0
40
0
40
0.0835125000961698
40
0.166953835467064
40
0.250336289710408
40
0.333672060022109
40
0.416973049751168
40
0.500250649137639
40
0.583515739977096
40
0.666778704487664
40
0.750049434744361
40
0.83333734260704
40
0.916651370074362
40
1
40
1
40
1
40
1
41
1
10
10.2944527963717
20
0.690015562194588
30
0
41
1
10
10.2913073937892
20
0.687101991733499
30
0
41
1
10
10.2850192689619
20
0.681277333594579
30
0
41
1
10
10.2757035215902
20
0.67274919135744
30
0
41
1
10
10.2664790954585
20
0.664378571829076
30
0
41
1
10
10.2573541593838
20
0.656179446037214
30
0
41
1
10
10.2483267628953
20
0.648147109032692
30
0
41
1
10
10.239397639227
20
0.640281754887326
30
0
41
1
10
10.2305667195467
20
0.632582063739136
30
0
41
1
10
10.2218343387368
20
0.625047343082997
30
0
41
1
10
10.2131999117161
20
0.617675381054852
30
0
41
1
10
10.2046660303109
20
0.610468895638633
30
0
41
1
10
10.196223400827
20
0.603411878361726
30
0
41
1
10
10.190680482663
20
0.598843597867955
30
0
41
1
10
10.1879084481714
20
0.596558983388491
30
0
0
SPLINE
5
11A
100
AcDbEntity
8
1
62
256
6
ByLayer
370
18
48
1
60
0
100
AcDbSpline
70
4
71
3
72
22
73
18
40
0
40
0
40
0
40
0
40
0.021942702258729
40
0.0961366923923792
40
0.24452467265968
40
0.31871866279333
40
0.39291265292698
40
0.54130063319428
40
0.61549462332793
40
0.689688613461581
40
0.763882603595231
40
0.800979598662056
40
0.838076593728881
40
0.875173588795706
40
0.912270583862531
40
0.986464573996181
40
1
40
1
40
1
40
1
41
1
10
10.3999885701612
20
0.463031375754298
30
0
41
1
10
10.4177656505943
20
0.451122989608564
30
0
41
1
10
10.4955956188825
20
0.39827153094879
30
0
41
1
10
10.6928130228233
20
0.257016926981151
30
0
41
1
10
10.9299777726669
20
0.072498724840699
30
0
41
1
10
11.1666277554449
20
-0.112728682811564
30
0
41
1
10
11.4034959811401
20
-0.294518123884075
30
0
41
1
10
11.6413196755805
20
-0.465235109783464
30
0
41
1
10
11.8806215006201
20
-0.612615182510183
30
0
41
1
10
12.0609699867684
20
-0.708626179562401
30
0
41
1
10
12.212116670008
20
-0.774719347961792
30
0
41
1
10
12.333624585247
20
-0.817884013113456
30
0
41
1
10
12.4250735303211
20
-0.845326003286857
30
0
41
1
10
12.5168213761142
20
-0.867441517276603
30
0
41
1
10
12.639571376217
20
-0.889668573781705
30
0
41
1
10
12.7435097359578
20
-0.898925702470706
30
0
41
1
10
12.8171611443977
20
-0.899962276109704
30
0
41
1
10
12.828539785117
20
-0.899990833944202
30
0
0
SPLINE
5
11B
100
AcDbEntity
8
1
62
256
6
ByLayer
370
18
48
1
60
0
100
AcDbSpline
70
4
71
3
72
9
73
5
40
0
40
0
40
0
40
0
40
0.311286310377646
40
1
40
1
40
1
40
1
41
1
10
10.2152351599227
20
0.580390694961494
30
0
41
1
10
10.2344324771765
20
0.568916322934143
30
0
41
1
10
10.2960862797501
20
0.531288580001672
30
0
41
1
10
10.3576567125652
20
0.491388344066109
30
0
41
1
10
10.3999885701612
20
0.463031375754298
30
0
0
SPLINE
5
11C
100
AcDbEntity
8
1
62
256
6
ByLayer
370
18
48
1
60
0
100
AcDbSpline
70
4
71
3
72
8
73
4
40
0
40
0
40
0
40
0
40
1
40
1
40
1
40
1
41
1
10
10.1879084481714
20
0.596558983388491
30
0
41
1
10
10.1970183568726
20
0.591224577521984
30
0
41
1
10
10.206127358533
20
0.585834492139782
30
0
41
1
10
10.2152351599223
20
0.58039069496175
30
0
0
SPLINE
5
11D
100
AcDbEntity
8
1
62
256
6
ByLayer
370
13
48
1
60
0
100
AcDbSpline
70
4
71
3
72
8
73
4
40
0
40
0
40
0
40
0
40
1
40
1
40
1
40
1
41
1
10
10.1736147391605
20
0.582618029355672
30
0
41
1
10
10.178130001549
20
0.587057402225156
30
0
41
1
10
10.1826452639375
20
0.591460171759138
30
0
41
1
10
10.187160526326
20
0.595825508210709
30
0
0
SPLINE
5
11E
100
AcDbEntity
8
1
62
256
6
ByLayer
370
18
48
1
60
0
100
AcDbSpline
70
4
71
3
72
10
73
6
40
0
40
0
40
0
40
0
40
0.5
40
0.5
40
1
40
1
40
1
40
1
41
1
10
10.3960936425465
20
0.437291499359247
30
0
41
1
10
10.3581457630126
20
0.46233464356655
30
0
41
1
10
10.3205780360208
20
0.486960476056282
30
0
41
1
10
10.2464444866639
20
0.535487562800199
30
0
41
1
10
10.2099037507426
20
0.559405030795716
30
0
41
1
10
10.1736100228602
20
0.582612510075933
30
0
0
SPLINE
5
11F
100
AcDbEntity
8
1
62
256
6
ByLayer
370
18
48
1
60
0
100
AcDbSpline
70
4
71
3
72
8
73
4
40
0
40
0
40
0
40
0
40
1
40
1
40
1
40
1
41
1
10
10.3960936425411
20
0.437291499362857
30
0
41
1
10
10.3973957413523
20
0.437227362023947
30
0
41
1
10
10.3986978605118
20
0.437163720973956
30
0
41
1
10
10.4000000000001
20
0.437100575739322
30
0
0
SPLINE
5
120
100
AcDbEntity
8
1
62
256
6
ByLayer
370
18
48
1
60
0
100
AcDbSpline
70
4
71
3
72
40
73
36
40
0
40
0
40
0
40
0
40
0.0940468323224886
40
0.0940468323224886
40
0.117558540403115
40
0.117558540403115
40
0.141070248483741
40
0.188093664644993
40
0.188093664644993
40
0.282140496967498
40
0.282140496967498
40
0.329163913128753
40
0.329163913128753
40
0.376187329290008
40
0.376187329290008
40
0.470234161612524
40
0.470234161612524
40
0.564280993935039
40
0.564280993935039
40
0.587792702015666
40
0.587792702015666
40
0.611304410096292
40
0.611304410096292
40
0.658327826257544
40
0.658327826257544
40
0.752374658580049
40
0.752374658580049
40
0.846421490902555
40
0.846421490902555
40
0.86993319898318
40
0.86993319898318
40
0.893444907063805
40
0.94046832322506
40
0.94046832322506
40
1
40
1
40
1
40
1
41
1
10
10.4000000000001
20
0.437100575739294
30
0
41
1
10
10.4754039188418
20
0.385636067710067
30
0
41
1
10
10.5504675276206
20
0.331567273624131
30
0
41
1
10
10.6445473515997
20
0.261480329578689
30
0
41
1
10
10.6633966057823
20
0.24732315223784
30
0
41
1
10
10.7010108623666
20
0.218880408511239
30
0
41
1
10
10.7573186800255
20
0.176014839057757
30
0
41
1
10
10.813373077932
20
0.132659012323472
30
0
41
1
10
10.9253665105764
20
0.0455829468761522
30
0
41
1
10
10.9998773254372
20
-0.0129501604428697
30
0
41
1
10
11.1122571513273
20
-0.10039093215039
30
0
41
1
10
11.149818634684
20
-0.129479065358112
30
0
41
1
10
11.22527677749
20
-0.187369396925447
30
0
41
1
10
11.2628417938008
20
-0.215916566680988
30
0
41
1
10
11.3751228730828
20
-0.300126646244905
30
0
41
1
10
11.4494540024364
20
-0.354402658638577
30
0
41
1
10
11.5980822672256
20
-0.458115094704965
30
0
41
1
10
11.6723771670865
20
-0.507549037139853
30
0
41
1
10
11.7659887408362
20
-0.56533261598554
30
0
41
1
10
11.7847485148886
20
-0.576688932530743
30
0
41
1
10
11.8223633863234
20
-0.598976067875299
30
0
41
1
10
11.8412194061445
20
-0.609906264339685
30
0
41
1
10
11.8975747848828
20
-0.641808535499308
30
0
41
1
10
11.934991159746
20
-0.66196638379941
30
0
41
1
10
12.0469898703668
20
-0.71905965188742
30
0
41
1
10
12.121319948981
20
-0.752659172056553
30
0
41
1
10
12.2701815613335
20
-0.810272518241334
30
0
41
1
10
12.344719562317
20
-0.83423715665549
30
0
41
1
10
12.4386563339565
20
-0.857675819436906
30
0
41
1
10
12.4575153715666
20
-0.862037960768248
30
0
41
1
10
12.4951365011292
20
-0.870044212012829
30
0
41
1
10
12.5514257033105
20
-0.880982429921886
30
0
41
1
10
12.6073757300535
20
-0.888728850662943
30
0
41
1
10
12.6917292848854
20
-0.89723695176707
30
0
41
1
10
12.7387401870746
20
-0.899735605885525
30
0
41
1
10
12.7857787047736
20
-0.899981766180389
30
0
0
SPLINE
5
121
100
AcDbEntity
8
1
62
256
6
ByLayer
370
18
48
1
60
0
100
AcDbSpline
70
4
71
3
72
10
73
6
40
0
40
0
40
0
40
0
40
0.98079196926768
40
0.98079196926768
40
1
40
1
40
1
40
1
41
1
10
13.0030002782093
20
-0.885185414867266
30
0
41
1
10
13.0326624132532
20
-0.881003618493139
30
0
41
1
10
13.0624138253025
20
-0.875932176156283
30
0
41
1
10
13.0928692084039
20
-0.869848449203971
30
0
41
1
10
13.0934541718882
20
-0.869731262861194
30
0
41
1
10
13.094039111165
20
-0.86961374670679
30
0
0
SPLINE
5
122
100
AcDbEntity
8
1
62
256
6
ByLayer
370
18
48
1
60
0
100
AcDbSpline
70
4
71
3
72
8
73
4
40
0
40
0
40
0
40
0
40
1
40
1
40
1
40
1
41
1
10
13.3469538250034
20
-0.798317446603761
30
0
41
1
10
13.3553603196942
20
-0.795283054773279
30
0
41
1
10
13.3637692966072
20
-0.792183478071337
30
0
41
1
10
13.3721815735507
20
-0.789019023860021
30
0
0
SPLINE
5
123
100
AcDbEntity
8
1
62
256
6
ByLayer
370
18
48
1
60
0
100
AcDbSpline
70
4
71
3
72
25
73
21
40
0
40
0
40
0
40
0
40
0.0781058878050328
40
0.13579370915564
40
0.193481530506247
40
0.308857173207461
40
0.366544994558068
40
0.424232815908676
40
0.481920637259283
40
0.510764547934586
40
0.53960845860989
40
0.568452369285193
40
0.597296279960497
40
0.654984101311104
40
0.712671922661711
40
0.770359744012318
40
0.828047565362925
40
0.885735386713532
40
0.943423208064139
40
1
40
1
40
1
40
1
41
1
10
10.7482059185377
20
0.651275875755289
30
0
41
1
10
10.8286975543297
20
0.694657685483094
30
0
41
1
10
10.9682002546736
20
0.761546625880868
30
0
41
1
10
11.1666277554449
20
0.832793697343874
30
0
41
1
10
11.4034959811401
20
0.891465898075495
30
0
41
1
10
11.6413196755804
20
0.908400061794765
30
0
41
1
10
11.8806215006202
20
0.881726968764639
30
0
41
1
10
12.0609699867685
20
0.839865128245577
30
0
41
1
10
12.212116670008
20
0.787782800969921
30
0
41
1
10
12.333624585247
20
0.736118941938543
30
0
41
1
10
12.425073530321
20
0.692653195969257
30
0
41
1
10
12.516821376114
20
0.644602456419989
30
0
41
1
10
12.6395713762169
20
0.574830528909331
30
0
41
1
10
12.7940178904346
20
0.4775040037633
30
0
41
1
10
12.9819386343306
20
0.346680117174628
30
0
41
1
10
13.173350055686
20
0.203792904079364
30
0
41
1
10
13.3692798391185
20
0.0517212026019536
30
0
41
1
10
13.5710499359067
20
-0.106440549889101
30
0
41
1
10
13.7787138010973
20
-0.26593893861812
30
0
41
1
10
13.9226656105691
20
-0.370281411241678
30
0
41
1
10
13.9956955802771
20
-0.420783547531926
30
0
0
SPLINE
5
124
100
AcDbEntity
8
1
62
256
6
ByLayer
370
18
48
1
60
0
100
AcDbSpline
70
4
71
3
72
50
73
46
40
0
40
0
40
0
40
0
40
0.011722995923883
40
0.0458015133058188
40
0.0458015133058188
40
0.11395854806969
40
0.11395854806969
40
0.148037065451626
40
0.148037065451626
40
0.182115582833562
40
0.182115582833562
40
0.250272617597438
40
0.250272617597438
40
0.318429652361313
40
0.318429652361313
40
0.335468911052283
40
0.335468911052283
40
0.352508169743253
40
0.352508169743253
40
0.386586687125193
40
0.386586687125193
40
0.454743721889072
40
0.454743721889072
40
0.522900756652952
40
0.522900756652952
40
0.53994001534392
40
0.53994001534392
40
0.556979274034888
40
0.591057791416824
40
0.591057791416824
40
0.659214826180692
40
0.659214826180692
40
0.72737186094456
40
0.72737186094456
40
0.795528895708428
40
0.795528895708428
40
0.812568154399394
40
0.812568154399394
40
0.82960741309036
40
0.82960741309036
40
0.863685930472288
40
0.863685930472288
40
0.931842965236144
40
0.931842965236144
40
1
40
1
40
1
40
1
41
1
10
10.6997964920947
20
0.645995600896214
30
0
41
1
10
10.7127201784023
20
0.653038142264791
30
0
41
1
10
10.7631483528207
20
0.680038876515596
30
0
41
1
10
10.8133730779321
20
0.705011082172064
30
0
41
1
10
10.9253665105764
20
0.757268491040577
30
0
41
1
10
10.9998773254372
20
0.787467282070423
30
0
41
1
10
11.1122571513273
20
0.82519809243135
30
0
41
1
10
11.149818634684
20
0.836512842971956
30
0
41
1
10
11.22527677749
20
0.856494225601381
30
0
41
1
10
11.2628417938009
20
0.865074944559353
30
0
41
1
10
11.3751228730828
20
0.886618620293547
30
0
41
1
10
11.4494540024365
20
0.895394914926783
30
0
41
1
10
11.5980822672257
20
0.901836862903025
30
0
41
1
10
11.6723771670865
20
0.899491134626516
30
0
41
1
10
11.7659887408362
20
0.889331923785591
30
0
41
1
10
11.7847485148887
20
0.886939626880576
30
0
41
1
10
11.8223633863234
20
0.881430162559184
30
0
41
1
10
11.8412194061445
20
0.87831125314321
30
0
41
1
10
11.8975747848828
20
0.867939261577249
30
0
41
1
10
11.9349911597461
20
0.859651686586915
30
0
41
1
10
12.0469898703668
20
0.830899835806719
30
0
41
1
10
12.1213199489811
20
0.806590655083795
30
0
41
1
10
12.2701815613336
20
0.748158289363488
30
0
41
1
10
12.3447195623172
20
0.713991985372246
30
0
41
1
10
12.4386563339565
20
0.665447629914723
30
0
41
1
10
12.4575153715667
20
0.65542434677289
30
0
41
1
10
12.4951365011293
20
0.63490223768386
30
0
41
1
10
12.5514257033106
20
0.603408207469812
30
0
41
1
10
12.6073757300536
20
0.569891849563021
30
0
41
1
10
12.7190529536637
20
0.500434058270656
30
0
41
1
10
12.7932126603691
20
0.450907168130897
30
0
41
1
10
12.9420881605876
20
0.346698520755609
30
0
41
1
10
13.0168063399391
20
0.292016498759097
30
0
41
1
10
13.1677621009997
20
0.178477106113405
30
0
41
1
10
13.2428329483825
20
0.12045171191042
30
0
41
1
10
13.3368148642675
20
0.047182546991877
30
0
41
1
10
13.3556189732199
20
0.0324924167508414
30
0
41
1
10
13.3932609563639
20
0.0030625960137058
30
0
41
1
10
13.4121186480149
20
-0.0116925810637554
30
0
41
1
10
13.4685231272608
20
-0.0558030857275185
30
0
41
1
10
13.5059568570414
20
-0.0850463128253693
30
0
41
1
10
13.6179783005455
20
-0.172008125047114
30
0
41
1
10
13.6922908234829
20
-0.228955647937823
30
0
41
1
10
13.8412954426914
20
-0.339415646096569
30
0
41
1
10
13.915993040711
20
-0.392920040254495
30
0
41
1
10
13.9913397516328
20
-0.444126398842087
30
0
0
SPLINE
5
125
100
AcDbEntity
8
1
62
256
6
ByLayer
370
18
48
1
60
0
100
AcDbSpline
70
4
71
2
72
6
73
3
40
0
40
0
40
0
40
1
40
1
40
1
41
1
10
10.8715570256872
20
-0.791566422276077
30
0
41
1
10
11.1580870118878
20
-0.787290383131364
30
0
41
1
10
11.4460767598046
20
-0.748883546222942
30
0
0
SPLINE
5
126
100
AcDbEntity
8
1
62
256
6
ByLayer
370
18
48
1
60
0
100
AcDbSpline
70
4
71
3
72
9
73
5
40
0
40
0
40
0
40
0
40
0.914534942280703
40
1
40
1
40
1
40
1
41
1
10
11.6341478078842
20
-0.713960193505557
30
0
41
1
10
11.7196852193937
20
-0.693379922946605
30
0
41
1
10
11.8132224691154
20
-0.67067438630454
30
0
41
1
10
11.9067640691576
20
-0.647580034326523
30
0
41
1
10
11.9147586504594
20
-0.645604213351504
30
0
0
SPLINE
5
127
100
AcDbEntity
8
1
62
256
6
ByLayer
370
18
48
1
60
0
100
AcDbSpline
70
4
71
3
72
14
73
10
40
0
40
0
40
0
40
0
40
0.126442319124741
40
0.246608184009539
40
0.341632786434938
40
0.425834839374683
40
0.531178461536818
40
0.721859675829945
40
1
40
1
40
1
40
1
41
1
10
13.6098657166115
20
0.527456670234585
30
0
41
1
10
13.5769861966605
20
0.534910705117255
30
0
41
1
10
13.513270754312
20
0.549571673704349
30
0
41
1
10
13.4270087026145
20
0.570379698575778
30
0
41
1
10
13.350861364746
20
0.588608853243102
30
0
41
1
10
13.2774719026754
20
0.606460351936647
30
0
41
1
10
13.1798352575226
20
0.630453695375337
30
0
41
1
10
13.032188527072
20
0.666949109844325
30
0
41
1
10
12.9117727403155
20
0.696251887386126
30
0
41
1
10
12.8403409028474
20
0.713546969320021
30
0
0
SPLINE
5
128
100
AcDbEntity
8
1
62
256
6
ByLayer
370
18
48
1
60
0
100
AcDbSpline
70
4
71
3
72
13
73
9
40
0
40
0
40
0
40
0
40
0.170832401603286
40
0.326539769290611
40
0.466171099174612
40
0.583996949370552
40
0.728078678099318
40
1
40
1
40
1
40
1
41
1
10
11.5386150612142
20
0.453839701253969
30
0
41
1
10
11.4859979515064
20
0.46412748783635
30
0
41
1
10
11.3854253625167
20
0.484623472846579
30
0
41
1
10
11.2417795264497
20
0.516344774756959
30
0
41
1
10
11.1146012994469
20
0.545953604292379
30
0
41
1
10
10.9903018341125
20
0.575737897714703
30
0
41
1
10
10.8280964455176
20
0.616809910117411
30
0
41
1
10
10.7077149249355
20
0.641440436864741
30
0
41
1
10
10.6313527258487
20
0.655400109349358
30
0
0
SPLINE
5
129
100
AcDbEntity
8
1
62
256
6
ByLayer
370
18
48
1
60
0
100
AcDbSpline
70
4
71
1
72
4
73
2
40
0
40
0
40
1
40
1
41
1
10
12.6508952660117
20
0.749148608218661
30
0
41
1
10
12.5495901332088
20
0.756751118843113
30
0
0
SPLINE
5
12A
100
AcDbEntity
8
1
62
256
6
ByLayer
370
18
48
1
60
0
100
AcDbSpline
70
4
71
1
72
4
73
2
40
0
40
0
40
1
40
1
41
1
10
13.2973988624734
20
-0.791384067206508
30
0
41
1
10
13.6949247055285
20
-0.763721737759568
30
0
0
LINE
5
77
100
AcDbEntity
8
80
62
256
6
ByLayer
370
18
48
1
60
0
100
AcDbLine
10
0
20
0
30
0
11
-5
21
0
31
0
39
0
210
0
220
0
230
1
0
LINE
5
78
100
AcDbEntity
8
4
62
256
6
ByLayer
370
18
48
0.05
60
0
100
AcDbLine
10
0
20
0
30
0
11
14
21
0
31
0
39
0
210
0
220
0
230
1
0
LINE
5
7A
100
AcDbEntity
8
SK4
62
256
6
ByLayer
370
18
48
0.05
60
0
100
AcDbLine
10
-36
20
0
30
0
11
14
21
0
31
0
39
0
210
0
220
0
230
1
0
LINE
5
7C
100
AcDbEntity
8
81
62
256
6
ByLayer
370
18
48
1
60
0
100
AcDbLine
10
14
20
0
30
0
11
19
21
0
31
0
39
0
210
0
220
0
230
1
0
LINE
5
7D
100
AcDbEntity
8
1
62
256
6
ByLayer
370
18
48
1
60
0
100
AcDbLine
10
0
20
3
30
0
11
0
21
0
31
0
39
0
210
0
220
0
230
1
0
LINE
5
7E
100
AcDbEntity
8
1
62
256
6
ByLayer
370
18
48
1
60
0
100
AcDbLine
10
0
20
0
30
0
11
0
21
-3
31
0
39
0
210
0
220
0
230
1
0
LINE
5
7F
100
AcDbEntity
8
1
62
256
6
ByLayer
370
18
48
1
60
0
100
AcDbLine
10
13.999336
20
0.874302
30
0
11
14
21
0.899291
31
0
39
0
210
0
220
0
230
1
0
LINE
5
80
100
AcDbEntity
8
1
62
256
6
ByLayer
370
18
48
1
60
0
100
AcDbLine
10
14
20
0.899291
30
0
11
14
21
0.899895
31
0
39
0
210
0
220
0
230
1
0
LINE
5
81
100
AcDbEntity
8
1
62
256
6
ByLayer
370
18
48
1
60
0
100
AcDbLine
10
13.962801
20
-0.045408
30
0
11
13.974849
21
-0.04719
31
0
39
0
210
0
220
0
230
1
0
LINE
5
82
100
AcDbEntity
8
1
62
256
6
ByLayer
370
18
48
1
60
0
100
AcDbLine
10
13.974849
20
-0.04719
30
0
11
13.993401
21
0.650966
31
0
39
0
210
0
220
0
230
1
0
LINE
5
83
100
AcDbEntity
8
1
62
256
6
ByLayer
370
18
48
1
60
0
100
AcDbLine
10
14
20
-0.455221
30
0
11
14
21
-0.454825
31
0
39
0
210
0
220
0
230
1
0
LINE
5
84
100
AcDbEntity
8
1
62
256
6
ByLayer
370
18
48
1
60
0
100
AcDbLine
10
13.999496
20
-0.444711
30
0
11
14
21
-0.454825
31
0
39
0
210
0
220
0
230
1
0
LINE
5
85
100
AcDbEntity
8
1
62
256
6
ByLayer
370
18
48
1
60
0
100
AcDbLine
10
13.985194
20
-0.157967
30
0
11
13.993401
21
-0.322525
31
0
39
0
210
0
220
0
230
1
0
LINE
5
86
100
AcDbEntity
8
1
62
256
6
ByLayer
370
18
48
1
60
0
100
AcDbLine
10
13.883575
20
-0.613982
30
0
11
13.931404
21
-0.399348
31
0
39
0
210
0
220
0
230
1
0
LINE
5
87
100
AcDbEntity
8
1
62
256
6
ByLayer
370
18
48
1
60
0
100
AcDbLine
10
13.983136
20
-0.167201
30
0
11
13.985194
21
-0.157967
31
0
39
0
210
0
220
0
230
1
0
LINE
5
88
100
AcDbEntity
8
1
62
256
6
ByLayer
370
18
48
1
60
0
100
AcDbLine
10
13.981378
20
-0.156661
30
0
11
13.985194
21
-0.157967
31
0
39
0
210
0
220
0
230
1
0
LINE
5
89
100
AcDbEntity
8
1
62
256
6
ByLayer
370
13
48
1
60
0
100
AcDbLine
10
13.686818
20
-0.244444
30
0
11
13.443466
21
-0.407315
31
0
39
0
210
0
220
0
230
1
0
LINE
5
8A
100
AcDbEntity
8
1
62
256
6
ByLayer
370
18
48
1
60
0
100
AcDbLine
10
9.964007
20
0.899867
30
0
11
10.4
21
0.720272
31
0
39
0
210
0
220
0
230
1
0
LINE
5
8B
100
AcDbEntity
8
1
62
256
6
ByLayer
370
18
48
1
60
0
100
AcDbLine
10
10.4
20
-0.761188
30
0
11
10.4
21
-0.838264
31
0
39
0
210
0
220
0
230
1
0
LINE
5
8C
100
AcDbEntity
8
1
62
256
6
ByLayer
370
13
48
1
60
0
100
AcDbLine
10
9.765882
20
-0.589119
30
0
11
10.4
21
-0.761188
31
0
39
0
210
0
220
0
230
1
0
LINE
5
8D
100
AcDbEntity
8
1
62
256
6
ByLayer
370
18
48
1
60
0
100
AcDbLine
10
10.4
20
-0.761188
30
0
11
10.4
21
-0.730606
31
0
39
0
210
0
220
0
230
1
0
LINE
5
8E
100
AcDbEntity
8
1
62
256
6
ByLayer
370
13
48
1
60
0
100
AcDbLine
10
9.766263
20
-0.55864
30
0
11
10.4
21
-0.730606
31
0
39
0
210
0
220
0
230
1
0
LINE
5
8F
100
AcDbEntity
8
1
62
256
6
ByLayer
370
18
48
1
60
0
100
AcDbLine
10
10.4
20
-0.730606
30
0
11
10.4
21
-0.581638
31
0
39
0
210
0
220
0
230
1
0
LINE
5
90
100
AcDbEntity
8
1
62
256
6
ByLayer
370
18
48
1
60
0
100
AcDbLine
10
10.4
20
0.629369
30
0
11
10.4
21
0.720272
31
0
39
0
210
0
220
0
230
1
0
LINE
5
91
100
AcDbEntity
8
1
62
256
6
ByLayer
370
18
48
1
60
0
100
AcDbLine
10
13.999336
20
-0.43279
30
0
11
14
21
-0.444466
31
0
39
0
210
0
220
0
230
1
0
LINE
5
92
100
AcDbEntity
8
1
62
256
6
ByLayer
370
18
48
1
60
0
100
AcDbLine
10
13.984795
20
-0.177124
30
0
11
13.993401
21
-0.328441
31
0
39
0
210
0
220
0
230
1
0
LINE
5
93
100
AcDbEntity
8
1
62
256
6
ByLayer
370
18
48
1
60
0
100
AcDbLine
10
13.883478
20
0.429629
30
0
11
13.984795
21
-0.177124
31
0
39
0
210
0
220
0
230
1
0
LINE
5
94
100
AcDbEntity
8
1
62
256
6
ByLayer
370
18
48
1
60
0
100
AcDbLine
10
10.4
20
0.002601
30
0
11
10.4
21
0.049577
31
0
39
0
210
0
220
0
230
1
0
LINE
5
95
100
AcDbEntity
8
1
62
256
6
ByLayer
370
13
48
1
60
0
100
AcDbLine
10
9.796157
20
0.213431
30
0
11
10.4
21
0.049577
31
0
39
0
210
0
220
0
230
1
0
LINE
5
96
100
AcDbEntity
8
1
62
256
6
ByLayer
370
18
48
1
60
0
100
AcDbLine
10
10.4
20
0.049577
30
0
11
10.4
21
0.416548
31
0
39
0
210
0
220
0
230
1
0
LINE
5
97
100
AcDbEntity
8
1
62
256
6
ByLayer
370
13
48
1
60
0
100
AcDbLine
10
10.309379
20
0.441138
30
0
11
10.4
21
0.416548
31
0
39
0
210
0
220
0
230
1
0
LINE
5
98
100
AcDbEntity
8
1
62
256
6
ByLayer
370
18
48
1
60
0
100
AcDbLine
10
9.964007
20
-0.463331
30
0
11
10.4
21
-0.581638
31
0
39
0
210
0
220
0
230
1
0
LINE
5
99
100
AcDbEntity
8
1
62
256
6
ByLayer
370
18
48
1
60
0
100
AcDbLine
10
10.4
20
-0.581638
30
0
11
10.4
21
0.002601
31
0
39
0
210
0
220
0
230
1
0
LINE
5
9A
100
AcDbEntity
8
1
62
256
6
ByLayer
370
13
48
1
60
0
100
AcDbLine
10
9.801264
20
0.165069
30
0
11
10.4
21
0.002601
31
0
39
0
210
0
220
0
230
1
0
LINE
5
9B
100
AcDbEntity
8
1
62
256
6
ByLayer
370
13
48
1
60
0
100
AcDbLine
10
9.766263
20
0.890418
30
0
11
9.806436
21
0.87387
31
0
39
0
210
0
220
0
230
1
0
LINE
5
9C
100
AcDbEntity
8
1
62
256
6
ByLayer
370
18
48
1
60
0
100
AcDbLine
10
14
20
-0.444654
30
0
11
14
21
-0.444466
31
0
39
0
210
0
220
0
230
1
0
LINE
5
9D
100
AcDbEntity
8
1
62
256
6
ByLayer
370
18
48
1
60
0
100
AcDbLine
10
10.4
20
0.437101
30
0
11
10.4
21
0.416548
31
0
39
0
210
0
220
0
230
1
0
LINE
5
9E
100
AcDbEntity
8
1
62
256
6
ByLayer
370
18
48
1
60
0
100
AcDbLine
10
9.964007
20
0.899867
30
0
11
9.962427
21
0.9
31
0
39
0
210
0
220
0
230
1
0
LINE
5
9F
100
AcDbEntity
8
1
62
256
6
ByLayer
370
13
48
1
60
0
100
AcDbLine
10
4.997679
20
-0.9
30
0
11
4.997679
21
0
31
0
39
0
210
0
220
0
230
1
0
LINE
5
A0
100
AcDbEntity
8
1
62
256
6
ByLayer
370
13
48
1
60
0
100
AcDbLine
10
4.997679
20
0
30
0
11
4.997679
21
0.9
31
0
39
0
210
0
220
0
230
1
0
LINE
5
A1
100
AcDbEntity
8
1
62
256
6
ByLayer
370
13
48
1
60
0
100
AcDbLine
10
4.497679
20
1.033975
30
0
11
4.497679
21
0
31
0
39
0
210
0
220
0
230
1
0
LINE
5
A2
100
AcDbEntity
8
1
62
256
6
ByLayer
370
13
48
1
60
0
100
AcDbLine
10
4.497679
20
0
30
0
11
4.497679
21
-1.033975
31
0
39
0
210
0
220
0
230
1
0
LINE
5
A3
100
AcDbEntity
8
1
62
256
6
ByLayer
370
18
48
1
60
0
100
AcDbLine
10
1.092423
20
3
30
0
11
1.092423
21
0
31
0
39
0
210
0
220
0
230
1
0
LINE
5
A4
100
AcDbEntity
8
1
62
256
6
ByLayer
370
18
48
1
60
0
100
AcDbLine
10
1.092423
20
0
30
0
11
1.092423
21
-3
31
0
39
0
210
0
220
0
230
1
0
LINE
5
A5
100
AcDbEntity
8
SK1
62
256
6
ByLayer
370
18
48
1
60
0
100
AcDbLine
10
-36
20
-2.6
30
0
11
-36
21
2.6
31
0
39
0
210
0
220
0
230
1
0
LINE
5
A7
100
AcDbEntity
8
SK1
62
256
6
ByLayer
370
18
48
1
60
0
100
AcDbLine
10
0
20
3
30
0
11
0
21
0
31
0
39
0
210
0
220
0
230
1
0
LINE
5
A8
100
AcDbEntity
8
SK1
62
256
6
ByLayer
370
18
48
1
60
0
100
AcDbLine
10
0
20
0
30
0
11
0
21
-3
31
0
39
0
210
0
220
0
230
1
0
LINE
5
A9
100
AcDbEntity
8
SK1
62
256
6
ByLayer
370
18
48
1
60
0
100
AcDbLine
10
-35.6
20
3
30
0
11
-35.6
21
-3
31
0
39
0
210
0
220
0
230
1
0
LINE
5
AA
100
AcDbEntity
8
1
62
256
6
ByLayer
370
18
48
1
60
0
100
AcDbLine
10
10.262186
20
-0.9
30
0
11
10.396119
21
-0.9
31
0
39
0
210
0
220
0
230
1
0
LINE
5
AB
100
AcDbEntity
8
1
62
256
6
ByLayer
370
18
48
1
60
0
100
AcDbLine
10
1.092423
20
3
30
0
11
0
21
3
31
0
39
0
210
0
220
0
230
1
0
LINE
5
AC
100
AcDbEntity
8
1
62
256
6
ByLayer
370
18
48
1
60
0
100
AcDbLine
10
0
20
-3
30
0
11
1.092423
21
-3
31
0
39
0
210
0
220
0
230
1
0
LINE
5
AD
100
AcDbEntity
8
1
62
256
6
ByLayer
370
18
48
1
60
0
100
AcDbLine
10
9.961998
20
0.9
30
0
11
4.997679
21
0.9
31
0
39
0
210
0
220
0
230
1
0
LINE
5
AE
100
AcDbEntity
8
1
62
256
6
ByLayer
370
18
48
1
60
0
100
AcDbLine
10
4.997679
20
-0.9
30
0
11
10.262186
21
-0.9
31
0
39
0
210
0
220
0
230
1
0
LINE
5
AF
100
AcDbEntity
8
1
62
256
6
ByLayer
370
18
48
1
60
0
100
AcDbLine
10
4.497679
20
1.033975
30
0
11
1.092423
21
3
31
0
39
0
210
0
220
0
230
1
0
LINE
5
B0
100
AcDbEntity
8
1
62
256
6
ByLayer
370
18
48
1
60
0
100
AcDbLine
10
1.092423
20
-3
30
0
11
4.497679
21
-1.033975
31
0
39
0
210
0
220
0
230
1
0
LINE
5
B1
100
AcDbEntity
8
SK1
62
256
6
ByLayer
370
18
48
1
60
0
100
AcDbLine
10
-36
20
-2.6
30
0
11
-35.6
21
-3
31
0
39
0
210
0
220
0
230
1
0
LINE
5
B2
100
AcDbEntity
8
SK1
62
256
6
ByLayer
370
18
48
1
60
0
100
AcDbLine
10
-35.6
20
3
30
0
11
-36
21
2.6
31
0
39
0
210
0
220
0
230
1
0
LINE
5
B3
100
AcDbEntity
8
SK1
62
256
6
ByLayer
370
18
48
1
60
0
100
AcDbLine
10
0
20
3
30
0
11
-35.6
21
3
31
0
39
0
210
0
220
0
230
1
0
LINE
5
B4
100
AcDbEntity
8
SK1
62
256
6
ByLayer
370
18
48
1
60
0
100
AcDbLine
10
-35.6
20
-3
30
0
11
0
21
-3
31
0
39
0
210
0
220
0
230
1
0
LINE
5
B5
100
AcDbEntity
8
SK2
62
256
6
ByLayer
370
18
48
1
60
0
100
AcDbLine
10
-43.85
20
11.75
30
0
11
-43.85
21
-19.315466
31
0
39
0
210
0
220
0
230
1
0
LINE
5
B7
100
AcDbEntity
8
SK2
62
256
6
ByLayer
370
18
48
1
60
0
100
AcDbLine
10
-37.1875
20
3
30
0
11
-45.85
21
3
31
0
39
0
210
0
220
0
230
1
0
LINE
5
B8
100
AcDbEntity
8
SK2
62
256
6
ByLayer
370
18
48
1
60
0
100
AcDbLine
10
-37.1875
20
-3
30
0
11
-45.85
21
-3
31
0
39
0
210
0
220
0
230
1
0
LINE
5
B9
100
AcDbEntity
8
1
62
256
6
ByLayer
370
18
48
1
60
1
100
AcDbLine
10
-43.85
20
3
30
0
11
-44.310784
21
6.499998
31
0
39
0
210
0
220
0
230
1
0
LINE
5
BA
100
AcDbEntity
8
1
62
256
6
ByLayer
370
18
48
1
60
1
100
AcDbLine
10
-44.310784
20
6.499998
30
0
11
-43.389216
21
6.500002
31
0
39
0
210
0
220
0
230
1
0
LINE
5
BB
100
AcDbEntity
8
1
62
256
6
ByLayer
370
18
48
1
60
1
100
AcDbLine
10
-43.389216
20
6.500002
30
0
11
-43.85
21
3
31
0
39
0
210
0
220
0
230
1
0
LINE
5
BC
100
AcDbEntity
8
1
62
256
6
ByLayer
370
18
48
1
60
1
100
AcDbLine
10
-43.85
20
-3
30
0
11
-43.389216
21
-6.499998
31
0
39
0
210
0
220
0
230
1
0
LINE
5
BD
100
AcDbEntity
8
1
62
256
6
ByLayer
370
18
48
1
60
1
100
AcDbLine
10
-43.389216
20
-6.499998
30
0
11
-44.310784
21
-6.500002
31
0
39
0
210
0
220
0
230
1
0
LINE
5
BE
100
AcDbEntity
8
1
62
256
6
ByLayer
370
18
48
1
60
1
100
AcDbLine
10
-44.310784
20
-6.500002
30
0
11
-43.85
21
-3
31
0
39
0
210
0
220
0
230
1
0
LINE
5
BF
100
AcDbEntity
8
2
62
256
6
ByLayer
370
18
48
1
60
0
100
AcDbLine
10
26
20
20.374165
30
0
11
26
21
-9.6501
31
0
39
0
210
0
220
0
230
1
0
LINE
5
C1
100
AcDbEntity
8
2
62
256
6
ByLayer
370
18
48
1
60
0
100
AcDbLine
10
15.5875
20
0.9001
30
0
11
28
21
0.9001
31
0
39
0
210
0
220
0
230
1
0
LINE
5
C2
100
AcDbEntity
8
2
62
256
6
ByLayer
370
18
48
1
60
0
100
AcDbLine
10
15.5875
20
-0.9001
30
0
11
28
21
-0.9001
31
0
39
0
210
0
220
0
230
1
0
LINE
5
C3
100
AcDbEntity
8
1
62
256
6
ByLayer
370
18
48
1
60
1
100
AcDbLine
10
26
20
0.9001
30
0
11
25.539216
21
4.400098
31
0
39
0
210
0
220
0
230
1
0
LINE
5
C4
100
AcDbEntity
8
1
62
256
6
ByLayer
370
18
48
1
60
1
100
AcDbLine
10
25.539216
20
4.400098
30
0
11
26.460784
21
4.400102
31
0
39
0
210
0
220
0
230
1
0
LINE
5
C5
100
AcDbEntity
8
1
62
256
6
ByLayer
370
18
48
1
60
1
100
AcDbLine
10
26.460784
20
4.400102
30
0
11
26
21
0.9001
31
0
39
0
210
0
220
0
230
1
0
LINE
5
C6
100
AcDbEntity
8
1
62
256
6
ByLayer
370
18
48
1
60
1
100
AcDbLine
10
26
20
-0.9001
30
0
11
26.460784
21
-4.400098
31
0
39
0
210
0
220
0
230
1
0
LINE
5
C7
100
AcDbEntity
8
1
62
256
6
ByLayer
370
18
48
1
60
1
100
AcDbLine
10
26.460784
20
-4.400098
30
0
11
25.539216
21
-4.400102
31
0
39
0
210
0
220
0
230
1
0
LINE
5
C8
100
AcDbEntity
8
1
62
256
6
ByLayer
370
18
48
1
60
1
100
AcDbLine
10
25.539216
20
-4.400102
30
0
11
26
21
-0.9001
31
0
39
0
210
0
220
0
230
1
0
LINE
5
C9
100
AcDbEntity
8
SK2
62
256
6
ByLayer
370
18
48
1
60
0
100
AcDbLine
10
14
20
-33.1
30
0
11
-36
21
-33.1
31
0
39
0
210
0
220
0
230
1
0
LINE
5
CA
100
AcDbEntity
8
SK2
62
256
6
ByLayer
370
18
48
1
60
0
100
AcDbLine
10
-36
20
-4.1875
30
0
11
-36
21
-35.1
31
0
39
0
210
0
220
0
230
1
0
LINE
5
CB
100
AcDbEntity
8
SK2
62
256
6
ByLayer
370
18
48
1
60
0
100
AcDbLine
10
14
20
-2.4876
30
0
11
14
21
-35.1
31
0
39
0
210
0
220
0
230
1
0
LINE
5
CC
100
AcDbEntity
8
1
62
256
6
ByLayer
370
18
48
1
60
1
100
AcDbLine
10
-36
20
-33.1
30
0
11
-32.500002
21
-32.639216
31
0
39
0
210
0
220
0
230
1
0
LINE
5
CD
100
AcDbEntity
8
1
62
256
6
ByLayer
370
18
48
1
60
1
100
AcDbLine
10
-32.500002
20
-32.639216
30
0
11
-32.499998
21
-33.560784
31
0
39
0
210
0
220
0
230
1
0
LINE
5
CE
100
AcDbEntity
8
1
62
256
6
ByLayer
370
18
48
1
60
1
100
AcDbLine
10
-32.499998
20
-33.560784
30
0
11
-36
21
-33.1
31
0
39
0
210
0
220
0
230
1
0
LINE
5
CF
100
AcDbEntity
8
1
62
256
6
ByLayer
370
18
48
1
60
1
100
AcDbLine
10
14
20
-33.1
30
0
11
10.500002
21
-33.560784
31
0
39
0
210
0
220
0
230
1
0
LINE
5
D0
100
AcDbEntity
8
1
62
256
6
ByLayer
370
18
48
1
60
1
100
AcDbLine
10
10.500002
20
-33.560784
30
0
11
10.499998
21
-32.639216
31
0
39
0
210
0
220
0
230
1
0
LINE
5
D1
100
AcDbEntity
8
1
62
256
6
ByLayer
370
18
48
1
60
1
100
AcDbLine
10
10.499998
20
-32.639216
30
0
11
14
21
-33.1
31
0
39
0
210
0
220
0
230
1
0
LINE
5
12F
100
AcDbEntity
8
1
62
256
6
ByLayer
370
18
48
1
60
1
100
AcDbLine
10
-43.85
20
3
30
0
11
-44.310784
21
6.499998
31
0
39
0
210
0
220
0
230
1
0
LINE
5
130
100
AcDbEntity
8
1
62
256
6
ByLayer
370
18
48
1
60
1
100
AcDbLine
10
-44.310784
20
6.499998
30
0
11
-43.389216
21
6.500002
31
0
39
0
210
0
220
0
230
1
0
LINE
5
131
100
AcDbEntity
8
1
62
256
6
ByLayer
370
18
48
1
60
1
100
AcDbLine
10
-43.389216
20
6.500002
30
0
11
-43.85
21
3
31
0
39
0
210
0
220
0
230
1
0
LINE
5
133
100
AcDbEntity
8
1
62
256
6
ByLayer
370
18
48
1
60
1
100
AcDbLine
10
-43.85
20
-3
30
0
11
-43.389216
21
-6.499998
31
0
39
0
210
0
220
0
230
1
0
LINE
5
134
100
AcDbEntity
8
1
62
256
6
ByLayer
370
18
48
1
60
1
100
AcDbLine
10
-43.389216
20
-6.499998
30
0
11
-44.310784
21
-6.500002
31
0
39
0
210
0
220
0
230
1
0
LINE
5
135
100
AcDbEntity
8
1
62
256
6
ByLayer
370
18
48
1
60
1
100
AcDbLine
10
-44.310784
20
-6.500002
30
0
11
-43.85
21
-3
31
0
39
0
210
0
220
0
230
1
0
LINE
5
139
100
AcDbEntity
8
1
62
256
6
ByLayer
370
18
48
1
60
1
100
AcDbLine
10
26
20
0.9001
30
0
11
25.539216
21
4.400098
31
0
39
0
210
0
220
0
230
1
0
LINE
5
13A
100
AcDbEntity
8
1
62
256
6
ByLayer
370
18
48
1
60
1
100
AcDbLine
10
25.539216
20
4.400098
30
0
11
26.460784
21
4.400102
31
0
39
0
210
0
220
0
230
1
0
LINE
5
13B
100
AcDbEntity
8
1
62
256
6
ByLayer
370
18
48
1
60
1
100
AcDbLine
10
26.460784
20
4.400102
30
0
11
26
21
0.9001
31
0
39
0
210
0
220
0
230
1
0
LINE
5
13D
100
AcDbEntity
8
1
62
256
6
ByLayer
370
18
48
1
60
1
100
AcDbLine
10
26
20
-0.9001
30
0
11
26.460784
21
-4.400098
31
0
39
0
210
0
220
0
230
1
0
LINE
5
13E
100
AcDbEntity
8
1
62
256
6
ByLayer
370
18
48
1
60
1
100
AcDbLine
10
26.460784
20
-4.400098
30
0
11
25.539216
21
-4.400102
31
0
39
0
210
0
220
0
230
1
0
LINE
5
13F
100
AcDbEntity
8
1
62
256
6
ByLayer
370
18
48
1
60
1
100
AcDbLine
10
25.539216
20
-4.400102
30
0
11
26
21
-0.9001
31
0
39
0
210
0
220
0
230
1
0
LINE
5
142
100
AcDbEntity
8
1
62
256
6
ByLayer
370
18
48
1
60
1
100
AcDbLine
10
-36
20
-33.1
30
0
11
-32.500002
21
-32.639216
31
0
39
0
210
0
220
0
230
1
0
LINE
5
143
100
AcDbEntity
8
1
62
256
6
ByLayer
370
18
48
1
60
1
100
AcDbLine
10
-32.500002
20
-32.639216
30
0
11
-32.499998
21
-33.560784
31
0
39
0
210
0
220
0
230
1
0
LINE
5
144
100
AcDbEntity
8
1
62
256
6
ByLayer
370
18
48
1
60
1
100
AcDbLine
10
-32.499998
20
-33.560784
30
0
11
-36
21
-33.1
31
0
39
0
210
0
220
0
230
1
0
LINE
5
146
100
AcDbEntity
8
1
62
256
6
ByLayer
370
18
48
1
60
1
100
AcDbLine
10
14
20
-33.1
30
0
11
10.500002
21
-33.560784
31
0
39
0
210
0
220
0
230
1
0
LINE
5
147
100
AcDbEntity
8
1
62
256
6
ByLayer
370
18
48
1
60
1
100
AcDbLine
10
10.500002
20
-33.560784
30
0
11
10.499998
21
-32.639216
31
0
39
0
210
0
220
0
230
1
0
LINE
5
148
100
AcDbEntity
8
1
62
256
6
ByLayer
370
18
48
1
60
1
100
AcDbLine
10
10.499998
20
-32.639216
30
0
11
14
21
-33.1
31
0
39
0
210
0
220
0
230
1
0
MTEXT
5
12B
100
AcDbEntity
8
SK2
62
256
6
ByLayer
370
18
48
1
60
0
100
AcDbMText
10
-45.414634
20
-17.380622
30
0
210
0
220
0
230
1
1
%%c
40
3.5
41
0
44
1.084337
50
90
71
7
72
5
7
iso_b_vert
0
MTEXT
5
12E
100
AcDbEntity
8
SK2
62
256
6
ByLayer
370
18
48
1
60
0
100
AcDbMText
10
-45.414634
20
-10.407966
30
0
210
0
220
0
230
1
1
\W0.5404;6
40
3.5
41
0
44
1.084337
50
90
71
7
72
5
7
iso_b_vert
0
MTEXT
5
137
100
AcDbEntity
8
2
62
256
6
ByLayer
370
18
48
1
60
0
100
AcDbMText
10
24.435366
20
8.834944
30
0
210
0
220
0
230
1
1
%%c
40
3.5
41
0
44
1.084337
50
90
71
7
72
5
7
iso_b_vert
0
MTEXT
5
138
100
AcDbEntity
8
2
62
256
6
ByLayer
370
18
48
1
60
0
100
AcDbMText
10
24.435366
20
15.8076
30
0
210
0
220
0
230
1
1
\W0.6004;1.8
40
3.5
41
0
44
1.084337
50
90
71
7
72
5
7
iso_b_vert
0
MTEXT
5
141
100
AcDbEntity
8
SK2
62
256
6
ByLayer
370
18
48
1
60
0
100
AcDbMText
10
-12.904966
20
-32.067366
30
0
210
0
220
0
230
1
1
\W0.6740;50
40
3.5
41
0
44
1.084337
50
0
71
7
72
5
7
iso_b_vert
0
MTEXT
5
14A
100
AcDbEntity
8
SK6
62
256
6
ByLayer
370
18
48
1
60
0
100
AcDbMText
10
-35.4677
20
-62.114886
30
0
210
0
220
0
230
1
1
\W0.6967;1K333-0180-XA       1730
40
3
41
0
44
1.084337
50
0
71
7
72
5
7
iso_b_vert
0
HATCH
5
132
100
AcDbEntity
8
SK2
62
256
6
ByLayer
370
13
48
1
60
0
100
AcDbHatch
10
0
20
0
30
0
210
0
220
0
230
1
2
ANSI31
70
0
71
0
91
1
92
5
93
3
72
1
10
-43.85
20
3
11
-44.3107837415528
21
6.49999830744682
72
1
10
-44.3107837415528
20
6.49999830744682
11
-43.3892162584472
21
6.50000169255318
72
1
10
-43.3892162584472
20
6.50000169255318
11
-43.85
21
3
97
0
75
0
76
1
52
0
41
0.0062
77
0
78
1
53
45
43
0
44
0
45
-0.0139193969876572
46
0.0139193969876572
79
0
47
0
98
1
10
0
20
0
0
HATCH
5
136
100
AcDbEntity
8
SK2
62
256
6
ByLayer
370
13
48
1
60
0
100
AcDbHatch
10
0
20
0
30
0
210
0
220
0
230
1
2
ANSI31
70
0
71
0
91
1
92
5
93
3
72
1
10
-43.85
20
-3
11
-43.3892162584472
21
-6.49999830744682
72
1
10
-43.3892162584472
20
-6.49999830744682
11
-44.3107837415528
21
-6.50000169255318
72
1
10
-44.3107837415528
20
-6.50000169255318
11
-43.85
21
-3
97
0
75
0
76
1
52
0
41
0.0062
77
0
78
1
53
45
43
0
44
0
45
-0.0139193969876572
46
0.0139193969876572
79
0
47
0
98
1
10
0
20
0
0
HATCH
5
13C
100
AcDbEntity
8
2
62
256
6
ByLayer
370
13
48
1
60
0
100
AcDbHatch
10
0
20
0
30
0
210
0
220
0
230
1
2
ANSI31
70
0
71
0
91
1
92
5
93
3
72
1
10
26
20
0.900099999999952
11
25.5392162584472
21
4.40009830744677
72
1
10
25.5392162584472
20
4.40009830744677
11
26.4607837415528
21
4.40010169255314
72
1
10
26.4607837415528
20
4.40010169255314
11
26
21
0.900099999999952
97
0
75
0
76
1
52
0
41
0.0062
77
0
78
1
53
45
43
0
44
0
45
-0.0139193969876572
46
0.0139193969876572
79
0
47
0
98
1
10
0
20
0
0
HATCH
5
140
100
AcDbEntity
8
2
62
256
6
ByLayer
370
13
48
1
60
0
100
AcDbHatch
10
0
20
0
30
0
210
0
220
0
230
1
2
ANSI31
70
0
71
0
91
1
92
5
93
3
72
1
10
26
20
-0.900100000000037
11
26.4607837415528
21
-4.40009830744685
72
1
10
26.4607837415528
20
-4.40009830744685
11
25.5392162584472
21
-4.40010169255322
72
1
10
25.5392162584472
20
-4.40010169255322
11
26
21
-0.900100000000037
97
0
75
0
76
1
52
0
41
0.0062
77
0
78
1
53
45
43
0
44
0
45
-0.0139193969876572
46
0.0139193969876572
79
0
47
0
98
1
10
0
20
0
0
HATCH
5
145
100
AcDbEntity
8
SK2
62
256
6
ByLayer
370
13
48
1
60
0
100
AcDbHatch
10
0
20
0
30
0
210
0
220
0
230
1
2
ANSI31
70
0
71
0
91
1
92
5
93
3
72
1
10
-36
20
-33.1000000000001
11
-32.5000016925532
21
-32.6392162584473
72
1
10
-32.5000016925532
20
-32.6392162584473
11
-32.4999983074468
21
-33.5607837415528
72
1
10
-32.4999983074468
20
-33.5607837415528
11
-36
21
-33.1000000000001
97
0
75
0
76
1
52
0
41
0.0062
77
0
78
1
53
45
43
0
44
0
45
-0.0139193969876572
46
0.0139193969876572
79
0
47
0
98
1
10
0
20
0
0
HATCH
5
149
100
AcDbEntity
8
SK2
62
256
6
ByLayer
370
13
48
1
60
0
100
AcDbHatch
10
0
20
0
30
0
210
0
220
0
230
1
2
ANSI31
70
0
71
0
91
1
92
5
93
3
72
1
10
14
20
-33.1000000000001
11
10.5000016925532
21
-33.5607837415528
72
1
10
10.5000016925532
20
-33.5607837415528
11
10.4999983074468
21
-32.6392162584473
72
1
10
10.4999983074468
20
-32.6392162584473
11
14
21
-33.1000000000001
97
0
75
0
76
1
52
0
41
0.0062
77
0
78
1
53
45
43
0
44
0
45
-0.0139193969876572
46
0.0139193969876572
79
0
47
0
98
1
10
0
20
0
0
DIMENSION
5
14D
100
AcDbEntity
8
2
62
256
6
ByLayer
370
18
48
1
60
0
100
AcDbDimension
2
_U0
10
10.4
20
-17.1
30
0
11
12.2
21
-17.1
31
0
70
32
71
1
72
1
41
1
210
0
220
0
230
1
3
Standard
100
AcDbAlignedDimension
13
14
23
-0.9001
33
0
14
10.4
24
-0.9001
34
0
50
0
100
AcDbRotatedDimension
1001
ACAD
1000
DSTYLE
1002
{
1070
   371
1070
    13
1070
   372
1070
    13
1070
   170
1070
     0
1070
   144
1040
1.0
1070
   277
1070
     2
1070
   284
1070
     8
1070
   278
1070
    46
1070
   146
1040
1.0
1070
   345
1005
16
1070
   347
1005
16
1070
   346
1005
16
1070
   344
1005
0
1070
   343
1005
0
1070
   172
1070
     1
1070
    76
1070
     0
1070
    75
1070
     0
1070
   282
1070
     0
1070
   281
1070
     0
1070
    71
1070
     0
1070
    74
1070
     0
1070
   279
1070
     0
1070
   173
1070
     1
1070
   340
1005
12C
1070
   271
1070
     2
1070
   272
1070
     2
1070
    77
1070
     1
1070
    73
1070
     1
1070
   171
1070
     3
1070
   274
1070
     4
1070
   177
1070
     2
1070
   176
1070
     2
1070
   178
1070
     2
1070
    78
1070
     8
1070
    48
1040
-0.1
1070
    41
1040
3.5
1070
   147
1040
1.75
1070
    42
1040
1.5875
1070
    44
1040
2.0
1070
   140
1040
3.5
1002
}
1001
ACAD_DSTYLE_DIM_LINETYPE
1070
   380
1005
16
1001
ACAD_DSTYLE_DIM_EXT1_LINETYPE
1070
   381
1005
16
1001
ACAD_DSTYLE_DIM_EXT2_LINETYPE
1070
   382
1005
16
0
ENDSEC
0
SECTION
2
OBJECTS
0
DICTIONARY
5
1d7
330
0
100
AcDbDictionary
280
0
281
1
3
ACAD_GROUP
350
1d8
3
ACAD_MLINESTYLE
350
1d9
0
DICTIONARY
5
1d8
330
0
100
AcDbDictionary
280
0
281
1
0
DICTIONARY
5
1d9
330
0
100
AcDbDictionary
280
0
281
1
3
Standard
350
18
0
MLINESTYLE
5
18
330
1d9
100
AcDbMlineStyle
2
Standard
70
0
3

62
256
51
90
52
90
71
2
49
-0.5
62
256
6
ByLayer
49
0.5
62
256
6
ByLayer
0
RASTERVARIABLES
5
1c5
330

100
AcDbRasterVariables
90
0
70
1
71
1
72
1
0
ENDSEC
0
EOF
