0
SECTION
2
HEADER
9
$ACADVER
1
AC1015
9
$DWGCODEPAGE
3
ANSI_1252
9
$HANDSEED
5
222
9
$ANGBASE
50
0
9
$ANGDIR
70
0
9
$ATTMODE
70
1
9
$AUNITS
70
0
9
$AUPREC
70
0
9
$CECOLOR
62
256
9
$CELTSCALE
40
1
9
$CELTYPE
6
ByLayer
9
$CELWEIGHT
370
18
9
$CLAYER
8
0
9
$CMLJUST
70
0
9
$CMLSCALE
40
1
9
$CMLSTYLE
2
Standard
9
$DIMSTYLE
2
Standard
9
$TEXTSIZE
40
0.2
9
$TEXTSTYLE
7
Standard
9
$LUNITS
70
2
9
$LUPREC
70
4
9
$EXTNAMES
290
1
9
$INSUNITS
70
4
9
$LTSCALE
40
1
9
$LWDISPLAY
290
1
9
$PDMODE
70
0
9
$PDSIZE
40
0
9
$PLINEGEN
70
0
0
ENDSEC
0
SECTION
2
CLASSES
0
CLASS
1
RASTERVARIABLES
2
AcDbRasterVariables
3
ISM
90
0
280
0
281
0
0
ENDSEC
0
SECTION
2
TABLES
0
TABLE
2
VPORT
5
218
100
AcDbSymbolTable
0
VPORT
5
1
100
AcDbSymbolTableRecord
100
AcDbViewportTableRecord
2
*Active
70
0
10
0
20
0
11
1
21
1
12
-1
22
1
13
0
23
0
14
0.5
24
0.5
15
10
25
10
16
0
26
0
36
1
17
0
27
0
37
0
0
ENDTAB
0
TABLE
2
LTYPE
5
219
100
AcDbSymbolTable
0
LTYPE
5
14
100
AcDbSymbolTableRecord
100
AcDbLinetypeTableRecord
70
0
2
ByBlock
3

72
65
73
0
40
0
0
LTYPE
5
15
100
AcDbSymbolTableRecord
100
AcDbLinetypeTableRecord
70
0
2
ByLayer
3

72
65
73
0
40
0
0
LTYPE
5
16
100
AcDbSymbolTableRecord
100
AcDbLinetypeTableRecord
70
0
2
Continuous
3
Solid line
72
65
73
0
40
0
0
LTYPE
5
6E
100
AcDbSymbolTableRecord
100
AcDbLinetypeTableRecord
70
0
2
CENTER
3
____ _ ____ _ ____ _ ____
72
65
73
4
40
47.5
49
22
74
0
49
-8.5
74
0
49
8.5
74
0
49
-8.5
74
0
0
LTYPE
5
6F
100
AcDbSymbolTableRecord
100
AcDbLinetypeTableRecord
70
0
2
DASHED
3
__ __ __ __ __ __ __ __ __
72
65
73
2
40
25.72
49
12.86
74
0
49
-12.86
74
0
0
ENDTAB
0
TABLE
2
LAYER
5
21a
100
AcDbSymbolTable
0
LAYER
5
10
100
AcDbSymbolTableRecord
100
AcDbLayerTableRecord
2
0
70
0
62
7
6
Continuous
290
1
370
-3
390
0
0
LAYER
5
71
100
AcDbSymbolTableRecord
100
AcDbLayerTableRecord
2
81
70
0
62
-3
6
Continuous
290
1
370
-3
390
0
0
LAYER
5
73
100
AcDbSymbolTableRecord
100
AcDbLayerTableRecord
2
80
70
0
62
-6
6
Continuous
290
1
370
-3
390
0
0
LAYER
5
75
100
AcDbSymbolTableRecord
100
AcDbLayerTableRecord
2
1
70
0
62
4
6
Continuous
290
1
370
-3
390
0
0
LAYER
5
79
100
AcDbSymbolTableRecord
100
AcDbLayerTableRecord
2
4
70
0
62
-2
6
CENTER
290
1
370
-3
390
0
0
LAYER
5
D1
100
AcDbSymbolTableRecord
100
AcDbLayerTableRecord
2
2
70
0
62
7
6
Continuous
290
1
370
-3
390
0
0
LAYER
5
18F
100
AcDbSymbolTableRecord
100
AcDbLayerTableRecord
2
Defpoints
70
0
62
7
6
Continuous
290
0
370
-3
390
0
0
LAYER
5
204
100
AcDbSymbolTableRecord
100
AcDbLayerTableRecord
2
SK4
70
0
62
2
6
CENTER
290
1
370
-3
390
0
0
LAYER
5
205
100
AcDbSymbolTableRecord
100
AcDbLayerTableRecord
2
SK1
70
0
62
4
6
Continuous
290
1
370
-3
390
0
0
LAYER
5
206
100
AcDbSymbolTableRecord
100
AcDbLayerTableRecord
2
SK2
70
0
62
7
6
Continuous
290
1
370
-3
390
0
0
LAYER
5
207
100
AcDbSymbolTableRecord
100
AcDbLayerTableRecord
2
SK6
70
0
62
5
6
Continuous
290
1
370
-3
390
0
0
ENDTAB
0
TABLE
2
STYLE
5
21b
100
AcDbSymbolTable
0
STYLE
5
11
100
AcDbSymbolTableRecord
100
AcDbTextStyleTableRecord
2
Standard
3
txt
70
0
71
0
40
0
41
1
42
0
50
0
0
STYLE
5
16B
100
AcDbSymbolTableRecord
100
AcDbTextStyleTableRecord
2
iso_b_vert
3
simplex.shx
70
0
71
0
40
0
41
1
42
0
50
0
0
STYLE
5
16C
100
AcDbSymbolTableRecord
100
AcDbTextStyleTableRecord
2
DWGDirectTextStyle
3
simplex
70
0
71
0
40
0
41
1
42
0
50
0
0
ENDTAB
0
TABLE
2
DIMSTYLE
5
21c
100
AcDbSymbolTable
100
AcDbDimStyleTable
0
DIMSTYLE
105
27
100
AcDbSymbolTableRecord
100
AcDbDimStyleTableRecord
2
Standard
70
0
3
<>
41
0.18
42
0.0625
44
0.18
140
0.18
147
0.09
73
0
74
0
77
1
271
2
275
0
278
52
280
0
340
11
0
ENDTAB
0
TABLE
2
VIEW
5
21d
100
AcDbSymbolTable
0
ENDTAB
0
TABLE
2
UCS
5
21e
100
AcDbSymbolTable
0
ENDTAB
0
TABLE
2
APPID
5
21f
100
AcDbSymbolTable
0
APPID
5
12
100
AcDbSymbolTableRecord
100
AcDbRegAppTableRecord
2
ACAD
70
0
0
APPID
5
18B
100
AcDbSymbolTableRecord
100
AcDbRegAppTableRecord
2
ACAD_DSTYLE_DIMBREAK
70
0
0
APPID
5
1C3
100
AcDbSymbolTableRecord
100
AcDbRegAppTableRecord
2
ACAD_DSTYLE_DIM_LINETYPE
70
0
0
APPID
5
1C4
100
AcDbSymbolTableRecord
100
AcDbRegAppTableRecord
2
ACAD_DSTYLE_DIM_EXT1_LINETYPE
70
0
0
APPID
5
1C5
100
AcDbSymbolTableRecord
100
AcDbRegAppTableRecord
2
ACAD_DSTYLE_DIM_EXT2_LINETYPE
70
0
0
APPID
5
200
100
AcDbSymbolTableRecord
100
AcDbRegAppTableRecord
2
ACAD_MLEADERVER
70
0
0
ENDTAB
0
TABLE
2
BLOCK_RECORD
5
220
100
AcDbSymbolTable
0
BLOCK_RECORD
5
1F
100
AcDbSymbolTableRecord
100
AcDbBlockTableRecord
2
*Model_Space
340
0
70
0
0
BLOCK_RECORD
5
1B
100
AcDbSymbolTableRecord
100
AcDbBlockTableRecord
2
*Paper_Space
340
0
70
0
0
BLOCK_RECORD
5
23
100
AcDbSymbolTableRecord
100
AcDbBlockTableRecord
2
*Paper_Space0
340
0
70
0
0
BLOCK_RECORD
5
190
100
AcDbSymbolTableRecord
100
AcDbBlockTableRecord
2
*D1
340
0
70
0
0
BLOCK_RECORD
5
19C
100
AcDbSymbolTableRecord
100
AcDbBlockTableRecord
2
_U0
340
0
70
0
0
ENDTAB
0
ENDSEC
0
SECTION
2
BLOCKS
0
BLOCK
5
20
100
AcDbEntity
8
0
100
AcDbBlockBegin
2
*Model_Space
70
0
10
0
20
0
30
0
3
*Model_Space
0
ENDBLK
5
21
100
AcDbEntity
8
0
100
AcDbBlockEnd
0
BLOCK
5
1C
100
AcDbEntity
8
0
100
AcDbBlockBegin
2
*Paper_Space
70
0
10
0
20
0
30
0
3
*Paper_Space
0
ENDBLK
5
1D
100
AcDbEntity
8
0
100
AcDbBlockEnd
0
BLOCK
5
24
100
AcDbEntity
8
0
100
AcDbBlockBegin
2
*Paper_Space0
70
0
10
0
20
0
30
0
3
*Paper_Space0
0
ENDBLK
5
25
100
AcDbEntity
8
0
100
AcDbBlockEnd
0
BLOCK
5
191
100
AcDbEntity
8
0
100
AcDbBlockBegin
2
*D1
70
1
10
0
20
0
30
0
3
*D1
0
LINE
5
193
100
AcDbEntity
8
0
62
256
6
ByLayer
370
-2
48
1
60
0
100
AcDbLine
10
34
20
-9.5876
30
0
11
34
21
-25.069072
31
0
39
0
210
0
220
0
230
1
0
LINE
5
194
100
AcDbEntity
8
0
62
256
6
ByLayer
370
-2
48
1
60
0
100
AcDbLine
10
10
20
-9.5876
30
0
11
10
21
-25.069072
31
0
39
0
210
0
220
0
230
1
0
LINE
5
195
100
AcDbEntity
8
0
62
256
6
ByLayer
370
-2
48
1
60
0
100
AcDbLine
10
30.5
20
-23.069072
30
0
11
13.5
21
-23.069072
31
0
39
0
210
0
220
0
230
1
0
SOLID
5
196
100
AcDbEntity
8
0
62
256
6
ByLayer
370
-1
48
1
60
0
100
AcDbTrace
10
30.5
20
-23.652405
30
0
11
30.5
21
-22.485738
31
0
12
34
22
-23.069072
32
0
13
34
23
-23.069072
33
0
39
0
210
0
220
0
230
1
0
SOLID
5
197
100
AcDbEntity
8
0
62
256
6
ByLayer
370
-1
48
1
60
0
100
AcDbTrace
10
13.5
20
-22.485738
30
0
11
13.5
21
-23.652405
31
0
12
10
22
-23.069072
32
0
13
10
23
-23.069072
33
0
39
0
210
0
220
0
230
1
0
MTEXT
5
198
100
AcDbEntity
8
0
62
256
6
ByLayer
370
18
48
1
60
0
100
AcDbMText
10
22
20
-16.069072
30
0
210
0
220
0
230
1
1
\A1;24
40
3.5
41
0
44
1
50
0
71
5
72
5
7
iso_b_vert
0
POINT
5
199
100
AcDbEntity
8
Defpoints
62
0
6
ByLayer
370
-1
48
1
60
0
100
AcDbPoint
10
34
20
-8.0001
30
0
39
0
210
0
220
0
230
1
50
360
0
POINT
5
19A
100
AcDbEntity
8
Defpoints
62
0
6
ByLayer
370
-1
48
1
60
0
100
AcDbPoint
10
10
20
-8.0001
30
0
39
0
210
0
220
0
230
1
50
360
0
POINT
5
19B
100
AcDbEntity
8
Defpoints
62
0
6
ByLayer
370
-1
48
1
60
0
100
AcDbPoint
10
10
20
-23.069072
30
0
39
0
210
0
220
0
230
1
50
360
0
ENDBLK
5
192
100
AcDbEntity
8
0
100
AcDbBlockEnd
0
BLOCK
5
1A3
100
AcDbEntity
8
0
100
AcDbBlockBegin
2
_U0
70
0
10
0
20
0
30
0
3
_U0
0
MTEXT
5
19D
100
AcDbEntity
8
2
62
256
6
ByLayer
370
18
48
1
60
0
100
AcDbMText
10
19.910767
20
-22.036438
30
0
210
0
220
0
230
1
1
\W0.7167;24
40
3.5
41
0
44
1.084337
50
0
71
7
72
5
7
iso_b_vert
0
LINE
5
19E
100
AcDbEntity
8
2
62
256
6
ByLayer
370
13
48
1
60
0
100
AcDbLine
10
34
20
-9.5876
30
0
11
34
21
-25.069072
31
0
39
0
210
0
220
0
230
1
0
LINE
5
19F
100
AcDbEntity
8
2
62
256
6
ByLayer
370
13
48
1
60
0
100
AcDbLine
10
10
20
-9.5876
30
0
11
10
21
-25.069072
31
0
39
0
210
0
220
0
230
1
0
LINE
5
1A0
100
AcDbEntity
8
2
62
256
6
ByLayer
370
13
48
1
60
0
100
AcDbLine
10
34
20
-23.069072
30
0
11
10
21
-23.069072
31
0
39
0
210
0
220
0
230
1
0
SOLID
5
1A1
100
AcDbEntity
8
2
62
256
6
ByLayer
370
18
48
1
60
0
100
AcDbTrace
10
34
20
-23.069072
30
0
11
30.500002
21
-23.529856
31
0
12
30.499998
22
-22.608288
32
0
13
30.499998
23
-22.608288
33
0
39
0
210
0
220
0
230
1
0
SOLID
5
1A2
100
AcDbEntity
8
2
62
256
6
ByLayer
370
18
48
1
60
0
100
AcDbTrace
10
10
20
-23.069072
30
0
11
13.499998
21
-22.608288
31
0
12
13.500002
22
-23.529856
32
0
13
13.500002
23
-23.529856
33
0
39
0
210
0
220
0
230
1
0
ENDBLK
5
1A4
100
AcDbEntity
8
0
100
AcDbBlockEnd
0
ENDSEC
0
SECTION
2
ENTITIES
0
ELLIPSE
5
E3
100
AcDbEntity
8
1
62
256
6
ByLayer
370
18
48
1
60
0
100
AcDbEllipse
10
33.903902
20
-0.056616
30
0
11
0.0414863917431831
21
2.24751083035988
31
0
210
0
220
0
230
1
40
0.051624
41
1.41526997587286
42
1.61983679530486
0
ELLIPSE
5
E4
100
AcDbEntity
8
1
62
256
6
ByLayer
370
18
48
1
60
0
100
AcDbEllipse
10
33.763791
20
0.257171
30
0
11
1.10180936140715
21
-0.180133317461011
31
0
210
0
220
0
230
1
40
0.370878
41
-1.7240191620453
42
-1.49013081569415
0
ELLIPSE
5
E5
100
AcDbEntity
8
1
62
256
6
ByLayer
370
18
48
1
60
0
100
AcDbEllipse
10
33.730364
20
-1.278123
30
0
11
0.149966733114296
21
1.21074819396015
31
0
210
0
220
0
230
1
40
0.143503
41
0.689283026336023
42
0.700222964769421
0
ELLIPSE
5
E6
100
AcDbEntity
8
1
62
256
6
ByLayer
370
18
48
1
60
0
100
AcDbEllipse
10
33.524202
20
-1.067719
30
0
11
1.09941405260526
21
0.060623375267255
31
0
210
0
220
0
230
1
40
0.668186
41
1.34294380600678
42
2.25241659720787
0
ELLIPSE
5
E7
100
AcDbEntity
8
1
62
256
6
ByLayer
370
18
48
1
60
0
100
AcDbEllipse
10
33.763791
20
0.257171
30
0
11
1.10180936113022
21
-0.180133317435913
31
0
210
0
220
0
230
1
40
0.370878
41
2.42326066409381
42
2.65643266172446
0
ELLIPSE
5
E8
100
AcDbEntity
8
1
62
256
6
ByLayer
370
18
48
1
60
0
100
AcDbEllipse
10
17.35308
20
0
30
0
11
14.68558130967
21
-7.86717276134224
31
0
210
0
220
0
230
1
40
0.098856
41
-2.60059133654144
42
-2.18710017131293
0
ELLIPSE
5
E9
100
AcDbEntity
8
1
62
256
6
ByLayer
370
18
48
1
60
0
100
AcDbEllipse
10
12.662774
20
0
30
0
11
15.2043809430104
21
-4.6547433545539
31
0
210
0
220
0
230
1
40
0.42793
41
1.87570051388942
42
1.94515233201842
0
ELLIPSE
5
EA
100
AcDbEntity
8
1
62
256
6
ByLayer
370
18
48
1
60
0
100
AcDbEllipse
10
17.62566
20
0
30
0
11
15.2082233136553
21
7.67071721033054
31
0
210
0
220
0
230
1
40
0.149366
41
-2.67406944622051
42
-2.41486128775164
0
ELLIPSE
5
EB
100
AcDbEntity
8
1
62
256
6
ByLayer
370
18
48
1
60
0
100
AcDbEllipse
10
12.749447
20
0
30
0
11
15.8247797785514
21
-1.04426245398225
31
0
210
0
220
0
230
1
40
0.501211
41
-1.78265402174573
42
-1.71236272583845
0
ELLIPSE
5
EC
100
AcDbEntity
8
1
62
256
6
ByLayer
370
18
48
1
60
0
100
AcDbEllipse
10
17.91941
20
0
30
0
11
15.8386478623557
21
0.146005987844566
31
0
210
0
220
0
230
1
40
0.505009
41
-2.65805780314742
42
-2.24151656047315
0
ELLIPSE
5
ED
100
AcDbEntity
8
1
62
256
6
ByLayer
370
18
48
1
60
0
100
AcDbEllipse
10
13.290879
20
0
30
0
11
18.9481190831721
21
-7.95561998563208
31
0
210
0
220
0
230
1
40
0.044411
41
-1.78174834890186
42
-1.72668499354182
0
POINT
5
70
100
AcDbEntity
8
81
62
256
6
ByLayer
370
18
48
1
60
0
100
AcDbPoint
10
34
20
0
30
0
39
0
210
0
220
0
230
1
50
360
0
POINT
5
72
100
AcDbEntity
8
80
62
256
6
ByLayer
370
18
48
1
60
0
100
AcDbPoint
10
0
20
0
30
0
39
0
210
0
220
0
230
1
50
360
0
POINT
5
74
100
AcDbEntity
8
1
62
256
6
ByLayer
370
18
48
1
60
1
100
AcDbPoint
10
34
20
-8.0001
30
0
39
0
210
0
220
0
230
1
50
360
0
POINT
5
76
100
AcDbEntity
8
1
62
256
6
ByLayer
370
18
48
1
60
1
100
AcDbPoint
10
10
20
-8.0001
30
0
39
0
210
0
220
0
230
1
50
360
0
SPLINE
5
EE
100
AcDbEntity
8
1
62
256
6
ByLayer
370
18
48
1
60
0
100
AcDbSpline
70
4
71
3
72
17
73
13
40
0
40
0
40
0
40
0
40
0.158012846940199
40
0.158012846940199
40
0.438675231293471
40
0.438675231293471
40
0.508840827381787
40
0.508840827381787
40
0.579006423470102
40
0.719337615646733
40
0.719337615646733
40
1
40
1
40
1
40
1
41
1
10
28.2255350591252
20
6.88566477738735
30
0
41
1
10
28.5003520275179
20
6.98912253667723
30
0
41
1
10
28.7748826221521
20
7.08583232201164
30
0
41
1
10
29.5369794065042
20
7.33518461001623
30
0
41
1
10
30.0245187545152
20
7.47288351853101
30
0
41
1
10
30.6359703230869
20
7.61629215781517
30
0
41
1
10
30.7583639760626
20
7.64353827886239
30
0
41
1
10
31.0028086162982
20
7.69501435229114
30
0
41
1
10
31.3691860181237
20
7.76775807554708
30
0
41
1
10
31.7349293882038
20
7.82708083435796
30
0
41
1
10
32.4661767195473
20
7.9277270922419
30
0
41
1
10
32.9533625271292
20
7.97083961824512
30
0
41
1
10
33.4417743618023
20
7.98944936606875
30
0
0
SPLINE
5
EF
100
AcDbEntity
8
1
62
256
6
ByLayer
370
18
48
1
60
0
100
AcDbSpline
70
4
71
3
72
8
73
4
40
0
40
0
40
0
40
0
40
1
40
1
40
1
40
1
41
1
10
33.541657610561
20
7.98899998437278
30
0
41
1
10
33.6352605214509
20
7.98137213437724
30
0
41
1
10
33.7289169647881
20
7.97444455341122
30
0
41
1
10
33.8226265512481
20
7.96821214782193
30
0
0
SPLINE
5
F0
100
AcDbEntity
8
1
62
256
6
ByLayer
370
18
48
1
60
0
100
AcDbSpline
70
4
71
3
72
8
73
4
40
0
40
0
40
0
40
0
40
1
40
1
40
1
40
1
41
1
10
33.4417743618033
20
7.98944936606796
30
0
41
1
10
33.4750677526022
20
7.98921276738352
30
0
41
1
10
33.5083621682664
20
7.98906292451264
30
0
41
1
10
33.5416576105315
20
7.98899998438563
30
0
0
SPLINE
5
F1
100
AcDbEntity
8
1
62
256
6
ByLayer
370
18
48
1
60
0
100
AcDbSpline
70
4
71
3
72
8
73
4
40
0
40
0
40
0
40
0
40
1
40
1
40
1
40
1
41
1
10
33.441774361786
20
7.98944936606168
30
0
41
1
10
33.5008335725443
20
7.80495602008205
30
0
41
1
10
33.5641074537718
20
7.62195440180727
30
0
41
1
10
33.6324937613204
20
7.44076226035898
30
0
0
SPLINE
5
F2
100
AcDbEntity
8
1
62
256
6
ByLayer
370
18
48
1
60
0
100
AcDbSpline
70
4
71
3
72
8
73
4
40
0
40
0
40
0
40
0
40
1
40
1
40
1
40
1
41
1
10
8.15687291307378
20
7.98327910639912
30
0
41
1
10
8.20437356415982
20
7.95863827524673
30
0
41
1
10
8.25205308969655
20
7.93444339646493
30
0
41
1
10
8.29991327724389
20
7.91069892662418
30
0
0
SPLINE
5
F3
100
AcDbEntity
8
1
62
256
6
ByLayer
370
18
48
1
60
0
100
AcDbSpline
70
4
71
3
72
8
73
4
40
0
40
0
40
0
40
0
40
1
40
1
40
1
40
1
41
1
10
8.10274810407137
20
7.98673394808975
30
0
41
0.999950658351741
10
8.14998096838955
20
7.96430840059469
30
0
41
0.999950658351741
10
8.19732079975876
20
7.94255076724911
30
0
41
1
10
8.24476059070301
20
7.92146426872552
30
0
0
SPLINE
5
F4
100
AcDbEntity
8
1
62
256
6
ByLayer
370
18
48
1
60
0
100
AcDbSpline
70
4
71
3
72
39
73
35
40
0
40
0
40
0
40
0
40
0.0956182803577213
40
0.0956182803577213
40
0.191236560715443
40
0.191236560715443
40
0.239045700894302
40
0.239045700894302
40
0.286854841073162
40
0.286854841073162
40
0.38247312143088
40
0.38247312143088
40
0.43028226160974
40
0.43028226160974
40
0.454186831699168
40
0.454186831699168
40
0.478091401788596
40
0.573709682146302
40
0.573709682146302
40
0.621518822325159
40
0.621518822325159
40
0.645423392414588
40
0.645423392414588
40
0.669327962504017
40
0.669327962504017
40
0.764946242861723
40
0.764946242861723
40
0.860564523219428
40
0.860564523219428
40
0.908373663398281
40
0.908373663398281
40
0.956182803577133
40
0.956182803577133
40
1
40
1
40
1
40
1
41
1
10
33.6324937591873
20
7.44076225958449
30
0
41
1
10
33.6593322288272
20
7.36964429521467
30
0
41
1
10
33.6826243615037
20
7.29768882096278
30
0
41
1
10
33.7210760590394
20
7.15185726900435
30
0
41
1
10
33.7362426326081
20
7.07798284656147
30
0
41
1
10
33.751756467477
20
6.96546233879974
30
0
41
1
10
33.7557187222454
20
6.9276494548669
30
0
41
1
10
33.7609581400302
20
6.85147321637584
30
0
41
1
10
33.7622084003868
20
6.81349910320603
30
0
41
1
10
33.76167561304
20
6.69993336915957
30
0
41
1
10
33.7556199512169
20
6.62469744180336
30
0
41
1
10
33.7371020955314
20
6.51262895794019
30
0
41
1
10
33.7293544512535
20
6.47540391695173
30
0
41
1
10
33.7152338461961
20
6.41977440782202
30
0
41
1
10
33.7101101760155
20
6.40127660855268
30
0
41
1
10
33.6991297644343
20
6.36472663048309
30
0
41
1
10
33.669787679132
20
6.27422993543692
30
0
41
1
10
33.6311522363883
20
6.18804928965335
30
0
41
1
10
33.5763653203679
20
6.08854499303081
30
0
41
1
10
33.5566979018742
20
6.05602946107103
30
0
41
1
10
33.5251433654343
20
6.00820981343026
30
0
41
1
10
33.5142576596604
20
5.99239451240518
30
0
41
1
10
33.491956304077
20
5.9612783201666
30
0
41
1
10
33.4805446807495
20
5.94597922581528
30
0
41
1
10
33.4222470522086
20
5.87071403291213
30
0
41
1
10
33.3716601185474
20
5.8144212948126
30
0
41
1
10
33.2639450443462
20
5.70832830043244
30
0
41
1
10
33.2068117955052
20
5.65853311440142
30
0
41
1
10
33.1169503027072
20
5.58797095523548
30
0
41
1
10
33.0862464950417
20
5.56510714789292
30
0
41
1
10
33.0241583463404
20
5.52107333037841
30
0
41
1
10
32.992709283958
20
5.49984846758917
30
0
41
1
10
32.9317441794922
20
5.46052608392682
30
0
41
1
10
32.9022871063858
20
5.44231323584191
30
0
41
1
10
32.8725530194675
20
5.42464215110726
30
0
0
SPLINE
5
F5
100
AcDbEntity
8
1
62
256
6
ByLayer
370
18
48
1
60
0
100
AcDbSpline
70
4
71
3
72
9
73
5
40
0
40
0
40
0
40
0
40
0.574236867378132
40
1
40
1
40
1
40
1
41
1
10
33.6324937595354
20
7.44076225953557
30
0
41
1
10
32.7549958396903
20
7.41178634279248
30
0
41
1
10
31.226884410949
20
7.23100675842673
30
0
41
1
10
29.6987729822076
20
6.83961754229571
30
0
41
1
10
29.0481594733114
20
6.63682511828719
30
0
0
SPLINE
5
F6
100
AcDbEntity
8
1
62
256
6
ByLayer
370
13
48
1
60
0
100
AcDbSpline
70
4
71
3
72
10
73
6
40
0
40
0
40
0
40
0
40
0.176848804437142
40
0.588424402218571
40
1
40
1
40
1
40
1
41
1
10
17.28906187872
20
-4.84313945508904
30
0
41
1
10
16.8593745858133
20
-4.76326626018903
30
0
41
1
10
15.4296872929067
20
-4.45563471705066
30
0
41
1
10
13
20
-3.70499250112184
30
0
41
1
10
11
20
-2.89223097009128
30
0
41
1
10
10
20
-2.45283117821572
30
0
0
SPLINE
5
F7
100
AcDbEntity
8
1
62
256
6
ByLayer
370
18
48
1
60
0
100
AcDbSpline
70
4
71
3
72
12
73
8
40
0
40
0
40
0
40
0
40
0.0235493317096548
40
0.232788760629015
40
0.442028189548374
40
0.721014094774187
40
1
40
1
40
1
40
1
41
1
10
20.7532314135073
20
-6.66790217064232
30
0
41
1
10
20.6688209423382
20
-6.67864791890608
30
0
41
1
10
19.8344104711691
20
-6.77928360085468
30
0
41
1
10
18.25
20
-6.86504287837274
30
0
41
1
10
15.75
20
-6.69522548377549
30
0
41
1
10
13
20
-6.12135033172325
30
0
41
1
10
11
20
-5.41584150940031
30
0
41
1
10
9.99999999999997
20
-5.00231848390044
30
0
0
SPLINE
5
F8
100
AcDbEntity
8
1
62
256
6
ByLayer
370
13
48
1
60
0
100
AcDbSpline
70
4
71
3
72
10
73
6
40
0
40
0
40
0
40
0
40
0.222540693306212
40
0.611270346653106
40
1
40
1
40
1
40
1
41
1
10
17.7174457213915
20
-7.01519569887256
30
0
41
1
10
17.144963814261
20
-7.04093377403984
30
0
41
1
10
15.5724819071305
20
-7.03620362953717
30
0
41
1
10
12.9999999999999
20
-6.68926622529758
30
0
41
1
10
10.9999999999999
20
-6.10121249235118
30
0
41
1
10
9.99999999999994
20
-5.73939940146818
30
0
0
SPLINE
5
F9
100
AcDbEntity
8
1
62
256
6
ByLayer
370
18
48
1
60
0
100
AcDbSpline
70
4
71
3
72
24
73
20
40
0
40
0
40
0
40
0
40
0.124999999999998
40
0.124999999999998
40
0.249999999999995
40
0.249999999999995
40
0.374999999999993
40
0.374999999999993
40
0.437499999999996
40
0.437499999999996
40
0.499999999999999
40
0.499999999999999
40
0.624999999999998
40
0.624999999999998
40
0.687499999999997
40
0.687499999999997
40
0.749999999999996
40
0.749999999999996
40
1
40
1
40
1
40
1
41
1
10
32.7308466284161
20
5.54152917515071
30
0
41
1
10
32.7462379101851
20
5.53717857994337
30
0
41
1
10
32.7627544381863
20
5.52883965904644
30
0
41
1
10
32.7978039690434
20
5.50501463059894
30
0
41
1
10
32.8163381227087
20
5.48952444092925
30
0
41
1
10
32.8552815808781
20
5.451897777368
30
0
41
1
10
32.8756914689145
20
5.42975923520424
30
0
41
1
10
32.9076546073008
20
5.39177248529145
30
0
41
1
10
32.9185549262218
20
5.37828479444536
30
0
41
1
10
32.9406721655834
20
5.34989846228581
30
0
41
1
10
32.9518905446431
20
5.33500056599468
30
0
41
1
10
32.986007731595
20
5.28826868420489
30
0
41
1
10
33.0093674971112
20
5.25440132347555
30
0
41
1
10
33.0452831674735
20
5.19973597572414
30
0
41
1
10
33.0574013489285
20
5.18086887313643
30
0
41
1
10
33.0819257111782
20
5.14186424592424
30
0
41
1
10
33.0943231648416
20
5.12173956114464
30
0
41
1
10
33.1567294414083
20
5.01847264362416
30
0
41
1
10
33.208199885002
20
4.92712621924898
30
0
41
1
10
33.2611266432985
20
4.82755043490249
30
0
0
SPLINE
5
FA
100
AcDbEntity
8
1
62
256
6
ByLayer
370
18
48
1
60
0
100
AcDbSpline
70
4
71
3
72
44
73
40
40
0
40
0
40
0
40
0
40
0.0624999999999798
40
0.0624999999999798
40
0.0937499999999741
40
0.0937499999999741
40
0.109374999999971
40
0.109374999999971
40
0.124999999999969
40
0.124999999999969
40
0.187499999999969
40
0.187499999999969
40
0.21874999999997
40
0.21874999999997
40
0.24999999999997
40
0.24999999999997
40
0.312499999999971
40
0.312499999999971
40
0.374999999999972
40
0.374999999999972
40
0.406249999999973
40
0.406249999999973
40
0.437499999999974
40
0.437499999999974
40
0.499999999999975
40
0.499999999999975
40
0.562499999999976
40
0.562499999999976
40
0.624999999999978
40
0.624999999999978
40
0.749999999999981
40
0.749999999999981
40
0.812499999999982
40
0.812499999999982
40
0.843749999999991
40
0.843749999999991
40
0.875
40
0.875
40
1
40
1
40
1
40
1
41
1
10
32.8202852934728
20
0.607084210692079
30
0
41
1
10
32.7950103148656
20
0.594843247217852
30
0
41
1
10
32.7739053266347
20
0.579489527366775
30
0
41
1
10
32.7475179627452
20
0.553244388550013
30
0
41
1
10
32.7396074782592
20
0.543952314732252
30
0
41
1
10
32.7289970328085
20
0.529327385134962
30
0
41
1
10
32.7256630248517
20
0.52432555882416
30
0
41
1
10
32.7194570757032
20
0.514200525561506
30
0
41
1
10
32.7165796397216
20
0.509071787042132
30
0
41
1
10
32.7032529669753
20
0.483146571262324
30
0
41
1
10
32.6959536088131
20
0.461522868359196
30
0
41
1
10
32.689200459875
20
0.428461878415419
30
0
41
1
10
32.6876549901374
20
0.41733387429889
30
0
41
1
10
32.6858943221018
20
0.394948750777473
30
0
41
1
10
32.6856818124983
20
0.383655221717447
30
0
41
1
10
32.6869447923993
20
0.350000670208488
30
0
41
1
10
32.6902827876019
20
0.327891878996638
30
0
41
1
10
32.7013326964727
20
0.284686585418911
30
0
41
1
10
32.7090497032317
20
0.263588433789124
30
0
41
1
10
32.7237367052545
20
0.232903957800943
30
0
41
1
10
32.729153454289
20
0.222835772492914
30
0
41
1
10
32.7410272477532
20
0.203048595035909
30
0
41
1
10
32.7475010876848
20
0.19330729132605
30
0
41
1
10
32.7683844228079
20
0.16480848503349
30
0
41
1
10
32.7841601905557
20
0.146879959124163
30
0
41
1
10
32.819311663228
20
0.113153530704523
30
0
41
1
10
32.8386887935336
20
0.0973564185682676
30
0
41
1
10
32.8811241194782
20
0.0678234607831598
30
0
41
1
10
32.9041845933924
20
0.0540878190989531
30
0
41
1
10
32.9792324449693
20
0.0157423593737462
30
0
41
1
10
33.0352798969308
20
-0.0050678230164749
30
0
41
1
10
33.1284379727703
20
-0.0321983141845408
30
0
41
1
10
33.1610139496603
20
-0.0405695885240505
30
0
41
1
10
33.212227362784
20
-0.05260485866566
30
0
41
1
10
33.2297194770471
20
-0.0565362395374223
30
0
41
1
10
33.2651000704145
20
-0.064235962011054
30
0
41
1
10
33.2830310585281
20
-0.0680148543082737
30
0
41
1
10
33.3738407817645
20
-0.086807149600503
30
0
41
1
10
33.4501899473469
20
-0.101488561803308
30
0
41
1
10
33.5296032914021
20
-0.119185927837549
30
0
0
SPLINE
5
FB
100
AcDbEntity
8
1
62
256
6
ByLayer
370
18
48
1
60
0
100
AcDbSpline
70
4
71
3
72
14
73
10
40
0
40
0
40
0
40
0
40
0.25
40
0.25
40
0.5
40
0.5
40
0.75
40
0.75
40
1
40
1
40
1
40
1
41
1
10
30.4721820904136
20
1.07216575290386
30
0
41
1
10
30.4780906643601
20
1.08534466820549
30
0
41
1
10
30.4840291275156
20
1.09962839929699
30
0
41
1
10
30.4961760724869
20
1.13036155333674
30
0
41
1
10
30.5023951228856
20
1.14684698553907
30
0
41
1
10
30.5150365428222
20
1.18142373899573
30
0
41
1
10
30.5215108438658
20
1.19965662336463
30
0
41
1
10
30.5345656232258
20
1.23721621953618
30
0
41
1
10
30.5411668433533
20
1.25659678185355
30
0
41
1
10
30.5478468833865
20
1.27659049762008
30
0
0
SPLINE
5
FC
100
AcDbEntity
8
1
62
256
6
ByLayer
370
18
48
1
60
0
100
AcDbSpline
70
4
71
3
72
14
73
10
40
0
40
0
40
0
40
0
40
0.558522917350885
40
0.558522917350885
40
0.837784376026356
40
0.837784376026356
40
0.977415105364067
40
0.977415105364067
40
1
40
1
40
1
40
1
41
1
10
32.8000572208257
20
-0.535448371731803
30
0
41
1
10
32.7406950611872
20
-0.571996228682991
30
0
41
1
10
32.6873378216648
20
-0.613592952750025
30
0
41
1
10
32.6166074526113
20
-0.681853567353727
30
0
41
1
10
32.5945861965887
20
-0.705599261181533
30
0
41
1
10
32.5640111284864
20
-0.742645777437417
30
0
41
1
10
32.554202058272
20
-0.75527387630396
30
0
41
1
10
32.543408766869
20
-0.770075775588623
30
0
41
1
10
32.5419193469439
20
-0.772139734757502
30
0
41
1
10
32.540443221089
20
-0.774206805997466
30
0
0
SPLINE
5
FD
100
AcDbEntity
8
1
62
256
6
ByLayer
370
13
48
1
60
0
100
AcDbSpline
70
4
71
3
72
11
73
7
40
0
40
0
40
0
40
0
40
0.206519903448845
40
0.422923566144615
40
0.711461783072307
40
1
40
1
40
1
40
1
41
1
10
20.3972362203646
20
-6.76145065475157
30
0
41
1
10
19.6814908135764
20
-6.91981023319499
30
0
41
1
10
18.2157454067882
20
-7.15973584021765
30
0
41
1
10
15.7500000000001
20
-7.25503017872379
30
0
41
1
10
13.0000000000001
20
-6.94710346713768
30
0
41
1
10
11.0000000000001
20
-6.39257177284392
30
0
41
1
10
10.0000000000001
20
-6.04384618842539
30
0
0
SPLINE
5
FE
100
AcDbEntity
8
1
62
256
6
ByLayer
370
18
48
1
60
0
100
AcDbSpline
70
4
71
3
72
40
73
36
40
0
40
0
40
0
40
0
40
0.0898748873482897
40
0.0898748873482897
40
0.154883823966269
40
0.154883823966269
40
0.187388292275258
40
0.187388292275258
40
0.219892760584248
40
0.219892760584248
40
0.284901697202226
40
0.284901697202226
40
0.317406165511216
40
0.317406165511216
40
0.349910633820205
40
0.349910633820205
40
0.414919570438184
40
0.414919570438184
40
0.479928507056163
40
0.479928507056163
40
0.544937443674142
40
0.544937443674142
40
0.609946380292121
40
0.609946380292121
40
0.739964253528081
40
0.739964253528081
40
0.804973190146061
40
0.804973190146061
40
0.869982126764041
40
0.869982126764041
40
0.902486595073031
40
0.902486595073031
40
0.93499106338202
40
0.93499106338202
40
1
40
1
40
1
40
1
41
1
10
21.2850130825444
20
-6.85216122421028
30
0
41
1
10
20.9486742222112
20
-6.95740010561784
30
0
41
1
10
20.6123149690838
20
-7.05351853351647
30
0
41
1
10
20.0320966215482
20
-7.20266383137704
30
0
41
1
10
19.7883890181078
20
-7.26023666532183
30
0
41
1
10
19.4223386444276
20
-7.33866867191287
30
0
41
1
10
19.3002399450879
20
-7.36348679260041
30
0
41
1
10
19.0557845245957
20
-7.41064139564918
30
0
41
1
10
18.9334297619572
20
-7.43297421034535
30
0
41
1
10
18.5659407377569
20
-7.49611326842481
30
0
41
1
10
18.3203799546823
20
-7.53306968519061
30
0
41
1
10
17.9509443285774
20
-7.58046180796515
30
0
41
1
10
17.8275089365292
20
-7.59492756588429
30
0
41
1
10
17.5811819544339
20
-7.62101736726251
30
0
41
1
10
17.4582068982227
20
-7.63265403840191
30
0
41
1
10
17.0897972288112
20
-7.66331324204418
30
0
41
1
10
16.8448971178458
20
-7.67803552635684
30
0
41
1
10
16.3560846109386
20
-7.69626507043367
30
0
41
1
10
16.1120556006402
20
-7.70008900776978
30
0
41
1
10
15.6245151551805
20
-7.69707115833901
30
0
41
1
10
15.3810166224433
20
-7.69020846065015
30
0
41
1
10
14.8943730443264
20
-7.66555150078983
30
0
41
1
10
14.651238918637
20
-7.64771461406659
30
0
41
1
10
13.921913483702
20
-7.57772070773603
30
0
41
1
10
13.4357418843634
20
-7.50924202766419
30
0
41
1
10
12.7042307787266
20
-7.37561206721742
30
0
41
1
10
12.4600431399273
20
-7.3258178284718
30
0
41
1
10
11.9706627904385
20
-7.21539871091207
30
0
41
1
10
11.7254750417254
20
-7.15472424450059
30
0
41
1
10
11.3566179607429
20
-7.05570805302762
30
0
41
1
10
11.233471726749
20
-7.02137111524451
30
0
41
1
10
10.9868217912143
20
-6.95009913574725
30
0
41
1
10
10.86351473896
20
-6.91322041099735
30
0
41
1
10
10.4935659403402
20
-6.7989468061497
30
0
41
1
10
10.2468924745663
20
-6.71793021336163
30
0
41
1
10
10.0000000000001
20
-6.63219792776499
30
0
0
SPLINE
5
FF
100
AcDbEntity
8
1
62
256
6
ByLayer
370
13
48
1
60
0
100
AcDbSpline
70
4
71
3
72
8
73
4
40
0
40
0
40
0
40
0
40
1
40
1
40
1
40
1
41
1
10
33.2611266418421
20
4.82755043425919
30
0
41
1
10
33.146395880127
20
4.87796140618855
30
0
41
1
10
33.0316651184118
20
4.92766213233435
30
0
41
1
10
32.9169343566965
20
4.97663387239493
30
0
0
SPLINE
5
100
100
AcDbEntity
8
1
62
256
6
ByLayer
370
13
48
1
60
0
100
AcDbSpline
70
4
71
3
72
11
73
7
40
0
40
0
40
0
40
0
40
0.145818022281424
40
0.392284704508976
40
0.720906947479045
40
1
40
1
40
1
40
1
41
1
10
21.4188239271616
20
4.05407064269835
30
0
41
1
10
21.8625492847744
20
3.9679989566888
30
0
41
1
10
23.0562746423872
20
3.71278750539381
30
0
41
1
10
25.25
20
3.13520838539839
30
0
41
1
10
27.8492822944623
20
2.28720558116933
30
0
41
1
10
29.6985645889245
20
1.60192424420347
30
0
41
1
10
30.5478468833868
20
1.27659049761996
30
0
0
SPLINE
5
101
100
AcDbEntity
8
1
62
256
6
ByLayer
370
18
48
1
60
0
100
AcDbSpline
70
4
71
3
72
29
73
25
40
0
40
0
40
0
40
0
40
0.12500000000003
40
0.25000000000006
40
0.25000000000006
40
0.281250000000071
40
0.281250000000071
40
0.312500000000083
40
0.375000000000108
40
0.375000000000108
40
0.500000000000134
40
0.500000000000134
40
0.531250000000135
40
0.531250000000135
40
0.562500000000135
40
0.625000000000136
40
0.625000000000136
40
0.75000000000011
40
0.75000000000011
40
0.812500000000083
40
0.812500000000083
40
0.875000000000055
40
0.875000000000055
40
1
40
1
40
1
40
1
41
1
10
30.5478468833868
20
1.27659049761993
30
0
41
1
10
30.5639933922523
20
1.32491838344197
30
0
41
1
10
30.6031870532082
20
1.41902285676795
30
0
41
1
10
30.655367066913
20
1.50844347095563
30
0
41
1
10
30.6921985262283
20
1.56280481149497
30
0
41
1
10
30.6997719823925
20
1.5735897016836
30
0
41
1
10
30.7152058075132
20
1.59480600887397
30
0
41
1
10
30.7388369938361
20
1.62617413885036
30
0
41
1
10
30.7638943626376
20
1.65618839180456
30
0
41
1
10
30.8159180991757
20
1.71440748694766
30
0
41
1
10
30.8531276093952
20
1.75082463016054
30
0
41
1
10
30.9030839953227
20
1.79309517213093
30
0
41
1
10
30.913270959981
20
1.80140176667456
30
0
41
1
10
30.9338281735017
20
1.81753920965059
30
0
41
1
10
30.9649787094977
20
1.84106854483159
30
0
41
1
10
30.997081275173
20
1.86257845403054
30
0
41
1
10
31.0626075047652
20
1.90287663188713
30
0
41
1
10
31.1080404627999
20
1.9261353743114
30
0
41
1
10
31.1792299631659
20
1.95511595404827
30
0
41
1
10
31.2035261938555
20
1.9637911299304
30
0
41
1
10
31.2522638205319
20
1.97875214924682
30
0
41
1
10
31.2768145263835
20
1.98508848996357
30
0
41
1
10
31.3510676265532
20
2.0006512414628
30
0
41
1
10
31.401367726643
20
2.00645032514663
30
0
41
1
10
31.4526485310828
20
2.007406412834
30
0
0
SPLINE
5
102
100
AcDbEntity
8
1
62
256
6
ByLayer
370
18
48
1
60
0
100
AcDbSpline
70
4
71
3
72
14
73
10
40
0
40
0
40
0
40
0
40
0.134870092706382
40
0.134870092706382
40
0.279058410588651
40
0.279058410588651
40
0.42324672847092
40
0.42324672847092
40
1
40
1
40
1
40
1
41
1
10
32.7602877709404
20
-5.81531630366018
30
0
41
1
10
32.7739697121751
20
-5.87073337708463
30
0
41
1
10
32.7881588356413
20
-5.92492876121813
30
0
41
1
10
32.8185770979122
20
-6.03451136681193
30
0
41
1
10
32.8348797839146
20
-6.08972142941658
30
0
41
1
10
32.8686729744402
20
-6.19728036376276
30
0
41
1
10
32.8861755659076
20
-6.24965779721282
30
0
41
1
10
32.9763495614268
20
-6.50332346720501
30
0
41
1
10
33.057195685635
20
-6.68078871427565
30
0
41
1
10
33.1469045735968
20
-6.83233086073756
30
0
0
SPLINE
5
103
100
AcDbEntity
8
1
62
256
6
ByLayer
370
18
48
1
60
0
100
AcDbSpline
70
4
71
3
72
14
73
10
40
0
40
0
40
0
40
0
40
0.315003996722626
40
0.315003996722626
40
0.630007993445251
40
0.630007993445251
40
0.945011990167876
40
0.945011990167876
40
1
40
1
40
1
40
1
41
1
10
30.0923534744818
20
-4.9091017242892
30
0
41
1
10
30.3111360018158
20
-4.9921454310755
30
0
41
1
10
30.5298683607448
20
-5.06873565315118
30
0
41
1
10
30.9672403150272
20
-5.2099833217726
30
0
41
1
10
31.1858798308921
20
-5.27463054318429
30
0
41
1
10
31.6230710810506
20
-5.39263307772424
30
0
41
1
10
31.8416228325813
20
-5.44599060816523
30
0
41
1
10
32.0982758796096
20
-5.50226515036448
30
0
41
1
10
32.1364182255612
20
-5.51046274613117
30
0
41
1
10
32.1745592843352
20
-5.51849476395918
30
0
0
SPLINE
5
104
100
AcDbEntity
8
1
62
256
6
ByLayer
370
18
48
1
60
0
100
AcDbSpline
70
4
71
3
72
33
73
29
40
0
40
0
40
0
40
0
40
0.158698597074629
40
0.158698597074629
40
0.198373246343287
40
0.198373246343287
40
0.238047895611944
40
0.238047895611944
40
0.317397194149256
40
0.396746492686568
40
0.396746492686568
40
0.436421141955215
40
0.436421141955215
40
0.476095791223863
40
0.476095791223863
40
0.634794388298438
40
0.634794388298438
40
0.714143686835729
40
0.714143686835729
40
0.793492985373019
40
0.793492985373019
40
0.87284228391031
40
0.87284228391031
40
0.912516933178951
40
0.912516933178951
40
0.952191582447591
40
0.952191582447591
40
1
40
1
40
1
40
1
41
1
10
30.0923534744842
20
-4.90910172429011
30
0
41
1
10
30.0451925621667
20
-4.8912007656441
30
0
41
1
10
30.0011938333269
20
-4.86913935982122
30
0
41
1
10
29.9507364434059
20
-4.83542972178151
30
0
41
1
10
29.9408740474216
20
-4.82837847936807
30
0
41
1
10
29.9216314485685
20
-4.81362173966548
30
0
41
1
10
29.9122243336132
20
-4.80589203913502
30
0
41
1
10
29.8849687838642
20
-4.78183668202681
30
0
41
1
10
29.851405101843
20
-4.74766549300648
30
0
41
1
10
29.8234641965332
20
-4.70922159955825
30
0
41
1
10
29.8046903358504
20
-4.67872590958333
30
0
41
1
10
29.7987965258858
20
-4.66828321638309
30
0
41
1
10
29.7877560538563
20
-4.6468284112714
30
0
41
1
10
29.7825921612235
20
-4.63577167517892
30
0
41
1
10
29.7589845208178
20
-4.57973236170869
30
0
41
1
10
29.7469952505069
20
-4.53240771068886
30
0
41
1
10
29.738390867889
20
-4.45808411821616
30
0
41
1
10
29.7371119164238
20
-4.43264526743204
30
0
41
1
10
29.7375840906238
20
-4.38183284818061
30
0
41
1
10
29.7393087030993
20
-4.35633836951206
30
0
41
1
10
29.7454685867526
20
-4.30520399105936
30
0
41
1
10
29.7499047412852
20
-4.27956402893179
30
0
41
1
10
29.7584592094476
20
-4.24101489017329
30
0
41
1
10
29.7616307690857
20
-4.22814642577083
30
0
41
1
10
29.7685225811004
20
-4.20261674502888
30
0
41
1
10
29.7722490392458
20
-4.18992517947936
30
0
41
1
10
29.7810491668636
20
-4.16209444030622
30
0
41
1
10
29.7862387540662
20
-4.14698600972994
30
0
41
1
10
29.7917909964325
20
-4.13197504397363
30
0
0
SPLINE
5
105
100
AcDbEntity
8
1
62
256
6
ByLayer
370
13
48
1
60
0
100
AcDbSpline
70
4
71
3
72
16
73
12
40
0
40
0
40
0
40
0
40
0.093502414753441
40
0.211741230220383
40
0.329980045687326
40
0.448218861154269
40
0.566457676621211
40
0.645283553599173
40
0.763522369066115
40
0.842348246044077
40
1
40
1
40
1
40
1
41
1
10
29.0292840055477
20
-3.66363188933388
30
0
41
1
10
28.4361893370319
20
-3.50649892278335
30
0
41
1
10
27.0930946685159
20
-3.11498245576462
30
0
41
1
10
25
20
-2.39248579795864
30
0
41
1
10
22.75
20
-1.52044998339846
30
0
41
1
10
20.5
20
-0.582085133095177
30
0
41
1
10
18.5
20
0.27570856453363
30
0
41
1
10
16.5
20
1.12007416372728
30
0
41
1
10
14.75
20
1.83508976850419
30
0
41
1
10
12.5
20
2.69049337411934
30
0
41
1
10
11
20
3.1918636749709
30
0
41
1
10
10
20
3.48412581777419
30
0
0
SPLINE
5
106
100
AcDbEntity
8
1
62
256
6
ByLayer
370
18
48
1
60
0
100
AcDbSpline
70
4
71
3
72
8
73
4
40
0
40
0
40
0
40
0
40
1
40
1
40
1
40
1
41
1
10
33.146904577085
20
-6.83233085767523
30
0
41
1
10
33.1758948463904
20
-6.82189416861826
30
0
41
1
10
33.2053449366914
20
-6.80802353274186
30
0
41
1
10
33.235157630205
20
-6.79087486515928
30
0
0
SPLINE
5
107
100
AcDbEntity
8
1
62
256
6
ByLayer
370
18
48
1
60
0
100
AcDbSpline
70
4
71
3
72
19
73
15
40
0
40
0
40
0
40
0
40
0.0279477791921373
40
0.0927512605793281
40
0.157554741966519
40
0.254759964047305
40
0.351965186128092
40
0.449170408208878
40
0.546375630289664
40
0.64358085237045
40
0.708384333757641
40
0.805589555838427
40
0.870393037225618
40
1
40
1
40
1
40
1
41
1
10
33.1469045781311
20
-6.83233085826905
30
0
41
1
10
32.931269718754
20
-6.86515260804663
30
0
41
1
10
32.215634859377
20
-6.9594310327179
30
0
41
1
10
31
20
-7.03712686681911
30
0
41
1
10
29.25
20
-6.97913744027261
30
0
41
1
10
27.25
20
-6.67163805960618
30
0
41
1
10
25
20
-6.01545907665391
30
0
41
1
10
22.75
20
-5.08278672011747
30
0
41
1
10
20.5
20
-3.91206444265103
30
0
41
1
10
18.5
20
-2.70908148993846
30
0
41
1
10
16.5
20
-1.4204913650519
30
0
41
1
10
14.75
20
-0.244984171201878
30
0
41
1
10
12.5
20
1.27058743207613
30
0
41
1
10
11
20
2.25137422147228
30
0
41
1
10
10
20
2.86576952882197
30
0
0
SPLINE
5
108
100
AcDbEntity
8
1
62
256
6
ByLayer
370
18
48
1
60
0
100
AcDbSpline
70
4
71
3
72
19
73
15
40
0
40
0
40
0
40
0
40
0.124999999999999
40
0.124999999999999
40
0.249999999999998
40
0.249999999999998
40
0.499999999999999
40
0.499999999999999
40
0.562499999999998
40
0.562499999999998
40
0.624999999999997
40
0.749999999999998
40
0.749999999999998
40
1
40
1
40
1
40
1
41
1
10
32.7462763455046
20
-0.911629773261637
30
0
41
1
10
32.759089611178
20
-1.00527582210378
30
0
41
1
10
32.7725879701729
20
-1.09986140960268
30
0
41
1
10
32.8008596258897
20
-1.2901317138035
30
0
41
1
10
32.8156426353969
20
-1.38589227379532
30
0
41
1
10
32.8619510110412
20
-1.67506738068624
30
0
41
1
10
32.8954338706687
20
-1.87037356323162
30
0
41
1
10
32.9406362080335
20
-2.11774238858163
30
0
41
1
10
32.9498454998937
20
-2.16738388893179
30
0
41
1
10
32.9685662098948
20
-2.26680663790012
30
0
41
1
10
32.997112828109
20
-2.4162186966704
30
0
41
1
10
33.0270562063268
20
-2.56646462131283
30
0
41
1
10
33.0888101733976
20
-2.86807119554723
30
0
41
1
10
33.1324673389202
20
-3.07062749438828
30
0
41
1
10
33.1786457857976
20
-3.27468899830714
30
0
0
SPLINE
5
109
100
AcDbEntity
8
1
62
256
6
ByLayer
370
18
48
1
60
0
100
AcDbSpline
70
4
71
3
72
14
73
10
40
0
40
0
40
0
40
0
40
0.25
40
0.25
40
0.375
40
0.375
40
0.5
40
0.5
40
1
40
1
40
1
40
1
41
1
10
30.7864679069361
20
0.399564173319248
30
0
41
1
10
30.94874972634
20
0.293530261564087
30
0
41
1
10
31.1115974330567
20
0.186443895249539
30
0
41
1
10
31.3566783296525
20
0.0243091169240017
30
0
41
1
10
31.4385069394
20
-0.0299868445649736
30
0
41
1
10
31.6024289967716
20
-0.139071321138459
30
0
41
1
10
31.6843485597908
20
-0.193744131254334
30
0
41
1
10
32.0936734541519
20
-0.467694923057792
30
0
41
1
10
32.420340979518
20
-0.688775394172097
30
0
41
1
10
32.7462763455045
20
-0.911629773261723
30
0
0
SPLINE
5
10A
100
AcDbEntity
8
1
62
256
6
ByLayer
370
18
48
1
60
0
100
AcDbSpline
70
4
71
3
72
29
73
25
40
0
40
0
40
0
40
0
40
0.124999999999992
40
0.124999999999992
40
0.187500000000003
40
0.187500000000003
40
0.250000000000014
40
0.250000000000014
40
0.375000000000009
40
0.375000000000009
40
0.437500000000017
40
0.46875000000002
40
0.46875000000002
40
0.500000000000023
40
0.500000000000023
40
0.625000000000023
40
0.625000000000023
40
0.687500000000019
40
0.687500000000019
40
0.750000000000015
40
0.750000000000015
40
0.875000000000008
40
0.875000000000008
40
1
40
1
40
1
40
1
41
1
10
30.7864679069361
20
0.399564173319248
30
0
41
1
10
30.7516427997187
20
0.422318677546087
30
0
41
1
10
30.7186167659598
20
0.446329123307493
30
0
41
1
10
30.6720229367072
20
0.484359318653048
30
0
41
1
10
30.6569841870362
20
0.497372978801337
30
0
41
1
10
30.6279572277818
20
0.524113026453875
30
0
41
1
10
30.6139358044022
20
0.53787426344698
30
0
41
1
10
30.573792402115
20
0.580080809422952
30
0
41
1
10
30.5501059896114
20
0.60887818918934
30
0
41
1
10
30.5192696550128
20
0.653056068877078
30
0
41
1
10
30.5050281765849
20
0.675391496857685
30
0
41
1
10
30.492599125612
20
0.698105077912572
30
0
41
1
10
30.484723604441
20
0.71333318025151
30
0
41
1
10
30.4809814183696
20
0.721011775464717
30
0
41
1
10
30.4634558718314
20
0.759314696090655
30
0
41
1
10
30.4532125511616
20
0.789608406108442
30
0
41
1
10
30.4430398195426
20
0.83459332657452
30
0
41
1
10
30.4405177082675
20
0.849512283972359
30
0
41
1
10
30.4371684624271
20
0.879208801611583
30
0
41
1
10
30.4363474120308
20
0.894023857790387
30
0
41
1
10
30.4363578302895
20
0.937568698608317
30
0
41
1
10
30.4396051072439
20
0.965626950091803
30
0
41
1
10
30.4517714681792
20
1.02012573624526
30
0
41
1
10
30.4607418724783
20
1.04664449942129
30
0
41
1
10
30.4721820904136
20
1.07216575290386
30
0
0
SPLINE
5
10B
100
AcDbEntity
8
1
62
256
6
ByLayer
370
13
48
1
60
0
100
AcDbSpline
70
4
71
3
72
11
73
7
40
0
40
0
40
0
40
0
40
0.309078943274457
40
0.684147120258237
40
0.965448252996072
40
1
40
1
40
1
40
1
41
1
10
30.4721820904136
20
1.07216575290386
30
0
41
1
10
29.6481213936091
20
1.39560721114918
30
0
41
1
10
27.8240606968046
20
2.09369985220141
30
0
41
1
10
25.25
20
2.98109075957686
30
0
41
1
10
23.407878756119
20
3.50816975954791
30
0
41
1
10
22.565757512238
20
3.72122022406924
30
0
41
1
10
22.473636268357
20
3.7441859602807
30
0
0
SPLINE
5
10C
100
AcDbEntity
8
1
62
256
6
ByLayer
370
18
48
1
60
0
100
AcDbSpline
70
4
71
3
72
8
73
4
40
0
40
0
40
0
40
0
40
1
40
1
40
1
40
1
41
1
10
33.1786457836022
20
-3.27468899802955
30
0
41
1
10
33.2017541789909
20
-3.33441828419458
30
0
41
1
10
33.2251388088995
20
-3.39320358173853
30
0
41
1
10
33.2487508328136
20
-3.4509641896866
30
0
0
SPLINE
5
10D
100
AcDbEntity
8
1
62
256
6
ByLayer
370
18
48
1
60
0
100
AcDbSpline
70
4
71
3
72
14
73
10
40
0
40
0
40
0
40
0
40
0.14379334065906
40
0.341797084703091
40
0.539800828747121
40
0.688303636780143
40
0.836806444813166
40
0.985309252846189
40
1
40
1
40
1
40
1
41
1
10
33.1786457829871
20
-3.27468899883198
30
0
41
1
10
32.4524305219914
20
-2.86522382368833
30
0
41
1
10
30.7262152609957
20
-1.84139160931855
30
0
41
1
10
28
20
-0.106702555198098
30
0
41
1
10
25.25
20
1.64929130364749
30
0
41
1
10
22.75
20
3.14905896927746
30
0
41
1
10
20.5
20
4.36772812374974
30
0
41
1
10
18.925805710267
20
5.09332605670548
30
0
41
1
10
18.101611420534
20
5.42780886233365
30
0
41
1
10
18.0274171308011
20
5.45754581526143
30
0
0
SPLINE
5
10E
100
AcDbEntity
8
1
62
256
6
ByLayer
370
18
48
1
60
0
100
AcDbSpline
70
4
71
3
72
20
73
16
40
0
40
0
40
0
40
0
40
0.25000000000004
40
0.25000000000004
40
0.375000000000045
40
0.375000000000045
40
0.500000000000051
40
0.500000000000051
40
0.750000000000034
40
0.750000000000034
40
0.812500000000025
40
0.812500000000025
40
0.875000000000016
40
0.875000000000016
40
1
40
1
40
1
40
1
41
1
10
33.2351576310921
20
-6.79087486503701
30
0
41
1
10
33.2479169511913
20
-6.7835354436132
30
0
41
1
10
33.2603450708217
20
-6.77863115790424
30
0
41
1
10
33.278435691879
20
-6.7753300565706
30
0
41
1
10
33.2843701651005
20
-6.77491743583181
30
0
41
1
10
33.2958789895654
20
-6.77556330360332
30
0
41
1
10
33.3014735360415
20
-6.77661634575202
30
0
41
1
10
33.317740099819
20
-6.78213696096668
30
0
41
1
10
33.327908616325
20
-6.78890402637356
30
0
41
1
10
33.3395037292123
20
-6.80245750552726
30
0
41
1
10
33.3417721769159
20
-6.80543846273207
30
0
41
1
10
33.3461363312235
20
-6.81190278478527
30
0
41
1
10
33.3482354045673
20
-6.815387941616
30
0
41
1
10
33.3542679873642
20
-6.8266500270062
30
0
41
1
10
33.3579390929944
20
-6.83522676412525
30
0
41
1
10
33.3611964915093
20
-6.84506448037916
30
0
0
SPLINE
5
10F
100
AcDbEntity
8
1
62
256
6
ByLayer
370
18
48
1
60
0
100
AcDbSpline
70
4
71
3
72
8
73
4
40
0
40
0
40
0
40
0
40
1
40
1
40
1
40
1
41
1
10
31.3908672659127
20
-7.00692068903476
30
0
41
1
10
31.3332633566541
20
-7.01028780472521
30
0
41
1
10
31.2756594473956
20
-7.01333389458333
30
0
41
1
10
31.218055538137
20
-7.0160576520224
30
0
0
SPLINE
5
110
100
AcDbEntity
8
1
62
256
6
ByLayer
370
13
48
1
60
0
100
AcDbSpline
70
4
71
3
72
18
73
14
40
0
40
0
40
0
40
0
40
0.0102768860108113
40
0.0809713941528962
40
0.187013156366024
40
0.293054918579151
40
0.399096680792278
40
0.505138443005406
40
0.611180205218533
40
0.681874713360618
40
0.787916475573745
40
0.85861098371583
40
1
40
1
40
1
40
1
41
1
10
31.2180555381365
20
-7.0160576520224
30
0
41
1
10
31.1453703587576
20
-7.01949451595388
30
0
41
1
10
30.5726851793788
20
-7.04252996178869
30
0
41
1
10
29.2499999999999
20
-7.0217745769003
30
0
41
1
10
27.25
20
-6.74906251217467
30
0
41
1
10
24.9999999999999
20
-6.12831673802771
30
0
41
1
10
22.75
20
-5.22282772035246
30
0
41
1
10
20.4999999999999
20
-4.07759803270849
30
0
41
1
10
18.5
20
-2.88813528910754
30
0
41
1
10
16.5
20
-1.60569706269124
30
0
41
1
10
14.75
20
-0.432652082515631
30
0
41
1
10
12.5
20
1.08934139058388
30
0
41
1
10
11
20
2.08148394018448
30
0
41
1
10
9.99999999999997
20
2.70310488172353
30
0
0
SPLINE
5
111
100
AcDbEntity
8
1
62
256
6
ByLayer
370
18
48
1
60
0
100
AcDbSpline
70
4
71
3
72
20
73
16
40
0
40
0
40
0
40
0
40
0.250000000000006
40
0.250000000000006
40
0.375000000000024
40
0.375000000000024
40
0.500000000000041
40
0.500000000000041
40
0.750000000000046
40
0.750000000000046
40
0.812500000000041
40
0.812500000000041
40
0.875000000000035
40
0.875000000000035
40
1
40
1
40
1
40
1
41
1
10
33.2487508344647
20
-3.45096418900059
30
0
41
1
10
33.2613773381666
20
-3.4818549276531
30
0
41
1
10
33.27367236107
20
-3.51377157111989
30
0
41
1
10
33.2915648062702
20
-3.56334902953836
30
0
41
1
10
33.2974256630969
20
-3.58013508896778
30
0
41
1
10
33.3087904919124
20
-3.61385899085207
30
0
41
1
10
33.3143136546246
20
-3.63084893005294
30
0
41
1
10
33.3303694216555
20
-3.68223161778806
30
0
41
1
10
33.340401484252
20
-3.71702664438061
30
0
41
1
10
33.3518397121055
20
-3.76140596866088
30
0
41
1
10
33.3540740314355
20
-3.77034054491793
30
0
41
1
10
33.3583663920708
20
-3.78808730448418
30
0
41
1
10
33.3604310987691
20
-3.79692442339402
30
0
41
1
10
33.366366205237
20
-3.82332050280704
30
0
41
1
10
33.3699796678942
20
-3.8407651109471
30
0
41
1
10
33.3731909016424
20
-3.85803070120798
30
0
0
SPLINE
5
112
100
AcDbEntity
8
1
62
256
6
ByLayer
370
13
48
1
60
0
100
AcDbSpline
70
4
71
3
72
13
73
9
40
0
40
0
40
0
40
0
40
0.156359838229023
40
0.364955431544926
40
0.573551024860829
40
0.729997719847756
40
0.886444414834683
40
1
40
1
40
1
40
1
41
1
10
33.2487508351947
20
-3.45096418808316
30
0
41
1
10
32.4991672234631
20
-3.03380424054751
30
0
41
1
10
30.7495836117315
20
-2.00494629421473
30
0
41
1
10
28
20
-0.256627357358894
30
0
41
1
10
25.25
20
1.50510279113908
30
0
41
1
10
22.75
20
3.02147109593554
30
0
41
1
10
20.7056184847426
20
4.1439111002644
30
0
41
1
10
19.4112369694853
20
4.76794333695838
30
0
41
1
10
18.866855454228
20
5.01203801396184
30
0
0
SPLINE
5
113
100
AcDbEntity
8
1
62
256
6
ByLayer
370
18
48
1
60
0
100
AcDbSpline
70
4
71
3
72
50
73
46
40
0
40
0
40
0
40
0
40
0.0624999999999752
40
0.0624999999999752
40
0.12499999999995
40
0.12499999999995
40
0.140624999999945
40
0.140624999999945
40
0.156249999999939
40
0.187499999999928
40
0.187499999999928
40
0.249999999999905
40
0.249999999999905
40
0.265624999999898
40
0.265624999999898
40
0.281249999999892
40
0.281249999999892
40
0.312499999999882
40
0.312499999999882
40
0.374999999999865
40
0.374999999999865
40
0.390624999999866
40
0.390624999999866
40
0.406249999999866
40
0.437499999999873
40
0.437499999999873
40
0.499999999999879
40
0.499999999999879
40
0.531249999999887
40
0.531249999999887
40
0.546874999999891
40
0.546874999999891
40
0.562499999999895
40
0.562499999999895
40
0.62499999999991
40
0.62499999999991
40
0.687499999999925
40
0.687499999999925
40
0.74999999999994
40
0.74999999999994
40
0.812499999999955
40
0.812499999999955
40
0.87499999999997
40
0.87499999999997
40
1
40
1
40
1
40
1
41
1
10
33.5998577247877
20
2.87673391090829
30
0
41
1
10
33.6303607183745
20
2.84296348418056
30
0
41
1
10
33.6567408635456
20
2.80906270919462
30
0
41
1
10
33.6997908402327
20
2.74095414489574
30
0
41
1
10
33.7164738406547
20
2.70674677478456
30
0
41
1
10
33.7298722648895
20
2.66375184889623
30
0
41
1
10
33.7321801416104
20
2.65512176258096
30
0
41
1
10
33.735973871846
20
2.63796296283283
30
0
41
1
10
33.7404411576604
20
2.6123635517514
30
0
41
1
10
33.7411625082914
20
2.58718912949016
30
0
41
1
10
33.7373716307057
20
2.5374340519154
30
0
41
1
10
33.7278818197637
20
2.50505392572694
30
0
41
1
10
33.7063048163164
20
2.46568093756764
30
0
41
1
10
33.7015024656764
20
2.45786158602917
30
0
41
1
10
33.69089348015
20
2.44233682234417
30
0
41
1
10
33.6850769112214
20
2.43462417452909
30
0
41
1
10
33.6663310433803
20
2.41194750967227
30
0
41
1
10
33.652046212107
20
2.39734739316839
30
0
41
1
10
33.60408004442
20
2.35502731335382
30
0
41
1
10
33.5652937697191
20
2.32878566920516
30
0
41
1
10
33.509010103193
20
2.29824262395903
30
0
41
1
10
33.4973462888613
20
2.29223911141077
30
0
41
1
10
33.4733260796929
20
2.28048914858596
30
0
41
1
10
33.4364088334192
20
2.26332183005283
30
0
41
1
10
33.3969948237575
20
2.24744275281901
30
0
41
1
10
33.3152024920969
20
2.21721407831555
30
0
41
1
10
33.2567367252454
20
2.19909326250931
30
0
41
1
10
33.1642383011959
20
2.17438855172483
30
0
41
1
10
33.1326013728637
20
2.16656854567509
30
0
41
1
10
33.0840473238705
20
2.15540540436106
30
0
41
1
10
33.0676620816828
20
2.15177546942647
30
0
41
1
10
33.0347006921326
20
2.14472971097925
30
0
41
1
10
33.0181094891409
20
2.14131014156635
30
0
41
1
10
32.9346358830783
20
2.12469617018743
30
0
41
1
10
32.8662117908017
20
2.11294303317643
30
0
41
1
10
32.7267668378421
20
2.0918643764077
30
0
41
1
10
32.6557423397755
20
2.0825422570978
30
0
41
1
10
32.5115691850177
20
2.06588381131539
30
0
41
1
10
32.4384185733365
20
2.058549312488
30
0
41
1
10
32.2903368371579
20
2.0455448466486
30
0
41
1
10
32.2153698843696
20
2.03987368248192
30
0
41
1
10
32.0640565808243
20
2.02996374785934
30
0
41
1
10
31.9881323242981
20
2.0257515026444
30
0
41
1
10
31.7596866640576
20
2.01498233757209
30
0
41
1
10
31.606498914148
20
2.01027482448538
30
0
41
1
10
31.4526485310828
20
2.007406412834
30
0
0
SPLINE
5
114
100
AcDbEntity
8
1
62
256
6
ByLayer
370
18
48
1
60
0
100
AcDbSpline
70
4
71
3
72
8
73
4
40
0
40
0
40
0
40
0
40
1
40
1
40
1
40
1
41
1
10
33.7314609874769
20
3.51748187293731
30
0
41
1
10
33.7609746861582
20
3.37193214885812
30
0
41
1
10
33.7916799603224
20
3.22597186007059
30
0
41
1
10
33.823711253748
20
3.07957969011647
30
0
0
SPLINE
5
115
100
AcDbEntity
8
1
62
256
6
ByLayer
370
18
48
1
60
0
100
AcDbSpline
70
4
71
3
72
8
73
4
40
0
40
0
40
0
40
0
40
1
40
1
40
1
40
1
41
1
10
33.501407447293
20
3.1152804602367
30
0
41
1
10
33.6087874240626
20
3.10305897550418
30
0
41
1
10
33.7162221922993
20
3.09115969539352
30
0
41
1
10
33.8237112537461
20
3.0795796901165
30
0
0
SPLINE
5
116
100
AcDbEntity
8
1
62
256
6
ByLayer
370
13
48
1
60
0
100
AcDbSpline
70
4
71
3
72
16
73
12
40
0
40
0
40
0
40
0
40
0.162303617449758
40
0.243455426174636
40
0.365183139261955
40
0.446334947986833
40
0.568062661074152
40
0.68979037416147
40
0.811518087248788
40
0.933245800336106
40
1
40
1
40
1
40
1
41
1
10
10
20
3.5982521974604
30
0
41
1
10
11
20
3.33247675686132
30
0
41
1
10
12.5
20
2.86685132974017
30
0
41
1
10
14.75
20
2.05415096539352
30
0
41
1
10
16.5
20
1.36455629895448
30
0
41
1
10
18.5
20
0.539459358113931
30
0
41
1
10
20.5
20
-0.308486055540499
30
0
41
1
10
22.75
20
-1.24852863444167
30
0
41
1
10
25
20
-2.13439788466434
30
0
41
1
10
26.9112921246784
20
-2.81476215314154
30
0
41
1
10
28.0725842493567
20
-3.17793615773095
30
0
41
1
10
28.483876374035
20
-3.29963478413035
30
0
0
SPLINE
5
117
100
AcDbEntity
8
1
62
256
6
ByLayer
370
13
48
1
60
0
100
AcDbSpline
70
4
71
3
72
9
73
5
40
0
40
0
40
0
40
0
40
0.606303071213847
40
1
40
1
40
1
40
1
41
1
10
10
20
-1.44466406981465
30
0
41
1
10
11
20
-1.86717952254921
30
0
41
1
10
12.6493401526038
20
-2.530869321214
30
0
41
1
10
14.2986803052076
20
-3.09639588406049
30
0
41
1
10
14.9480204578114
20
-3.29978949350686
30
0
0
SPLINE
5
118
100
AcDbEntity
8
1
62
256
6
ByLayer
370
18
48
1
60
0
100
AcDbSpline
70
4
71
3
72
8
73
4
40
0
40
0
40
0
40
0
40
1
40
1
40
1
40
1
41
1
10
33.7675604859079
20
4.127782112549
30
0
41
1
10
33.7564979472589
20
3.92367975224633
30
0
41
1
10
33.7445510878571
20
3.72018685580579
30
0
41
1
10
33.731460974072
20
3.51748187754498
30
0
0
SPLINE
5
119
100
AcDbEntity
8
1
62
256
6
ByLayer
370
18
48
1
60
0
100
AcDbSpline
70
4
71
3
72
8
73
4
40
0
40
0
40
0
40
0
40
1
40
1
40
1
40
1
41
1
10
33.7675604858973
20
4.12778211255053
30
0
41
1
10
33.677230086706
20
4.31340777217216
30
0
41
1
10
33.5871986102149
20
4.4960251065738
30
0
41
1
10
33.4974641200947
20
4.67565360275907
30
0
0
SPLINE
5
11A
100
AcDbEntity
8
1
62
256
6
ByLayer
370
18
48
1
60
0
100
AcDbSpline
70
4
71
3
72
35
73
31
40
0
40
0
40
0
40
0
40
0.152543667216856
40
0.152543667216856
40
0.228815500825284
40
0.228815500825284
40
0.266951417629498
40
0.266951417629498
40
0.286019376031606
40
0.286019376031606
40
0.305087334433715
40
0.381359168042151
40
0.381359168042151
40
0.457631001650588
40
0.457631001650588
40
0.533902835259025
40
0.533902835259025
40
0.610174668867462
40
0.610174668867462
40
0.762718336084339
40
0.762718336084339
40
0.838990169692777
40
0.838990169692777
40
0.915262003301215
40
0.915262003301215
40
0.953397920105436
40
0.953397920105436
40
0.991533836909657
40
0.991533836909657
40
1
40
1
40
1
40
1
41
1
10
33.4974641200801
20
4.67565360276353
30
0
41
1
10
33.0047800414982
20
4.93456144683006
30
0
41
1
10
32.5127583112453
20
5.18033238736854
30
0
41
1
10
31.7742045198671
20
5.52762160674476
30
0
41
1
10
31.5279320259188
20
5.6398186441802
30
0
41
1
10
31.158191405117
20
5.80251189850063
30
0
41
1
10
31.0348890172521
20
5.8558092973507
30
0
41
1
10
30.849827660809
20
5.93431683990613
30
0
41
1
10
30.7881212012089
20
5.96024655359173
30
0
41
1
10
30.6648303327178
20
6.01155274209179
30
0
41
1
10
30.3568067151994
20
6.13847908341023
30
0
41
1
10
30.0497548109258
20
6.25864747826802
30
0
41
1
10
29.5593559015703
20
6.44213237784345
30
0
41
1
10
29.3146007720601
20
6.52948193591294
30
0
41
1
10
28.8256980923127
20
6.6950991114922
30
0
41
1
10
28.5815410480282
20
6.77337731634279
30
0
41
1
10
28.0933865661535
20
6.92091744989656
30
0
41
1
10
27.8493911427005
20
6.99016509571157
30
0
41
1
10
27.1172804172851
20
7.18406274457817
30
0
41
1
10
26.6290793273335
20
7.29489512835221
30
0
41
1
10
25.8951224403114
20
7.43209771983868
30
0
41
1
10
25.650189894666
20
7.47299084312672
30
0
41
1
10
25.1594908210681
20
7.54474351768181
30
0
41
1
10
24.9137367224635
20
7.57553720810637
30
0
41
1
10
24.5442142429219
20
7.61407650939441
30
0
41
1
10
24.4207962538919
20
7.62567028590138
30
0
41
1
10
24.174407191752
20
7.64634112676228
30
0
41
1
10
24.0513652609167
20
7.65542266713973
30
0
41
1
10
23.9011802025545
20
7.66497376573614
30
0
41
1
10
23.8739032263571
20
7.66664634289063
30
0
41
1
10
23.8466330982124
20
7.66825630561021
30
0
0
SPLINE
5
11B
100
AcDbEntity
8
1
62
256
6
ByLayer
370
18
48
1
60
0
100
AcDbSpline
70
4
71
3
72
22
73
18
40
0
40
0
40
0
40
0
40
0.0147898356927186
40
0.0707055449361122
40
0.126621254179506
40
0.1825369634229
40
0.238452672666294
40
0.294368381909688
40
0.350284091153081
40
0.462115509639869
40
0.573946928126657
40
0.62986263737005
40
0.685778346613444
40
0.741694055856838
40
0.797609765100232
40
0.909441183587019
40
1
40
1
40
1
40
1
41
1
10
21.4152139901568
20
7.92942192147083
30
0
41
1
10
21.4756471950537
20
7.92720668906358
30
0
41
1
10
21.7645427754756
20
7.91509334412933
30
0
41
1
10
22.2817614734758
20
7.88038443868811
30
0
41
1
10
22.9666882043534
20
7.80681917297616
30
0
41
1
10
23.6512773524305
20
7.7063337343555
30
0
41
1
10
24.3355589123665
20
7.57937328724751
30
0
41
1
10
25.0194543198063
20
7.42659674259323
30
0
41
1
10
25.9310358430278
20
7.18835545221236
30
0
41
1
10
27.0707317322029
20
6.82781754373303
30
0
41
1
10
28.2126808343065
20
6.38821702215813
30
0
41
1
10
29.128832835841
20
5.99187123623349
30
0
41
1
10
29.8174868746601
20
5.67283758640602
30
0
41
1
10
30.5079917391426
20
5.33297964479252
30
0
41
1
10
31.4314813930175
20
4.8532324429946
30
0
41
1
10
32.503718305085
20
4.25552008814805
30
0
41
1
10
33.3507909152606
20
3.75026499857518
30
0
41
1
10
33.7314609909157
20
3.51748187511686
30
0
0
SPLINE
5
11C
100
AcDbEntity
8
1
62
256
6
ByLayer
370
18
48
1
60
0
100
AcDbSpline
70
4
71
3
72
8
73
4
40
0
40
0
40
0
40
0
40
1
40
1
40
1
40
1
41
1
10
8.22984455689439
20
3.36274475183612
30
0
41
1
10
8.41909760414913
20
3.27476402016009
30
0
41
1
10
8.6107254562375
20
3.18319589902825
30
0
41
1
10
8.80478284816024
20
3.08795770553465
30
0
0
SPLINE
5
11D
100
AcDbEntity
8
1
62
256
6
ByLayer
370
18
48
1
60
0
100
AcDbSpline
70
4
71
3
72
8
73
4
40
0
40
0
40
0
40
0
40
1
40
1
40
1
40
1
41
1
10
8.00102970882685
20
1.98203417751822
30
0
41
0.999999985588662
10
8.00180776274032
20
1.98138491006429
30
0
41
0.999999985588662
10
8.00258584430862
20
1.98073563042737
30
0
41
1
10
8.00336395349814
20
1.98008633863552
30
0
0
SPLINE
5
11E
100
AcDbEntity
8
1
62
256
6
ByLayer
370
18
48
1
60
0
100
AcDbSpline
70
4
71
3
72
8
73
4
40
0
40
0
40
0
40
0
40
1
40
1
40
1
40
1
41
1
10
8.15375750370413
20
2.46980555903892
30
0
41
0.999953831307436
10
8.19850289370413
20
2.43239663703121
30
0
41
0.999953831307436
10
8.24334784074292
20
2.39494024389703
30
0
41
1
10
8.28828613352283
20
2.35744156757448
30
0
0
SPLINE
5
11F
100
AcDbEntity
8
1
62
256
6
ByLayer
370
18
48
1
60
0
100
AcDbSpline
70
4
71
3
72
8
73
4
40
0
40
0
40
0
40
0
40
1
40
1
40
1
40
1
41
1
10
33.3927601420504
20
3.12441325902378
30
0
41
1
10
33.4569276058868
20
3.04147008049071
30
0
41
1
10
33.5256485973096
20
2.95888574781574
30
0
41
1
10
33.5998577146284
20
2.87673391307098
30
0
0
SPLINE
5
120
100
AcDbEntity
8
1
62
256
6
ByLayer
370
18
48
1
60
0
100
AcDbSpline
70
4
71
3
72
15
73
11
40
0
40
0
40
0
40
0
40
0.139024808375085
40
0.299446827391812
40
0.459868846408538
40
0.580185360671083
40
0.700501874933628
40
0.820818389196172
40
0.941134903458717
40
1
40
1
40
1
40
1
41
1
10
33.5998577232828
20
2.87673390878191
30
0
41
1
10
32.7332384821885
20
3.38812669609177
30
0
41
1
10
30.8666192410943
20
4.43711933712808
30
0
41
1
10
28
20
5.79479478265688
30
0
41
1
10
25.25
20
6.73991975502005
30
0
41
1
10
22.75
20
7.27784745486443
30
0
41
1
10
20.5
20
7.48568994117485
30
0
41
1
10
18.25
20
7.41551201830671
30
0
41
1
10
16.3830609918633
20
7.13149220861499
30
0
41
1
10
15.2661219837266
20
6.86218380798866
30
0
41
1
10
14.8991829755899
20
6.76358827614436
30
0
0
SPLINE
5
121
100
AcDbEntity
8
1
62
256
6
ByLayer
370
18
48
1
60
0
100
AcDbSpline
70
4
71
3
72
53
73
49
40
0
40
0
40
0
40
0
40
0.0216552766729702
40
0.0216552766729702
40
0.0592839198778528
40
0.0592839198778528
40
0.0780982414802941
40
0.0780982414802941
40
0.0969125630827354
40
0.0969125630827354
40
0.1721698494925
40
0.1721698494925
40
0.247427135902266
40
0.247427135902266
40
0.266241457504707
40
0.266241457504707
40
0.285055779107149
40
0.285055779107149
40
0.322684422312034
40
0.322684422312034
40
0.397941708721803
40
0.397941708721803
40
0.435570351926689
40
0.435570351926689
40
0.454384673529132
40
0.454384673529132
40
0.473198995131575
40
0.548456281541348
40
0.548456281541348
40
0.586084924746234
40
0.586084924746234
40
0.604899246348677
40
0.604899246348677
40
0.62371356795112
40
0.62371356795112
40
0.698970854360895
40
0.698970854360895
40
0.77422814077067
40
0.77422814077067
40
0.793042462373114
40
0.793042462373114
40
0.811856783975559
40
0.811856783975559
40
0.849485427180447
40
0.849485427180447
40
0.924742713590223
40
0.924742713590223
40
1
40
1
40
1
40
1
41
1
10
13.969019050048
20
7.02438156377394
30
0
41
1
10
14.1091271355937
20
7.07046980381901
30
0
41
1
10
14.2492364442521
20
7.11502441167562
30
0
41
1
10
14.632888427594
20
7.2327399105759
30
0
41
1
10
14.8764929667949
20
7.30276807061088
30
0
41
1
10
15.2422606718049
20
7.40063559562532
30
0
41
1
10
15.3642432285881
20
7.43206256290273
30
0
41
1
10
15.6083638389284
20
7.49249963830124
30
0
41
1
10
15.730562131335
20
7.5215230378291
30
0
41
1
10
16.3411210330043
20
7.66032297884212
30
0
41
1
10
16.8281836020956
20
7.7511636871389
30
0
41
1
10
17.8019932387341
20
7.89172792048171
30
0
41
1
10
18.2887381026515
20
7.94152336080555
30
0
41
1
10
18.898580897726
20
7.97761471847554
30
0
41
1
10
19.0206206114051
20
7.98352262249256
30
0
41
1
10
19.2648837932386
20
7.9927009644544
30
0
41
1
10
19.3869452518815
20
7.99596521205885
30
0
41
1
10
19.752894963171
20
8.0017866314503
30
0
41
1
10
19.9965869255495
20
8.000373292798
30
0
41
1
10
20.7273075927654
20
7.9804247904766
30
0
41
1
10
21.2139791317628
20
7.9462090081287
30
0
41
1
10
21.9450652419005
20
7.86363798025664
30
0
41
1
10
22.1889403620964
20
7.83090177946193
30
0
41
1
10
22.5552378131467
20
7.77399076817443
30
0
41
1
10
22.6774342649537
20
7.75371633704117
30
0
41
1
10
22.9215431581784
20
7.71066702091724
30
0
41
1
10
23.531402710568
20
7.59675373223004
30
0
41
1
10
24.1396545944548
20
7.45168130521972
30
0
41
1
10
24.8699903667042
20
7.24853581091651
30
0
41
1
10
25.1135111938748
20
7.17597763860763
30
0
41
1
10
25.4791548527908
20
7.06001981833032
30
0
41
1
10
25.6010960673437
20
7.02018150940469
30
0
41
1
10
25.8451377644859
20
6.93815992711635
30
0
41
1
10
25.9672954324796
20
6.8959560950243
30
0
41
1
10
26.5778263448187
20
6.67939892619671
30
0
41
1
10
27.0649644040778
20
6.48864761420509
30
0
41
1
10
28.039017781106
20
6.07439625189096
30
0
41
1
10
28.5258987012554
20
5.85085090433202
30
0
41
1
10
29.1358002798919
20
5.55212598537008
30
0
41
1
10
29.2578466108651
20
5.4914177083752
30
0
41
1
10
29.5021111293796
20
5.36810997579232
30
0
41
1
10
29.6241941802797
20
5.30557831082146
30
0
41
1
10
29.9900219660705
20
5.11559904680635
30
0
41
1
10
30.2334863785819
20
4.98569635297008
30
0
41
1
10
30.9631026476502
20
4.58687908952814
30
0
41
1
10
31.4484816938765
20
4.30886893485118
30
0
41
1
10
32.4196842232663
20
3.7317567625233
30
0
41
1
10
32.9055080310179
20
3.43265070896521
30
0
41
1
10
33.392760142068
20
3.12441325901398
30
0
0
SPLINE
5
122
100
AcDbEntity
8
1
62
256
6
ByLayer
370
18
48
1
60
0
100
AcDbSpline
70
4
71
3
72
8
73
4
40
0
40
0
40
0
40
0
40
1
40
1
40
1
40
1
41
1
10
33.392760142069
20
3.12441325902432
30
0
41
1
10
33.4289749579215
20
3.12133270936545
30
0
41
1
10
33.465190725845
20
3.11828842490078
30
0
41
1
10
33.5014074472656
20
3.11528045994896
30
0
0
SPLINE
5
123
100
AcDbEntity
8
1
62
256
6
ByLayer
370
18
48
1
60
0
100
AcDbSpline
70
4
71
3
72
32
73
28
40
0
40
0
40
0
40
0
40
0.250000000000002
40
0.250000000000002
40
0.374999999999987
40
0.374999999999987
40
0.499999999999972
40
0.499999999999972
40
0.562499999999966
40
0.562499999999966
40
0.62499999999996
40
0.62499999999996
40
0.687499999999954
40
0.687499999999954
40
0.718749999999952
40
0.718749999999952
40
0.749999999999949
40
0.749999999999949
40
0.812499999999951
40
0.812499999999951
40
0.874999999999952
40
0.874999999999952
40
0.906249999999953
40
0.906249999999953
40
0.937499999999954
40
0.937499999999954
40
1
40
1
40
1
40
1
41
1
10
4.36417664523367
20
5.99604289595362
30
0
41
1
10
4.33878289248912
20
6.01554380917366
30
0
41
1
10
4.31453516685681
20
6.03549777035346
30
0
41
1
10
4.28133071888013
20
6.06678033097671
30
0
41
1
10
4.27077395653149
20
6.07746806022149
30
0
41
1
10
4.2515400446718
20
6.09934292214433
30
0
41
1
10
4.2428149783205
20
6.11053184687893
30
0
41
1
10
4.2321322673406
20
6.12802578791633
30
0
41
1
10
4.22898067617464
20
6.13398898948032
30
0
41
1
10
4.22398300027197
20
6.14604485305406
30
0
41
1
10
4.22210702106381
20
6.1521942127043
30
0
41
1
10
4.22033510652309
20
6.16460466685893
30
0
41
1
10
4.22043649676354
20
6.17077841094542
30
0
41
1
10
4.22282878542896
20
6.1799785816311
30
0
41
1
10
4.22401044426238
20
6.18301781409107
30
0
41
1
10
4.2271720120344
20
6.18884465188384
30
0
41
1
10
4.22915715577395
20
6.19165773778516
30
0
41
1
10
4.23645648418216
20
6.19976643198436
30
0
41
1
10
4.24287971405539
20
6.2044367298125
30
0
41
1
10
4.25806565815427
20
6.21229670163746
30
0
41
1
10
4.26646607587404
20
6.21534600835821
30
0
41
1
10
4.27987047230707
20
6.21904772664408
30
0
41
1
10
4.28447246266487
20
6.22012995332011
30
0
41
1
10
4.29372625531988
20
6.2220124369961
30
0
41
1
10
4.29840254415581
20
6.22281953688162
30
0
41
1
10
4.31255123265819
20
6.22491587091619
30
0
41
1
10
4.32214201371465
20
6.22588408611986
30
0
41
1
10
4.33184494244728
20
6.22654876538886
30
0
0
SPLINE
5
124
100
AcDbEntity
8
1
62
256
6
ByLayer
370
18
48
1
60
0
100
AcDbSpline
70
4
71
3
72
10
73
6
40
0
40
0
40
0
40
0
40
0.5
40
0.5
40
1
40
1
40
1
40
1
41
1
10
4.33184494244728
20
6.22654876538886
30
0
41
1
10
4.36878384081277
20
6.22907918900006
30
0
41
1
10
4.40544818611212
20
6.23246737645576
30
0
41
1
10
4.47808305573975
20
6.24139678574866
30
0
41
1
10
4.5140550225249
20
6.24693394300903
30
0
41
1
10
4.54957172596792
20
6.25386988431694
30
0
0
SPLINE
5
125
100
AcDbEntity
8
1
62
256
6
ByLayer
370
18
48
1
60
0
100
AcDbSpline
70
4
71
3
72
20
73
16
40
0
40
0
40
0
40
0
40
0.249999999999997
40
0.249999999999997
40
0.499999999999995
40
0.499999999999995
40
0.531249999999994
40
0.531249999999994
40
0.562499999999994
40
0.562499999999994
40
0.624999999999995
40
0.624999999999995
40
0.749999999999997
40
0.749999999999997
40
1
40
1
40
1
40
1
41
1
10
4.54957172596792
20
6.25386988431694
30
0
41
1
10
4.34682559004634
20
6.44226188123196
30
0
41
1
10
4.16196096294004
20
6.62168359804733
30
0
41
1
10
3.82600578959122
20
6.95741328299346
30
0
41
1
10
3.67489464348176
20
7.1137379828499
30
0
41
1
10
3.52275836015843
20
7.27303444693442
30
0
41
1
10
3.50610269367914
20
7.29050292314761
30
0
41
1
10
3.47328479310389
20
7.32496327893725
30
0
41
1
10
3.4571090876106
20
7.34196933502923
30
0
41
1
10
3.40941555474015
20
7.39214711146312
30
0
41
1
10
3.37879163982487
20
7.42441460423953
30
0
41
1
10
3.29029125747627
20
7.51759553865287
30
0
41
1
10
3.2357818886677
20
7.57488980432063
30
0
41
1
10
3.08472702072939
20
7.73167149584481
30
0
41
1
10
3.0005827713635
20
7.8161192896743
30
0
41
1
10
2.93116952225111
20
7.8782588749325
30
0
0
SPLINE
5
126
100
AcDbEntity
8
1
62
256
6
ByLayer
370
18
48
1
60
0
100
AcDbSpline
70
4
71
3
72
21
73
17
40
0
40
0
40
0
40
0
40
0.249999999999984
40
0.249999999999984
40
0.31249999999998
40
0.31249999999998
40
0.374999999999976
40
0.499999999999981
40
0.499999999999981
40
0.624999999999985
40
0.624999999999985
40
0.74999999999999
40
0.74999999999999
40
0.874999999999995
40
0.874999999999995
40
1
40
1
40
1
40
1
41
1
10
2.93116952225111
20
7.8782588749325
30
0
41
1
10
2.92617812097967
20
7.88272723808839
30
0
41
1
10
2.9241032572493
20
7.88710047421696
30
0
41
1
10
2.92645198380316
20
7.89245319539953
30
0
41
1
10
2.92717685583622
20
7.89351954549483
30
0
41
1
10
2.92913321974615
20
7.89560325876241
30
0
41
1
10
2.93283155913201
20
7.89866935423674
30
0
41
1
10
2.93886405851961
20
7.90155978939356
30
0
41
1
10
2.94910675976135
20
7.90526036729599
30
0
41
1
10
2.95538406824076
20
7.90703970842398
30
0
41
1
10
2.96962412112347
20
7.91031357384085
30
0
41
1
10
2.97762828005253
20
7.9118281771062
30
0
41
1
10
2.99526391485858
20
7.91464312673725
30
0
41
1
10
3.00492790274743
20
7.91594454120829
30
0
41
1
10
3.02522707066487
20
7.91829997853753
30
0
41
1
10
3.03591827627511
20
7.91936408976559
30
0
41
1
10
3.04707906455224
20
7.92033345580012
30
0
0
SPLINE
5
127
100
AcDbEntity
8
1
62
256
6
ByLayer
370
18
48
1
60
0
100
AcDbSpline
70
4
71
3
72
47
73
43
40
0
40
0
40
0
40
0
40
0.0312500000000015
40
0.0312500000000015
40
0.0625000000000029
40
0.0625000000000029
40
0.0937500000000044
40
0.0937500000000044
40
0.125000000000006
40
0.125000000000006
40
0.156250000000007
40
0.156250000000007
40
0.171875000000008
40
0.171875000000008
40
0.187500000000009
40
0.187500000000009
40
0.250000000000008
40
0.250000000000008
40
0.281250000000006
40
0.281250000000006
40
0.312500000000005
40
0.312500000000005
40
0.375000000000004
40
0.375000000000004
40
0.406250000000004
40
0.406250000000004
40
0.437500000000004
40
0.437500000000004
40
0.500000000000003
40
0.500000000000003
40
0.562500000000003
40
0.562500000000003
40
0.625000000000002
40
0.625000000000002
40
0.687500000000002
40
0.687500000000002
40
0.750000000000002
40
0.812500000000001
40
0.812500000000001
40
0.875000000000001
40
0.875000000000001
40
1
40
1
40
1
40
1
41
1
10
3.04707906455221
20
7.92033345580009
30
0
41
1
10
3.10271287423347
20
7.92516550924799
30
0
41
1
10
3.15958571353087
20
7.92927906293738
30
0
41
1
10
3.27528005131782
20
7.93649740609163
30
0
41
1
10
3.33410538265144
20
7.93959891324877
30
0
41
1
10
3.45337316814374
20
7.94505438377544
30
0
41
1
10
3.51381747335003
20
7.94740677955804
30
0
41
1
10
3.63609601318413
20
7.95153803880848
30
0
41
1
10
3.69793123873546
20
7.95331607348945
30
0
41
1
10
3.82282964056302
20
7.95641831664031
30
0
41
1
10
3.88589338987589
20
7.95774205284786
30
0
41
1
10
3.98132087514563
20
7.95945005491501
30
0
41
1
10
4.01327609207996
20
7.95997287261361
30
0
41
1
10
4.07717669162301
20
7.96092988476323
30
0
41
1
10
4.1091570822156
20
7.96136473919671
30
0
41
1
10
4.26920098156998
20
7.96334133937322
30
0
41
1
10
4.3976869936364
20
7.96430092312585
30
0
41
1
10
4.5909759803346
20
7.96505098366171
30
0
41
1
10
4.65549963384527
20
7.96518396180332
30
0
41
1
10
4.78472168115613
20
7.96523603302958
30
0
41
1
10
4.84937448101462
20
7.96515486919915
30
0
41
1
10
5.0429690538424
20
7.96461008824286
30
0
41
1
10
5.17174164458814
20
7.96384821567528
30
0
41
1
10
5.36451574817036
20
7.96212451072051
30
0
41
1
10
5.42870943069292
20
7.96145233661719
30
0
41
1
10
5.55697442529387
20
7.95990765529882
30
0
41
1
10
5.62102355901985
20
7.9590352767604
30
0
41
1
10
5.81262179084385
20
7.95611051217111
30
0
41
1
10
5.93974425785186
20
7.95375045572644
30
0
41
1
10
6.1928752278487
20
7.94811117353709
30
0
41
1
10
6.31896966191479
20
7.94482860649762
30
0
41
1
10
6.56955560249796
20
7.93722427396162
30
0
41
1
10
6.69407160879513
20
7.93290247812928
30
0
41
1
10
6.94166152009615
20
7.92306679282183
30
0
41
1
10
7.06480850204795
20
7.91754863118493
30
0
41
1
10
7.30927778592192
20
7.9051732275245
30
0
41
1
10
7.55195841036831
20
7.89145899559603
30
0
41
1
10
7.79130562450359
20
7.87472554462698
30
0
41
1
10
8.0290960369276
20
7.85630537546362
30
0
41
1
10
8.14719917061234
20
7.84625158867618
30
0
41
1
10
8.49861941324198
20
7.81336510323007
30
0
41
1
10
8.72929974526133
20
7.787786081734
30
0
41
1
10
8.95689038117004
20
7.75791201364049
30
0
0
SPLINE
5
128
100
AcDbEntity
8
1
62
256
6
ByLayer
370
18
48
1
60
0
100
AcDbSpline
70
4
71
3
72
19
73
15
40
0
40
0
40
0
40
0
40
0.250000000000001
40
0.250000000000001
40
0.500000000000002
40
0.500000000000002
40
0.562500000000002
40
0.562500000000002
40
0.593750000000003
40
0.593750000000003
40
0.625000000000004
40
0.750000000000004
40
0.750000000000004
40
1
40
1
40
1
40
1
41
1
10
4.26381870455904
20
-7.97850923043873
30
0
41
1
10
4.05975996228133
20
-7.99992964613165
30
0
41
1
10
3.87259939376429
20
-8.00591441844603
30
0
41
1
10
3.53058507616609
20
-7.98183569968322
30
0
41
1
10
3.37571363331807
20
-7.95179561264186
30
0
41
1
10
3.2013308386197
20
-7.88768627451356
30
0
41
1
10
3.16741525837026
20
-7.87353210135106
30
0
41
1
10
3.11796829155998
20
-7.85021132782251
30
0
41
1
10
3.10173830496208
20
-7.84209537936869
30
0
41
1
10
3.06986829672323
20
-7.82521947753801
30
0
41
1
10
2.99159968137269
20
-7.7813866573276
30
0
41
1
10
2.92021863874734
20
-7.72929414272667
30
0
41
1
10
2.76122011992081
20
-7.58793111891902
30
0
41
1
10
2.67157850280628
20
-7.4719670921325
30
0
41
1
10
2.59660035905492
20
-7.33235797300063
30
0
0
SPLINE
5
129
100
AcDbEntity
8
1
62
256
6
ByLayer
370
18
48
1
60
0
100
AcDbSpline
70
4
71
3
72
19
73
15
40
0
40
0
40
0
40
0
40
0.249999999999988
40
0.249999999999988
40
0.374999999999981
40
0.374999999999981
40
0.499999999999975
40
0.499999999999975
40
0.562499999999984
40
0.562499999999984
40
0.624999999999993
40
0.750000000000008
40
0.750000000000008
40
1
40
1
40
1
40
1
41
1
10
2.59660035905492
20
-7.33235797300063
30
0
41
1
10
2.58976320350422
20
-7.31962720619254
30
0
41
1
10
2.58672805375872
20
-7.30661050423439
30
0
41
1
10
2.59012646552196
20
-7.28657226213525
30
0
41
1
10
2.59259244330278
20
-7.27994910283371
30
0
41
1
10
2.60029042707029
20
-7.26697450545231
30
0
41
1
10
2.60552512253011
20
-7.26060142542798
30
0
41
1
10
2.6155994971225
20
-7.25123838943713
30
0
41
1
10
2.61932991782342
20
-7.24815443665679
30
0
41
1
10
2.62735986625594
20
-7.24218925569272
30
0
41
1
10
2.64031330452559
20
-7.23349239997572
30
0
41
1
10
2.65584931618471
20
-7.22551839822941
30
0
41
1
10
2.69009413980714
20
-7.21048110333791
30
0
41
1
10
2.71608704368032
20
-7.20209406499464
30
0
41
1
10
2.74425362351758
20
-7.19494478402316
30
0
0
SPLINE
5
12A
100
AcDbEntity
8
1
62
256
6
ByLayer
370
18
48
1
60
0
100
AcDbSpline
70
4
71
3
72
46
73
42
40
0
40
0
40
0
40
0
40
0.0312499999999989
40
0.0312499999999989
40
0.0624999999999978
40
0.0624999999999978
40
0.0937499999999968
40
0.0937499999999968
40
0.124999999999996
40
0.124999999999996
40
0.156249999999995
40
0.156249999999995
40
0.187499999999994
40
0.187499999999994
40
0.249999999999991
40
0.249999999999991
40
0.28124999999999
40
0.28124999999999
40
0.312499999999989
40
0.312499999999989
40
0.374999999999987
40
0.374999999999987
40
0.406249999999986
40
0.406249999999986
40
0.437499999999985
40
0.437499999999985
40
0.499999999999986
40
0.499999999999986
40
0.531249999999985
40
0.531249999999985
40
0.562499999999984
40
0.562499999999984
40
0.624999999999985
40
0.624999999999985
40
0.74999999999999
40
0.74999999999999
40
0.812499999999992
40
0.812499999999992
40
0.874999999999995
40
0.874999999999995
40
1
40
1
40
1
40
1
41
1
10
2.74425362351758
20
-7.19494478402316
30
0
41
1
10
2.80302856202519
20
-7.18002644633719
30
0
41
1
10
2.86300182948452
20
-7.16651881544894
30
0
41
1
10
2.98481941272806
20
-7.14181556108144
30
0
41
1
10
3.04666768050868
20
-7.13062358489069
30
0
41
1
10
3.1719093199124
20
-7.11022881319005
30
0
41
1
10
3.23530457159788
20
-7.10102776972724
30
0
41
1
10
3.36341796242706
20
-7.08438980301494
30
0
41
1
10
3.42813709708969
20
-7.07695381731304
30
0
41
1
10
3.55874032292425
20
-7.06368169188235
30
0
41
1
10
3.62462498508407
20
-7.05784609637914
30
0
41
1
10
3.75744359629843
20
-7.04765038761698
30
0
41
1
10
3.82409376538646
20
-7.04331321019765
30
0
41
1
10
4.02416515948019
20
-7.03239874400455
30
0
41
1
10
4.15794420202207
20
-7.02788991814592
30
0
41
1
10
4.35910738426625
20
-7.02463227131486
30
0
41
1
10
4.42624479593516
20
-7.0241336224725
30
0
41
1
10
4.56067395619061
20
-7.0242304394061
30
0
41
1
10
4.62795024094211
20
-7.02482697260942
30
0
41
1
10
4.82937891857753
20
-7.02813785710043
30
0
41
1
10
4.96334536209756
20
-7.03236888096853
30
0
41
1
10
5.16387164972585
20
-7.04134788819741
30
0
41
1
10
5.23064294264879
20
-7.04478074085776
30
0
41
1
10
5.36405086458774
20
-7.05246940785864
30
0
41
1
10
5.43070959778066
20
-7.05672709971878
30
0
41
1
10
5.63013757800923
20
-7.07063023272465
30
0
41
1
10
5.76246194301379
20
-7.08140886864919
30
0
41
1
10
5.96008774495144
20
-7.0995309033427
30
0
41
1
10
6.02581929662713
20
-7.10589771752885
30
0
41
1
10
6.15700585614607
20
-7.11923616493897
30
0
41
1
10
6.22248899309551
20
-7.12621101994048
30
0
41
1
10
6.41829124568386
20
-7.14794676047663
30
0
41
1
10
6.54795685470898
20
-7.16351573704631
30
0
41
1
10
6.93453881705923
20
-7.21290301214503
30
0
41
1
10
7.18904593430662
20
-7.2493966629392
30
0
41
1
10
7.56658713962693
20
-7.30744013147256
30
0
41
1
10
7.69175436151588
20
-7.32734499908983
30
0
41
1
10
7.94006829048774
20
-7.36781357506362
30
0
41
1
10
8.0633055599184
20
-7.38839089617639
30
0
41
1
10
8.43044835123834
20
-7.45066751528924
30
0
41
1
10
8.67178597437521
20
-7.4929072977632
30
0
41
1
10
8.9101750819238
20
-7.53463429518524
30
0
0
SPLINE
5
12B
100
AcDbEntity
8
1
62
256
6
ByLayer
370
18
48
1
60
0
100
AcDbSpline
70
4
71
3
72
18
73
14
40
0
40
0
40
0
40
0
40
0.0912041611312343
40
0.182345947988371
40
0.273426514963639
40
0.364446999033034
40
0.455408519943803
40
0.546312180398932
40
0.637159066238864
40
0.727950246620164
40
0.818686774191728
40
0.909369685268094
40
1
40
1
40
1
40
1
41
1
10
8.28828613011913
20
2.35744157041469
30
0
41
1
10
8.27949101560145
20
2.34589649554982
30
0
41
1
10
8.26190680152072
20
2.32281424146493
30
0
41
1
10
8.23563490861662
20
2.2882525172684
30
0
41
1
10
8.20945110977456
20
2.25375169042354
30
0
41
1
10
8.18336222609153
20
2.2193156575758
30
0
41
1
10
8.15736644683093
20
2.18494384930247
30
0
41
1
10
8.13146422780636
20
2.15063684867712
30
0
41
1
10
8.10565558168645
20
2.1163950115521
30
0
41
1
10
8.07994002925423
20
2.08221837293544
30
0
41
1
10
8.05431949877828
20
2.04810839866178
30
0
41
1
10
8.02878678764964
20
2.01406107888988
30
0
41
1
10
8.01183659540388
20
1.99140905997385
30
0
41
1
10
8.00336395778382
20
1.98008633602737
30
0
0
SPLINE
5
12C
100
AcDbEntity
8
1
62
256
6
ByLayer
370
18
48
1
60
0
100
AcDbSpline
70
4
71
3
72
8
73
4
40
0
40
0
40
0
40
0
40
1
40
1
40
1
40
1
41
1
10
33.7286648589147
20
-5.77155100391067
30
0
41
1
10
33.7587108966881
20
-5.89429282005176
30
0
41
1
10
33.7900694387259
20
-6.0159189162103
30
0
41
1
10
33.822900874936
20
-6.13626111284904
30
0
0
SPLINE
5
12D
100
AcDbEntity
8
1
62
256
6
ByLayer
370
18
48
1
60
0
100
AcDbSpline
70
4
71
3
72
14
73
10
40
0
40
0
40
0
40
0
40
0.152415995904194
40
0.304740222602372
40
0.456974698042488
40
0.60912140128565
40
0.761182272737853
40
0.91315921439125
40
1
40
1
40
1
40
1
41
1
10
8.244760590704
20
7.92146426872506
30
0
41
1
10
8.23523385080867
20
7.92161759280512
30
0
41
1
10
8.21618610703902
20
7.92192414864931
30
0
41
1
10
8.18772970217839
20
7.92272545783052
30
0
41
1
10
8.15936876400676
20
7.92377467047271
30
0
41
1
10
8.13111092274434
20
7.92509485243542
30
0
41
1
10
8.10295409452979
20
7.92667773441178
30
0
41
1
10
8.07890198194454
20
7.92826053479857
30
0
41
1
10
8.06424205627502
20
7.92933493353175
30
0
41
1
10
8.05891605625851
20
7.92973997080381
30
0
0
SPLINE
5
12E
100
AcDbEntity
8
1
62
256
6
ByLayer
370
18
48
1
60
0
100
AcDbSpline
70
4
71
3
72
8
73
4
40
0
40
0
40
0
40
0
40
1
40
1
40
1
40
1
41
1
10
33.5320773504439
20
-6.13662501304182
30
0
41
1
10
33.628964822415
20
-6.13596448918236
30
0
41
1
10
33.7259061615427
20
-6.13584483971749
30
0
41
1
10
33.8229008749495
20
-6.13626111284799
30
0
0
SPLINE
5
12F
100
AcDbEntity
8
1
62
256
6
ByLayer
370
18
48
1
60
0
100
AcDbSpline
70
4
71
3
72
8
73
4
40
0
40
0
40
0
40
0
40
1
40
1
40
1
40
1
41
1
10
33.4300504276148
20
-6.13156136395742
30
0
41
1
10
33.4640583961045
20
-6.13318424419475
30
0
41
1
10
33.4980673699385
20
-6.13487210060299
30
0
41
1
10
33.5320773503618
20
-6.1366250136316
30
0
0
SPLINE
5
130
100
AcDbEntity
8
1
62
256
6
ByLayer
370
18
48
1
60
0
100
AcDbSpline
70
4
71
3
72
13
73
9
40
0
40
0
40
0
40
0
40
0.117168633949574
40
0.306346783817523
40
0.432465550396155
40
0.621643700264103
40
0.747762466842736
40
1
40
1
40
1
40
1
41
1
10
21.8935511398676
20
1.38858192982636
30
0
41
1
10
21.4290340932451
20
1.69712354471807
30
0
41
1
10
20.2145170466225
20
2.49407244343612
30
0
41
1
10
18.5
20
3.56020211965404
30
0
41
1
10
16.5
20
4.69146348981255
30
0
41
1
10
14.75
20
5.55486128781121
30
0
41
1
10
12.5
20
6.4691887037892
30
0
41
1
10
11
20
6.90745868099293
30
0
41
1
10
10
20
7.10949323025491
30
0
0
SPLINE
5
131
100
AcDbEntity
8
1
62
256
6
ByLayer
370
18
48
1
60
0
100
AcDbSpline
70
4
71
3
72
8
73
4
40
0
40
0
40
0
40
0
40
1
40
1
40
1
40
1
41
1
10
33.7646092332077
20
-6.93124649177184
30
0
41
1
10
33.6682889376931
20
-7.01924364547824
30
0
41
1
10
33.5723398112326
20
-7.10152903670502
30
0
41
1
10
33.4767593032429
20
-7.1781419152953
30
0
0
SPLINE
5
132
100
AcDbEntity
8
1
62
256
6
ByLayer
370
18
48
1
60
0
100
AcDbSpline
70
4
71
3
72
10
73
6
40
0
40
0
40
0
40
0
40
0.5
40
0.5
40
1
40
1
40
1
40
1
41
1
10
10.0000000000001
20
2.35548796854658
30
0
41
1
10
9.79870975771999
20
2.47701203881181
30
0
41
1
10
9.59843404848189
20
2.59879996548983
30
0
41
1
10
9.19999391235191
20
2.84292491420629
30
0
41
1
10
9.00185638669268
20
2.9652689326287
30
0
41
1
10
8.8049392215739
20
3.08793033840198
30
0
0
SPLINE
5
133
100
AcDbEntity
8
1
62
256
6
ByLayer
370
18
48
1
60
0
100
AcDbSpline
70
4
71
3
72
27
73
23
40
0
40
0
40
0
40
0
40
0.0497688554428415
40
0.0995580905441933
40
0.149368413104715
40
0.19920051886219
40
0.249055091645015
40
0.298932803523819
40
0.348834314961218
40
0.398760274959708
40
0.448711321207733
40
0.498688080223884
40
0.548691167499336
40
0.598721187638424
40
0.648778734497428
40
0.698864391321619
40
0.748978730880483
40
0.799122315601242
40
0.84929569770063
40
0.899499419314955
40
0.949734012628457
40
1
40
1
40
1
40
1
41
1
10
8.80489342736746
20
3.08786691876057
30
0
41
1
10
8.79594729914356
20
3.07547021948594
30
0
41
1
10
8.77805137937989
20
3.05067174465958
30
0
41
1
10
8.75134699241585
20
3.01357088454046
30
0
41
1
10
8.72473793870645
20
2.97653184615729
30
0
41
1
10
8.69823462805667
20
2.93956232617677
30
0
41
1
10
8.67183427775356
20
2.90266054067928
30
0
41
1
10
8.64553764211456
20
2.86582722954657
30
0
41
1
10
8.61934452690326
20
2.82906243785885
30
0
41
1
10
8.59325499205735
20
2.7923663789592
30
0
41
1
10
8.56726902916873
20
2.75573920307073
30
0
41
1
10
8.54138664808232
20
2.719181059486
30
0
41
1
10
8.51560785325208
20
2.68269207961885
30
0
41
1
10
8.48993265167954
20
2.64627238284274
30
0
41
1
10
8.46436104483206
20
2.60992207037037
30
0
41
1
10
8.43889305306314
20
2.57364124418649
30
0
41
1
10
8.41352862596207
20
2.5374299376623
30
0
41
1
10
8.38826797681941
20
2.50128837465306
30
0
41
1
10
8.36311033341258
20
2.46521600198398
30
0
41
1
10
8.33805860429518
20
2.42921510369726
30
0
41
1
10
8.31310194812482
20
2.39327730044044
30
0
41
1
10
8.29655979707059
20
2.36938929766035
30
0
41
1
10
8.28828613785069
20
2.35744156524038
30
0
0
SPLINE
5
134
100
AcDbEntity
8
1
62
256
6
ByLayer
370
18
48
1
60
0
100
AcDbSpline
70
4
71
3
72
42
73
38
40
0
40
0
40
0
40
0
40
0.0440075565292077
40
0.0593226542214063
40
0.074637751913605
40
0.0899528496058036
40
0.105267947298002
40
0.135898142682399
40
0.166528338066797
40
0.181843435758995
40
0.197158533451194
40
0.212473631143393
40
0.227788728835591
40
0.289049119604386
40
0.319679314988783
40
0.35030951037318
40
0.380939705757578
40
0.411569901141975
40
0.472830291910769
40
0.488145389602968
40
0.503460487295167
40
0.534090682679564
40
0.595351073448358
40
0.610666171140557
40
0.625981268832756
40
0.656611464217153
40
0.68724165960155
40
0.717871854985948
40
0.748502050370345
40
0.779132245754742
40
0.840392636523537
40
0.871022831907934
40
0.901653027292331
40
0.962913418061126
40
0.978228515753324
40
0.993543613445523
40
1
40
1
40
1
40
1
41
1
10
8.28828613785069
20
2.35744156524035
30
0
41
1
10
8.61645951781856
20
2.11872756332289
30
0
41
1
10
9.05868225652281
20
1.79233153858334
30
0
41
1
10
9.61479840843478
20
1.37639842179411
30
0
41
1
10
9.95704294672154
20
1.11895109201655
30
0
41
1
10
10.2992064426915
20
0.860379706902023
30
0
41
1
10
10.755314184104
20
0.514386182195068
30
0
41
1
10
11.3252189866759
20
0.0804617778897807
30
0
41
1
10
11.8948379883445
20
-0.353520073546463
30
0
41
1
10
12.3503379726992
20
-0.699647505453214
30
0
41
1
10
12.6918736436338
20
-0.958378862581867
30
0
41
1
10
13.0333234879317
20
-1.21603796946573
30
0
41
1
10
13.7160660380921
20
-1.72863276517202
30
0
41
1
10
14.5121980103453
20
-2.31709435579469
30
0
41
1
10
15.4218307925398
20
-2.96826068135152
30
0
41
1
10
16.1040242171636
20
-3.44394910484721
30
0
41
1
10
16.786250181314
20
-3.90490865433134
30
0
41
1
10
17.6960284927857
20
-4.49726386478005
30
0
41
1
10
18.4922817637512
20
-4.98297071472396
30
0
41
1
10
19.1750027301298
20
-5.37179328342145
30
0
41
1
10
19.6302122354659
20
-5.62348085196709
30
0
41
1
10
20.4269886307245
20
-6.04286295954802
30
0
41
1
10
21.2240177185047
20
-6.41773295364075
30
0
41
1
10
21.9073206492694
20
-6.70403843949862
30
0
41
1
10
22.3628868414363
20
-6.88543350966563
30
0
41
1
10
22.9324045386911
20
-7.09359420301811
30
0
41
1
10
23.6158839640861
20
-7.31295560777434
30
0
41
1
10
24.2993900019411
20
-7.50091979231226
30
0
41
1
10
24.982854625597
20
-7.65685391976047
30
0
41
1
10
25.8942477760375
20
-7.82065012496656
30
0
41
1
10
26.8065025343111
20
-7.91767277624982
30
0
41
1
10
27.7209831779217
20
-7.94653061346983
30
0
41
1
10
28.6373002685548
20
-7.92921967219107
30
0
41
1
10
29.442177638367
20
-7.85354431098776
30
0
41
1
10
30.1352015955272
20
-7.74539713145256
30
0
41
1
10
30.4154064618899
20
-7.69469356262604
30
0
41
1
10
30.5801279029896
20
-7.66199589364311
30
0
41
1
10
30.6289971958928
20
-7.65204195526226
30
0
0
SPLINE
5
135
100
AcDbEntity
8
1
62
256
6
ByLayer
370
18
48
1
60
0
100
AcDbSpline
70
4
71
3
72
8
73
4
40
0
40
0
40
0
40
0
40
1
40
1
40
1
40
1
41
1
10
33.361196497767
20
-6.84506447232488
30
0
41
1
10
33.3987861252825
20
-6.95859475341967
30
0
41
1
10
33.4372862029302
20
-7.06967665036282
30
0
41
1
10
33.4767593032434
20
-7.17814191528765
30
0
0
SPLINE
5
136
100
AcDbEntity
8
1
62
256
6
ByLayer
370
18
48
1
60
0
100
AcDbSpline
70
4
71
3
72
19
73
15
40
0
40
0
40
0
40
0
40
0.036864400316351
40
0.101073440295261
40
0.165282480274171
40
0.261596040242536
40
0.357909600210901
40
0.454223160179266
40
0.55053672014763
40
0.646850280115995
40
0.711059320094905
40
0.80737288006327
40
0.87158192004218
40
1
40
1
40
1
40
1
41
1
10
33.3611964996314
20
-6.84506447345456
30
0
41
1
10
33.0741309997543
20
-6.90676371411109
30
0
41
1
10
32.2870654998772
20
-7.0542077603466
30
0
41
1
10
31.0000000000001
20
-7.19851328489844
30
0
41
1
10
29.2500000000001
20
-7.22021740094351
30
0
41
1
10
27.2500000000001
20
-6.99706536337146
30
0
41
1
10
25.0000000000001
20
-6.42063564860169
30
0
41
1
10
22.7500000000001
20
-5.54581861501279
30
0
41
1
10
20.5000000000001
20
-4.41633873577138
30
0
41
1
10
18.5000000000001
20
-3.22688897625247
30
0
41
1
10
16.5000000000001
20
-1.93283017979641
30
0
41
1
10
14.7500000000001
20
-0.739713528538886
30
0
41
1
10
12.5000000000001
20
0.819864781768985
30
0
41
1
10
11.0000000000001
20
1.84566294217663
30
0
41
1
10
10.0000000000001
20
2.49269707581595
30
0
0
SPLINE
5
137
100
AcDbEntity
8
1
62
256
6
ByLayer
370
18
48
1
60
0
100
AcDbSpline
70
4
71
3
72
78
73
74
40
0
40
0
40
0
40
0
40
0.0312499999999967
40
0.0312499999999967
40
0.0624999999999934
40
0.0624999999999934
40
0.0937499999999901
40
0.0937499999999901
40
0.109374999999989
40
0.109374999999989
40
0.124999999999988
40
0.124999999999988
40
0.156249999999986
40
0.156249999999986
40
0.187499999999984
40
0.187499999999984
40
0.218749999999981
40
0.218749999999981
40
0.226562499999981
40
0.226562499999981
40
0.23437499999998
40
0.23437499999998
40
0.249999999999981
40
0.249999999999981
40
0.281249999999981
40
0.281249999999981
40
0.312499999999981
40
0.312499999999981
40
0.343749999999981
40
0.343749999999981
40
0.374999999999981
40
0.374999999999981
40
0.406249999999982
40
0.406249999999982
40
0.437499999999982
40
0.437499999999982
40
0.468749999999982
40
0.468749999999982
40
0.476562499999982
40
0.476562499999982
40
0.484374999999981
40
0.484374999999981
40
0.49999999999998
40
0.49999999999998
40
0.562499999999976
40
0.562499999999976
40
0.593749999999975
40
0.593749999999975
40
0.609374999999975
40
0.609374999999975
40
0.624999999999974
40
0.624999999999974
40
0.687499999999976
40
0.687499999999976
40
0.718749999999977
40
0.718749999999977
40
0.734374999999978
40
0.734374999999978
40
0.742187499999979
40
0.742187499999979
40
0.749999999999979
40
0.749999999999979
40
0.812499999999985
40
0.812499999999985
40
0.87499999999999
40
0.87499999999999
40
0.906249999999992
40
0.906249999999992
40
0.937499999999995
40
0.937499999999995
40
0.968749999999998
40
0.968749999999998
40
1
40
1
40
1
40
1
41
1
10
33.4767593032277
20
-7.17814191529797
30
0
41
1
10
33.2308299899499
20
-7.24369621696476
30
0
41
1
10
32.9849389571978
20
-7.30316047616441
30
0
41
1
10
32.4933619684078
20
-7.40998162436574
30
0
41
1
10
32.2477209912115
20
-7.45734400642988
30
0
41
1
10
31.756363904762
20
-7.53972177224702
30
0
41
1
10
31.510625708802
20
-7.57473146932958
30
0
41
1
10
31.1415210304498
20
-7.61773702224076
30
0
41
1
10
31.0183465050987
20
-7.63049193223435
30
0
41
1
10
30.7720268251667
20
-7.65276662545716
30
0
41
1
10
30.6489724192246
20
-7.66228000115225
30
0
41
1
10
30.280039239685
20
-7.68593125550478
30
0
41
1
10
30.0344098432605
20
-7.69511602244501
30
0
41
1
10
29.5431681338705
20
-7.70075306976725
30
0
41
1
10
29.2975234866989
20
-7.69728499451705
30
0
41
1
10
28.8058576091763
20
-7.6776923911863
30
0
41
1
10
28.559845589444
20
-7.66156629752359
30
0
41
1
10
28.2519134570074
20
-7.63336998861655
30
0
41
1
10
28.1903060666103
20
-7.62732847651617
30
0
41
1
10
28.0670441053811
20
-7.61443633203808
30
0
41
1
10
28.0053680548309
20
-7.60758291663478
30
0
41
1
10
27.820565355962
20
-7.58583861045213
30
0
41
1
10
27.6975881140322
20
-7.56975262973057
30
0
41
1
10
27.3292519646933
20
-7.51677995952593
30
0
41
1
10
27.0844739799948
20
-7.47521739080059
30
0
41
1
10
26.5959339149113
20
-7.38023309428687
30
0
41
1
10
26.3521852693071
20
-7.32677616118318
30
0
41
1
10
25.8653230366239
20
-7.20811356114586
30
0
41
1
10
25.6222089437814
20
-7.14290953187802
30
0
41
1
10
25.1361914280557
20
-7.00088477392924
30
0
41
1
10
24.8932970984823
20
-6.92401571697883
30
0
41
1
10
24.4072378819771
20
-6.75897053679861
30
0
41
1
10
24.16404780761
20
-6.6709096714574
30
0
41
1
10
23.6769152460954
20
-6.48403709643105
30
0
41
1
10
23.4329933898799
20
-6.38513477612528
30
0
41
1
10
22.9440198691544
20
-6.17651375633545
30
0
41
1
10
22.6989530355606
20
-6.06686511467774
30
0
41
1
10
22.3916675858133
20
-5.92300594979974
30
0
41
1
10
22.3301633956717
20
-5.89389217347036
30
0
41
1
10
22.2070555639856
20
-5.8349733551164
30
0
41
1
10
22.1454218716
20
-5.80515162054652
30
0
41
1
10
21.9605750291696
20
-5.71480312222883
30
0
41
1
10
21.8375506726092
20
-5.65348402827482
30
0
41
1
10
21.2232603359533
20
-5.34181310564597
30
0
41
1
10
20.7346491901956
20
-5.07591953275272
30
0
41
1
10
20.0040453135288
20
-4.65391371199252
30
0
41
1
10
19.7608925547935
20
-4.50938240088044
30
0
41
1
10
19.3964621202549
20
-4.28696053367941
30
0
41
1
10
19.2750338307264
20
-4.21188285067075
30
0
41
1
10
19.0321293600253
20
-4.06017997648112
30
0
41
1
10
18.9106572542488
20
-3.98354483977616
30
0
41
1
10
18.3031181101635
20
-3.59644285255499
30
0
41
1
10
17.816485672957
20
-3.27428914416001
30
0
41
1
10
17.0833452054584
20
-2.77416795157896
30
0
41
1
10
16.8384275658529
20
-2.60465238399112
30
0
41
1
10
16.4699019559485
20
-2.3465359609234
30
0
41
1
10
16.3468689342224
20
-2.25985943123635
30
0
41
1
10
16.1619922986487
20
-2.12894472968873
30
0
41
1
10
16.1003342876042
20
-2.08517215665839
30
0
41
1
10
15.977192287055
20
-1.99754260952201
30
0
41
1
10
15.9156740769716
20
-1.95366110507544
30
0
41
1
10
15.3624594396104
20
-1.55816245349689
30
0
41
1
10
14.8739511779615
20
-1.20253115318172
30
0
41
1
10
13.8998930369523
20
-0.487928188113187
30
0
41
1
10
13.4144501378518
20
-0.128812335295862
30
0
41
1
10
12.686379122109
20
0.409421475557764
30
0
41
1
10
12.4436723274802
20
0.588716509481742
30
0
41
1
10
11.957636101256
20
0.946272454857109
30
0
41
1
10
11.7143046664098
20
1.12453110392565
30
0
41
1
10
11.226661926406
20
1.47951914054193
30
0
41
1
10
10.9823571645128
20
1.65625699516855
30
0
41
1
10
10.4923527935613
20
2.00762749928626
30
0
41
1
10
10.2466549652342
20
2.18226215356199
30
0
41
1
10
10.0000000000001
20
2.35548796854658
30
0
0
SPLINE
5
138
100
AcDbEntity
8
1
62
256
6
ByLayer
370
18
48
1
60
0
100
AcDbSpline
70
4
71
3
72
8
73
4
40
0
40
0
40
0
40
0
40
1
40
1
40
1
40
1
41
1
10
33.7660947074092
20
-5.08136811155623
30
0
41
1
10
33.7546798453117
20
-5.31091888218998
30
0
41
1
10
33.7423035136124
20
-5.54093165669002
30
0
41
1
10
33.7286648453083
20
-5.77155100696819
30
0
0
SPLINE
5
139
100
AcDbEntity
8
1
62
256
6
ByLayer
370
18
48
1
60
0
100
AcDbSpline
70
4
71
3
72
8
73
4
40
0
40
0
40
0
40
0
40
1
40
1
40
1
40
1
41
1
10
33.7660947073984
20
-5.08136811155583
30
0
41
1
10
33.6729715197879
20
-4.87803919857495
30
0
41
1
10
33.5801801632455
20
-4.67155098377685
30
0
41
1
10
33.4877185379782
20
-4.46192345889836
30
0
0
SPLINE
5
13A
100
AcDbEntity
8
1
62
256
6
ByLayer
370
18
48
1
60
0
100
AcDbSpline
70
4
71
3
72
42
73
38
40
0
40
0
40
0
40
0
40
0.013065825797931
40
0.0265417934946163
40
0.0400177611913017
40
0.0669696965846725
40
0.0939216319780432
40
0.120873567371414
40
0.147825502764785
40
0.174777438158155
40
0.201729373551526
40
0.215205341248212
40
0.228681308944897
40
0.255633244338268
40
0.309537115125009
40
0.323013082821695
40
0.33648905051838
40
0.363440985911751
40
0.417344856698492
40
0.430820824395178
40
0.444296792091863
40
0.471248727485234
40
0.525152598271975
40
0.552104533665346
40
0.579056469058717
40
0.606008404452088
40
0.632960339845459
40
0.659912275238829
40
0.6868642106322
40
0.740768081418941
40
0.794671952205683
40
0.821623887599054
40
0.848575822992425
40
0.875527758385795
40
0.902479693779166
40
0.956383564565908
40
1
40
1
40
1
40
1
41
1
10
8.24476059070187
20
7.92146426872517
30
0
41
1
10
8.35517861728638
20
7.91589351164691
30
0
41
1
10
8.57947790710776
20
7.90215098862609
30
0
41
1
10
8.91766188290319
20
7.87397947829393
30
0
41
1
10
9.37319816255035
20
7.82605027646775
30
0
41
1
10
9.94265093547605
20
7.74704760432931
30
0
41
1
10
10.6260812833699
20
7.62252261791897
30
0
41
1
10
11.3096426644775
20
7.46872916100841
30
0
41
1
10
11.9934608330827
20
7.28602194235492
30
0
41
1
10
12.6775209250959
20
7.0749271936626
30
0
41
1
10
13.247794152055
20
6.87624183764208
30
0
41
1
10
13.7041515206
20
6.70421709565551
30
0
41
1
10
14.1605948251668
20
6.52347809585228
30
0
41
1
10
14.9596389607641
20
6.18480738344141
30
0
41
1
10
15.7591895539868
20
5.80304476962226
30
0
41
1
10
16.4449226724121
20
5.44858689223514
30
0
41
1
10
16.9021868846344
20
5.20526747333543
30
0
41
1
10
17.7026703413061
20
4.76112742487283
30
0
41
1
10
18.5033537833756
20
4.28353760036455
30
0
41
1
10
19.1893784004293
20
3.854792538325
30
0
41
1
10
19.6466232016235
20
3.56408934742745
30
0
41
1
10
20.4465083386686
20
3.04299314930756
30
0
41
1
10
21.3599463995372
20
2.42311706676989
30
0
41
1
10
22.2726392701962
20
1.78644616688482
30
0
41
1
10
22.9568079687706
20
1.30219826381167
30
0
41
1
10
23.640571232066
20
0.813231087260931
30
0
41
1
10
24.3239578183731
20
0.32137842054658
30
0
41
1
10
25.0069003421695
20
-0.171333309781261
30
0
41
1
10
25.9171602040806
20
-0.827223990316185
30
0
41
1
10
27.0553084415102
20
-1.64098468529588
30
0
41
1
10
28.1963511768655
20
-2.43562971782839
30
0
41
1
10
29.1124774564373
20
-3.05352680095564
30
0
41
1
10
29.8015281657997
20
-3.50633224061156
30
0
41
1
10
30.4929374592401
20
-3.94691520071143
30
0
41
1
10
31.4183776428694
20
-4.51578603791984
30
0
41
1
10
32.4941017532659
20
-5.13664675283252
30
0
41
1
10
33.3456966327063
20
-5.58183979349027
30
0
41
1
10
33.7286648623563
20
-5.77155100584835
30
0
0
SPLINE
5
13B
100
AcDbEntity
8
1
62
256
6
ByLayer
370
18
48
1
60
0
100
AcDbSpline
70
4
71
3
72
8
73
4
40
0
40
0
40
0
40
0
40
1
40
1
40
1
40
1
41
1
10
33.3731909070102
20
-3.85803070046478
30
0
41
1
10
33.4105064631785
20
-4.05868351452511
30
0
41
1
10
33.4486645479381
20
-4.25996776844437
30
0
41
1
10
33.4877185379787
20
-4.46192345889403
30
0
0
SPLINE
5
13C
100
AcDbEntity
8
1
62
256
6
ByLayer
370
18
48
1
60
0
100
AcDbSpline
70
4
71
3
72
12
73
8
40
0
40
0
40
0
40
0
40
0.186789602695671
40
0.422914225483856
40
0.659038848272041
40
0.83613231536318
40
1
40
1
40
1
40
1
41
1
10
33.3731909085556
20
-3.85803069860972
30
0
41
1
10
32.5821272723704
20
-3.42104852296455
30
0
41
1
10
30.7910636361852
20
-2.36496244494819
30
0
41
1
10
28.0000000000001
20
-0.562059746718035
30
0
41
1
10
25.2500000000001
20
1.24811948128129
30
0
41
1
10
22.8060118732988
20
2.78683724922476
30
0
41
1
10
21.3620237465976
20
3.62115515804649
30
0
41
1
10
20.6680356198963
20
3.99856429862078
30
0
0
SPLINE
5
13D
100
AcDbEntity
8
1
62
256
6
ByLayer
370
18
48
1
60
0
100
AcDbSpline
70
4
71
3
72
80
73
76
40
0
40
0
40
0
40
0
40
0.0634769503058386
40
0.0634769503058386
40
0.095215425458758
40
0.095215425458758
40
0.111084663035218
40
0.111084663035218
40
0.126953900611677
40
0.126953900611677
40
0.158692375764598
40
0.158692375764598
40
0.190430850917518
40
0.190430850917518
40
0.222169326070439
40
0.222169326070439
40
0.253907801223359
40
0.253907801223359
40
0.3173847515292
40
0.3173847515292
40
0.34912322668212
40
0.34912322668212
40
0.38086170183504
40
0.38086170183504
40
0.38879632062327
40
0.38879632062327
40
0.3967309394115
40
0.41260017698796
40
0.41260017698796
40
0.444338652140881
40
0.444338652140881
40
0.476077127293803
40
0.476077127293803
40
0.507815602446724
40
0.507815602446724
40
0.571292552752566
40
0.571292552752566
40
0.603031027905487
40
0.603031027905487
40
0.618900265481948
40
0.618900265481948
40
0.634769503058409
40
0.634769503058409
40
0.650638740634869
40
0.658573359423099
40
0.658573359423099
40
0.66650797821133
40
0.66650797821133
40
0.69824645336425
40
0.69824645336425
40
0.72998492851717
40
0.72998492851717
40
0.76172340367009
40
0.76172340367009
40
0.79346187882301
40
0.79346187882301
40
0.82520035397593
40
0.82520035397593
40
0.85693882912885
40
0.85693882912885
40
0.872808066705309
40
0.872808066705309
40
0.888677304281769
40
0.888677304281769
40
0.920415779434688
40
0.920415779434688
40
0.936285017011148
40
0.936285017011148
40
0.944219635799378
40
0.944219635799378
40
0.952154254587607
40
0.952154254587607
40
0.983892729740524
40
0.983892729740524
40
1
40
1
40
1
40
1
41
1
10
33.4877185379637
20
-4.46192345889395
30
0
41
1
10
32.9955036360866
20
-4.18106550583204
30
0
41
1
10
32.5041076909701
20
-3.88774133652871
30
0
41
1
10
31.766354325396
20
-3.43147040272177
30
0
41
1
10
31.5203257312899
20
-3.27666344694524
30
0
41
1
10
31.1508693373825
20
-3.04066303223334
30
0
41
1
10
31.0276480311729
20
-2.96136512828471
30
0
41
1
10
30.7810268114933
20
-2.80154526292665
30
0
41
1
10
30.6578893459885
20
-2.72119300029661
30
0
41
1
10
30.289053807058
20
-2.47896705948892
30
0
41
1
10
30.0438837825793
20
-2.31588747522503
30
0
41
1
10
29.5545574480743
20
-1.98716470665428
30
0
41
1
10
29.3104026047861
20
-1.82151940020091
30
0
41
1
10
28.8227634013531
20
-1.48814906762718
30
0
41
1
10
28.5792706847579
20
-1.32043743451948
30
0
41
1
10
28.092441335841
20
-0.983713974125948
30
0
41
1
10
27.8491049603441
20
-0.814700349423674
30
0
41
1
10
27.1188867596124
20
-0.306339298952366
30
0
41
1
10
26.6318441840679
20
0.0343974021441511
30
0
41
1
10
25.8991695565512
20
0.54576067937117
30
0
41
1
10
25.6545877746947
20
0.716250689869895
30
0
41
1
10
25.1643736093854
20
1.0568373244522
30
0
41
1
10
24.9187529386682
20
1.22695837206439
30
0
41
1
10
24.6108067904503
20
1.43898306607167
30
0
41
1
10
24.549163769295
20
1.48135977831754
30
0
41
1
10
24.4260320261925
20
1.565858915131
30
0
41
1
10
24.2414689521462
20
1.69229215776673
30
0
41
1
10
24.0572647744357
20
1.8177424627431
30
0
41
1
10
23.6892860943041
20
2.06725182701814
30
0
41
1
10
23.4445450202892
20
2.23173831594596
30
0
41
1
10
22.9559064056555
20
2.55653015993323
30
0
41
1
10
22.7119974703359
20
2.71682837334097
30
0
41
1
10
22.2247282340153
20
3.03277325722047
30
0
41
1
10
21.9814006867039
20
3.18842414729519
30
0
41
1
10
21.2516277372498
20
3.64785662828663
30
0
41
1
10
20.7653022956854
20
3.9442146464483
30
0
41
1
10
20.0345135279275
20
4.37119404499487
30
0
41
1
10
19.7906989446629
20
4.51058308342215
30
0
41
1
10
19.4244063618924
20
4.71481775177526
30
0
41
1
10
19.3022135851752
20
4.7820842820862
30
0
41
1
10
19.0575385075851
20
4.91499685053867
30
0
41
1
10
18.9350579445527
20
4.98064327783101
30
0
41
1
10
18.6897799116556
20
5.11023941968659
30
0
41
1
10
18.5055829758884
20
5.206164579074
30
0
41
1
10
18.3209801217853
20
5.30010246568631
30
0
41
1
10
18.1978157173014
20
5.36227659482168
30
0
41
1
10
18.1361596980283
20
5.39315095112596
30
0
41
1
10
17.8279331499867
20
5.54622034293442
30
0
41
1
10
17.5821363439104
20
5.66421088770417
30
0
41
1
10
17.0918424449698
20
5.89089497821948
30
0
41
1
10
16.8473626358677
20
5.99955842928065
30
0
41
1
10
16.3592938798113
20
6.2073409356839
30
0
41
1
10
16.1155834192082
20
6.30665893684352
30
0
41
1
10
15.6285532615388
20
6.49585892501079
30
0
41
1
10
15.3852482526281
20
6.5857307791135
30
0
41
1
10
14.8988566546921
20
6.75562337409863
30
0
41
1
10
14.6557809927989
20
6.83561361737915
30
0
41
1
10
14.1695277970083
20
6.98539839294881
30
0
41
1
10
13.9263253452079
20
7.05525839287497
30
0
41
1
10
13.5611384462364
20
7.15230179275702
30
0
41
1
10
13.4393453737192
20
7.18335686519939
30
0
41
1
10
13.1955573981065
20
7.24295292897921
30
0
41
1
10
13.0735651629455
20
7.27148693257638
30
0
41
1
10
12.7072464009679
20
7.3531813996654
30
0
41
1
10
12.4625818568418
20
7.40242896962189
30
0
41
1
10
12.0946556482031
20
7.46802124435223
30
0
41
1
10
11.9718585017133
20
7.48850227925484
30
0
41
1
10
11.7873901448014
20
7.5171081960307
30
0
41
1
10
11.7258549824981
20
7.5262922650852
30
0
41
1
10
11.602685498136
20
7.54395730993002
30
0
41
1
10
11.5410317590672
20
7.55244071693201
30
0
41
1
10
11.2328559515394
20
7.59305219310372
30
0
41
1
10
10.9864568183544
20
7.6197955371569
30
0
41
1
10
10.6148672818454
20
7.65156407074011
30
0
41
1
10
10.4897466229369
20
7.66080207474627
30
0
41
1
10
10.3645761577014
20
7.66857824029
30
0
0
SPLINE
5
13E
100
AcDbEntity
8
1
62
256
6
ByLayer
370
18
48
1
60
0
100
AcDbSpline
70
4
71
3
72
16
73
12
40
0
40
0
40
0
40
0
40
0.449640319149349
40
0.449640319149349
40
0.674460478724021
40
0.674460478724021
40
0.786870558511357
40
0.786870558511357
40
0.899280638298694
40
0.899280638298694
40
1
40
1
40
1
40
1
41
1
10
10.0000000000001
20
-7.70506805378818
30
0
41
1
10
10.4885604799062
20
-7.79882998254647
30
0
41
1
10
10.9760062350653
20
-7.87052773267214
30
0
41
1
10
11.7076045030819
20
-7.94430364912071
30
0
41
1
10
11.9515439352232
20
-7.96327369540413
30
0
41
1
10
12.3178352423536
20
-7.98323886037818
30
0
41
1
10
12.4399483145597
20
-7.98847553852573
30
0
41
1
10
12.6840029658964
20
-7.99610541783383
30
0
41
1
10
12.8059813175599
20
-7.99850013365517
30
0
41
1
10
13.0372023315132
20
-8.00035726170648
30
0
41
1
10
13.1464497412013
20
-8.00010413761211
30
0
41
1
10
13.2556923559604
20
-7.99871473656205
30
0
0
SPLINE
5
13F
100
AcDbEntity
8
1
62
256
6
ByLayer
370
18
48
1
60
0
100
AcDbSpline
70
4
71
3
72
22
73
18
40
0
40
0
40
0
40
0
40
0.0521508039995926
40
0.106962328313851
40
0.161773852628109
40
0.216585376942366
40
0.271396901256624
40
0.326208425570882
40
0.38101994988514
40
0.490642998513656
40
0.600266047142172
40
0.65507757145643
40
0.709889095770687
40
0.764700620084945
40
0.819512144399203
40
0.929135193027719
40
1
40
1
40
1
40
1
41
1
10
20.9443969335755
20
7.96528755864654
30
0
41
1
10
21.1618493926464
20
7.95156284692138
30
0
41
1
10
21.6077606047917
20
7.91487917065282
30
0
41
1
10
22.2818911387789
20
7.83306210939384
30
0
41
1
10
22.9668071601451
20
7.72272928448348
30
0
41
1
10
23.6513948406619
20
7.5858468658864
30
0
41
1
10
24.3356748608626
20
7.42285877385115
30
0
41
1
10
25.0195752922335
20
7.23430886861325
30
0
41
1
10
25.9311497828383
20
6.94955419248859
30
0
41
1
10
27.0708533331954
20
6.53303159633109
30
0
41
1
10
28.212827177969
20
6.04065933241949
30
0
41
1
10
29.1289472803458
20
5.60424515727919
30
0
41
1
10
29.8175913426697
20
5.25654255356733
30
0
41
1
10
30.5080820018452
20
4.88941017147368
30
0
41
1
10
31.4316049009786
20
4.37536236716053
30
0
41
1
10
32.4280767155455
20
3.78647394831287
30
0
41
1
10
33.198088344691
20
3.30727975036484
30
0
41
1
10
33.5014074473201
20
3.11528046051873
30
0
0
SPLINE
5
140
100
AcDbEntity
8
1
62
256
6
ByLayer
370
18
48
1
60
0
100
AcDbSpline
70
4
71
3
72
72
73
68
40
0
40
0
40
0
40
0
40
0.0624999999999991
40
0.0624999999999991
40
0.0937499999999986
40
0.0937499999999986
40
0.109374999999998
40
0.109374999999998
40
0.124999999999998
40
0.124999999999998
40
0.156249999999998
40
0.156249999999998
40
0.187499999999997
40
0.187499999999997
40
0.203124999999997
40
0.203124999999997
40
0.218749999999996
40
0.249999999999995
40
0.281249999999994
40
0.281249999999994
40
0.296874999999994
40
0.296874999999994
40
0.312499999999994
40
0.312499999999994
40
0.374999999999996
40
0.374999999999996
40
0.390624999999996
40
0.390624999999996
40
0.406249999999996
40
0.437499999999998
40
0.437499999999998
40
0.46875
40
0.46875
40
0.484375000000001
40
0.484375000000001
40
0.500000000000002
40
0.562500000000004
40
0.562500000000004
40
0.578125000000004
40
0.578125000000004
40
0.593750000000005
40
0.593750000000005
40
0.625000000000006
40
0.625000000000006
40
0.656250000000007
40
0.656250000000007
40
0.671875000000007
40
0.671875000000007
40
0.687500000000007
40
0.687500000000007
40
0.75000000000001
40
0.75000000000001
40
0.78125000000001
40
0.78125000000001
40
0.79687500000001
40
0.79687500000001
40
0.81250000000001
40
0.81250000000001
40
0.875000000000007
40
0.875000000000007
40
0.906250000000005
40
0.906250000000005
40
0.921875000000004
40
0.921875000000004
40
0.937500000000003
40
0.937500000000003
40
1
40
1
40
1
40
1
41
1
10
10.0000000000001
20
7.60340316981868
30
0
41
1
10
10.4888204928425
20
7.49297418670997
30
0
41
1
10
10.9764616168386
20
7.36037971720282
30
0
41
1
10
11.7083893371583
20
7.12932579880717
30
0
41
1
10
11.9524448530679
20
7.04695523148789
30
0
41
1
10
12.318937545498
20
6.91554000749179
30
0
41
1
10
12.4411026641981
20
6.87044861864962
30
0
41
1
10
12.6852647489115
20
6.77781574403483
30
0
41
1
10
12.8072950446007
20
6.73026190700389
30
0
41
1
10
13.1733061933308
20
6.5839571038463
30
0
41
1
10
13.4172049302892
20
6.48158434109271
30
0
41
1
10
13.9051827276201
20
6.26736450307942
30
0
41
1
10
14.1492673978393
20
6.15549244849052
30
0
41
1
10
14.5158027688564
20
5.98087783513441
30
0
41
1
10
14.6380394283586
20
5.92153649087305
30
0
41
1
10
14.8823148435102
20
5.80079512810093
30
0
41
1
10
15.2485728354499
20
5.6165284437393
30
0
41
1
10
15.8585650733762
20
5.29404147683013
30
0
41
1
10
16.3467850056058
20
5.02037317804812
30
0
41
1
10
16.7132888040592
20
4.80946263060358
30
0
41
1
10
16.8355400056014
20
4.73819804424849
30
0
41
1
10
17.0798263875351
20
4.59404521077815
30
0
41
1
10
17.2019041546896
20
4.52113394369036
30
0
41
1
10
17.8120859810054
20
4.1525558428649
30
0
41
1
10
18.2995627569775
20
3.84483665754499
30
0
41
1
10
18.910098828521
20
3.44647670517821
30
0
41
1
10
19.0323114374321
20
3.36608679991394
30
0
41
1
10
19.2765821187508
20
3.20420393777408
30
0
41
1
10
19.642809451313
20
2.95969091016374
30
0
41
1
10
20.0087255692817
20
2.7104025525073
30
0
41
1
10
20.4967076783677
20
2.37428244583202
30
0
41
1
10
20.7407442859279
20
2.20435271106427
30
0
41
1
10
21.1071390403231
20
1.94700542164927
30
0
41
1
10
21.2293724328522
20
1.8607821415427
30
0
41
1
10
21.4737628937556
20
1.68774186809892
30
0
41
1
10
22.0844182202281
20
1.25374775720445
30
0
41
1
10
22.6940454792647
20
0.813567495023221
30
0
41
1
10
23.3045277557536
20
0.370756722594933
30
0
41
1
10
23.426693162019
20
0.282046060912364
30
0
41
1
10
23.6710500484654
20
0.104508975768994
30
0
41
1
10
23.7931532753544
20
0.0157467285135056
30
0
41
1
10
24.1593118131075
20
-0.250418193504174
30
0
41
1
10
24.4032155853469
20
-0.427699307529593
30
0
41
1
10
24.8910332182937
20
-0.781364651968545
30
0
41
1
10
25.1349489457586
20
-0.957746319530457
30
0
41
1
10
25.5011401029418
20
-1.22122135161357
30
0
41
1
10
25.6232563014851
20
-1.30886416469036
30
0
41
1
10
25.867641656504
20
-1.48371982754475
30
0
41
1
10
25.9897697335138
20
-1.57083157202672
30
0
41
1
10
26.5999821033835
20
-2.00450210509072
30
0
41
1
10
27.0870310505191
20
-2.3455505676846
30
0
41
1
10
27.8179544481991
20
-2.8456546794624
30
0
41
1
10
28.0616527610851
20
-3.01044425911113
30
0
41
1
10
28.4275565675247
20
-3.25439312179734
30
0
41
1
10
28.5495841443619
20
-3.33516954642207
30
0
41
1
10
28.7938048113348
20
-3.49558049543927
30
0
41
1
10
28.9160548367253
20
-3.57525163626894
30
0
41
1
10
29.5268087089088
20
-3.96993464927218
30
0
41
1
10
30.0142101713941
20
-4.27421275612681
30
0
41
1
10
30.7458102840924
20
-4.71084506790282
30
0
41
1
10
30.989761653372
20
-4.85308948688217
30
0
41
1
10
31.3561089816395
20
-5.0611650753807
30
0
41
1
10
31.47833660478
20
-5.12966418558895
30
0
41
1
10
31.7225762014545
20
-5.26461867747784
30
0
41
1
10
31.8446275773988
20
-5.33109706880958
30
0
41
1
10
32.4546612299029
20
-5.65838284662632
30
0
41
1
10
32.9419820969552
20
-5.90387360829854
30
0
41
1
10
33.4300504276148
20
-6.13156136395739
30
0
0
SPLINE
5
141
100
AcDbEntity
8
1
62
256
6
ByLayer
370
18
48
1
60
0
100
AcDbSpline
70
4
71
3
72
38
73
34
40
0
40
0
40
0
40
0
40
0.0622083477773931
40
0.078996862981549
40
0.095785378185705
40
0.112573893389861
40
0.129362408594017
40
0.162939439002329
40
0.196516469410641
40
0.213304984614797
40
0.230093499818953
40
0.246882015023109
40
0.263670530227265
40
0.330824591043888
40
0.3644016214522
40
0.397978651860512
40
0.431555682268824
40
0.465132712677136
40
0.53228677349376
40
0.549075288697916
40
0.565863803902072
40
0.599440834310384
40
0.666594895127008
40
0.683383410331164
40
0.70017192553532
40
0.733748955943631
40
0.767325986351943
40
0.800903016760255
40
0.834480047168567
40
0.868057077576879
40
0.935211138393503
40
0.968788168801815
40
1
40
1
40
1
40
1
41
1
10
8.00336395778385
20
1.98008633602737
30
0
41
1
10
8.42663882561789
20
1.66542600746334
30
0
41
1
10
8.9638957447595
20
1.25982245813842
30
0
41
1
10
9.61494799680128
20
0.763390513795855
30
0
41
1
10
9.95719472999048
20
0.501599399190184
30
0
41
1
10
10.2993556673968
20
0.239341723950872
30
0
41
1
10
10.7554555172623
20
-0.11062401029028
30
0
41
1
10
11.3253567649293
20
-0.547840377348905
30
0
41
1
10
11.8949743633682
20
-0.98287872011494
30
0
41
1
10
12.3504831432241
20
-1.32848873111129
30
0
41
1
10
12.6920254555875
20
-1.58617118320927
30
0
41
1
10
13.0334768078416
20
-1.84208713234392
30
0
41
1
10
13.7162170058401
20
-2.34984916297665
30
0
41
1
10
14.5123441146768
20
-2.92884243886868
30
0
41
1
10
15.4219781491867
20
-3.5639581464105
30
0
41
1
10
16.1041683538813
20
-4.02502274966054
30
0
41
1
10
16.7863961758072
20
-4.46884584756901
30
0
41
1
10
17.6961687445821
20
-5.03517205215294
30
0
41
1
10
18.4924346366815
20
-5.49419750885119
30
0
41
1
10
19.1751584292158
20
-5.85731157289302
30
0
41
1
10
19.630364260594
20
-6.09104476997069
30
0
41
1
10
20.4271267767427
20
-6.47741495201612
30
0
41
1
10
21.2241600280347
20
-6.81616156635215
30
0
41
1
10
21.907468883734
20
-7.0692657020374
30
0
41
1
10
22.3630370872819
20
-7.22789510186885
30
0
41
1
10
22.9325513082746
20
-7.40682558750484
30
0
41
1
10
23.6160272987707
20
-7.58977316951402
30
0
41
1
10
24.2995366782102
20
-7.74017518411125
30
0
41
1
10
24.9830008901722
20
-7.85730902778437
30
0
41
1
10
25.8943940823839
20
-7.96841217499332
30
0
41
1
10
26.8066656660335
20
-8.0114145888206
30
0
41
1
10
27.7050119310255
20
-7.98561274611353
30
0
41
1
10
28.1470096870445
20
-7.95140428471245
30
0
41
1
10
28.3601941013435
20
-7.92993521383741
30
0
0
SPLINE
5
142
100
AcDbEntity
8
1
62
256
6
ByLayer
370
18
48
1
60
0
100
AcDbSpline
70
4
71
3
72
8
73
4
40
0
40
0
40
0
40
0
40
1
40
1
40
1
40
1
41
1
10
7.96123284306756
20
7.93964357802747
30
0
41
0.999999984521824
10
7.96205612845786
20
7.93927719622392
30
0
41
0.999999984521824
10
7.9628794435535
20
7.9389110211797
30
0
41
1
10
7.96370278831626
20
7.93854505291174
30
0
0
SPLINE
5
143
100
AcDbEntity
8
1
62
256
6
ByLayer
370
18
48
1
60
0
100
AcDbSpline
70
4
71
3
72
9
73
5
40
0
40
0
40
0
40
0
40
0.499836604113571
40
1
40
1
40
1
40
1
41
1
10
7.92073299830801
20
-7.17620172526838
30
0
41
1
10
7.92579609649837
20
-7.1728687423051
30
0
41
1
10
7.93592560311848
20
-7.16620059728362
30
0
41
1
10
7.9460728401975
20
-7.15960272553141
30
0
41
1
10
7.95114811675384
20
-7.1563027115902
30
0
0
SPLINE
5
144
100
AcDbEntity
8
1
62
256
6
ByLayer
370
18
48
1
60
0
100
AcDbSpline
70
4
71
2
72
6
73
3
40
0
40
0
40
0
40
1
40
1
40
1
41
0.500000045908412
10
9.99850527078484
20
-7.70486709183548
30
0
41
0.499999954091588
10
9.99925243837592
20
-7.70497025502817
30
0
41
0.500000045908412
10
9.9999996186233
20
-7.70507338284122
30
0
0
SPLINE
5
145
100
AcDbEntity
8
1
62
256
6
ByLayer
370
18
48
1
60
0
100
AcDbSpline
70
4
71
3
72
19
73
15
40
0
40
0
40
0
40
0
40
0.0936144950737573
40
0.144902945149032
40
0.196191395224306
40
0.298768295374855
40
0.401345195525404
40
0.503922095675953
40
0.606498995826502
40
0.709075895977051
40
0.8116527961276
40
0.862941246202875
40
0.914229696278149
40
1
40
1
40
1
40
1
41
1
10
7.95114811675145
20
-7.15630271158943
30
0
41
1
10
8.15912351170181
20
-7.22258714885305
30
0
41
1
10
8.48102979874091
20
-7.31947615975201
30
0
41
1
10
8.91687579758556
20
-7.43826608503804
30
0
41
1
10
9.37263402008543
20
-7.55339062607365
30
0
41
1
10
9.94235610110223
20
-7.67972297424399
30
0
41
1
10
10.6261002440017
20
-7.80291958694485
30
0
41
1
10
11.3099838651618
20
-7.8971282830102
30
0
41
1
10
11.9940952028428
20
-7.96192283224568
30
0
41
1
10
12.678437137327
20
-7.99708565157286
30
0
41
1
10
13.2489289511184
20
-8.00163301464147
30
0
41
1
10
13.7054484882919
20
-7.99046245724682
30
0
41
1
10
14.1246420982525
20
-7.9709634417494
30
0
41
1
10
14.4297650755473
20
-7.9479472589509
30
0
41
1
10
14.6207406476457
20
-7.9300884842506
30
0
0
SPLINE
5
146
100
AcDbEntity
8
1
62
256
6
ByLayer
370
18
48
1
60
0
100
AcDbSpline
70
4
71
3
72
8
73
4
40
0
40
0
40
0
40
0
40
1
40
1
40
1
40
1
41
1
10
7.94862308923302
20
-7.15629077763685
30
0
41
0.999999984038568
10
7.94946473446562
20
-7.15629452570973
30
0
41
0.999999984038568
10
7.95030641031895
20
-7.15629850369424
30
0
41
1
10
7.95114811675271
20
-7.1563027115902
30
0
0
SPLINE
5
147
100
AcDbEntity
8
1
62
256
6
ByLayer
370
18
48
1
60
0
100
AcDbSpline
70
4
71
3
72
17
73
13
40
0
40
0
40
0
40
0
40
0.100251037057847
40
0.20044307811157
40
0.300577367949559
40
0.400655127735183
40
0.500677555146258
40
0.600645824519806
40
0.700561087002221
40
0.800424470704411
40
0.900237080861958
40
1
40
1
40
1
40
1
41
1
10
8.23077521692451
20
-6.90369428879046
30
0
41
1
10
8.22130063661325
20
-6.91175414471812
30
0
41
1
10
8.20235705161761
20
-6.92786911348739
30
0
41
1
10
8.17405363344409
20
-6.95234911152014
30
0
41
1
10
8.14584298258947
20
-6.97704283232727
30
0
41
1
10
8.11773251506531
20
-7.00197118784203
30
0
41
1
10
8.08972020587314
20
-7.02712618360994
30
0
41
1
10
8.06180673466113
20
-7.05250804568911
30
0
41
1
10
8.03399140009165
20
-7.07811302912199
30
0
41
1
10
8.00627632358723
20
-7.10394507992766
30
0
41
1
10
7.97865372639461
20
-7.12998139586801
30
0
41
1
10
7.96031513129648
20
-7.14753039615297
30
0
41
1
10
7.95114811675145
20
-7.15630271158943
30
0
0
SPLINE
5
148
100
AcDbEntity
8
1
62
256
6
ByLayer
370
18
48
1
60
0
100
AcDbSpline
70
4
71
3
72
8
73
4
40
0
40
0
40
0
40
0
40
1
40
1
40
1
40
1
41
1
10
8.08617292994845
20
-6.90519574529009
30
0
41
0.999949524064413
10
8.13426654274712
20
-6.90395330867355
30
0
41
0.999949524064413
10
8.18246973817353
20
-6.90345279790992
30
0
41
1
10
8.23077521692358
20
-6.90369428879043
30
0
0
SPLINE
5
149
100
AcDbEntity
8
1
62
256
6
ByLayer
370
18
48
1
60
0
100
AcDbSpline
70
4
71
3
72
26
73
22
40
0
40
0
40
0
40
0
40
0.0524900324255106
40
0.104992749688141
40
0.157508620532319
40
0.210038123896003
40
0.262581748600398
40
0.315139993056826
40
0.367713396703593
40
0.420302594674359
40
0.472908227747553
40
0.525530923262848
40
0.578171295232806
40
0.630829944457351
40
0.683507458640983
40
0.736204412512501
40
0.788921367947298
40
0.841658874092025
40
0.894417467491413
40
0.947197672217369
40
1
40
1
40
1
40
1
41
1
10
8.73571603752296
20
-6.21989673660698
30
0
41
1
10
8.72652966670279
20
-6.23116623472467
30
0
41
1
10
8.7081547050673
20
-6.25370795436757
30
0
41
1
10
8.68073242734687
20
-6.28782808937359
30
0
41
1
10
8.65340864359598
20
-6.3221758843361
30
0
41
1
10
8.62619365127617
20
-6.35677137308988
30
0
41
1
10
8.59908468892797
20
-6.39160677107097
30
0
41
1
10
8.57208248791315
20
-6.42668179072578
30
0
41
1
10
8.54518682779371
20
-6.46199420485817
30
0
41
1
10
8.51839778147925
20
-6.49754244415848
30
0
41
1
10
8.491715327798
20
-6.53332482233532
30
0
41
1
10
8.46513946207511
20
-6.56933970073641
30
0
41
1
10
8.43867017635878
20
-6.60558543624796
30
0
41
1
10
8.4123074597023
20
-6.64206038423202
30
0
41
1
10
8.38605132001766
20
-6.67876293521181
30
0
41
1
10
8.35990169624623
20
-6.71569136568911
30
0
41
1
10
8.33385878790838
20
-6.75284439905008
30
0
41
1
10
8.3079218239952
20
-6.79021911056506
30
0
41
1
10
8.28209366028284
20
-6.82781875130959
30
0
41
1
10
8.2563636114734
20
-6.86562353163094
30
0
41
1
10
8.2393058731609
20
-6.89100226384031
30
0
41
1
10
8.23077521692252
20
-6.90369428878975
30
0
0
SPLINE
5
14A
100
AcDbEntity
8
1
62
256
6
ByLayer
370
18
48
1
60
0
100
AcDbSpline
70
4
71
3
72
23
73
19
40
0
40
0
40
0
40
0
40
0.0394347329406923
40
0.0786032384566258
40
0.117771743972559
40
0.196108755004426
40
0.274445766036293
40
0.352782777068161
40
0.431119788100027
40
0.509456799131895
40
0.587793810163762
40
0.626962315679695
40
0.666130821195629
40
0.744467832227496
40
0.90114185429123
40
0.940310359807163
40
0.979478865323097
40
1
40
1
40
1
40
1
41
1
10
8.23077521692252
20
-6.90369428878975
30
0
41
1
10
8.34548854165027
20
-6.94383263132477
30
0
41
1
10
8.57413796805216
20
-7.02167496350503
30
0
41
1
10
8.91672718432451
20
-7.13169279274092
30
0
41
1
10
9.37248339487215
20
-7.26939505124801
30
0
41
1
10
9.94220951326349
20
-7.42447915568553
30
0
41
1
10
10.6259626586693
20
-7.58317593683199
30
0
41
1
10
11.3098384276506
20
-7.71380800229005
30
0
41
1
10
11.9939530292039
20
-7.81575492509401
30
0
41
1
10
12.6782922381244
20
-7.88841059143931
30
0
41
1
10
13.2487812785061
20
-7.92454518879927
30
0
41
1
10
13.7053003681925
20
-7.9389224745986
30
0
41
1
10
14.1618987304859
20
-7.94330267701255
30
0
41
1
10
14.9611926478882
20
-7.9251547386919
30
0
41
1
10
15.7609512360581
20
-7.8547301520702
30
0
41
1
10
16.4468276621296
20
-7.75811500558345
30
0
41
1
10
16.7354064417932
20
-7.71144060040976
30
0
41
1
10
16.9096749925801
20
-7.68042478143732
30
0
41
1
10
16.969590743072
20
-7.66942902053302
30
0
0
SPLINE
5
14B
100
AcDbEntity
8
1
62
256
6
ByLayer
370
18
48
1
60
0
100
AcDbSpline
70
4
71
3
72
8
73
4
40
0
40
0
40
0
40
0
40
1
40
1
40
1
40
1
41
1
10
8.13265408889251
20
-6.35669991237594
30
0
41
1
10
8.33054934507416
20
-6.30068516935111
30
0
41
1
10
8.53150067116499
20
-6.25506217703116
30
0
41
1
10
8.73563204240094
20
-6.2202524963698
30
0
0
SPLINE
5
14C
100
AcDbEntity
8
1
62
256
6
ByLayer
370
18
48
1
60
0
100
AcDbSpline
70
4
71
3
72
10
73
6
40
0
40
0
40
0
40
0
40
0.5
40
0.5
40
1
40
1
40
1
40
1
41
1
10
10
20
-6.63219792776499
30
0
41
1
10
9.78727928269723
20
-6.57064389918003
30
0
41
1
10
9.57548665618876
20
-6.50579075259452
30
0
41
1
10
9.15401889655573
20
-6.36855732890791
30
0
41
1
10
8.94435102169493
20
-6.29615125059416
30
0
41
1
10
8.73579184551821
20
-6.2198040408644
30
0
0
SPLINE
5
14D
100
AcDbEntity
8
1
62
256
6
ByLayer
370
18
48
1
60
0
100
AcDbSpline
70
4
71
3
72
10
73
6
40
0
40
0
40
0
40
0
40
0.5
40
0.5
40
1
40
1
40
1
40
1
41
1
10
8.00102971661806
20
1.98203417198468
30
0
41
1
10
8.01087784895665
20
2.06775662660991
30
0
41
1
10
8.02894037481363
20
2.1514959793796
30
0
41
1
10
8.08054162384133
20
2.31508428805208
30
0
41
1
10
8.1138769358931
20
2.3941190474782
30
0
41
1
10
8.15375749760588
20
2.46980556413729
30
0
0
SPLINE
5
14E
100
AcDbEntity
8
1
62
256
6
ByLayer
370
18
48
1
60
0
100
AcDbSpline
70
4
71
3
72
15
73
11
40
0
40
0
40
0
40
0
40
0.249999999999999
40
0.499999999999999
40
0.499999999999999
40
0.624999999999998
40
0.624999999999998
40
0.749999999999997
40
0.749999999999997
40
1
40
1
40
1
40
1
41
1
10
8.15375750468144
20
2.4698055595006
30
0
41
1
10
8.14175896542167
20
2.54666443403588
30
0
41
1
10
8.12718028467447
20
2.69933029363341
30
0
41
1
10
8.13088204127629
20
2.84992084379704
30
0
41
1
10
8.14049083916106
20
2.96209058388121
30
0
41
1
10
8.14483440667789
20
2.99935157864883
30
0
41
1
10
8.15582196515228
20
3.07361590651863
30
0
41
1
10
8.16247329358953
20
3.11065371433489
30
0
41
1
10
8.18588449804125
20
3.22116482628184
30
0
41
1
10
8.2058339163882
20
3.29286518294867
30
0
41
1
10
8.22984455689684
20
3.36274475184325
30
0
0
SPLINE
5
14F
100
AcDbEntity
8
1
62
256
6
ByLayer
370
18
48
1
60
0
100
AcDbSpline
70
4
71
3
72
8
73
4
40
0
40
0
40
0
40
0
40
1
40
1
40
1
40
1
41
1
10
7.93316713712935
20
7.93409946271478
30
0
41
1
10
7.94224420995957
20
7.93601054408617
30
0
41
1
10
7.95160215567904
20
7.93785740349506
30
0
41
1
10
7.96123284306972
20
7.93964357802651
30
0
0
SPLINE
5
150
100
AcDbEntity
8
1
62
256
6
ByLayer
370
18
48
1
60
0
100
AcDbSpline
70
4
71
3
72
16
73
12
40
0
40
0
40
0
40
0
40
0.250000000000006
40
0.250000000000006
40
0.375000000000008
40
0.375000000000008
40
0.500000000000011
40
0.500000000000011
40
0.750000000000005
40
0.750000000000005
40
1
40
1
40
1
40
1
41
1
10
7.96123284306691
20
7.93964357802682
30
0
41
1
10
7.96482726905504
20
7.94519649192054
30
0
41
1
10
7.97059422425747
20
7.9503235862916
30
0
41
1
10
7.98238450152979
20
7.95740418103097
30
0
41
1
10
7.98683857559175
20
7.95966266835231
30
0
41
1
10
7.99678226832796
20
7.96398062823852
30
0
41
1
10
8.00227706405292
20
7.96604135836515
30
0
41
1
10
8.02022721297388
20
7.97190925844626
30
0
41
1
10
8.03417497758673
20
7.97541302601607
30
0
41
1
10
8.06578119450396
20
7.98164557215054
30
0
41
1
10
8.0833998718245
20
7.98436820488189
30
0
41
1
10
8.10274810407557
20
7.98673394808773
30
0
0
SPLINE
5
151
100
AcDbEntity
8
1
62
256
6
ByLayer
370
18
48
1
60
0
100
AcDbSpline
70
4
71
3
72
9
73
5
40
0
40
0
40
0
40
0
40
0.532682955986365
40
1
40
1
40
1
40
1
41
1
10
8.10274810407356
20
7.98673394808787
30
0
41
1
10
8.08826998745835
20
7.99144834673237
30
0
41
1
10
8.07029792921304
20
7.99793782734551
30
0
41
1
10
8.06901547277803
20
8.00000248133381
30
0
41
1
10
8.07203611205696
20
8.00000000566098
30
0
0
SPLINE
5
152
100
AcDbEntity
8
1
62
256
6
ByLayer
370
18
48
1
60
0
100
AcDbSpline
70
4
71
3
72
18
73
14
40
0
40
0
40
0
40
0
40
0.250000000000002
40
0.250000000000002
40
0.375000000000003
40
0.375000000000003
40
0.500000000000003
40
0.500000000000003
40
0.625000000000004
40
0.625000000000004
40
0.750000000000005
40
0.750000000000005
40
1
40
1
40
1
40
1
41
1
10
7.92072826753699
20
-7.17620484585342
30
0
41
1
10
8.09408387594834
20
-7.23063964318584
30
0
41
1
10
8.26749511749733
20
-7.2824326015795
30
0
41
1
10
8.52698821835691
20
-7.35654595110887
30
0
41
1
10
8.61333745675827
20
-7.38067589663123
30
0
41
1
10
8.7859209368963
20
-7.42766823698568
30
0
41
1
10
8.87220925793892
20
-7.45050040249006
30
0
41
1
10
9.04524831448123
20
-7.49461193306371
30
0
41
1
10
9.13194876243719
20
-7.515920991428
30
0
41
1
10
9.30529237194165
20
-7.55725895160805
30
0
41
1
10
9.39190136275906
20
-7.57730139835053
30
0
41
1
10
9.651692635172
20
-7.63545896242445
30
0
41
1
10
9.82487649196642
20
-7.67158172854519
30
0
41
1
10
9.99850527077675
20
-7.7048670918349
30
0
0
SPLINE
5
153
100
AcDbEntity
8
1
62
256
6
ByLayer
370
18
48
1
60
0
100
AcDbSpline
70
4
71
3
72
8
73
4
40
0
40
0
40
0
40
0
40
1
40
1
40
1
40
1
41
1
10
7.92073759804415
20
-7.17619887985975
30
0
41
1
10
7.92974895979856
20
-7.16952218660231
30
0
41
1
10
7.9390469498579
20
-7.1628860529444
30
0
41
1
10
7.94862308923544
20
-7.15629077763688
30
0
0
SPLINE
5
154
100
AcDbEntity
8
1
62
256
6
ByLayer
370
18
48
1
60
0
100
AcDbSpline
70
4
71
3
72
16
73
12
40
0
40
0
40
0
40
0
40
0.249999999999991
40
0.249999999999991
40
0.374999999999989
40
0.374999999999989
40
0.499999999999986
40
0.499999999999986
40
0.749999999999993
40
0.749999999999993
40
1
40
1
40
1
40
1
41
1
10
7.94862308923317
20
-7.15629077763612
30
0
41
1
10
7.95175126655684
20
-7.13589237930086
30
0
41
1
10
7.9570907003654
20
-7.11529808135205
30
0
41
1
10
7.96829202667317
20
-7.08412675647804
30
0
41
1
10
7.972558531153
20
-7.07368969615015
30
0
41
1
10
7.98214389607239
20
-7.05272499324832
30
0
41
1
10
7.98746737457455
20
-7.0421906499748
30
0
41
1
10
8.00492705036564
20
-7.01058459567344
30
0
41
1
10
8.01858102861522
20
-6.98945017578589
30
0
41
1
10
8.04965495021904
20
-6.94721905918502
30
0
41
1
10
8.06703639268298
20
-6.92616877664037
30
0
41
1
10
8.08617292995271
20
-6.90519574528997
30
0
0
SPLINE
5
155
100
AcDbEntity
8
1
62
256
6
ByLayer
370
18
48
1
60
0
100
AcDbSpline
70
4
71
3
72
15
73
11
40
0
40
0
40
0
40
0
40
0.250000000000001
40
0.500000000000003
40
0.500000000000003
40
0.625000000000003
40
0.625000000000003
40
0.750000000000004
40
0.750000000000004
40
1
40
1
40
1
40
1
41
1
10
8.08617292995118
20
-6.90519574528935
30
0
41
1
10
8.07081793838933
20
-6.8636245890319
30
0
41
1
10
8.05005962140726
20
-6.77828770709641
30
0
41
1
10
8.04848652195767
20
-6.68856008679336
30
0
41
1
10
8.05443601393708
20
-6.6196115496324
30
0
41
1
10
8.0576094521094
20
-6.59635317354886
30
0
41
1
10
8.06635069043168
20
-6.54928356779314
30
0
41
1
10
8.0719265871829
20
-6.5254438308902
30
0
41
1
10
8.09224057166037
20
-6.45327203607005
30
0
41
1
10
8.11033402136147
20
-6.40502886969367
30
0
41
1
10
8.13265408889561
20
-6.35669991236929
30
0
0
SPLINE
5
156
100
AcDbEntity
8
1
62
256
6
ByLayer
370
18
48
1
60
0
100
AcDbSpline
70
4
71
3
72
38
73
34
40
0
40
0
40
0
40
0
40
0.250000000000038
40
0.250000000000038
40
0.375000000000044
40
0.375000000000044
40
0.50000000000005
40
0.50000000000005
40
0.562500000000054
40
0.562500000000054
40
0.59375000000005
40
0.59375000000005
40
0.625000000000046
40
0.625000000000046
40
0.656250000000042
40
0.656250000000042
40
0.687500000000038
40
0.687500000000038
40
0.718750000000035
40
0.718750000000035
40
0.750000000000031
40
0.750000000000031
40
0.781250000000027
40
0.781250000000027
40
0.812500000000023
40
0.812500000000023
40
0.843750000000019
40
0.843750000000019
40
0.875000000000015
40
0.875000000000015
40
0.937500000000008
40
0.937500000000008
40
1
40
1
40
1
40
1
41
1
10
3.93083096015221
20
-3.84794137902671
30
0
41
1
10
3.90361311165339
20
-3.82224421618159
30
0
41
1
10
3.87754227111404
20
-3.79565862114609
30
0
41
1
10
3.84167712298668
20
-3.75333290956968
30
0
41
1
10
3.83023912678797
20
-3.73876344639362
30
0
41
1
10
3.80931359803054
20
-3.70860879815874
30
0
41
1
10
3.79976363278723
20
-3.69300732924106
30
0
41
1
10
3.78812983833902
20
-3.66837576272189
30
0
41
1
10
3.78474466381786
20
-3.66002879179979
30
0
41
1
10
3.78073470437741
20
-3.64721614214432
30
0
41
1
10
3.77957777191992
20
-3.64289609413004
30
0
41
1
10
3.77771528901488
20
-3.63413321466052
30
0
41
1
10
3.77700844036144
20
-3.62966714451949
30
0
41
1
10
3.7761940535693
20
-3.62075112422366
30
0
41
1
10
3.77608149629924
20
-3.61629175195532
30
0
41
1
10
3.7765823630225
20
-3.60737063987628
30
0
41
1
10
3.77720679487766
20
-3.60286839428778
30
0
41
1
10
3.77931664490359
20
-3.59409697315164
30
0
41
1
10
3.7807925103474
20
-3.5898332090434
30
0
41
1
10
3.78467992511799
20
-3.58157791930245
30
0
41
1
10
3.78712191294005
20
-3.57756293912371
30
0
41
1
10
3.79275940020224
20
-3.57016849233432
30
0
41
1
10
3.79596812035152
20
-3.56674367745598
30
0
41
1
10
3.80310495809954
20
-3.56039746268655
30
0
41
1
10
3.80701410817406
20
-3.55750233591354
30
0
41
1
10
3.81516656745885
20
-3.55233802750198
30
0
41
1
10
3.81944360440434
20
-3.55003826111516
30
0
41
1
10
3.82832530819681
20
-3.54589992912602
30
0
41
1
10
3.83295129730345
20
-3.5440563725063
30
0
41
1
10
3.84695692005042
20
-3.53919665469189
30
0
41
1
10
3.85653577455042
20
-3.53679397167085
30
0
41
1
10
3.87600641093175
20
-3.53307340035488
30
0
41
1
10
3.88592190406581
20
-3.53176266092862
30
0
41
1
10
3.89589604159414
20
-3.53085468120622
30
0
0
SPLINE
5
157
100
AcDbEntity
8
1
62
256
6
ByLayer
370
18
48
1
60
0
100
AcDbSpline
70
4
71
3
72
29
73
25
40
0
40
0
40
0
40
0
40
0.124999999999993
40
0.124999999999993
40
0.249999999999986
40
0.249999999999986
40
0.312499999999993
40
0.312499999999993
40
0.375
40
0.375
40
0.500000000000014
40
0.500000000000014
40
0.562500000000012
40
0.562500000000012
40
0.62500000000001
40
0.687500000000008
40
0.687500000000008
40
0.750000000000006
40
0.750000000000006
40
0.875000000000003
40
0.875000000000003
40
0.937500000000001
40
0.937500000000001
40
1
40
1
40
1
40
1
41
1
10
3.89589604159411
20
-3.53085468120625
30
0
41
1
10
3.93544088520645
20
-3.52725477935783
30
0
41
1
10
3.97472533688202
20
-3.52243699835225
30
0
41
1
10
4.05263336768363
20
-3.50970236040857
30
0
41
1
10
4.09125840864729
20
-3.50179259345123
30
0
41
1
10
4.1485416989006
20
-3.48684815512948
30
0
41
1
10
4.1674931000106
20
-3.48135453914654
30
0
41
1
10
4.20472121960213
20
-3.4693090967672
30
0
41
1
10
4.22304421487669
20
-3.46274592631067
30
0
41
1
10
4.27702896153477
20
-3.44122337503555
30
0
41
1
10
4.31171811260174
20
-3.42445373823631
30
0
41
1
10
4.36119119536758
20
-3.39449737518342
30
0
41
1
10
4.37733213859616
20
-3.38363628431347
30
0
41
1
10
4.40791426921913
20
-3.36059285277741
30
0
41
1
10
4.43693268298927
20
-3.33616876121738
30
0
41
1
10
4.46268179377765
20
-3.30884098115232
30
0
41
1
10
4.48672016858589
20
-3.27998390945413
30
0
41
1
10
4.49792202925801
20
-3.26470845961487
30
0
41
1
10
4.52812004600466
20
-3.2177185144225
30
0
41
1
10
4.5440173386082
20
-3.18455382883127
30
0
41
1
10
4.562336799951
20
-3.13234821488913
30
0
41
1
10
4.56752174275337
20
-3.11450072361808
30
0
41
1
10
4.57606283624546
20
-3.07854278621642
30
0
41
1
10
4.57944414605933
20
-3.06037260964456
30
0
41
1
10
4.58203605171698
20
-3.04202820147947
30
0
0
SPLINE
5
158
100
AcDbEntity
8
1
62
256
6
ByLayer
370
18
48
1
60
0
100
AcDbSpline
70
4
71
3
72
18
73
14
40
0
40
0
40
0
40
0
40
0.25
40
0.25
40
0.499999999999999
40
0.499999999999999
40
0.625000000000001
40
0.625000000000001
40
0.687500000000002
40
0.687500000000002
40
0.750000000000002
40
0.750000000000002
40
1
40
1
40
1
40
1
41
1
10
4.58203605171681
20
-3.04202820147947
30
0
41
1
10
4.39676428495682
20
-2.81268630424248
30
0
41
1
10
4.22232780579063
20
-2.57451212363017
30
0
41
1
10
3.89440981579324
20
-2.08016914033664
30
0
41
1
10
3.74092308203379
20
-1.82400542686219
30
0
41
1
10
3.52583853009463
20
-1.42592325418426
30
0
41
1
10
3.45666812941997
20
-1.29092161178338
30
0
41
1
10
3.3566370487963
20
-1.08489374458705
30
0
41
1
10
3.323914200817
20
-1.01563004036896
30
0
41
1
10
3.25970127671175
20
-0.875913890346823
30
0
41
1
10
3.22819247455479
20
-0.805413529661649
30
0
41
1
10
3.07445891756382
20
-0.451670388789864
30
0
41
1
10
2.96303585296855
20
-0.163448716539108
30
0
41
1
10
2.86224823779324
20
0.129700848823859
30
0
0
SPLINE
5
159
100
AcDbEntity
8
1
62
256
6
ByLayer
370
18
48
1
60
0
100
AcDbSpline
70
4
71
3
72
28
73
24
40
0
40
0
40
0
40
0
40
0.124999999999998
40
0.124999999999998
40
0.249999999999995
40
0.249999999999995
40
0.312499999999995
40
0.312499999999995
40
0.374999999999994
40
0.374999999999994
40
0.499999999999994
40
0.499999999999994
40
0.562499999999996
40
0.562499999999996
40
0.624999999999998
40
0.624999999999998
40
0.750000000000003
40
0.750000000000003
40
0.812500000000006
40
0.812500000000006
40
0.875000000000008
40
0.875000000000008
40
1
40
1
40
1
40
1
41
1
10
2.86224823779324
20
0.129700848823831
30
0
41
1
10
2.84831958797184
20
0.170213541123758
30
0
41
1
10
2.83654563335884
20
0.211155906947852
30
0
41
1
10
2.81803786578064
20
0.294047699482519
30
0
41
1
10
2.8112993945268
20
0.335996181552815
30
0
41
1
10
2.80573200183767
20
0.399827971839613
30
0
41
1
10
2.80464147244069
20
0.421310785791036
30
0
41
1
10
2.80413135413323
20
0.463898174461207
30
0
41
1
10
2.80470107683038
20
0.485080165764458
30
0
41
1
10
2.80896925543706
20
0.548280700771812
30
0
41
1
10
2.81522115789269
20
0.589954511851516
30
0
41
1
10
2.83013413444632
20
0.651723066422107
30
0
41
1
10
2.83603843290197
20
0.672216667222557
30
0
41
1
10
2.84974479145322
20
0.712829306828439
30
0
41
1
10
2.85745046652338
20
0.732671215169347
30
0
41
1
10
2.88300906830449
20
0.790868793101538
30
0
41
1
10
2.90329856425285
20
0.827899075789134
30
0
41
1
10
2.93824773862528
20
0.8809958798183
30
0
41
1
10
2.95065205563301
20
0.89828698896622
30
0
41
1
10
2.9769193788355
20
0.9320735395886
30
0
41
1
10
2.99064660731227
20
0.948395668112767
30
0
41
1
10
3.03346206523034
20
0.995792014931197
30
0
41
1
10
3.0641778453076
20
1.02530225473569
30
0
41
1
10
3.09676851321538
20
1.0530154514997
30
0
0
SPLINE
5
15A
100
AcDbEntity
8
1
62
256
6
ByLayer
370
18
48
1
60
0
100
AcDbSpline
70
4
71
3
72
45
73
41
40
0
40
0
40
0
40
0
40
0.0312499999999987
40
0.0312499999999987
40
0.0624999999999974
40
0.0624999999999974
40
0.0937499999999961
40
0.0937499999999961
40
0.124999999999995
40
0.124999999999995
40
0.140624999999996
40
0.140624999999996
40
0.156249999999997
40
0.156249999999997
40
0.187499999999995
40
0.187499999999995
40
0.249999999999993
40
0.249999999999993
40
0.31249999999999
40
0.31249999999999
40
0.343749999999988
40
0.343749999999988
40
0.374999999999987
40
0.374999999999987
40
0.437499999999988
40
0.437499999999988
40
0.499999999999988
40
0.499999999999988
40
0.62499999999999
40
0.62499999999999
40
0.68749999999999
40
0.68749999999999
40
0.718749999999992
40
0.718749999999992
40
0.749999999999994
40
0.812499999999995
40
0.812499999999995
40
0.874999999999996
40
0.874999999999996
40
1
40
1
40
1
40
1
41
1
10
3.09676851321535
20
1.0530154514997
30
0
41
1
10
3.14598912405262
20
1.09486977853706
30
0
41
1
10
3.19725049605248
20
1.13298079928995
30
0
41
1
10
3.30296424293996
20
1.20337059809447
30
0
41
1
10
3.35742309676394
20
1.23563732280172
30
0
41
1
10
3.46897516574549
20
1.29537220002527
30
0
41
1
10
3.52607150230924
20
1.32283454781779
30
0
41
1
10
3.64251781299259
20
1.37366747247182
30
0
41
1
10
3.70186945407343
20
1.39703495068576
30
0
41
1
10
3.79238412327896
20
1.42939416295908
30
0
41
1
10
3.82279565487306
20
1.43972535458448
30
0
41
1
10
3.88367891850928
20
1.45941468683966
30
0
41
1
10
3.91420308205295
20
1.46879199291513
30
0
41
1
10
4.00600459866772
20
1.49562895527114
30
0
41
1
10
4.06751025672668
20
1.51179783122717
30
0
41
1
10
4.25282494204149
20
1.55580693816844
30
0
41
1
10
4.37742566158897
20
1.57918450941187
30
0
41
1
10
4.6283415013782
20
1.61631918227101
30
0
41
1
10
4.75466010154722
20
1.63005615593536
30
0
41
1
10
4.94525019827995
20
1.64443787643836
30
0
41
1
10
5.00896653631344
20
1.64818904466071
30
0
41
1
10
5.13675104575464
20
1.65372381715289
30
0
41
1
10
5.20069067604427
20
1.655500968296
30
0
41
1
10
5.39238056675308
20
1.65803918832407
30
0
41
1
10
5.52011788876862
20
1.65602118329107
30
0
41
1
10
5.77549177752238
20
1.64529941856407
30
0
41
1
10
5.90321949252828
20
1.63657720421185
30
0
41
1
10
6.28455444578267
20
1.60129635876135
30
0
41
1
10
6.53686073944769
20
1.56567470937242
30
0
41
1
10
6.9128129793734
20
1.49628136872568
30
0
41
1
10
7.03771006847379
20
1.47047394858254
30
0
41
1
10
7.22445510810701
20
1.42791503035832
30
0
41
1
10
7.28660162634046
20
1.41308652454529
30
0
41
1
10
7.4104879651147
20
1.38222349699444
30
0
41
1
10
7.59578814359415
20
1.33410144258818
30
0
41
1
10
7.77954236002958
20
1.28062429914843
30
0
41
1
10
8.02323795687423
20
1.20474992206988
30
0
41
1
10
8.1444885815533
20
1.16450471153581
30
0
41
1
10
8.50569452563673
20
1.03739154234219
30
0
41
1
10
8.74324089265423
20
0.94411983326944
30
0
41
1
10
8.97783206775034
20
0.842988831729429
30
0
0
SPLINE
5
15B
100
AcDbEntity
8
1
62
256
6
ByLayer
370
18
48
1
60
0
100
AcDbSpline
70
4
71
3
72
8
73
4
40
0
40
0
40
0
40
0
40
1
40
1
40
1
40
1
41
1
10
7.97219876239757
20
1.94038621433415
30
0
41
1
10
7.98154128862208
20
1.95445264935969
30
0
41
1
10
7.99115406937801
20
1.96833346421928
30
0
41
1
10
8.00102970882855
20
1.98203417751679
30
0
0
SPLINE
5
15C
100
AcDbEntity
8
1
62
256
6
ByLayer
370
18
48
1
60
0
100
AcDbSpline
70
4
71
3
72
42
73
38
40
0
40
0
40
0
40
0
40
0.0240705538635936
40
0.0374979561834051
40
0.0509253585032165
40
0.0777801631428394
40
0.104634967782462
40
0.131489772422085
40
0.158344577061708
40
0.185199381701331
40
0.212054186340954
40
0.225481588660765
40
0.238908990980577
40
0.2657637956202
40
0.319473404899445
40
0.332900807219257
40
0.346328209539068
40
0.373183014178691
40
0.426892623457937
40
0.440320025777748
40
0.45374742809756
40
0.480602232737183
40
0.534311842016428
40
0.561166646656051
40
0.588021451295674
40
0.614876255935297
40
0.64173106057492
40
0.668585865214543
40
0.695440669854166
40
0.749150279133412
40
0.802859888412657
40
0.82971469305228
40
0.856569497691903
40
0.883424302331526
40
0.910279106971149
40
0.963988716250395
40
1
40
1
40
1
40
1
41
1
10
7.96370278831486
20
7.93854505291145
30
0
41
1
10
8.16786489546212
20
7.92033733471126
30
0
41
1
10
8.48590281482069
20
7.88560471857349
30
0
41
1
10
8.91782518879646
20
7.82496409016213
30
0
41
1
10
9.37336371043384
20
7.75106341410503
30
0
41
1
10
9.94281217123969
20
7.63989526670454
30
0
41
1
10
10.6262327082083
20
7.47714597914987
30
0
41
1
10
11.3098024700031
20
7.28555524425974
30
0
41
1
10
11.9936170563786
20
7.06572823212076
30
0
41
1
10
12.6776802201141
20
6.81855313660236
30
0
41
1
10
13.2479565404445
20
6.59060994086013
30
0
41
1
10
13.7043143569015
20
6.3956263489772
30
0
41
1
10
14.1607584477856
20
6.19228256382434
30
0
41
1
10
14.9597886155697
20
5.81519585748049
30
0
41
1
10
15.7593455604132
20
5.39769552739352
30
0
41
1
10
16.4450851034192
20
5.01442196796151
30
0
41
1
10
16.9023511069464
20
4.75235308204267
30
0
41
1
10
17.7028256164753
20
4.2771312585466
30
0
41
1
10
18.5035126376028
20
3.77183506403785
30
0
41
1
10
19.1895419069265
20
3.32171268711647
30
0
41
1
10
19.6467875006603
20
3.01739321348458
30
0
41
1
10
20.4466617644679
20
2.47447952998374
30
0
41
1
10
21.3601012361021
20
1.8341225137801
30
0
41
1
10
22.2728088177009
20
1.18139817128909
30
0
41
1
10
22.9569670796915
20
0.687545056774866
30
0
41
1
10
23.6407300666873
20
0.191336701978372
30
0
41
1
10
24.3241166853667
20
-0.305363268394728
30
0
41
1
10
25.007059296631
20
-0.800543004511553
30
0
41
1
10
25.9173093942233
20
-1.45644260671708
30
0
41
1
10
27.055470566688
20
-2.26417505147737
30
0
41
1
10
28.196547354913
20
-3.04485885240754
30
0
41
1
10
29.1126330712767
20
-3.64673875847097
30
0
41
1
10
29.8016695622489
20
-4.08519743824334
30
0
41
1
10
30.4930542255097
20
-4.50910266152775
30
0
41
1
10
31.4185405580138
20
-5.05273129663894
30
0
41
1
10
32.4297486734865
20
-5.60402862201275
30
0
41
1
10
33.215390654748
20
-5.98906123734707
30
0
41
1
10
33.5320773505255
20
-6.13662501242086
30
0
0
SPLINE
5
15D
100
AcDbEntity
8
1
62
256
6
ByLayer
370
18
48
1
60
0
100
AcDbSpline
70
4
71
3
72
9
73
5
40
0
40
0
40
0
40
0
40
0.499834206510879
40
1
40
1
40
1
40
1
41
1
10
7.93316212102397
20
7.93409833747583
30
0
41
1
10
7.93824599528901
20
7.93482117035069
30
0
41
1
10
7.94841711643031
20
7.93626731562333
30
0
41
1
10
7.95860643813958
20
7.9377856393298
30
0
41
1
10
7.96370278831745
20
7.93854505291119
30
0
0
SPLINE
5
15E
100
AcDbEntity
8
1
62
256
6
ByLayer
370
18
48
1
60
0
100
AcDbSpline
70
4
71
3
72
18
73
14
40
0
40
0
40
0
40
0
40
0.249999999999993
40
0.249999999999993
40
0.374999999999993
40
0.374999999999993
40
0.499999999999993
40
0.499999999999993
40
0.624999999999993
40
0.624999999999993
40
0.749999999999994
40
0.749999999999994
40
1
40
1
40
1
40
1
41
1
10
7.93315696676223
20
7.93409761050467
30
0
41
1
10
8.10548504785785
20
7.91812709010611
30
0
41
1
10
8.27786326528269
20
7.89930676995013
30
0
41
1
10
8.53576243961376
20
7.86660797181528
30
0
41
1
10
8.62156856491637
20
7.85494780966124
30
0
41
1
10
8.79307951670415
20
7.83014187249924
30
0
41
1
10
8.8788405689875
20
7.8170100748724
30
0
41
1
10
9.05084428872723
20
7.78944519742353
30
0
41
1
10
9.13703079991944
20
7.77499982987356
30
0
41
1
10
9.30933829914309
20
7.74465318257154
30
0
41
1
10
9.3954257806015
20
7.72873773799051
30
0
41
1
10
9.6536576080434
20
7.67880172798579
30
0
41
1
10
9.82580621797271
20
7.64259778441445
30
0
41
1
10
9.99842046087858
20
7.60366827228683
30
0
0
SPLINE
5
15F
100
AcDbEntity
8
1
62
256
6
ByLayer
370
18
48
1
60
0
100
AcDbSpline
70
4
71
2
72
6
73
3
40
0
40
0
40
0
40
1
40
1
40
1
41
0.499999990971879
10
9.99842046088921
20
7.60366827228585
30
0
41
0.500000009028121
10
9.99921002169078
20
7.6035382490904
30
0
41
0.499999990971879
10
9.99999959700958
20
7.60340818433041
30
0
0
SPLINE
5
160
100
AcDbEntity
8
1
62
256
6
ByLayer
370
18
48
1
60
0
100
AcDbSpline
70
4
71
3
72
44
73
40
40
0
40
0
40
0
40
0
40
0.101864111282069
40
0.101864111282069
40
0.152796166923103
40
0.152796166923103
40
0.203728222564137
40
0.203728222564137
40
0.305592333846206
40
0.305592333846206
40
0.331058361666723
40
0.331058361666723
40
0.35652438948724
40
0.35652438948724
40
0.407456445128272
40
0.407456445128272
40
0.509320556410337
40
0.509320556410337
40
0.534786584230853
40
0.534786584230853
40
0.56025261205137
40
0.56025261205137
40
0.611184667692404
40
0.611184667692404
40
0.713048778974471
40
0.713048778974471
40
0.738514806794988
40
0.738514806794988
40
0.763980834615506
40
0.763980834615506
40
0.814912890256542
40
0.814912890256542
40
0.916777001538613
40
0.916777001538613
40
0.942243029359131
40
0.942243029359131
40
0.967709057179649
40
0.967709057179649
40
1
40
1
40
1
40
1
41
1
10
10.0000000000001
20
0.403871463826306
30
0
41
1
10
10.490318361226
20
0.0281089694068726
30
0
41
1
10
10.9792410543074
20
-0.347984313743353
30
0
41
1
10
11.7131928623357
20
-0.909163433298687
30
0
41
1
10
11.9579390392723
20
-1.09572870874206
30
0
41
1
10
12.4480959533808
20
-1.46724967516292
30
0
41
1
10
12.6928143366954
20
-1.65166202728736
30
0
41
1
10
13.4262318351748
20
-2.1997127623826
30
0
41
1
10
13.9143668334176
20
-2.55829189452697
30
0
41
1
10
14.525800563515
20
-2.99523793245413
30
0
41
1
10
14.6481500323497
20
-3.08206302752276
30
0
41
1
10
14.8930297334004
20
-3.25451329615961
30
0
41
1
10
15.0156136962554
20
-3.34017573928171
30
0
41
1
10
15.3833432885373
20
-3.59499933780998
30
0
41
1
10
15.6280922135411
20
-3.76173598572268
30
0
41
1
10
16.3617317438555
20
-4.25187635093747
30
0
41
1
10
16.8499815728975
20
-4.56524494410749
30
0
41
1
10
17.4614436385166
20
-4.93781214087588
30
0
41
1
10
17.5837943817404
20
-5.01136728946753
30
0
41
1
10
17.8286708708569
20
-5.15649510850872
30
0
41
1
10
17.951267220531
20
-5.22810791070924
30
0
41
1
10
18.3186857762101
20
-5.43945554438181
30
0
41
1
10
18.5632283721536
20
-5.57576110204832
30
0
41
1
10
19.2963680580351
20
-5.97025856338118
30
0
41
1
10
19.7844909993545
20
-6.21397576415782
30
0
41
1
10
20.3961772944001
20
-6.49259709354089
30
0
41
1
10
20.5185902247678
20
-6.5470221328118
30
0
41
1
10
20.7636226672206
20
-6.65322475594704
30
0
41
1
10
20.886260625312
20
-6.705008016313
30
0
41
1
10
21.2536979582784
20
-6.85596088323095
30
0
41
1
10
21.4983072213529
20
-6.9508606880178
30
0
41
1
10
22.2317023604204
20
-7.21799702372411
30
0
41
1
10
22.7200186414878
20
-7.37268806225282
30
0
41
1
10
23.3318101847847
20
-7.53557565336087
30
0
41
1
10
23.4542394196552
20
-7.56662829815318
30
0
41
1
10
23.6992984428339
20
-7.62564356647215
30
0
41
1
10
23.8218244510306
20
-7.65357966333494
30
0
41
1
10
24.0993999333481
20
-7.71327165674043
30
0
41
1
10
24.2544460244644
20
-7.74406317686831
30
0
41
1
10
24.4094116584709
20
-7.77225954411745
30
0
0
SPLINE
5
161
100
AcDbEntity
8
1
62
256
6
ByLayer
370
18
48
1
60
0
100
AcDbSpline
70
4
71
3
72
8
73
4
40
0
40
0
40
0
40
0
40
1
40
1
40
1
40
1
41
1
10
28.2454971704665
20
-7.93385159067904
30
0
41
1
10
28.2737267225583
20
-7.93107273273691
30
0
41
1
10
28.3019574546588
20
-7.92820662763316
30
0
41
1
10
28.3301896924191
20
-7.92525330111951
30
0
0
SPLINE
5
162
100
AcDbEntity
8
1
62
256
6
ByLayer
370
18
48
1
60
0
100
AcDbSpline
70
4
71
3
72
9
73
5
40
0
40
0
40
0
40
0
40
0.49982133170212
40
1
40
1
40
1
40
1
41
1
10
7.97218616907378
20
1.94036956109653
30
0
41
1
10
7.97737559646535
20
1.94698505747869
30
0
41
1
10
7.98775816131885
20
1.96022077985097
30
0
41
1
10
7.99816078134177
20
1.97346291036985
30
0
41
1
10
8.00336394997166
20
1.98008634157819
30
0
0
SPLINE
5
163
100
AcDbEntity
8
1
62
256
6
ByLayer
370
18
48
1
60
0
100
AcDbSpline
70
4
71
3
72
14
73
10
40
0
40
0
40
0
40
0
40
0.25
40
0.25
40
0.5
40
0.5
40
0.75
40
0.75
40
1
40
1
40
1
40
1
41
1
10
7.97217340713834
20
1.9403532882271
30
0
41
1
10
8.14056462212932
20
1.81419078633138
30
0
41
1
10
8.3089525357689
20
1.68741961801055
30
0
41
1
10
8.64616068245624
20
1.43323298608445
30
0
41
1
10
8.81497972799099
20
1.30581678864559
30
0
41
1
10
9.1530916804341
20
1.05040821346031
30
0
41
1
10
9.32235823551991
20
0.922382108477279
30
0
41
1
10
9.66116635765547
20
0.665497114606552
30
0
41
1
10
9.8308538315153
20
0.536831933372213
30
0
41
1
10
9.99999999999076
20
0.406846649702771
30
0
0
SPLINE
5
164
100
AcDbEntity
8
1
62
256
6
ByLayer
370
18
48
1
60
0
100
AcDbSpline
70
4
71
3
72
8
73
4
40
0
40
0
40
0
40
0
40
1
40
1
40
1
40
1
41
1
10
10
20
0.406846649716414
30
0
41
1
10
10
20
0.405854921081669
30
0
41
1
10
10
20
0.404863192451643
30
0
41
1
10
10
20
0.403871463826306
30
0
0
SPLINE
5
165
100
AcDbEntity
8
1
62
256
6
ByLayer
370
18
48
1
60
0
100
AcDbSpline
70
4
71
3
72
16
73
12
40
0
40
0
40
0
40
0
40
0.237281431891502
40
0.416565772510134
40
0.53787451843236
40
0.60980000276554
40
0.677637054049181
40
0.747994803137697
40
0.820873803978844
40
0.911288947931641
40
1
40
1
40
1
40
1
41
1
10
17.6779564504021
20
-7.01692753434887
30
0
41
1
10
17.9279677226822
20
-7.00622542053461
30
0
41
1
10
18.3672003663677
20
-6.98095231458171
30
0
41
1
10
18.9350487712151
20
-6.93352715673555
30
0
41
1
10
19.3287063017826
20
-6.89344276679674
30
0
41
1
10
19.6065261527306
20
-6.86189237288744
30
0
41
1
10
19.8295178488955
20
-6.83467164598571
30
0
41
1
10
20.0529779352126
20
-6.80554412694872
30
0
41
1
10
20.2996478167983
20
-6.7712943286617
30
0
41
1
10
20.5655595285718
20
-6.73181222523121
30
0
41
1
10
20.7547309480894
20
-6.70173785992182
30
0
41
1
10
20.8484307457148
20
-6.68635980639289
30
0
0
SPLINE
5
166
100
AcDbEntity
8
1
62
256
6
ByLayer
370
18
48
1
60
0
100
AcDbSpline
70
4
71
1
72
4
73
2
40
0
40
0
40
1
40
1
41
1
10
32.7887580487508
20
5.52381554060227
30
0
41
1
10
32.6356538434235
20
5.56873900492019
30
0
0
SPLINE
5
167
100
AcDbEntity
8
1
62
256
6
ByLayer
370
18
48
1
60
0
100
AcDbSpline
70
4
71
3
72
11
73
7
40
0
40
0
40
0
40
0
40
0.316518022387718
40
0.649358473574722
40
0.942448935878479
40
1
40
1
40
1
40
1
41
1
10
32.6356538434235
20
5.56873900492019
30
0
41
1
10
32.3465263762019
20
5.65718421654734
30
0
41
1
10
31.7564878961455
20
5.83040878025889
30
0
41
1
10
30.9074100131231
20
6.0570536725634
30
0
41
1
10
30.3009216073548
20
6.20466420660017
30
0
41
1
10
29.9878155174546
20
6.27620787569199
30
0
41
1
10
29.9363686023005
20
6.28783765158852
30
0
0
SPLINE
5
168
100
AcDbEntity
8
1
62
256
6
ByLayer
370
18
48
1
60
0
100
AcDbSpline
70
4
71
2
72
6
73
3
40
0
40
0
40
0
40
1
40
1
40
1
41
1
10
31.200600708768
20
-7.01687312383478
30
0
41
1
10
31.6711035694075
20
-6.99511479806853
30
0
41
1
10
32.1418516697192
20
-6.95336434305867
30
0
0
SPLINE
5
169
100
AcDbEntity
8
1
62
256
6
ByLayer
370
18
48
1
60
0
100
AcDbSpline
70
4
71
3
72
17
73
13
40
0
40
0
40
0
40
0
40
0.159613128737931
40
0.272425188829865
40
0.347429552899095
40
0.429459180569725
40
0.521133466349977
40
0.597063614210673
40
0.653217211717675
40
0.727407435592503
40
0.843038439752761
40
1
40
1
40
1
40
1
41
1
10
22.4814674481566
20
3.74223283530242
30
0
41
1
10
22.3314507279693
20
3.77954932168586
30
0
41
1
10
22.0710153262821
20
3.8491909634165
30
0
41
1
10
21.7358987357082
20
3.94858908585724
30
0
41
1
10
21.4619966988539
20
4.03579064515819
30
0
41
1
10
21.21430942523
20
4.11908984801639
30
0
41
1
10
20.9683064288991
20
4.20651979344569
30
0
41
1
10
20.7493823538537
20
4.2883754344312
30
0
41
1
10
20.5575752075981
20
4.36271181754088
30
0
41
1
10
20.3221402107282
20
4.45703710365288
30
0
41
1
10
19.9816965460337
20
4.60027623839954
30
0
41
1
10
19.7126510254826
20
4.72121843959525
30
0
41
1
10
19.5564478134931
20
4.79394484328634
30
0
0
LINE
5
77
100
AcDbEntity
8
80
62
256
6
ByLayer
370
18
48
1
60
0
100
AcDbLine
10
0
20
0
30
0
11
-5
21
0
31
0
39
0
210
0
220
0
230
1
0
LINE
5
78
100
AcDbEntity
8
4
62
256
6
ByLayer
370
18
48
0.05
60
0
100
AcDbLine
10
0
20
0
30
0
11
34
21
0
31
0
39
0
210
0
220
0
230
1
0
LINE
5
7A
100
AcDbEntity
8
81
62
256
6
ByLayer
370
18
48
1
60
0
100
AcDbLine
10
34
20
0
30
0
11
39
21
0
31
0
39
0
210
0
220
0
230
1
0
LINE
5
7B
100
AcDbEntity
8
SK4
62
256
6
ByLayer
370
18
48
0.05
60
0
100
AcDbLine
10
-48
20
0
30
0
11
34
21
0
31
0
39
0
210
0
220
0
230
1
0
LINE
5
7D
100
AcDbEntity
8
1
62
256
6
ByLayer
370
18
48
1
60
0
100
AcDbLine
10
0
20
8
30
0
11
0
21
0
31
0
39
0
210
0
220
0
230
1
0
LINE
5
7E
100
AcDbEntity
8
1
62
256
6
ByLayer
370
18
48
1
60
0
100
AcDbLine
10
0
20
0
30
0
11
0
21
-8
31
0
39
0
210
0
220
0
230
1
0
LINE
5
7F
100
AcDbEntity
8
1
62
256
6
ByLayer
370
18
48
1
60
0
100
AcDbLine
10
33.894067
20
1.130181
30
0
11
33.994989
21
1.946786
31
0
39
0
210
0
220
0
230
1
0
LINE
5
80
100
AcDbEntity
8
1
62
256
6
ByLayer
370
18
48
1
60
0
100
AcDbLine
10
33.928996
20
1.955129
30
0
11
33.994989
21
1.946786
31
0
39
0
210
0
220
0
230
1
0
LINE
5
81
100
AcDbEntity
8
1
62
256
6
ByLayer
370
18
48
1
60
0
100
AcDbLine
10
33.797446
20
0.359232
30
0
11
33.894067
21
1.130181
31
0
39
0
210
0
220
0
230
1
0
LINE
5
82
100
AcDbEntity
8
1
62
256
6
ByLayer
370
18
48
1
60
0
100
AcDbLine
10
33.876282
20
1.125113
30
0
11
33.894067
21
1.130181
31
0
39
0
210
0
220
0
230
1
0
LINE
5
83
100
AcDbEntity
8
1
62
256
6
ByLayer
370
18
48
1
60
0
100
AcDbLine
10
33.172524
20
-1.387954
30
0
11
33.624546
21
-0.3314
31
0
39
0
210
0
220
0
230
1
0
LINE
5
84
100
AcDbEntity
8
1
62
256
6
ByLayer
370
18
48
1
60
0
100
AcDbLine
10
33.994989
20
-6.279116
30
0
11
33.863719
21
-6.755911
31
0
39
0
210
0
220
0
230
1
0
LINE
5
85
100
AcDbEntity
8
1
62
256
6
ByLayer
370
18
48
1
60
0
100
AcDbLine
10
33.877529
20
-2.616345
30
0
11
33.906366
21
-3.515555
31
0
39
0
210
0
220
0
230
1
0
LINE
5
86
100
AcDbEntity
8
1
62
256
6
ByLayer
370
18
48
1
60
0
100
AcDbLine
10
33.986792
20
-6.023523
30
0
11
33.994989
21
-6.279116
31
0
39
0
210
0
220
0
230
1
0
LINE
5
87
100
AcDbEntity
8
1
62
256
6
ByLayer
370
18
48
1
60
0
100
AcDbLine
10
33.795703
20
0.293639
30
0
11
33.810874
21
0.864886
31
0
39
0
210
0
220
0
230
1
0
LINE
5
88
100
AcDbEntity
8
1
62
256
6
ByLayer
370
18
48
1
60
0
100
AcDbLine
10
33.886885
20
3.727098
30
0
11
33.994989
21
7.797699
31
0
39
0
210
0
220
0
230
1
0
LINE
5
89
100
AcDbEntity
8
1
62
256
6
ByLayer
370
18
48
1
60
0
100
AcDbLine
10
33.822627
20
7.968212
30
0
11
33.994989
21
7.797699
31
0
39
0
210
0
220
0
230
1
0
LINE
5
8A
100
AcDbEntity
8
1
62
256
6
ByLayer
370
18
48
1
60
0
100
AcDbLine
10
33.735594
20
-0.330099
30
0
11
33.785982
21
-0.164652
31
0
39
0
210
0
220
0
230
1
0
LINE
5
8B
100
AcDbEntity
8
1
62
256
6
ByLayer
370
18
48
1
60
0
100
AcDbLine
10
33.863719
20
-6.755911
30
0
11
33.764609
21
-6.931246
31
0
39
0
210
0
220
0
230
1
0
LINE
5
8C
100
AcDbEntity
8
1
62
256
6
ByLayer
370
18
48
1
60
0
100
AcDbLine
10
33.863719
20
-6.755911
30
0
11
33.84364
21
-6.121961
31
0
39
0
210
0
220
0
230
1
0
LINE
5
8D
100
AcDbEntity
8
1
62
256
6
ByLayer
370
13
48
1
60
0
100
AcDbLine
10
33.56718
20
0.80543
30
0
11
33.795703
21
0.293639
31
0
39
0
210
0
220
0
230
1
0
LINE
5
8E
100
AcDbEntity
8
1
62
256
6
ByLayer
370
13
48
1
60
0
100
AcDbLine
10
8.95689
20
7.757912
30
0
11
10
21
7.109493
31
0
39
0
210
0
220
0
230
1
0
LINE
5
8F
100
AcDbEntity
8
1
62
256
6
ByLayer
370
18
48
1
60
0
100
AcDbLine
10
4.263819
20
-7.978509
30
0
11
6.542606
21
-7.169551
31
0
39
0
210
0
220
0
230
1
0
LINE
5
90
100
AcDbEntity
8
1
62
256
6
ByLayer
370
13
48
1
60
0
100
AcDbLine
10
3.047079
20
7.920333
30
0
11
10
21
3.598252
31
0
39
0
210
0
220
0
230
1
0
LINE
5
91
100
AcDbEntity
8
1
62
256
6
ByLayer
370
13
48
1
60
0
100
AcDbLine
10
30.359392
20
-4.475591
30
0
11
30.092353
21
-4.909102
31
0
39
0
210
0
220
0
230
1
0
LINE
5
92
100
AcDbEntity
8
1
62
256
6
ByLayer
370
13
48
1
60
0
100
AcDbLine
10
2.5966
20
-7.332358
30
0
11
3.249603
21
-7.100545
31
0
39
0
210
0
220
0
230
1
0
LINE
5
93
100
AcDbEntity
8
1
62
256
6
ByLayer
370
18
48
1
60
0
100
AcDbLine
10
10
20
3.484126
30
0
11
10
21
3.598252
31
0
39
0
210
0
220
0
230
1
0
LINE
5
94
100
AcDbEntity
8
1
62
256
6
ByLayer
370
13
48
1
60
0
100
AcDbLine
10
33.529603
20
-0.119186
30
0
11
33.735594
21
-0.330099
31
0
39
0
210
0
220
0
230
1
0
LINE
5
95
100
AcDbEntity
8
1
62
256
6
ByLayer
370
18
48
1
60
0
100
AcDbLine
10
33.863389
20
-2.302039
30
0
11
33.994989
21
-6.017932
31
0
39
0
210
0
220
0
230
1
0
LINE
5
96
100
AcDbEntity
8
1
62
256
6
ByLayer
370
18
48
1
60
0
100
AcDbLine
10
33.751676
20
-2.035219
30
0
11
33.863389
21
-2.302039
31
0
39
0
210
0
220
0
230
1
0
LINE
5
97
100
AcDbEntity
8
1
62
256
6
ByLayer
370
18
48
1
60
0
100
AcDbLine
10
33.822901
20
-6.136261
30
0
11
33.994989
21
-6.017932
31
0
39
0
210
0
220
0
230
1
0
LINE
5
98
100
AcDbEntity
8
1
62
256
6
ByLayer
370
18
48
1
60
0
100
AcDbLine
10
33.994989
20
-6.017932
30
0
11
33.863719
21
-5.226677
31
0
39
0
210
0
220
0
230
1
0
LINE
5
99
100
AcDbEntity
8
1
62
256
6
ByLayer
370
18
48
1
60
0
100
AcDbLine
10
33.863719
20
-5.226677
30
0
11
33.766095
21
-5.081368
31
0
39
0
210
0
220
0
230
1
0
LINE
5
9A
100
AcDbEntity
8
1
62
256
6
ByLayer
370
18
48
1
60
0
100
AcDbLine
10
33.863719
20
-5.226677
30
0
11
33.751676
21
-2.035219
31
0
39
0
210
0
220
0
230
1
0
LINE
5
9B
100
AcDbEntity
8
1
62
256
6
ByLayer
370
18
48
1
60
0
100
AcDbLine
10
32.746276
20
-0.91163
30
0
11
33.751676
21
-2.035219
31
0
39
0
210
0
220
0
230
1
0
LINE
5
9C
100
AcDbEntity
8
1
62
256
6
ByLayer
370
13
48
1
60
0
100
AcDbLine
10
2.93117
20
7.878259
30
0
11
10
21
3.484126
31
0
39
0
210
0
220
0
230
1
0
LINE
5
9D
100
AcDbEntity
8
1
62
256
6
ByLayer
370
18
48
1
60
0
100
AcDbLine
10
4.549572
20
6.25387
30
0
11
10
21
2.86577
31
0
39
0
210
0
220
0
230
1
0
LINE
5
9E
100
AcDbEntity
8
1
62
256
6
ByLayer
370
13
48
1
60
0
100
AcDbLine
10
4.331845
20
6.226549
30
0
11
10
21
2.703105
31
0
39
0
210
0
220
0
230
1
0
LINE
5
9F
100
AcDbEntity
8
1
62
256
6
ByLayer
370
18
48
1
60
0
100
AcDbLine
10
10
20
-6.043846
30
0
11
10
21
-6.632198
31
0
39
0
210
0
220
0
230
1
0
LINE
5
A0
100
AcDbEntity
8
1
62
256
6
ByLayer
370
18
48
1
60
0
100
AcDbLine
10
10
20
2.86577
30
0
11
10
21
3.484126
31
0
39
0
210
0
220
0
230
1
0
LINE
5
A1
100
AcDbEntity
8
1
62
256
6
ByLayer
370
18
48
1
60
0
100
AcDbLine
10
10
20
2.703105
30
0
11
10
21
2.86577
31
0
39
0
210
0
220
0
230
1
0
LINE
5
A2
100
AcDbEntity
8
1
62
256
6
ByLayer
370
18
48
1
60
0
100
AcDbLine
10
10
20
-6.043846
30
0
11
10
21
-5.739399
31
0
39
0
210
0
220
0
230
1
0
LINE
5
A3
100
AcDbEntity
8
1
62
256
6
ByLayer
370
18
48
1
60
0
100
AcDbLine
10
10
20
2.492697
30
0
11
10
21
2.703105
31
0
39
0
210
0
220
0
230
1
0
LINE
5
A4
100
AcDbEntity
8
1
62
256
6
ByLayer
370
13
48
1
60
0
100
AcDbLine
10
4.364177
20
5.996043
30
0
11
10
21
2.492697
31
0
39
0
210
0
220
0
230
1
0
LINE
5
A5
100
AcDbEntity
8
1
62
256
6
ByLayer
370
18
48
1
60
0
100
AcDbLine
10
33.994989
20
2.994225
30
0
11
33.863719
21
3.884148
31
0
39
0
210
0
220
0
230
1
0
LINE
5
A6
100
AcDbEntity
8
1
62
256
6
ByLayer
370
18
48
1
60
0
100
AcDbLine
10
33.863719
20
3.884148
30
0
11
33.76756
21
4.127782
31
0
39
0
210
0
220
0
230
1
0
LINE
5
A7
100
AcDbEntity
8
1
62
256
6
ByLayer
370
18
48
1
60
0
100
AcDbLine
10
33.823711
20
3.07958
30
0
11
33.994989
21
2.994225
31
0
39
0
210
0
220
0
230
1
0
LINE
5
A8
100
AcDbEntity
8
1
62
256
6
ByLayer
370
13
48
1
60
0
100
AcDbLine
10
31.452649
20
2.007406
30
0
11
32.820285
21
0.607084
31
0
39
0
210
0
220
0
230
1
0
LINE
5
A9
100
AcDbEntity
8
1
62
256
6
ByLayer
370
18
48
1
60
0
100
AcDbLine
10
33.86052
20
0.87691
30
0
11
32.978201
21
0.66173
31
0
39
0
210
0
220
0
230
1
0
LINE
5
AA
100
AcDbEntity
8
1
62
256
6
ByLayer
370
18
48
1
60
0
100
AcDbLine
10
33.86052
20
0.87691
30
0
11
33.994989
21
2.994225
31
0
39
0
210
0
220
0
230
1
0
LINE
5
AB
100
AcDbEntity
8
1
62
256
6
ByLayer
370
18
48
1
60
0
100
AcDbLine
10
10
20
-5.739399
30
0
11
10
21
-5.002318
31
0
39
0
210
0
220
0
230
1
0
LINE
5
AC
100
AcDbEntity
8
1
62
256
6
ByLayer
370
18
48
1
60
0
100
AcDbLine
10
10
20
3.598252
30
0
11
10
21
7.109493
31
0
39
0
210
0
220
0
230
1
0
LINE
5
AD
100
AcDbEntity
8
1
62
256
6
ByLayer
370
18
48
1
60
0
100
AcDbLine
10
10
20
0.403869
30
0
11
10
21
-1.444664
31
0
39
0
210
0
220
0
230
1
0
LINE
5
AE
100
AcDbEntity
8
1
62
256
6
ByLayer
370
18
48
1
60
0
100
AcDbLine
10
10
20
-5.002318
30
0
11
10
21
-2.452831
31
0
39
0
210
0
220
0
230
1
0
LINE
5
AF
100
AcDbEntity
8
1
62
256
6
ByLayer
370
18
48
1
60
0
100
AcDbLine
10
10
20
-2.452831
30
0
11
10
21
-1.444664
31
0
39
0
210
0
220
0
230
1
0
LINE
5
B0
100
AcDbEntity
8
1
62
256
6
ByLayer
370
18
48
1
60
0
100
AcDbLine
10
10
20
7.603403
30
0
11
10
21
7.109493
31
0
39
0
210
0
220
0
230
1
0
LINE
5
B1
100
AcDbEntity
8
1
62
256
6
ByLayer
370
18
48
1
60
0
100
AcDbLine
10
10
20
2.492697
30
0
11
10
21
2.355488
31
0
39
0
210
0
220
0
230
1
0
LINE
5
B2
100
AcDbEntity
8
1
62
256
6
ByLayer
370
13
48
1
60
0
100
AcDbLine
10
3.930831
20
-3.847941
30
0
11
10
21
-6.043846
31
0
39
0
210
0
220
0
230
1
0
LINE
5
B3
100
AcDbEntity
8
1
62
256
6
ByLayer
370
13
48
1
60
0
100
AcDbLine
10
3.895896
20
-3.530855
30
0
11
10
21
-5.739399
31
0
39
0
210
0
220
0
230
1
0
LINE
5
B4
100
AcDbEntity
8
1
62
256
6
ByLayer
370
18
48
1
60
0
100
AcDbLine
10
4.582036
20
-3.042028
30
0
11
10
21
-5.002318
31
0
39
0
210
0
220
0
230
1
0
LINE
5
B5
100
AcDbEntity
8
1
62
256
6
ByLayer
370
13
48
1
60
0
100
AcDbLine
10
2.862248
20
0.129701
30
0
11
10
21
-2.452831
31
0
39
0
210
0
220
0
230
1
0
LINE
5
B6
100
AcDbEntity
8
1
62
256
6
ByLayer
370
13
48
1
60
0
100
AcDbLine
10
3.096769
20
1.053015
30
0
11
10
21
-1.444664
31
0
39
0
210
0
220
0
230
1
0
LINE
5
B7
100
AcDbEntity
8
SK1
62
256
6
ByLayer
370
18
48
1
60
0
100
AcDbLine
10
0
20
8
30
0
11
0
21
0
31
0
39
0
210
0
220
0
230
1
0
LINE
5
B9
100
AcDbEntity
8
SK1
62
256
6
ByLayer
370
18
48
1
60
0
100
AcDbLine
10
0
20
0
30
0
11
0
21
-8
31
0
39
0
210
0
220
0
230
1
0
LINE
5
BA
100
AcDbEntity
8
SK1
62
256
6
ByLayer
370
18
48
1
60
0
100
AcDbLine
10
-29
20
6.2
30
0
11
-30.8
21
8
31
0
39
0
210
0
220
0
230
1
0
LINE
5
BB
100
AcDbEntity
8
SK1
62
256
6
ByLayer
370
18
48
1
60
0
100
AcDbLine
10
-19
20
6.2
30
0
11
-17.2
21
8
31
0
39
0
210
0
220
0
230
1
0
LINE
5
BC
100
AcDbEntity
8
SK1
62
256
6
ByLayer
370
18
48
1
60
0
100
AcDbLine
10
-29
20
6.2
30
0
11
-19
21
6.2
31
0
39
0
210
0
220
0
230
1
0
LINE
5
BD
100
AcDbEntity
8
SK1
62
256
6
ByLayer
370
18
48
1
60
0
100
AcDbLine
10
-47.2
20
8
30
0
11
-47.2
21
-8
31
0
39
0
210
0
220
0
230
1
0
LINE
5
BE
100
AcDbEntity
8
SK1
62
256
6
ByLayer
370
18
48
1
60
0
100
AcDbLine
10
-48
20
-7.2
30
0
11
-48
21
7.2
31
0
39
0
210
0
220
0
230
1
0
LINE
5
BF
100
AcDbEntity
8
1
62
256
6
ByLayer
370
18
48
1
60
0
100
AcDbLine
10
8.078442
20
8
30
0
11
0
21
8
31
0
39
0
210
0
220
0
230
1
0
LINE
5
C0
100
AcDbEntity
8
1
62
256
6
ByLayer
370
18
48
1
60
0
100
AcDbLine
10
0
20
-8
30
0
11
3.902326
21
-8
31
0
39
0
210
0
220
0
230
1
0
LINE
5
C1
100
AcDbEntity
8
SK1
62
256
6
ByLayer
370
18
48
1
60
0
100
AcDbLine
10
0
20
8
30
0
11
-17.2
21
8
31
0
39
0
210
0
220
0
230
1
0
LINE
5
C2
100
AcDbEntity
8
SK1
62
256
6
ByLayer
370
18
48
1
60
0
100
AcDbLine
10
-30.8
20
8
30
0
11
-47.2
21
8
31
0
39
0
210
0
220
0
230
1
0
LINE
5
C3
100
AcDbEntity
8
SK1
62
256
6
ByLayer
370
18
48
1
60
0
100
AcDbLine
10
-47.2
20
-8
30
0
11
0
21
-8
31
0
39
0
210
0
220
0
230
1
0
LINE
5
C4
100
AcDbEntity
8
SK1
62
256
6
ByLayer
370
18
48
1
60
0
100
AcDbLine
10
-48
20
-7.2
30
0
11
-47.2
21
-8
31
0
39
0
210
0
220
0
230
1
0
LINE
5
C5
100
AcDbEntity
8
SK1
62
256
6
ByLayer
370
18
48
1
60
0
100
AcDbLine
10
-47.2
20
8
30
0
11
-48
21
7.2
31
0
39
0
210
0
220
0
230
1
0
LINE
5
C6
100
AcDbEntity
8
SK2
62
256
6
ByLayer
370
18
48
1
60
0
100
AcDbLine
10
-55.45
20
8
30
0
11
-55.45
21
-26.056066
31
0
39
0
210
0
220
0
230
1
0
LINE
5
C8
100
AcDbEntity
8
SK2
62
256
6
ByLayer
370
18
48
1
60
0
100
AcDbLine
10
-48.7875
20
8
30
0
11
-57.45
21
8
31
0
39
0
210
0
220
0
230
1
0
LINE
5
C9
100
AcDbEntity
8
SK2
62
256
6
ByLayer
370
18
48
1
60
0
100
AcDbLine
10
-48.7875
20
-8
30
0
11
-57.45
21
-8
31
0
39
0
210
0
220
0
230
1
0
LINE
5
CA
100
AcDbEntity
8
1
62
256
6
ByLayer
370
18
48
1
60
1
100
AcDbLine
10
-55.45
20
8
30
0
11
-54.989216
21
4.500002
31
0
39
0
210
0
220
0
230
1
0
LINE
5
CB
100
AcDbEntity
8
1
62
256
6
ByLayer
370
18
48
1
60
1
100
AcDbLine
10
-54.989216
20
4.500002
30
0
11
-55.910784
21
4.499998
31
0
39
0
210
0
220
0
230
1
0
LINE
5
CC
100
AcDbEntity
8
1
62
256
6
ByLayer
370
18
48
1
60
1
100
AcDbLine
10
-55.910784
20
4.499998
30
0
11
-55.45
21
8
31
0
39
0
210
0
220
0
230
1
0
LINE
5
CD
100
AcDbEntity
8
1
62
256
6
ByLayer
370
18
48
1
60
1
100
AcDbLine
10
-55.45
20
-8
30
0
11
-55.910784
21
-4.500002
31
0
39
0
210
0
220
0
230
1
0
LINE
5
CE
100
AcDbEntity
8
1
62
256
6
ByLayer
370
18
48
1
60
1
100
AcDbLine
10
-55.910784
20
-4.500002
30
0
11
-54.989216
21
-4.499998
31
0
39
0
210
0
220
0
230
1
0
LINE
5
CF
100
AcDbEntity
8
1
62
256
6
ByLayer
370
18
48
1
60
1
100
AcDbLine
10
-54.989216
20
-4.499998
30
0
11
-55.45
21
-8
31
0
39
0
210
0
220
0
230
1
0
LINE
5
D0
100
AcDbEntity
8
2
62
256
6
ByLayer
370
18
48
1
60
0
100
AcDbLine
10
46
20
-8.0001
30
0
11
46
21
26.056166
31
0
39
0
210
0
220
0
230
1
0
LINE
5
D2
100
AcDbEntity
8
2
62
256
6
ByLayer
370
18
48
1
60
0
100
AcDbLine
10
35.5875
20
8.0001
30
0
11
48
21
8.0001
31
0
39
0
210
0
220
0
230
1
0
LINE
5
D3
100
AcDbEntity
8
2
62
256
6
ByLayer
370
18
48
1
60
0
100
AcDbLine
10
35.5875
20
-8.0001
30
0
11
48
21
-8.0001
31
0
39
0
210
0
220
0
230
1
0
LINE
5
D4
100
AcDbEntity
8
1
62
256
6
ByLayer
370
18
48
1
60
1
100
AcDbLine
10
46
20
8.0001
30
0
11
46.460784
21
4.500102
31
0
39
0
210
0
220
0
230
1
0
LINE
5
D5
100
AcDbEntity
8
1
62
256
6
ByLayer
370
18
48
1
60
1
100
AcDbLine
10
46.460784
20
4.500102
30
0
11
45.539216
21
4.500098
31
0
39
0
210
0
220
0
230
1
0
LINE
5
D6
100
AcDbEntity
8
1
62
256
6
ByLayer
370
18
48
1
60
1
100
AcDbLine
10
45.539216
20
4.500098
30
0
11
46
21
8.0001
31
0
39
0
210
0
220
0
230
1
0
LINE
5
D7
100
AcDbEntity
8
1
62
256
6
ByLayer
370
18
48
1
60
1
100
AcDbLine
10
46
20
-8.0001
30
0
11
45.539216
21
-4.500102
31
0
39
0
210
0
220
0
230
1
0
LINE
5
D8
100
AcDbEntity
8
1
62
256
6
ByLayer
370
18
48
1
60
1
100
AcDbLine
10
45.539216
20
-4.500102
30
0
11
46.460784
21
-4.500098
31
0
39
0
210
0
220
0
230
1
0
LINE
5
D9
100
AcDbEntity
8
1
62
256
6
ByLayer
370
18
48
1
60
1
100
AcDbLine
10
46.460784
20
-4.500098
30
0
11
46
21
-8.0001
31
0
39
0
210
0
220
0
230
1
0
LINE
5
DA
100
AcDbEntity
8
SK2
62
256
6
ByLayer
370
18
48
1
60
0
100
AcDbLine
10
34
20
-39.069072
30
0
11
-48
21
-39.069072
31
0
39
0
210
0
220
0
230
1
0
LINE
5
DB
100
AcDbEntity
8
SK2
62
256
6
ByLayer
370
18
48
1
60
0
100
AcDbLine
10
-48
20
-8.7875
30
0
11
-48
21
-41.069072
31
0
39
0
210
0
220
0
230
1
0
LINE
5
DC
100
AcDbEntity
8
SK2
62
256
6
ByLayer
370
18
48
1
60
0
100
AcDbLine
10
34
20
-9.5876
30
0
11
34
21
-41.069072
31
0
39
0
210
0
220
0
230
1
0
LINE
5
DD
100
AcDbEntity
8
1
62
256
6
ByLayer
370
18
48
1
60
1
100
AcDbLine
10
-48
20
-39.069072
30
0
11
-44.500002
21
-38.608288
31
0
39
0
210
0
220
0
230
1
0
LINE
5
DE
100
AcDbEntity
8
1
62
256
6
ByLayer
370
18
48
1
60
1
100
AcDbLine
10
-44.500002
20
-38.608288
30
0
11
-44.499998
21
-39.529856
31
0
39
0
210
0
220
0
230
1
0
LINE
5
DF
100
AcDbEntity
8
1
62
256
6
ByLayer
370
18
48
1
60
1
100
AcDbLine
10
-44.499998
20
-39.529856
30
0
11
-48
21
-39.069072
31
0
39
0
210
0
220
0
230
1
0
LINE
5
E0
100
AcDbEntity
8
1
62
256
6
ByLayer
370
18
48
1
60
1
100
AcDbLine
10
34
20
-39.069072
30
0
11
30.500002
21
-39.529856
31
0
39
0
210
0
220
0
230
1
0
LINE
5
E1
100
AcDbEntity
8
1
62
256
6
ByLayer
370
18
48
1
60
1
100
AcDbLine
10
30.500002
20
-39.529856
30
0
11
30.499998
21
-38.608288
31
0
39
0
210
0
220
0
230
1
0
LINE
5
E2
100
AcDbEntity
8
1
62
256
6
ByLayer
370
18
48
1
60
1
100
AcDbLine
10
30.499998
20
-38.608288
30
0
11
34
21
-39.069072
31
0
39
0
210
0
220
0
230
1
0
LINE
5
16E
100
AcDbEntity
8
1
62
256
6
ByLayer
370
18
48
1
60
1
100
AcDbLine
10
-55.45
20
8
30
0
11
-54.989216
21
4.500002
31
0
39
0
210
0
220
0
230
1
0
LINE
5
16F
100
AcDbEntity
8
1
62
256
6
ByLayer
370
18
48
1
60
1
100
AcDbLine
10
-54.989216
20
4.500002
30
0
11
-55.910784
21
4.499998
31
0
39
0
210
0
220
0
230
1
0
LINE
5
170
100
AcDbEntity
8
1
62
256
6
ByLayer
370
18
48
1
60
1
100
AcDbLine
10
-55.910784
20
4.499998
30
0
11
-55.45
21
8
31
0
39
0
210
0
220
0
230
1
0
LINE
5
172
100
AcDbEntity
8
1
62
256
6
ByLayer
370
18
48
1
60
1
100
AcDbLine
10
-55.45
20
-8
30
0
11
-55.910784
21
-4.500002
31
0
39
0
210
0
220
0
230
1
0
LINE
5
173
100
AcDbEntity
8
1
62
256
6
ByLayer
370
18
48
1
60
1
100
AcDbLine
10
-55.910784
20
-4.500002
30
0
11
-54.989216
21
-4.499998
31
0
39
0
210
0
220
0
230
1
0
LINE
5
174
100
AcDbEntity
8
1
62
256
6
ByLayer
370
18
48
1
60
1
100
AcDbLine
10
-54.989216
20
-4.499998
30
0
11
-55.45
21
-8
31
0
39
0
210
0
220
0
230
1
0
LINE
5
178
100
AcDbEntity
8
1
62
256
6
ByLayer
370
18
48
1
60
1
100
AcDbLine
10
46
20
8.0001
30
0
11
46.460784
21
4.500102
31
0
39
0
210
0
220
0
230
1
0
LINE
5
179
100
AcDbEntity
8
1
62
256
6
ByLayer
370
18
48
1
60
1
100
AcDbLine
10
46.460784
20
4.500102
30
0
11
45.539216
21
4.500098
31
0
39
0
210
0
220
0
230
1
0
LINE
5
17A
100
AcDbEntity
8
1
62
256
6
ByLayer
370
18
48
1
60
1
100
AcDbLine
10
45.539216
20
4.500098
30
0
11
46
21
8.0001
31
0
39
0
210
0
220
0
230
1
0
LINE
5
17C
100
AcDbEntity
8
1
62
256
6
ByLayer
370
18
48
1
60
1
100
AcDbLine
10
46
20
-8.0001
30
0
11
45.539216
21
-4.500102
31
0
39
0
210
0
220
0
230
1
0
LINE
5
17D
100
AcDbEntity
8
1
62
256
6
ByLayer
370
18
48
1
60
1
100
AcDbLine
10
45.539216
20
-4.500102
30
0
11
46.460784
21
-4.500098
31
0
39
0
210
0
220
0
230
1
0
LINE
5
17E
100
AcDbEntity
8
1
62
256
6
ByLayer
370
18
48
1
60
1
100
AcDbLine
10
46.460784
20
-4.500098
30
0
11
46
21
-8.0001
31
0
39
0
210
0
220
0
230
1
0
LINE
5
181
100
AcDbEntity
8
1
62
256
6
ByLayer
370
18
48
1
60
1
100
AcDbLine
10
-48
20
-39.069072
30
0
11
-44.500002
21
-38.608288
31
0
39
0
210
0
220
0
230
1
0
LINE
5
182
100
AcDbEntity
8
1
62
256
6
ByLayer
370
18
48
1
60
1
100
AcDbLine
10
-44.500002
20
-38.608288
30
0
11
-44.499998
21
-39.529856
31
0
39
0
210
0
220
0
230
1
0
LINE
5
183
100
AcDbEntity
8
1
62
256
6
ByLayer
370
18
48
1
60
1
100
AcDbLine
10
-44.499998
20
-39.529856
30
0
11
-48
21
-39.069072
31
0
39
0
210
0
220
0
230
1
0
LINE
5
185
100
AcDbEntity
8
1
62
256
6
ByLayer
370
18
48
1
60
1
100
AcDbLine
10
34
20
-39.069072
30
0
11
30.500002
21
-39.529856
31
0
39
0
210
0
220
0
230
1
0
LINE
5
186
100
AcDbEntity
8
1
62
256
6
ByLayer
370
18
48
1
60
1
100
AcDbLine
10
30.500002
20
-39.529856
30
0
11
30.499998
21
-38.608288
31
0
39
0
210
0
220
0
230
1
0
LINE
5
187
100
AcDbEntity
8
1
62
256
6
ByLayer
370
18
48
1
60
1
100
AcDbLine
10
30.499998
20
-38.608288
30
0
11
34
21
-39.069072
31
0
39
0
210
0
220
0
230
1
0
MTEXT
5
16A
100
AcDbEntity
8
SK2
62
256
6
ByLayer
370
18
48
1
60
0
100
AcDbMText
10
-57.014634
20
-24.121222
30
0
210
0
220
0
230
1
1
%%c
40
3.5
41
0
44
1.084337
50
90
71
7
72
5
7
iso_b_vert
0
MTEXT
5
16D
100
AcDbEntity
8
SK2
62
256
6
ByLayer
370
18
48
1
60
0
100
AcDbMText
10
-57.014634
20
-17.148566
30
0
210
0
220
0
230
1
1
\W0.5321;16
40
3.5
41
0
44
1.084337
50
90
71
7
72
5
7
iso_b_vert
0
MTEXT
5
176
100
AcDbEntity
8
2
62
256
6
ByLayer
370
18
48
1
60
0
100
AcDbMText
10
44.435366
20
15.934944
30
0
210
0
220
0
230
1
1
%%c
40
3.5
41
0
44
1.084337
50
90
71
7
72
5
7
iso_b_vert
0
MTEXT
5
177
100
AcDbEntity
8
2
62
256
6
ByLayer
370
18
48
1
60
0
100
AcDbMText
10
44.435366
20
22.9076
30
0
210
0
220
0
230
1
1
\W0.5321;16
40
3.5
41
0
44
1.084337
50
90
71
7
72
5
7
iso_b_vert
0
MTEXT
5
180
100
AcDbEntity
8
SK2
62
256
6
ByLayer
370
18
48
1
60
0
100
AcDbMText
10
-8.904966
20
-38.036438
30
0
210
0
220
0
230
1
1
\W0.6740;82
40
3.5
41
0
44
1.084337
50
0
71
7
72
5
7
iso_b_vert
0
MTEXT
5
189
100
AcDbEntity
8
SK6
62
256
6
ByLayer
370
18
48
1
60
0
100
AcDbMText
10
-31.303074
20
-62.036976
30
0
210
0
220
0
230
1
1
\W0.6872;1K325-1600-XB       1730
40
3
41
0
44
1.084337
50
0
71
7
72
5
7
iso_b_vert
0
HATCH
5
171
100
AcDbEntity
8
SK2
62
256
6
ByLayer
370
13
48
1
60
0
100
AcDbHatch
10
0
20
0
30
0
210
0
220
0
230
1
2
ANSI31
70
0
71
0
91
1
92
5
93
3
72
1
10
-55.4500000000001
20
7.99999999999994
11
-54.9892162584473
21
4.50000169255313
72
1
10
-54.9892162584473
20
4.50000169255313
11
-55.9107837415528
21
4.49999830744676
72
1
10
-55.9107837415528
20
4.49999830744676
11
-55.4500000000001
21
7.99999999999994
97
0
75
0
76
1
52
0
41
0.0062
77
0
78
1
53
45
43
0
44
0
45
-0.0139193969876572
46
0.0139193969876572
79
0
47
0
98
1
10
0
20
0
0
HATCH
5
175
100
AcDbEntity
8
SK2
62
256
6
ByLayer
370
13
48
1
60
0
100
AcDbHatch
10
0
20
0
30
0
210
0
220
0
230
1
2
ANSI31
70
0
71
0
91
1
92
5
93
3
72
1
10
-55.4500000000001
20
-8.00000000000006
11
-55.9107837415528
21
-4.50000169255324
72
1
10
-55.9107837415528
20
-4.50000169255324
11
-54.9892162584473
21
-4.49999830744687
72
1
10
-54.9892162584473
20
-4.49999830744687
11
-55.4500000000001
21
-8.00000000000006
97
0
75
0
76
1
52
0
41
0.0062
77
0
78
1
53
45
43
0
44
0
45
-0.0139193969876572
46
0.0139193969876572
79
0
47
0
98
1
10
0
20
0
0
HATCH
5
17B
100
AcDbEntity
8
2
62
256
6
ByLayer
370
13
48
1
60
0
100
AcDbHatch
10
0
20
0
30
0
210
0
220
0
230
1
2
ANSI31
70
0
71
0
91
1
92
5
93
3
72
1
10
46
20
8.00009999999986
11
46.4607837415528
21
4.50010169255305
72
1
10
46.4607837415528
20
4.50010169255305
11
45.5392162584472
21
4.50009830744668
72
1
10
45.5392162584472
20
4.50009830744668
11
46
21
8.00009999999986
97
0
75
0
76
1
52
0
41
0.0062
77
0
78
1
53
45
43
0
44
0
45
-0.0139193969876572
46
0.0139193969876572
79
0
47
0
98
1
10
0
20
0
0
HATCH
5
17F
100
AcDbEntity
8
2
62
256
6
ByLayer
370
13
48
1
60
0
100
AcDbHatch
10
0
20
0
30
0
210
0
220
0
230
1
2
ANSI31
70
0
71
0
91
1
92
5
93
3
72
1
10
46
20
-8.00010000000015
11
45.5392162584472
21
-4.50010169255333
72
1
10
45.5392162584472
20
-4.50010169255333
11
46.4607837415528
21
-4.50009830744696
72
1
10
46.4607837415528
20
-4.50009830744696
11
46
21
-8.00010000000015
97
0
75
0
76
1
52
0
41
0.0062
77
0
78
1
53
45
43
0
44
0
45
-0.0139193969876572
46
0.0139193969876572
79
0
47
0
98
1
10
0
20
0
0
HATCH
5
184
100
AcDbEntity
8
SK2
62
256
6
ByLayer
370
13
48
1
60
0
100
AcDbHatch
10
0
20
0
30
0
210
0
220
0
230
1
2
ANSI31
70
0
71
0
91
1
92
5
93
3
72
1
10
-48
20
-39.0690718026198
11
-44.5000016925532
21
-38.608288061067
72
1
10
-44.5000016925532
20
-38.608288061067
11
-44.4999983074468
21
-39.5298555441726
72
1
10
-44.4999983074468
20
-39.5298555441726
11
-48
21
-39.0690718026198
97
0
75
0
76
1
52
0
41
0.0062
77
0
78
1
53
45
43
0
44
0
45
-0.0139193969876572
46
0.0139193969876572
79
0
47
0
98
1
10
0
20
0
0
HATCH
5
188
100
AcDbEntity
8
SK2
62
256
6
ByLayer
370
13
48
1
60
0
100
AcDbHatch
10
0
20
0
30
0
210
0
220
0
230
1
2
ANSI31
70
0
71
0
91
1
92
5
93
3
72
1
10
34
20
-39.0690718026198
11
30.5000016925532
21
-39.5298555441726
72
1
10
30.5000016925532
20
-39.5298555441726
11
30.4999983074468
21
-38.608288061067
72
1
10
30.4999983074468
20
-38.608288061067
11
34
21
-39.0690718026198
97
0
75
0
76
1
52
0
41
0.0062
77
0
78
1
53
45
43
0
44
0
45
-0.0139193969876572
46
0.0139193969876572
79
0
47
0
98
1
10
0
20
0
0
DIMENSION
5
18C
100
AcDbEntity
8
2
62
256
6
ByLayer
370
18
48
1
60
0
100
AcDbDimension
2
_U0
10
10
20
-23.069072
30
0
11
22
21
-23.069072
31
0
70
32
71
1
72
1
41
1
210
0
220
0
230
1
3
Standard
100
AcDbAlignedDimension
13
34
23
-8.0001
33
0
14
10
24
-8.0001
34
0
50
0
100
AcDbRotatedDimension
1001
ACAD
1000
DSTYLE
1002
{
1070
   371
1070
    13
1070
   372
1070
    13
1070
   170
1070
     0
1070
   144
1040
1.0
1070
   277
1070
     2
1070
   284
1070
     8
1070
   278
1070
    46
1070
   146
1040
1.0
1070
   345
1005
16
1070
   347
1005
16
1070
   346
1005
16
1070
   344
1005
0
1070
   343
1005
0
1070
   172
1070
     1
1070
    76
1070
     0
1070
    75
1070
     0
1070
   282
1070
     0
1070
   281
1070
     0
1070
    71
1070
     0
1070
    74
1070
     0
1070
   279
1070
     0
1070
   173
1070
     1
1070
   340
1005
16B
1070
   271
1070
     2
1070
   272
1070
     2
1070
    77
1070
     1
1070
    73
1070
     1
1070
   171
1070
     3
1070
   274
1070
     4
1070
   177
1070
     2
1070
   176
1070
     2
1070
   178
1070
     2
1070
    78
1070
     8
1070
    48
1040
-0.1
1070
    41
1040
3.5
1070
   147
1040
1.75
1070
    42
1040
1.5875
1070
    44
1040
2.0
1070
   140
1040
3.5
1002
}
1001
ACAD_DSTYLE_DIM_LINETYPE
1070
   380
1005
16
1001
ACAD_DSTYLE_DIM_EXT1_LINETYPE
1070
   381
1005
16
1001
ACAD_DSTYLE_DIM_EXT2_LINETYPE
1070
   382
1005
16
0
ENDSEC
0
SECTION
2
OBJECTS
0
DICTIONARY
5
215
330
0
100
AcDbDictionary
280
0
281
1
3
ACAD_GROUP
350
216
3
ACAD_MLINESTYLE
350
217
0
DICTIONARY
5
216
330
0
100
AcDbDictionary
280
0
281
1
0
DICTIONARY
5
217
330
0
100
AcDbDictionary
280
0
281
1
3
Standard
350
18
0
MLINESTYLE
5
18
330
217
100
AcDbMlineStyle
2
Standard
70
0
3

62
256
51
90
52
90
71
2
49
-0.5
62
256
6
ByLayer
49
0.5
62
256
6
ByLayer
0
RASTERVARIABLES
5
203
330

100
AcDbRasterVariables
90
0
70
1
71
1
72
1
0
ENDSEC
0
EOF
