0
SECTION
2
HEADER
9
$ACADVER
1
AC1015
9
$DWGCODEPAGE
3
ANSI_1252
9
$HANDSEED
5
1e1
9
$ANGBASE
50
0
9
$ANGDIR
70
0
9
$ATTMODE
70
1
9
$AUNITS
70
0
9
$AUPREC
70
0
9
$CECOLOR
62
256
9
$CELTSCALE
40
1
9
$CELTYPE
6
ByLayer
9
$CELWEIGHT
370
18
9
$CLAYER
8
0
9
$CMLJUST
70
0
9
$CMLSCALE
40
1
9
$CMLSTYLE
2
Standard
9
$DIMSTYLE
2
Standard
9
$TEXTSIZE
40
0.2
9
$TEXTSTYLE
7
Standard
9
$LUNITS
70
2
9
$LUPREC
70
4
9
$EXTNAMES
290
1
9
$INSUNITS
70
4
9
$LTSCALE
40
1
9
$LWDISPLAY
290
1
9
$PDMODE
70
0
9
$PDSIZE
40
0
9
$PLINEGEN
70
0
0
ENDSEC
0
SECTION
2
CLASSES
0
CLASS
1
RASTERVARIABLES
2
AcDbRasterVariables
3
ISM
90
0
280
0
281
0
0
ENDSEC
0
SECTION
2
TABLES
0
TABLE
2
VPORT
5
1d7
100
AcDbSymbolTable
0
VPORT
5
1
100
AcDbSymbolTableRecord
100
AcDbViewportTableRecord
2
*Active
70
0
10
0
20
0
11
1
21
1
12
-1
22
1
13
0
23
0
14
0.5
24
0.5
15
10
25
10
16
0
26
0
36
1
17
0
27
0
37
0
0
ENDTAB
0
TABLE
2
LTYPE
5
1d8
100
AcDbSymbolTable
0
LTYPE
5
14
100
AcDbSymbolTableRecord
100
AcDbLinetypeTableRecord
70
0
2
ByBlock
3

72
65
73
0
40
0
0
LTYPE
5
15
100
AcDbSymbolTableRecord
100
AcDbLinetypeTableRecord
70
0
2
ByLayer
3

72
65
73
0
40
0
0
LTYPE
5
16
100
AcDbSymbolTableRecord
100
AcDbLinetypeTableRecord
70
0
2
Continuous
3
Solid line
72
65
73
0
40
0
0
LTYPE
5
6E
100
AcDbSymbolTableRecord
100
AcDbLinetypeTableRecord
70
0
2
CENTER
3
____ _ ____ _ ____ _ ____
72
65
73
4
40
47.5
49
22
74
0
49
-8.5
74
0
49
8.5
74
0
49
-8.5
74
0
0
LTYPE
5
6F
100
AcDbSymbolTableRecord
100
AcDbLinetypeTableRecord
70
0
2
DASHED
3
__ __ __ __ __ __ __ __ __
72
65
73
2
40
25.72
49
12.86
74
0
49
-12.86
74
0
0
ENDTAB
0
TABLE
2
LAYER
5
1d9
100
AcDbSymbolTable
0
LAYER
5
10
100
AcDbSymbolTableRecord
100
AcDbLayerTableRecord
2
0
70
0
62
7
6
Continuous
290
1
370
-3
390
0
0
LAYER
5
71
100
AcDbSymbolTableRecord
100
AcDbLayerTableRecord
2
81
70
0
62
-3
6
Continuous
290
1
370
-3
390
0
0
LAYER
5
73
100
AcDbSymbolTableRecord
100
AcDbLayerTableRecord
2
80
70
0
62
-6
6
Continuous
290
1
370
-3
390
0
0
LAYER
5
75
100
AcDbSymbolTableRecord
100
AcDbLayerTableRecord
2
1
70
0
62
4
6
Continuous
290
1
370
-3
390
0
0
LAYER
5
79
100
AcDbSymbolTableRecord
100
AcDbLayerTableRecord
2
4
70
0
62
-2
6
CENTER
290
1
370
-3
390
0
0
LAYER
5
BD
100
AcDbSymbolTableRecord
100
AcDbLayerTableRecord
2
2
70
0
62
7
6
Continuous
290
1
370
-3
390
0
0
LAYER
5
14D
100
AcDbSymbolTableRecord
100
AcDbLayerTableRecord
2
Defpoints
70
0
62
7
6
Continuous
290
0
370
-3
390
0
0
LAYER
5
1c3
100
AcDbSymbolTableRecord
100
AcDbLayerTableRecord
2
SK4
70
0
62
2
6
CENTER
290
1
370
-3
390
0
0
LAYER
5
1c4
100
AcDbSymbolTableRecord
100
AcDbLayerTableRecord
2
SK1
70
0
62
4
6
Continuous
290
1
370
-3
390
0
0
LAYER
5
1c5
100
AcDbSymbolTableRecord
100
AcDbLayerTableRecord
2
SK2
70
0
62
7
6
Continuous
290
1
370
-3
390
0
0
LAYER
5
1c6
100
AcDbSymbolTableRecord
100
AcDbLayerTableRecord
2
SK6
70
0
62
5
6
Continuous
290
1
370
-3
390
0
0
ENDTAB
0
TABLE
2
STYLE
5
1da
100
AcDbSymbolTable
0
STYLE
5
11
100
AcDbSymbolTableRecord
100
AcDbTextStyleTableRecord
2
Standard
3
txt
70
0
71
0
40
0
41
1
42
0
50
0
0
STYLE
5
129
100
AcDbSymbolTableRecord
100
AcDbTextStyleTableRecord
2
iso_b_vert
3
simplex.shx
70
0
71
0
40
0
41
1
42
0
50
0
0
STYLE
5
12A
100
AcDbSymbolTableRecord
100
AcDbTextStyleTableRecord
2
DWGDirectTextStyle
3
simplex
70
0
71
0
40
0
41
1
42
0
50
0
0
ENDTAB
0
TABLE
2
DIMSTYLE
5
1db
100
AcDbSymbolTable
100
AcDbDimStyleTable
0
DIMSTYLE
105
27
100
AcDbSymbolTableRecord
100
AcDbDimStyleTableRecord
2
Standard
70
0
3
<>
41
0.18
42
0.0625
44
0.18
140
0.18
147
0.09
73
0
74
0
77
1
271
2
275
0
278
52
280
0
340
11
0
ENDTAB
0
TABLE
2
VIEW
5
1dc
100
AcDbSymbolTable
0
ENDTAB
0
TABLE
2
UCS
5
1dd
100
AcDbSymbolTable
0
ENDTAB
0
TABLE
2
APPID
5
1de
100
AcDbSymbolTable
0
APPID
5
12
100
AcDbSymbolTableRecord
100
AcDbRegAppTableRecord
2
ACAD
70
0
0
APPID
5
149
100
AcDbSymbolTableRecord
100
AcDbRegAppTableRecord
2
ACAD_DSTYLE_DIMBREAK
70
0
0
APPID
5
182
100
AcDbSymbolTableRecord
100
AcDbRegAppTableRecord
2
ACAD_DSTYLE_DIM_LINETYPE
70
0
0
APPID
5
183
100
AcDbSymbolTableRecord
100
AcDbRegAppTableRecord
2
ACAD_DSTYLE_DIM_EXT1_LINETYPE
70
0
0
APPID
5
184
100
AcDbSymbolTableRecord
100
AcDbRegAppTableRecord
2
ACAD_DSTYLE_DIM_EXT2_LINETYPE
70
0
0
APPID
5
1BF
100
AcDbSymbolTableRecord
100
AcDbRegAppTableRecord
2
ACAD_MLEADERVER
70
0
0
ENDTAB
0
TABLE
2
BLOCK_RECORD
5
1df
100
AcDbSymbolTable
0
BLOCK_RECORD
5
1F
100
AcDbSymbolTableRecord
100
AcDbBlockTableRecord
2
*Model_Space
340
0
70
0
0
BLOCK_RECORD
5
1B
100
AcDbSymbolTableRecord
100
AcDbBlockTableRecord
2
*Paper_Space
340
0
70
0
0
BLOCK_RECORD
5
23
100
AcDbSymbolTableRecord
100
AcDbBlockTableRecord
2
*Paper_Space0
340
0
70
0
0
BLOCK_RECORD
5
14E
100
AcDbSymbolTableRecord
100
AcDbBlockTableRecord
2
*D1
340
0
70
0
0
BLOCK_RECORD
5
15B
100
AcDbSymbolTableRecord
100
AcDbBlockTableRecord
2
_U0
340
0
70
0
0
ENDTAB
0
ENDSEC
0
SECTION
2
BLOCKS
0
BLOCK
5
20
100
AcDbEntity
8
0
100
AcDbBlockBegin
2
*Model_Space
70
0
10
0
20
0
30
0
3
*Model_Space
0
ENDBLK
5
21
100
AcDbEntity
8
0
100
AcDbBlockEnd
0
BLOCK
5
1C
100
AcDbEntity
8
0
100
AcDbBlockBegin
2
*Paper_Space
70
0
10
0
20
0
30
0
3
*Paper_Space
0
ENDBLK
5
1D
100
AcDbEntity
8
0
100
AcDbBlockEnd
0
BLOCK
5
24
100
AcDbEntity
8
0
100
AcDbBlockBegin
2
*Paper_Space0
70
0
10
0
20
0
30
0
3
*Paper_Space0
0
ENDBLK
5
25
100
AcDbEntity
8
0
100
AcDbBlockEnd
0
BLOCK
5
14F
100
AcDbEntity
8
0
100
AcDbBlockBegin
2
*D1
70
1
10
0
20
0
30
0
3
*D1
0
LINE
5
151
100
AcDbEntity
8
0
62
256
6
ByLayer
370
-2
48
1
60
0
100
AcDbLine
10
14
20
-2.3376
30
0
11
14
21
-19.1
31
0
39
0
210
0
220
0
230
1
0
LINE
5
152
100
AcDbEntity
8
0
62
256
6
ByLayer
370
-2
48
1
60
0
100
AcDbLine
10
11
20
-2.3376
30
0
11
11
21
-19.1
31
0
39
0
210
0
220
0
230
1
0
LINE
5
153
100
AcDbEntity
8
0
62
256
6
ByLayer
370
-2
48
1
60
0
100
AcDbLine
10
17.5
20
-17.1
30
0
11
21
21
-17.1
31
0
39
0
210
0
220
0
230
1
0
LINE
5
154
100
AcDbEntity
8
0
62
256
6
ByLayer
370
-2
48
1
60
0
100
AcDbLine
10
7.5
20
-17.1
30
0
11
4
21
-17.1
31
0
39
0
210
0
220
0
230
1
0
SOLID
5
155
100
AcDbEntity
8
0
62
256
6
ByLayer
370
-1
48
1
60
0
100
AcDbTrace
10
17.5
20
-16.516667
30
0
11
17.5
21
-17.683333
31
0
12
14
22
-17.1
32
0
13
14
23
-17.1
33
0
39
0
210
0
220
0
230
1
0
SOLID
5
156
100
AcDbEntity
8
0
62
256
6
ByLayer
370
-1
48
1
60
0
100
AcDbTrace
10
7.5
20
-17.683333
30
0
11
7.5
21
-16.516667
31
0
12
11
22
-17.1
32
0
13
11
23
-17.1
33
0
39
0
210
0
220
0
230
1
0
MTEXT
5
157
100
AcDbEntity
8
0
62
256
6
ByLayer
370
18
48
1
60
0
100
AcDbMText
10
12.5
20
-10.1
30
0
210
0
220
0
230
1
1
\A1;3
40
3.5
41
0
44
1
50
0
71
5
72
5
7
iso_b_vert
0
POINT
5
158
100
AcDbEntity
8
Defpoints
62
0
6
ByLayer
370
-1
48
1
60
0
100
AcDbPoint
10
14
20
-0.7501
30
0
39
0
210
0
220
0
230
1
50
360
0
POINT
5
159
100
AcDbEntity
8
Defpoints
62
0
6
ByLayer
370
-1
48
1
60
0
100
AcDbPoint
10
11
20
-0.7501
30
0
39
0
210
0
220
0
230
1
50
360
0
POINT
5
15A
100
AcDbEntity
8
Defpoints
62
0
6
ByLayer
370
-1
48
1
60
0
100
AcDbPoint
10
11
20
-17.1
30
0
39
0
210
0
220
0
230
1
50
360
0
ENDBLK
5
150
100
AcDbEntity
8
0
100
AcDbBlockEnd
0
BLOCK
5
162
100
AcDbEntity
8
0
100
AcDbBlockBegin
2
_U0
70
0
10
0
20
0
30
0
3
_U0
0
MTEXT
5
15C
100
AcDbEntity
8
2
62
256
6
ByLayer
370
18
48
1
60
0
100
AcDbMText
10
11.902767
20
-16.067366
30
0
210
0
220
0
230
1
1
\W0.5404;3
40
3.5
41
0
44
1.084337
50
0
71
7
72
5
7
iso_b_vert
0
LINE
5
15D
100
AcDbEntity
8
2
62
256
6
ByLayer
370
13
48
1
60
0
100
AcDbLine
10
14
20
-2.3376
30
0
11
14
21
-19.1
31
0
39
0
210
0
220
0
230
1
0
LINE
5
15E
100
AcDbEntity
8
2
62
256
6
ByLayer
370
13
48
1
60
0
100
AcDbLine
10
11
20
-2.3376
30
0
11
11
21
-19.1
31
0
39
0
210
0
220
0
230
1
0
LINE
5
15F
100
AcDbEntity
8
2
62
256
6
ByLayer
370
13
48
1
60
0
100
AcDbLine
10
22.75
20
-17.1
30
0
11
2.25
21
-17.1
31
0
39
0
210
0
220
0
230
1
0
SOLID
5
160
100
AcDbEntity
8
2
62
256
6
ByLayer
370
18
48
1
60
0
100
AcDbTrace
10
14
20
-17.1
30
0
11
17.499998
21
-16.639216
31
0
12
17.500002
22
-17.560784
32
0
13
17.500002
23
-17.560784
33
0
39
0
210
0
220
0
230
1
0
SOLID
5
161
100
AcDbEntity
8
2
62
256
6
ByLayer
370
18
48
1
60
0
100
AcDbTrace
10
11
20
-17.1
30
0
11
7.500002
21
-17.560784
31
0
12
7.499998
22
-16.639216
32
0
13
7.499998
23
-16.639216
33
0
39
0
210
0
220
0
230
1
0
ENDBLK
5
163
100
AcDbEntity
8
0
100
AcDbBlockEnd
0
ENDSEC
0
SECTION
2
ENTITIES
0
ARC
5
CF
100
AcDbEntity
8
1
62
256
6
ByLayer
370
18
48
1
60
0
100
AcDbCircle
39
0
10
6.497679
20
1.75
30
0
40
1
210
0
220
0
230
1
100
AcDbArc
50
240
51
270
0
ARC
5
D0
100
AcDbEntity
8
1
62
256
6
ByLayer
370
18
48
1
60
0
100
AcDbCircle
39
0
10
6.497679
20
-1.75
30
0
40
1
210
0
220
0
230
1
100
AcDbArc
50
90
51
120
0
ELLIPSE
5
D1
100
AcDbEntity
8
1
62
256
6
ByLayer
370
18
48
1
60
0
100
AcDbEllipse
10
11.680596
20
0
30
0
11
1.35828778816311
21
-0.731630751122513
31
0
210
0
220
0
230
1
40
0.121457
41
2.27199488808696
42
2.72995764694925
0
ELLIPSE
5
D2
100
AcDbEntity
8
1
62
256
6
ByLayer
370
18
48
1
60
0
100
AcDbEllipse
10
11.680596
20
0
30
0
11
1.35522715729837
21
0.243129998183195
31
0
210
0
220
0
230
1
40
0.523527
41
-2.75827563918161
42
-2.30031288029117
0
POINT
5
70
100
AcDbEntity
8
81
62
256
6
ByLayer
370
18
48
1
60
0
100
AcDbPoint
10
14
20
0
30
0
39
0
210
0
220
0
230
1
50
360
0
POINT
5
72
100
AcDbEntity
8
80
62
256
6
ByLayer
370
18
48
1
60
0
100
AcDbPoint
10
0
20
0
30
0
39
0
210
0
220
0
230
1
50
360
0
POINT
5
74
100
AcDbEntity
8
1
62
256
6
ByLayer
370
18
48
1
60
1
100
AcDbPoint
10
14
20
-0.7501
30
0
39
0
210
0
220
0
230
1
50
360
0
POINT
5
76
100
AcDbEntity
8
1
62
256
6
ByLayer
370
18
48
1
60
1
100
AcDbPoint
10
11
20
-0.7501
30
0
39
0
210
0
220
0
230
1
50
360
0
SPLINE
5
D3
100
AcDbEntity
8
1
62
256
6
ByLayer
370
18
48
1
60
0
100
AcDbSpline
70
4
71
3
72
8
73
4
40
0
40
0
40
0
40
0
40
1
40
1
40
1
40
1
41
1
10
14.0000000000001
20
0.749741803229341
30
0
41
1
10
13.9988223726676
20
0.732597446567183
30
0
41
1
10
13.9976552743905
20
0.715436008180433
30
0
41
1
10
13.996498492529
20
0.698258783019043
30
0
0
SPLINE
5
D4
100
AcDbEntity
8
1
62
256
6
ByLayer
370
18
48
1
60
0
100
AcDbSpline
70
4
71
3
72
14
73
10
40
0
40
0
40
0
40
0
40
0.499999999999998
40
0.499999999999998
40
0.624999999999998
40
0.624999999999998
40
0.749999999999998
40
0.749999999999998
40
1
40
1
40
1
40
1
41
1
10
13.9964984925313
20
0.69825878301819
30
0
41
1
10
13.9945743259263
20
0.669685339788458
30
0
41
1
10
13.9934304132247
20
0.640986178149717
30
0
41
1
10
13.9929384185115
20
0.604961107583875
30
0
41
1
10
13.9928880569994
20
0.597711739799536
30
0
41
1
10
13.9928857520582
20
0.583408127193223
30
0
41
1
10
13.9929331586962
20
0.576358001816516
30
0
41
1
10
13.9932150769144
20
0.555500148620524
30
0
41
1
10
13.9935885673043
20
0.54198343714225
30
0
41
1
10
13.9941414828
20
0.528842435010205
30
0
0
SPLINE
5
D5
100
AcDbEntity
8
1
62
256
6
ByLayer
370
18
48
1
60
0
100
AcDbSpline
70
4
71
3
72
9
73
5
40
0
40
0
40
0
40
0
40
0.564376384843994
40
1
40
1
40
1
40
1
41
1
10
13.996498492532
20
0.698258783018133
30
0
41
1
10
13.872665661688
20
0.69671315407291
30
0
41
1
10
13.6532503314767
20
0.661450599577847
30
0
41
1
10
13.4338350012654
20
0.577402051706059
30
0
41
1
10
13.3382525018981
20
0.532741966415813
30
0
0
SPLINE
5
D6
100
AcDbEntity
8
1
62
256
6
ByLayer
370
18
48
1
60
0
100
AcDbSpline
70
4
71
3
72
20
73
16
40
0
40
0
40
0
40
0
40
0.1521027530438
40
0.1521027530438
40
0.3042055060876
40
0.3042055060876
40
0.4563082591314
40
0.4563082591314
40
0.6084110121752
40
0.6084110121752
40
0.760513765219
40
0.760513765219
40
0.9126165182628
40
0.9126165182628
40
1
40
1
40
1
40
1
41
1
10
13.9941414828
20
0.528842435010233
30
0
41
1
10
13.9840313235904
20
0.517556529157815
30
0
41
1
10
13.9726235931222
20
0.507847830865217
30
0
41
1
10
13.9480463175726
20
0.49057193310702
30
0
41
1
10
13.9347855078482
20
0.482989123749064
30
0
41
1
10
13.9077803169104
20
0.469762178524832
30
0
41
1
10
13.8939418714467
20
0.464047239980829
30
0
41
1
10
13.8657943111779
20
0.453876593039269
30
0
41
1
10
13.8514831162416
20
0.449426449830526
30
0
41
1
10
13.8225012061115
20
0.441488024972585
30
0
41
1
10
13.8078211121834
20
0.438002676317126
30
0
41
1
10
13.778457311619
20
0.431857772863623
30
0
41
1
10
13.7637332338714
20
0.429187756895971
30
0
41
1
10
13.7404962008832
20
0.425498371752212
30
0
41
1
10
13.7320063145164
20
0.424258891205227
30
0
41
1
10
13.7235060307077
20
0.423118617720434
30
0
0
SPLINE
5
D7
100
AcDbEntity
8
1
62
256
6
ByLayer
370
18
48
1
60
0
100
AcDbSpline
70
4
71
3
72
8
73
4
40
0
40
0
40
0
40
0
40
1
40
1
40
1
40
1
41
1
10
11.5119957830189
20
-0.664529329143051
30
0
41
1
10
11.3413305220126
20
-0.686182455307232
30
0
41
1
10
11.1706652610064
20
-0.676929201751847
30
0
41
1
10
11.0000000000001
20
-0.634323248700298
30
0
0
SPLINE
5
D8
100
AcDbEntity
8
1
62
256
6
ByLayer
370
18
48
1
60
0
100
AcDbSpline
70
4
71
3
72
17
73
13
40
0
40
0
40
0
40
0
40
0.106914753277718
40
0.170706556615028
40
0.170706556615028
40
0.234498359952338
40
0.234498359952338
40
0.489665573301559
40
0.489665573301559
40
0.744832786650779
40
0.744832786650779
40
1
40
1
40
1
40
1
41
1
10
11.7219451157703
20
-0.659846071790639
30
0
41
1
10
11.6962775063377
20
-0.668336750107102
30
0
41
1
10
11.6552263008253
20
-0.680756663595076
30
0
41
1
10
11.6139810528693
20
-0.691370211841189
30
0
41
1
10
11.583087317879
20
-0.698798552385966
30
0
41
1
10
11.5675814790029
20
-0.702265921445559
30
0
41
1
10
11.4902179338858
20
-0.718237111163376
30
0
41
1
10
11.4289097342082
20
-0.726669968697763
30
0
41
1
10
11.3067078957183
20
-0.734653083020874
30
0
41
1
10
11.2458331710529
20
-0.734130955209139
30
0
41
1
10
11.1235851138529
20
-0.723792172108006
30
0
41
1
10
11.0621761828083
20
-0.714072372101214
30
0
41
1
10
11.0000000000001
20
-0.700014506856121
30
0
0
SPLINE
5
D9
100
AcDbEntity
8
1
62
256
6
ByLayer
370
18
48
1
60
0
100
AcDbSpline
70
4
71
3
72
8
73
4
40
0
40
0
40
0
40
0
40
1
40
1
40
1
40
1
41
1
10
11.4367490411167
20
-0.658483302241052
30
0
41
1
10
11.2911660274111
20
-0.664561037717363
30
0
41
1
10
11.1455830137056
20
-0.648350028017603
30
0
41
1
10
11
20
-0.608837987467126
30
0
0
SPLINE
5
DA
100
AcDbEntity
8
1
62
256
6
ByLayer
370
18
48
1
60
0
100
AcDbSpline
70
4
71
3
72
10
73
6
40
0
40
0
40
0
40
0
40
0.5
40
0.5
40
1
40
1
40
1
40
1
41
1
10
13.5491524358348
20
-0.222169477425837
30
0
41
1
10
13.5551322685367
20
-0.217123177245696
30
0
41
1
10
13.5614409375885
20
-0.212409862669063
30
0
41
1
10
13.5747515233995
20
-0.204234053342787
30
0
41
1
10
13.5817408032359
20
-0.200784701262876
30
0
41
1
10
13.5890054562914
20
-0.198163837753867
30
0
0
SPLINE
5
DB
100
AcDbEntity
8
1
62
256
6
ByLayer
370
18
48
1
60
0
100
AcDbSpline
70
4
71
3
72
9
73
5
40
0
40
0
40
0
40
0
40
0.208023296989258
40
1
40
1
40
1
40
1
41
1
10
11.9469975532725
20
-0.350520625287629
30
0
41
1
10
11.8813317021816
20
-0.334539039816775
30
0
41
1
10
11.5656658510909
20
-0.24597788196985
30
0
41
0.999999999999999
10
11.25
20
-0.10737645787296
30
0
41
1
10
11
20
0.0021674697344167
30
0
0
SPLINE
5
DC
100
AcDbEntity
8
1
62
256
6
ByLayer
370
18
48
1
60
0
100
AcDbSpline
70
4
71
3
72
9
73
5
40
0
40
0
40
0
40
0
40
0.277329508859736
40
1
40
1
40
1
40
1
41
1
10
12.0378173859246
20
-0.592725790011116
30
0
41
1
10
11.941878257283
20
-0.61603977601709
30
0
41
1
10
11.5959391286415
20
-0.668193748407191
30
0
41
0.999999999999999
10
11.25
20
-0.593430807153198
30
0
41
1
10
11
20
-0.484698417761933
30
0
0
SPLINE
5
DD
100
AcDbEntity
8
1
62
256
6
ByLayer
370
18
48
1
60
0
100
AcDbSpline
70
4
71
3
72
8
73
4
40
0
40
0
40
0
40
0
40
1
40
1
40
1
40
1
41
1
10
10.8722148868221
20
0.598051481544758
30
0
41
1
10
10.8854909542498
20
0.590465627237023
30
0
41
1
10
10.8987745709465
20
0.582893807030445
30
0
41
1
10
10.9120656863966
20
0.575335927015971
30
0
0
SPLINE
5
DE
100
AcDbEntity
8
1
62
256
6
ByLayer
370
18
48
1
60
0
100
AcDbSpline
70
4
71
3
72
8
73
4
40
0
40
0
40
0
40
0
40
1
40
1
40
1
40
1
41
1
10
11.0000000000001
20
-0.700014506856121
30
0
41
1
10
10.9704616400479
20
-0.694136858688324
30
0
41
1
10
10.9411410362444
20
-0.687543874674589
30
0
41
1
10
10.9120661166465
20
-0.680143810262223
30
0
0
SPLINE
5
DF
100
AcDbEntity
8
1
62
256
6
ByLayer
370
18
48
1
60
0
100
AcDbSpline
70
4
71
3
72
10
73
6
40
0
40
0
40
0
40
0
40
0.264552320615821
40
0.264552320615821
40
1
40
1
40
1
40
1
41
1
10
13.6660767513203
20
0.441428646862619
30
0
41
1
10
13.6868745648718
20
0.436803881313892
30
0
41
1
10
13.7077746538424
20
0.431362689812005
30
0
41
1
10
13.7871463725127
20
0.407841604926347
30
0
41
1
10
13.8449292485286
20
0.384986931276586
30
0
41
1
10
13.9020937811628
20
0.356891109616868
30
0
0
SPLINE
5
E0
100
AcDbEntity
8
1
62
256
6
ByLayer
370
18
48
1
60
0
100
AcDbSpline
70
4
71
3
72
14
73
10
40
0
40
0
40
0
40
0
40
0.25
40
0.25
40
0.5
40
0.5
40
0.75
40
0.75
40
1
40
1
40
1
40
1
41
1
10
13.9021895716538
20
-0.514283541528869
30
0
41
1
10
13.9024191945634
20
-0.528842204301071
30
0
41
1
10
13.9029123929494
20
-0.542133200259428
30
0
41
1
10
13.9044475810756
20
-0.566075778990864
30
0
41
1
10
13.9054726523736
20
-0.576454343821752
30
0
41
1
10
13.9080091726277
20
-0.594117898705719
30
0
41
1
10
13.9095213780642
20
-0.601412682287247
30
0
41
1
10
13.9130366775568
20
-0.612909372621886
30
0
41
1
10
13.9150457552764
20
-0.617097892237439
30
0
41
1
10
13.9172660695606
20
-0.619628013173639
30
0
0
SPLINE
5
E1
100
AcDbEntity
8
1
62
256
6
ByLayer
370
18
48
1
60
0
100
AcDbSpline
70
4
71
3
72
14
73
10
40
0
40
0
40
0
40
0
40
0.25
40
0.25
40
0.5
40
0.5
40
0.75
40
0.75
40
1
40
1
40
1
40
1
41
1
10
13.535659657192
20
-0.344249339501317
30
0
41
1
10
13.5657230791821
20
-0.36419049471499
30
0
41
1
10
13.5961003690215
20
-0.382570931615419
30
0
41
1
10
13.6574066811551
20
-0.416588297446083
30
0
41
1
10
13.6884619613661
20
-0.432272245819405
30
0
41
1
10
13.7500677227016
20
-0.460588071717694
30
0
41
1
10
13.7807082221175
20
-0.473279310549572
30
0
41
1
10
13.8416812821112
20
-0.495880396158725
30
0
41
1
10
13.8720136829088
20
-0.505788799754924
30
0
41
1
10
13.9021895716539
20
-0.514283541528954
30
0
0
SPLINE
5
E2
100
AcDbEntity
8
1
62
256
6
ByLayer
370
18
48
1
60
0
100
AcDbSpline
70
4
71
3
72
24
73
20
40
0
40
0
40
0
40
0
40
0.125000000000078
40
0.125000000000078
40
0.187500000000072
40
0.187500000000072
40
0.250000000000067
40
0.250000000000067
40
0.375000000000056
40
0.375000000000056
40
0.500000000000045
40
0.500000000000045
40
0.625000000000035
40
0.625000000000035
40
0.750000000000024
40
0.750000000000024
40
0.875000000000012
40
0.875000000000012
40
1
40
1
40
1
40
1
41
1
10
13.5356596571954
20
-0.344249339503676
30
0
41
1
10
13.5307833532389
20
-0.341014872911785
30
0
41
1
10
13.5263260651295
20
-0.337320387081405
30
0
41
1
10
13.5204275962615
20
-0.330893069904391
30
0
41
1
10
13.5185861804243
20
-0.328585262077837
30
0
41
1
10
13.5153126844551
20
-0.323767778874782
30
0
41
1
10
13.5138671342875
20
-0.321246925587161
30
0
41
1
10
13.5101444444839
20
-0.313321258736181
30
0
41
1
10
13.5084890212676
20
-0.30744278649189
30
0
41
1
10
13.5072188253624
20
-0.295515792417461
30
0
41
1
10
13.507568231506
20
-0.28929594006334
30
0
41
1
10
13.5099443677776
20
-0.277211810814777
30
0
41
1
10
13.5119731431726
20
-0.271242748214434
30
0
41
1
10
13.517148061397
20
-0.259958084234711
30
0
41
1
10
13.5202832083061
20
-0.25461460577597
30
0
41
1
10
13.5274063741463
20
-0.244394123607151
30
0
41
1
10
13.5313925084152
20
-0.239536777404339
30
0
41
1
10
13.5398704331373
20
-0.230452612860148
30
0
41
1
10
13.5443889654583
20
-0.226189462953471
30
0
41
1
10
13.5491524358312
20
-0.222169477424529
30
0
0
SPLINE
5
E3
100
AcDbEntity
8
1
62
256
6
ByLayer
370
18
48
1
60
0
100
AcDbSpline
70
4
71
3
72
13
73
9
40
0
40
0
40
0
40
0
40
0.184088731115627
40
0.357160882381238
40
0.53023303364685
40
0.703305184912462
40
0.876377336178073
40
1
40
1
40
1
40
1
41
1
10
13.5491524358348
20
-0.222169477425837
30
0
41
1
10
13.4494349572232
20
-0.184930630262755
30
0
41
1
10
13.2559674786116
20
-0.106088650856037
30
0
41
1
10
12.96875
20
0.021351460647935
30
0
41
1
10
12.6875
20
0.143769920930396
30
0
41
0.999999999999999
10
12.40625
20
0.253328446622675
30
0
41
1
10
12.1517858775311
20
0.334274858874551
30
0
41
1
10
11.9910717550622
20
0.370562127604245
30
0
41
1
10
11.9241076325933
20
0.382875692139947
30
0
0
SPLINE
5
E4
100
AcDbEntity
8
1
62
256
6
ByLayer
370
18
48
1
60
0
100
AcDbSpline
70
4
71
3
72
11
73
7
40
0
40
0
40
0
40
0
40
0.279394858442909
40
0.637880096601986
40
0.906744025221293
40
1
40
1
40
1
40
1
41
1
10
13.9172660705756
20
0.180434456014012
30
0
41
1
10
13.8198440470504
20
0.243030051851065
30
0
41
1
10
13.5974220235252
20
0.376710833085213
30
0
41
1
10
13.28125
20
0.527005018304948
30
0
41
1
10
13.0299826307851
20
0.599715455384597
30
0
41
1
10
12.9037152615701
20
0.620613755647497
30
0
41
1
10
12.8711978923551
20
0.624922095864832
30
0
0
SPLINE
5
E5
100
AcDbEntity
8
1
62
256
6
ByLayer
370
18
48
1
60
0
100
AcDbSpline
70
4
71
3
72
14
73
10
40
0
40
0
40
0
40
0
40
0.25
40
0.25
40
0.499999999999999
40
0.499999999999999
40
0.75
40
0.75
40
1
40
1
40
1
40
1
41
1
10
13.9172660703211
20
-0.619628012730061
30
0
41
1
10
13.9193883124323
20
-0.618627407583773
30
0
41
1
10
13.9216363730797
20
-0.61641463477028
30
0
41
1
10
13.9263773359634
20
-0.609630249665969
30
0
41
1
10
13.9288695005624
20
-0.605050643371811
30
0
41
1
10
13.934026533621
20
-0.593685760986062
30
0
41
1
10
13.9367093512097
20
-0.586860187385099
30
0
41
1
10
13.9422036612319
20
-0.571147779375792
30
0
41
1
10
13.9450164444642
20
-0.562265406300696
30
0
41
1
10
13.9478947190563
20
-0.552359004165766
30
0
0
SPLINE
5
E6
100
AcDbEntity
8
1
62
256
6
ByLayer
370
18
48
1
60
0
100
AcDbSpline
70
4
71
3
72
15
73
11
40
0
40
0
40
0
40
0
40
0.100184920917373
40
0.228729932214891
40
0.32513869068803
40
0.421547449161169
40
0.517956207634307
40
0.614364966107446
40
0.742909977404964
40
1
40
1
40
1
40
1
41
1
10
13.9172660705756
20
-0.619628012881918
30
0
41
1
10
13.8198440470504
20
-0.63526007318211
30
0
41
1
10
13.5974220235252
20
-0.647027546539107
30
0
41
1
10
13.28125
20
-0.590611226692204
30
0
41
1
10
12.96875
20
-0.471944239067966
30
0
41
1
10
12.6875
20
-0.32723915282719
30
0
41
0.999999999999999
10
12.40625
20
-0.150860573148321
30
0
41
1
10
12.09375
20
0.0589299948052542
30
0
41
1
10
11.625
20
0.365113972445016
30
0
41
0.999999999999999
10
11.25
20
0.546585827761704
30
0
41
1
10
11
20
0.60022699449371
30
0
0
SPLINE
5
E7
100
AcDbEntity
8
1
62
256
6
ByLayer
370
18
48
1
60
0
100
AcDbSpline
70
4
71
3
72
9
73
5
40
0
40
0
40
0
40
0
40
0.46336027294689
40
1
40
1
40
1
40
1
41
1
10
13.9478947202817
20
-0.0361513803032949
30
0
41
1
10
13.8402631468544
20
0.039621029561971
30
0
41
1
10
13.6079782926896
20
0.197247531058196
30
0
41
1
10
13.3756934385248
20
0.340557632610313
30
0
41
1
10
13.2510401577872
20
0.407931225673622
30
0
0
SPLINE
5
E8
100
AcDbEntity
8
1
62
256
6
ByLayer
370
18
48
1
60
0
100
AcDbSpline
70
4
71
3
72
14
73
10
40
0
40
0
40
0
40
0
40
0.25
40
0.25
40
0.5
40
0.5
40
0.75
40
0.75
40
1
40
1
40
1
40
1
41
1
10
13.9478947199306
20
-0.552359004172132
30
0
41
1
10
13.9483735747793
20
-0.550711225705413
30
0
41
1
10
13.9488315544183
20
-0.549342313359489
30
0
41
1
10
13.9497056735294
20
-0.547163466613313
30
0
41
1
10
13.9501266623226
20
-0.546348260126564
30
0
41
1
10
13.9508937572035
20
-0.545393699995969
30
0
41
1
10
13.9512390764064
20
-0.545246639766134
30
0
41
1
10
13.9518467600912
20
-0.545669091557755
30
0
41
1
10
13.9521096654199
20
-0.546251125321419
30
0
41
1
10
13.9523116426892
20
-0.547229752618449
30
0
0
SPLINE
5
E9
100
AcDbEntity
8
1
62
256
6
ByLayer
370
18
48
1
60
0
100
AcDbSpline
70
4
71
3
72
9
73
5
40
0
40
0
40
0
40
0
40
0.320962842256175
40
1
40
1
40
1
40
1
41
1
10
13.6479001295975
20
-0.636450772700584
30
0
41
1
10
13.640266753065
20
-0.637805903313307
30
0
41
1
10
13.616484010867
20
-0.641845340741469
30
0
41
1
10
13.5927012686691
20
-0.645318558130242
30
0
41
1
10
13.5765519030036
20
-0.6474129062494
30
0
0
SPLINE
5
EA
100
AcDbEntity
8
1
62
256
6
ByLayer
370
18
48
1
60
0
100
AcDbSpline
70
4
71
3
72
14
73
10
40
0
40
0
40
0
40
0
40
0.0670121337073269
40
0.194697706807418
40
0.322383279907509
40
0.4500688530076
40
0.57775442610769
40
0.748001856907811
40
1
40
1
40
1
40
1
41
1
10
13.3976060462243
20
-0.659659038067389
30
0
41
1
10
13.3484040308162
20
-0.65997069539759
30
0
41
1
10
13.205452015408
20
-0.653453379129672
30
0
41
1
10
12.96875
20
-0.605759819238813
30
0
41
1
10
12.6875
20
-0.497289160079163
30
0
41
0.999999999999999
10
12.40625
20
-0.347591180831756
30
0
41
1
10
12.09375
20
-0.147232799070963
30
0
41
1
10
11.6899765447943
20
0.135445387225246
30
0
41
1
10
11.3799530895886
20
0.337495500073089
30
0
41
1
10
11.194929634383
20
0.433401460086032
30
0
0
SPLINE
5
EB
100
AcDbEntity
8
1
62
256
6
ByLayer
370
18
48
1
60
0
100
AcDbSpline
70
4
71
3
72
13
73
9
40
0
40
0
40
0
40
0
40
0.126918674836503
40
0.294646275609429
40
0.462373876382356
40
0.630101477155283
40
0.79782907792821
40
1
40
1
40
1
40
1
41
1
10
11.9121794675816
20
0.390864893114809
30
0
41
1
10
11.9831196450544
20
0.381144507417986
30
0
41
1
10
12.1478098225272
20
0.351126686882708
30
0
41
0.999999999999999
10
12.40625
20
0.278679700021542
30
0
41
1
10
12.6875
20
0.177461024025831
30
0
41
1
10
12.96875
20
0.0604846451679748
30
0
41
1
10
13.2692518187638
20
-0.0707110218552316
30
0
41
1
10
13.4760036375276
20
-0.155618881546133
30
0
41
1
10
13.5890054562914
20
-0.198163837753867
30
0
0
SPLINE
5
EC
100
AcDbEntity
8
1
62
256
6
ByLayer
370
18
48
1
60
0
100
AcDbSpline
70
4
71
3
72
10
73
6
40
0
40
0
40
0
40
0
40
0.5
40
0.5
40
1
40
1
40
1
40
1
41
1
10
13.5890054562914
20
-0.198163837753867
30
0
41
1
10
13.5976061297779
20
-0.19506089232425
30
0
41
1
10
13.6064282906399
20
-0.193066245617189
30
0
41
1
10
13.6245517460855
20
-0.191097560642532
30
0
41
1
10
13.6338901969051
20
-0.191147384720836
30
0
41
1
10
13.6431348163849
20
-0.192143554241824
30
0
0
SPLINE
5
ED
100
AcDbEntity
8
1
62
256
6
ByLayer
370
18
48
1
60
0
100
AcDbSpline
70
4
71
3
72
10
73
6
40
0
40
0
40
0
40
0
40
0.330599964058286
40
0.330599964058286
40
1
40
1
40
1
40
1
41
1
10
13.7821391236954
20
-0.210882252911546
30
0
41
1
10
13.7669291256599
20
-0.208344841402209
30
0
41
1
10
13.7516764550108
20
-0.205993611873282
30
0
41
1
10
13.7054346401246
20
-0.199341816754867
30
0
41
1
10
13.6743389737414
20
-0.195506010701479
30
0
41
1
10
13.6431348163849
20
-0.192143554241881
30
0
0
SPLINE
5
EE
100
AcDbEntity
8
1
62
256
6
ByLayer
370
18
48
1
60
0
100
AcDbSpline
70
4
71
3
72
14
73
10
40
0
40
0
40
0
40
0
40
0.5
40
0.5
40
0.625
40
0.625
40
0.75
40
0.75
40
1
40
1
40
1
40
1
41
1
10
13.9964984925313
20
-0.339028134254875
30
0
41
1
10
13.9945743259264
20
-0.319262731527175
30
0
41
1
10
13.9934304132246
20
-0.3037538120372
30
0
41
1
10
13.9929384185114
20
-0.289484124462888
30
0
41
1
10
13.9928880569995
20
-0.286880494171157
30
0
41
1
10
13.9928857520582
20
-0.282277832003842
30
0
41
1
10
13.9929331586962
20
-0.280276542889027
30
0
41
1
10
13.9932150769144
20
-0.275135857659023
30
0
41
1
10
13.9935885673042
20
-0.272855197975247
30
0
41
1
10
13.9941414828
20
-0.271683188417882
30
0
0
SPLINE
5
EF
100
AcDbEntity
8
1
62
256
6
ByLayer
370
18
48
1
60
0
100
AcDbSpline
70
4
71
3
72
16
73
12
40
0
40
0
40
0
40
0
40
0.250000000000002
40
0.250000000000002
40
0.375000000000003
40
0.375000000000003
40
0.500000000000004
40
0.500000000000004
40
0.750000000000002
40
0.750000000000002
40
1
40
1
40
1
40
1
41
1
10
13.9020937811643
20
0.356891109616299
30
0
41
1
10
13.9022373332282
20
0.348330227718463
30
0
41
1
10
13.9026674042169
20
0.338097070682465
30
0
41
1
10
13.903756754852
20
0.320154492609504
30
0
41
1
10
13.9041944602999
20
0.313743659282864
30
0
41
1
10
13.9052034736467
20
0.300270690831525
30
0
41
1
10
13.9057761600167
20
0.293184311415615
30
0
41
1
10
13.9076944903386
20
0.270897390160059
30
0
41
1
10
13.9092394355449
20
0.254674043090631
30
0
41
1
10
13.9128628680498
20
0.219489234511713
30
0
41
1
10
13.9149492134945
20
0.200469727558357
30
0
41
1
10
13.9172660695605
20
0.180434455872557
30
0
0
SPLINE
5
F0
100
AcDbEntity
8
1
62
256
6
ByLayer
370
18
48
1
60
0
100
AcDbSpline
70
4
71
3
72
14
73
10
40
0
40
0
40
0
40
0
40
0.25
40
0.25
40
0.5
40
0.5
40
0.75
40
0.75
40
1
40
1
40
1
40
1
41
1
10
13.9172660703211
20
0.1804344556312
30
0
41
1
10
13.9193883124323
20
0.163697688862897
30
0
41
1
10
13.9216363730797
20
0.146513418135044
30
0
41
1
10
13.9263773359634
20
0.111274048592605
30
0
41
1
10
13.9288695005624
20
0.0932287030651366
30
0
41
1
10
13.934026533621
20
0.0567797712226934
30
0
41
1
10
13.9367093512097
20
0.0382496744209107
30
0
41
1
10
13.9422036612318
20
0.0011200406499654
30
0
41
1
10
13.9450164444642
20
-0.0174920717058171
30
0
41
1
10
13.9478947190563
20
-0.0361513809175733
30
0
0
SPLINE
5
F1
100
AcDbEntity
8
1
62
256
6
ByLayer
370
18
48
1
60
0
100
AcDbSpline
70
4
71
3
72
14
73
10
40
0
40
0
40
0
40
0
40
0.25
40
0.25
40
0.5
40
0.5
40
0.75
40
0.75
40
1
40
1
40
1
40
1
41
1
10
13.9478947199305
20
-0.0361513807986
30
0
41
1
10
13.9483735747792
20
-0.0392558653297783
30
0
41
1
10
13.9488315544183
20
-0.0423228489146652
30
0
41
1
10
13.9497056735294
20
-0.0483816462005109
30
0
41
1
10
13.9501266623226
20
-0.0514102997786097
30
0
41
1
10
13.9508937572035
20
-0.0571797312198896
30
0
41
1
10
13.9512390764064
20
-0.0599104865371487
30
0
41
1
10
13.9518467600912
20
-0.0650379053304562
30
0
41
1
10
13.9521096654199
20
-0.0674448714876235
30
0
41
1
10
13.9523116426892
20
-0.0695451644032232
30
0
0
SPLINE
5
F2
100
AcDbEntity
8
1
62
256
6
ByLayer
370
18
48
1
60
0
100
AcDbSpline
70
4
71
3
72
9
73
5
40
0
40
0
40
0
40
0
40
0.839522356874608
40
1
40
1
40
1
40
1
41
1
10
11
20
0.0413145771321695
30
0
41
0.999999999999999
10
11.25
20
-0.0652043756461467
30
0
41
1
10
11.5477883768703
20
-0.19746689644785
30
0
41
1
10
11.8455767537406
20
-0.290595276288599
30
0
41
1
10
11.8933651306109
20
-0.304409036899585
30
0
0
SPLINE
5
F3
100
AcDbEntity
8
1
62
256
6
ByLayer
370
18
48
1
60
0
100
AcDbSpline
70
4
71
3
72
8
73
4
40
0
40
0
40
0
40
0
40
1
40
1
40
1
40
1
41
1
10
13.9523116434243
20
-0.547229751703526
30
0
41
1
10
13.9538013367692
20
-0.554479274140562
30
0
41
1
10
13.955308549609
20
-0.561614443204462
30
0
41
1
10
13.9568339611196
20
-0.568630833899562
30
0
0
SPLINE
5
F4
100
AcDbEntity
8
1
62
256
6
ByLayer
370
18
48
1
60
0
100
AcDbSpline
70
4
71
3
72
15
73
11
40
0
40
0
40
0
40
0
40
0.0731636713724603
40
0.223757824178435
40
0.336703438782916
40
0.449649053387398
40
0.562594667991879
40
0.67554028259636
40
0.826134435402335
40
1
40
1
40
1
40
1
41
1
10
13.807187530216
20
-0.60117185801704
30
0
41
1
10
13.7464583534773
20
-0.62064295013198
30
0
41
1
10
13.5607291767387
20
-0.668386969835439
30
0
41
1
10
13.2812500000001
20
-0.68770554605041
30
0
41
1
10
12.9687500000001
20
-0.632551582827006
30
0
41
1
10
12.6875000000001
20
-0.528776621340711
30
0
41
1
10
12.4062500000001
20
-0.38118028567942
30
0
41
1
10
12.0937500000001
20
-0.179912874842927
30
0
41
1
10
11.7306836691881
20
0.0795041357884827
30
0
41
1
10
11.461367338376
20
0.263891607794534
30
0
41
1
10
11.317051007564
20
0.350800818572083
30
0
0
SPLINE
5
F5
100
AcDbEntity
8
1
62
256
6
ByLayer
370
18
48
1
60
0
100
AcDbSpline
70
4
71
3
72
8
73
4
40
0
40
0
40
0
40
0
40
1
40
1
40
1
40
1
41
1
10
13.9946115933434
20
-0.404281525632143
30
0
41
1
10
13.9819905310598
20
-0.461106419789502
30
0
41
1
10
13.9693897749259
20
-0.515916683495561
30
0
41
1
10
13.9568339611195
20
-0.568630833904848
30
0
0
SPLINE
5
F6
100
AcDbEntity
8
1
62
256
6
ByLayer
370
18
48
1
60
0
100
AcDbSpline
70
4
71
3
72
8
73
4
40
0
40
0
40
0
40
0
40
1
40
1
40
1
40
1
41
1
10
10.9999999999999
20
0.53796305748952
30
0
41
1
10
10.9704628060987
20
0.550748817541006
30
0
41
1
10
10.941142231138
20
0.563219839335545
30
0
41
1
10
10.9120661166001
20
0.575335670363955
30
0
0
SPLINE
5
F7
100
AcDbEntity
8
1
62
256
6
ByLayer
370
18
48
1
60
0
100
AcDbSpline
70
4
71
3
72
8
73
4
40
0
40
0
40
0
40
0
40
1
40
1
40
1
40
1
41
1
10
11.3414132793038
20
0.11411992212075
30
0
41
1
10
11.2276088528692
20
0.195881660567182
30
0
41
1
10
11.1138044264346
20
0.275317407854914
30
0
41
1
10
11
20
0.347122944546157
30
0
0
SPLINE
5
F8
100
AcDbEntity
8
1
62
256
6
ByLayer
370
18
48
1
60
0
100
AcDbSpline
70
4
71
3
72
8
73
4
40
0
40
0
40
0
40
0
40
1
40
1
40
1
40
1
41
1
10
14
20
-0.375084503297103
30
0
41
1
10
13.9982055785461
20
-0.3848475646748
30
0
41
1
10
13.99640939685
20
-0.394580175133967
30
0
41
1
10
13.9946115951592
20
-0.404281525936455
30
0
0
SPLINE
5
F9
100
AcDbEntity
8
1
62
256
6
ByLayer
370
13
48
1
60
0
100
AcDbSpline
70
4
71
3
72
11
73
7
40
0
40
0
40
0
40
0
40
0.245860147523412
40
0.494160146139495
40
0.745384242477896
40
1
40
1
40
1
40
1
41
1
10
10.8099643908146
20
0.484163030771668
30
0
41
1
10
10.8110431280824
20
0.485409796681779
30
0
41
1
10
10.8132113077215
20
0.48791570107727
30
0
41
1
10
10.8167626073497
20
0.491520817437987
30
0
41
1
10
10.8205336632776
20
0.495046901685925
30
0
41
1
10
10.823229544395
20
0.497288862315514
30
0
41
1
10
10.8245865229084
20
0.498417358814322
30
0
0
SPLINE
5
FA
100
AcDbEntity
8
1
62
256
6
ByLayer
370
18
48
1
60
0
100
AcDbSpline
70
4
71
3
72
8
73
4
40
0
40
0
40
0
40
0
40
1
40
1
40
1
40
1
41
1
10
13.9523116434243
20
-0.0695451649433494
30
0
41
1
10
13.9538013367692
20
-0.0850509151227641
30
0
41
1
10
13.955308549609
20
-0.10064470333711
30
0
41
1
10
13.9568339611196
20
-0.116329936215294
30
0
0
SPLINE
5
FB
100
AcDbEntity
8
1
62
256
6
ByLayer
370
18
48
1
60
0
100
AcDbSpline
70
4
71
3
72
9
73
5
40
0
40
0
40
0
40
0
40
0.495215009633218
40
1
40
1
40
1
40
1
41
1
10
13.9523116436748
20
-0.0695451646008109
30
0
41
1
10
13.8432077624499
20
0.0088982196174356
30
0
41
1
10
13.6228915783631
20
0.162747282014806
30
0
41
1
10
13.4025753942763
20
0.305671989525791
30
0
41
1
10
13.2913630914144
20
0.371001925230246
30
0
0
SPLINE
5
FC
100
AcDbEntity
8
1
62
256
6
ByLayer
370
18
48
1
60
0
100
AcDbSpline
70
4
71
3
72
8
73
4
40
0
40
0
40
0
40
0
40
1
40
1
40
1
40
1
41
1
10
13.9946115933434
20
-0.34501480210875
30
0
41
1
10
13.9819905310592
20
-0.269520063724968
30
0
41
1
10
13.9693897749247
20
-0.193238006533221
30
0
41
1
10
13.9568339611177
20
-0.116329936205744
30
0
0
SPLINE
5
FD
100
AcDbEntity
8
1
62
256
6
ByLayer
370
18
48
1
60
0
100
AcDbSpline
70
4
71
3
72
8
73
4
40
0
40
0
40
0
40
0
40
1
40
1
40
1
40
1
41
1
10
14.0000000000001
20
-0.374831474026678
30
0
41
1
10
13.9988223726676
20
-0.362844777637605
30
0
41
1
10
13.9976552743905
20
-0.350910582864117
30
0
41
1
10
13.996498492529
20
-0.339028134252573
30
0
0
SPLINE
5
FE
100
AcDbEntity
8
1
62
256
6
ByLayer
370
18
48
1
60
0
100
AcDbSpline
70
4
71
3
72
14
73
10
40
0
40
0
40
0
40
0
40
0.0573331809827511
40
0.194768210427701
40
0.33220323987265
40
0.4696382693176
40
0.607073298762549
40
0.790320004689148
40
1
40
1
40
1
40
1
41
1
10
13.3673278545981
20
0.103570559860401
30
0
41
1
10
13.328218569732
20
0.131666230068163
30
0
41
1
10
13.195359284866
20
0.226181763721712
30
0
41
1
10
12.96875
20
0.377791584158444
30
0
41
1
10
12.6875
20
0.5351170734981
30
0
41
0.999999999999999
10
12.40625
20
0.646819314866747
30
0
41
1
10
12.09375
20
0.707273557196771
30
0
41
1
10
11.7319687827057
20
0.691672935438106
30
0
41
1
10
11.4639375654114
20
0.597007359211716
30
0
41
1
10
11.320906348117
20
0.529295211172496
30
0
0
SPLINE
5
FF
100
AcDbEntity
8
1
62
256
6
ByLayer
370
18
48
1
60
0
100
AcDbSpline
70
4
71
3
72
18
73
14
40
0
40
0
40
0
40
0
40
0.235571473865863
40
0.235571473865863
40
0.299273851043701
40
0.299273851043701
40
0.362976228221538
40
0.362976228221538
40
0.490380982577231
40
0.490380982577231
40
0.745190491288615
40
0.745190491288615
40
1
40
1
40
1
40
1
41
1
10
13.2633178265075
20
0.539742145250301
30
0
41
1
10
13.3215403090176
20
0.571256863341063
30
0
41
1
10
13.3795063820884
20
0.599698937019951
30
0
41
1
10
13.4532687423461
20
0.631575665953818
30
0
41
1
10
13.4689768554437
20
0.638115810056462
30
0
41
1
10
13.5004229417528
20
0.650693494607452
30
0
41
1
10
13.5161709472069
20
0.656734090453767
30
0
41
1
10
13.5632596956061
20
0.674002261128436
30
0
41
1
10
13.5945145692245
20
0.684405298467112
30
0
41
1
10
13.6880561908547
20
0.712244197868358
30
0
41
1
10
13.7501237109154
20
0.726312628155398
30
0
41
1
10
13.8746062546048
20
0.745180869398382
30
0
41
1
10
13.9370259958871
20
0.749978847966787
30
0
41
1
10
14.0000000000001
20
0.749999999999943
30
0
0
SPLINE
5
100
100
AcDbEntity
8
1
62
256
6
ByLayer
370
18
48
1
60
0
100
AcDbSpline
70
4
71
3
72
9
73
5
40
0
40
0
40
0
40
0
40
0.367713418614883
40
1
40
1
40
1
40
1
41
1
10
10.9999999946144
20
-0.749902669635134
30
0
41
1
10
11.0266858510657
20
-0.750411226841777
30
0
41
1
10
11.099196585638
20
-0.74943366758086
30
0
41
1
10
11.1714663962254
20
-0.742003513497281
30
0
41
1
10
11.2170751897606
20
-0.734814327438386
30
0
0
SPLINE
5
101
100
AcDbEntity
8
1
62
256
6
ByLayer
370
18
48
1
60
0
100
AcDbSpline
70
4
71
3
72
8
73
4
40
0
40
0
40
0
40
0
40
1
40
1
40
1
40
1
41
1
10
11
20
-0.749781345968927
30
0
41
1
10
11
20
-0.749821786754097
30
0
41
1
10
11
20
-0.749862227677625
30
0
41
1
10
11
20
-0.749902668739423
30
0
0
SPLINE
5
102
100
AcDbEntity
8
1
62
256
6
ByLayer
370
18
48
1
60
0
100
AcDbSpline
70
4
71
3
72
51
73
47
40
0
40
0
40
0
40
0
40
0.0220685656018188
40
0.0220685656018188
40
0.0546662800817578
40
0.0546662800817578
40
0.0872639945616969
40
0.0872639945616969
40
0.119861709041636
40
0.119861709041636
40
0.152459423521575
40
0.152459423521575
40
0.217654852481453
40
0.217654852481453
40
0.250252566961395
40
0.250252566961395
40
0.282850281441336
40
0.282850281441336
40
0.315447995921277
40
0.315447995921277
40
0.348045710401219
40
0.348045710401219
40
0.413241139361102
40
0.413241139361102
40
0.445838853841041
40
0.445838853841041
40
0.47843656832098
40
0.47843656832098
40
0.543631997280858
40
0.543631997280858
40
0.608827426240736
40
0.608827426240736
40
0.674022855200614
40
0.674022855200614
40
0.739218284160492
40
0.739218284160492
40
0.771815998640429
40
0.788114855880397
40
0.788114855880397
40
0.804413713120366
40
0.804413713120366
40
0.869609142080244
40
0.869609142080244
40
0.934804571040122
40
0.934804571040122
40
1
40
1
40
1
40
1
41
1
10
13.8347987575001
20
-0.623387716315392
30
0
41
1
10
13.8139161597665
20
-0.631784859045126
30
0
41
1
10
13.7929952562498
20
-0.639707133670328
30
0
41
1
10
13.7410615697538
20
-0.658183966528583
30
0
41
1
10
13.7099661973427
20
-0.668195694143918
30
0
41
1
10
13.6476949646874
20
-0.68613878493278
30
0
41
1
10
13.6166145040352
20
-0.6940460393661
30
0
41
1
10
13.5545116502968
20
-0.707735916297764
30
0
41
1
10
13.5234877367707
20
-0.713517448523447
30
0
41
1
10
13.4614182556407
20
-0.722905814182923
30
0
41
1
10
13.4303262527866
20
-0.72651583874179
30
0
41
1
10
13.3372368737882
20
-0.733928520687414
30
0
41
1
10
13.2755641974413
20
-0.734300956745301
30
0
41
1
10
13.182905070724
20
-0.728056315924192
30
0
41
1
10
13.151944553226
20
-0.724833523278903
30
0
41
1
10
13.0901774996646
20
-0.7161590330754
30
0
41
1
10
13.0593541733319
20
-0.710709929010392
30
0
41
1
10
12.9976985095852
20
-0.697637120378744
30
0
41
1
10
12.9668650591794
20
-0.690017993903183
30
0
41
1
10
12.9050707716806
20
-0.672606826215087
30
0
41
1
10
12.8740817881154
20
-0.662800560843721
30
0
41
1
10
12.7813851285294
20
-0.630286005815691
30
0
41
1
10
12.7197555223465
20
-0.604376717215445
30
0
41
1
10
12.6267953524363
20
-0.560421215401618
30
0
41
1
10
12.5957592216613
20
-0.544940339081762
30
0
41
1
10
12.5340577440921
20
-0.512542150711568
30
0
41
1
10
12.5033257936533
20
-0.495590776935188
30
0
41
1
10
12.411397964855
20
-0.442456078351284
30
0
41
1
10
12.3504411376028
20
-0.404001813142941
30
0
41
1
10
12.2280737842201
20
-0.322734808923286
30
0
41
1
10
12.1667010950684
20
-0.279887403896339
30
0
41
1
10
12.0428191109954
20
-0.190137491189915
30
0
41
1
10
11.9814865772213
20
-0.144164841672563
30
0
41
1
10
11.8590909299904
20
-0.051564187057096
30
0
41
1
10
11.7980493848098
20
-0.004862454633269
30
0
41
1
10
11.70621547902
20
0.065146592630839
30
0
41
1
10
11.6602202038144
20
0.100124704733048
30
0
41
1
10
11.6139810528693
20
0.134890257984097
30
0
41
1
10
11.583087317879
20
0.158001719434623
30
0
41
1
10
11.567581479003
20
0.16954320926979
30
0
41
1
10
11.4902179338859
20
0.226781320286676
30
0
41
1
10
11.4289097342083
20
0.27105008728725
30
0
41
1
10
11.3067078957183
20
0.355581266557181
30
0
41
1
10
11.2458331710481
20
0.395828927253604
30
0
41
1
10
11.1235851138484
20
0.471058042470418
30
0
41
1
10
11.0621761828083
20
0.506047381937236
30
0
41
1
10
11.0000000000001
20
0.537963057489435
30
0
0
SPLINE
5
103
100
AcDbEntity
8
1
62
256
6
ByLayer
370
18
48
1
60
0
100
AcDbSpline
70
4
71
3
72
36
73
32
40
0
40
0
40
0
40
0
40
0.107694768456979
40
0.107694768456979
40
0.161542152685472
40
0.161542152685472
40
0.215389536913965
40
0.215389536913965
40
0.269236921142458
40
0.269236921142458
40
0.323084305370952
40
0.323084305370952
40
0.430779073827938
40
0.430779073827938
40
0.484626458056431
40
0.484626458056431
40
0.538473842284924
40
0.538473842284924
40
0.592321226513417
40
0.592321226513417
40
0.646168610741911
40
0.646168610741911
40
0.753863379198889
40
0.753863379198889
40
0.807710763427379
40
0.807710763427379
40
0.861558147655868
40
0.861558147655868
40
0.969252916112839
40
0.969252916112839
40
1
40
1
40
1
40
1
41
1
10
13.9568339611036
20
-0.116329936207791
30
0
41
1
10
13.8955142761002
20
-0.0690428531446514
30
0
41
1
10
13.8339663447869
20
-0.021832543131211
30
0
41
1
10
13.7410615697544
20
0.0485202723290286
30
0
41
1
10
13.7099661973433
20
0.0719204267778366
30
0
41
1
10
13.647694964688
20
0.118426711447114
30
0
41
1
10
13.6166145040358
20
0.141464737947359
30
0
41
1
10
13.5545116502973
20
0.187049252361135
30
0
41
1
10
13.5234877367713
20
0.209593637928521
30
0
41
1
10
13.4614182556413
20
0.254082511691706
30
0
41
1
10
13.4303262527872
20
0.276059285436247
30
0
41
1
10
13.3372368737887
20
0.340643763458758
30
0
41
1
10
13.2755641974418
20
0.38181794083647
30
0
41
1
10
13.1829050707245
20
0.439950680438898
30
0
41
1
10
13.1519445532265
20
0.458750103635509
30
0
41
1
10
13.0901774996651
20
0.494795730420662
30
0
41
1
10
13.0593541733324
20
0.512054505591294
30
0
41
1
10
12.9976985095857
20
0.544928358545377
30
0
41
1
10
12.9668650591798
20
0.560545562758278
30
0
41
1
10
12.905070771681
20
0.589998038640402
30
0
41
1
10
12.8740817881158
20
0.60384226256852
30
0
41
1
10
12.7813851285299
20
0.642214871668045
30
0
41
1
10
12.7197555223469
20
0.663610187898684
30
0
41
1
10
12.6267953524367
20
0.689704378671678
30
0
41
1
10
12.5957592216616
20
0.697407564331769
30
0
41
1
10
12.5340577440924
20
0.710609086731381
30
0
41
1
10
12.5033257936537
20
0.71612501420131
30
0
41
1
10
12.4113979648553
20
0.729196942194505
30
0
41
1
10
12.3504411376031
20
0.733235209825011
30
0
41
1
10
12.271789391973
20
0.732895233200651
30
0
41
1
10
12.2543059163533
20
0.732470289385958
30
0
41
1
10
12.2367982073224
20
0.73168561856258
30
0
0
SPLINE
5
104
100
AcDbEntity
8
1
62
256
6
ByLayer
370
18
48
1
60
0
100
AcDbSpline
70
4
71
3
72
8
73
4
40
0
40
0
40
0
40
0
40
1
40
1
40
1
40
1
41
1
10
14
20
-0.374913776168512
30
0
41
1
10
13.9982055785461
20
-0.364975862686663
30
0
41
1
10
13.99640939685
20
-0.355009286222895
30
0
41
1
10
13.9946115951592
20
-0.345014801913948
30
0
0
SPLINE
5
105
100
AcDbEntity
8
1
62
256
6
ByLayer
370
18
48
1
60
0
100
AcDbSpline
70
4
71
3
72
10
73
6
40
0
40
0
40
0
40
0
40
0.5
40
0.5
40
1
40
1
40
1
40
1
41
1
10
10.8245865981403
20
-0.734554005030645
30
0
41
1
10
10.8541458166385
20
-0.739201076916117
30
0
41
1
10
10.8834824484158
20
-0.742855065151645
30
0
41
1
10
10.9419386177428
20
-0.748017186791287
30
0
41
1
10
10.9710283777367
20
-0.749533507501781
30
0
41
1
10
11.0000000000001
20
-0.749908285537259
30
0
0
SPLINE
5
106
100
AcDbEntity
8
1
62
256
6
ByLayer
370
18
48
1
60
0
100
AcDbSpline
70
4
71
3
72
18
73
14
40
0
40
0
40
0
40
0
40
0.0910453619159916
40
0.182020559920917
40
0.272941425864255
40
0.363822979790518
40
0.454679466866411
40
0.545524389943731
40
0.636370540743022
40
0.727230029686111
40
0.818114314409807
40
0.909034227001402
40
1
40
1
40
1
40
1
41
1
10
10.9120661181367
20
-0.68014380958499
30
0
41
1
10
10.9092883530293
20
-0.681357644113263
30
0
41
1
10
10.9037349634933
20
-0.683784377730802
30
0
41
1
10
10.8955158504094
20
-0.687758811860135
30
0
41
1
10
10.8873828557333
20
-0.691969473879254
30
0
41
1
10
10.8793435982772
20
-0.696435725079567
30
0
41
1
10
10.8713960264358
20
-0.701146024430585
30
0
41
1
10
10.863540627326
20
-0.706097063933072
30
0
41
1
10
10.8557774091378
20
-0.711283830992414
30
0
41
1
10
10.8481057702502
20
-0.716700244298323
30
0
41
1
10
10.8405280393477
20
-0.722346539269893
30
0
41
1
10
10.8330354394573
20
-0.728199072058004
30
0
41
1
10
10.8281203746988
20
-0.732281036645787
30
0
41
1
10
10.8256622226807
20
-0.73432253355017
30
0
0
SPLINE
5
107
100
AcDbEntity
8
1
62
256
6
ByLayer
370
18
48
1
60
0
100
AcDbSpline
70
4
71
3
72
8
73
4
40
0
40
0
40
0
40
0
40
1
40
1
40
1
40
1
41
1
10
10.8257523502174
20
-0.73424669101874
30
0
41
1
10
10.8838302805314
20
-0.743499684374854
30
0
41
1
10
10.9418003647127
20
-0.748687421370931
30
0
41
1
10
10.9999999999997
20
-0.749781345969268
30
0
0
SPLINE
5
108
100
AcDbEntity
8
1
62
256
6
ByLayer
370
18
48
1
60
0
100
AcDbSpline
70
4
71
3
72
8
73
4
40
0
40
0
40
0
40
0
40
1
40
1
40
1
40
1
41
1
10
10.8722148868236
20
-0.690977037585384
30
0
41
1
10
10.8854907207998
20
-0.687305313879392
30
0
41
1
10
10.8987743377431
20
-0.68369442372952
30
0
41
1
10
10.9120656863888
20
-0.680143966437839
30
0
0
SPLINE
5
109
100
AcDbEntity
8
1
62
256
6
ByLayer
370
18
48
1
60
0
100
AcDbSpline
70
4
71
3
72
14
73
10
40
0
40
0
40
0
40
0
40
0.25
40
0.25
40
0.5
40
0.5
40
0.75
40
0.75
40
1
40
1
40
1
40
1
41
1
10
10.8257523434965
20
0.499548224702409
30
0
41
1
10
10.8241458171516
20
0.509375322078057
30
0
41
1
10
10.8237619670442
20
0.518933472987811
30
0
41
1
10
10.825828366853
20
0.537513079054321
30
0
41
1
10
10.8283527065079
20
0.546623508557218
30
0
41
1
10
10.8362982363497
20
0.563428296747759
30
0
41
1
10
10.8416966945369
20
0.57122425469646
30
0
41
1
10
10.8553018544428
20
0.585731814859486
30
0
41
1
10
10.8632922056998
20
0.592211282722218
30
0
41
1
10
10.8722148868291
20
0.598051481532764
30
0
0
SPLINE
5
10A
100
AcDbEntity
8
1
62
256
6
ByLayer
370
18
48
1
60
0
100
AcDbSpline
70
4
71
3
72
18
73
14
40
0
40
0
40
0
40
0
40
0.250000000000069
40
0.250000000000069
40
0.500000000000137
40
0.500000000000137
40
0.625000000000103
40
0.625000000000103
40
0.750000000000069
40
0.750000000000069
40
0.875000000000034
40
0.875000000000034
40
1
40
1
40
1
40
1
41
1
10
10.4713230145807
20
0.736523568797935
30
0
41
1
10
10.468909823794
20
0.737070148572627
30
0
41
1
10
10.4666179008738
20
0.73761691611378
30
0
41
1
10
10.4625031647525
20
0.738731380987304
30
0
41
1
10
10.460615512932
20
0.739303671027045
30
0
41
1
10
10.4589555969113
20
0.740184907105544
30
0
41
1
10
10.4585963069625
20
0.74048585495845
30
0
41
1
10
10.4588944031844
20
0.741076089627143
30
0
41
1
10
10.4596766825715
20
0.741359001757473
30
0
41
1
10
10.4624066221279
20
0.741751101959409
30
0
41
1
10
10.464211659143
20
0.741865043307001
30
0
41
1
10
10.4678858771241
20
0.742001615710194
30
0
41
1
10
10.4697622889435
20
0.742026858581085
30
0
41
1
10
10.4716574374764
20
0.742031949618251
30
0
0
SPLINE
5
10B
100
AcDbEntity
8
1
62
256
6
ByLayer
370
18
48
1
60
0
100
AcDbSpline
70
4
71
3
72
21
73
17
40
0
40
0
40
0
40
0
40
0.249999999999945
40
0.249999999999945
40
0.374999999999968
40
0.374999999999968
40
0.499999999999991
40
0.499999999999991
40
0.625000000000013
40
0.625000000000013
40
0.750000000000036
40
0.750000000000036
40
0.812500000000014
40
0.812500000000014
40
0.874999999999993
40
1
40
1
40
1
40
1
41
1
10
10.4716574374764
20
0.74203194961828
30
0
41
1
10
10.4887943962249
20
0.742077985531807
30
0
41
1
10
10.5058040694132
20
0.742286326019382
30
0
41
1
10
10.530999703696
20
0.742954725304088
30
0
41
1
10
10.5393702932365
20
0.743239051466048
30
0
41
1
10
10.5555766837027
20
0.7439252920841
30
0
41
1
10
10.5634533843702
20
0.744328294523541
30
0
41
1
10
10.5786410128591
20
0.745240416347315
30
0
41
1
10
10.5860035912244
20
0.745755191795496
30
0
41
1
10
10.5994461401371
20
0.746798460424259
30
0
41
1
10
10.6055945663123
20
0.747329926218015
30
0
41
1
10
10.613941733988
20
0.748075352299168
30
0
41
1
10
10.6165776176456
20
0.748314903467332
30
0
41
1
10
10.6214558530741
20
0.748754032365298
30
0
41
1
10
10.6282326198639
20
0.749357387314092
30
0
41
1
10
10.6335424770319
20
0.749752344465577
30
0
41
1
10
10.63654034135
20
0.749890308359255
30
0
0
SPLINE
5
10C
100
AcDbEntity
8
1
62
256
6
ByLayer
370
18
48
1
60
0
100
AcDbSpline
70
4
71
3
72
10
73
6
40
0
40
0
40
0
40
0
40
0.5
40
0.5
40
1
40
1
40
1
40
1
41
1
10
11.0000000000001
20
-0.749930267569965
30
0
41
1
10
10.9680119200943
20
-0.750253620771474
30
0
41
1
10
10.9362366386451
20
-0.74945003415425
30
0
41
1
10
10.8729060272896
20
-0.745538190825727
30
0
41
1
10
10.8413345787644
20
-0.742441067485203
30
0
41
1
10
10.8099616475187
20
-0.738131475126551
30
0
0
SPLINE
5
10D
100
AcDbEntity
8
1
62
256
6
ByLayer
370
13
48
1
60
0
100
AcDbSpline
70
4
71
3
72
11
73
7
40
0
40
0
40
0
40
0
40
0.245860147523003
40
0.494160146139122
40
0.745384242477803
40
1
40
1
40
1
40
1
41
1
10
10.8099643908147
20
-0.738130524784594
30
0
41
1
10
10.8110431280826
20
-0.737837698984123
30
0
41
1
10
10.8132113077216
20
-0.737249141457397
30
0
41
1
10
10.8167626073497
20
-0.736357226001161
30
0
41
1
10
10.8205336632776
20
-0.735455967971603
30
0
41
1
10
10.8232295443949
20
-0.73485601207426
30
0
41
1
10
10.8245865229083
20
-0.73455402277051
30
0
0
SPLINE
5
10E
100
AcDbEntity
8
1
62
256
6
ByLayer
370
18
48
1
60
0
100
AcDbSpline
70
4
71
3
72
14
73
10
40
0
40
0
40
0
40
0
40
0.25
40
0.25
40
0.5
40
0.5
40
0.75
40
0.75
40
1
40
1
40
1
40
1
41
1
10
10.8257523434965
20
-0.734246689900772
30
0
41
1
10
10.8241458171516
20
-0.731560568438823
30
0
41
1
10
10.8237619670443
20
-0.72854505641223
30
0
41
1
10
10.825828366853
20
-0.721871535573371
30
0
41
1
10
10.8283527065079
20
-0.718164663633218
30
0
41
1
10
10.8362982363497
20
-0.710553829210141
30
0
41
1
10
10.8416966945369
20
-0.706622288700316
30
0
41
1
10
10.8553018544428
20
-0.698650454477701
30
0
41
1
10
10.8632922056998
20
-0.694740305946453
30
0
41
1
10
10.8722148868291
20
-0.690977037584901
30
0
0
SPLINE
5
10F
100
AcDbEntity
8
1
62
256
6
ByLayer
370
18
48
1
60
0
100
AcDbSpline
70
4
71
3
72
18
73
14
40
0
40
0
40
0
40
0
40
0.250000000000067
40
0.250000000000067
40
0.500000000000134
40
0.500000000000134
40
0.625000000000101
40
0.625000000000101
40
0.750000000000067
40
0.750000000000067
40
0.875000000000034
40
0.875000000000034
40
1
40
1
40
1
40
1
41
1
10
10.4713230145807
20
-0.490837371094955
30
0
41
1
10
10.4689098237941
20
-0.488647473386237
30
0
41
1
10
10.4666179008738
20
-0.486381444670513
30
0
41
1
10
10.4625031647525
20
-0.481568201350541
30
0
41
1
10
10.460615512932
20
-0.479000952369461
30
0
41
1
10
10.4589555969113
20
-0.47484045798808
30
0
41
1
10
10.4585963069624
20
-0.473384565135348
30
0
41
1
10
10.4588944031844
20
-0.470449733322823
30
0
41
1
10
10.4596766825715
20
-0.468997404591363
30
0
41
1
10
10.4624066221279
20
-0.4669498158068
30
0
41
1
10
10.4642116591429
20
-0.466338792921306
30
0
41
1
10
10.4678858771241
20
-0.465607177463511
30
0
41
1
10
10.4697622889434
20
-0.465470333632851
30
0
41
1
10
10.4716574374764
20
-0.465442874097789
30
0
0
SPLINE
5
110
100
AcDbEntity
8
1
62
256
6
ByLayer
370
18
48
1
60
0
100
AcDbSpline
70
4
71
3
72
21
73
17
40
0
40
0
40
0
40
0
40
0.250000000000054
40
0.250000000000054
40
0.375000000000032
40
0.375000000000032
40
0.500000000000009
40
0.500000000000009
40
0.624999999999986
40
0.624999999999986
40
0.749999999999964
40
0.749999999999964
40
0.812499999999985
40
0.812499999999985
40
0.875000000000007
40
1
40
1
40
1
40
1
41
1
10
10.4716574374764
20
-0.465442874097789
30
0
41
1
10
10.4887943962248
20
-0.465194570119848
30
0
41
1
10
10.5058040694132
20
-0.464100027342027
30
0
41
1
10
10.5309997036959
20
-0.460306622214858
30
0
41
1
10
10.5393702932365
20
-0.458665294319104
30
0
41
1
10
10.5555766837027
20
-0.454494769454982
30
0
41
1
10
10.5634533843701
20
-0.451962627278334
30
0
41
1
10
10.5786410128591
20
-0.445755673688524
30
0
41
1
10
10.5860035912244
20
-0.442033226878891
30
0
41
1
10
10.599446140137
20
-0.433521193709822
30
0
41
1
10
10.6055945663123
20
-0.428714890207942
30
0
41
1
10
10.613941733988
20
-0.420625792356276
30
0
41
1
10
10.6165776176455
20
-0.417779288903688
30
0
41
1
10
10.6214558530741
20
-0.411924452900848
30
0
41
1
10
10.6282326198639
20
-0.402853890153636
30
0
41
1
10
10.6335424770319
20
-0.392969635788773
30
0
41
1
10
10.63654034135
20
-0.386053442599661
30
0
0
SPLINE
5
111
100
AcDbEntity
8
1
62
256
6
ByLayer
370
18
48
1
60
0
100
AcDbSpline
70
4
71
3
72
12
73
8
40
0
40
0
40
0
40
0
40
0.500000000000028
40
0.500000000000028
40
0.750000000000014
40
0.750000000000014
40
1
40
1
40
1
40
1
41
1
10
10.5009603034362
20
0.137609622118958
30
0
41
1
10
10.4983260463267
20
0.144041514123785
30
0
41
1
10
10.4965148354215
20
0.150648141279248
30
0
41
1
10
10.4953418924044
20
0.160886713492005
30
0
41
1
10
10.4952171927381
20
0.164346621178396
30
0
41
1
10
10.4955365995606
20
0.171165473254803
30
0
41
1
10
10.4959766372791
20
0.174550590218502
30
0
41
1
10
10.4967079112643
20
0.177910852429989
30
0
0
SPLINE
5
112
100
AcDbEntity
8
1
62
256
6
ByLayer
370
18
48
1
60
0
100
AcDbSpline
70
4
71
3
72
28
73
24
40
0
40
0
40
0
40
0
40
0.0624999999999729
40
0.0624999999999729
40
0.0937499999999678
40
0.0937499999999678
40
0.124999999999963
40
0.124999999999963
40
0.249999999999943
40
0.249999999999943
40
0.312499999999933
40
0.312499999999933
40
0.374999999999922
40
0.374999999999922
40
0.499999999999938
40
0.499999999999938
40
0.624999999999953
40
0.624999999999953
40
0.749999999999969
40
0.749999999999969
40
0.874999999999984
40
0.874999999999984
40
1
40
1
40
1
40
1
41
1
10
10.496707911266
20
0.177910852429733
30
0
41
1
10
10.4989199123011
20
0.188075173382458
30
0
41
1
10
10.5022646575289
20
0.197707523682169
30
0
41
1
10
10.5087193711385
20
0.211488777041438
30
0
41
1
10
10.5111118515574
20
0.215970693283111
30
0
41
1
10
10.5163479434108
20
0.224726529146778
30
0
41
1
10
10.5192070907156
20
0.229020767839557
30
0
41
1
10
10.5343663778058
20
0.249733371790057
30
0
41
1
10
10.5490255317628
20
0.263830621090534
30
0
41
1
10
10.5734782185547
20
0.282637587462034
30
0
41
1
10
10.5820241195313
20
0.288474811724484
30
0
41
1
10
10.5995762403412
20
0.299311864061707
30
0
41
1
10
10.6086138260723
20
0.304334677889841
30
0
41
1
10
10.6364015495305
20
0.318398849328929
30
0
41
1
10
10.6556558048493
20
0.326366505595416
30
0
41
1
10
10.6951844702631
20
0.340095377000694
30
0
41
1
10
10.7153179895967
20
0.345801925842977
30
0
41
1
10
10.756190888154
20
0.355271139307376
30
0
41
1
10
10.7769823674822
20
0.359034519636936
30
0
41
1
10
10.8187944824883
20
0.364686706710387
30
0
41
1
10
10.83988641769
20
0.366586377937324
30
0
41
1
10
10.8821578356957
20
0.368522519706346
30
0
41
1
10
10.9033077178531
20
0.368561176076014
30
0
41
1
10
10.9244725213752
20
0.367621522794678
30
0
0
SPLINE
5
113
100
AcDbEntity
8
1
62
256
6
ByLayer
370
18
48
1
60
0
100
AcDbSpline
70
4
71
2
72
6
73
3
40
0
40
0
40
0
40
1
40
1
40
1
41
0.500000820193974
10
10.9244725213752
20
0.367621522794703
30
0
41
0.499999179806026
10
10.9622189348763
20
0.365945696167361
30
0
41
0.500000820193974
10
11
20
0.36426505988682
30
0
0
SPLINE
5
114
100
AcDbEntity
8
1
62
256
6
ByLayer
370
18
48
1
60
0
100
AcDbSpline
70
4
71
3
72
22
73
18
40
0
40
0
40
0
40
0
40
0.125
40
0.125
40
0.25
40
0.25
40
0.375
40
0.375
40
0.5
40
0.5
40
0.625
40
0.625
40
0.75
40
0.75
40
0.875
40
0.875
40
1
40
1
40
1
40
1
41
1
10
10.63654034135
20
-0.386053442599661
30
0
41
1
10
10.6342896158915
20
-0.3660172391902
30
0
41
1
10
10.6313473569778
20
-0.345552805968737
30
0
41
1
10
10.6245013262107
20
-0.303742490671027
30
0
41
1
10
10.6205913612219
20
-0.282414078416281
30
0
41
1
10
10.6120222080778
20
-0.239219411540631
30
0
41
1
10
10.6073427175084
20
-0.217266522903685
30
0
41
1
10
10.5973356183649
20
-0.173105429639719
30
0
41
1
10
10.5920020749
20
-0.150866845200113
30
0
41
1
10
10.5806474070141
20
-0.106088576461389
30
0
41
1
10
10.574624451154
20
-0.0835519510117706
30
0
41
1
10
10.5619364675156
20
-0.0386645239741767
30
0
41
1
10
10.5552572744683
20
-0.0162557425234695
30
0
41
1
10
10.5411092834339
20
0.0284547159920407
30
0
41
1
10
10.5336669048162
20
0.0506675452265313
30
0
41
1
10
10.517980969365
20
0.0945247181004447
30
0
41
1
10
10.5097261908409
20
0.116206532457511
30
0
41
1
10
10.5009603034373
20
0.137609622118475
30
0
0
SPLINE
5
115
100
AcDbEntity
8
1
62
256
6
ByLayer
370
18
48
1
60
0
100
AcDbSpline
70
4
71
3
72
18
73
14
40
0
40
0
40
0
40
0
40
0.0910453619073951
40
0.182020559906766
40
0.272941425847059
40
0.363822979772386
40
0.454679466848977
40
0.545524389928159
40
0.636370540730216
40
0.727230029676516
40
0.818114314403585
40
0.909034226998493
40
1
40
1
40
1
40
1
41
1
10
10.912066116956
20
0.575335670714537
30
0
41
1
10
10.9092883518885
20
0.572762697567157
30
0
41
1
10
10.9037349624321
20
0.567618734128502
30
0
41
1
10
10.8955158494649
20
0.560102131834071
30
0
41
1
10
10.8873828549034
20
0.552734873346878
30
0
41
1
10
10.8793435975594
20
0.545529974209103
30
0
41
1
10
10.8713960258277
20
0.538482560082571
30
0
41
1
10
10.8635406268252
20
0.531592342419799
30
0
41
1
10
10.855777408742
20
0.524857997104277
30
0
41
1
10
10.848105769957
20
0.51827719822208
30
0
41
1
10
10.8405280391547
20
0.511852111825135
30
0
41
1
10
10.8330354393623
20
0.50556738663451
30
0
41
1
10
10.8281203746671
20
0.501505466896987
30
0
41
1
10
10.8256622226807
20
0.499473994944793
30
0
0
SPLINE
5
116
100
AcDbEntity
8
1
62
256
6
ByLayer
370
18
48
1
60
0
100
AcDbSpline
70
4
71
3
72
8
73
4
40
0
40
0
40
0
40
0
40
1
40
1
40
1
40
1
41
1
10
10.8257523502174
20
0.499548220612326
30
0
41
1
10
10.8838302805314
20
0.465696411674884
30
0
41
1
10
10.9418003647127
20
0.429251228814934
30
0
41
1
10
10.9999999999997
20
0.390573463801502
30
0
0
SPLINE
5
117
100
AcDbEntity
8
1
62
256
6
ByLayer
370
18
48
1
60
0
100
AcDbSpline
70
4
71
3
72
8
73
4
40
0
40
0
40
0
40
0
40
1
40
1
40
1
40
1
41
1
10
11
20
0.390573463801729
30
0
41
1
10
11
20
0.390453903233322
30
0
41
1
10
10.9999999999999
20
0.390334342764078
30
0
41
1
10
10.9999999999999
20
0.390214782393997
30
0
0
SPLINE
5
118
100
AcDbEntity
8
1
62
256
6
ByLayer
370
18
48
1
60
0
100
AcDbSpline
70
4
71
3
72
36
73
32
40
0
40
0
40
0
40
0
40
0.105321340470275
40
0.105321340470275
40
0.157982010705416
40
0.157982010705416
40
0.210642680940557
40
0.210642680940557
40
0.31596402141084
40
0.31596402141084
40
0.368624691645981
40
0.368624691645981
40
0.421285361881122
40
0.421285361881122
40
0.526606702351404
40
0.526606702351404
40
0.631928042821686
40
0.631928042821686
40
0.658258377939253
40
0.658258377939253
40
0.68458871305682
40
0.68458871305682
40
0.737249383291954
40
0.737249383291954
40
0.842570723762222
40
0.842570723762222
40
0.947892064232491
40
0.947892064232491
40
0.974222399350059
40
0.974222399350059
40
1
40
1
40
1
40
1
41
1
10
11.0000000000001
20
0.364276350798036
30
0
41
1
10
11.0629913983487
20
0.321279517114362
30
0
41
1
10
11.1256996977441
20
0.276086967247863
30
0
41
1
10
11.2200196270215
20
0.20580244301695
30
0
41
1
10
11.2514935518998
20
0.18196668542069
30
0
41
1
10
11.3141204303316
20
0.134031135327547
30
0
41
1
10
11.3453405830299
20
0.109882204642105
30
0
41
1
10
11.4389061725225
20
0.0371329554641591
30
0
41
1
10
11.5011564335592
20
-0.0117690596285343
30
0
41
1
10
11.5950466490335
20
-0.08482134598421
30
0
41
1
10
11.6264317719607
20
-0.109122810669561
30
0
41
1
10
11.6894771971079
20
-0.157478583329009
30
0
41
1
10
11.7208456570931
20
-0.181309046286003
30
0
41
1
10
11.8146309510336
20
-0.251614679187924
30
0
41
1
10
11.8767182135597
20
-0.29691836601279
30
0
41
1
10
12.0008800427207
20
-0.383431196684342
30
0
41
1
10
12.0629555331005
20
-0.424634973201734
30
0
41
1
10
12.1411711386763
20
-0.47280630440585
30
0
41
1
10
12.1568456959842
20
-0.482273248895325
30
0
41
1
10
12.1882745565263
20
-0.500852017044906
30
0
41
1
10
12.2040222343724
20
-0.509959016212292
30
0
41
1
10
12.2510893451134
20
-0.536540832663263
30
0
41
1
10
12.2823392006881
20
-0.553339044371342
30
0
41
1
10
12.375880721551
20
-0.600867231619901
30
0
41
1
10
12.4379661966755
20
-0.628753921995838
30
0
41
1
10
12.5623239669286
20
-0.676504953714868
30
0
41
1
10
12.6245906016544
20
-0.696381856187685
30
0
41
1
10
12.7030762976074
20
-0.715726225218077
30
0
41
1
10
12.7188321621287
20
-0.719324108487882
30
0
41
1
10
12.7499155441242
20
-0.725846334502904
30
0
41
1
10
12.7652546790011
20
-0.728786577053768
30
0
41
1
10
12.7805638101036
20
-0.731440523199154
30
0
0
SPLINE
5
119
100
AcDbEntity
8
1
62
256
6
ByLayer
370
18
48
1
60
0
100
AcDbSpline
70
4
71
3
72
10
73
6
40
0
40
0
40
0
40
0
40
0.49419674775808
40
0.49419674775808
40
1
40
1
40
1
40
1
41
1
10
13.3995188299615
20
-0.684428607751784
30
0
41
1
10
13.412199757069
20
-0.680376058180343
30
0
41
1
10
13.4248815722354
20
-0.676142574736559
30
0
41
1
10
13.45055226742
20
-0.667213652954644
30
0
41
1
10
13.4635415926983
20
-0.662510006085483
30
0
41
1
10
13.476540227889
20
-0.657620895183044
30
0
0
SPLINE
5
11A
100
AcDbEntity
8
1
62
256
6
ByLayer
370
18
48
1
60
0
100
AcDbSpline
70
4
71
3
72
21
73
17
40
0
40
0
40
0
40
0
40
0.036234848915324
40
0.114929470553125
40
0.193624092190926
40
0.272318713828727
40
0.351013335466527
40
0.429707957104328
40
0.508402578742129
40
0.58709720037993
40
0.665791822017731
40
0.744486443655532
40
0.823181065293333
40
0.901875686931134
40
0.980570308568934
40
1
40
1
40
1
40
1
41
1
10
10.9999999946144
20
0.390214783035844
30
0
41
1
10
11.0266858510657
20
0.372409897247906
30
0
41
1
10
11.1112559297088
20
0.314549276435571
30
0
41
1
10
11.2531807925683
20
0.210838911153758
30
0
41
1
10
11.4254258533162
20
0.0782125138132699
30
0
41
1
10
11.5974019897132
20
-0.0566801051639914
30
0
41
1
10
11.7696638171415
20
-0.189991199317802
30
0
41
1
10
11.9425664047038
20
-0.317681594098048
30
0
41
1
10
12.1163085839911
20
-0.435661904073726
30
0
41
1
10
12.2911922433191
20
-0.540018172173887
30
0
41
1
10
12.4675570710894
20
-0.627239386606192
30
0
41
1
10
12.6458099678671
20
-0.693863281854249
30
0
41
1
10
12.8262524496951
20
-0.737233386031903
30
0
41
1
10
13.009000928239
20
-0.754438545799218
30
0
41
1
10
13.1485011182761
20
-0.746754393620932
30
0
41
1
10
13.2271205434398
20
-0.734940826528202
30
0
41
1
10
13.2427374575172
20
-0.732302532196229
30
0
0
SPLINE
5
11B
100
AcDbEntity
8
1
62
256
6
ByLayer
370
18
48
1
60
0
100
AcDbSpline
70
4
71
3
72
8
73
4
40
0
40
0
40
0
40
0
40
1
40
1
40
1
40
1
41
1
10
10.9999999973072
20
0.390214783035844
30
0
41
1
10
10.9999999973072
20
0.388513687654353
30
0
41
1
10
11
20
0.386812602460253
30
0
41
1
10
11
20
0.385111527372089
30
0
0
SPLINE
5
11C
100
AcDbEntity
8
1
62
256
6
ByLayer
370
18
48
1
60
0
100
AcDbSpline
70
4
71
3
72
10
73
6
40
0
40
0
40
0
40
0
40
0.5
40
0.5
40
1
40
1
40
1
40
1
41
1
10
10.8245865981404
20
0.498417424468812
30
0
41
1
10
10.8541458166386
20
0.481218803087984
30
0
41
1
10
10.8834824484159
20
0.46314207305528
30
0
41
1
10
10.9419386177428
20
0.425384745451538
30
0
41
1
10
10.9710283777367
20
0.405676219106965
30
0
41
1
10
11.0000000000001
20
0.385111527372089
30
0
0
SPLINE
5
11D
100
AcDbEntity
8
1
62
256
6
ByLayer
370
18
48
1
60
0
100
AcDbSpline
70
4
71
3
72
10
73
6
40
0
40
0
40
0
40
0
40
0.5
40
0.5
40
1
40
1
40
1
40
1
41
1
10
11.0000000000001
20
0.366108196567666
30
0
41
1
10
10.9680119200943
20
0.386803976577482
30
0
41
1
10
10.9362366386451
20
0.407106730860136
30
0
41
1
10
10.8729060272895
20
0.446489480470859
30
0
41
1
10
10.8413345787693
20
0.465584579577637
30
0
41
1
10
10.8099616475235
20
0.484158934895191
30
0
0
SPLINE
5
11E
100
AcDbEntity
8
1
62
256
6
ByLayer
370
18
48
1
60
0
100
AcDbSpline
70
4
71
3
72
8
73
4
40
0
40
0
40
0
40
0
40
1
40
1
40
1
40
1
41
1
10
11
20
0.366108196567893
30
0
41
1
10
11
20
0.365497580003051
30
0
41
1
10
11
20
0.364886964746432
30
0
41
1
10
11
20
0.364276350798036
30
0
0
SPLINE
5
11F
100
AcDbEntity
8
1
62
256
6
ByLayer
370
18
48
1
60
0
100
AcDbSpline
70
4
71
3
72
18
73
14
40
0
40
0
40
0
40
0
40
0.0626409228805359
40
0.156609610703461
40
0.250578298526386
40
0.344546986349311
40
0.438515674172236
40
0.532484361995161
40
0.626453049818086
40
0.720421737641011
40
0.814390425463937
40
0.908359113286861
40
1
40
1
40
1
40
1
41
1
10
12.0005379680553
20
0.749787733836371
30
0
41
1
10
12.0391169843838
20
0.750642618317215
30
0
41
1
10
12.1357431222351
20
0.74826103773151
30
0
41
1
10
12.2911922433191
20
0.726077865497984
30
0
41
1
10
12.4675570710895
20
0.676638650924787
30
0
41
1
10
12.6458099678672
20
0.603384693154084
30
0
41
1
10
12.8262524496953
20
0.508429756543023
30
0
41
1
10
13.0090009282391
20
0.393519579344854
30
0
41
1
10
13.1952578134236
20
0.262154307740389
30
0
41
1
10
13.3861644095032
20
0.117307649289586
30
0
41
1
10
13.5825833547788
20
-0.0369869151696491
30
0
41
1
10
13.7842644125355
20
-0.193565535387563
30
0
41
1
10
13.9239446092624
20
-0.295866990263136
30
0
41
1
10
13.9946115915325
20
-0.34501480238481
30
0
0
SPLINE
5
120
100
AcDbEntity
8
1
62
256
6
ByLayer
370
18
48
1
60
0
100
AcDbSpline
70
4
71
3
72
51
73
47
40
0
40
0
40
0
40
0
40
0.0120763783746927
40
0.0120763783746927
40
0.0461427101548727
40
0.0461427101548727
40
0.114275373715233
40
0.114275373715233
40
0.148341705495413
40
0.148341705495413
40
0.182408037275592
40
0.182408037275592
40
0.250540700835948
40
0.250540700835948
40
0.318673364396303
40
0.318673364396303
40
0.335706530286395
40
0.335706530286395
40
0.352739696176487
40
0.352739696176487
40
0.386806027956672
40
0.386806027956672
40
0.454938691517046
40
0.454938691517046
40
0.52307135507742
40
0.52307135507742
40
0.540104520967514
40
0.540104520967514
40
0.557137686857609
40
0.591204018637794
40
0.591204018637794
40
0.659336682198163
40
0.659336682198163
40
0.727469345758532
40
0.727469345758532
40
0.795602009318901
40
0.795602009318901
40
0.812635175208995
40
0.812635175208995
40
0.829668341099088
40
0.829668341099088
40
0.863734672879271
40
0.863734672879271
40
0.931867336439635
40
0.931867336439635
40
1
40
1
40
1
40
1
41
1
10
11.2494536825169
20
0.538098313146548
30
0
41
1
10
11.2605858453569
20
0.544164009390926
30
0
41
1
10
11.2717065021454
20
0.550114701508477
30
0
41
1
10
11.3141204303316
20
0.572380382818466
30
0
41
1
10
11.3453405830299
20
0.587878959628995
30
0
41
1
10
11.4389061725225
20
0.631468590943967
30
0
41
1
10
11.5011564335592
20
0.656672837891222
30
0
41
1
10
11.5950466490335
20
0.688134178475792
30
0
41
1
10
11.6264317719607
20
0.697557330987195
30
0
41
1
10
11.6894771971079
20
0.714181705701293
30
0
41
1
10
11.720845657093
20
0.721308503846018
30
0
41
1
10
11.8146309510336
20
0.739171547669088
30
0
41
1
10
11.8767182135635
20
0.746398631293829
30
0
41
1
10
12.0008800427249
20
0.751504343687088
30
0
41
1
10
12.0629555331005
20
0.749373125679426
30
0
41
1
10
12.1411711386763
20
0.740715484546513
30
0
41
1
10
12.1568456959842
20
0.738683749015934
30
0
41
1
10
12.1882745565263
20
0.734016473858304
30
0
41
1
10
12.2040222343723
20
0.731380679619292
30
0
41
1
10
12.2510893451134
20
0.722628834347347
30
0
41
1
10
12.2823392006881
20
0.715653793548455
30
0
41
1
10
12.375880721551
20
0.691440042274081
30
0
41
1
10
12.4379661966773
20
0.670939509575732
30
0
41
1
10
12.5623239669304
20
0.621758703968368
30
0
41
1
10
12.6245906016544
20
0.593084090304984
30
0
41
1
10
12.7030762976074
20
0.552329300174279
30
0
41
1
10
12.7188321621287
20
0.543917949912981
30
0
41
1
10
12.7502452608237
20
0.526709027236791
30
0
41
1
10
12.7972468397792
20
0.500304045171532
30
0
41
1
10
12.843968524537
20
0.47220148052935
30
0
41
1
10
12.9372349391247
20
0.413968426991744
30
0
41
1
10
12.999181971041
20
0.372462843810411
30
0
41
1
10
13.1235546566369
20
0.285194356773786
30
0
41
1
10
13.1860231384036
20
0.239393891883765
30
0
41
1
10
13.3120733026512
20
0.144439301637675
30
0
41
1
10
13.3747647621574
20
0.0959246529986899
30
0
41
1
10
13.4532687423461
20
0.0346931278154443
30
0
41
1
10
13.4689768554437
20
0.0224178768352488
30
0
41
1
10
13.5004229417528
20
-0.0021712244703735
30
0
41
1
10
13.5161709472069
20
-0.0144929021948599
30
0
41
1
10
13.5632596956061
20
-0.0513110878337102
30
0
41
1
10
13.5945145692245
20
-0.0757146797645305
30
0
41
1
10
13.6880561908546
20
-0.148268209377818
30
0
41
1
10
13.7501237109154
20
-0.195757287313
30
0
41
1
10
13.8746062546047
20
-0.28781483450885
30
0
41
1
10
13.9370259958871
20
-0.332377340530542
30
0
41
1
10
14.0000000000001
20
-0.375000000000057
30
0
0
SPLINE
5
121
100
AcDbEntity
8
1
62
256
6
ByLayer
370
18
48
1
60
0
100
AcDbSpline
70
4
71
2
72
6
73
3
40
0
40
0
40
0
40
1
40
1
40
1
41
1
10
11.392937607036
20
-0.659638451433608
30
0
41
1
10
11.6317214377837
20
-0.656069701777227
30
0
41
1
10
11.8717347933538
20
-0.624069430845083
30
0
0
SPLINE
5
122
100
AcDbEntity
8
1
62
256
6
ByLayer
370
18
48
1
60
0
100
AcDbSpline
70
4
71
3
72
8
73
4
40
0
40
0
40
0
40
0
40
1
40
1
40
1
40
1
41
1
10
12.0284987521557
20
-0.594962430765435
30
0
41
1
10
12.1098534489296
20
-0.575209102892416
30
0
41
1
10
12.1912115936712
20
-0.55539344113771
30
0
41
1
10
12.2725702842313
20
-0.535396751062223
30
0
0
SPLINE
5
123
100
AcDbEntity
8
1
62
256
6
ByLayer
370
18
48
1
60
0
100
AcDbSpline
70
4
71
3
72
13
73
9
40
0
40
0
40
0
40
0
40
0.116562437075558
40
0.237923630536694
40
0.333937280000318
40
0.419069755350836
40
0.525657335191459
40
1
40
1
40
1
40
1
41
1
10
13.6673418914775
20
0.441272885503679
30
0
41
1
10
13.6423803746138
20
0.446929871497986
30
0
41
1
10
13.5917427416643
20
0.458572056569864
30
0
41
1
10
13.5223232583716
20
0.475326806845715
30
0
41
1
10
13.4589530060135
20
0.490501357648043
30
0
41
1
10
13.3978333856021
20
0.505374359394693
30
0
41
1
10
13.2569388145196
20
0.540086375714509
30
0
41
1
10
13.1339004352193
20
0.570156338886761
30
0
41
1
10
13.0335118978955
20
0.594670797372544
30
0
0
SPLINE
5
124
100
AcDbEntity
8
1
62
256
6
ByLayer
370
18
48
1
60
0
100
AcDbSpline
70
4
71
3
72
12
73
8
40
0
40
0
40
0
40
0
40
0.203224259801089
40
0.384710768146199
40
0.539739153103009
40
0.689378732282629
40
1
40
1
40
1
40
1
41
1
10
11.9488500203762
20
0.378198720152653
30
0
41
1
10
11.8966872947055
20
0.388422996608654
30
0
41
1
10
11.7979274976782
20
0.408689289953543
30
0
41
1
10
11.6593671945411
20
0.439928836407887
30
0
41
1
10
11.5344770956725
20
0.469329402872404
30
0
41
1
10
11.3760535828901
20
0.509273363651175
30
0
41
1
10
11.2650847872588
20
0.532480405568776
30
0
41
1
10
11.1927396988822
20
0.546194147688681
30
0
0
SPLINE
5
125
100
AcDbEntity
8
1
62
256
6
ByLayer
370
18
48
1
60
0
100
AcDbSpline
70
4
71
1
72
4
73
2
40
0
40
0
40
1
40
1
41
1
10
12.8754262286651
20
0.624355820942952
30
0
41
1
10
12.793355490292
20
0.630507934718281
30
0
0
SPLINE
5
126
100
AcDbEntity
8
1
62
256
6
ByLayer
370
18
48
1
60
0
100
AcDbSpline
70
4
71
1
72
4
73
2
40
0
40
0
40
1
40
1
41
1
10
13.4149385069621
20
-0.659443707869201
30
0
41
1
10
13.7452819921818
20
-0.636462996556759
30
0
0
SPLINE
5
127
100
AcDbEntity
8
1
62
256
6
ByLayer
370
18
48
1
60
0
100
AcDbSpline
70
4
71
2
72
6
73
3
40
0
40
0
40
0
40
1
40
1
40
1
41
1
10
12.0055701673094
20
0.749888983375428
30
0
41
1
10
12.0056271473066
20
0.749886374835739
30
0
41
1
10
12.0056841281279
20
0.749881827534978
30
0
0
LINE
5
77
100
AcDbEntity
8
80
62
256
6
ByLayer
370
18
48
1
60
0
100
AcDbLine
10
0
20
0
30
0
11
-5
21
0
31
0
39
0
210
0
220
0
230
1
0
LINE
5
78
100
AcDbEntity
8
4
62
256
6
ByLayer
370
18
48
0.05
60
0
100
AcDbLine
10
0
20
0
30
0
11
14
21
0
31
0
39
0
210
0
220
0
230
1
0
LINE
5
7A
100
AcDbEntity
8
81
62
256
6
ByLayer
370
18
48
1
60
0
100
AcDbLine
10
14
20
0
30
0
11
19
21
0
31
0
39
0
210
0
220
0
230
1
0
LINE
5
7B
100
AcDbEntity
8
SK4
62
256
6
ByLayer
370
18
48
0.05
60
0
100
AcDbLine
10
-36
20
0
30
0
11
14
21
0
31
0
39
0
210
0
220
0
230
1
0
LINE
5
7D
100
AcDbEntity
8
1
62
256
6
ByLayer
370
18
48
1
60
0
100
AcDbLine
10
0
20
3
30
0
11
0
21
0
31
0
39
0
210
0
220
0
230
1
0
LINE
5
7E
100
AcDbEntity
8
1
62
256
6
ByLayer
370
18
48
1
60
0
100
AcDbLine
10
0
20
0
30
0
11
0
21
-3
31
0
39
0
210
0
220
0
230
1
0
LINE
5
7F
100
AcDbEntity
8
1
62
256
6
ByLayer
370
18
48
1
60
0
100
AcDbLine
10
13.969434
20
-0.046389
30
0
11
13.978819
21
-0.047777
31
0
39
0
210
0
220
0
230
1
0
LINE
5
80
100
AcDbEntity
8
1
62
256
6
ByLayer
370
18
48
1
60
0
100
AcDbLine
10
13.978819
20
-0.047777
30
0
11
13.994141
21
0.528842
31
0
39
0
210
0
220
0
230
1
0
LINE
5
81
100
AcDbEntity
8
1
62
256
6
ByLayer
370
18
48
1
60
0
100
AcDbLine
10
13.987804
20
-0.130088
30
0
11
13.994141
21
-0.257159
31
0
39
0
210
0
220
0
230
1
0
LINE
5
82
100
AcDbEntity
8
1
62
256
6
ByLayer
370
18
48
1
60
0
100
AcDbLine
10
14
20
0.75
30
0
11
14
21
0.749742
31
0
39
0
210
0
220
0
230
1
0
LINE
5
83
100
AcDbEntity
8
1
62
256
6
ByLayer
370
18
48
1
60
0
100
AcDbLine
10
13.90219
20
-0.514284
30
0
11
13.942745
21
-0.332289
31
0
39
0
210
0
220
0
230
1
0
LINE
5
84
100
AcDbEntity
8
1
62
256
6
ByLayer
370
18
48
1
60
0
100
AcDbLine
10
13.985291
20
-0.141361
30
0
11
13.987804
21
-0.130088
31
0
39
0
210
0
220
0
230
1
0
LINE
5
85
100
AcDbEntity
8
1
62
256
6
ByLayer
370
18
48
1
60
0
100
AcDbLine
10
13.983144
20
-0.128493
30
0
11
13.987804
21
-0.130088
31
0
39
0
210
0
220
0
230
1
0
LINE
5
86
100
AcDbEntity
8
1
62
256
6
ByLayer
370
13
48
1
60
0
100
AcDbLine
10
13.7417
20
-0.20635
30
0
11
13.53566
21
-0.344249
31
0
39
0
210
0
220
0
230
1
0
LINE
5
87
100
AcDbEntity
8
1
62
256
6
ByLayer
370
18
48
1
60
0
100
AcDbLine
10
10.63654
20
0.74989
30
0
11
11
21
0.600227
31
0
39
0
210
0
220
0
230
1
0
LINE
5
88
100
AcDbEntity
8
1
62
256
6
ByLayer
370
18
48
1
60
0
100
AcDbLine
10
11
20
-0.634323
30
0
11
11
21
-0.700015
31
0
39
0
210
0
220
0
230
1
0
LINE
5
89
100
AcDbEntity
8
1
62
256
6
ByLayer
370
13
48
1
60
0
100
AcDbLine
10
10.471323
20
-0.490837
30
0
11
11
21
-0.634323
31
0
39
0
210
0
220
0
230
1
0
LINE
5
8A
100
AcDbEntity
8
1
62
256
6
ByLayer
370
18
48
1
60
0
100
AcDbLine
10
11
20
-0.634323
30
0
11
11
21
-0.608838
31
0
39
0
210
0
220
0
230
1
0
LINE
5
8B
100
AcDbEntity
8
1
62
256
6
ByLayer
370
13
48
1
60
0
100
AcDbLine
10
10.471657
20
-0.465443
30
0
11
11
21
-0.608838
31
0
39
0
210
0
220
0
230
1
0
LINE
5
8C
100
AcDbEntity
8
1
62
256
6
ByLayer
370
18
48
1
60
0
100
AcDbLine
10
11
20
-0.608838
30
0
11
11
21
-0.484698
31
0
39
0
210
0
220
0
230
1
0
LINE
5
8D
100
AcDbEntity
8
1
62
256
6
ByLayer
370
18
48
1
60
0
100
AcDbLine
10
11
20
0.524474
30
0
11
11
21
0.600227
31
0
39
0
210
0
220
0
230
1
0
LINE
5
8E
100
AcDbEntity
8
1
62
256
6
ByLayer
370
18
48
1
60
0
100
AcDbLine
10
13.987472
20
-0.154408
30
0
11
13.994141
21
-0.271683
31
0
39
0
210
0
220
0
230
1
0
LINE
5
8F
100
AcDbEntity
8
1
62
256
6
ByLayer
370
18
48
1
60
0
100
AcDbLine
10
13.902094
20
0.356891
30
0
11
13.987472
21
-0.154408
31
0
39
0
210
0
220
0
230
1
0
LINE
5
90
100
AcDbEntity
8
1
62
256
6
ByLayer
370
18
48
1
60
0
100
AcDbLine
10
11
20
0.002167
30
0
11
11
21
0.041315
31
0
39
0
210
0
220
0
230
1
0
LINE
5
91
100
AcDbEntity
8
1
62
256
6
ByLayer
370
13
48
1
60
0
100
AcDbLine
10
10.496708
20
0.177911
30
0
11
11
21
0.041315
31
0
39
0
210
0
220
0
230
1
0
LINE
5
92
100
AcDbEntity
8
1
62
256
6
ByLayer
370
18
48
1
60
0
100
AcDbLine
10
11
20
0.041315
30
0
11
11
21
0.347123
31
0
39
0
210
0
220
0
230
1
0
LINE
5
93
100
AcDbEntity
8
1
62
256
6
ByLayer
370
13
48
1
60
0
100
AcDbLine
10
10.924473
20
0.367622
30
0
11
11
21
0.347123
31
0
39
0
210
0
220
0
230
1
0
LINE
5
94
100
AcDbEntity
8
1
62
256
6
ByLayer
370
18
48
1
60
0
100
AcDbLine
10
10.63654
20
-0.386053
30
0
11
11
21
-0.484698
31
0
39
0
210
0
220
0
230
1
0
LINE
5
95
100
AcDbEntity
8
1
62
256
6
ByLayer
370
18
48
1
60
0
100
AcDbLine
10
11
20
-0.484698
30
0
11
11
21
0.002167
31
0
39
0
210
0
220
0
230
1
0
LINE
5
96
100
AcDbEntity
8
1
62
256
6
ByLayer
370
13
48
1
60
0
100
AcDbLine
10
10.50096
20
0.13761
30
0
11
11
21
0.002167
31
0
39
0
210
0
220
0
230
1
0
LINE
5
97
100
AcDbEntity
8
1
62
256
6
ByLayer
370
13
48
1
60
0
100
AcDbLine
10
10.471657
20
0.742032
30
0
11
10.505116
21
0.728254
31
0
39
0
210
0
220
0
230
1
0
LINE
5
98
100
AcDbEntity
8
1
62
256
6
ByLayer
370
18
48
1
60
0
100
AcDbLine
10
14
20
-0.374908
30
0
11
14
21
-0.374831
31
0
39
0
210
0
220
0
230
1
0
LINE
5
99
100
AcDbEntity
8
1
62
256
6
ByLayer
370
18
48
1
60
0
100
AcDbLine
10
11
20
0.364265
30
0
11
11
21
0.364276
31
0
39
0
210
0
220
0
230
1
0
LINE
5
9A
100
AcDbEntity
8
1
62
256
6
ByLayer
370
18
48
1
60
0
100
AcDbLine
10
11
20
0.364265
30
0
11
11
21
0.347123
31
0
39
0
210
0
220
0
230
1
0
LINE
5
9B
100
AcDbEntity
8
1
62
256
6
ByLayer
370
18
48
1
60
0
100
AcDbLine
10
10.63654
20
0.74989
30
0
11
10.635234
21
0.75
31
0
39
0
210
0
220
0
230
1
0
LINE
5
9C
100
AcDbEntity
8
1
62
256
6
ByLayer
370
13
48
1
60
0
100
AcDbLine
10
6.497679
20
-0.75
30
0
11
6.497679
21
0
31
0
39
0
210
0
220
0
230
1
0
LINE
5
9D
100
AcDbEntity
8
1
62
256
6
ByLayer
370
13
48
1
60
0
100
AcDbLine
10
6.497679
20
0
30
0
11
6.497679
21
0.75
31
0
39
0
210
0
220
0
230
1
0
LINE
5
9E
100
AcDbEntity
8
1
62
256
6
ByLayer
370
13
48
1
60
0
100
AcDbLine
10
5.997679
20
0.883975
30
0
11
5.997679
21
0
31
0
39
0
210
0
220
0
230
1
0
LINE
5
9F
100
AcDbEntity
8
1
62
256
6
ByLayer
370
13
48
1
60
0
100
AcDbLine
10
5.997679
20
0
30
0
11
5.997679
21
-0.883975
31
0
39
0
210
0
220
0
230
1
0
LINE
5
A0
100
AcDbEntity
8
1
62
256
6
ByLayer
370
18
48
1
60
0
100
AcDbLine
10
2.332615
20
3
30
0
11
2.332615
21
0
31
0
39
0
210
0
220
0
230
1
0
LINE
5
A1
100
AcDbEntity
8
1
62
256
6
ByLayer
370
18
48
1
60
0
100
AcDbLine
10
2.332615
20
0
30
0
11
2.332615
21
-3
31
0
39
0
210
0
220
0
230
1
0
LINE
5
A2
100
AcDbEntity
8
SK1
62
256
6
ByLayer
370
18
48
1
60
0
100
AcDbLine
10
-36
20
-2.6
30
0
11
-36
21
2.6
31
0
39
0
210
0
220
0
230
1
0
LINE
5
A4
100
AcDbEntity
8
SK1
62
256
6
ByLayer
370
18
48
1
60
0
100
AcDbLine
10
0
20
3
30
0
11
0
21
0
31
0
39
0
210
0
220
0
230
1
0
LINE
5
A5
100
AcDbEntity
8
SK1
62
256
6
ByLayer
370
18
48
1
60
0
100
AcDbLine
10
0
20
0
30
0
11
0
21
-3
31
0
39
0
210
0
220
0
230
1
0
LINE
5
A6
100
AcDbEntity
8
SK1
62
256
6
ByLayer
370
18
48
1
60
0
100
AcDbLine
10
-35.6
20
3
30
0
11
-35.6
21
-3
31
0
39
0
210
0
220
0
230
1
0
LINE
5
A7
100
AcDbEntity
8
1
62
256
6
ByLayer
370
18
48
1
60
0
100
AcDbLine
10
10.885146
20
-0.75
30
0
11
11.000025
21
-0.75
31
0
39
0
210
0
220
0
230
1
0
LINE
5
A8
100
AcDbEntity
8
1
62
256
6
ByLayer
370
18
48
1
60
0
100
AcDbLine
10
2.332615
20
3
30
0
11
0
21
3
31
0
39
0
210
0
220
0
230
1
0
LINE
5
A9
100
AcDbEntity
8
1
62
256
6
ByLayer
370
18
48
1
60
0
100
AcDbLine
10
0
20
-3
30
0
11
2.332615
21
-3
31
0
39
0
210
0
220
0
230
1
0
LINE
5
AA
100
AcDbEntity
8
1
62
256
6
ByLayer
370
18
48
1
60
0
100
AcDbLine
10
10.634876
20
0.75
30
0
11
6.497679
21
0.75
31
0
39
0
210
0
220
0
230
1
0
LINE
5
AB
100
AcDbEntity
8
1
62
256
6
ByLayer
370
18
48
1
60
0
100
AcDbLine
10
6.497679
20
-0.75
30
0
11
10.885146
21
-0.75
31
0
39
0
210
0
220
0
230
1
0
LINE
5
AC
100
AcDbEntity
8
1
62
256
6
ByLayer
370
18
48
1
60
0
100
AcDbLine
10
5.997679
20
0.883975
30
0
11
2.332615
21
3
31
0
39
0
210
0
220
0
230
1
0
LINE
5
AD
100
AcDbEntity
8
1
62
256
6
ByLayer
370
18
48
1
60
0
100
AcDbLine
10
2.332615
20
-3
30
0
11
5.997679
21
-0.883975
31
0
39
0
210
0
220
0
230
1
0
LINE
5
AE
100
AcDbEntity
8
SK1
62
256
6
ByLayer
370
18
48
1
60
0
100
AcDbLine
10
-36
20
-2.6
30
0
11
-35.6
21
-3
31
0
39
0
210
0
220
0
230
1
0
LINE
5
AF
100
AcDbEntity
8
SK1
62
256
6
ByLayer
370
18
48
1
60
0
100
AcDbLine
10
-35.6
20
3
30
0
11
-36
21
2.6
31
0
39
0
210
0
220
0
230
1
0
LINE
5
B0
100
AcDbEntity
8
SK1
62
256
6
ByLayer
370
18
48
1
60
0
100
AcDbLine
10
0
20
3
30
0
11
-35.6
21
3
31
0
39
0
210
0
220
0
230
1
0
LINE
5
B1
100
AcDbEntity
8
SK1
62
256
6
ByLayer
370
18
48
1
60
0
100
AcDbLine
10
-35.6
20
-3
30
0
11
0
21
-3
31
0
39
0
210
0
220
0
230
1
0
LINE
5
B2
100
AcDbEntity
8
SK2
62
256
6
ByLayer
370
18
48
1
60
0
100
AcDbLine
10
-43.85
20
11.75
30
0
11
-43.85
21
-19.315466
31
0
39
0
210
0
220
0
230
1
0
LINE
5
B4
100
AcDbEntity
8
SK2
62
256
6
ByLayer
370
18
48
1
60
0
100
AcDbLine
10
-37.1875
20
3
30
0
11
-45.85
21
3
31
0
39
0
210
0
220
0
230
1
0
LINE
5
B5
100
AcDbEntity
8
SK2
62
256
6
ByLayer
370
18
48
1
60
0
100
AcDbLine
10
-37.1875
20
-3
30
0
11
-45.85
21
-3
31
0
39
0
210
0
220
0
230
1
0
LINE
5
B6
100
AcDbEntity
8
1
62
256
6
ByLayer
370
18
48
1
60
1
100
AcDbLine
10
-43.85
20
3
30
0
11
-44.310784
21
6.499998
31
0
39
0
210
0
220
0
230
1
0
LINE
5
B7
100
AcDbEntity
8
1
62
256
6
ByLayer
370
18
48
1
60
1
100
AcDbLine
10
-44.310784
20
6.499998
30
0
11
-43.389216
21
6.500002
31
0
39
0
210
0
220
0
230
1
0
LINE
5
B8
100
AcDbEntity
8
1
62
256
6
ByLayer
370
18
48
1
60
1
100
AcDbLine
10
-43.389216
20
6.500002
30
0
11
-43.85
21
3
31
0
39
0
210
0
220
0
230
1
0
LINE
5
B9
100
AcDbEntity
8
1
62
256
6
ByLayer
370
18
48
1
60
1
100
AcDbLine
10
-43.85
20
-3
30
0
11
-43.389216
21
-6.499998
31
0
39
0
210
0
220
0
230
1
0
LINE
5
BA
100
AcDbEntity
8
1
62
256
6
ByLayer
370
18
48
1
60
1
100
AcDbLine
10
-43.389216
20
-6.499998
30
0
11
-44.310784
21
-6.500002
31
0
39
0
210
0
220
0
230
1
0
LINE
5
BB
100
AcDbEntity
8
1
62
256
6
ByLayer
370
18
48
1
60
1
100
AcDbLine
10
-44.310784
20
-6.500002
30
0
11
-43.85
21
-3
31
0
39
0
210
0
220
0
230
1
0
LINE
5
BC
100
AcDbEntity
8
2
62
256
6
ByLayer
370
18
48
1
60
0
100
AcDbLine
10
26
20
20.224165
30
0
11
26
21
-9.5001
31
0
39
0
210
0
220
0
230
1
0
LINE
5
BE
100
AcDbEntity
8
2
62
256
6
ByLayer
370
18
48
1
60
0
100
AcDbLine
10
15.5875
20
0.7501
30
0
11
28
21
0.7501
31
0
39
0
210
0
220
0
230
1
0
LINE
5
BF
100
AcDbEntity
8
2
62
256
6
ByLayer
370
18
48
1
60
0
100
AcDbLine
10
15.5875
20
-0.7501
30
0
11
28
21
-0.7501
31
0
39
0
210
0
220
0
230
1
0
LINE
5
C0
100
AcDbEntity
8
1
62
256
6
ByLayer
370
18
48
1
60
1
100
AcDbLine
10
26
20
0.7501
30
0
11
25.539216
21
4.250098
31
0
39
0
210
0
220
0
230
1
0
LINE
5
C1
100
AcDbEntity
8
1
62
256
6
ByLayer
370
18
48
1
60
1
100
AcDbLine
10
25.539216
20
4.250098
30
0
11
26.460784
21
4.250102
31
0
39
0
210
0
220
0
230
1
0
LINE
5
C2
100
AcDbEntity
8
1
62
256
6
ByLayer
370
18
48
1
60
1
100
AcDbLine
10
26.460784
20
4.250102
30
0
11
26
21
0.7501
31
0
39
0
210
0
220
0
230
1
0
LINE
5
C3
100
AcDbEntity
8
1
62
256
6
ByLayer
370
18
48
1
60
1
100
AcDbLine
10
26
20
-0.7501
30
0
11
26.460784
21
-4.250098
31
0
39
0
210
0
220
0
230
1
0
LINE
5
C4
100
AcDbEntity
8
1
62
256
6
ByLayer
370
18
48
1
60
1
100
AcDbLine
10
26.460784
20
-4.250098
30
0
11
25.539216
21
-4.250102
31
0
39
0
210
0
220
0
230
1
0
LINE
5
C5
100
AcDbEntity
8
1
62
256
6
ByLayer
370
18
48
1
60
1
100
AcDbLine
10
25.539216
20
-4.250102
30
0
11
26
21
-0.7501
31
0
39
0
210
0
220
0
230
1
0
LINE
5
C6
100
AcDbEntity
8
SK2
62
256
6
ByLayer
370
18
48
1
60
0
100
AcDbLine
10
14
20
-33.1
30
0
11
-36
21
-33.1
31
0
39
0
210
0
220
0
230
1
0
LINE
5
C7
100
AcDbEntity
8
SK2
62
256
6
ByLayer
370
18
48
1
60
0
100
AcDbLine
10
-36
20
-4.1875
30
0
11
-36
21
-35.1
31
0
39
0
210
0
220
0
230
1
0
LINE
5
C8
100
AcDbEntity
8
SK2
62
256
6
ByLayer
370
18
48
1
60
0
100
AcDbLine
10
14
20
-2.3376
30
0
11
14
21
-35.1
31
0
39
0
210
0
220
0
230
1
0
LINE
5
C9
100
AcDbEntity
8
1
62
256
6
ByLayer
370
18
48
1
60
1
100
AcDbLine
10
-36
20
-33.1
30
0
11
-32.500002
21
-32.639216
31
0
39
0
210
0
220
0
230
1
0
LINE
5
CA
100
AcDbEntity
8
1
62
256
6
ByLayer
370
18
48
1
60
1
100
AcDbLine
10
-32.500002
20
-32.639216
30
0
11
-32.499998
21
-33.560784
31
0
39
0
210
0
220
0
230
1
0
LINE
5
CB
100
AcDbEntity
8
1
62
256
6
ByLayer
370
18
48
1
60
1
100
AcDbLine
10
-32.499998
20
-33.560784
30
0
11
-36
21
-33.1
31
0
39
0
210
0
220
0
230
1
0
LINE
5
CC
100
AcDbEntity
8
1
62
256
6
ByLayer
370
18
48
1
60
1
100
AcDbLine
10
14
20
-33.1
30
0
11
10.500002
21
-33.560784
31
0
39
0
210
0
220
0
230
1
0
LINE
5
CD
100
AcDbEntity
8
1
62
256
6
ByLayer
370
18
48
1
60
1
100
AcDbLine
10
10.500002
20
-33.560784
30
0
11
10.499998
21
-32.639216
31
0
39
0
210
0
220
0
230
1
0
LINE
5
CE
100
AcDbEntity
8
1
62
256
6
ByLayer
370
18
48
1
60
1
100
AcDbLine
10
10.499998
20
-32.639216
30
0
11
14
21
-33.1
31
0
39
0
210
0
220
0
230
1
0
LINE
5
12C
100
AcDbEntity
8
1
62
256
6
ByLayer
370
18
48
1
60
1
100
AcDbLine
10
-43.85
20
3
30
0
11
-44.310784
21
6.499998
31
0
39
0
210
0
220
0
230
1
0
LINE
5
12D
100
AcDbEntity
8
1
62
256
6
ByLayer
370
18
48
1
60
1
100
AcDbLine
10
-44.310784
20
6.499998
30
0
11
-43.389216
21
6.500002
31
0
39
0
210
0
220
0
230
1
0
LINE
5
12E
100
AcDbEntity
8
1
62
256
6
ByLayer
370
18
48
1
60
1
100
AcDbLine
10
-43.389216
20
6.500002
30
0
11
-43.85
21
3
31
0
39
0
210
0
220
0
230
1
0
LINE
5
130
100
AcDbEntity
8
1
62
256
6
ByLayer
370
18
48
1
60
1
100
AcDbLine
10
-43.85
20
-3
30
0
11
-43.389216
21
-6.499998
31
0
39
0
210
0
220
0
230
1
0
LINE
5
131
100
AcDbEntity
8
1
62
256
6
ByLayer
370
18
48
1
60
1
100
AcDbLine
10
-43.389216
20
-6.499998
30
0
11
-44.310784
21
-6.500002
31
0
39
0
210
0
220
0
230
1
0
LINE
5
132
100
AcDbEntity
8
1
62
256
6
ByLayer
370
18
48
1
60
1
100
AcDbLine
10
-44.310784
20
-6.500002
30
0
11
-43.85
21
-3
31
0
39
0
210
0
220
0
230
1
0
LINE
5
136
100
AcDbEntity
8
1
62
256
6
ByLayer
370
18
48
1
60
1
100
AcDbLine
10
26
20
0.7501
30
0
11
25.539216
21
4.250098
31
0
39
0
210
0
220
0
230
1
0
LINE
5
137
100
AcDbEntity
8
1
62
256
6
ByLayer
370
18
48
1
60
1
100
AcDbLine
10
25.539216
20
4.250098
30
0
11
26.460784
21
4.250102
31
0
39
0
210
0
220
0
230
1
0
LINE
5
138
100
AcDbEntity
8
1
62
256
6
ByLayer
370
18
48
1
60
1
100
AcDbLine
10
26.460784
20
4.250102
30
0
11
26
21
0.7501
31
0
39
0
210
0
220
0
230
1
0
LINE
5
13A
100
AcDbEntity
8
1
62
256
6
ByLayer
370
18
48
1
60
1
100
AcDbLine
10
26
20
-0.7501
30
0
11
26.460784
21
-4.250098
31
0
39
0
210
0
220
0
230
1
0
LINE
5
13B
100
AcDbEntity
8
1
62
256
6
ByLayer
370
18
48
1
60
1
100
AcDbLine
10
26.460784
20
-4.250098
30
0
11
25.539216
21
-4.250102
31
0
39
0
210
0
220
0
230
1
0
LINE
5
13C
100
AcDbEntity
8
1
62
256
6
ByLayer
370
18
48
1
60
1
100
AcDbLine
10
25.539216
20
-4.250102
30
0
11
26
21
-0.7501
31
0
39
0
210
0
220
0
230
1
0
LINE
5
13F
100
AcDbEntity
8
1
62
256
6
ByLayer
370
18
48
1
60
1
100
AcDbLine
10
-36
20
-33.1
30
0
11
-32.500002
21
-32.639216
31
0
39
0
210
0
220
0
230
1
0
LINE
5
140
100
AcDbEntity
8
1
62
256
6
ByLayer
370
18
48
1
60
1
100
AcDbLine
10
-32.500002
20
-32.639216
30
0
11
-32.499998
21
-33.560784
31
0
39
0
210
0
220
0
230
1
0
LINE
5
141
100
AcDbEntity
8
1
62
256
6
ByLayer
370
18
48
1
60
1
100
AcDbLine
10
-32.499998
20
-33.560784
30
0
11
-36
21
-33.1
31
0
39
0
210
0
220
0
230
1
0
LINE
5
143
100
AcDbEntity
8
1
62
256
6
ByLayer
370
18
48
1
60
1
100
AcDbLine
10
14
20
-33.1
30
0
11
10.500002
21
-33.560784
31
0
39
0
210
0
220
0
230
1
0
LINE
5
144
100
AcDbEntity
8
1
62
256
6
ByLayer
370
18
48
1
60
1
100
AcDbLine
10
10.500002
20
-33.560784
30
0
11
10.499998
21
-32.639216
31
0
39
0
210
0
220
0
230
1
0
LINE
5
145
100
AcDbEntity
8
1
62
256
6
ByLayer
370
18
48
1
60
1
100
AcDbLine
10
10.499998
20
-32.639216
30
0
11
14
21
-33.1
31
0
39
0
210
0
220
0
230
1
0
MTEXT
5
128
100
AcDbEntity
8
SK2
62
256
6
ByLayer
370
18
48
1
60
0
100
AcDbMText
10
-45.414634
20
-17.380622
30
0
210
0
220
0
230
1
1
%%c
40
3.5
41
0
44
1.084337
50
90
71
7
72
5
7
iso_b_vert
0
MTEXT
5
12B
100
AcDbEntity
8
SK2
62
256
6
ByLayer
370
18
48
1
60
0
100
AcDbMText
10
-45.414634
20
-10.407966
30
0
210
0
220
0
230
1
1
\W0.5404;6
40
3.5
41
0
44
1.084337
50
90
71
7
72
5
7
iso_b_vert
0
MTEXT
5
134
100
AcDbEntity
8
2
62
256
6
ByLayer
370
18
48
1
60
0
100
AcDbMText
10
24.435366
20
8.684944
30
0
210
0
220
0
230
1
1
%%c
40
3.5
41
0
44
1.084337
50
90
71
7
72
5
7
iso_b_vert
0
MTEXT
5
135
100
AcDbEntity
8
2
62
256
6
ByLayer
370
18
48
1
60
0
100
AcDbMText
10
24.435366
20
15.6576
30
0
210
0
220
0
230
1
1
\W0.6004;1.5
40
3.5
41
0
44
1.084337
50
90
71
7
72
5
7
iso_b_vert
0
MTEXT
5
13E
100
AcDbEntity
8
SK2
62
256
6
ByLayer
370
18
48
1
60
0
100
AcDbMText
10
-12.904966
20
-32.067366
30
0
210
0
220
0
230
1
1
\W0.6740;50
40
3.5
41
0
44
1.084337
50
0
71
7
72
5
7
iso_b_vert
0
MTEXT
5
147
100
AcDbEntity
8
SK6
62
256
6
ByLayer
370
18
48
1
60
0
100
AcDbMText
10
-35.469895
20
-62.114886
30
0
210
0
220
0
230
1
1
\W0.6967;1K333-0150-XA       1730
40
3
41
0
44
1.084337
50
0
71
7
72
5
7
iso_b_vert
0
HATCH
5
12F
100
AcDbEntity
8
SK2
62
256
6
ByLayer
370
13
48
1
60
0
100
AcDbHatch
10
0
20
0
30
0
210
0
220
0
230
1
2
ANSI31
70
0
71
0
91
1
92
5
93
3
72
1
10
-43.85
20
3
11
-44.3107837415528
21
6.49999830744682
72
1
10
-44.3107837415528
20
6.49999830744682
11
-43.3892162584472
21
6.50000169255318
72
1
10
-43.3892162584472
20
6.50000169255318
11
-43.85
21
3
97
0
75
0
76
1
52
0
41
0.0062
77
0
78
1
53
45
43
0
44
0
45
-0.0139193969876572
46
0.0139193969876572
79
0
47
0
98
1
10
0
20
0
0
HATCH
5
133
100
AcDbEntity
8
SK2
62
256
6
ByLayer
370
13
48
1
60
0
100
AcDbHatch
10
0
20
0
30
0
210
0
220
0
230
1
2
ANSI31
70
0
71
0
91
1
92
5
93
3
72
1
10
-43.85
20
-3
11
-43.3892162584472
21
-6.49999830744682
72
1
10
-43.3892162584472
20
-6.49999830744682
11
-44.3107837415528
21
-6.50000169255318
72
1
10
-44.3107837415528
20
-6.50000169255318
11
-43.85
21
-3
97
0
75
0
76
1
52
0
41
0.0062
77
0
78
1
53
45
43
0
44
0
45
-0.0139193969876572
46
0.0139193969876572
79
0
47
0
98
1
10
0
20
0
0
HATCH
5
139
100
AcDbEntity
8
2
62
256
6
ByLayer
370
13
48
1
60
0
100
AcDbHatch
10
0
20
0
30
0
210
0
220
0
230
1
2
ANSI31
70
0
71
0
91
1
92
5
93
3
72
1
10
26
20
0.750099999999975
11
25.5392162584472
21
4.25009830744679
72
1
10
25.5392162584472
20
4.25009830744679
11
26.4607837415528
21
4.25010169255316
72
1
10
26.4607837415528
20
4.25010169255316
11
26
21
0.750099999999975
97
0
75
0
76
1
52
0
41
0.0062
77
0
78
1
53
45
43
0
44
0
45
-0.0139193969876572
46
0.0139193969876572
79
0
47
0
98
1
10
0
20
0
0
HATCH
5
13D
100
AcDbEntity
8
2
62
256
6
ByLayer
370
13
48
1
60
0
100
AcDbHatch
10
0
20
0
30
0
210
0
220
0
230
1
2
ANSI31
70
0
71
0
91
1
92
5
93
3
72
1
10
26
20
-0.750100000000032
11
26.4607837415528
21
-4.25009830744685
72
1
10
26.4607837415528
20
-4.25009830744685
11
25.5392162584472
21
-4.25010169255322
72
1
10
25.5392162584472
20
-4.25010169255322
11
26
21
-0.750100000000032
97
0
75
0
76
1
52
0
41
0.0062
77
0
78
1
53
45
43
0
44
0
45
-0.0139193969876572
46
0.0139193969876572
79
0
47
0
98
1
10
0
20
0
0
HATCH
5
142
100
AcDbEntity
8
SK2
62
256
6
ByLayer
370
13
48
1
60
0
100
AcDbHatch
10
0
20
0
30
0
210
0
220
0
230
1
2
ANSI31
70
0
71
0
91
1
92
5
93
3
72
1
10
-36
20
-33.1000000000001
11
-32.5000016925532
21
-32.6392162584473
72
1
10
-32.5000016925532
20
-32.6392162584473
11
-32.4999983074468
21
-33.5607837415528
72
1
10
-32.4999983074468
20
-33.5607837415528
11
-36
21
-33.1000000000001
97
0
75
0
76
1
52
0
41
0.0062
77
0
78
1
53
45
43
0
44
0
45
-0.0139193969876572
46
0.0139193969876572
79
0
47
0
98
1
10
0
20
0
0
HATCH
5
146
100
AcDbEntity
8
SK2
62
256
6
ByLayer
370
13
48
1
60
0
100
AcDbHatch
10
0
20
0
30
0
210
0
220
0
230
1
2
ANSI31
70
0
71
0
91
1
92
5
93
3
72
1
10
14
20
-33.1000000000001
11
10.5000016925532
21
-33.5607837415528
72
1
10
10.5000016925532
20
-33.5607837415528
11
10.4999983074468
21
-32.6392162584473
72
1
10
10.4999983074468
20
-32.6392162584473
11
14
21
-33.1000000000001
97
0
75
0
76
1
52
0
41
0.0062
77
0
78
1
53
45
43
0
44
0
45
-0.0139193969876572
46
0.0139193969876572
79
0
47
0
98
1
10
0
20
0
0
DIMENSION
5
14A
100
AcDbEntity
8
2
62
256
6
ByLayer
370
18
48
1
60
0
100
AcDbDimension
2
_U0
10
11
20
-17.1
30
0
11
12.5
21
-17.1
31
0
70
32
71
1
72
1
41
1
210
0
220
0
230
1
3
Standard
100
AcDbAlignedDimension
13
14
23
-0.7501
33
0
14
11
24
-0.7501
34
0
50
0
100
AcDbRotatedDimension
1001
ACAD
1000
DSTYLE
1002
{
1070
   371
1070
    13
1070
   372
1070
    13
1070
   170
1070
     0
1070
   144
1040
1.0
1070
   277
1070
     2
1070
   284
1070
     8
1070
   278
1070
    46
1070
   146
1040
1.0
1070
   345
1005
16
1070
   347
1005
16
1070
   346
1005
16
1070
   344
1005
0
1070
   343
1005
0
1070
   172
1070
     1
1070
    76
1070
     0
1070
    75
1070
     0
1070
   282
1070
     0
1070
   281
1070
     0
1070
    71
1070
     0
1070
    74
1070
     0
1070
   279
1070
     0
1070
   173
1070
     1
1070
   340
1005
129
1070
   271
1070
     2
1070
   272
1070
     2
1070
    77
1070
     1
1070
    73
1070
     1
1070
   171
1070
     3
1070
   274
1070
     4
1070
   177
1070
     2
1070
   176
1070
     2
1070
   178
1070
     2
1070
    78
1070
     8
1070
    48
1040
-0.1
1070
    41
1040
3.5
1070
   147
1040
1.75
1070
    42
1040
1.5875
1070
    44
1040
2.0
1070
   140
1040
3.5
1002
}
1001
ACAD_DSTYLE_DIM_LINETYPE
1070
   380
1005
16
1001
ACAD_DSTYLE_DIM_EXT1_LINETYPE
1070
   381
1005
16
1001
ACAD_DSTYLE_DIM_EXT2_LINETYPE
1070
   382
1005
16
0
ENDSEC
0
SECTION
2
OBJECTS
0
DICTIONARY
5
1d4
330
0
100
AcDbDictionary
280
0
281
1
3
ACAD_GROUP
350
1d5
3
ACAD_MLINESTYLE
350
1d6
0
DICTIONARY
5
1d5
330
0
100
AcDbDictionary
280
0
281
1
0
DICTIONARY
5
1d6
330
0
100
AcDbDictionary
280
0
281
1
3
Standard
350
18
0
MLINESTYLE
5
18
330
1d6
100
AcDbMlineStyle
2
Standard
70
0
3

62
256
51
90
52
90
71
2
49
-0.5
62
256
6
ByLayer
49
0.5
62
256
6
ByLayer
0
RASTERVARIABLES
5
1c2
330

100
AcDbRasterVariables
90
0
70
1
71
1
72
1
0
ENDSEC
0
EOF
