0
SECTION
2
HEADER
9
$ACADVER
1
AC1015
9
$DWGCODEPAGE
3
ANSI_1252
9
$HANDSEED
5
21e
9
$ANGBASE
50
0
9
$ANGDIR
70
0
9
$ATTMODE
70
1
9
$AUNITS
70
0
9
$AUPREC
70
0
9
$CECOLOR
62
256
9
$CELTSCALE
40
1
9
$CELTYPE
6
ByLayer
9
$CELWEIGHT
370
18
9
$CLAYER
8
0
9
$CMLJUST
70
0
9
$CMLSCALE
40
1
9
$CMLSTYLE
2
Standard
9
$DIMSTYLE
2
Standard
9
$TEXTSIZE
40
0.2
9
$TEXTSTYLE
7
Standard
9
$LUNITS
70
2
9
$LUPREC
70
4
9
$EXTNAMES
290
1
9
$INSUNITS
70
4
9
$LTSCALE
40
1
9
$LWDISPLAY
290
1
9
$PDMODE
70
0
9
$PDSIZE
40
0
9
$PLINEGEN
70
0
0
ENDSEC
0
SECTION
2
CLASSES
0
CLASS
1
RASTERVARIABLES
2
AcDbRasterVariables
3
ISM
90
0
280
0
281
0
0
ENDSEC
0
SECTION
2
TABLES
0
TABLE
2
VPORT
5
214
100
AcDbSymbolTable
0
VPORT
5
1
100
AcDbSymbolTableRecord
100
AcDbViewportTableRecord
2
*Active
70
0
10
0
20
0
11
1
21
1
12
-1
22
1
13
0
23
0
14
0.5
24
0.5
15
10
25
10
16
0
26
0
36
1
17
0
27
0
37
0
0
ENDTAB
0
TABLE
2
LTYPE
5
215
100
AcDbSymbolTable
0
LTYPE
5
14
100
AcDbSymbolTableRecord
100
AcDbLinetypeTableRecord
70
0
2
ByBlock
3

72
65
73
0
40
0
0
LTYPE
5
15
100
AcDbSymbolTableRecord
100
AcDbLinetypeTableRecord
70
0
2
ByLayer
3

72
65
73
0
40
0
0
LTYPE
5
16
100
AcDbSymbolTableRecord
100
AcDbLinetypeTableRecord
70
0
2
Continuous
3
Solid line
72
65
73
0
40
0
0
LTYPE
5
6E
100
AcDbSymbolTableRecord
100
AcDbLinetypeTableRecord
70
0
2
CENTER
3
____ _ ____ _ ____ _ ____
72
65
73
4
40
47.5
49
22
74
0
49
-8.5
74
0
49
8.5
74
0
49
-8.5
74
0
0
LTYPE
5
6F
100
AcDbSymbolTableRecord
100
AcDbLinetypeTableRecord
70
0
2
DASHED
3
__ __ __ __ __ __ __ __ __
72
65
73
2
40
25.72
49
12.86
74
0
49
-12.86
74
0
0
ENDTAB
0
TABLE
2
LAYER
5
216
100
AcDbSymbolTable
0
LAYER
5
10
100
AcDbSymbolTableRecord
100
AcDbLayerTableRecord
2
0
70
0
62
7
6
Continuous
290
1
370
-3
390
0
0
LAYER
5
71
100
AcDbSymbolTableRecord
100
AcDbLayerTableRecord
2
81
70
0
62
-3
6
Continuous
290
1
370
-3
390
0
0
LAYER
5
73
100
AcDbSymbolTableRecord
100
AcDbLayerTableRecord
2
80
70
0
62
-6
6
Continuous
290
1
370
-3
390
0
0
LAYER
5
75
100
AcDbSymbolTableRecord
100
AcDbLayerTableRecord
2
1
70
0
62
4
6
Continuous
290
1
370
-3
390
0
0
LAYER
5
79
100
AcDbSymbolTableRecord
100
AcDbLayerTableRecord
2
4
70
0
62
-2
6
CENTER
290
1
370
-3
390
0
0
LAYER
5
DA
100
AcDbSymbolTableRecord
100
AcDbLayerTableRecord
2
2
70
0
62
7
6
Continuous
290
1
370
-3
390
0
0
LAYER
5
18A
100
AcDbSymbolTableRecord
100
AcDbLayerTableRecord
2
Defpoints
70
0
62
7
6
Continuous
290
0
370
-3
390
0
0
LAYER
5
200
100
AcDbSymbolTableRecord
100
AcDbLayerTableRecord
2
SK4
70
0
62
2
6
CENTER
290
1
370
-3
390
0
0
LAYER
5
201
100
AcDbSymbolTableRecord
100
AcDbLayerTableRecord
2
SK1
70
0
62
4
6
Continuous
290
1
370
-3
390
0
0
LAYER
5
202
100
AcDbSymbolTableRecord
100
AcDbLayerTableRecord
2
SK2
70
0
62
7
6
Continuous
290
1
370
-3
390
0
0
LAYER
5
203
100
AcDbSymbolTableRecord
100
AcDbLayerTableRecord
2
SK6
70
0
62
5
6
Continuous
290
1
370
-3
390
0
0
ENDTAB
0
TABLE
2
STYLE
5
217
100
AcDbSymbolTable
0
STYLE
5
11
100
AcDbSymbolTableRecord
100
AcDbTextStyleTableRecord
2
Standard
3
txt
70
0
71
0
40
0
41
1
42
0
50
0
0
STYLE
5
166
100
AcDbSymbolTableRecord
100
AcDbTextStyleTableRecord
2
iso_b_vert
3
simplex.shx
70
0
71
0
40
0
41
1
42
0
50
0
0
STYLE
5
167
100
AcDbSymbolTableRecord
100
AcDbTextStyleTableRecord
2
DWGDirectTextStyle
3
simplex
70
0
71
0
40
0
41
1
42
0
50
0
0
ENDTAB
0
TABLE
2
DIMSTYLE
5
218
100
AcDbSymbolTable
100
AcDbDimStyleTable
0
DIMSTYLE
105
27
100
AcDbSymbolTableRecord
100
AcDbDimStyleTableRecord
2
Standard
70
0
3
<>
41
0.18
42
0.0625
44
0.18
140
0.18
147
0.09
73
0
74
0
77
1
271
2
275
0
278
52
280
0
340
11
0
ENDTAB
0
TABLE
2
VIEW
5
219
100
AcDbSymbolTable
0
ENDTAB
0
TABLE
2
UCS
5
21a
100
AcDbSymbolTable
0
ENDTAB
0
TABLE
2
APPID
5
21b
100
AcDbSymbolTable
0
APPID
5
12
100
AcDbSymbolTableRecord
100
AcDbRegAppTableRecord
2
ACAD
70
0
0
APPID
5
186
100
AcDbSymbolTableRecord
100
AcDbRegAppTableRecord
2
ACAD_DSTYLE_DIMBREAK
70
0
0
APPID
5
1BF
100
AcDbSymbolTableRecord
100
AcDbRegAppTableRecord
2
ACAD_DSTYLE_DIM_LINETYPE
70
0
0
APPID
5
1C0
100
AcDbSymbolTableRecord
100
AcDbRegAppTableRecord
2
ACAD_DSTYLE_DIM_EXT1_LINETYPE
70
0
0
APPID
5
1C1
100
AcDbSymbolTableRecord
100
AcDbRegAppTableRecord
2
ACAD_DSTYLE_DIM_EXT2_LINETYPE
70
0
0
APPID
5
1FC
100
AcDbSymbolTableRecord
100
AcDbRegAppTableRecord
2
ACAD_MLEADERVER
70
0
0
ENDTAB
0
TABLE
2
BLOCK_RECORD
5
21c
100
AcDbSymbolTable
0
BLOCK_RECORD
5
1F
100
AcDbSymbolTableRecord
100
AcDbBlockTableRecord
2
*Model_Space
340
0
70
0
0
BLOCK_RECORD
5
1B
100
AcDbSymbolTableRecord
100
AcDbBlockTableRecord
2
*Paper_Space
340
0
70
0
0
BLOCK_RECORD
5
23
100
AcDbSymbolTableRecord
100
AcDbBlockTableRecord
2
*Paper_Space0
340
0
70
0
0
BLOCK_RECORD
5
18B
100
AcDbSymbolTableRecord
100
AcDbBlockTableRecord
2
*D1
340
0
70
0
0
BLOCK_RECORD
5
198
100
AcDbSymbolTableRecord
100
AcDbBlockTableRecord
2
_U0
340
0
70
0
0
ENDTAB
0
ENDSEC
0
SECTION
2
BLOCKS
0
BLOCK
5
20
100
AcDbEntity
8
0
100
AcDbBlockBegin
2
*Model_Space
70
0
10
0
20
0
30
0
3
*Model_Space
0
ENDBLK
5
21
100
AcDbEntity
8
0
100
AcDbBlockEnd
0
BLOCK
5
1C
100
AcDbEntity
8
0
100
AcDbBlockBegin
2
*Paper_Space
70
0
10
0
20
0
30
0
3
*Paper_Space
0
ENDBLK
5
1D
100
AcDbEntity
8
0
100
AcDbBlockEnd
0
BLOCK
5
24
100
AcDbEntity
8
0
100
AcDbBlockBegin
2
*Paper_Space0
70
0
10
0
20
0
30
0
3
*Paper_Space0
0
ENDBLK
5
25
100
AcDbEntity
8
0
100
AcDbBlockEnd
0
BLOCK
5
18C
100
AcDbEntity
8
0
100
AcDbBlockBegin
2
*D1
70
1
10
0
20
0
30
0
3
*D1
0
LINE
5
18E
100
AcDbEntity
8
0
62
256
6
ByLayer
370
-2
48
1
60
0
100
AcDbLine
10
18
20
-4.0876
30
0
11
18
21
-19.1
31
0
39
0
210
0
220
0
230
1
0
LINE
5
18F
100
AcDbEntity
8
0
62
256
6
ByLayer
370
-2
48
1
60
0
100
AcDbLine
10
10.5
20
-4.0876
30
0
11
10.5
21
-19.1
31
0
39
0
210
0
220
0
230
1
0
LINE
5
190
100
AcDbEntity
8
0
62
256
6
ByLayer
370
-2
48
1
60
0
100
AcDbLine
10
21.5
20
-17.1
30
0
11
25
21
-17.1
31
0
39
0
210
0
220
0
230
1
0
LINE
5
191
100
AcDbEntity
8
0
62
256
6
ByLayer
370
-2
48
1
60
0
100
AcDbLine
10
7
20
-17.1
30
0
11
3.5
21
-17.1
31
0
39
0
210
0
220
0
230
1
0
SOLID
5
192
100
AcDbEntity
8
0
62
256
6
ByLayer
370
-1
48
1
60
0
100
AcDbTrace
10
21.5
20
-16.516667
30
0
11
21.5
21
-17.683333
31
0
12
18
22
-17.1
32
0
13
18
23
-17.1
33
0
39
0
210
0
220
0
230
1
0
SOLID
5
193
100
AcDbEntity
8
0
62
256
6
ByLayer
370
-1
48
1
60
0
100
AcDbTrace
10
7
20
-17.683333
30
0
11
7
21
-16.516667
31
0
12
10.5
22
-17.1
32
0
13
10.5
23
-17.1
33
0
39
0
210
0
220
0
230
1
0
MTEXT
5
194
100
AcDbEntity
8
0
62
256
6
ByLayer
370
18
48
1
60
0
100
AcDbMText
10
14.25
20
-10.1
30
0
210
0
220
0
230
1
1
\A1;7.5
40
3.5
41
0
44
1
50
0
71
5
72
5
7
iso_b_vert
0
POINT
5
195
100
AcDbEntity
8
Defpoints
62
0
6
ByLayer
370
-1
48
1
60
0
100
AcDbPoint
10
18
20
-2.5001
30
0
39
0
210
0
220
0
230
1
50
360
0
POINT
5
196
100
AcDbEntity
8
Defpoints
62
0
6
ByLayer
370
-1
48
1
60
0
100
AcDbPoint
10
10.5
20
-2.5001
30
0
39
0
210
0
220
0
230
1
50
360
0
POINT
5
197
100
AcDbEntity
8
Defpoints
62
0
6
ByLayer
370
-1
48
1
60
0
100
AcDbPoint
10
10.5
20
-17.1
30
0
39
0
210
0
220
0
230
1
50
360
0
ENDBLK
5
18D
100
AcDbEntity
8
0
100
AcDbBlockEnd
0
BLOCK
5
19F
100
AcDbEntity
8
0
100
AcDbBlockBegin
2
_U0
70
0
10
0
20
0
30
0
3
_U0
0
MTEXT
5
199
100
AcDbEntity
8
2
62
256
6
ByLayer
370
18
48
1
60
0
100
AcDbMText
10
11.636034
20
-16.067366
30
0
210
0
220
0
230
1
1
\W0.7121;7.5
40
3.5
41
0
44
1.084337
50
0
71
7
72
5
7
iso_b_vert
0
LINE
5
19A
100
AcDbEntity
8
2
62
256
6
ByLayer
370
13
48
1
60
0
100
AcDbLine
10
18
20
-4.0876
30
0
11
18
21
-19.1
31
0
39
0
210
0
220
0
230
1
0
LINE
5
19B
100
AcDbEntity
8
2
62
256
6
ByLayer
370
13
48
1
60
0
100
AcDbLine
10
10.5
20
-4.0876
30
0
11
10.5
21
-19.1
31
0
39
0
210
0
220
0
230
1
0
LINE
5
19C
100
AcDbEntity
8
2
62
256
6
ByLayer
370
13
48
1
60
0
100
AcDbLine
10
18
20
-17.1
30
0
11
10.5
21
-17.1
31
0
39
0
210
0
220
0
230
1
0
SOLID
5
19D
100
AcDbEntity
8
2
62
256
6
ByLayer
370
18
48
1
60
0
100
AcDbTrace
10
18
20
-17.1
30
0
11
14.500002
21
-17.560784
31
0
12
14.499998
22
-16.639216
32
0
13
14.499998
23
-16.639216
33
0
39
0
210
0
220
0
230
1
0
SOLID
5
19E
100
AcDbEntity
8
2
62
256
6
ByLayer
370
18
48
1
60
0
100
AcDbTrace
10
10.5
20
-17.1
30
0
11
13.999998
21
-16.639216
31
0
12
14.000002
22
-17.560784
32
0
13
14.000002
23
-17.560784
33
0
39
0
210
0
220
0
230
1
0
ENDBLK
5
1A0
100
AcDbEntity
8
0
100
AcDbBlockEnd
0
ENDSEC
0
SECTION
2
ENTITIES
0
ARC
5
EC
100
AcDbEntity
8
1
62
256
6
ByLayer
370
18
48
1
60
0
100
AcDbCircle
39
0
10
3.497679
20
3.5
30
0
40
1
210
0
220
0
230
1
100
AcDbArc
50
240
51
270
0
ARC
5
ED
100
AcDbEntity
8
1
62
256
6
ByLayer
370
18
48
1
60
0
100
AcDbCircle
39
0
10
3.497679
20
-3.5
30
0
40
1
210
0
220
0
230
1
100
AcDbArc
50
90
51
120
0
ELLIPSE
5
EE
100
AcDbEntity
8
1
62
256
6
ByLayer
370
18
48
1
60
0
100
AcDbEllipse
10
17.969928
20
-0.018387
30
0
11
0.0130521034275652
21
0.701752270278676
31
0
210
0
220
0
230
1
40
0.051623
41
1.41768720898611
42
1.58989241578821
0
ELLIPSE
5
EF
100
AcDbEntity
8
1
62
256
6
ByLayer
370
18
48
1
60
0
100
AcDbEllipse
10
17.915369
20
0.103715
30
0
11
0.344290269979047
21
-0.0567258993422489
31
0
210
0
220
0
230
1
40
0.375281
41
-1.64904224812164
42
-1.4565760069068
0
ELLIPSE
5
F0
100
AcDbEntity
8
1
62
256
6
ByLayer
370
18
48
1
60
0
100
AcDbEllipse
10
17.839865
20
-0.290063
30
0
11
0.343584746949232
21
0.0182951192058176
31
0
210
0
220
0
230
1
40
0.664898
41
1.3334464413392
42
2.12328257736447
0
ELLIPSE
5
F1
100
AcDbEntity
8
1
62
256
6
ByLayer
370
18
48
1
60
0
100
AcDbEllipse
10
17.915369
20
0.103715
30
0
11
0.344290270770478
21
-0.0567258998043177
31
0
210
0
220
0
230
1
40
0.375281
41
2.42445386038939
42
2.58384213861834
0
ELLIPSE
5
F2
100
AcDbEntity
8
1
62
256
6
ByLayer
370
18
48
1
60
0
100
AcDbEllipse
10
12.894928
20
0
30
0
11
4.77654537207758
21
2.39672132979699
31
0
210
0
220
0
230
1
40
0.148883
41
-2.67867069230039
42
-2.42181791710321
0
ELLIPSE
5
F3
100
AcDbEntity
8
1
62
256
6
ByLayer
370
18
48
1
60
0
100
AcDbEllipse
10
12.803184
20
0
30
0
11
4.5999500432372
21
-2.45827244557661
31
0
210
0
220
0
230
1
40
0.098883
41
-2.60453562376691
42
-2.18581313558268
0
ELLIPSE
5
F4
100
AcDbEntity
8
1
62
256
6
ByLayer
370
18
48
1
60
0
100
AcDbEllipse
10
11.32978
20
0
30
0
11
4.73750756661652
21
-1.45628975027814
31
0
210
0
220
0
230
1
40
0.428928
41
1.87838913197188
42
1.94632577188815
0
ELLIPSE
5
F5
100
AcDbEntity
8
1
62
256
6
ByLayer
370
18
48
1
60
0
100
AcDbEllipse
10
11.357449
20
0
30
0
11
4.9351238362726
21
-0.326778817794329
31
0
210
0
220
0
230
1
40
0.502227
41
-1.7829791915753
42
-1.71208660531121
0
ELLIPSE
5
F6
100
AcDbEntity
8
1
62
256
6
ByLayer
370
18
48
1
60
0
100
AcDbEllipse
10
13.00294
20
0
30
0
11
5.00583468523509
21
0.0425969707985431
31
0
210
0
220
0
230
1
40
0.499345
41
-2.66345574359547
42
-2.23851057065265
0
ELLIPSE
5
F7
100
AcDbEntity
8
1
62
256
6
ByLayer
370
18
48
1
60
0
100
AcDbEllipse
10
11.529167
20
0
30
0
11
5.92570562738381
21
-2.48612512392134
31
0
210
0
220
0
230
1
40
0.044388
41
-1.78233490508941
42
-1.72783256772077
0
POINT
5
70
100
AcDbEntity
8
81
62
256
6
ByLayer
370
18
48
1
60
0
100
AcDbPoint
10
18
20
0
30
0
39
0
210
0
220
0
230
1
50
360
0
POINT
5
72
100
AcDbEntity
8
80
62
256
6
ByLayer
370
18
48
1
60
0
100
AcDbPoint
10
0
20
0
30
0
39
0
210
0
220
0
230
1
50
360
0
POINT
5
74
100
AcDbEntity
8
1
62
256
6
ByLayer
370
18
48
1
60
1
100
AcDbPoint
10
18
20
-2.5001
30
0
39
0
210
0
220
0
230
1
50
360
0
POINT
5
76
100
AcDbEntity
8
1
62
256
6
ByLayer
370
18
48
1
60
1
100
AcDbPoint
10
10.5
20
-2.5001
30
0
39
0
210
0
220
0
230
1
50
360
0
SPLINE
5
F8
100
AcDbEntity
8
1
62
256
6
ByLayer
370
18
48
1
60
0
100
AcDbSpline
70
4
71
3
72
8
73
4
40
0
40
0
40
0
40
0
40
1
40
1
40
1
40
1
41
1
10
10.6464815041668
20
-1.83905657320011
30
0
41
1
10
10.5976975243531
20
-1.86168009378935
30
0
41
1
10
10.5488761205147
20
-1.88371975702262
30
0
41
1
10
10.5000000000001
20
-1.90515718627478
30
0
0
SPLINE
5
F9
100
AcDbEntity
8
1
62
256
6
ByLayer
370
18
48
1
60
0
100
AcDbSpline
70
4
71
3
72
8
73
4
40
0
40
0
40
0
40
0
40
1
40
1
40
1
40
1
41
1
10
10.591501301171
20
-1.82525396225421
30
0
41
1
10
10.5610008674473
20
-1.83602006438673
30
0
41
1
10
10.5305004337237
20
-1.8465453439353
30
0
41
1
10
10.5
20
-1.8568233177709
30
0
0
SPLINE
5
FA
100
AcDbEntity
8
1
62
256
6
ByLayer
370
18
48
1
60
0
100
AcDbSpline
70
4
71
3
72
16
73
12
40
0
40
0
40
0
40
0
40
0.117387218678998
40
0.117387218678998
40
0.411591479119331
40
0.411591479119331
40
0.558693609339499
40
0.558693609339499
40
0.705795739559666
40
0.705795739559666
40
1
40
1
40
1
40
1
41
1
10
16.2126337141173
20
2.15822150072165
30
0
41
1
10
16.2728894753889
20
2.18070950860874
30
0
41
1
10
16.3331034962588
20
2.20215505536424
30
0
41
1
10
16.5441655167944
20
2.27363519840671
30
0
41
1
10
16.6949466070697
20
2.31808116202302
30
0
41
1
10
16.9217286626373
20
2.37432057157315
30
0
41
1
10
16.9974891406978
20
2.39133740402244
30
0
41
1
10
17.1486535108866
20
2.42167446909863
30
0
41
1
10
17.2241293092585
20
2.43501509143712
30
0
41
1
10
17.4504254872634
20
2.46951434818354
30
0
41
1
10
17.6011180354296
20
2.48514808416482
30
0
41
1
10
17.7521109927026
20
2.4933145240669
30
0
0
SPLINE
5
FB
100
AcDbEntity
8
1
62
256
6
ByLayer
370
18
48
1
60
0
100
AcDbSpline
70
4
71
3
72
8
73
4
40
0
40
0
40
0
40
0
40
1
40
1
40
1
40
1
41
1
10
17.7984906975495
20
2.4932590810553
30
0
41
1
10
17.8268363452781
20
2.48875024527703
30
0
41
1
10
17.8552148748568
20
2.48446327338507
30
0
41
1
10
17.883625385882
20
2.48039208649351
30
0
0
SPLINE
5
FC
100
AcDbEntity
8
1
62
256
6
ByLayer
370
18
48
1
60
0
100
AcDbSpline
70
4
71
3
72
8
73
4
40
0
40
0
40
0
40
0
40
1
40
1
40
1
40
1
41
1
10
17.7521109927027
20
2.49331452406688
30
0
41
1
10
17.7675702437961
20
2.49323629400467
30
0
41
1
10
17.7830303764017
20
2.4932178363477
30
0
41
1
10
17.7984906973142
20
2.49325908123223
30
0
0
SPLINE
5
FD
100
AcDbEntity
8
1
62
256
6
ByLayer
370
18
48
1
60
0
100
AcDbSpline
70
4
71
3
72
8
73
4
40
0
40
0
40
0
40
0
40
1
40
1
40
1
40
1
41
1
10
17.7521109927024
20
2.49331452406676
30
0
41
1
10
17.7691137426482
20
2.43577781120317
30
0
41
1
10
17.7873498033215
20
2.3786451067337
30
0
41
1
10
17.8070955097627
20
2.32200693250999
30
0
0
SPLINE
5
FE
100
AcDbEntity
8
1
62
256
6
ByLayer
370
18
48
1
60
0
100
AcDbSpline
70
4
71
3
72
26
73
22
40
0
40
0
40
0
40
0
40
0.198324055233517
40
0.198324055233517
40
0.247905069041896
40
0.247905069041896
40
0.297486082850276
40
0.297486082850276
40
0.396648110467035
40
0.495810138083794
40
0.495810138083794
40
0.545391151892178
40
0.545391151892178
40
0.594972165700562
40
0.694134193317317
40
0.694134193317317
40
0.793296220934071
40
0.793296220934071
40
0.991620276167559
40
0.991620276167559
40
1
40
1
40
1
40
1
41
1
10
17.8070955112254
20
2.32200693300632
30
0
41
1
10
17.8215421782464
20
2.28060185730092
30
0
41
1
10
17.8320445896418
20
2.23837744303822
30
0
41
1
10
17.8387097146126
20
2.18425439209298
30
0
41
1
10
17.8397152325043
20
2.17336174899589
30
0
41
1
10
17.8410120183132
20
2.15142809196487
30
0
41
1
10
17.8412985214138
20
2.14040647357365
30
0
41
1
10
17.8410143725266
20
2.1076280917996
30
0
41
1
10
17.8376129104128
20
2.06436029430873
30
0
41
1
10
17.8278088872353
20
2.02201755310955
30
0
41
1
10
17.817880627056
20
1.99063257402887
30
0
41
1
10
17.8141196711981
20
1.98018423536934
30
0
41
1
10
17.8058493866725
20
1.95975414288469
30
0
41
1
10
17.7923177583699
20
1.92975239356045
30
0
41
1
10
17.7755683791785
20
1.90158891811126
30
0
41
1
10
17.7506153345561
20
1.86553470930514
30
0
41
1
10
17.7367263880189
20
1.8481594674619
30
0
41
1
10
17.6925642648486
20
1.79926915640843
30
0
41
1
10
17.6596916911393
20
1.77060161130828
30
0
41
1
10
17.6229116317835
20
1.74360453600201
30
0
41
1
10
17.6214156857672
20
1.74251479489251
30
0
41
1
10
17.6199150618342
20
1.74142980737432
30
0
0
SPLINE
5
FF
100
AcDbEntity
8
1
62
256
6
ByLayer
370
13
48
1
60
0
100
AcDbSpline
70
4
71
3
72
8
73
4
40
0
40
0
40
0
40
0
40
1
40
1
40
1
40
1
41
1
10
17.8070955109913
20
2.32200693303869
30
0
41
1
10
17.3575187904582
20
2.29988024047114
30
0
41
1
10
16.907942069925
20
2.21547744963709
30
0
41
1
10
16.4583653493918
20
2.07581714239916
30
0
0
SPLINE
5
100
100
AcDbEntity
8
1
62
256
6
ByLayer
370
18
48
1
60
0
100
AcDbSpline
70
4
71
3
72
9
73
5
40
0
40
0
40
0
40
0
40
0.220056245339538
40
1
40
1
40
1
40
1
41
1
10
12.9040195062735
20
-2.19235170132003
30
0
41
1
10
12.727679670849
20
-2.20015847819954
30
0
41
1
10
11.9263398354245
20
-2.19795478708514
30
0
41
1
10
11.125
20
-2.01893787583217
30
0
41
1
10
10.4999999999999
20
-1.79253784528225
30
0
0
SPLINE
5
101
100
AcDbEntity
8
1
62
256
6
ByLayer
370
13
48
1
60
0
100
AcDbSpline
70
4
71
3
72
9
73
5
40
0
40
0
40
0
40
0
40
0.177748078829603
40
1
40
1
40
1
40
1
41
1
10
12.7803230393565
20
-1.51351277559962
30
0
41
1
10
12.645215359571
20
-1.48860830523208
30
0
41
1
10
11.8851076797855
20
-1.32624617240114
30
0
41
1
10
11.125
20
-1.04265192786073
30
0
41
1
10
10.5
20
-0.767310808620664
30
0
0
SPLINE
5
102
100
AcDbEntity
8
1
62
256
6
ByLayer
370
18
48
1
60
0
100
AcDbSpline
70
4
71
3
72
10
73
6
40
0
40
0
40
0
40
0
40
0.160888815354458
40
0.440592543569638
40
1
40
1
40
1
40
1
41
1
10
13.8517608291541
20
-2.08512499387939
30
0
41
1
10
13.672007219436
20
-2.10757657009253
30
0
41
1
10
13.179753609718
20
-2.14650321626487
30
0
41
1
10
12.0625
20
-2.09239537088706
30
0
41
1
10
11.125
20
-1.82428702558977
30
0
41
1
10
10.5
20
-1.56205647665786
30
0
0
SPLINE
5
103
100
AcDbEntity
8
1
62
256
6
ByLayer
370
18
48
1
60
0
100
AcDbSpline
70
4
71
3
72
14
73
10
40
0
40
0
40
0
40
0
40
0.25
40
0.25
40
0.5
40
0.5
40
0.75
40
0.75
40
1
40
1
40
1
40
1
41
1
10
16.8976887603611
20
0.33499844311342
30
0
41
1
10
16.8985412155012
20
0.339524622223109
30
0
41
1
10
16.8994063372541
20
0.344385062310607
30
0
41
1
10
16.9012200136684
20
0.354764879191208
30
0
41
1
10
16.9021697482111
20
0.360292602524766
30
0
41
1
10
16.9041539334521
20
0.371823442720739
30
0
41
1
10
16.905197252839
20
0.377878094471214
30
0
41
1
10
16.9073582306939
20
0.39035035818722
30
0
41
1
10
16.9084755781896
20
0.396766708149386
30
0
41
1
10
16.9096235716966
20
0.403368054737996
30
0
0
SPLINE
5
104
100
AcDbEntity
8
1
62
256
6
ByLayer
370
18
48
1
60
0
100
AcDbSpline
70
4
71
3
72
14
73
10
40
0
40
0
40
0
40
0
40
0.54546001123144
40
0.54546001123144
40
0.681825014039281
40
0.681825014039281
40
0.818190016847122
40
0.818190016847122
40
1
40
1
40
1
40
1
41
1
10
17.649195669323
20
-0.105203446186692
30
0
41
1
10
17.6231135805516
20
-0.117553677330164
30
0
41
1
10
17.5997231164628
20
-0.13296536319254
30
0
41
1
10
17.5741012594611
20
-0.155002141489433
30
0
41
1
10
17.5691586249612
20
-0.159551347718036
30
0
41
1
10
17.5596493280101
20
-0.168921555503658
30
0
41
1
10
17.555091863712
20
-0.173736284846967
30
0
41
1
10
17.5450589199496
20
-0.185101987240387
30
0
41
1
10
17.539749944924
20
-0.191725510259914
30
0
41
1
10
17.5348649339097
20
-0.198469102121408
30
0
0
SPLINE
5
105
100
AcDbEntity
8
1
62
256
6
ByLayer
370
18
48
1
60
0
100
AcDbSpline
70
4
71
3
72
35
73
31
40
0
40
0
40
0
40
0
40
0.0625000000000038
40
0.0625000000000038
40
0.125000000000007
40
0.125000000000007
40
0.187500000000011
40
0.187500000000011
40
0.218750000000011
40
0.218750000000011
40
0.25000000000001
40
0.25000000000001
40
0.375000000000008
40
0.375000000000008
40
0.437500000000008
40
0.437500000000008
40
0.500000000000007
40
0.500000000000007
40
0.562500000000006
40
0.562500000000006
40
0.625000000000005
40
0.687500000000004
40
0.687500000000004
40
0.750000000000003
40
0.750000000000003
40
0.875000000000002
40
0.875000000000002
40
0.937500000000001
40
0.937500000000001
40
1
40
1
40
1
40
1
41
1
10
17.6345240712246
20
0.220230232135378
30
0
41
1
10
17.6250760513827
20
0.216475300531357
30
0
41
1
10
17.6170761124656
20
0.21147367504895
30
0
41
1
10
17.6035671890805
20
0.199690445026817
30
0
41
1
10
17.5980618634361
20
0.192849071300287
30
0
41
1
10
17.5896422933447
20
0.178513611709178
30
0
41
1
10
17.5866380619352
20
0.170954050843989
30
0
41
1
10
17.5836453609277
20
0.159303944080733
30
0
41
1
10
17.5829010642041
20
0.155352710160514
30
0
41
1
10
17.581903619104
20
0.147464421054792
30
0
41
1
10
17.5816480568173
20
0.143528439832892
30
0
41
1
10
17.5814754265749
20
0.123949374729563
30
0
41
1
10
17.5847791443521
20
0.108626581148258
30
0
41
1
10
17.5941736231335
20
0.0869845950612671
30
0
41
1
10
17.5980261945722
20
0.0800858967967883
30
0
41
1
10
17.6070498329063
20
0.0670672722098402
30
0
41
1
10
17.6122284781803
20
0.0609315309172018
30
0
41
1
10
17.623935065062
20
0.0494406503753453
30
0
41
1
10
17.6304933207524
20
0.0440658526460425
30
0
41
1
10
17.6449238106503
20
0.0341975945977708
30
0
41
1
10
17.6605120461678
20
0.0253032258898997
30
0
41
1
10
17.6784355536269
20
0.0181211231825671
30
0
41
1
10
17.6975806409702
20
0.011643170635665
30
0
41
1
10
17.7078048089659
20
0.0087468576308254
30
0
41
1
10
17.7401724748609
20
0.0008763464872175
30
0
41
1
10
17.7634731162803
20
-0.0031634174160047
30
0
41
1
10
17.8008847199871
20
-0.0092420484930926
30
0
41
1
10
17.8138207997788
20
-0.011281875126798
30
0
41
1
10
17.8402355812436
20
-0.0156708806408119
30
0
41
1
10
17.8536498873192
20
-0.018009989463053
30
0
41
1
10
17.867234203428
20
-0.0206607258318741
30
0
0
SPLINE
5
106
100
AcDbEntity
8
1
62
256
6
ByLayer
370
18
48
1
60
0
100
AcDbSpline
70
4
71
3
72
18
73
14
40
0
40
0
40
0
40
0
40
0.250000000000004
40
0.250000000000004
40
0.375000000000005
40
0.375000000000005
40
0.500000000000007
40
0.500000000000007
40
0.625000000000008
40
0.625000000000008
40
0.75000000000001
40
0.75000000000001
40
1
40
1
40
1
40
1
41
1
10
17.6238582109004
20
1.72653879221212
30
0
41
1
10
17.6337155651784
20
1.72336278089472
30
0
41
1
10
17.6449343967906
20
1.71529051840196
30
0
41
1
10
17.6634596728946
20
1.69707916190691
30
0
41
1
10
17.669921143881
20
1.68997881324995
30
0
41
1
10
17.6833923913171
20
1.67380626055873
30
0
41
1
10
17.6904121136832
20
1.66471535725162
30
0
41
1
10
17.7047761134049
20
1.6449079110395
30
0
41
1
10
17.7121442853608
20
1.63416453773243
30
0
41
1
10
17.7272339970515
20
1.61108407576404
30
0
41
1
10
17.7349738739359
20
1.59871555229338
30
0
41
1
10
17.758543133011
20
1.55956215960143
30
0
41
1
10
17.7747211686405
20
1.53075514045176
30
0
41
1
10
17.7913376211239
20
1.49939906552868
30
0
0
SPLINE
5
107
100
AcDbEntity
8
1
62
256
6
ByLayer
370
18
48
1
60
0
100
AcDbSpline
70
4
71
3
72
8
73
4
40
0
40
0
40
0
40
0
40
1
40
1
40
1
40
1
41
1
10
17.6238582117768
20
1.72653879339919
30
0
41
1
10
17.553584275779
20
1.74820852170345
30
0
41
1
10
17.4833103397812
20
1.76884576919747
30
0
41
1
10
17.4130364037834
20
1.78843855705637
30
0
0
SPLINE
5
108
100
AcDbEntity
8
1
62
256
6
ByLayer
370
13
48
1
60
0
100
AcDbSpline
70
4
71
3
72
8
73
4
40
0
40
0
40
0
40
0
40
1
40
1
40
1
40
1
41
1
10
17.7913376225194
20
1.49939906615359
30
0
41
1
10
17.7632736382183
20
1.51185459691808
30
0
41
1
10
17.7352096539173
20
1.52416550369412
30
0
41
1
10
17.7071456696162
20
1.53632994574127
30
0
0
SPLINE
5
109
100
AcDbEntity
8
1
62
256
6
ByLayer
370
18
48
1
60
0
100
AcDbSpline
70
4
71
3
72
10
73
6
40
0
40
0
40
0
40
0
40
0.137794640232396
40
0.425196426821597
40
1
40
1
40
1
40
1
41
1
10
13.761983897616
20
-2.11000515363207
30
0
41
1
10
13.612155931744
20
-2.14332090476029
30
0
41
1
10
13.149827965872
20
-2.22844914946282
30
0
41
1
10
12.0625000000001
20
-2.29614768716991
30
0
41
1
10
11.1250000000001
20
-2.10595648792716
30
0
41
1
10
10.5000000000001
20
-1.88771446886133
30
0
0
SPLINE
5
10A
100
AcDbEntity
8
1
62
256
6
ByLayer
370
18
48
1
60
0
100
AcDbSpline
70
4
71
3
72
29
73
25
40
0
40
0
40
0
40
0
40
0.0995047571414595
40
0.0995047571414595
40
0.228146934692687
40
0.228146934692687
40
0.292468023468301
40
0.324628567856105
40
0.324628567856105
40
0.35678911224391
40
0.35678911224391
40
0.48543128979513
40
0.48543128979513
40
0.54975237857074
40
0.54975237857074
40
0.614073467346349
40
0.614073467346349
40
0.742715644897565
40
0.742715644897565
40
0.807036733673173
40
0.807036733673173
40
0.871357822448781
40
0.871357822448781
40
1
40
1
40
1
40
1
41
1
10
14.0350546211978
20
-2.14898570928159
30
0
41
1
10
13.9178853998251
20
-2.18617629422218
30
0
41
1
10
13.8007820825293
20
-2.21975271579714
30
0
41
1
10
13.532151467349
20
-2.28829867290142
30
0
41
1
10
13.3805818102461
20
-2.32081454709294
30
0
41
1
10
13.1525783107262
20
-2.35993992104915
30
0
41
1
10
13.0384107518303
20
-2.37708354279926
30
0
41
1
10
12.9238690632315
20
-2.39047764394397
30
0
41
1
10
12.8474093441665
20
-2.39855916596872
30
0
41
1
10
12.8090902726272
20
-2.40217886432987
30
0
41
1
10
12.6179406772617
20
-2.41806496116084
30
0
41
1
10
12.4661533764162
20
-2.42373439696468
30
0
41
1
10
12.2394060648298
20
-2.42186153764493
30
0
41
1
10
12.1639844621193
20
-2.4194940730215
30
0
41
1
10
12.0132928552611
20
-2.41147219111548
30
0
41
1
10
11.9380169819734
20
-2.40584021598406
30
0
41
1
10
11.7122788468139
20
-2.38400547493248
30
0
41
1
10
11.5619136344417
20
-2.3628531064054
30
0
41
1
10
11.335974672934
20
-2.3209311983224
30
0
41
1
10
11.2605918523674
20
-2.3052643866653
30
0
41
1
10
11.1095106530308
20
-2.2709018120934
30
0
41
1
10
11.0338181296718
20
-2.25218750922218
30
0
41
1
10
10.8061709591001
20
-2.19130955128793
30
0
41
1
10
10.6536456653028
20
-2.14440579216492
30
0
41
1
10
10.5000000000001
20
-2.09101813945446
30
0
0
SPLINE
5
10B
100
AcDbEntity
8
1
62
256
6
ByLayer
370
13
48
1
60
0
100
AcDbSpline
70
4
71
3
72
11
73
7
40
0
40
0
40
0
40
0
40
0.0580198456257023
40
0.3900617195675
40
0.722103593509298
40
1
40
1
40
1
40
1
41
1
10
14.0861845009837
20
1.26341206627589
30
0
41
1
10
14.1407896673225
20
1.25273347433887
30
0
41
1
10
14.5078948336613
20
1.17808775742282
30
0
41
1
10
15.1875000000001
20
1.00522876712788
30
0
41
1
10
16.0740411905655
20
0.716013285305763
30
0
41
1
10
16.6480823811311
20
0.503461338082531
30
0
41
1
10
16.9096235716966
20
0.403368054737996
30
0
0
SPLINE
5
10C
100
AcDbEntity
8
1
62
256
6
ByLayer
370
18
48
1
60
0
100
AcDbSpline
70
4
71
3
72
28
73
24
40
0
40
0
40
0
40
0
40
0.125000000000013
40
0.125000000000013
40
0.187500000000012
40
0.187500000000012
40
0.250000000000011
40
0.250000000000011
40
0.374999999999987
40
0.374999999999987
40
0.437499999999975
40
0.437499999999975
40
0.499999999999963
40
0.499999999999963
40
0.624999999999972
40
0.624999999999972
40
0.687499999999977
40
0.687499999999977
40
0.749999999999982
40
0.749999999999982
40
0.874999999999991
40
0.874999999999991
40
1
40
1
40
1
40
1
41
1
10
16.9096235716966
20
0.403368054737996
30
0
41
1
10
16.9126202514745
20
0.420599640374093
30
0
41
1
10
16.91702876949
20
0.437522156257273
30
0
41
1
10
16.9255979903501
20
0.462514488741959
30
0
41
1
10
16.9287829459177
20
0.470779241118379
30
0
41
1
10
16.935811768791
20
0.487179937394586
30
0
41
1
10
16.9396741823609
20
0.495350881565457
30
0
41
1
10
16.9521458755165
20
0.519409187076548
30
0
41
1
10
16.9615427041072
20
0.534706510490366
30
0
41
1
10
16.9772243911112
20
0.556565620800512
30
0
41
1
10
16.9827181348863
20
0.563669401959459
30
0
41
1
10
16.9942586376251
20
0.577498106844217
30
0
41
1
10
17.0003370306772
20
0.584253123283418
30
0
41
1
10
17.0191205768732
20
0.603574134164006
30
0
41
1
10
17.0324088909839
20
0.615277023514295
30
0
41
1
10
17.0535867777212
20
0.631006105776578
30
0
41
1
10
17.0608552769282
20
0.635942759737674
30
0
41
1
10
17.0758492407059
20
0.645164779874051
30
0
41
1
10
17.0835900582364
20
0.649451859472578
30
0
41
1
10
17.107031730715
20
0.661007240749029
30
0
41
1
10
17.1231104933371
20
0.667089080387996
30
0
41
1
10
17.156364215904
20
0.675834541889429
30
0
41
1
10
17.1736782578302
20
0.678487468582944
30
0
41
1
10
17.1911612180551
20
0.679179317918084
30
0
0
SPLINE
5
10D
100
AcDbEntity
8
1
62
256
6
ByLayer
370
18
48
1
60
0
100
AcDbSpline
70
4
71
3
72
15
73
11
40
0
40
0
40
0
40
0
40
0.250000000000003
40
0.250000000000003
40
0.500000000000007
40
0.500000000000007
40
0.625000000000006
40
0.625000000000006
40
0.750000000000006
40
1
40
1
40
1
40
1
41
1
10
17.6216912304035
20
-0.255478635568778
30
0
41
1
10
17.6300749243395
20
-0.317051296030286
30
0
41
1
10
17.6394065616085
20
-0.379894112460988
30
0
41
1
10
17.6598553145903
20
-0.507075994676683
30
0
41
1
10
17.6709864940955
20
-0.571530499379321
30
0
41
1
10
17.6890786981133
20
-0.669541152167625
30
0
41
1
10
17.6953441105083
20
-0.702440515601495
30
0
41
1
10
17.7082942957092
20
-0.768423094890068
30
0
41
1
10
17.7283663264411
20
-0.867769595991689
30
0
41
1
10
17.7503805250881
20
-0.968235093040619
30
0
41
1
10
17.7659317251041
20
-1.0357162687082
30
0
0
SPLINE
5
10E
100
AcDbEntity
8
1
62
256
6
ByLayer
370
18
48
1
60
0
100
AcDbSpline
70
4
71
3
72
12
73
8
40
0
40
0
40
0
40
0
40
0.500000000000012
40
0.500000000000012
40
0.750000000000006
40
0.750000000000006
40
1
40
1
40
1
40
1
41
1
10
17.0039939333403
20
0.15606324738269
30
0
41
1
10
17.1060610156929
20
0.0897615006701926
30
0
41
1
10
17.2087228175036
20
0.0221620073956217
30
0
41
1
10
17.3635273369081
20
-0.0810087103152171
30
0
41
1
10
17.4153049538888
20
-0.115723163237448
30
0
41
1
10
17.5186010644159
20
-0.185375810845812
30
0
41
1
10
17.570179731477
20
-0.220353811314169
30
0
41
1
10
17.6216912304035
20
-0.255478635568778
30
0
0
SPLINE
5
10F
100
AcDbEntity
8
1
62
256
6
ByLayer
370
18
48
1
60
0
100
AcDbSpline
70
4
71
3
72
21
73
17
40
0
40
0
40
0
40
0
40
0.250000000000041
40
0.250000000000041
40
0.312500000000038
40
0.312500000000038
40
0.375000000000035
40
0.500000000000028
40
0.500000000000028
40
0.625000000000021
40
0.625000000000021
40
0.750000000000014
40
0.750000000000014
40
0.875000000000007
40
0.875000000000007
40
1
40
1
40
1
40
1
41
1
10
17.0039939333403
20
0.15606324738269
30
0
41
1
10
16.985480998306
20
0.168089063162398
30
0
41
1
10
16.9686174142793
20
0.181231549600454
30
0
41
1
10
16.9499975575911
20
0.199269359416831
30
0
41
1
10
16.9463848326374
20
0.202974355761342
30
0
41
1
10
16.9395288117295
20
0.210443783842777
30
0
41
1
10
16.9297744735501
20
0.221756354239744
30
0
41
1
10
16.9216067969374
20
0.233389132662722
30
0
41
1
10
16.9121689945585
20
0.249188976570906
30
0
41
1
10
16.9081541166355
20
0.257308015857205
30
0
41
1
10
16.901848579448
20
0.273336959068587
30
0
41
1
10
16.8995247729198
20
0.28127446795375
30
0
41
1
10
16.896426005563
20
0.297013126382808
30
0
41
1
10
16.8956531721069
20
0.30485637975508
30
0
41
1
10
16.8956008680837
20
0.320196933961029
30
0
41
1
10
16.8963106789574
20
0.327679068612895
30
0
41
1
10
16.8976887603607
20
0.334998443113591
30
0
0
SPLINE
5
110
100
AcDbEntity
8
1
62
256
6
ByLayer
370
13
48
1
60
0
100
AcDbSpline
70
4
71
3
72
10
73
6
40
0
40
0
40
0
40
0
40
0.307343100755795
40
0.680241183062455
40
1
40
1
40
1
40
1
41
1
10
16.8976887603611
20
0.33499844311342
30
0
41
1
10
16.6401258402407
20
0.436109364674536
30
0
41
1
10
16.0700629201204
20
0.654275506664703
30
0
41
1
10
15.2320323299201
20
0.943093694961931
30
0
41
1
10
14.6515646598403
20
1.10719526335697
30
0
41
1
10
14.3835969897603
20
1.17365423332504
30
0
0
SPLINE
5
111
100
AcDbEntity
8
1
62
256
6
ByLayer
370
18
48
1
60
0
100
AcDbSpline
70
4
71
3
72
8
73
4
40
0
40
0
40
0
40
0
40
1
40
1
40
1
40
1
41
1
10
17.765931727083
20
-1.03571626893884
30
0
41
1
10
17.7730262037589
20
-1.05388921694856
30
0
41
1
10
17.7801997136294
20
-1.07177764199398
30
0
41
1
10
17.7874382469569
20
-1.08935860986952
30
0
0
SPLINE
5
112
100
AcDbEntity
8
1
62
256
6
ByLayer
370
18
48
1
60
0
100
AcDbSpline
70
4
71
3
72
13
73
9
40
0
40
0
40
0
40
0
40
0.151306186577536
40
0.352959800340878
40
0.554613414104221
40
0.756267027867563
40
0.957920641630905
40
1
40
1
40
1
40
1
41
1
10
17.7659317276501
20
-1.03571626821756
30
0
41
1
10
17.5314544851001
20
-0.903820577738884
30
0
41
1
10
16.98447724255
20
-0.580521546683826
30
0
41
1
10
16.125
20
-0.0333370317104027
30
0
41
1
10
15.1875
20
0.56761446473655
30
0
41
1
10
14.25
20
1.12215099619667
30
0
41
1
10
13.5597901619766
20
1.47026175114456
30
0
41
1
10
13.1820803239532
20
1.63296445502723
30
0
41
1
10
13.1168704859298
20
1.66017753813094
30
0
0
SPLINE
5
113
100
AcDbEntity
8
1
62
256
6
ByLayer
370
18
48
1
60
0
100
AcDbSpline
70
4
71
3
72
14
73
10
40
0
40
0
40
0
40
0
40
0.0623542535729436
40
0.0623542535729436
40
0.218628544644118
40
0.218628544644118
40
0.374902835715292
40
0.374902835715292
40
1
40
1
40
1
40
1
41
1
10
17.6346180689962
20
-1.82707042671967
30
0
41
1
10
17.6366403323979
20
-1.83477012815098
30
0
41
1
10
17.6386950899978
20
-1.84239062902006
30
0
41
1
10
17.6460139314343
20
-1.86883108808365
30
0
41
1
10
17.651450432179
20
-1.88723080153113
30
0
41
1
10
17.6627392297626
20
-1.92301677721377
30
0
41
1
10
17.6685981149409
20
-1.94042070578638
30
0
41
1
10
17.6988552710681
20
-2.02460930930695
30
0
41
1
10
17.7261074744237
20
-2.08291485044782
30
0
41
1
10
17.7564571080681
20
-2.13202376858797
30
0
0
SPLINE
5
114
100
AcDbEntity
8
1
62
256
6
ByLayer
370
18
48
1
60
0
100
AcDbSpline
70
4
71
3
72
10
73
6
40
0
40
0
40
0
40
0
40
0.815141200667582
40
0.815141200667582
40
1
40
1
40
1
40
1
41
1
10
16.7870504622395
20
-1.49453604063703
30
0
41
1
10
16.9252192306228
20
-1.54935217280874
30
0
41
1
10
17.0630032520565
20
-1.59571606387504
30
0
41
1
10
17.2316284600924
20
-1.64368284252666
30
0
41
1
10
17.2627832443703
20
-1.65217494175127
30
0
41
1
10
17.2939211396726
20
-1.66029601868809
30
0
0
SPLINE
5
115
100
AcDbEntity
8
1
62
256
6
ByLayer
370
18
48
1
60
0
100
AcDbSpline
70
4
71
3
72
25
73
21
40
0
40
0
40
0
40
0
40
0.157585964936299
40
0.157585964936299
40
0.236378947404448
40
0.236378947404448
40
0.315171929872597
40
0.315171929872597
40
0.472757894808894
40
0.472757894808894
40
0.551550877277043
40
0.551550877277043
40
0.630343859745193
40
0.709136842213342
40
0.709136842213342
40
0.787929824681491
40
0.787929824681491
40
0.945515789617789
40
0.945515789617789
40
1
40
1
40
1
40
1
41
1
10
16.7870504622395
20
-1.49453604063703
30
0
41
1
10
16.7739831596265
20
-1.48935180837134
30
0
41
1
10
16.7617151015597
20
-1.4831340691878
30
0
41
1
10
16.7446561493515
20
-1.47202986542092
30
0
41
1
10
16.7391947743178
20
-1.46803080816676
30
0
41
1
10
16.7287631227541
20
-1.45937727762995
30
0
41
1
10
16.7238129846066
20
-1.45473149116108
30
0
41
1
10
16.7100937760408
20
-1.44009695991554
30
0
41
1
10
16.7023263641535
20
-1.42931809677248
30
0
41
1
10
16.6928540362058
20
-1.41152535819865
30
0
41
1
10
16.6900505972241
20
-1.40528287439804
30
0
41
1
10
16.6853172586929
20
-1.39255200353273
30
0
41
1
10
16.6814207953262
20
-1.37952974506996
30
0
41
1
10
16.6791141829988
20
-1.36595717059973
30
0
41
1
10
16.6775761694332
20
-1.35212114115083
30
0
41
1
10
16.6771937864345
20
-1.34503906552058
30
0
41
1
10
16.6771673039739
20
-1.32380207294719
30
0
41
1
10
16.6786108729846
20
-1.30957281361339
30
0
41
1
10
16.6822394304173
20
-1.2903592910543
30
0
41
1
10
16.6833260062364
20
-1.28540600744097
30
0
41
1
10
16.6845520540779
20
-1.28046992968729
30
0
0
SPLINE
5
116
100
AcDbEntity
8
1
62
256
6
ByLayer
370
13
48
1
60
0
100
AcDbSpline
70
4
71
3
72
14
73
10
40
0
40
0
40
0
40
0
40
0.0561256832027552
40
0.174109972802411
40
0.292094262402066
40
0.410078552001722
40
0.528062841601378
40
0.685375227734252
40
1
40
1
40
1
40
1
41
1
10
16.4594798797861
20
-1.14830431423428
30
0
41
1
10
16.347986586524
20
-1.11889816356504
30
0
41
1
10
16.002118293262
20
-1.02211064385631
30
0
41
1
10
15.421875
20
-0.832533359667707
30
0
41
1
10
14.71875
20
-0.568455442676736
30
0
41
1
10
14.015625
20
-0.281434528024334
30
0
41
1
10
13.234375
20
0.0525662553843063
30
0
41
1
10
12.0625
20
0.550611797179215
30
0
41
1
10
11.125
20
0.9071571452466
30
0
41
1
10
10.5
20
1.08879449369513
30
0
0
SPLINE
5
117
100
AcDbEntity
8
1
62
256
6
ByLayer
370
18
48
1
60
0
100
AcDbSpline
70
4
71
3
72
8
73
4
40
0
40
0
40
0
40
0
40
1
40
1
40
1
40
1
41
1
10
17.7564571102929
20
-2.13202376661897
30
0
41
1
10
17.7655186873428
20
-2.12847890600116
30
0
41
1
10
17.7747140269032
20
-2.12389081936689
30
0
41
1
10
17.784014275069
20
-2.11830711688765
30
0
0
SPLINE
5
118
100
AcDbEntity
8
1
62
256
6
ByLayer
370
18
48
1
60
0
100
AcDbSpline
70
4
71
3
72
14
73
10
40
0
40
0
40
0
40
0
40
0.224828326829054
40
0.321724785975422
40
0.41862124512179
40
0.515517704268159
40
0.612414163414527
40
0.741609442276351
40
1
40
1
40
1
40
1
41
1
10
17.7564571109651
20
-2.1320237670005
30
0
41
1
10
17.2126380739767
20
-2.21794503370017
30
0
41
1
10
16.4344440369883
20
-2.2080707484441
30
0
41
1
10
15.421875
20
-1.95812559539235
30
0
41
1
10
14.71875
20
-1.69535712063822
30
0
41
1
10
14.015625
20
-1.35184917146415
30
0
41
1
10
13.234375
20
-0.900364898697831
30
0
41
1
10
12.0625
20
-0.139853587994651
30
0
41
1
10
11.125
20
0.512758003698508
30
0
41
1
10
10.5
20
0.894814008886271
30
0
0
SPLINE
5
119
100
AcDbEntity
8
1
62
256
6
ByLayer
370
18
48
1
60
0
100
AcDbSpline
70
4
71
3
72
8
73
4
40
0
40
0
40
0
40
0
40
1
40
1
40
1
40
1
41
1
10
17.7914009817506
20
1.48994756412282
30
0
41
1
10
17.8123268516263
20
1.47611176856208
30
0
41
1
10
17.8332327614732
20
1.46259142006318
30
0
41
1
10
17.8541179553312
20
1.44939846577324
30
0
0
SPLINE
5
11A
100
AcDbEntity
8
1
62
256
6
ByLayer
370
18
48
1
60
0
100
AcDbSpline
70
4
71
3
72
16
73
12
40
0
40
0
40
0
40
0
40
0.250000000000001
40
0.250000000000001
40
0.500000000000002
40
0.500000000000002
40
0.750000000000004
40
0.750000000000004
40
0.875000000000002
40
0.875000000000002
40
1
40
1
40
1
40
1
41
1
10
17.787438245526
20
-1.08935861046456
30
0
41
1
10
17.791415946226
20
-1.09902234876245
30
0
41
1
10
17.795292972602
20
-1.10901054988835
30
0
41
1
10
17.8028247661598
20
-1.12970325316598
30
0
41
1
10
17.8064408564197
20
-1.14030690655244
30
0
41
1
10
17.8132235426552
20
-1.1617756000656
30
0
41
1
10
17.8164086812245
20
-1.17268330042978
30
0
41
1
10
17.820781379586
20
-1.18938533743676
30
0
41
1
10
17.822164640346
20
-1.19499282905068
30
0
41
1
10
17.8247017730812
20
-1.2060555890227
30
0
41
1
10
17.825864244319
20
-1.21154208746054
30
0
41
1
10
17.8269023075108
20
-1.21697595691714
30
0
0
SPLINE
5
11B
100
AcDbEntity
8
1
62
256
6
ByLayer
370
13
48
1
60
0
100
AcDbSpline
70
4
71
3
72
12
73
8
40
0
40
0
40
0
40
0
40
0.162894764427824
40
0.373552489728285
40
0.584210215028746
40
0.794867940329207
40
1
40
1
40
1
40
1
41
1
10
17.7874382448864
20
-1.08935861126238
30
0
41
1
10
17.5457921632576
20
-0.954308934552699
30
0
41
1
10
16.9916460816288
20
-0.630180254812757
30
0
41
1
10
16.125
20
-0.0832349411955704
30
0
41
1
10
15.1875
20
0.52187209671439
30
0
41
1
10
14.2581970433641
20
1.08084071363649
30
0
41
1
10
13.6413940867282
20
1.39627222072494
30
0
41
1
10
13.3370911300923
20
1.53491061488171
30
0
0
SPLINE
5
11C
100
AcDbEntity
8
1
62
256
6
ByLayer
370
18
48
1
60
0
100
AcDbSpline
70
4
71
3
72
37
73
33
40
0
40
0
40
0
40
0
40
0.124999999999998
40
0.124999999999998
40
0.156249999999998
40
0.156249999999998
40
0.187499999999997
40
0.249999999999996
40
0.249999999999996
40
0.281249999999993
40
0.281249999999993
40
0.312499999999991
40
0.312499999999991
40
0.374999999999986
40
0.374999999999986
40
0.406249999999984
40
0.406249999999984
40
0.437499999999982
40
0.437499999999982
40
0.499999999999989
40
0.499999999999989
40
0.562499999999997
40
0.562499999999997
40
0.625000000000004
40
0.625000000000004
40
0.750000000000003
40
0.750000000000003
40
0.875000000000001
40
0.875000000000001
40
0.937500000000001
40
0.937500000000001
40
1
40
1
40
1
40
1
41
1
10
17.789981382256
20
0.948867680363634
30
0
41
1
10
17.806342707369
20
0.92911933000326
30
0
41
1
10
17.8181356401415
20
0.909282882987583
30
0
41
1
10
17.824977537108
20
0.88433499168508
30
0
41
1
10
17.8259441987989
20
0.879317447573811
30
0
41
1
10
17.826977532085
20
0.86941300356338
30
0
41
1
10
17.8271942399897
20
0.854725454922686
30
0
41
1
10
17.8232860561369
20
0.840561115640213
30
0
41
1
10
17.8164043392015
20
0.8267739451247
30
0
41
1
10
17.8136142053979
20
0.822241164172112
30
0
41
1
10
17.8069959998619
20
0.813307256349134
30
0
41
1
10
17.8031744424069
20
0.808924173983655
30
0
41
1
10
17.7904155065991
20
0.796249630891879
30
0
41
1
10
17.7801218885871
20
0.788340155975362
30
0
41
1
10
17.7622411316532
20
0.777213396807184
30
0
41
1
10
17.7558736110292
20
0.77362755114973
30
0
41
1
10
17.7423586459342
20
0.766691548188845
30
0
41
1
10
17.7352171871958
20
0.763347322146927
30
0
41
1
10
17.7130501722142
20
0.753797295810813
30
0
41
1
10
17.6971768898738
20
0.748013282853094
30
0
41
1
10
17.6636461845169
20
0.737394397588872
30
0
41
1
10
17.6459870189823
20
0.73256045228041
30
0
41
1
10
17.6091747219032
20
0.723687332994416
30
0
41
1
10
17.5899968615948
20
0.719648726111018
30
0
41
1
10
17.5315678943768
20
0.708713874656439
30
0
41
1
10
17.4910993958639
20
0.702891847566633
30
0
41
1
10
17.4081105413175
20
0.693234705486589
30
0
41
1
10
17.365578655012
20
0.689410755811963
30
0
41
1
10
17.3006346715573
20
0.684784707215385
30
0
41
1
10
17.2787781750918
20
0.683429762031494
30
0
41
1
10
17.2350440742729
20
0.681063239585257
30
0
41
1
10
17.2131250826271
20
0.680048489094247
30
0
41
1
10
17.1911612180551
20
0.679179317918056
30
0
0
SPLINE
5
11D
100
AcDbEntity
8
1
62
256
6
ByLayer
370
18
48
1
60
0
100
AcDbSpline
70
4
71
3
72
16
73
12
40
0
40
0
40
0
40
0
40
0.250000000000001
40
0.250000000000001
40
0.500000000000001
40
0.500000000000001
40
0.750000000000002
40
0.750000000000002
40
0.875000000000001
40
0.875000000000001
40
1
40
1
40
1
40
1
41
1
10
17.7840142783774
20
-2.11830711648446
30
0
41
1
10
17.7880346626484
20
-2.11592747925155
30
0
41
1
10
17.7919545860959
20
-2.11430899374537
30
0
41
1
10
17.7995718774409
20
-2.11275834228951
30
0
41
1
10
17.8032371258675
20
-2.11284046764641
30
0
41
1
10
17.8101111435174
20
-2.11496183663431
30
0
41
1
10
17.8133408563892
20
-2.11698590345134
30
0
41
1
10
17.817775859408
20
-2.12192541240324
30
0
41
1
10
17.8191838286556
20
-2.12389952640515
30
0
41
1
10
17.8217644785754
20
-2.12850200934747
30
0
41
1
10
17.8229465887174
20
-2.13113808974558
30
0
41
1
10
17.8240009696232
20
-2.13416938803957
30
0
0
SPLINE
5
11E
100
AcDbEntity
8
1
62
256
6
ByLayer
370
18
48
1
60
0
100
AcDbSpline
70
4
71
3
72
14
73
10
40
0
40
0
40
0
40
0
40
0.151152460632269
40
0.257258403053236
40
0.363364345474202
40
0.469470287895168
40
0.575576230316135
40
0.717050820210757
40
1
40
1
40
1
40
1
41
1
10
17.1266316848722
20
-2.19277507174462
30
0
41
1
10
16.7927544565814
20
-2.20805568446073
30
0
41
1
10
16.2245022282906
20
-2.17567583817385
30
0
41
1
10
15.421875
20
-1.99031502080413
30
0
41
1
10
14.7187499999999
20
-1.73509877606986
30
0
41
1
10
14.0156249999999
20
-1.40093347731516
30
0
41
1
10
13.234375
20
-0.956576493960882
30
0
41
1
10
12.0624999999999
20
-0.199160262957349
30
0
41
1
10
11.125
20
0.45587187812481
30
0
41
1
10
10.5
20
0.843970862428989
30
0
0
SPLINE
5
11F
100
AcDbEntity
8
1
62
256
6
ByLayer
370
13
48
1
60
0
100
AcDbSpline
70
4
71
3
72
14
73
10
40
0
40
0
40
0
40
0
40
0.326097420857581
40
0.489146131286371
40
0.611432664107964
40
0.733719196929557
40
0.85600572975115
40
0.978292262572742
40
1
40
1
40
1
40
1
41
1
10
10.5
20
1.12445381170636
30
0
41
1
10
11.125
20
0.959383718781027
30
0
41
1
10
12.0625
20
0.622713340795911
30
0
41
1
10
13.234375
20
0.135959371561739
30
0
41
1
10
14.015625
20
-0.195643887471022
30
0
41
1
10
14.71875
20
-0.48462077541069
30
0
41
1
10
15.421875
20
-0.754032079989088
30
0
41
1
10
15.9322301615997
20
-0.927065125328965
30
0
41
1
10
16.2082103231994
20
-1.01090672603422
30
0
41
1
10
16.2498154847992
20
-1.02331884589799
30
0
0
SPLINE
5
120
100
AcDbEntity
8
1
62
256
6
ByLayer
370
13
48
1
60
0
100
AcDbSpline
70
4
71
3
72
8
73
4
40
0
40
0
40
0
40
0
40
1
40
1
40
1
40
1
41
1
10
10.5
20
-0.451457521817105
30
0
41
1
10
11.0070706062778
20
-0.665952854522402
30
0
41
1
10
11.5141412125556
20
-0.863202577226218
30
0
41
1
10
12.0212118188334
20
-1.02328508950987
30
0
0
SPLINE
5
121
100
AcDbEntity
8
1
62
256
6
ByLayer
370
18
48
1
60
0
100
AcDbSpline
70
4
71
3
72
8
73
4
40
0
40
0
40
0
40
0
40
1
40
1
40
1
40
1
41
1
10
17.8095920652486
20
1.35017331181862
30
0
41
1
10
17.8319275492518
20
1.23738628923161
30
0
41
1
10
17.8568369936509
20
1.12331652494069
30
0
41
1
10
17.8852666708513
20
1.0077598875441
30
0
0
SPLINE
5
122
100
AcDbEntity
8
1
62
256
6
ByLayer
370
18
48
1
60
0
100
AcDbSpline
70
4
71
3
72
8
73
4
40
0
40
0
40
0
40
0
40
1
40
1
40
1
40
1
41
1
10
17.7912273801434
20
1.49133032769123
30
0
41
1
10
17.7976291578678
20
1.44447514222196
30
0
41
1
10
17.803738958273
20
1.3974145286364
30
0
41
1
10
17.8095920652476
20
1.35017331181854
30
0
0
SPLINE
5
123
100
AcDbEntity
8
1
62
256
6
ByLayer
370
18
48
1
60
0
100
AcDbSpline
70
4
71
3
72
26
73
22
40
0
40
0
40
0
40
0
40
0.138975745888861
40
0.138975745888861
40
0.208463618833291
40
0.208463618833291
40
0.277951491777722
40
0.277951491777722
40
0.416927237666583
40
0.416927237666583
40
0.555902983555444
40
0.555902983555444
40
0.833854475333166
40
0.833854475333166
40
0.86859841180538
40
0.86859841180538
40
0.903342348277595
40
0.903342348277595
40
0.972830221222023
40
0.972830221222023
40
1
40
1
40
1
40
1
41
1
10
17.7912273801446
20
1.49133032769072
30
0
41
1
10
17.6385731856155
20
1.57186779480349
30
0
41
1
10
17.4859417621679
20
1.64795266759106
30
0
41
1
10
17.2566653031344
20
1.75521227838138
30
0
41
1
10
17.1801848570898
20
1.78981833783959
30
0
41
1
10
17.0270468297222
20
1.85668294591409
30
0
41
1
10
16.9502980902869
20
1.88897782087153
30
0
41
1
10
16.7207973847827
20
1.98178681836131
30
0
41
1
10
16.5685546456941
20
2.03834388169159
30
0
41
1
10
16.2649949866308
20
2.14043738651901
30
0
41
1
10
16.1136741637816
20
2.18598231646192
30
0
41
1
10
15.6600168478756
20
2.30539892470182
30
0
41
1
10
15.3580066382668
20
2.36194870455057
30
0
41
1
10
15.0147778959363
20
2.39735622993683
30
0
41
1
10
14.9765934858269
20
2.40089851136693
30
0
41
1
10
14.9001159595794
20
2.40719030267306
30
0
41
1
10
14.8618383652466
20
2.40993763734386
30
0
41
1
10
14.7472535764039
20
2.41695747106803
30
0
41
1
10
14.6710552521019
20
2.42001896716735
30
0
41
1
10
14.5652554563737
20
2.42206252957538
30
0
41
1
10
14.5355365128315
20
2.42239386489356
30
0
41
1
10
14.5058355072576
20
2.42248340731007
30
0
0
SPLINE
5
124
100
AcDbEntity
8
1
62
256
6
ByLayer
370
18
48
1
60
0
100
AcDbSpline
70
4
71
3
72
8
73
4
40
0
40
0
40
0
40
0
40
1
40
1
40
1
40
1
41
1
10
17.7807516636449
20
1.02249077776679
30
0
41
1
10
17.8155521088486
20
1.01746517648596
30
0
41
1
10
17.8503908983986
20
1.01255626075988
30
0
41
1
10
17.8852666708653
20
1.00775988754285
30
0
0
SPLINE
5
125
100
AcDbEntity
8
1
62
256
6
ByLayer
370
18
48
1
60
0
100
AcDbSpline
70
4
71
3
72
8
73
4
40
0
40
0
40
0
40
0
40
1
40
1
40
1
40
1
41
1
10
17.7303647433404
20
1.0266544688499
30
0
41
1
10
17.748808154807
20
1.00062772736968
30
0
41
1
10
17.7685840613461
20
0.97469220539557
30
0
41
1
10
17.7899813780568
20
0.948867681268212
30
0
0
SPLINE
5
126
100
AcDbEntity
8
1
62
256
6
ByLayer
370
13
48
1
60
0
100
AcDbSpline
70
4
71
3
72
14
73
10
40
0
40
0
40
0
40
0
40
0.127098182513083
40
0.290888691949955
40
0.454679201386828
40
0.6184697108237
40
0.782260220260573
40
0.946050729697445
40
1
40
1
40
1
40
1
41
1
10
17.7899813816483
20
0.948867679505526
30
0
41
1
10
17.5474875877655
20
1.09050270218574
30
0
41
1
10
16.9924937938828
20
1.40002233281322
30
0
41
1
10
16.125
20
1.81084123223013
30
0
41
1
10
15.1875
20
2.13319290124045
30
0
41
1
10
14.25
20
2.31714748498692
30
0
41
1
10
13.3125
20
2.34528222827279
30
0
41
1
10
12.5845688409999
20
2.24898079599001
30
0
41
1
10
12.1691376819998
20
2.15005321045754
30
0
41
1
10
12.0662065229997
20
2.1229786932123
30
0
0
SPLINE
5
127
100
AcDbEntity
8
1
62
256
6
ByLayer
370
18
48
1
60
0
100
AcDbSpline
70
4
71
3
72
42
73
38
40
0
40
0
40
0
40
0
40
0.0121579966825717
40
0.0121579966825717
40
0.0501519198870856
40
0.0501519198870856
40
0.0881458430915996
40
0.0881458430915996
40
0.240121535909663
40
0.240121535909663
40
0.278115459114179
40
0.278115459114179
40
0.316109382318695
40
0.316109382318695
40
0.392097228727728
40
0.392097228727728
40
0.430091151932244
40
0.430091151932244
40
0.46808507513676
40
0.46808507513676
40
0.544072921545793
40
0.544072921545793
40
0.620060767954826
40
0.620060767954826
40
0.658054691159343
40
0.658054691159343
40
0.696048614363861
40
0.696048614363861
40
0.772036460772896
40
0.772036460772896
40
0.791033422375155
40
0.791033422375155
40
0.810030383977413
40
0.810030383977413
40
0.848024307181931
40
0.848024307181931
40
1
40
1
40
1
40
1
41
1
10
11.7844893828005
20
2.20945347329237
30
0
41
1
10
11.8085697237966
20
2.21719684409058
30
0
41
1
10
11.8326510737884
20
2.22479544040846
30
0
41
1
10
11.9319975219463
20
2.255538987498
30
0
41
1
10
12.0072845330829
20
2.2774056042816
30
0
41
1
10
12.1579988444483
20
2.31821328568995
30
0
41
1
10
12.2334588296887
20
2.33716196269827
30
0
41
1
10
12.6109788067731
20
2.42432760983169
30
0
41
1
10
12.9112244102507
20
2.46936088527397
30
0
41
1
10
13.2881055671801
20
2.49378141439297
30
0
41
1
10
13.3636354739359
20
2.497068718111
30
0
41
1
10
13.514497311668
20
2.50040503233765
30
0
41
1
10
13.5898369137393
20
2.50045810727511
30
0
41
1
10
13.8157260609003
20
2.49579869668537
30
0
41
1
10
13.9661485741446
20
2.48626902964042
30
0
41
1
10
14.1920640337695
20
2.46242180298108
30
0
41
1
10
14.2674149037102
20
2.45288088689281
30
0
41
1
10
14.4182930638482
20
2.43062164444987
30
0
41
1
10
14.4938397950783
20
2.41789611417772
30
0
41
1
10
14.7200076773997
20
2.37514630336253
30
0
41
1
10
14.8704451893366
20
2.34051165321296
30
0
41
1
10
15.171412143822
20
2.25940711566744
30
0
41
1
10
15.3219424726793
20
2.21293657891928
30
0
41
1
10
15.5483931605368
20
2.13465443794232
30
0
41
1
10
15.6238538874189
20
2.10717499349599
30
0
41
1
10
15.7745651602594
20
2.04962712314676
30
0
41
1
10
15.849856247288
20
2.01954497973293
30
0
41
1
10
16.0756693677553
20
1.92550234480902
30
0
41
1
10
16.2261274429972
20
1.85774263837689
30
0
41
1
10
16.4145294153145
20
1.76710812166991
30
0
41
1
10
16.4522265699339
20
1.74868460757233
30
0
41
1
10
16.5276662352586
20
1.71125453072978
30
0
41
1
10
16.565430232389
20
1.69223689067081
30
0
41
1
10
16.6786199740046
20
1.6344216843346
30
0
41
1
10
16.7539365884748
20
1.59486724640973
30
0
41
1
10
17.1300476818522
20
1.39235328563797
30
0
41
1
10
17.4294507978637
20
1.21519367922986
30
0
41
1
10
17.7303647433528
20
1.02665446884316
30
0
0
SPLINE
5
128
100
AcDbEntity
8
1
62
256
6
ByLayer
370
18
48
1
60
0
100
AcDbSpline
70
4
71
3
72
8
73
4
40
0
40
0
40
0
40
0
40
1
40
1
40
1
40
1
41
1
10
17.7303647433537
20
1.02665446885058
30
0
41
1
10
17.7471598073033
20
1.02524145554145
30
0
41
1
10
17.7639556557358
20
1.02385356240669
30
0
41
1
10
17.7807516636507
20
1.02249077782781
30
0
0
SPLINE
5
129
100
AcDbEntity
8
1
62
256
6
ByLayer
370
18
48
1
60
0
100
AcDbSpline
70
4
71
3
72
8
73
4
40
0
40
0
40
0
40
0
40
1
40
1
40
1
40
1
41
1
10
9.95059973664195
20
1.04684275857503
30
0
41
1
10
10.008793714862
20
1.01825887714043
30
0
41
1
10
10.0671138784097
20
0.989395190335415
30
0
41
1
10
10.1255593606304
20
0.960253619893621
30
0
0
SPLINE
5
12A
100
AcDbEntity
8
1
62
256
6
ByLayer
370
18
48
1
60
0
100
AcDbSpline
70
4
71
3
72
24
73
20
40
0
40
0
40
0
40
0
40
0.25000000000007
40
0.25000000000007
40
0.375000000000063
40
0.375000000000063
40
0.500000000000057
40
0.500000000000057
40
0.62500000000005
40
0.62500000000005
40
0.687500000000041
40
0.687500000000041
40
0.750000000000032
40
0.750000000000032
40
0.812500000000024
40
0.812500000000024
40
0.875000000000015
40
0.875000000000015
40
1
40
1
40
1
40
1
41
1
10
8.72646077444779
20
1.87948192069606
30
0
41
1
10
8.71857426838096
20
1.88554430712031
30
0
41
1
10
8.7110492342851
20
1.89174795794423
30
0
41
1
10
8.70076577338597
20
1.90147736328689
30
0
41
1
10
8.69750009686737
20
1.90480225929875
30
0
41
1
10
8.69156647109557
20
1.91160949976739
30
0
41
1
10
8.68888302262894
20
1.91509216861183
30
0
41
1
10
8.68454452135529
20
1.92235824074359
30
0
41
1
10
8.68287520748791
20
1.92613424996759
30
0
41
1
10
8.68220857630533
20
1.93190979404486
30
0
41
1
10
8.6823023902607
20
1.9338239722417
30
0
41
1
10
8.68345153765671
20
1.93762353183791
30
0
41
1
10
8.68450003836165
20
1.93943174556432
30
0
41
1
10
8.68768953199321
20
1.94272826841862
30
0
41
1
10
8.68975930034259
20
1.94414044392048
30
0
41
1
10
8.69456365114183
20
1.94649857295246
30
0
41
1
10
8.69720728783938
20
1.94741389718712
30
0
41
1
10
8.70562334362168
20
1.94963258016045
30
0
41
1
10
8.71158096686574
20
1.95036279431454
30
0
41
1
10
8.71762601434321
20
1.9507509160027
30
0
0
SPLINE
5
12B
100
AcDbEntity
8
1
62
256
6
ByLayer
370
18
48
1
60
0
100
AcDbSpline
70
4
71
3
72
8
73
4
40
0
40
0
40
0
40
0
40
1
40
1
40
1
40
1
41
1
10
8.71762601434318
20
1.95075091600273
30
0
41
1
10
8.74088394733366
20
1.95224418933921
30
0
41
1
10
8.76382459493539
20
1.95476790073022
30
0
41
1
10
8.78623222482207
20
1.95899246149389
30
0
0
SPLINE
5
12C
100
AcDbEntity
8
1
62
256
6
ByLayer
370
18
48
1
60
0
100
AcDbSpline
70
4
71
3
72
17
73
13
40
0
40
0
40
0
40
0
40
0.250000000000004
40
0.250000000000004
40
0.500000000000008
40
0.500000000000008
40
0.562500000000007
40
0.562500000000007
40
0.625000000000006
40
0.750000000000004
40
0.750000000000004
40
1
40
1
40
1
40
1
41
1
10
8.78623222482207
20
1.95899246149389
30
0
41
1
10
8.72337818628557
20
2.01759682873222
30
0
41
1
10
8.66613623748646
20
2.07338220630189
30
0
41
1
10
8.56223674812685
20
2.17770272680397
30
0
41
1
10
8.51557268434365
20
2.22624307118653
30
0
41
1
10
8.4634549761974
20
2.28115436253805
30
0
41
1
10
8.45333149888199
20
2.29185875065807
30
0
41
1
10
8.4337459081917
20
2.31260198418036
30
0
41
1
10
8.40546540453715
20
2.34260624923385
30
0
41
1
10
8.38033787922669
20
2.36921864479473
30
0
41
1
10
8.33397213401295
20
2.41773083733824
30
0
41
1
10
8.30822474074145
20
2.44380790321992
30
0
41
1
10
8.28706676227853
20
2.46293392072337
30
0
0
SPLINE
5
12D
100
AcDbEntity
8
1
62
256
6
ByLayer
370
18
48
1
60
0
100
AcDbSpline
70
4
71
3
72
20
73
16
40
0
40
0
40
0
40
0
40
0.250000000000001
40
0.250000000000001
40
0.375000000000001
40
0.375000000000001
40
0.500000000000001
40
0.500000000000001
40
0.625000000000001
40
0.625000000000001
40
0.75
40
0.75
40
0.875
40
0.875
40
1
40
1
40
1
40
1
41
1
10
8.28706676227853
20
2.46293392072337
30
0
41
1
10
8.28554257789088
20
2.46431172613742
30
0
41
1
10
8.28493360229538
20
2.46565904468412
30
0
41
1
10
8.28587922780935
20
2.46763597941901
30
0
41
1
10
8.28651130027714
20
2.4682813789768
30
0
41
1
10
8.2884201778661
20
2.46951373621866
30
0
41
1
10
8.28969855282
20
2.47010554075356
30
0
41
1
10
8.29294130934161
20
2.47124134516125
30
0
41
1
10
8.2949222565378
20
2.47178676931526
30
0
41
1
10
8.29940590430354
20
2.47278970390306
30
0
41
1
10
8.30192221850999
20
2.47325343926445
30
0
41
1
10
8.30745970600142
20
2.47411489804926
30
0
41
1
10
8.3104896679607
20
2.47451275665173
30
0
41
1
10
8.31684846729439
20
2.47523254304463
30
0
41
1
10
8.32019523419251
20
2.47555757442271
30
0
41
1
10
8.32368707694096
20
2.47585354765513
30
0
0
SPLINE
5
12E
100
AcDbEntity
8
1
62
256
6
ByLayer
370
18
48
1
60
0
100
AcDbSpline
70
4
71
3
72
34
73
30
40
0
40
0
40
0
40
0
40
0.0625
40
0.0625
40
0.125
40
0.125
40
0.1875
40
0.1875
40
0.25
40
0.25
40
0.3125
40
0.3125
40
0.375
40
0.375
40
0.4375
40
0.4375
40
0.5
40
0.5
40
0.5625
40
0.5625
40
0.625
40
0.625
40
0.6875
40
0.6875
40
0.75
40
0.75
40
0.875
40
0.875
40
1
40
1
40
1
40
1
41
1
10
8.32368707694212
20
2.47585354765323
30
0
41
1
10
8.35859938824507
20
2.47881276156178
30
0
41
1
10
8.39501342372284
20
2.48091243610364
30
0
41
1
10
8.46978586946318
20
2.48424038442886
30
0
41
1
10
8.50816410586873
20
2.48545181418535
30
0
41
1
10
8.58642024942603
20
2.48733473738292
30
0
41
1
10
8.62646184403616
20
2.48800233463945
30
0
41
1
10
8.7066419990781
20
2.48895311222978
30
0
41
1
10
8.74686851897258
20
2.48923823926219
30
0
41
1
10
8.82754759049493
20
2.48952679664563
30
0
41
1
10
8.86806392186875
20
2.48952866160835
30
0
41
1
10
8.94885534940968
20
2.48928713863813
30
0
41
1
10
8.98915723518525
20
2.48904372786313
30
0
41
1
10
9.06959525313005
20
2.48831736858719
30
0
41
1
10
9.10977021350959
20
2.48783338051766
30
0
41
1
10
9.18970903016725
20
2.48661052425015
30
0
41
1
10
9.22948554404249
20
2.48587162425582
30
0
41
1
10
9.30868616668448
20
2.48410714727169
30
0
41
1
10
9.34813719802744
20
2.48308052916633
30
0
41
1
10
9.42653639721283
20
2.48070233059929
30
0
41
1
10
9.46549135332302
20
2.4793507645505
30
0
41
1
10
9.54294731178291
20
2.47627436563477
30
0
41
1
10
9.58147117407069
20
2.47454820279293
30
0
41
1
10
9.65794882908048
20
2.47067605358845
30
0
41
1
10
9.69590696336437
20
2.46853014399616
30
0
41
1
10
9.80899722176002
20
2.46138249020041
30
0
41
1
10
9.88341940209114
20
2.45566330994407
30
0
41
1
10
10.0299888725328
20
2.44193037044775
30
0
41
1
10
10.1021475307828
20
2.43391763446485
30
0
41
1
10
10.1733408356012
20
2.42455837832267
30
0
0
SPLINE
5
12F
100
AcDbEntity
8
1
62
256
6
ByLayer
370
18
48
1
60
0
100
AcDbSpline
70
4
71
3
72
8
73
4
40
0
40
0
40
0
40
0
40
1
40
1
40
1
40
1
41
1
10
17.7468998540814
20
-1.88068320903693
30
0
41
1
10
17.762677021185
20
-1.88146023397485
30
0
41
1
10
17.778455053543
20
-1.88228178737157
30
0
41
1
10
17.7942332734571
20
-1.88314779275413
30
0
0
SPLINE
5
130
100
AcDbEntity
8
1
62
256
6
ByLayer
370
18
48
1
60
0
100
AcDbSpline
70
4
71
3
72
11
73
7
40
0
40
0
40
0
40
0
40
0.0744914032383672
40
0.259593122590694
40
0.506395415060463
40
1
40
1
40
1
40
1
41
1
10
14.2985870820662
20
0.379438653187975
30
0
41
1
10
14.2042663880441
20
0.44236887187563
30
0
41
1
10
13.875570694022
20
0.66016420255815
30
0
41
1
10
13.234375
20
1.06971842032746
30
0
41
1
10
12.0625
20
1.73727105706325
30
0
41
1
10
11.125
20
2.09536691667805
30
0
41
1
10
10.5
20
2.22171663445465
30
0
0
SPLINE
5
131
100
AcDbEntity
8
1
62
256
6
ByLayer
370
18
48
1
60
0
100
AcDbSpline
70
4
71
3
72
8
73
4
40
0
40
0
40
0
40
0
40
1
40
1
40
1
40
1
41
1
10
17.7892381428468
20
-2.26773976864774
30
0
41
1
10
17.7875130881033
20
-2.2671051233844
30
0
41
1
10
17.7857867841162
20
-2.26646830762763
30
0
41
1
10
17.7840592304734
20
-2.26582932066182
30
0
0
SPLINE
5
132
100
AcDbEntity
8
1
62
256
6
ByLayer
370
18
48
1
60
0
100
AcDbSpline
70
4
71
3
72
8
73
4
40
0
40
0
40
0
40
0
40
1
40
1
40
1
40
1
41
1
10
17.7840592304734
20
-2.26582932066179
30
0
41
1
10
17.8057292382172
20
-2.24523185248197
30
0
41
1
10
17.8274001203372
20
-2.22474365336686
30
0
41
1
10
17.8490719194113
20
-2.20437004418704
30
0
0
SPLINE
5
133
100
AcDbEntity
8
1
62
256
6
ByLayer
370
18
48
1
60
0
100
AcDbSpline
70
4
71
3
72
8
73
4
40
0
40
0
40
0
40
0
40
1
40
1
40
1
40
1
41
1
10
17.8240009765846
20
-2.13416937901667
30
0
41
1
10
17.8322193580061
20
-2.15794919832018
30
0
41
1
10
17.8405740509684
20
-2.18135567814818
30
0
41
1
10
17.8490719194113
20
-2.20437004418704
30
0
0
SPLINE
5
134
100
AcDbEntity
8
1
62
256
6
ByLayer
370
18
48
1
60
0
100
AcDbSpline
70
4
71
3
72
14
73
10
40
0
40
0
40
0
40
0
40
0.231977164343269
40
0.32798001880036
40
0.423982873257452
40
0.519985727714543
40
0.615988582171635
40
0.743992388114423
40
1
40
1
40
1
40
1
41
1
10
17.8240009786821
20
-2.13416938028095
30
0
41
1
10
17.2576673191214
20
-2.25920429510589
30
0
41
1
10
16.4569586595607
20
-2.29428329485165
30
0
41
1
10
15.4218750000001
20
-2.07749967801988
30
0
41
1
10
14.7187500000001
20
-1.83331706578801
30
0
41
1
10
14.0156250000001
20
-1.50569358658521
30
0
41
1
10
13.2343750000001
20
-1.06316839391133
30
0
41
1
10
12.0625000000001
20
-0.298909573745561
30
0
41
1
10
11.1250000000001
20
0.374204618962665
30
0
41
1
10
10.5000000000001
20
0.778187885399433
30
0
0
SPLINE
5
135
100
AcDbEntity
8
1
62
256
6
ByLayer
370
18
48
1
60
0
100
AcDbSpline
70
4
71
3
72
55
73
51
40
0
40
0
40
0
40
0
40
0.062500000000001
40
0.062500000000001
40
0.0937500000000015
40
0.0937500000000015
40
0.125000000000002
40
0.125000000000002
40
0.187500000000005
40
0.187500000000005
40
0.218750000000006
40
0.218750000000006
40
0.234375000000006
40
0.234375000000006
40
0.250000000000006
40
0.250000000000006
40
0.374999999999999
40
0.374999999999999
40
0.406249999999998
40
0.406249999999998
40
0.437499999999997
40
0.437499999999997
40
0.468749999999996
40
0.468749999999996
40
0.484374999999996
40
0.484374999999996
40
0.499999999999995
40
0.562499999999996
40
0.562499999999996
40
0.624999999999996
40
0.624999999999996
40
0.656249999999996
40
0.656249999999996
40
0.687499999999996
40
0.687499999999996
40
0.718749999999996
40
0.718749999999996
40
0.734374999999997
40
0.734374999999997
40
0.749999999999998
40
0.749999999999998
40
0.812499999999998
40
0.812499999999998
40
0.874999999999998
40
0.874999999999998
40
0.906249999999999
40
0.906249999999999
40
0.9375
40
0.9375
40
1
40
1
40
1
40
1
41
1
10
17.789238142848
20
-2.2677397686474
30
0
41
1
10
17.6368239053706
20
-2.30782759666084
30
0
41
1
10
17.4844352823277
20
-2.34005106934649
30
0
41
1
10
17.2553687168494
20
-2.37681271863616
30
0
41
1
10
17.1789325121998
20
-2.38713192123254
30
0
41
1
10
17.0258013396361
20
-2.40389547488636
30
0
41
1
10
16.9490795332806
20
-2.41034148325775
30
0
41
1
10
16.7194723655565
20
-2.42373704533395
30
0
41
1
10
16.566805072417
20
-2.4247699619055
30
0
41
1
10
16.3377499101274
20
-2.41424713422052
30
0
41
1
10
16.2613834202221
20
-2.40873863151012
30
0
41
1
10
16.1467051237632
20
-2.3974864574696
30
0
41
1
10
16.108425128369
20
-2.39323331292738
30
0
41
1
10
16.0319803390514
20
-2.38375337148247
30
0
41
1
10
15.9938276377944
20
-2.3785286962968
30
0
41
1
10
15.650998620641
20
-2.32719005097704
30
0
41
1
10
15.3501477259449
20
-2.25073046939698
30
0
41
1
10
14.9728622953637
20
-2.12066592756921
30
0
41
1
10
14.8973520738839
20
-2.09291462107919
30
0
41
1
10
14.7461032485497
20
-2.03394977989996
30
0
41
1
10
14.6703654057701
20
-2.00272004744554
30
0
41
1
10
14.5185188245737
20
-1.93697801453001
30
0
41
1
10
14.4424101230435
20
-1.9024819291476
30
0
41
1
10
14.3278922714841
20
-1.84830406499162
30
0
41
1
10
14.2896403141751
20
-1.8298283669576
30
0
41
1
10
14.2130887354895
20
-1.79210945815856
30
0
41
1
10
14.022044253299
20
-1.69611970025272
30
0
41
1
10
13.8324656598946
20
-1.59189844885518
30
0
41
1
10
13.5300087914336
20
-1.41578614534072
30
0
41
1
10
13.3792049219451
20
-1.32308553428263
30
0
41
1
10
13.1528924365757
20
-1.17778315253145
30
0
41
1
10
13.0774427102491
20
-1.12828812896097
30
0
41
1
10
12.9263678611256
20
-1.02735692997837
30
0
41
1
10
12.8507293032132
20
-0.975965217008934
30
0
41
1
10
12.6990833944817
20
-0.871617222366922
30
0
41
1
10
12.6230847157894
20
-0.818630852658742
30
0
41
1
10
12.5087315343587
20
-0.738007297825334
30
0
41
1
10
12.4705542956756
20
-0.710943166804952
30
0
41
1
10
12.3940640364482
20
-0.656451812930413
30
0
41
1
10
12.3557892753774
20
-0.629052039036765
30
0
41
1
10
12.1649132242754
20
-0.491815209104061
30
0
41
1
10
12.01318724075
20
-0.380803041997183
30
0
41
1
10
11.7108231333573
20
-0.157512184120179
30
0
41
1
10
11.5601846011482
20
-0.0452341763807453
30
0
41
1
10
11.3342303504189
20
0.12302014356095
30
0
41
1
10
11.2589099595744
20
0.179073782200874
30
0
41
1
10
11.1080387187699
20
0.290814955577048
30
0
41
1
10
11.0324936741601
20
0.346510245492254
30
0
41
1
10
10.8053662034928
20
0.512843636642856
30
0
41
1
10
10.6532925802813
20
0.622730872631308
30
0
41
1
10
10.5000000000001
20
0.730843487313706
30
0
0
SPLINE
5
136
100
AcDbEntity
8
1
62
256
6
ByLayer
370
18
48
1
60
0
100
AcDbSpline
70
4
71
3
72
10
73
6
40
0
40
0
40
0
40
0
40
0.5
40
0.5
40
1
40
1
40
1
40
1
41
1
10
10.5000000000001
20
0.730843487313734
30
0
41
1
10
10.4369517609388
20
0.768927099772668
30
0
41
1
10
10.3742131089298
20
0.807083764688173
30
0
41
1
10
10.2493756882542
20
0.883548086137608
30
0
41
1
10
10.187282095929
20
0.921856964119485
30
0
41
1
10
10.125559745224
20
0.960253443026915
30
0
0
SPLINE
5
137
100
AcDbEntity
8
1
62
256
6
ByLayer
370
18
48
1
60
0
100
AcDbSpline
70
4
71
3
72
8
73
4
40
0
40
0
40
0
40
0
40
1
40
1
40
1
40
1
41
1
10
17.8115292495934
20
-1.5488930938815
30
0
41
1
10
17.8328453375253
20
-1.66068027959099
30
0
41
1
10
17.8566945610532
20
-1.77072638605628
30
0
41
1
10
17.8840488009505
20
-1.87801485912456
30
0
0
SPLINE
5
138
100
AcDbEntity
8
1
62
256
6
ByLayer
370
18
48
1
60
0
100
AcDbSpline
70
4
71
3
72
8
73
4
40
0
40
0
40
0
40
0
40
1
40
1
40
1
40
1
41
1
10
17.7900310055953
20
-1.38166560567359
30
0
41
1
10
17.7975925040088
20
-1.43760679794701
30
0
41
1
10
17.8047388863662
20
-1.49333939532414
30
0
41
1
10
17.8115292495943
20
-1.54889309388136
30
0
0
SPLINE
5
139
100
AcDbEntity
8
1
62
256
6
ByLayer
370
18
48
1
60
0
100
AcDbSpline
70
4
71
3
72
8
73
4
40
0
40
0
40
0
40
0
40
1
40
1
40
1
40
1
41
1
10
10.5000000000001
20
2.41770559372546
30
0
41
1
10
10.4373008767716
20
2.41992111928053
30
0
41
1
10
10.3748568991486
20
2.42134976619181
30
0
41
1
10
10.3126955350015
20
2.42190682251311
30
0
0
SPLINE
5
13A
100
AcDbEntity
8
1
62
256
6
ByLayer
370
18
48
1
60
0
100
AcDbSpline
70
4
71
3
72
8
73
4
40
0
40
0
40
0
40
0
40
1
40
1
40
1
40
1
41
1
10
17.7942332735161
20
-1.88314779231513
30
0
41
1
10
17.824137661983
20
-1.88125991211186
30
0
41
1
10
17.8540764946701
20
-1.87955061232373
30
0
41
1
10
17.8840488009505
20
-1.87801485912456
30
0
0
SPLINE
5
13B
100
AcDbEntity
8
1
62
256
6
ByLayer
370
18
48
1
60
0
100
AcDbSpline
70
4
71
3
72
8
73
4
40
0
40
0
40
0
40
0
40
1
40
1
40
1
40
1
41
1
10
17.7900310055969
20
-1.38166560567339
30
0
41
1
10
17.7884195223734
20
-1.37922105552113
30
0
41
1
10
17.7868070144141
20
-1.37677730003364
30
0
41
1
10
17.7851934809439
20
-1.37433433981207
30
0
0
SPLINE
5
13C
100
AcDbEntity
8
1
62
256
6
ByLayer
370
18
48
1
60
0
100
AcDbSpline
70
4
71
3
72
8
73
4
40
0
40
0
40
0
40
0
40
1
40
1
40
1
40
1
41
1
10
17.7851934809486
20
-1.37433433982221
30
0
41
1
10
17.8073062807459
20
-1.36469047988984
30
0
41
1
10
17.8294083025788
20
-1.3546123853875
30
0
41
1
10
17.8514991891606
20
-1.34408566155238
30
0
0
SPLINE
5
13D
100
AcDbEntity
8
1
62
256
6
ByLayer
370
18
48
1
60
0
100
AcDbSpline
70
4
71
3
72
8
73
4
40
0
40
0
40
0
40
0
40
1
40
1
40
1
40
1
41
1
10
17.8269023091235
20
-1.21697595667945
30
0
41
1
10
17.8349774859655
20
-1.25925698049198
30
0
41
1
10
17.8431746907658
20
-1.30162562251178
30
0
41
1
10
17.8514991891605
20
-1.34408566155238
30
0
0
SPLINE
5
13E
100
AcDbEntity
8
1
62
256
6
ByLayer
370
13
48
1
60
0
100
AcDbSpline
70
4
71
3
72
12
73
8
40
0
40
0
40
0
40
0
40
0.191307184816034
40
0.425935578155533
40
0.660563971495031
40
0.89519236483453
40
1
40
1
40
1
40
1
41
1
10
17.8269023095941
20
-1.21697595611991
30
0
41
1
10
17.5721015397294
20
-1.07550510376299
30
0
41
1
10
17.0048007698648
20
-0.742819743592946
30
0
41
1
10
16.1250000000001
20
-0.178692238921002
30
0
41
1
10
15.1875000000001
20
0.443020685647838
30
0
41
1
10
14.4229074062691
20
0.921065458108984
30
0
41
1
10
13.970814812538
20
1.17532116368787
30
0
41
1
10
13.831222218807
20
1.25076125016773
30
0
0
SPLINE
5
13F
100
AcDbEntity
8
1
62
256
6
ByLayer
370
18
48
1
60
0
100
AcDbSpline
70
4
71
3
72
8
73
4
40
0
40
0
40
0
40
0
40
1
40
1
40
1
40
1
41
1
10
13.8312222543381
20
1.25076123096562
30
0
41
1
10
13.7772627191493
20
1.27992260636765
30
0
41
1
10
13.7233031839605
20
1.30862579314137
30
0
41
1
10
13.6693436487717
20
1.33685009636969
30
0
0
SPLINE
5
140
100
AcDbEntity
8
1
62
256
6
ByLayer
370
18
48
1
60
0
100
AcDbSpline
70
4
71
3
72
52
73
48
40
0
40
0
40
0
40
0
40
0.0625000000000014
40
0.0625000000000014
40
0.093750000000003
40
0.093750000000003
40
0.125000000000005
40
0.125000000000005
40
0.187500000000006
40
0.187500000000006
40
0.250000000000007
40
0.250000000000007
40
0.312500000000009
40
0.312500000000009
40
0.37500000000001
40
0.37500000000001
40
0.39062500000001
40
0.39062500000001
40
0.406250000000011
40
0.406250000000011
40
0.437500000000011
40
0.437500000000011
40
0.500000000000013
40
0.500000000000013
40
0.562500000000014
40
0.562500000000014
40
0.625000000000016
40
0.625000000000016
40
0.656250000000016
40
0.656250000000016
40
0.671875000000016
40
0.671875000000016
40
0.687500000000015
40
0.687500000000015
40
0.750000000000012
40
0.750000000000012
40
0.875000000000007
40
0.875000000000007
40
0.906250000000006
40
0.906250000000006
40
0.937500000000005
40
0.937500000000005
40
0.953125000000004
40
0.953125000000004
40
0.968750000000003
40
0.968750000000003
40
1
40
1
40
1
40
1
41
1
10
17.7900310055972
20
-1.38166560567322
30
0
41
1
10
17.6376130719331
20
-1.2929475008759
30
0
41
1
10
17.4850994506323
20
-1.20068203477965
30
0
41
1
10
17.2558547513991
20
-1.0575804943835
30
0
41
1
10
17.1793612307406
20
-1.00909286287973
30
0
41
1
10
17.0261575244011
20
-0.910629741681674
30
0
41
1
10
16.9493835803471
20
-0.860612119115046
30
0
41
1
10
16.7200475792573
20
-0.7093842395835
30
0
41
1
10
16.5680488034116
20
-0.606697701522592
30
0
41
1
10
16.2651360308923
20
-0.398579832084891
30
0
41
1
10
16.1141976611551
20
-0.293188297007248
30
0
41
1
10
15.8124504297143
20
-0.0810471038973049
30
0
41
1
10
15.6616524626966
20
0.0257220213171365
30
0
41
1
10
15.3592025770586
20
0.239228895111836
30
0
41
1
10
15.207533896286
20
0.345938184347233
30
0
41
1
10
15.0167202697466
20
0.478303335041773
30
0
41
1
10
14.9784553948524
20
0.504754960080788
30
0
41
1
10
14.9020362583933
20
0.557366364515957
30
0
41
1
10
14.8638826022941
20
0.583525993345489
30
0
41
1
10
14.7495681497911
20
0.66153800556765
30
0
41
1
10
14.673555704383
20
0.712923086551882
30
0
41
1
10
14.445886773427
20
0.864980556541951
30
0
41
1
10
14.2945687830294
20
0.963538429308187
30
0
41
1
10
13.9919751895515
20
1.15408343408038
30
0
41
1
10
13.8407607380918
20
1.24612322437375
30
0
41
1
10
13.537986574954
20
1.42302789108936
30
0
41
1
10
13.3864199610258
20
1.50790674429942
30
0
41
1
10
13.15829561993
20
1.62900699421161
30
0
41
1
10
13.0821248885364
20
1.6683246527023
30
0
41
1
10
12.96757078331
20
1.7255992902152
30
0
41
1
10
12.9293032590857
20
1.74442431054038
30
0
41
1
10
12.8529433927499
20
1.7813602979372
30
0
41
1
10
12.8148219416127
20
1.79948689143419
30
0
41
1
10
12.6244789984464
20
1.88837700200654
30
0
41
1
10
12.4730646694552
20
1.95389616198921
30
0
41
1
10
12.0199761785588
20
2.13251365533191
30
0
41
1
10
11.7194972526312
20
2.2277543104187
30
0
41
1
10
11.3409471059901
20
2.31260057504144
30
0
41
1
10
11.2650851995264
20
2.32785816268858
30
0
41
1
10
11.1128992272031
20
2.35511053122525
30
0
41
1
10
11.0365799749197
20
2.36709464554167
30
0
41
1
10
10.9217008532345
20
2.38249653219026
30
0
41
1
10
10.8833469027414
20
2.38720034281374
30
0
41
1
10
10.8066914214159
20
2.3957151306611
30
0
41
1
10
10.7683657407236
20
2.39952931333198
30
0
41
1
10
10.6533810904521
20
2.40963053292393
30
0
41
1
10
10.5767168780965
20
2.41456670701879
30
0
41
1
10
10.5000000000001
20
2.41770559372543
30
0
0
SPLINE
5
141
100
AcDbEntity
8
1
62
256
6
ByLayer
370
13
48
1
60
0
100
AcDbSpline
70
4
71
3
72
8
73
4
40
0
40
0
40
0
40
0
40
1
40
1
40
1
40
1
41
1
10
9.86577948888927
20
0.605696202820866
30
0
41
1
10
9.87044226135686
20
0.61228583699986
30
0
41
1
10
9.87510503382447
20
0.618868765194208
30
0
41
1
10
9.87976780629205
20
0.625444768758001
30
0
0
SPLINE
5
142
100
AcDbEntity
8
1
62
256
6
ByLayer
370
18
48
1
60
0
100
AcDbSpline
70
4
71
3
72
17
73
13
40
0
40
0
40
0
40
0
40
0.0839267399312655
40
0.190977913582614
40
0.298029087233963
40
0.405080260885311
40
0.51213143453666
40
0.619182608188008
40
0.726233781839357
40
0.833284955490706
40
0.940336129142054
40
1
40
1
40
1
40
1
41
1
10
13.6173257816409
20
2.49967175529343
30
0
41
1
10
13.7269425656166
20
2.49930938526285
30
0
41
1
10
13.976808705602
20
2.49073269853855
30
0
41
1
10
14.3689861312664
20
2.44952583042453
30
0
41
1
10
14.7954615821832
20
2.37127352869362
30
0
41
1
10
15.2269948851917
20
2.25899585098662
30
0
41
1
10
15.6648355133979
20
2.11267299500702
30
0
41
1
10
16.1102755518929
20
1.93244934294177
30
0
41
1
10
16.5646738647884
20
1.71870142822056
30
0
41
1
10
17.0294952909921
20
1.47235210381169
30
0
41
1
10
17.4361216007772
20
1.23585421115737
30
0
41
1
10
17.6893560251747
20
1.07982695012211
30
0
41
1
10
17.7807516636391
20
1.02249077770642
30
0
0
SPLINE
5
143
100
AcDbEntity
8
1
62
256
6
ByLayer
370
18
48
1
60
0
100
AcDbSpline
70
4
71
3
72
23
73
19
40
0
40
0
40
0
40
0
40
0.0623804790687825
40
0.124765752663655
40
0.187158425788581
40
0.249561033637877
40
0.311976042820249
40
0.37440585257091
40
0.436852795950618
40
0.499319141031545
40
0.561807092069086
40
0.624318790659628
40
0.686856316883357
40
0.74942169043222
40
0.812016871722551
40
0.874643762992104
40
0.937304209381551
40
1
40
1
40
1
40
1
41
1
10
10.104301841682
20
-1.9613337175671
30
0
41
1
10
10.0990640830905
20
-1.96639667406072
30
0
41
1
10
10.0885881633363
20
-1.9765229761837
30
0
41
1
10
10.0729918193447
20
-1.99202690574441
30
0
41
1
10
10.0574811404197
20
-2.00775796902829
30
0
41
1
10
10.0420646071641
20
-2.02373621681022
30
0
41
1
10
10.0267399853519
20
-2.03995284525598
30
0
41
1
10
10.0115079097994
20
-2.05640680777373
30
0
41
1
10
9.9963682434861
20
-2.07309500199042
30
0
41
1
10
9.98132105483222
20
-2.09001490251518
30
0
41
1
10
9.96636635077846
20
-2.1071638453547
30
0
41
1
10
9.95150416726679
20
-2.12453925658465
30
0
41
1
10
9.9367344746546
20
-2.14213845330292
30
0
41
1
10
9.92205746607388
20
-2.15995921125216
30
0
41
1
10
9.90747249827049
20
-2.17799769192877
30
0
41
1
10
9.89298204290384
20
-2.1962561715649
30
0
41
1
10
9.87857693025762
20
-2.21471417717541
30
0
41
1
10
9.86905605911193
20
-2.22719195579998
30
0
41
1
10
9.86429428133283
20
-2.233432604169
30
0
0
SPLINE
5
144
100
AcDbEntity
8
1
62
256
6
ByLayer
370
18
48
1
60
0
100
AcDbSpline
70
4
71
3
72
18
73
14
40
0
40
0
40
0
40
0
40
0.113641198487711
40
0.197938092975764
40
0.282234987463817
40
0.36653188195187
40
0.450828776439922
40
0.535125670927975
40
0.619422565416028
40
0.788016354392134
40
0.872313248880187
40
0.95661014336824
40
1
40
1
40
1
40
1
41
1
10
9.86429428133297
20
-2.23343260416905
30
0
41
1
10
9.9595864450481
20
-2.26394773074369
30
0
41
1
10
10.1255887808341
20
-2.31278954412997
30
0
41
1
10
10.3622624918689
20
-2.3713282493724
30
0
41
1
10
10.5742650300993
20
-2.41509213712104
30
0
41
1
10
10.7861491685436
20
-2.44996093958125
30
0
41
1
10
10.997853869702
20
-2.47587738613666
30
0
41
1
10
11.2093084704146
20
-2.49277851597756
30
0
41
1
10
11.4908287872702
20
-2.50320980270547
30
0
41
1
10
11.7716016068084
20
-2.49542536344896
30
0
41
1
10
12.0513963071242
20
-2.46989662632049
30
0
41
1
10
12.2268220484571
20
-2.44651447705255
30
0
41
1
10
12.3322891893673
20
-2.42913023708729
30
0
41
1
10
12.3681091413392
20
-2.4228455720486
30
0
0
SPLINE
5
145
100
AcDbEntity
8
1
62
256
6
ByLayer
370
18
48
1
60
0
100
AcDbSpline
70
4
71
3
72
8
73
4
40
0
40
0
40
0
40
0
40
1
40
1
40
1
40
1
41
1
10
9.92006592089274
20
-1.98918834980822
30
0
41
1
10
9.98134162666875
20
-1.9789482631997
30
0
41
1
10
10.0427537650635
20
-1.96966529950356
30
0
41
1
10
10.1043015400309
20
-1.96133387417649
30
0
0
SPLINE
5
146
100
AcDbEntity
8
1
62
256
6
ByLayer
370
18
48
1
60
0
100
AcDbSpline
70
4
71
3
72
10
73
6
40
0
40
0
40
0
40
0
40
0.5
40
0.5
40
1
40
1
40
1
40
1
41
1
10
10.5000000000001
20
-2.09101813945446
30
0
41
1
10
10.4334741188001
20
-2.0714009854743
30
0
41
1
10
10.3672277415685
20
-2.05081514267891
30
0
41
1
10
10.2353059757629
20
-2.00766455736226
30
0
41
1
10
10.1696370231909
20
-1.98507750931637
30
0
41
1
10
10.1043018332468
20
-1.96133372590444
30
0
0
SPLINE
5
147
100
AcDbEntity
8
1
62
256
6
ByLayer
370
18
48
1
60
0
100
AcDbSpline
70
4
71
3
72
20
73
16
40
0
40
0
40
0
40
0
40
0.249999999999996
40
0.249999999999996
40
0.374999999999994
40
0.374999999999994
40
0.437499999999993
40
0.437499999999993
40
0.499999999999992
40
0.499999999999992
40
0.749999999999995
40
0.749999999999995
40
0.874999999999998
40
0.874999999999998
40
1
40
1
40
1
40
1
41
1
10
9.87976780628443
20
0.625444768763657
30
0
41
1
10
9.87183163149606
20
0.662456257012707
30
0
41
1
10
9.86694090848903
20
0.699363090761267
30
0
41
1
10
9.86472367338564
20
0.754584448175592
30
0
41
1
10
9.86484028808638
20
0.772968503586696
30
0
41
1
10
9.86639696347714
20
0.8005132759086
30
0
41
1
10
9.8671463804894
20
0.80968965644027
30
0
41
1
10
9.86912595685314
20
0.828032665466964
30
0
41
1
10
9.87035708554112
20
0.837191177838491
30
0
41
1
10
9.87765715620333
20
0.882410667727697
30
0
41
1
10
9.88718964930894
20
0.917195211927179
30
0
41
1
10
9.90693290009028
20
0.967396253047639
30
0
41
1
10
9.9144238967499
20
0.983799816427421
30
0
41
1
10
9.93123463978446
20
1.01595720080181
30
0
41
1
10
9.94055889812157
20
1.03169642621251
30
0
41
1
10
9.95059973664195
20
1.04684275857505
30
0
0
SPLINE
5
148
100
AcDbEntity
8
1
62
256
6
ByLayer
370
18
48
1
60
0
100
AcDbSpline
70
4
71
3
72
14
73
10
40
0
40
0
40
0
40
0
40
0.388905438429278
40
0.388905438429278
40
0.58335815764392
40
0.58335815764392
40
0.777810876858561
40
0.777810876858561
40
1
40
1
40
1
40
1
41
1
10
9.86725448900111
20
2.4819275055481
30
0
41
1
10
9.85785524181159
20
2.48659369774563
30
0
41
1
10
9.85162082234046
20
2.49038790677508
30
0
41
1
10
9.8476039956262
20
2.49472024574607
30
0
41
1
10
9.84715691287391
20
2.4959376990943
30
0
41
1
10
9.84818642736556
20
2.49790841407037
30
0
41
1
10
9.84968407961452
20
2.49866306565895
30
0
41
1
10
9.85499942741566
20
2.49975208111925
30
0
41
1
10
9.85910058354278
20
2.50001904443025
30
0
41
1
10
9.86445661513136
20
2.49999923208787
30
0
0
SPLINE
5
149
100
AcDbEntity
8
1
62
256
6
ByLayer
370
18
48
1
60
0
100
AcDbSpline
70
4
71
3
72
10
73
6
40
0
40
0
40
0
40
0
40
0.389583222094167
40
0.389583222094167
40
1
40
1
40
1
40
1
41
1
10
9.90506218371991
20
2.49730594989953
30
0
41
1
10
9.9078027805507
20
2.49703820167747
30
0
41
1
10
9.91063542725635
20
2.49675229973914
30
0
41
1
10
9.91811024674516
20
2.49597690882072
30
0
41
1
10
9.92287759009042
20
2.49546302566733
30
0
41
1
10
9.92784260091628
20
2.49491220658683
30
0
0
SPLINE
5
14A
100
AcDbEntity
8
1
62
256
6
ByLayer
370
18
48
1
60
0
100
AcDbSpline
70
4
71
3
72
18
73
14
40
0
40
0
40
0
40
0
40
0.250000000000006
40
0.250000000000006
40
0.500000000000011
40
0.500000000000011
40
0.562500000000011
40
0.562500000000011
40
0.625000000000011
40
0.625000000000011
40
0.750000000000006
40
0.750000000000006
40
1
40
1
40
1
40
1
41
1
10
8.6894754565615
20
-2.49406135079838
30
0
41
1
10
8.62625845251443
20
-2.50034547609434
30
0
41
1
10
8.56834757779393
20
-2.50181150901517
30
0
41
1
10
8.46265888899569
20
-2.49350094452385
30
0
41
1
10
8.41487545506629
20
-2.4837316157105
30
0
41
1
10
8.36116444278798
20
-2.46324492920087
30
0
41
1
10
8.35072336861492
20
-2.45873249966431
30
0
41
1
10
8.33043707255223
20
-2.44883985764412
30
0
41
1
10
8.32063172970541
20
-2.44347792285578
30
0
41
1
10
8.29227704093918
20
-2.42617302494861
30
0
41
1
10
8.27475042356667
20
-2.41299376257763
30
0
41
1
10
8.22601444007478
20
-2.36838107979702
30
0
41
1
10
8.19862881219419
20
-2.33189313282978
30
0
41
1
10
8.1758161312199
20
-2.28807063275917
30
0
0
SPLINE
5
14B
100
AcDbEntity
8
1
62
256
6
ByLayer
370
18
48
1
60
0
100
AcDbSpline
70
4
71
3
72
16
73
12
40
0
40
0
40
0
40
0
40
0.25
40
0.25
40
0.5
40
0.5
40
0.625
40
0.625
40
0.75
40
0.75
40
1
40
1
40
1
40
1
41
1
10
8.17581613121988
20
-2.28807063275917
30
0
41
1
10
8.17372727614273
20
-2.28405800259665
30
0
41
1
10
8.17283884867726
20
-2.27995788343603
30
0
41
1
10
8.1744080476669
20
-2.27154955115233
30
0
41
1
10
8.17685363145449
20
-2.26745387425916
30
0
41
1
10
8.18328720262915
20
-2.26158217537255
30
0
41
1
10
8.18586251386751
20
-2.25970476496866
30
0
41
1
10
8.19169671365222
20
-2.25618069057592
30
0
41
1
10
8.19497120082355
20
-2.25451999215849
30
0
41
1
10
8.20577512977184
20
-2.24982757176392
30
0
41
1
10
8.21393224766496
20
-2.24722175664158
30
0
41
1
10
8.22276715336662
20
-2.24499932910197
30
0
0
SPLINE
5
14C
100
AcDbEntity
8
1
62
256
6
ByLayer
370
18
48
1
60
0
100
AcDbSpline
70
4
71
3
72
31
73
27
40
0
40
0
40
0
40
0
40
0.0625000000000025
40
0.0625000000000025
40
0.125000000000005
40
0.125000000000005
40
0.187500000000007
40
0.187500000000007
40
0.25000000000001
40
0.25000000000001
40
0.312500000000012
40
0.312500000000012
40
0.375000000000015
40
0.375000000000015
40
0.437500000000017
40
0.437500000000017
40
0.50000000000002
40
0.50000000000002
40
0.625000000000015
40
0.625000000000015
40
0.75000000000001
40
0.75000000000001
40
0.812500000000008
40
0.812500000000008
40
0.875000000000005
40
1
40
1
40
1
40
1
41
1
10
8.22276715336659
20
-2.24499932910197
30
0
41
1
10
8.25978995651889
20
-2.23568621359195
30
0
41
1
10
8.29825478147635
20
-2.22812178243734
30
0
41
1
10
8.37702746607809
20
-2.21544351658559
30
0
41
1
10
8.41735541295287
20
-2.2103488970053
30
0
41
1
10
8.49942415340979
20
-2.2021532468134
30
0
41
1
10
8.54130382724844
20
-2.19905556288495
30
0
41
1
10
8.62505179675406
20
-2.19462828854094
30
0
41
1
10
8.66704378055582
20
-2.19328293918716
30
0
41
1
10
8.75122334590429
20
-2.19205822723558
30
0
41
1
10
8.79347552472964
20
-2.19218260852867
30
0
41
1
10
8.87774672530111
20
-2.19370357375371
30
0
41
1
10
8.91977822635798
20
-2.19509814269833
30
0
41
1
10
9.00365716608806
20
-2.1989862577997
30
0
41
1
10
9.0455407656396
20
-2.20148318620596
30
0
41
1
10
9.12895264578998
20
-2.20742630047056
30
0
41
1
10
9.17045914859324
20
-2.21087006733762
30
0
41
1
10
9.29443166242868
20
-2.22242220371572
30
0
41
1
10
9.37641197596798
20
-2.23176039680035
30
0
41
1
10
9.53807550158015
20
-2.25263120430563
30
0
41
1
10
9.61789518582373
20
-2.26417743829066
30
0
41
1
10
9.73629726602394
20
-2.28251748143876
30
0
41
1
10
9.77555211610792
20
-2.28880322259437
30
0
41
1
10
9.85343070925529
20
-2.30157635435603
30
0
41
1
10
9.96938481071936
20
-2.32105175528423
30
0
41
1
10
10.082928573118
20
-2.34101283672072
30
0
41
1
10
10.1577034903904
20
-2.3541482357297
30
0
0
SPLINE
5
14D
100
AcDbEntity
8
1
62
256
6
ByLayer
370
18
48
1
60
0
100
AcDbSpline
70
4
71
3
72
12
73
8
40
0
40
0
40
0
40
0
40
0.499999999999989
40
0.499999999999989
40
0.749999999999995
40
0.749999999999995
40
1
40
1
40
1
40
1
41
1
10
10.5000000000001
20
-2.40779701248886
30
0
41
1
10
10.3916811890421
20
-2.38699177327061
30
0
41
1
10
10.2831634824277
20
-2.36289617489848
30
0
41
1
10
10.1205910024293
20
-2.32164689329264
30
0
41
1
10
10.066443165752
20
-2.30703662464032
30
0
41
1
10
9.95820742807419
20
-2.27608484747668
30
0
41
1
10
9.9041674177206
20
-2.2597551520627
30
0
41
1
10
9.8501350324353
20
-2.24262129108538
30
0
0
SPLINE
5
14E
100
AcDbEntity
8
1
62
256
6
ByLayer
370
13
48
1
60
0
100
AcDbSpline
70
4
71
3
72
8
73
4
40
0
40
0
40
0
40
0
40
1
40
1
40
1
40
1
41
1
10
9.85013739494815
20
-2.24261964962304
30
0
41
1
10
9.85455386680826
20
-2.23958122014776
30
0
41
1
10
9.85897033866837
20
-2.23651734851251
30
0
41
1
10
9.86338681052848
20
-2.23342813899311
30
0
0
SPLINE
5
14F
100
AcDbEntity
8
1
62
256
6
ByLayer
370
18
48
1
60
0
100
AcDbSpline
70
4
71
3
72
18
73
14
40
0
40
0
40
0
40
0
40
0.249999999999999
40
0.249999999999999
40
0.374999999999998
40
0.374999999999998
40
0.499999999999996
40
0.499999999999996
40
0.749999999999997
40
0.749999999999997
40
0.874999999999999
40
0.874999999999999
40
1
40
1
40
1
40
1
41
1
10
9.86338681052155
20
-2.23342813899089
30
0
41
1
10
9.85359305036695
20
-2.21596700941998
30
0
41
1
10
9.84697515780667
20
-2.1975807141271
30
0
41
1
10
9.84240414021673
20
-2.16853221143171
30
0
41
1
10
9.84177584652016
20
-2.15860423888867
30
0
41
1
10
9.84245099460173
20
-2.13824003279706
30
0
41
1
10
9.84377466813345
20
-2.12774216912999
30
0
41
1
10
9.85071526773314
20
-2.09615754076901
30
0
41
1
10
9.85924952684709
20
-2.07486034920939
30
0
41
1
10
9.87781746335602
20
-2.04271502356085
30
0
41
1
10
9.88497059750108
20
-2.03196682783388
30
0
41
1
10
9.90121350493391
20
-2.01043280096627
30
0
41
1
10
9.91025660068743
20
-1.99971804998981
30
0
41
1
10
9.92006592089263
20
-1.98918834980824
30
0
0
SPLINE
5
150
100
AcDbEntity
8
1
62
256
6
ByLayer
370
18
48
1
60
0
100
AcDbSpline
70
4
71
3
72
26
73
22
40
0
40
0
40
0
40
0
40
0.250000000000068
40
0.250000000000068
40
0.37500000000006
40
0.37500000000006
40
0.500000000000051
40
0.500000000000051
40
0.562500000000044
40
0.562500000000044
40
0.625000000000038
40
0.625000000000038
40
0.687500000000032
40
0.687500000000032
40
0.750000000000025
40
0.750000000000025
40
0.812500000000019
40
0.812500000000019
40
0.875000000000013
40
0.875000000000013
40
1
40
1
40
1
40
1
41
1
10
8.5682781353722
20
-1.18796744619627
30
0
41
1
10
8.55978781435402
20
-1.17992495620729
30
0
41
1
10
8.55165912615564
20
-1.17159959887792
30
0
41
1
10
8.54050201716234
20
-1.15832118932124
30
0
41
1
10
8.53695180093308
20
-1.15374966552048
30
0
41
1
10
8.53049482453744
20
-1.1442983799104
30
0
41
1
10
8.52756605317114
20
-1.13941746460344
30
0
41
1
10
8.52403765908022
20
-1.13165495381315
30
0
41
1
10
8.52302152607223
20
-1.12901700541158
30
0
41
1
10
8.52146921833355
20
-1.12361981969053
30
0
41
1
10
8.52092970289903
20
-1.12083361271553
30
0
41
1
10
8.52063166632098
20
-1.11527465450052
30
0
41
1
10
8.52087919055981
20
-1.11243382713704
30
0
41
1
10
8.5224949528756
20
-1.10703220612265
30
0
41
1
10
8.52389779757061
20
-1.10444349891529
30
0
41
1
10
8.52768625320385
20
-1.10000674515939
30
0
41
1
10
8.53009350912245
20
-1.09811181476476
30
0
41
1
10
8.53531283306981
20
-1.09507102671179
30
0
41
1
10
8.53818632767059
20
-1.09387007854116
30
0
41
1
10
8.54697792280348
20
-1.09103406854021
30
0
41
1
10
8.55313516585278
20
-1.09007499280597
30
0
41
1
10
8.55936188713832
20
-1.08956100042113
30
0
0
SPLINE
5
151
100
AcDbEntity
8
1
62
256
6
ByLayer
370
18
48
1
60
0
100
AcDbSpline
70
4
71
3
72
25
73
21
40
0
40
0
40
0
40
0
40
0.250000000000009
40
0.250000000000009
40
0.375000000000047
40
0.375000000000047
40
0.500000000000085
40
0.500000000000085
40
0.562500000000074
40
0.562500000000074
40
0.625000000000064
40
0.687500000000054
40
0.687500000000054
40
0.750000000000043
40
0.750000000000043
40
0.875000000000023
40
0.875000000000023
40
0.937500000000011
40
0.937500000000011
40
1
40
1
40
1
40
1
41
1
10
8.55936188713827
20
-1.08956100042113
30
0
41
1
10
8.58434662814375
20
-1.08749860417348
30
0
41
1
10
8.6090439641662
20
-1.08399777883818
30
0
41
1
10
8.64536099514496
20
-1.07507437682838
30
0
41
1
10
8.65725387714122
20
-1.07148972361787
30
0
41
1
10
8.68019069207838
20
-1.06284097759627
30
0
41
1
10
8.69127635687471
20
-1.05777074381652
30
0
41
1
10
8.70714699268993
20
-1.04867814702169
30
0
41
1
10
8.71233972112972
20
-1.04537463548635
30
0
41
1
10
8.72222910687429
20
-1.03832978105874
30
0
41
1
10
8.73164118520299
20
-1.03084546763299
30
0
41
1
10
8.74004732994533
20
-1.02242979335719
30
0
41
1
10
8.74792259860456
20
-1.01351956698093
30
0
41
1
10
8.75161310447356
20
-1.00878509361226
30
0
41
1
10
8.76161092118252
20
-0.99416283820463
30
0
41
1
10
8.76692296010867
20
-0.983800159700678
30
0
41
1
10
8.77310449222941
20
-0.967425824944002
30
0
41
1
10
8.77486913329477
20
-0.961812599629496
30
0
41
1
10
8.77780059388223
20
-0.950485352446805
30
0
41
1
10
8.77897546689337
20
-0.944755176976514
30
0
41
1
10
8.77989179154898
20
-0.938964395149895
30
0
0
SPLINE
5
152
100
AcDbEntity
8
1
62
256
6
ByLayer
370
18
48
1
60
0
100
AcDbSpline
70
4
71
3
72
15
73
11
40
0
40
0
40
0
40
0
40
0.49999999999999
40
0.49999999999999
40
0.624999999999981
40
0.687499999999981
40
0.687499999999981
40
0.74999999999998
40
0.74999999999998
40
1
40
1
40
1
40
1
41
1
10
8.77989179154895
20
-0.938964395149895
30
0
41
1
10
8.66423236925181
20
-0.795882557896704
30
0
41
1
10
8.56213993836212
20
-0.641833273820396
30
0
41
1
10
8.45036841152924
20
-0.434950378241496
30
0
41
1
10
8.41802494508207
20
-0.371808681413711
30
0
41
1
10
8.38743547674028
20
-0.307021841681035
30
0
41
1
10
8.36742970197409
20
-0.26346074380794
30
0
41
1
10
8.35761519748056
20
-0.241481737523088
30
0
41
1
10
8.30973933616596
20
-0.131206139530519
30
0
41
1
10
8.27506737141272
20
-0.0413663224095728
30
0
41
1
10
8.24373584998824
20
0.0499984273654945
30
0
0
SPLINE
5
153
100
AcDbEntity
8
1
62
256
6
ByLayer
370
18
48
1
60
0
100
AcDbSpline
70
4
71
3
72
21
73
17
40
0
40
0
40
0
40
0
40
0.249999999999996
40
0.249999999999996
40
0.312499999999996
40
0.312499999999996
40
0.374999999999996
40
0.499999999999997
40
0.499999999999997
40
0.624999999999998
40
0.624999999999998
40
0.749999999999998
40
0.749999999999998
40
0.874999999999999
40
0.874999999999999
40
1
40
1
40
1
40
1
41
1
10
8.24373584998821
20
0.0499984273654945
30
0
41
1
10
8.23502172539668
20
0.0754093801893134
30
0
41
1
10
8.22900326729132
20
0.101353665324297
30
0
41
1
10
8.22625599759479
20
0.134733323903703
30
0
41
1
10
8.22595180640366
20
0.141467298381286
30
0
41
1
10
8.22587511761083
20
0.154808965607231
30
0
41
1
10
8.2265488901711
20
0.174713532429394
30
0
41
1
10
8.22966432383143
20
0.194285086009245
30
0
41
1
10
8.23617062379947
20
0.220061921795292
30
0
41
1
10
8.24065358912353
20
0.232845182606923
30
0
41
1
10
8.25162511540833
20
0.257015693629342
30
0
41
1
10
8.25813485518776
20
0.268543111835157
30
0
41
1
10
8.27304950386551
20
0.290568669771716
30
0
41
1
10
8.28149126640662
20
0.301085616159327
30
0
41
1
10
8.29962409307998
20
0.320648574415401
30
0
41
1
10
8.30936264046417
20
0.329776041405808
30
0
41
1
10
8.31968011855813
20
0.338341658610147
30
0
0
SPLINE
5
154
100
AcDbEntity
8
1
62
256
6
ByLayer
370
18
48
1
60
0
100
AcDbSpline
70
4
71
3
72
32
73
28
40
0
40
0
40
0
40
0
40
0.0312500000000035
40
0.0312500000000035
40
0.0625000000000069
40
0.0625000000000069
40
0.125000000000004
40
0.125000000000004
40
0.156250000000003
40
0.156250000000003
40
0.187500000000002
40
0.187500000000002
40
0.249999999999999
40
0.249999999999999
40
0.312499999999996
40
0.312499999999996
40
0.374999999999994
40
0.374999999999994
40
0.499999999999989
40
0.499999999999989
40
0.562499999999991
40
0.562499999999991
40
0.624999999999994
40
0.624999999999994
40
0.749999999999999
40
0.749999999999999
40
1
40
1
40
1
40
1
41
1
10
8.3196801185581
20
0.338341658610147
30
0
41
1
10
8.33531257035577
20
0.351319791138707
30
0
41
1
10
8.35156935569324
20
0.363122288612487
30
0
41
1
10
8.38505631399607
20
0.384901027783712
30
0
41
1
10
8.40228851980501
20
0.394873386564115
30
0
41
1
10
8.45518808901247
20
0.422541242130222
30
0
41
1
10
8.49204437262227
20
0.43801426993798
30
0
41
1
10
8.5491089421154
20
0.457917731066828
30
0
41
1
10
8.56838170440238
20
0.463972796852289
30
0
41
1
10
8.60710103741195
20
0.474998092476369
30
0
41
1
10
8.62658966597098
20
0.479982643648412
30
0
41
1
10
8.68539674912159
20
0.493543032319678
30
0
41
1
10
8.72511130910232
20
0.500743229533327
30
0
41
1
10
8.80501943262843
20
0.512075347294825
30
0
41
1
10
8.84512083495974
20
0.516195252554212
30
0
41
1
10
8.92557332313132
20
0.521822769621934
30
0
41
1
10
8.96597802347725
20
0.523325439685465
30
0
41
1
10
9.0868977899849
20
0.524357642842773
30
0
41
1
10
9.16726142370311
20
0.520468805197481
30
0
41
1
10
9.28749801842548
20
0.508954287604922
30
0
41
1
10
9.32756697283429
20
0.504152560866004
30
0
41
1
10
9.4073890877311
20
0.492775806004886
30
0
41
1
10
9.44711701058412
20
0.486206463010404
30
0
41
1
10
9.56578655722808
20
0.464012576729942
30
0
41
1
10
9.64424133495058
20
0.445903074378691
30
0
41
1
10
9.87758853582517
20
0.382514249641645
30
0
41
1
10
10.029032996659
20
0.328615236967693
30
0
41
1
10
10.1770860195464
20
0.264833342551213
30
0
0
SPLINE
5
155
100
AcDbEntity
8
1
62
256
6
ByLayer
370
13
48
1
60
0
100
AcDbSpline
70
4
71
3
72
9
73
5
40
0
40
0
40
0
40
0
40
0.499736291640938
40
1
40
1
40
1
40
1
41
1
10
9.85368942534308
20
2.47933113072654
30
0
41
1
10
9.85610945295133
20
2.47967773807773
30
0
41
1
10
9.86095206224087
20
2.48037131858607
30
0
41
1
10
9.86580788705459
20
2.48111742175959
30
0
41
1
10
9.86823707998303
20
2.48149067010002
30
0
0
SPLINE
5
156
100
AcDbEntity
8
1
62
256
6
ByLayer
370
18
48
1
60
0
100
AcDbSpline
70
4
71
3
72
12
73
8
40
0
40
0
40
0
40
0
40
0.25
40
0.25
40
0.5
40
0.5
40
1
40
1
40
1
40
1
41
1
10
9.8536897005379
20
2.47933116881995
30
0
41
1
10
9.90654105506906
20
2.47433313371479
30
0
41
1
10
9.95937929767007
20
2.46843068959654
30
0
41
1
10
10.0652338462736
20
2.45487241817591
30
0
41
1
10
10.1182611572195
20
2.44721578910324
30
0
41
1
10
10.2776278883604
20
2.42170128801976
30
0
41
1
10
10.3841419228705
20
2.40132641571557
30
0
41
1
10
10.4907521179988
20
2.37758838358411
30
0
0
SPLINE
5
157
100
AcDbEntity
8
1
62
256
6
ByLayer
370
18
48
1
60
0
100
AcDbSpline
70
4
71
3
72
8
73
4
40
0
40
0
40
0
40
0
40
1
40
1
40
1
40
1
41
1
10
10.4907521179988
20
2.37758838358408
30
0
41
1
10
10.4938346299873
20
2.37707240350463
30
0
41
1
10
10.4969172573594
20
2.37655516078021
30
0
41
1
10
10.5000000000001
20
2.3760366566658
30
0
0
SPLINE
5
158
100
AcDbEntity
8
1
62
256
6
ByLayer
370
18
48
1
60
0
100
AcDbSpline
70
4
71
3
72
53
73
49
40
0
40
0
40
0
40
0
40
0.0624999999999964
40
0.0624999999999964
40
0.0937499999999936
40
0.0937499999999936
40
0.124999999999991
40
0.124999999999991
40
0.187499999999985
40
0.187499999999985
40
0.218749999999984
40
0.218749999999984
40
0.249999999999982
40
0.249999999999982
40
0.312499999999976
40
0.312499999999976
40
0.343749999999975
40
0.359374999999974
40
0.359374999999974
40
0.374999999999973
40
0.374999999999973
40
0.437499999999971
40
0.437499999999971
40
0.49999999999997
40
0.49999999999997
40
0.531249999999968
40
0.531249999999968
40
0.562499999999966
40
0.562499999999966
40
0.624999999999965
40
0.624999999999965
40
0.656249999999965
40
0.656249999999965
40
0.687499999999965
40
0.749999999999965
40
0.749999999999965
40
0.765624999999966
40
0.765624999999966
40
0.781249999999967
40
0.781249999999967
40
0.812499999999971
40
0.874999999999981
40
0.874999999999981
40
0.906249999999986
40
0.906249999999986
40
0.93749999999999
40
0.93749999999999
40
1
40
1
40
1
40
1
41
1
10
10.5000000000001
20
2.3760366566658
30
0
41
1
10
10.6513155375096
20
2.34187021308827
30
0
41
1
10
10.8022588661886
20
2.30088899243111
30
0
41
1
10
11.0287901143801
20
2.22961038122787
30
0
41
1
10
11.1043202550443
20
2.20421579089816
30
0
41
1
10
11.2555414362435
20
2.15019916395988
30
0
41
1
10
11.3311470629068
20
2.1216035230662
30
0
41
1
10
11.5575858516074
20
2.03141157271642
30
0
41
1
10
11.7082623407617
20
1.96533824696382
30
0
41
1
10
11.9345423367317
20
1.85800253001395
30
0
41
1
10
12.0100125147694
20
1.82085137663364
30
0
41
1
10
12.1611467632592
20
1.74389768660131
30
0
41
1
10
12.2368680957284
20
1.70406213702259
30
0
41
1
10
12.463558492315
20
1.58120215492289
30
0
41
1
10
12.6142987569283
20
1.49469569395077
30
0
41
1
10
12.8404894810356
20
1.35873815726862
30
0
41
1
10
12.9536066958915
20
1.28921010226318
30
0
41
1
10
13.0668922485651
20
1.21749850467171
30
0
41
1
10
13.1424689326847
20
1.16922199634246
30
0
41
1
10
13.1803027529301
20
1.14483688248819
30
0
41
1
10
13.3692893635398
20
1.02201383688674
30
0
41
1
10
13.5200475224497
20
0.920798960135784
30
0
41
1
10
13.8216452035509
20
0.713729873739652
30
0
41
1
10
13.9724834109381
20
0.60787487631697
30
0
41
1
10
14.1994245981048
20
0.446414133541168
30
0
41
1
10
14.2750266492687
20
0.392259801526535
30
0
41
1
10
14.4260055430743
20
0.283608807950344
30
0
41
1
10
14.5014212158763
20
0.229084671214309
30
0
41
1
10
14.7276136121828
20
0.0651463101842182
30
0
41
1
10
14.8783318854412
20
-0.0446394915186374
30
0
41
1
10
15.1049968460911
20
-0.209091055715532
30
0
41
1
10
15.1806778424158
20
-0.263888894267296
30
0
41
1
10
15.3317145881142
20
-0.372776459089636
30
0
41
1
10
15.5580161209354
20
-0.535218210901974
30
0
41
1
10
15.7840975705783
20
-0.694273908443705
30
0
41
1
10
15.9729245389091
20
-0.824199393024429
30
0
41
1
10
16.0107110028065
20
-0.850053668719454
30
0
41
1
10
16.0863389151416
20
-0.901482845977739
30
0
41
1
10
16.1241871620182
20
-0.927062160674495
30
0
41
1
10
16.2375958120507
20
-1.00319637474189
30
0
41
1
10
16.4641008068076
20
-1.15320901392934
30
0
41
1
10
16.6901635817331
20
-1.29587741453537
30
0
41
1
10
16.9166246624405
20
-1.43281556131234
30
0
41
1
10
16.9922332578522
20
-1.47753753907156
30
0
41
1
10
17.1434523790637
20
-1.56477563121388
30
0
41
1
10
17.2189505500524
20
-1.6072280812042
30
0
41
1
10
17.4452882103237
20
-1.73091254727646
30
0
41
1
10
17.5959738804932
20
-1.80846761662781
30
0
41
1
10
17.7468998540814
20
-1.88068320903693
30
0
0
SPLINE
5
159
100
AcDbEntity
8
1
62
256
6
ByLayer
370
18
48
1
60
0
100
AcDbSpline
70
4
71
3
72
23
73
19
40
0
40
0
40
0
40
0
40
0.0623653004339446
40
0.124734168067474
40
0.187109979813278
40
0.249496019031763
40
0.311895476975924
40
0.374311454240173
40
0.436746962211234
40
0.499204924519393
40
0.561688178488518
40
0.624199476583532
40
0.686741487853437
40
0.749316799369138
40
0.811927917654682
40
0.874577270110745
40
0.937267206429514
40
1
40
1
40
1
40
1
41
1
10
10.1255597560378
20
0.960253457624134
30
0
41
1
10
10.1201929191698
20
0.953096653930743
30
0
41
1
10
10.1094589384587
20
0.938782637185767
30
0
41
1
10
10.0934886976821
20
0.917388612586421
30
0
41
1
10
10.0776141199728
20
0.896052021741752
30
0
41
1
10
10.0618446393452
20
0.874779220631069
30
0
41
1
10
10.046177802164
20
0.853569616761064
30
0
41
1
10
10.0306143356792
20
0.83242442068763
30
0
41
1
10
10.0151541093012
20
0.811344300350925
30
0
41
1
10
9.99979721881559
20
0.790330011057875
30
0
41
1
10
9.98454369025575
20
0.769382222519255
30
0
41
1
10
9.96939358071774
20
0.748501581204437
30
0
41
1
10
9.95434687215709
20
0.727688634640231
30
0
41
1
10
9.93940379642234
20
0.706944072764401
30
0
41
1
10
9.92456364126096
20
0.686267838337244
30
0
41
1
10
9.90982920569618
20
0.665662447464399
30
0
41
1
10
9.89519015890093
20
0.645120587209874
30
0
41
1
10
9.88552360709249
20
0.631492643691473
30
0
41
1
10
9.88068867964614
20
0.624676343581569
30
0
0
SPLINE
5
15A
100
AcDbEntity
8
1
62
256
6
ByLayer
370
18
48
1
60
0
100
AcDbSpline
70
4
71
3
72
9
73
5
40
0
40
0
40
0
40
0
40
0.171310318553097
40
1
40
1
40
1
40
1
41
1
10
9.88564344574166
20
2.47459145916454
30
0
41
1
10
9.88464527551469
20
2.4749756678402
30
0
41
1
10
9.8788238079963
20
2.47723055343397
30
0
41
1
10
9.87303456549836
20
2.47956015408178
30
0
41
1
10
9.86823707997692
20
2.48149067010056
30
0
0
SPLINE
5
15B
100
AcDbEntity
8
1
62
256
6
ByLayer
370
18
48
1
60
0
100
AcDbSpline
70
4
71
3
72
29
73
25
40
0
40
0
40
0
40
0
40
0.0375847729383242
40
0.0649556777976949
40
0.0923265826570656
40
0.119697487516436
40
0.147068392375807
40
0.174439297235178
40
0.201810202094549
40
0.25655201181329
40
0.366035631250773
40
0.393406536110143
40
0.420777440969514
40
0.475519250688256
40
0.530261060406997
40
0.585002870125739
40
0.63974467984448
40
0.694486489563221
40
0.749228299281963
40
0.803970109000704
40
0.858711918719446
40
0.913453728438187
40
0.968195538156929
40
1
40
1
40
1
40
1
41
1
10
9.8682370799774
20
2.4814906701005
30
0
41
1
10
9.96526751675862
20
2.47299341625194
30
0
41
1
10
10.1328478048315
20
2.45319660934462
30
0
41
1
10
10.3706655285411
20
2.41280587801577
30
0
41
1
10
10.5818340394553
20
2.36787217036334
30
0
41
1
10
10.7926255102028
20
2.31411069211151
30
0
41
1
10
11.0030424323802
20
2.25179467083652
30
0
41
1
10
11.2130765356143
20
2.18121390600263
30
0
41
1
10
11.4925929303512
20
2.0764561703109
30
0
41
1
10
11.980510175003
20
1.86616679776293
30
0
41
1
10
12.4673115253834
20
1.60686841289081
30
0
41
1
10
12.8856693070515
20
1.35666677319748
30
0
41
1
10
13.1649917449811
20
1.18288331180349
30
0
41
1
10
13.5151698427827
20
0.953497066147207
30
0
41
1
10
13.9377577804407
20
0.66240031058274
30
0
41
1
10
14.3635105026449
20
0.359083955351593
30
0
41
1
10
14.7932873793212
20
0.0473594818436709
30
0
41
1
10
15.2279713769324
20
-0.268778665651922
30
0
41
1
10
15.6684761983811
20
-0.584764988585647
30
0
41
1
10
16.1158090611516
20
-0.895873692324102
30
0
41
1
10
16.5710996139967
20
-1.19711297599008
30
0
41
1
10
17.0355498428113
20
-1.48288890689943
30
0
41
1
10
17.4442770537364
20
-1.71021353444723
30
0
41
1
10
17.6996597218455
20
-1.8379562111223
30
0
41
1
10
17.7942332735748
20
-1.88314779186501
30
0
0
SPLINE
5
15C
100
AcDbEntity
8
1
62
256
6
ByLayer
370
18
48
1
60
0
100
AcDbSpline
70
4
71
3
72
42
73
38
40
0
40
0
40
0
40
0
40
0.0850105184339926
40
0.0850105184339926
40
0.12751577765099
40
0.12751577765099
40
0.170021036867988
40
0.170021036867988
40
0.255031555301983
40
0.255031555301983
40
0.29753681451898
40
0.29753681451898
40
0.340042073735978
40
0.340042073735978
40
0.425052592169975
40
0.425052592169975
40
0.467557851386974
40
0.467557851386974
40
0.510063110603973
40
0.510063110603973
40
0.59507362903797
40
0.59507362903797
40
0.616326258646469
40
0.616326258646469
40
0.637578888254967
40
0.637578888254967
40
0.680084147471966
40
0.680084147471966
40
0.850105184339959
40
0.850105184339959
40
0.935115702773956
40
0.935115702773956
40
0.956368332382454
40
0.956368332382454
40
0.977620961990952
40
0.977620961990952
40
1
40
1
40
1
40
1
41
1
10
10.5000000000001
20
0.126216802264395
30
0
41
1
10
10.6520024082567
20
0.0097264340637366
30
0
41
1
10
10.8035670552012
20
-0.106863266744597
30
0
41
1
10
11.0310669744898
20
-0.280845935869365
30
0
41
1
10
11.1069263853531
20
-0.338688861579641
30
0
41
1
10
11.2588453103244
20
-0.453877186503519
30
0
41
1
10
11.3347582463435
20
-0.511109660321665
30
0
41
1
10
11.5621580581602
20
-0.681125517399551
30
0
41
1
10
11.7134868362241
20
-0.792358588573194
30
0
41
1
10
11.94090892748
20
-0.955045844188618
30
0
41
1
10
12.0167869044565
20
-1.00858174751784
30
0
41
1
10
12.1688134831166
20
-1.11410558482979
30
0
41
1
10
12.2447325165808
20
-1.16593349550297
30
0
41
1
10
12.4722212891133
20
-1.31831311486781
30
0
41
1
10
12.6235820028805
20
-1.41583163341147
30
0
41
1
10
12.8509825201262
20
-1.55505738119535
30
0
41
1
10
12.9268651372563
20
-1.60029919789295
30
0
41
1
10
13.0788164627799
20
-1.68819468028192
30
0
41
1
10
13.1546572946047
20
-1.73071443444837
30
0
41
1
10
13.381998384733
20
-1.85383017481709
30
0
41
1
10
13.5333192015888
20
-1.92999246911907
30
0
41
1
10
13.7228772970363
20
-2.0172409118297
30
0
41
1
10
13.760809095326
20
-2.03429256324352
30
0
41
1
10
13.8367300816949
20
-2.06758421450499
30
0
41
1
10
13.874751257025
20
-2.08383737726831
30
0
41
1
10
13.9886735637169
20
-2.13125060757784
30
0
41
1
10
14.0643664498396
20
-2.1610399434017
30
0
41
1
10
14.4418764153357
20
-2.30085544691144
30
0
41
1
10
14.7407432047683
20
-2.38358544673352
30
0
41
1
10
15.1907685977221
20
-2.46153832471654
30
0
41
1
10
15.341073938575
20
-2.47982748576632
30
0
41
1
10
15.5300354260205
20
-2.49271629141862
30
0
41
1
10
15.5678817546808
20
-2.49479504391442
30
0
41
1
10
15.6437003974912
20
-2.49794371757028
30
0
41
1
10
15.6817054996448
20
-2.49901383990181
30
0
41
1
10
15.7596964113079
20
-2.50016193107913
30
0
41
1
10
15.7996657545466
20
-2.50018550465427
30
0
41
1
10
15.8396117489084
20
-2.49964612621267
30
0
0
SPLINE
5
15D
100
AcDbEntity
8
1
62
256
6
ByLayer
370
18
48
1
60
0
100
AcDbSpline
70
4
71
3
72
28
73
24
40
0
40
0
40
0
40
0
40
0.0398142893103705
40
0.0713821396233332
40
0.102949989936296
40
0.134517840249259
40
0.166085690562221
40
0.197653540875184
40
0.229221391188146
40
0.292357091814072
40
0.418628493065922
40
0.450196343378885
40
0.481764193691848
40
0.544899894317773
40
0.608035594943698
40
0.671171295569624
40
0.702739145882586
40
0.734306996195549
40
0.797442696821474
40
0.8605783974474
40
0.923714098073325
40
0.98684979869925
40
1
40
1
40
1
40
1
41
1
10
9.88068867964614
20
0.624676343581569
30
0
41
1
10
9.96972077997361
20
0.558539753060899
30
0
41
1
10
10.129237522759
20
0.438788721146977
30
0
41
1
10
10.3589215343428
20
0.264168251014127
30
0
41
1
10
10.569834004973
20
0.10270018554607
30
0
41
1
10
10.7803276388516
20
-0.0588897300773112
30
0
41
1
10
10.9904110587746
20
-0.219937053137414
30
0
41
1
10
11.2000781850678
20
-0.379749484274725
30
0
41
1
10
11.4790680786734
20
-0.590275969636537
30
0
41
1
10
11.965958505798
20
-0.94984072809595
30
0
41
1
10
12.4516167816344
20
-1.28433579985736
30
0
41
1
10
12.8690396365102
20
-1.54282055011367
30
0
41
1
10
13.1477585722876
20
-1.70695881297686
30
0
41
1
10
13.4972361914563
20
-1.89547823662002
30
0
41
1
10
13.9191146437372
20
-2.09144323867244
30
0
41
1
10
14.2734491276928
20
-2.22656382674606
30
0
41
1
10
14.5590557751179
20
-2.31606304536135
30
0
41
1
10
14.8462434735442
20
-2.3926180952495
30
0
41
1
10
15.2085085865205
20
-2.46297929168779
30
0
41
1
10
15.6495671978909
20
-2.50397409703788
30
0
41
1
10
16.0981538362535
20
-2.49872315910841
30
0
41
1
10
16.4348989960154
20
-2.45891351884319
30
0
41
1
10
16.6216705356889
20
-2.42472878822596
30
0
41
1
10
16.6539438843776
20
-2.41846531669142
30
0
0
SPLINE
5
15E
100
AcDbEntity
8
1
62
256
6
ByLayer
370
18
48
1
60
0
100
AcDbSpline
70
4
71
3
72
12
73
8
40
0
40
0
40
0
40
0
40
0.5
40
0.5
40
0.75
40
0.75
40
1
40
1
40
1
40
1
41
1
10
10.4934407975254
20
0.129017982648463
30
0
41
1
10
10.3882648334605
20
0.208722456858993
30
0
41
1
10
10.2832421494209
20
0.2881970303782
30
0
41
1
10
10.1262697683896
20
0.407482012678685
30
0
41
1
10
10.0740202390502
20
0.447270823398043
30
0
41
1
10
9.96977397546146
20
0.526674834404247
30
0
41
1
10
9.91777213536858
20
0.566296734979403
30
0
41
1
10
9.86577702968233
20
0.605692535662826
30
0
0
SPLINE
5
15F
100
AcDbEntity
8
1
62
256
6
ByLayer
370
18
48
1
60
0
100
AcDbSpline
70
4
71
3
72
8
73
4
40
0
40
0
40
0
40
0
40
1
40
1
40
1
40
1
41
1
10
10.4934407975256
20
0.129017982648321
30
0
41
1
10
10.4956271865047
20
0.128084237134431
30
0
41
1
10
10.4978135873272
20
0.127150510336008
30
0
41
1
10
10.5000000000001
20
0.126216802264395
30
0
0
SPLINE
5
160
100
AcDbEntity
8
1
62
256
6
ByLayer
370
18
48
1
60
0
100
AcDbSpline
70
4
71
3
72
10
73
6
40
0
40
0
40
0
40
0
40
0.43752987925489
40
0.974810091168313
40
1
40
1
40
1
40
1
41
1
10
12.8985009765041
20
-2.19259330609242
30
0
41
1
10
13.0438202052823
20
-2.18615124948968
30
0
41
1
10
13.3667423113178
20
-2.16354860357416
30
0
41
1
10
13.6955347712837
20
-2.12094485216383
30
0
41
1
10
13.8801594644206
20
-2.09119266641642
30
0
41
1
10
13.8884271412552
20
-2.08984860832118
30
0
0
SPLINE
5
161
100
AcDbEntity
8
1
62
256
6
ByLayer
370
18
48
1
60
0
100
AcDbSpline
70
4
71
3
72
9
73
5
40
0
40
0
40
0
40
0
40
0.634183460284893
40
1
40
1
40
1
40
1
41
1
10
17.5091449707471
20
1.76099286909738
30
0
41
1
10
17.3414677954511
20
1.81100105975756
30
0
41
1
10
17.0769103223452
20
1.8835906393021
30
0
41
1
10
16.8121977720615
20
1.94650028738911
30
0
41
1
10
16.7153065492266
20
1.96814707897249
30
0
0
SPLINE
5
162
100
AcDbEntity
8
1
62
256
6
ByLayer
370
18
48
1
60
0
100
AcDbSpline
70
4
71
2
72
6
73
3
40
0
40
0
40
0
40
1
40
1
40
1
41
1
10
14.4010328912028
20
1.16931683163563
30
0
41
1
10
13.9433677702918
20
1.28393415757336
30
0
41
1
10
13.4818971057521
20
1.49900244451339
30
0
0
SPLINE
5
163
100
AcDbEntity
8
1
62
256
6
ByLayer
370
18
48
1
60
0
100
AcDbSpline
70
4
71
1
72
4
73
2
40
0
40
0
40
1
40
1
41
1
10
17.1228610826587
20
-2.19294618306827
30
0
41
1
10
17.3914094092121
20
-2.17580104984788
30
0
0
SPLINE
5
164
100
AcDbEntity
8
1
62
256
6
ByLayer
370
18
48
1
60
0
100
AcDbSpline
70
4
71
2
72
6
73
3
40
0
40
0
40
0
40
1
40
1
40
1
41
1
10
13.8293425571262
20
1.25177689118936
30
0
41
1
10
13.8293412364819
20
1.25176638631382
30
0
41
1
10
13.8293399158375
20
1.25175604090634
30
0
0
LINE
5
77
100
AcDbEntity
8
80
62
256
6
ByLayer
370
18
48
1
60
0
100
AcDbLine
10
0
20
0
30
0
11
-5
21
0
31
0
39
0
210
0
220
0
230
1
0
LINE
5
78
100
AcDbEntity
8
4
62
256
6
ByLayer
370
18
48
0.05
60
0
100
AcDbLine
10
0
20
0
30
0
11
18
21
0
31
0
39
0
210
0
220
0
230
1
0
LINE
5
7A
100
AcDbEntity
8
81
62
256
6
ByLayer
370
18
48
1
60
0
100
AcDbLine
10
18
20
0
30
0
11
23
21
0
31
0
39
0
210
0
220
0
230
1
0
LINE
5
7B
100
AcDbEntity
8
SK4
62
256
6
ByLayer
370
18
48
0.05
60
0
100
AcDbLine
10
-36
20
0
30
0
11
18
21
0
31
0
39
0
210
0
220
0
230
1
0
LINE
5
7D
100
AcDbEntity
8
1
62
256
6
ByLayer
370
18
48
1
60
0
100
AcDbLine
10
0
20
3
30
0
11
0
21
0
31
0
39
0
210
0
220
0
230
1
0
LINE
5
7E
100
AcDbEntity
8
1
62
256
6
ByLayer
370
18
48
1
60
0
100
AcDbLine
10
0
20
0
30
0
11
0
21
-3
31
0
39
0
210
0
220
0
230
1
0
LINE
5
7F
100
AcDbEntity
8
1
62
256
6
ByLayer
370
18
48
1
60
0
100
AcDbLine
10
17.971566
20
0.551496
30
0
11
17.996678
21
0.548461
31
0
39
0
210
0
220
0
230
1
0
LINE
5
80
100
AcDbEntity
8
1
62
256
6
ByLayer
370
18
48
1
60
0
100
AcDbLine
10
17.996678
20
0.548461
30
0
11
17.954613
21
0.213548
31
0
39
0
210
0
220
0
230
1
0
LINE
5
81
100
AcDbEntity
8
1
62
256
6
ByLayer
370
18
48
1
60
0
100
AcDbLine
10
17.964979
20
0.298535
30
0
11
17.996678
21
0.548461
31
0
39
0
210
0
220
0
230
1
0
LINE
5
82
100
AcDbEntity
8
1
62
256
6
ByLayer
370
18
48
1
60
0
100
AcDbLine
10
17.954613
20
0.213548
30
0
11
17.935426
21
0.062284
31
0
39
0
210
0
220
0
230
1
0
LINE
5
83
100
AcDbEntity
8
1
62
256
6
ByLayer
370
18
48
1
60
0
100
AcDbLine
10
17.935464
20
0.063814
30
0
11
17.964979
21
0.298535
31
0
39
0
210
0
220
0
230
1
0
LINE
5
84
100
AcDbEntity
8
1
62
256
6
ByLayer
370
18
48
1
60
0
100
AcDbLine
10
17.9415
20
0.291962
30
0
11
17.964979
21
0.298535
31
0
39
0
210
0
220
0
230
1
0
LINE
5
85
100
AcDbEntity
8
1
62
256
6
ByLayer
370
18
48
1
60
0
100
AcDbLine
10
17.765966
20
-0.41879
30
0
11
17.916801
21
-0.064569
31
0
39
0
210
0
220
0
230
1
0
LINE
5
86
100
AcDbEntity
8
1
62
256
6
ByLayer
370
18
48
1
60
0
100
AcDbLine
10
17.996678
20
-1.935604
30
0
11
17.954613
21
-2.048667
31
0
39
0
210
0
220
0
230
1
0
LINE
5
87
100
AcDbEntity
8
1
62
256
6
ByLayer
370
18
48
1
60
0
100
AcDbLine
10
17.99247
20
-1.803907
30
0
11
17.996678
21
-1.935604
31
0
39
0
210
0
220
0
230
1
0
LINE
5
88
100
AcDbEntity
8
1
62
256
6
ByLayer
370
18
48
1
60
0
100
AcDbLine
10
17.936116
20
0.089304
30
0
11
17.941683
21
0.298827
31
0
39
0
210
0
220
0
230
1
0
LINE
5
89
100
AcDbEntity
8
1
62
256
6
ByLayer
370
18
48
1
60
0
100
AcDbLine
10
17.96433
20
1.1512
30
0
11
17.996678
21
2.368662
31
0
39
0
210
0
220
0
230
1
0
LINE
5
8A
100
AcDbEntity
8
1
62
256
6
ByLayer
370
18
48
1
60
0
100
AcDbLine
10
17.883625
20
2.480392
30
0
11
17.996678
21
2.368662
31
0
39
0
210
0
220
0
230
1
0
LINE
5
8B
100
AcDbEntity
8
1
62
256
6
ByLayer
370
18
48
1
60
0
100
AcDbLine
10
17.923191
20
-0.065249
30
0
11
17.908828
21
-0.063717
31
0
39
0
210
0
220
0
230
1
0
LINE
5
8C
100
AcDbEntity
8
1
62
256
6
ByLayer
370
18
48
1
60
0
100
AcDbLine
10
17.923191
20
-0.065249
30
0
11
17.933459
21
-0.031113
31
0
39
0
210
0
220
0
230
1
0
LINE
5
8D
100
AcDbEntity
8
1
62
256
6
ByLayer
370
18
48
1
60
0
100
AcDbLine
10
17.954613
20
-2.048667
30
0
11
17.849072
21
-2.20437
31
0
39
0
210
0
220
0
230
1
0
LINE
5
8E
100
AcDbEntity
8
1
62
256
6
ByLayer
370
18
48
1
60
0
100
AcDbLine
10
17.954613
20
-2.048667
30
0
11
17.947852
21
-1.834397
31
0
39
0
210
0
220
0
230
1
0
LINE
5
8F
100
AcDbEntity
8
1
62
256
6
ByLayer
370
13
48
1
60
0
100
AcDbLine
10
17.852397
20
0.276665
30
0
11
17.936116
21
0.089304
31
0
39
0
210
0
220
0
230
1
0
LINE
5
90
100
AcDbEntity
8
1
62
256
6
ByLayer
370
13
48
1
60
0
100
AcDbLine
10
10.173341
20
2.424558
30
0
11
10.5
21
2.221717
31
0
39
0
210
0
220
0
230
1
0
LINE
5
91
100
AcDbEntity
8
1
62
256
6
ByLayer
370
13
48
1
60
0
100
AcDbLine
10
8.323687
20
2.475854
30
0
11
10.5
21
1.124454
31
0
39
0
210
0
220
0
230
1
0
LINE
5
92
100
AcDbEntity
8
1
62
256
6
ByLayer
370
18
48
1
60
0
100
AcDbLine
10
8.689475
20
-2.494061
30
0
11
9.414845
21
-2.238758
31
0
39
0
210
0
220
0
230
1
0
LINE
5
93
100
AcDbEntity
8
1
62
256
6
ByLayer
370
13
48
1
60
0
100
AcDbLine
10
16.853475
20
-1.387287
30
0
11
16.78705
21
-1.494536
31
0
39
0
210
0
220
0
230
1
0
LINE
5
94
100
AcDbEntity
8
1
62
256
6
ByLayer
370
18
48
1
60
0
100
AcDbLine
10
10.5
20
1.088794
30
0
11
10.5
21
1.124454
31
0
39
0
210
0
220
0
230
1
0
LINE
5
95
100
AcDbEntity
8
1
62
256
6
ByLayer
370
13
48
1
60
0
100
AcDbLine
10
17.867234
20
-0.020661
30
0
11
17.908828
21
-0.063717
31
0
39
0
210
0
220
0
230
1
0
LINE
5
96
100
AcDbEntity
8
1
62
256
6
ByLayer
370
18
48
1
60
0
100
AcDbLine
10
17.956799
20
-0.680648
30
0
11
17.996678
21
-1.801033
31
0
39
0
210
0
220
0
230
1
0
LINE
5
97
100
AcDbEntity
8
1
62
256
6
ByLayer
370
18
48
1
60
0
100
AcDbLine
10
17.921908
20
-0.595314
30
0
11
17.956799
21
-0.680648
31
0
39
0
210
0
220
0
230
1
0
LINE
5
98
100
AcDbEntity
8
1
62
256
6
ByLayer
370
18
48
1
60
0
100
AcDbLine
10
17.954613
20
-1.522224
30
0
11
17.921908
21
-0.595314
31
0
39
0
210
0
220
0
230
1
0
LINE
5
99
100
AcDbEntity
8
1
62
256
6
ByLayer
370
18
48
1
60
0
100
AcDbLine
10
17.621691
20
-0.255479
30
0
11
17.921908
21
-0.595314
31
0
39
0
210
0
220
0
230
1
0
LINE
5
9A
100
AcDbEntity
8
1
62
256
6
ByLayer
370
18
48
1
60
0
100
AcDbLine
10
17.884049
20
-1.878015
30
0
11
17.996678
21
-1.801033
31
0
39
0
210
0
220
0
230
1
0
LINE
5
9B
100
AcDbEntity
8
1
62
256
6
ByLayer
370
18
48
1
60
0
100
AcDbLine
10
17.996678
20
-1.801033
30
0
11
17.954613
21
-1.522224
31
0
39
0
210
0
220
0
230
1
0
LINE
5
9C
100
AcDbEntity
8
1
62
256
6
ByLayer
370
18
48
1
60
0
100
AcDbLine
10
17.954613
20
-1.522224
30
0
11
17.851499
21
-1.344086
31
0
39
0
210
0
220
0
230
1
0
LINE
5
9D
100
AcDbEntity
8
1
62
256
6
ByLayer
370
18
48
1
60
0
100
AcDbLine
10
8.287067
20
2.462934
30
0
11
10.5
21
1.088794
31
0
39
0
210
0
220
0
230
1
0
LINE
5
9E
100
AcDbEntity
8
1
62
256
6
ByLayer
370
18
48
1
60
0
100
AcDbLine
10
8.786232
20
1.958992
30
0
11
10.5
21
0.894814
31
0
39
0
210
0
220
0
230
1
0
LINE
5
9F
100
AcDbEntity
8
1
62
256
6
ByLayer
370
13
48
1
60
0
100
AcDbLine
10
8.717626
20
1.950751
30
0
11
10.5
21
0.843971
31
0
39
0
210
0
220
0
230
1
0
LINE
5
A0
100
AcDbEntity
8
1
62
256
6
ByLayer
370
18
48
1
60
0
100
AcDbLine
10
10.5
20
-1.887714
30
0
11
10.5
21
-2.091018
31
0
39
0
210
0
220
0
230
1
0
LINE
5
A1
100
AcDbEntity
8
1
62
256
6
ByLayer
370
18
48
1
60
0
100
AcDbLine
10
10.5
20
-1.887714
30
0
11
10.5
21
-1.792538
31
0
39
0
210
0
220
0
230
1
0
LINE
5
A2
100
AcDbEntity
8
1
62
256
6
ByLayer
370
18
48
1
60
0
100
AcDbLine
10
10.5
20
0.894814
30
0
11
10.5
21
1.088794
31
0
39
0
210
0
220
0
230
1
0
LINE
5
A3
100
AcDbEntity
8
1
62
256
6
ByLayer
370
18
48
1
60
0
100
AcDbLine
10
17.996678
20
0.951696
30
0
11
17.954613
21
1.211122
31
0
39
0
210
0
220
0
230
1
0
LINE
5
A4
100
AcDbEntity
8
1
62
256
6
ByLayer
370
18
48
1
60
0
100
AcDbLine
10
17.954613
20
1.211122
30
0
11
17.854118
21
1.449398
31
0
39
0
210
0
220
0
230
1
0
LINE
5
A5
100
AcDbEntity
8
1
62
256
6
ByLayer
370
18
48
1
60
0
100
AcDbLine
10
17.885267
20
1.00776
30
0
11
17.996678
21
0.951696
31
0
39
0
210
0
220
0
230
1
0
LINE
5
A6
100
AcDbEntity
8
1
62
256
6
ByLayer
370
13
48
1
60
0
100
AcDbLine
10
17.191161
20
0.679179
30
0
11
17.634524
21
0.22023
31
0
39
0
210
0
220
0
230
1
0
LINE
5
A7
100
AcDbEntity
8
1
62
256
6
ByLayer
370
18
48
1
60
0
100
AcDbLine
10
17.955935
20
0.302334
30
0
11
17.669872
21
0.231387
31
0
39
0
210
0
220
0
230
1
0
LINE
5
A8
100
AcDbEntity
8
1
62
256
6
ByLayer
370
18
48
1
60
0
100
AcDbLine
10
17.955935
20
0.302334
30
0
11
17.996678
21
0.951696
31
0
39
0
210
0
220
0
230
1
0
LINE
5
A9
100
AcDbEntity
8
1
62
256
6
ByLayer
370
18
48
1
60
0
100
AcDbLine
10
10.5
20
0.778188
30
0
11
10.5
21
0.843971
31
0
39
0
210
0
220
0
230
1
0
LINE
5
AA
100
AcDbEntity
8
1
62
256
6
ByLayer
370
13
48
1
60
0
100
AcDbLine
10
8.726461
20
1.879482
30
0
11
10.5
21
0.778188
31
0
39
0
210
0
220
0
230
1
0
LINE
5
AB
100
AcDbEntity
8
1
62
256
6
ByLayer
370
18
48
1
60
0
100
AcDbLine
10
10.5
20
-1.792538
30
0
11
10.5
21
-1.562056
31
0
39
0
210
0
220
0
230
1
0
LINE
5
AC
100
AcDbEntity
8
1
62
256
6
ByLayer
370
18
48
1
60
0
100
AcDbLine
10
10.5
20
1.124454
30
0
11
10.5
21
2.221717
31
0
39
0
210
0
220
0
230
1
0
LINE
5
AD
100
AcDbEntity
8
1
62
256
6
ByLayer
370
18
48
1
60
0
100
AcDbLine
10
10.5
20
-1.562056
30
0
11
10.5
21
-0.767311
31
0
39
0
210
0
220
0
230
1
0
LINE
5
AE
100
AcDbEntity
8
1
62
256
6
ByLayer
370
18
48
1
60
0
100
AcDbLine
10
10.5
20
0.136927
30
0
11
10.5
21
-0.451458
31
0
39
0
210
0
220
0
230
1
0
LINE
5
AF
100
AcDbEntity
8
1
62
256
6
ByLayer
370
18
48
1
60
0
100
AcDbLine
10
10.5
20
-0.767311
30
0
11
10.5
21
-0.451458
31
0
39
0
210
0
220
0
230
1
0
LINE
5
B0
100
AcDbEntity
8
1
62
256
6
ByLayer
370
18
48
1
60
0
100
AcDbLine
10
10.5
20
0.778188
30
0
11
10.5
21
0.730843
31
0
39
0
210
0
220
0
230
1
0
LINE
5
B1
100
AcDbEntity
8
1
62
256
6
ByLayer
370
18
48
1
60
0
100
AcDbLine
10
10.5
20
2.376037
30
0
11
10.5
21
2.221717
31
0
39
0
210
0
220
0
230
1
0
LINE
5
B2
100
AcDbEntity
8
1
62
256
6
ByLayer
370
13
48
1
60
0
100
AcDbLine
10
8.175816
20
-2.288071
30
0
11
8.352527
21
-2.225875
31
0
39
0
210
0
220
0
230
1
0
LINE
5
B3
100
AcDbEntity
8
1
62
256
6
ByLayer
370
13
48
1
60
0
100
AcDbLine
10
8.568278
20
-1.187967
30
0
11
10.5
21
-1.887714
31
0
39
0
210
0
220
0
230
1
0
LINE
5
B4
100
AcDbEntity
8
1
62
256
6
ByLayer
370
18
48
1
60
0
100
AcDbLine
10
10.5
20
0.843971
30
0
11
10.5
21
0.894814
31
0
39
0
210
0
220
0
230
1
0
LINE
5
B5
100
AcDbEntity
8
1
62
256
6
ByLayer
370
13
48
1
60
0
100
AcDbLine
10
8.559362
20
-1.089561
30
0
11
10.5
21
-1.792538
31
0
39
0
210
0
220
0
230
1
0
LINE
5
B6
100
AcDbEntity
8
1
62
256
6
ByLayer
370
18
48
1
60
0
100
AcDbLine
10
8.779892
20
-0.938964
30
0
11
10.5
21
-1.562056
31
0
39
0
210
0
220
0
230
1
0
LINE
5
B7
100
AcDbEntity
8
1
62
256
6
ByLayer
370
13
48
1
60
0
100
AcDbLine
10
8.243736
20
0.049998
30
0
11
10.5
21
-0.767311
31
0
39
0
210
0
220
0
230
1
0
LINE
5
B8
100
AcDbEntity
8
1
62
256
6
ByLayer
370
13
48
1
60
0
100
AcDbLine
10
8.31968
20
0.338342
30
0
11
10.5
21
-0.451458
31
0
39
0
210
0
220
0
230
1
0
LINE
5
B9
100
AcDbEntity
8
1
62
256
6
ByLayer
370
18
48
1
60
0
100
AcDbLine
10
10.5
20
-2.407836
30
0
11
10.5
21
-2.407797
31
0
39
0
210
0
220
0
230
1
0
LINE
5
BA
100
AcDbEntity
8
1
62
256
6
ByLayer
370
13
48
1
60
0
100
AcDbLine
10
3.497679
20
-2.5
30
0
11
3.497679
21
0
31
0
39
0
210
0
220
0
230
1
0
LINE
5
BB
100
AcDbEntity
8
1
62
256
6
ByLayer
370
13
48
1
60
0
100
AcDbLine
10
3.497679
20
0
30
0
11
3.497679
21
2.5
31
0
39
0
210
0
220
0
230
1
0
LINE
5
BC
100
AcDbEntity
8
1
62
256
6
ByLayer
370
13
48
1
60
0
100
AcDbLine
10
2.997679
20
2.633975
30
0
11
2.997679
21
0
31
0
39
0
210
0
220
0
230
1
0
LINE
5
BD
100
AcDbEntity
8
1
62
256
6
ByLayer
370
13
48
1
60
0
100
AcDbLine
10
2.997679
20
0
30
0
11
2.997679
21
-2.633975
31
0
39
0
210
0
220
0
230
1
0
LINE
5
BE
100
AcDbEntity
8
1
62
256
6
ByLayer
370
18
48
1
60
0
100
AcDbLine
10
2.363704
20
3
30
0
11
2.363704
21
0
31
0
39
0
210
0
220
0
230
1
0
LINE
5
BF
100
AcDbEntity
8
1
62
256
6
ByLayer
370
18
48
1
60
0
100
AcDbLine
10
2.363704
20
0
30
0
11
2.363704
21
-3
31
0
39
0
210
0
220
0
230
1
0
LINE
5
C0
100
AcDbEntity
8
SK1
62
256
6
ByLayer
370
18
48
1
60
0
100
AcDbLine
10
-36
20
-2.6
30
0
11
-36
21
2.6
31
0
39
0
210
0
220
0
230
1
0
LINE
5
C2
100
AcDbEntity
8
SK1
62
256
6
ByLayer
370
18
48
1
60
0
100
AcDbLine
10
0
20
3
30
0
11
0
21
0
31
0
39
0
210
0
220
0
230
1
0
LINE
5
C3
100
AcDbEntity
8
SK1
62
256
6
ByLayer
370
18
48
1
60
0
100
AcDbLine
10
0
20
0
30
0
11
0
21
-3
31
0
39
0
210
0
220
0
230
1
0
LINE
5
C4
100
AcDbEntity
8
SK1
62
256
6
ByLayer
370
18
48
1
60
0
100
AcDbLine
10
-35.6
20
3
30
0
11
-35.6
21
-3
31
0
39
0
210
0
220
0
230
1
0
LINE
5
C5
100
AcDbEntity
8
1
62
256
6
ByLayer
370
18
48
1
60
0
100
AcDbLine
10
9.873719
20
2.5
30
0
11
3.497679
21
2.5
31
0
39
0
210
0
220
0
230
1
0
LINE
5
C6
100
AcDbEntity
8
1
62
256
6
ByLayer
370
18
48
1
60
0
100
AcDbLine
10
2.363704
20
3
30
0
11
0
21
3
31
0
39
0
210
0
220
0
230
1
0
LINE
5
C7
100
AcDbEntity
8
1
62
256
6
ByLayer
370
18
48
1
60
0
100
AcDbLine
10
0
20
-3
30
0
11
2.363704
21
-3
31
0
39
0
210
0
220
0
230
1
0
LINE
5
C8
100
AcDbEntity
8
1
62
256
6
ByLayer
370
18
48
1
60
0
100
AcDbLine
10
3.497679
20
-2.5
30
0
11
8.584098
21
-2.5
31
0
39
0
210
0
220
0
230
1
0
LINE
5
C9
100
AcDbEntity
8
1
62
256
6
ByLayer
370
18
48
1
60
0
100
AcDbLine
10
2.997679
20
2.633975
30
0
11
2.363704
21
3
31
0
39
0
210
0
220
0
230
1
0
LINE
5
CA
100
AcDbEntity
8
1
62
256
6
ByLayer
370
18
48
1
60
0
100
AcDbLine
10
2.363704
20
-3
30
0
11
2.997679
21
-2.633975
31
0
39
0
210
0
220
0
230
1
0
LINE
5
CB
100
AcDbEntity
8
SK1
62
256
6
ByLayer
370
18
48
1
60
0
100
AcDbLine
10
-36
20
-2.6
30
0
11
-35.6
21
-3
31
0
39
0
210
0
220
0
230
1
0
LINE
5
CC
100
AcDbEntity
8
SK1
62
256
6
ByLayer
370
18
48
1
60
0
100
AcDbLine
10
-35.6
20
3
30
0
11
-36
21
2.6
31
0
39
0
210
0
220
0
230
1
0
LINE
5
CD
100
AcDbEntity
8
SK1
62
256
6
ByLayer
370
18
48
1
60
0
100
AcDbLine
10
0
20
3
30
0
11
-35.6
21
3
31
0
39
0
210
0
220
0
230
1
0
LINE
5
CE
100
AcDbEntity
8
SK1
62
256
6
ByLayer
370
18
48
1
60
0
100
AcDbLine
10
-35.6
20
-3
30
0
11
0
21
-3
31
0
39
0
210
0
220
0
230
1
0
LINE
5
CF
100
AcDbEntity
8
SK2
62
256
6
ByLayer
370
18
48
1
60
0
100
AcDbLine
10
-43.85
20
11.75
30
0
11
-43.85
21
-19.315466
31
0
39
0
210
0
220
0
230
1
0
LINE
5
D1
100
AcDbEntity
8
SK2
62
256
6
ByLayer
370
18
48
1
60
0
100
AcDbLine
10
-37.1875
20
3
30
0
11
-45.85
21
3
31
0
39
0
210
0
220
0
230
1
0
LINE
5
D2
100
AcDbEntity
8
SK2
62
256
6
ByLayer
370
18
48
1
60
0
100
AcDbLine
10
-37.1875
20
-3
30
0
11
-45.85
21
-3
31
0
39
0
210
0
220
0
230
1
0
LINE
5
D3
100
AcDbEntity
8
1
62
256
6
ByLayer
370
18
48
1
60
1
100
AcDbLine
10
-43.85
20
3
30
0
11
-44.310784
21
6.499998
31
0
39
0
210
0
220
0
230
1
0
LINE
5
D4
100
AcDbEntity
8
1
62
256
6
ByLayer
370
18
48
1
60
1
100
AcDbLine
10
-44.310784
20
6.499998
30
0
11
-43.389216
21
6.500002
31
0
39
0
210
0
220
0
230
1
0
LINE
5
D5
100
AcDbEntity
8
1
62
256
6
ByLayer
370
18
48
1
60
1
100
AcDbLine
10
-43.389216
20
6.500002
30
0
11
-43.85
21
3
31
0
39
0
210
0
220
0
230
1
0
LINE
5
D6
100
AcDbEntity
8
1
62
256
6
ByLayer
370
18
48
1
60
1
100
AcDbLine
10
-43.85
20
-3
30
0
11
-43.389216
21
-6.499998
31
0
39
0
210
0
220
0
230
1
0
LINE
5
D7
100
AcDbEntity
8
1
62
256
6
ByLayer
370
18
48
1
60
1
100
AcDbLine
10
-43.389216
20
-6.499998
30
0
11
-44.310784
21
-6.500002
31
0
39
0
210
0
220
0
230
1
0
LINE
5
D8
100
AcDbEntity
8
1
62
256
6
ByLayer
370
18
48
1
60
1
100
AcDbLine
10
-44.310784
20
-6.500002
30
0
11
-43.85
21
-3
31
0
39
0
210
0
220
0
230
1
0
LINE
5
D9
100
AcDbEntity
8
2
62
256
6
ByLayer
370
18
48
1
60
0
100
AcDbLine
10
30
20
18.815566
30
0
11
30
21
-11.2501
31
0
39
0
210
0
220
0
230
1
0
LINE
5
DB
100
AcDbEntity
8
2
62
256
6
ByLayer
370
18
48
1
60
0
100
AcDbLine
10
19.5875
20
2.5001
30
0
11
32
21
2.5001
31
0
39
0
210
0
220
0
230
1
0
LINE
5
DC
100
AcDbEntity
8
2
62
256
6
ByLayer
370
18
48
1
60
0
100
AcDbLine
10
19.5875
20
-2.5001
30
0
11
32
21
-2.5001
31
0
39
0
210
0
220
0
230
1
0
LINE
5
DD
100
AcDbEntity
8
1
62
256
6
ByLayer
370
18
48
1
60
1
100
AcDbLine
10
30
20
2.5001
30
0
11
29.539216
21
6.000098
31
0
39
0
210
0
220
0
230
1
0
LINE
5
DE
100
AcDbEntity
8
1
62
256
6
ByLayer
370
18
48
1
60
1
100
AcDbLine
10
29.539216
20
6.000098
30
0
11
30.460784
21
6.000102
31
0
39
0
210
0
220
0
230
1
0
LINE
5
DF
100
AcDbEntity
8
1
62
256
6
ByLayer
370
18
48
1
60
1
100
AcDbLine
10
30.460784
20
6.000102
30
0
11
30
21
2.5001
31
0
39
0
210
0
220
0
230
1
0
LINE
5
E0
100
AcDbEntity
8
1
62
256
6
ByLayer
370
18
48
1
60
1
100
AcDbLine
10
30
20
-2.5001
30
0
11
30.460784
21
-6.000098
31
0
39
0
210
0
220
0
230
1
0
LINE
5
E1
100
AcDbEntity
8
1
62
256
6
ByLayer
370
18
48
1
60
1
100
AcDbLine
10
30.460784
20
-6.000098
30
0
11
29.539216
21
-6.000102
31
0
39
0
210
0
220
0
230
1
0
LINE
5
E2
100
AcDbEntity
8
1
62
256
6
ByLayer
370
18
48
1
60
1
100
AcDbLine
10
29.539216
20
-6.000102
30
0
11
30
21
-2.5001
31
0
39
0
210
0
220
0
230
1
0
LINE
5
E3
100
AcDbEntity
8
SK2
62
256
6
ByLayer
370
18
48
1
60
0
100
AcDbLine
10
18
20
-33.1
30
0
11
-36
21
-33.1
31
0
39
0
210
0
220
0
230
1
0
LINE
5
E4
100
AcDbEntity
8
SK2
62
256
6
ByLayer
370
18
48
1
60
0
100
AcDbLine
10
-36
20
-4.1875
30
0
11
-36
21
-35.1
31
0
39
0
210
0
220
0
230
1
0
LINE
5
E5
100
AcDbEntity
8
SK2
62
256
6
ByLayer
370
18
48
1
60
0
100
AcDbLine
10
18
20
-4.0876
30
0
11
18
21
-35.1
31
0
39
0
210
0
220
0
230
1
0
LINE
5
E6
100
AcDbEntity
8
1
62
256
6
ByLayer
370
18
48
1
60
1
100
AcDbLine
10
-36
20
-33.1
30
0
11
-32.500002
21
-32.639216
31
0
39
0
210
0
220
0
230
1
0
LINE
5
E7
100
AcDbEntity
8
1
62
256
6
ByLayer
370
18
48
1
60
1
100
AcDbLine
10
-32.500002
20
-32.639216
30
0
11
-32.499998
21
-33.560784
31
0
39
0
210
0
220
0
230
1
0
LINE
5
E8
100
AcDbEntity
8
1
62
256
6
ByLayer
370
18
48
1
60
1
100
AcDbLine
10
-32.499998
20
-33.560784
30
0
11
-36
21
-33.1
31
0
39
0
210
0
220
0
230
1
0
LINE
5
E9
100
AcDbEntity
8
1
62
256
6
ByLayer
370
18
48
1
60
1
100
AcDbLine
10
18
20
-33.1
30
0
11
14.500002
21
-33.560784
31
0
39
0
210
0
220
0
230
1
0
LINE
5
EA
100
AcDbEntity
8
1
62
256
6
ByLayer
370
18
48
1
60
1
100
AcDbLine
10
14.500002
20
-33.560784
30
0
11
14.499998
21
-32.639216
31
0
39
0
210
0
220
0
230
1
0
LINE
5
EB
100
AcDbEntity
8
1
62
256
6
ByLayer
370
18
48
1
60
1
100
AcDbLine
10
14.499998
20
-32.639216
30
0
11
18
21
-33.1
31
0
39
0
210
0
220
0
230
1
0
LINE
5
169
100
AcDbEntity
8
1
62
256
6
ByLayer
370
18
48
1
60
1
100
AcDbLine
10
-43.85
20
3
30
0
11
-44.310784
21
6.499998
31
0
39
0
210
0
220
0
230
1
0
LINE
5
16A
100
AcDbEntity
8
1
62
256
6
ByLayer
370
18
48
1
60
1
100
AcDbLine
10
-44.310784
20
6.499998
30
0
11
-43.389216
21
6.500002
31
0
39
0
210
0
220
0
230
1
0
LINE
5
16B
100
AcDbEntity
8
1
62
256
6
ByLayer
370
18
48
1
60
1
100
AcDbLine
10
-43.389216
20
6.500002
30
0
11
-43.85
21
3
31
0
39
0
210
0
220
0
230
1
0
LINE
5
16D
100
AcDbEntity
8
1
62
256
6
ByLayer
370
18
48
1
60
1
100
AcDbLine
10
-43.85
20
-3
30
0
11
-43.389216
21
-6.499998
31
0
39
0
210
0
220
0
230
1
0
LINE
5
16E
100
AcDbEntity
8
1
62
256
6
ByLayer
370
18
48
1
60
1
100
AcDbLine
10
-43.389216
20
-6.499998
30
0
11
-44.310784
21
-6.500002
31
0
39
0
210
0
220
0
230
1
0
LINE
5
16F
100
AcDbEntity
8
1
62
256
6
ByLayer
370
18
48
1
60
1
100
AcDbLine
10
-44.310784
20
-6.500002
30
0
11
-43.85
21
-3
31
0
39
0
210
0
220
0
230
1
0
LINE
5
173
100
AcDbEntity
8
1
62
256
6
ByLayer
370
18
48
1
60
1
100
AcDbLine
10
30
20
2.5001
30
0
11
29.539216
21
6.000098
31
0
39
0
210
0
220
0
230
1
0
LINE
5
174
100
AcDbEntity
8
1
62
256
6
ByLayer
370
18
48
1
60
1
100
AcDbLine
10
29.539216
20
6.000098
30
0
11
30.460784
21
6.000102
31
0
39
0
210
0
220
0
230
1
0
LINE
5
175
100
AcDbEntity
8
1
62
256
6
ByLayer
370
18
48
1
60
1
100
AcDbLine
10
30.460784
20
6.000102
30
0
11
30
21
2.5001
31
0
39
0
210
0
220
0
230
1
0
LINE
5
177
100
AcDbEntity
8
1
62
256
6
ByLayer
370
18
48
1
60
1
100
AcDbLine
10
30
20
-2.5001
30
0
11
30.460784
21
-6.000098
31
0
39
0
210
0
220
0
230
1
0
LINE
5
178
100
AcDbEntity
8
1
62
256
6
ByLayer
370
18
48
1
60
1
100
AcDbLine
10
30.460784
20
-6.000098
30
0
11
29.539216
21
-6.000102
31
0
39
0
210
0
220
0
230
1
0
LINE
5
179
100
AcDbEntity
8
1
62
256
6
ByLayer
370
18
48
1
60
1
100
AcDbLine
10
29.539216
20
-6.000102
30
0
11
30
21
-2.5001
31
0
39
0
210
0
220
0
230
1
0
LINE
5
17C
100
AcDbEntity
8
1
62
256
6
ByLayer
370
18
48
1
60
1
100
AcDbLine
10
-36
20
-33.1
30
0
11
-32.500002
21
-32.639216
31
0
39
0
210
0
220
0
230
1
0
LINE
5
17D
100
AcDbEntity
8
1
62
256
6
ByLayer
370
18
48
1
60
1
100
AcDbLine
10
-32.500002
20
-32.639216
30
0
11
-32.499998
21
-33.560784
31
0
39
0
210
0
220
0
230
1
0
LINE
5
17E
100
AcDbEntity
8
1
62
256
6
ByLayer
370
18
48
1
60
1
100
AcDbLine
10
-32.499998
20
-33.560784
30
0
11
-36
21
-33.1
31
0
39
0
210
0
220
0
230
1
0
LINE
5
180
100
AcDbEntity
8
1
62
256
6
ByLayer
370
18
48
1
60
1
100
AcDbLine
10
18
20
-33.1
30
0
11
14.500002
21
-33.560784
31
0
39
0
210
0
220
0
230
1
0
LINE
5
181
100
AcDbEntity
8
1
62
256
6
ByLayer
370
18
48
1
60
1
100
AcDbLine
10
14.500002
20
-33.560784
30
0
11
14.499998
21
-32.639216
31
0
39
0
210
0
220
0
230
1
0
LINE
5
182
100
AcDbEntity
8
1
62
256
6
ByLayer
370
18
48
1
60
1
100
AcDbLine
10
14.499998
20
-32.639216
30
0
11
18
21
-33.1
31
0
39
0
210
0
220
0
230
1
0
MTEXT
5
165
100
AcDbEntity
8
SK2
62
256
6
ByLayer
370
18
48
1
60
0
100
AcDbMText
10
-45.414634
20
-17.380622
30
0
210
0
220
0
230
1
1
%%c
40
3.5
41
0
44
1.084337
50
90
71
7
72
5
7
iso_b_vert
0
MTEXT
5
168
100
AcDbEntity
8
SK2
62
256
6
ByLayer
370
18
48
1
60
0
100
AcDbMText
10
-45.414634
20
-10.407966
30
0
210
0
220
0
230
1
1
\W0.5404;6
40
3.5
41
0
44
1.084337
50
90
71
7
72
5
7
iso_b_vert
0
MTEXT
5
171
100
AcDbEntity
8
2
62
256
6
ByLayer
370
18
48
1
60
0
100
AcDbMText
10
28.435366
20
10.434944
30
0
210
0
220
0
230
1
1
%%c
40
3.5
41
0
44
1.084337
50
90
71
7
72
5
7
iso_b_vert
0
MTEXT
5
172
100
AcDbEntity
8
2
62
256
6
ByLayer
370
18
48
1
60
0
100
AcDbMText
10
28.435366
20
17.4076
30
0
210
0
220
0
230
1
1
\W0.5404;5
40
3.5
41
0
44
1.084337
50
90
71
7
72
5
7
iso_b_vert
0
MTEXT
5
17B
100
AcDbEntity
8
SK2
62
256
6
ByLayer
370
18
48
1
60
0
100
AcDbMText
10
-11.089233
20
-32.067366
30
0
210
0
220
0
230
1
1
\W0.7167;54
40
3.5
41
0
44
1.084337
50
0
71
7
72
5
7
iso_b_vert
0
MTEXT
5
184
100
AcDbEntity
8
SK6
62
256
6
ByLayer
370
18
48
1
60
0
100
AcDbMText
10
-33.854801
20
-62.114886
30
0
210
0
220
0
230
1
1
\W0.7073;1K325-0500-XA       1730
40
3
41
0
44
1.084337
50
0
71
7
72
5
7
iso_b_vert
0
HATCH
5
16C
100
AcDbEntity
8
SK2
62
256
6
ByLayer
370
13
48
1
60
0
100
AcDbHatch
10
0
20
0
30
0
210
0
220
0
230
1
2
ANSI31
70
0
71
0
91
1
92
5
93
3
72
1
10
-43.85
20
3
11
-44.3107837415528
21
6.49999830744682
72
1
10
-44.3107837415528
20
6.49999830744682
11
-43.3892162584472
21
6.50000169255318
72
1
10
-43.3892162584472
20
6.50000169255318
11
-43.85
21
3
97
0
75
0
76
1
52
0
41
0.0062
77
0
78
1
53
45
43
0
44
0
45
-0.0139193969876572
46
0.0139193969876572
79
0
47
0
98
1
10
0
20
0
0
HATCH
5
170
100
AcDbEntity
8
SK2
62
256
6
ByLayer
370
13
48
1
60
0
100
AcDbHatch
10
0
20
0
30
0
210
0
220
0
230
1
2
ANSI31
70
0
71
0
91
1
92
5
93
3
72
1
10
-43.85
20
-3.00000000000003
11
-43.3892162584472
21
-6.49999830744684
72
1
10
-43.3892162584472
20
-6.49999830744684
11
-44.3107837415528
21
-6.50000169255321
72
1
10
-44.3107837415528
20
-6.50000169255321
11
-43.85
21
-3.00000000000003
97
0
75
0
76
1
52
0
41
0.0062
77
0
78
1
53
45
43
0
44
0
45
-0.0139193969876572
46
0.0139193969876572
79
0
47
0
98
1
10
0
20
0
0
HATCH
5
176
100
AcDbEntity
8
2
62
256
6
ByLayer
370
13
48
1
60
0
100
AcDbHatch
10
0
20
0
30
0
210
0
220
0
230
1
2
ANSI31
70
0
71
0
91
1
92
5
93
3
72
1
10
30
20
2.50009999999992
11
29.5392162584472
21
6.00009830744673
72
1
10
29.5392162584472
20
6.00009830744673
11
30.4607837415528
21
6.0001016925531
72
1
10
30.4607837415528
20
6.0001016925531
11
30
21
2.50009999999992
97
0
75
0
76
1
52
0
41
0.0062
77
0
78
1
53
45
43
0
44
0
45
-0.0139193969876572
46
0.0139193969876572
79
0
47
0
98
1
10
0
20
0
0
HATCH
5
17A
100
AcDbEntity
8
2
62
256
6
ByLayer
370
13
48
1
60
0
100
AcDbHatch
10
0
20
0
30
0
210
0
220
0
230
1
2
ANSI31
70
0
71
0
91
1
92
5
93
3
72
1
10
30
20
-2.50010000000006
11
30.4607837415528
21
-6.00009830744688
72
1
10
30.4607837415528
20
-6.00009830744688
11
29.5392162584472
21
-6.00010169255324
72
1
10
29.5392162584472
20
-6.00010169255324
11
30
21
-2.50010000000006
97
0
75
0
76
1
52
0
41
0.0062
77
0
78
1
53
45
43
0
44
0
45
-0.0139193969876572
46
0.0139193969876572
79
0
47
0
98
1
10
0
20
0
0
HATCH
5
17F
100
AcDbEntity
8
SK2
62
256
6
ByLayer
370
13
48
1
60
0
100
AcDbHatch
10
0
20
0
30
0
210
0
220
0
230
1
2
ANSI31
70
0
71
0
91
1
92
5
93
3
72
1
10
-36
20
-33.1000000000001
11
-32.5000016925532
21
-32.6392162584473
72
1
10
-32.5000016925532
20
-32.6392162584473
11
-32.4999983074468
21
-33.5607837415528
72
1
10
-32.4999983074468
20
-33.5607837415528
11
-36
21
-33.1000000000001
97
0
75
0
76
1
52
0
41
0.0062
77
0
78
1
53
45
43
0
44
0
45
-0.0139193969876572
46
0.0139193969876572
79
0
47
0
98
1
10
0
20
0
0
HATCH
5
183
100
AcDbEntity
8
SK2
62
256
6
ByLayer
370
13
48
1
60
0
100
AcDbHatch
10
0
20
0
30
0
210
0
220
0
230
1
2
ANSI31
70
0
71
0
91
1
92
5
93
3
72
1
10
18
20
-33.1000000000001
11
14.5000016925532
21
-33.5607837415528
72
1
10
14.5000016925532
20
-33.5607837415528
11
14.4999983074468
21
-32.6392162584473
72
1
10
14.4999983074468
20
-32.6392162584473
11
18
21
-33.1000000000001
97
0
75
0
76
1
52
0
41
0.0062
77
0
78
1
53
45
43
0
44
0
45
-0.0139193969876572
46
0.0139193969876572
79
0
47
0
98
1
10
0
20
0
0
DIMENSION
5
187
100
AcDbEntity
8
2
62
256
6
ByLayer
370
18
48
1
60
0
100
AcDbDimension
2
_U0
10
10.5
20
-17.1
30
0
11
14.25
21
-17.1
31
0
70
32
71
1
72
1
41
1
210
0
220
0
230
1
3
Standard
100
AcDbAlignedDimension
13
18
23
-2.5001
33
0
14
10.5
24
-2.5001
34
0
50
0
100
AcDbRotatedDimension
1001
ACAD
1000
DSTYLE
1002
{
1070
   371
1070
    13
1070
   372
1070
    13
1070
   170
1070
     0
1070
   144
1040
1.0
1070
   277
1070
     2
1070
   284
1070
     8
1070
   278
1070
    46
1070
   146
1040
1.0
1070
   345
1005
16
1070
   347
1005
16
1070
   346
1005
16
1070
   344
1005
0
1070
   343
1005
0
1070
   172
1070
     1
1070
    76
1070
     0
1070
    75
1070
     0
1070
   282
1070
     0
1070
   281
1070
     0
1070
    71
1070
     0
1070
    74
1070
     0
1070
   279
1070
     0
1070
   173
1070
     1
1070
   340
1005
166
1070
   271
1070
     2
1070
   272
1070
     2
1070
    77
1070
     1
1070
    73
1070
     1
1070
   171
1070
     3
1070
   274
1070
     4
1070
   177
1070
     2
1070
   176
1070
     2
1070
   178
1070
     2
1070
    78
1070
     8
1070
    48
1040
-0.1
1070
    41
1040
3.5
1070
   147
1040
1.75
1070
    42
1040
1.5875
1070
    44
1040
2.0
1070
   140
1040
3.5
1002
}
1001
ACAD_DSTYLE_DIM_LINETYPE
1070
   380
1005
16
1001
ACAD_DSTYLE_DIM_EXT1_LINETYPE
1070
   381
1005
16
1001
ACAD_DSTYLE_DIM_EXT2_LINETYPE
1070
   382
1005
16
0
ENDSEC
0
SECTION
2
OBJECTS
0
DICTIONARY
5
211
330
0
100
AcDbDictionary
280
0
281
1
3
ACAD_GROUP
350
212
3
ACAD_MLINESTYLE
350
213
0
DICTIONARY
5
212
330
0
100
AcDbDictionary
280
0
281
1
0
DICTIONARY
5
213
330
0
100
AcDbDictionary
280
0
281
1
3
Standard
350
18
0
MLINESTYLE
5
18
330
213
100
AcDbMlineStyle
2
Standard
70
0
3

62
256
51
90
52
90
71
2
49
-0.5
62
256
6
ByLayer
49
0.5
62
256
6
ByLayer
0
RASTERVARIABLES
5
1ff
330

100
AcDbRasterVariables
90
0
70
1
71
1
72
1
0
ENDSEC
0
EOF
