0
SECTION
2
HEADER
9
$ACADVER
1
AC1015
9
$DWGCODEPAGE
3
ANSI_1252
9
$HANDSEED
5
205
9
$ANGBASE
50
0
9
$ANGDIR
70
0
9
$ATTMODE
70
1
9
$AUNITS
70
0
9
$AUPREC
70
0
9
$CECOLOR
62
256
9
$CELTSCALE
40
1
9
$CELTYPE
6
ByLayer
9
$CELWEIGHT
370
18
9
$CLAYER
8
0
9
$CMLJUST
70
0
9
$CMLSCALE
40
1
9
$CMLSTYLE
2
Standard
9
$DIMSTYLE
2
Standard
9
$TEXTSIZE
40
0.2
9
$TEXTSTYLE
7
Standard
9
$LUNITS
70
2
9
$LUPREC
70
4
9
$EXTNAMES
290
1
9
$INSUNITS
70
4
9
$LTSCALE
40
1
9
$LWDISPLAY
290
1
9
$PDMODE
70
0
9
$PDSIZE
40
0
9
$PLINEGEN
70
0
0
ENDSEC
0
SECTION
2
CLASSES
0
CLASS
1
RASTERVARIABLES
2
AcDbRasterVariables
3
ISM
90
0
280
0
281
0
0
ENDSEC
0
SECTION
2
TABLES
0
TABLE
2
VPORT
5
1fb
100
AcDbSymbolTable
0
VPORT
5
1
100
AcDbSymbolTableRecord
100
AcDbViewportTableRecord
2
*Active
70
0
10
0
20
0
11
1
21
1
12
-1
22
1
13
0
23
0
14
0.5
24
0.5
15
10
25
10
16
0
26
0
36
1
17
0
27
0
37
0
0
ENDTAB
0
TABLE
2
LTYPE
5
1fc
100
AcDbSymbolTable
0
LTYPE
5
14
100
AcDbSymbolTableRecord
100
AcDbLinetypeTableRecord
70
0
2
ByBlock
3

72
65
73
0
40
0
0
LTYPE
5
15
100
AcDbSymbolTableRecord
100
AcDbLinetypeTableRecord
70
0
2
ByLayer
3

72
65
73
0
40
0
0
LTYPE
5
16
100
AcDbSymbolTableRecord
100
AcDbLinetypeTableRecord
70
0
2
Continuous
3
Solid line
72
65
73
0
40
0
0
LTYPE
5
6E
100
AcDbSymbolTableRecord
100
AcDbLinetypeTableRecord
70
0
2
CENTER
3
____ _ ____ _ ____ _ ____
72
65
73
4
40
47.5
49
22
74
0
49
-8.5
74
0
49
8.5
74
0
49
-8.5
74
0
0
LTYPE
5
6F
100
AcDbSymbolTableRecord
100
AcDbLinetypeTableRecord
70
0
2
DASHED
3
__ __ __ __ __ __ __ __ __
72
65
73
2
40
25.72
49
12.86
74
0
49
-12.86
74
0
0
ENDTAB
0
TABLE
2
LAYER
5
1fd
100
AcDbSymbolTable
0
LAYER
5
10
100
AcDbSymbolTableRecord
100
AcDbLayerTableRecord
2
0
70
0
62
7
6
Continuous
290
1
370
-3
390
0
0
LAYER
5
71
100
AcDbSymbolTableRecord
100
AcDbLayerTableRecord
2
81
70
0
62
-3
6
Continuous
290
1
370
-3
390
0
0
LAYER
5
73
100
AcDbSymbolTableRecord
100
AcDbLayerTableRecord
2
80
70
0
62
-6
6
Continuous
290
1
370
-3
390
0
0
LAYER
5
75
100
AcDbSymbolTableRecord
100
AcDbLayerTableRecord
2
1
70
0
62
4
6
Continuous
290
1
370
-3
390
0
0
LAYER
5
79
100
AcDbSymbolTableRecord
100
AcDbLayerTableRecord
2
4
70
0
62
-2
6
CENTER
290
1
370
-3
390
0
0
LAYER
5
CB
100
AcDbSymbolTableRecord
100
AcDbLayerTableRecord
2
2
70
0
62
7
6
Continuous
290
1
370
-3
390
0
0
LAYER
5
171
100
AcDbSymbolTableRecord
100
AcDbLayerTableRecord
2
Defpoints
70
0
62
7
6
Continuous
290
0
370
-3
390
0
0
LAYER
5
1e7
100
AcDbSymbolTableRecord
100
AcDbLayerTableRecord
2
SK4
70
0
62
2
6
CENTER
290
1
370
-3
390
0
0
LAYER
5
1e8
100
AcDbSymbolTableRecord
100
AcDbLayerTableRecord
2
SK1
70
0
62
4
6
Continuous
290
1
370
-3
390
0
0
LAYER
5
1e9
100
AcDbSymbolTableRecord
100
AcDbLayerTableRecord
2
SK2
70
0
62
7
6
Continuous
290
1
370
-3
390
0
0
LAYER
5
1ea
100
AcDbSymbolTableRecord
100
AcDbLayerTableRecord
2
SK6
70
0
62
5
6
Continuous
290
1
370
-3
390
0
0
ENDTAB
0
TABLE
2
STYLE
5
1fe
100
AcDbSymbolTable
0
STYLE
5
11
100
AcDbSymbolTableRecord
100
AcDbTextStyleTableRecord
2
Standard
3
txt
70
0
71
0
40
0
41
1
42
0
50
0
0
STYLE
5
14D
100
AcDbSymbolTableRecord
100
AcDbTextStyleTableRecord
2
iso_b_vert
3
simplex.shx
70
0
71
0
40
0
41
1
42
0
50
0
0
STYLE
5
14E
100
AcDbSymbolTableRecord
100
AcDbTextStyleTableRecord
2
DWGDirectTextStyle
3
simplex
70
0
71
0
40
0
41
1
42
0
50
0
0
ENDTAB
0
TABLE
2
DIMSTYLE
5
1ff
100
AcDbSymbolTable
100
AcDbDimStyleTable
0
DIMSTYLE
105
27
100
AcDbSymbolTableRecord
100
AcDbDimStyleTableRecord
2
Standard
70
0
3
<>
41
0.18
42
0.0625
44
0.18
140
0.18
147
0.09
73
0
74
0
77
1
271
2
275
0
278
52
280
0
340
11
0
ENDTAB
0
TABLE
2
VIEW
5
200
100
AcDbSymbolTable
0
ENDTAB
0
TABLE
2
UCS
5
201
100
AcDbSymbolTable
0
ENDTAB
0
TABLE
2
APPID
5
202
100
AcDbSymbolTable
0
APPID
5
12
100
AcDbSymbolTableRecord
100
AcDbRegAppTableRecord
2
ACAD
70
0
0
APPID
5
16D
100
AcDbSymbolTableRecord
100
AcDbRegAppTableRecord
2
ACAD_DSTYLE_DIMBREAK
70
0
0
APPID
5
1A6
100
AcDbSymbolTableRecord
100
AcDbRegAppTableRecord
2
ACAD_DSTYLE_DIM_LINETYPE
70
0
0
APPID
5
1A7
100
AcDbSymbolTableRecord
100
AcDbRegAppTableRecord
2
ACAD_DSTYLE_DIM_EXT1_LINETYPE
70
0
0
APPID
5
1A8
100
AcDbSymbolTableRecord
100
AcDbRegAppTableRecord
2
ACAD_DSTYLE_DIM_EXT2_LINETYPE
70
0
0
APPID
5
1E3
100
AcDbSymbolTableRecord
100
AcDbRegAppTableRecord
2
ACAD_MLEADERVER
70
0
0
ENDTAB
0
TABLE
2
BLOCK_RECORD
5
203
100
AcDbSymbolTable
0
BLOCK_RECORD
5
1F
100
AcDbSymbolTableRecord
100
AcDbBlockTableRecord
2
*Model_Space
340
0
70
0
0
BLOCK_RECORD
5
1B
100
AcDbSymbolTableRecord
100
AcDbBlockTableRecord
2
*Paper_Space
340
0
70
0
0
BLOCK_RECORD
5
23
100
AcDbSymbolTableRecord
100
AcDbBlockTableRecord
2
*Paper_Space0
340
0
70
0
0
BLOCK_RECORD
5
172
100
AcDbSymbolTableRecord
100
AcDbBlockTableRecord
2
*D1
340
0
70
0
0
BLOCK_RECORD
5
17F
100
AcDbSymbolTableRecord
100
AcDbBlockTableRecord
2
_U0
340
0
70
0
0
ENDTAB
0
ENDSEC
0
SECTION
2
BLOCKS
0
BLOCK
5
20
100
AcDbEntity
8
0
100
AcDbBlockBegin
2
*Model_Space
70
0
10
0
20
0
30
0
3
*Model_Space
0
ENDBLK
5
21
100
AcDbEntity
8
0
100
AcDbBlockEnd
0
BLOCK
5
1C
100
AcDbEntity
8
0
100
AcDbBlockBegin
2
*Paper_Space
70
0
10
0
20
0
30
0
3
*Paper_Space
0
ENDBLK
5
1D
100
AcDbEntity
8
0
100
AcDbBlockEnd
0
BLOCK
5
24
100
AcDbEntity
8
0
100
AcDbBlockBegin
2
*Paper_Space0
70
0
10
0
20
0
30
0
3
*Paper_Space0
0
ENDBLK
5
25
100
AcDbEntity
8
0
100
AcDbBlockEnd
0
BLOCK
5
173
100
AcDbEntity
8
0
100
AcDbBlockBegin
2
*D1
70
1
10
0
20
0
30
0
3
*D1
0
LINE
5
175
100
AcDbEntity
8
0
62
256
6
ByLayer
370
-2
48
1
60
0
100
AcDbLine
10
26
20
-6.5876
30
0
11
26
21
-21.67545
31
0
39
0
210
0
220
0
230
1
0
LINE
5
176
100
AcDbEntity
8
0
62
256
6
ByLayer
370
-2
48
1
60
0
100
AcDbLine
10
11
20
-6.5876
30
0
11
11
21
-21.67545
31
0
39
0
210
0
220
0
230
1
0
LINE
5
177
100
AcDbEntity
8
0
62
256
6
ByLayer
370
-2
48
1
60
0
100
AcDbLine
10
29.5
20
-19.67545
30
0
11
33
21
-19.67545
31
0
39
0
210
0
220
0
230
1
0
LINE
5
178
100
AcDbEntity
8
0
62
256
6
ByLayer
370
-2
48
1
60
0
100
AcDbLine
10
7.5
20
-19.67545
30
0
11
4
21
-19.67545
31
0
39
0
210
0
220
0
230
1
0
SOLID
5
179
100
AcDbEntity
8
0
62
256
6
ByLayer
370
-1
48
1
60
0
100
AcDbTrace
10
29.5
20
-19.092117
30
0
11
29.5
21
-20.258783
31
0
12
26
22
-19.67545
32
0
13
26
23
-19.67545
33
0
39
0
210
0
220
0
230
1
0
SOLID
5
17A
100
AcDbEntity
8
0
62
256
6
ByLayer
370
-1
48
1
60
0
100
AcDbTrace
10
7.5
20
-20.258783
30
0
11
7.5
21
-19.092117
31
0
12
11
22
-19.67545
32
0
13
11
23
-19.67545
33
0
39
0
210
0
220
0
230
1
0
MTEXT
5
17B
100
AcDbEntity
8
0
62
256
6
ByLayer
370
18
48
1
60
0
100
AcDbMText
10
18.5
20
-12.67545
30
0
210
0
220
0
230
1
1
\A1;15
40
3.5
41
0
44
1
50
0
71
5
72
5
7
iso_b_vert
0
POINT
5
17C
100
AcDbEntity
8
Defpoints
62
0
6
ByLayer
370
-1
48
1
60
0
100
AcDbPoint
10
26
20
-5.0001
30
0
39
0
210
0
220
0
230
1
50
360
0
POINT
5
17D
100
AcDbEntity
8
Defpoints
62
0
6
ByLayer
370
-1
48
1
60
0
100
AcDbPoint
10
11
20
-5.0001
30
0
39
0
210
0
220
0
230
1
50
360
0
POINT
5
17E
100
AcDbEntity
8
Defpoints
62
0
6
ByLayer
370
-1
48
1
60
0
100
AcDbPoint
10
11
20
-19.67545
30
0
39
0
210
0
220
0
230
1
50
360
0
ENDBLK
5
174
100
AcDbEntity
8
0
100
AcDbBlockEnd
0
BLOCK
5
186
100
AcDbEntity
8
0
100
AcDbBlockBegin
2
_U0
70
0
10
0
20
0
30
0
3
_U0
0
MTEXT
5
180
100
AcDbEntity
8
2
62
256
6
ByLayer
370
18
48
1
60
0
100
AcDbMText
10
17.032467
20
-18.642816
30
0
210
0
220
0
230
1
1
\W0.5321;15
40
3.5
41
0
44
1.084337
50
0
71
7
72
5
7
iso_b_vert
0
LINE
5
181
100
AcDbEntity
8
2
62
256
6
ByLayer
370
13
48
1
60
0
100
AcDbLine
10
26
20
-6.5876
30
0
11
26
21
-21.67545
31
0
39
0
210
0
220
0
230
1
0
LINE
5
182
100
AcDbEntity
8
2
62
256
6
ByLayer
370
13
48
1
60
0
100
AcDbLine
10
11
20
-6.5876
30
0
11
11
21
-21.67545
31
0
39
0
210
0
220
0
230
1
0
LINE
5
183
100
AcDbEntity
8
2
62
256
6
ByLayer
370
13
48
1
60
0
100
AcDbLine
10
26
20
-19.67545
30
0
11
11
21
-19.67545
31
0
39
0
210
0
220
0
230
1
0
SOLID
5
184
100
AcDbEntity
8
2
62
256
6
ByLayer
370
18
48
1
60
0
100
AcDbTrace
10
26
20
-19.67545
30
0
11
22.500002
21
-20.136234
31
0
12
22.499998
22
-19.214666
32
0
13
22.499998
23
-19.214666
33
0
39
0
210
0
220
0
230
1
0
SOLID
5
185
100
AcDbEntity
8
2
62
256
6
ByLayer
370
18
48
1
60
0
100
AcDbTrace
10
11
20
-19.67545
30
0
11
14.499998
21
-19.214666
31
0
12
14.500002
22
-20.136234
32
0
13
14.500002
23
-20.136234
33
0
39
0
210
0
220
0
230
1
0
ENDBLK
5
187
100
AcDbEntity
8
0
100
AcDbBlockEnd
0
ENDSEC
0
SECTION
2
ENTITIES
0
ELLIPSE
5
DD
100
AcDbEntity
8
1
62
256
6
ByLayer
370
18
48
1
60
0
100
AcDbEllipse
10
25.758561
20
-0.194885
30
0
11
0.0243602487341838
21
-0.857191107205629
31
0
210
0
220
0
230
1
40
0.078685
41
0.877066919018346
42
1.48608946147131
0
ELLIPSE
5
DE
100
AcDbEntity
8
1
62
256
6
ByLayer
370
18
48
1
60
0
100
AcDbEllipse
10
25.67231
20
-0.628393
30
0
11
0.344499258679868
21
-0.579090628615498
31
0
210
0
220
0
230
1
40
0.509734
41
2.85031253024859
42
-2.50795076514322
0
ELLIPSE
5
DF
100
AcDbEntity
8
1
62
256
6
ByLayer
370
18
48
1
60
0
100
AcDbEllipse
10
25.71798
20
-0.636055
30
0
11
0.0370246215544972
21
-0.573536687434432
31
0
210
0
220
0
230
1
40
0.179179
41
0.790755841263009
42
1.37432726212968
0
ELLIPSE
5
E0
100
AcDbEntity
8
1
62
256
6
ByLayer
370
18
48
1
60
0
100
AcDbEllipse
10
25.419657
20
-0.586002
30
0
11
0.279743824825871
21
-0.558485165623313
31
0
210
0
220
0
230
1
40
0.659977
41
0.350925300515091
42
0.383833625835834
0
ELLIPSE
5
E1
100
AcDbEntity
8
1
62
256
6
ByLayer
370
18
48
1
60
0
100
AcDbEllipse
10
13.484155
20
0
30
0
11
14.2874762781554
21
2.3299356683912
31
0
210
0
220
0
230
1
40
0.309639
41
1.69487762961477
42
1.71853926779882
0
ELLIPSE
5
E2
100
AcDbEntity
8
1
62
256
6
ByLayer
370
18
48
1
60
0
100
AcDbEllipse
10
14.006068
20
0
30
0
11
17.3009564158971
21
-2.33738148790063
31
0
210
0
220
0
230
1
40
0.255479
41
-1.74453985783913
42
-1.71082742439105
0
ELLIPSE
5
E3
100
AcDbEntity
8
1
62
256
6
ByLayer
370
18
48
1
60
0
100
AcDbEllipse
10
15.729922
20
0
30
0
11
9.43207043388816
21
-4.79244722001107
31
0
210
0
220
0
230
1
40
0.151148
41
2.3140731578358
42
2.73052650747489
0
ELLIPSE
5
E4
100
AcDbEntity
8
1
62
256
6
ByLayer
370
18
48
1
60
0
100
AcDbEllipse
10
15.604333
20
0
30
0
11
9.14035631850714
21
-2.306811660115
31
0
210
0
220
0
230
1
40
0.485327
41
-2.53208227835176
42
-2.11637175010951
0
ELLIPSE
5
E5
100
AcDbEntity
8
1
62
256
6
ByLayer
370
18
48
1
60
0
100
AcDbEllipse
10
13.556108
20
-1E-06
30
0
11
14.7065633193226
21
-4.57117968695507
31
0
210
0
220
0
230
1
40
0.137756
41
1.78812117807065
42
1.82556038047478
0
POINT
5
70
100
AcDbEntity
8
81
62
256
6
ByLayer
370
18
48
1
60
0
100
AcDbPoint
10
26
20
0
30
0
39
0
210
0
220
0
230
1
50
360
0
POINT
5
72
100
AcDbEntity
8
80
62
256
6
ByLayer
370
18
48
1
60
0
100
AcDbPoint
10
0
20
0
30
0
39
0
210
0
220
0
230
1
50
360
0
POINT
5
74
100
AcDbEntity
8
1
62
256
6
ByLayer
370
18
48
1
60
1
100
AcDbPoint
10
26
20
-5.0001
30
0
39
0
210
0
220
0
230
1
50
360
0
POINT
5
76
100
AcDbEntity
8
1
62
256
6
ByLayer
370
18
48
1
60
1
100
AcDbPoint
10
11
20
-5.0001
30
0
39
0
210
0
220
0
230
1
50
360
0
SPLINE
5
E6
100
AcDbEntity
8
1
62
256
6
ByLayer
370
18
48
1
60
0
100
AcDbSpline
70
4
71
3
72
9
73
5
40
0
40
0
40
0
40
0
40
0.44047356408964
40
1
40
1
40
1
40
1
41
1
10
13.8091772889739
20
-2.90483996110211
30
0
41
1
10
13.4977848593159
20
-3.0327523347575
30
0
41
1
10
12.7908356686158
20
-3.30376307874829
30
0
41
1
10
12.0838864779157
20
-3.52507268181858
30
0
41
1
10
11.6883297168736
20
-3.63134570996965
30
0
0
SPLINE
5
E7
100
AcDbEntity
8
1
62
256
6
ByLayer
370
18
48
1
60
0
100
AcDbSpline
70
4
71
3
72
8
73
4
40
0
40
0
40
0
40
0
40
1
40
1
40
1
40
1
41
1
10
25.6318827082606
20
4.99313805566638
30
0
41
1
10
25.653229470091
20
4.99300208349001
30
0
41
1
10
25.6745770214695
20
4.99291831505511
30
0
41
1
10
25.6959249797081
20
4.99288679329263
30
0
0
SPLINE
5
E8
100
AcDbEntity
8
1
62
256
6
ByLayer
370
18
48
1
60
0
100
AcDbSpline
70
4
71
3
72
8
73
4
40
0
40
0
40
0
40
0
40
1
40
1
40
1
40
1
41
1
10
25.6959249798427
20
4.99288679323635
30
0
41
1
10
25.7335770701075
20
4.98995834334457
30
0
41
1
10
25.7712413307712
20
4.98719563786699
30
0
41
1
10
25.8089176775414
20
4.98459752496908
30
0
0
SPLINE
5
E9
100
AcDbEntity
8
1
62
256
6
ByLayer
370
18
48
1
60
0
100
AcDbSpline
70
4
71
3
72
8
73
4
40
0
40
0
40
0
40
0
40
1
40
1
40
1
40
1
41
1
10
25.6318827082649
20
4.99313805566788
30
0
41
1
10
25.6708010424292
20
4.87777294396727
30
0
41
1
10
25.7124824004924
20
4.76343778648149
30
0
41
1
10
25.7575007000134
20
4.65034651816754
30
0
0
SPLINE
5
EA
100
AcDbEntity
8
1
62
256
6
ByLayer
370
18
48
1
60
0
100
AcDbSpline
70
4
71
3
72
18
73
14
40
0
40
0
40
0
40
0
40
0.137001121225591
40
0.137001121225591
40
0.244875981072401
40
0.244875981072401
40
0.298813410995801
40
0.298813410995801
40
0.352750840919201
40
0.568500560612801
40
0.568500560612801
40
0.7842502803064
40
1
40
1
40
1
40
1
41
1
10
21.4056355695888
20
3.96414896350618
30
0
41
1
10
21.5992055716545
20
4.04827489422493
30
0
41
1
10
21.7927659363241
20
4.12783741178947
30
0
41
1
10
22.1391054065694
20
4.26156631368221
30
0
41
1
10
22.2918029262321
20
4.31753994397317
30
0
41
1
10
22.521184563326
20
4.39696742861676
30
0
41
1
10
22.5976115920405
20
4.42265548044028
30
0
41
1
10
22.7502075861566
20
4.47237487266892
30
0
41
1
10
23.1312218606625
20
4.59258789320768
30
0
41
1
10
23.5102003841868
20
4.692306278991
30
0
41
1
10
24.1157627873397
20
4.82494956334901
30
0
41
1
10
24.7205284940326
20
4.93072798407707
30
0
41
1
10
25.3272129922286
20
4.98174217440561
30
0
41
1
10
25.6318827082609
20
4.99313805566615
30
0
0
SPLINE
5
EB
100
AcDbEntity
8
1
62
256
6
ByLayer
370
18
48
1
60
0
100
AcDbSpline
70
4
71
3
72
46
73
42
40
0
40
0
40
0
40
0
40
0.0971699085633664
40
0.0971699085633664
40
0.14575486284505
40
0.14575486284505
40
0.170047339985892
40
0.170047339985892
40
0.194339817126734
40
0.194339817126734
40
0.242924771408417
40
0.242924771408417
40
0.26721724854926
40
0.26721724854926
40
0.291509725690102
40
0.291509725690102
40
0.388679634253459
40
0.388679634253459
40
0.412972111394303
40
0.412972111394303
40
0.437264588535146
40
0.437264588535146
40
0.485849542816833
40
0.485849542816833
40
0.534434497098519
40
0.534434497098519
40
0.558726974239368
40
0.558726974239368
40
0.583019451380218
40
0.583019451380218
40
0.680189359943656
40
0.680189359943656
40
0.777359268507093
40
0.777359268507093
40
0.825944222788805
40
0.825944222788805
40
0.874529177070516
40
0.874529177070516
40
0.971699085633938
40
0.971699085633938
40
1
40
1
40
1
40
1
41
1
10
25.7575007077312
20
4.650346521107
30
0
41
1
10
25.7875141766687
20
4.57494244184502
30
0
41
1
10
25.8118260571102
20
4.49804847338217
30
0
41
1
10
25.8372348289133
20
4.37981766776491
30
0
41
1
10
25.843847403728
20
4.33992214020262
30
0
41
1
10
25.8504786728861
20
4.27921976397053
30
0
41
1
10
25.8521286336365
20
4.25891077548329
30
0
41
1
10
25.8542260939087
20
4.21844408150179
30
0
41
1
10
25.8546787716974
20
4.19824179438911
30
0
41
1
10
25.8541687074352
20
4.13773227833386
30
0
41
1
10
25.8513416187794
20
4.09752219921106
30
0
41
1
10
25.8429885602889
20
4.03742137619255
30
0
41
1
10
25.8395179036252
20
4.0174235313406
30
0
41
1
10
25.8311284099836
20
3.97750330531718
30
0
41
1
10
25.8262001496719
20
3.95757764190921
30
0
41
1
10
25.7982918330246
20
3.85982861501546
30
0
41
1
10
25.7652726242784
20
3.78626466460929
30
0
41
1
10
25.7115527555628
20
3.69970506220614
30
0
41
1
10
25.7001441121726
20
3.68261031147247
30
0
41
1
10
25.6764363145697
20
3.64940092482723
30
0
41
1
10
25.6641153967913
20
3.63324245422163
30
0
41
1
10
25.6258608742394
20
3.58600128940176
30
0
41
1
10
25.5986390448398
20
3.55614945543351
30
0
41
1
10
25.5412383398989
20
3.49927115697687
30
0
41
1
10
25.5110583214333
20
3.47224578451855
30
0
41
1
10
25.4638534893594
20
3.43355637376206
30
0
41
1
10
25.4477598774892
20
3.42094287237453
30
0
41
1
10
25.4151954603607
20
3.39646323569266
30
0
41
1
10
25.398718056223
20
3.38458868442811
30
0
41
1
10
25.3154464151694
20
3.32687130731512
30
0
41
1
10
25.2460355287725
20
3.28592498546226
30
0
41
1
10
25.1032493141473
20
3.21145095300321
30
0
41
1
10
25.0298588645991
20
3.17795153873664
30
0
41
1
10
24.9175079966386
20
3.1319412463358
30
0
41
1
10
24.8796225336933
20
3.11730002957359
30
0
41
1
10
24.8037048560163
20
3.08946600929482
30
0
41
1
10
24.7656168636947
20
3.07624832078847
30
0
41
1
10
24.6510165582913
20
3.038416357936
30
0
41
1
10
24.5741702662566
20
3.0156104646062
30
0
41
1
10
24.4744924882453
20
2.98859816214775
30
0
41
1
10
24.451979745318
20
2.98266586918146
30
0
41
1
10
24.4294389749605
20
2.97688533509688
30
0
0
SPLINE
5
EC
100
AcDbEntity
8
1
62
256
6
ByLayer
370
13
48
1
60
0
100
AcDbSpline
70
4
71
3
72
10
73
6
40
0
40
0
40
0
40
0
40
0.423939637248432
40
0.910853251841532
40
1
40
1
40
1
40
1
41
1
10
25.7575007065269
20
4.65034652128801
30
0
41
1
10
25.2133338043513
20
4.63282786493704
30
0
41
1
10
24.0441669021756
20
4.50343614730829
30
0
41
1
10
22.760571658033
20
4.15928097680191
30
0
41
1
10
22.021143316066
20
3.89302193400229
30
0
41
1
10
21.906714974099
20
3.85025697704245
30
0
0
SPLINE
5
ED
100
AcDbEntity
8
1
62
256
6
ByLayer
370
18
48
1
60
0
100
AcDbSpline
70
4
71
3
72
45
73
41
40
0
40
0
40
0
40
0
40
0.0624999999999884
40
0.0624999999999884
40
0.124999999999977
40
0.124999999999977
40
0.156249999999971
40
0.156249999999971
40
0.187499999999965
40
0.187499999999965
40
0.249999999999965
40
0.249999999999965
40
0.374999999999966
40
0.374999999999966
40
0.437499999999957
40
0.437499999999957
40
0.499999999999948
40
0.499999999999948
40
0.562499999999938
40
0.562499999999938
40
0.624999999999929
40
0.624999999999929
40
0.68749999999992
40
0.68749999999992
40
0.718749999999915
40
0.718749999999915
40
0.749999999999911
40
0.781249999999906
40
0.781249999999906
40
0.812499999999901
40
0.812499999999901
40
0.874999999999918
40
0.874999999999918
40
0.906249999999938
40
0.906249999999938
40
0.937499999999959
40
0.937499999999959
40
0.968749999999979
40
0.968749999999979
40
1
40
1
40
1
40
1
41
1
10
25.2199139209588
20
-0.265688678186393
30
0
41
1
10
25.218618903723
20
-0.284188349834011
30
0
41
1
10
25.2195465097955
20
-0.302521917139302
30
0
41
1
10
25.224697218582
20
-0.338902291664823
30
0
41
1
10
25.228932846181
20
-0.35694854909741
30
0
41
1
10
25.2372868258609
20
-0.383813150018113
30
0
41
1
10
25.2404076155687
20
-0.392733698872092
30
0
41
1
10
25.2472650983591
20
-0.410506001901553
30
0
41
1
10
25.2510122144649
20
-0.41937968065497
30
0
41
1
10
25.2630292968336
20
-0.445722095859821
30
0
41
1
10
25.2720422961598
20
-0.462872808677133
30
0
41
1
10
25.3015273631688
20
-0.513242046429781
30
0
41
1
10
25.3244134876479
20
-0.545398301488177
30
0
41
1
10
25.3624110499088
20
-0.591608415019351
30
0
41
1
10
25.375698721026
20
-0.606668946896377
30
0
41
1
10
25.4034172522263
20
-0.636050361168031
30
0
41
1
10
25.4178561770133
20
-0.650374168754098
30
0
41
1
10
25.4475330966848
20
-0.677914087183296
30
0
41
1
10
25.4628027467016
20
-0.691166945466478
30
0
41
1
10
25.4941467248664
20
-0.71644939376705
30
0
41
1
10
25.5102205811281
20
-0.728482433684832
30
0
41
1
10
25.5431572788078
20
-0.750965191457368
30
0
41
1
10
25.5600182636111
20
-0.761422895323932
30
0
41
1
10
25.5859439511589
20
-0.775402527192483
30
0
41
1
10
25.5947125520595
20
-0.779782026671228
30
0
41
1
10
25.6122844831006
20
-0.787734041768516
30
0
41
1
10
25.6299244396249
20
-0.794900483680152
30
0
41
1
10
25.6476758837975
20
-0.800159770328719
30
0
41
1
10
25.6654787439429
20
-0.804249855920176
30
0
41
1
10
25.674460981863
20
-0.805711987337048
30
0
41
1
10
25.701009408257
20
-0.807914680101419
30
0
41
1
10
25.7181430580983
20
-0.806482339601729
30
0
41
1
10
25.7431385515285
20
-0.799421205287473
30
0
41
1
10
25.7513450520583
20
-0.796243409895567
30
0
41
1
10
25.7671727017521
20
-0.788526928549032
30
0
41
1
10
25.7748570405215
20
-0.783974918885434
30
0
41
1
10
25.7899203355847
20
-0.773655306050983
30
0
41
1
10
25.7973103080102
20
-0.767878800620736
30
0
41
1
10
25.8118860498039
20
-0.75530458209056
30
0
41
1
10
25.8189906097081
20
-0.748581433607228
30
0
41
1
10
25.8259954902522
20
-0.741507159787659
30
0
0
SPLINE
5
EE
100
AcDbEntity
8
1
62
256
6
ByLayer
370
18
48
1
60
0
100
AcDbSpline
70
4
71
3
72
18
73
14
40
0
40
0
40
0
40
0
40
0.25
40
0.25
40
0.375
40
0.375
40
0.5
40
0.5
40
0.625
40
0.625
40
0.75
40
0.75
40
1
40
1
40
1
40
1
41
1
10
23.1425653082032
20
-0.40948306780794
30
0
41
1
10
23.149248477814
20
-0.379313477265669
30
0
41
1
10
23.1582772190606
20
-0.348952584044184
30
0
41
1
10
23.174767903851
20
-0.302800669627288
30
0
41
1
10
23.180780147347
20
-0.287287286186256
30
0
41
1
10
23.1936748768582
20
-0.256325405895211
30
0
41
1
10
23.2005658818245
20
-0.240849089514114
30
0
41
1
10
23.2152317180916
20
-0.209896643680509
30
0
41
1
10
23.2230300504579
20
-0.194380287456937
30
0
41
1
10
23.2393448137965
20
-0.163711077608156
30
0
41
1
10
23.2478748886734
20
-0.148524833268823
30
0
41
1
10
23.2746048140128
20
-0.103427949235055
30
0
41
1
10
23.2939306657072
20
-0.0739715852917868
30
0
41
1
10
23.3149806522885
20
-0.0452560621249916
30
0
0
SPLINE
5
EF
100
AcDbEntity
8
1
62
256
6
ByLayer
370
18
48
1
60
0
100
AcDbSpline
70
4
71
3
72
10
73
6
40
0
40
0
40
0
40
0
40
0.0175606104888206
40
0.0175606104888206
40
1
40
1
40
1
40
1
41
1
10
24.3532399115387
20
3.03331962445361
30
0
41
1
10
24.3554281146944
20
3.03243139626997
30
0
41
1
10
24.3576164929691
20
3.03154191739608
30
0
41
1
10
24.4822450232444
20
2.98081889184709
30
0
41
1
10
24.6052323979865
20
2.92707711106573
30
0
41
1
10
24.7287299081918
20
2.86969197143921
30
0
0
SPLINE
5
F0
100
AcDbEntity
8
1
62
256
6
ByLayer
370
18
48
1
60
0
100
AcDbSpline
70
4
71
3
72
8
73
4
40
0
40
0
40
0
40
0
40
1
40
1
40
1
40
1
41
1
10
9.8805222212938
20
4.29270353635673
30
0
41
1
10
10.0107442110697
20
4.21737441238076
30
0
41
1
10
10.1422100346254
20
4.14297643171633
30
0
41
1
10
10.2749457632272
20
4.06952911150972
30
0
0
SPLINE
5
F1
100
AcDbEntity
8
1
62
256
6
ByLayer
370
18
48
1
60
0
100
AcDbSpline
70
4
71
3
72
8
73
4
40
0
40
0
40
0
40
0
40
1
40
1
40
1
40
1
41
1
10
9.82870169914051
20
3.90334392985903
30
0
41
0.99998479964467
10
9.85790206691036
20
3.88041248410175
30
0
41
0.99998479964467
10
9.88713781311621
20
3.8576081400705
30
0
41
1
10
9.91640760457696
20
3.83493193766773
30
0
0
SPLINE
5
F2
100
AcDbEntity
8
1
62
256
6
ByLayer
370
13
48
1
60
0
100
AcDbSpline
70
4
71
3
72
12
73
8
40
0
40
0
40
0
40
0
40
0.0544166015270604
40
0.243533281221648
40
0.495688854147765
40
0.747844427073883
40
1
40
1
40
1
40
1
41
1
10
18.4358856250597
20
-2.30245049466185
30
0
41
1
10
18.3010070833731
20
-2.27047974783309
30
0
41
1
10
17.6973785416865
20
-2.1210924156091
30
0
41
1
10
16.46875
20
-1.76121454200594
30
0
41
1
10
14.75
20
-1.14878983789109
30
0
41
1
10
12.875
20
-0.386809367838907
30
0
41
1
10
11.625
20
0.139782739244907
30
0
41
1
10
11
20
0.398488374206295
30
0
0
SPLINE
5
F3
100
AcDbEntity
8
1
62
256
6
ByLayer
370
18
48
1
60
0
100
AcDbSpline
70
4
71
3
72
14
73
10
40
0
40
0
40
0
40
0
40
0.0388311133325447
40
0.176140954285038
40
0.313450795237532
40
0.450760636190025
40
0.633840424126684
40
0.816920212063342
40
1
40
1
40
1
40
1
41
1
10
21.2414363766289
20
-3.89691995129982
30
0
41
1
10
21.108874251086
20
-3.92699900893635
30
0
41
1
10
20.507562125543
20
-4.05257628760484
30
0
41
1
10
19.4375
20
-4.18629482792661
30
0
41
1
10
18.03125
20
-4.1653587912844
30
0
41
1
10
16.46875
20
-3.92678252638933
30
0
41
1
10
14.75
20
-3.40552059786052
30
0
41
1
10
12.875
20
-2.55391873278967
30
0
41
1
10
11.625
20
-1.84796332887512
30
0
41
1
10
11
20
-1.47385851736902
30
0
0
SPLINE
5
F4
100
AcDbEntity
8
1
62
256
6
ByLayer
370
13
48
1
60
0
100
AcDbSpline
70
4
71
3
72
11
73
7
40
0
40
0
40
0
40
0
40
0.185144404268868
40
0.456762936179245
40
0.728381468089623
40
1
40
1
40
1
40
1
41
1
10
17.903063597364
20
-4.38562135522764
30
0
41
1
10
17.4770423982427
20
-4.40600218678253
30
0
41
1
10
16.4260211991213
20
-4.38700728451547
30
0
41
1
10
14.75
20
-4.08304374200236
30
0
41
1
10
12.8749999999999
20
-3.40808973478792
30
0
41
1
10
11.625
20
-2.76995774323825
30
0
41
1
10
11
20
-2.41861164497885
30
0
0
SPLINE
5
F5
100
AcDbEntity
8
1
62
256
6
ByLayer
370
18
48
1
60
0
100
AcDbSpline
70
4
71
3
72
16
73
12
40
0
40
0
40
0
40
0
40
0.125
40
0.125
40
0.250000000000001
40
0.250000000000001
40
0.5
40
0.5
40
0.75
40
0.75
40
1
40
1
40
1
40
1
41
1
10
25.1615894854127
20
2.62159041192356
30
0
41
1
10
25.1730379138164
20
2.5970562570468
30
0
41
1
10
25.1848734611318
20
2.57135402744797
30
0
41
1
10
25.2092866713986
20
2.51771034281012
30
0
41
1
10
25.2218846633853
20
2.48972262264675
30
0
41
1
10
25.2605168008431
20
2.40304358568531
30
0
41
1
10
25.2874325648733
20
2.34154905966682
30
0
41
1
10
25.3434312811266
20
2.21163754357568
30
0
41
1
10
25.3722071143991
20
2.14393267711009
30
0
41
1
10
25.4311732310393
20
2.00348851099938
30
0
41
1
10
25.4613680114074
20
1.93073793049936
30
0
41
1
10
25.4922575293721
20
1.85551919232856
30
0
0
SPLINE
5
F6
100
AcDbEntity
8
1
62
256
6
ByLayer
370
18
48
1
60
0
100
AcDbSpline
70
4
71
3
72
8
73
4
40
0
40
0
40
0
40
0
40
1
40
1
40
1
40
1
41
1
10
24.7287299129657
20
2.86969196655812
30
0
41
1
10
24.8735215110739
20
2.79133118334641
30
0
41
1
10
25.0178015752584
20
2.70857517553031
30
0
41
1
10
25.1615894854126
20
2.62159041192356
30
0
0
SPLINE
5
F7
100
AcDbEntity
8
1
62
256
6
ByLayer
370
18
48
1
60
0
100
AcDbSpline
70
4
71
3
72
10
73
6
40
0
40
0
40
0
40
0
40
0.202550723207891
40
0.831611162806335
40
1
40
1
40
1
40
1
41
1
10
24.7287299154549
20
2.86969196917963
30
0
41
1
10
24.5274866103033
20
2.95907466204614
30
0
41
1
10
23.7012433051517
20
3.31096760395403
30
0
41
1
10
22.707698073792
20
3.65297773349937
30
0
41
1
10
21.9153961475841
20
3.84997676341507
30
0
41
1
10
21.7480942213761
20
3.88812289100124
30
0
0
SPLINE
5
F8
100
AcDbEntity
8
1
62
256
6
ByLayer
370
18
48
1
60
0
100
AcDbSpline
70
4
71
3
72
8
73
4
40
0
40
0
40
0
40
0
40
1
40
1
40
1
40
1
41
1
10
25.0003629553204
20
-2.22905234435297
30
0
41
1
10
25.0065538408248
20
-2.44944196714022
30
0
41
1
10
25.0172259799993
20
-2.66974772544867
30
0
41
1
10
25.0327613387516
20
-2.88996246950126
30
0
0
SPLINE
5
F9
100
AcDbEntity
8
1
62
256
6
ByLayer
370
18
48
1
60
0
100
AcDbSpline
70
4
71
3
72
20
73
16
40
0
40
0
40
0
40
0
40
0.125000000000004
40
0.125000000000004
40
0.250000000000009
40
0.250000000000009
40
0.312500000000011
40
0.312500000000011
40
0.375000000000013
40
0.375000000000013
40
0.500000000000005
40
0.500000000000005
40
0.750000000000003
40
0.750000000000003
40
1
40
1
40
1
40
1
41
1
10
23.1960277639148
20
-0.608577405314861
30
0
41
1
10
23.259299214196
20
-0.686826260101071
30
0
41
1
10
23.3249781682337
20
-0.763746304335115
30
0
41
1
10
23.4606345417198
20
-0.915213874720365
30
0
41
1
10
23.5306128198062
20
-0.989760926950368
30
0
41
1
10
23.6385006842738
20
-1.09996957790818
30
0
41
1
10
23.6749638782898
20
-1.13644943025713
30
0
41
1
10
23.7487694947783
20
-1.20884223689575
30
0
41
1
10
23.7859155728711
20
-1.24456356628775
30
0
41
1
10
23.8980300188491
20
-1.35040700220478
30
0
41
1
10
23.9736725436747
20
-1.41921256914512
30
0
41
1
10
24.20295884205
20
-1.62102299330286
30
0
41
1
10
24.3589424108357
20
-1.7494585390379
30
0
41
1
10
24.6759907976466
20
-1.99640662094865
30
0
41
1
10
24.837065019097
20
-2.11490079347513
30
0
41
1
10
25.0003629553204
20
-2.22905234435297
30
0
0
SPLINE
5
FA
100
AcDbEntity
8
1
62
256
6
ByLayer
370
18
48
1
60
0
100
AcDbSpline
70
4
71
3
72
16
73
12
40
0
40
0
40
0
40
0
40
0.249999999999999
40
0.249999999999999
40
0.374999999999998
40
0.374999999999998
40
0.499999999999998
40
0.499999999999998
40
0.749999999999999
40
0.749999999999999
40
1
40
1
40
1
40
1
41
1
10
23.1960277639149
20
-0.608577405314833
30
0
41
1
10
23.1840448950002
20
-0.593757992049291
30
0
41
1
10
23.1735683499315
20
-0.57830230269164
30
0
41
1
10
23.1605107455648
20
-0.553993939571626
30
0
41
1
10
23.1566021273941
20
-0.545701798360085
30
0
41
1
10
23.1497661063652
20
-0.528706690317392
30
0
41
1
10
23.1469122156577
20
-0.520185217981066
30
0
41
1
10
23.1400029243255
20
-0.494548070254297
30
0
41
1
10
23.1375963961739
20
-0.477360020696864
30
0
41
1
10
23.1370584832823
20
-0.442776756054343
30
0
41
1
10
23.1389277852404
20
-0.425937794820072
30
0
41
1
10
23.1425653082023
20
-0.409483067807599
30
0
0
SPLINE
5
FB
100
AcDbEntity
8
1
62
256
6
ByLayer
370
13
48
1
60
0
100
AcDbSpline
70
4
71
3
72
12
73
8
40
0
40
0
40
0
40
0
40
0.123037380723109
40
0.38150036011027
40
0.639963339497432
40
0.898426318884593
40
1
40
1
40
1
40
1
41
1
10
23.1425653082033
20
-0.40948306780794
30
0
41
1
10
22.8450435388022
20
-0.287525511077234
30
0
41
1
10
21.9225217694011
20
0.0942615945858734
30
0
41
1
10
20.375
20
0.741267827394296
30
0
41
1
10
18.5
20
1.47107979990983
30
0
41
1
10
17.0043804886578
20
1.97412411017885
30
0
41
1
10
16.1337609773156
20
2.21804399753387
30
0
41
1
10
15.8881414659734
20
2.28265047584975
30
0
0
SPLINE
5
FC
100
AcDbEntity
8
1
62
256
6
ByLayer
370
18
48
1
60
0
100
AcDbSpline
70
4
71
3
72
18
73
14
40
0
40
0
40
0
40
0
40
0.249999999999975
40
0.249999999999975
40
0.374999999999963
40
0.374999999999963
40
0.499999999999952
40
0.499999999999952
40
0.749999999999973
40
0.749999999999973
40
0.874999999999986
40
0.874999999999986
40
1
40
1
40
1
40
1
41
1
10
25.4922575296601
20
1.85551919237918
30
0
41
1
10
25.5002734433159
20
1.83599976937776
30
0
41
1
10
25.5080715051164
20
1.81727273685544
30
0
41
1
10
25.5194064974003
20
1.79049925592378
30
0
41
1
10
25.5231132661866
20
1.78182196697821
30
0
41
1
10
25.5302956655401
20
1.76517660151441
30
0
41
1
10
25.5337828135218
20
1.75718118874769
30
0
41
1
10
25.5439076469025
20
1.73425367919052
30
0
41
1
10
25.5502179636429
20
1.7203512429532
30
0
41
1
10
25.5588077595525
20
1.70225183006562
30
0
41
1
10
25.561489531292
20
1.69675647494296
30
0
41
1
10
25.5663776491702
20
1.6871139774
30
0
41
1
10
25.5685949351932
20
1.68294324091755
30
0
41
1
10
25.5705448444097
20
1.67953949111731
30
0
0
SPLINE
5
FD
100
AcDbEntity
8
1
62
256
6
ByLayer
370
13
48
1
60
0
100
AcDbSpline
70
4
71
3
72
9
73
5
40
0
40
0
40
0
40
0
40
0.578187960243922
40
1
40
1
40
1
40
1
41
1
10
25.4922575297848
20
1.85551919256787
30
0
41
1
10
25.0365050198565
20
2.11947826263474
30
0
41
1
10
24.2482621969931
20
2.55449995661431
30
0
41
1
10
23.4600193741298
20
2.93855790523915
30
0
41
1
10
23.1275290611948
20
3.08978207590025
30
0
0
SPLINE
5
FE
100
AcDbEntity
8
1
62
256
6
ByLayer
370
18
48
1
60
0
100
AcDbSpline
70
4
71
3
72
28
73
24
40
0
40
0
40
0
40
0
40
0.124999999999985
40
0.124999999999985
40
0.24999999999997
40
0.24999999999997
40
0.374999999999955
40
0.374999999999955
40
0.406249999999952
40
0.406249999999952
40
0.43749999999995
40
0.43749999999995
40
0.499999999999952
40
0.499999999999952
40
0.624999999999961
40
0.624999999999961
40
0.749999999999971
40
0.749999999999971
40
0.812499999999976
40
0.812499999999976
40
0.874999999999981
40
0.874999999999981
40
1
40
1
40
1
40
1
41
1
10
25.0327613308994
20
-2.88996246906518
30
0
41
1
10
25.0437616427973
20
-2.95668345786152
30
0
41
1
10
25.0561584364458
20
-3.0208688734599
30
0
41
1
10
25.0833932449913
20
-3.14480718200457
30
0
41
1
10
25.0982335554645
20
-3.20455591488172
30
0
41
1
10
25.1301602269213
20
-3.31997524397508
30
0
41
1
10
25.14724762281
20
-3.37564396112217
30
0
41
1
10
25.1699520351413
20
-3.44278744731204
30
0
41
1
10
25.1745603931391
20
-3.45609362974577
30
0
41
1
10
25.1839114012759
20
-3.48246216140359
30
0
41
1
10
25.1886591015716
20
-3.49553728615339
30
0
41
1
10
25.2030144692222
20
-3.53416417279394
30
0
41
1
10
25.212759018302
20
-3.55919049378801
30
0
41
1
10
25.2424880185738
20
-3.6322092649898
30
0
41
1
10
25.2629661631373
20
-3.67814842600939
30
0
41
1
10
25.3051413329727
20
-3.76495737761542
30
0
41
1
10
25.3268388079024
20
-3.80582529805878
30
0
41
1
10
25.3602622556782
20
-3.86347872397866
30
0
41
1
10
25.3715499468037
20
-3.88208705951598
30
0
41
1
10
25.394415916917
20
-3.91809516480743
30
0
41
1
10
25.4060080878361
20
-3.93551458775101
30
0
41
1
10
25.4411214023847
20
-3.98582071127038
30
0
41
1
10
25.4648991622614
20
-4.01665575518902
30
0
41
1
10
25.4890347315249
20
-4.04486955458052
30
0
0
SPLINE
5
FF
100
AcDbEntity
8
1
62
256
6
ByLayer
370
18
48
1
60
0
100
AcDbSpline
70
4
71
3
72
15
73
11
40
0
40
0
40
0
40
0
40
0.111494706875853
40
0.225398187530793
40
0.377269495070714
40
0.529140802610635
40
0.681012110150555
40
0.832883417690476
40
0.984754725230396
40
1
40
1
40
1
40
1
41
1
10
25.0327613290887
20
-2.88996247039228
30
0
41
1
10
24.5739242193925
20
-2.69991563444608
30
0
41
1
10
23.6463371096963
20
-2.2734338028495
30
0
41
1
10
22.09375
20
-1.4500994719595
30
0
41
1
10
20.375
20
-0.443249506448552
30
0
41
1
10
18.5
20
0.68938280070472
30
0
41
1
10
16.625
20
1.76925088593245
30
0
41
1
10
14.75
20
2.71135450737279
30
0
41
1
10
13.4372607183981
20
3.22214064252083
30
0
41
1
10
12.7495214367962
20
3.43619960312304
30
0
41
1
10
12.6867821551942
20
3.45527354324867
30
0
0
SPLINE
5
100
100
AcDbEntity
8
1
62
256
6
ByLayer
370
18
48
1
60
0
100
AcDbSpline
70
4
71
3
72
18
73
14
40
0
40
0
40
0
40
0
40
0.24999999999999
40
0.24999999999999
40
0.374999999999984
40
0.374999999999984
40
0.499999999999977
40
0.499999999999977
40
0.750000000000007
40
0.750000000000007
40
0.875000000000003
40
0.875000000000003
40
1
40
1
40
1
40
1
41
1
10
25.4890347347797
20
-4.04486955355816
30
0
41
1
10
25.4971005543736
20
-4.05429835955428
30
0
41
1
10
25.5049490874858
20
-4.06515326548481
30
0
41
1
10
25.5163597898157
20
-4.08381221476915
30
0
41
1
10
25.5200950841209
20
-4.09042310462925
30
0
41
1
10
25.5273326870765
20
-4.10431688653068
30
0
41
1
10
25.5308472658197
20
-4.1116188304789
30
0
41
1
10
25.5410532791932
20
-4.13467517431553
30
0
41
1
10
25.5474163720135
20
-4.15154812805037
30
0
41
1
10
25.5560794794062
20
-4.17986065116767
30
0
41
1
10
25.5587923236553
20
-4.18973489768763
30
0
41
1
10
25.5637305172774
20
-4.21014838984271
30
0
41
1
10
25.5659700558365
20
-4.22072985727718
30
0
41
1
10
25.5679378979526
20
-4.23175483076406
30
0
0
SPLINE
5
101
100
AcDbEntity
8
1
62
256
6
ByLayer
370
13
48
1
60
0
100
AcDbSpline
70
4
71
3
72
16
73
12
40
0
40
0
40
0
40
0
40
0.0325180083986984
40
0.139727211832512
40
0.246936415266326
40
0.389882019844744
40
0.532827624423162
40
0.67577322900158
40
0.818718833579998
40
0.961664438158417
40
1
40
1
40
1
40
1
41
1
10
25.4890347362542
20
-4.04486955299043
30
0
41
1
10
25.3468564908361
20
-4.00807376985841
30
0
41
1
10
24.7359282454181
20
-3.83730976309545
30
0
41
1
10
23.65625
20
-3.45122793111571
30
0
41
1
10
22.09375
20
-2.72617864051767
30
0
41
1
10
20.375
20
-1.74998235131574
30
0
41
1
10
18.5
20
-0.548976095930271
30
0
41
1
10
16.625
20
0.692736021717423
30
0
41
1
10
14.75
20
1.88351917535962
30
0
41
1
10
13.3323857090839
20
2.67086581869353
30
0
41
1
10
12.5397714181678
20
3.05079484290653
30
0
41
1
10
12.3721571272516
20
3.1281992670732
30
0
0
SPLINE
5
102
100
AcDbEntity
8
1
62
256
6
ByLayer
370
18
48
1
60
0
100
AcDbSpline
70
4
71
3
72
12
73
8
40
0
40
0
40
0
40
0
40
0.131787208704464
40
0.305429766963571
40
0.536953177975714
40
0.768476588987857
40
1
40
1
40
1
40
1
41
1
10
19.0985330675768
20
-4.30650121818906
30
0
41
1
10
18.7427720450512
20
-4.37828964583485
30
0
41
1
10
17.9182610225257
20
-4.49992368245395
30
0
41
1
10
16.4687500000001
20
-4.52537918292705
30
0
41
1
10
14.7500000000001
20
-4.25506801750643
30
0
41
1
10
12.8750000000001
20
-3.61116488802557
30
0
41
1
10
11.6250000000001
20
-2.98259829580326
30
0
41
1
10
11.0000000000001
20
-2.63304544495554
30
0
0
SPLINE
5
103
100
AcDbEntity
8
1
62
256
6
ByLayer
370
18
48
1
60
0
100
AcDbSpline
70
4
71
3
72
49
73
45
40
0
40
0
40
0
40
0
40
0.022133215685196
40
0.022133215685196
40
0.0340584203719624
40
0.0340584203719624
40
0.0459836250587287
40
0.141385262552855
40
0.141385262552855
40
0.189086081299918
40
0.189086081299918
40
0.236786900046981
40
0.236786900046981
40
0.284487718794044
40
0.284487718794044
40
0.332188537541107
40
0.332188537541107
40
0.37988935628817
40
0.37988935628817
40
0.403739765661702
40
0.403739765661702
40
0.427590175035234
40
0.427590175035234
40
0.475290993782299
40
0.475290993782299
40
0.522991812529363
40
0.522991812529363
40
0.570692631276427
40
0.570692631276427
40
0.618393450023492
40
0.618393450023492
40
0.713795087517619
40
0.713795087517619
40
0.761495906264684
40
0.761495906264684
40
0.785346315638215
40
0.785346315638215
40
0.809196725011747
40
0.809196725011747
40
0.904598362505873
40
0.904598362505873
40
0.952299181252936
40
0.952299181252936
40
1
40
1
40
1
40
1
41
1
10
20.5858836753286
20
-4.05499568506426
30
0
41
1
10
20.5149016171321
20
-4.08309975848761
30
0
41
1
10
20.4438195165978
20
-4.11052177437503
30
0
41
1
10
20.3342600157701
20
-4.15165138111379
30
0
41
1
10
20.2958593494497
20
-4.16585287401364
30
0
41
1
10
20.2191638409726
20
-4.193783750888
30
0
41
1
10
19.8743155767296
20
-4.31742188379809
30
0
41
1
10
19.531781383422
20
-4.42257541635129
30
0
41
1
10
19.0762657340091
20
-4.5402680204401
30
0
41
1
10
18.9246368671515
20
-4.57575031492203
30
0
41
1
10
18.6215799791195
20
-4.63910093870462
30
0
41
1
10
18.470150769613
20
-4.66696519283931
30
0
41
1
10
18.1671678949905
20
-4.71521891834868
30
0
41
1
10
18.0156070007124
20
-4.73563653156987
30
0
41
1
10
17.7121511228645
20
-4.76881437801907
30
0
41
1
10
17.560267715003
20
-4.7815365725007
30
0
41
1
10
17.2559291398994
20
-4.79915939197844
30
0
41
1
10
17.1034652854837
20
-4.80410084591469
30
0
41
1
10
16.8741290289181
20
-4.80560363336579
30
0
41
1
10
16.7975780985452
20
-4.80511208187843
30
0
41
1
10
16.6442340285245
20
-4.80208672170198
30
0
41
1
10
16.5673700085029
20
-4.79953864348437
30
0
41
1
10
16.3373756657829
20
-4.78887460737189
30
0
41
1
10
16.1845344201609
20
-4.77786227199806
30
0
41
1
10
15.8795646436747
20
-4.74818660258339
30
0
41
1
10
15.7274495408338
20
-4.72948802595522
30
0
41
1
10
15.4237209503232
20
-4.68438926036936
30
0
41
1
10
15.272111416105
20
-4.65797106445271
30
0
41
1
10
14.969057282975
20
-4.59773763193971
30
0
41
1
10
14.8176051273871
20
-4.56395035665224
30
0
41
1
10
14.3631193986898
20
-4.4516377569613
30
0
41
1
10
14.0600407804593
20
-4.36193811063595
30
0
41
1
10
13.6037966804531
20
-4.2060476792833
30
0
41
1
10
13.4514503962462
20
-4.15049208137461
30
0
41
1
10
13.2223496295835
20
-4.06168267590502
30
0
41
1
10
13.1458824209906
20
-4.03118303571804
30
0
41
1
10
12.9926966486825
20
-3.96850983178336
30
0
41
1
10
12.9159273862782
20
-3.93630653583318
30
0
41
1
10
12.53200667964
20
-3.77122998637631
30
0
41
1
10
12.2259212280833
20
-3.62671047475723
30
0
41
1
10
11.7667163646188
20
-3.39254833968729
30
0
41
1
10
11.6136303713229
20
-3.31160856026193
30
0
41
1
10
11.3071350021546
20
-3.14416714892349
30
0
41
1
10
11.1537415122754
20
-3.05759376852092
30
0
41
1
10
11.0000000000001
20
-2.96851451327416
30
0
0
SPLINE
5
104
100
AcDbEntity
8
1
62
256
6
ByLayer
370
13
48
1
60
0
100
AcDbSpline
70
4
71
3
72
12
73
8
40
0
40
0
40
0
40
0
40
0.176032459156318
40
0.40696573376204
40
0.637899008367761
40
0.868832282973483
40
1
40
1
40
1
40
1
41
1
10
15.1957522595797
20
2.52468104305231
30
0
41
1
10
15.6721681730531
20
2.44928832364585
30
0
41
1
10
16.7735840865266
20
2.23314673796628
30
0
41
1
10
18.5
20
1.75674806870364
30
0
41
1
10
20.375
20
1.11225877459898
30
0
41
1
10
21.9799935507628
20
0.487742400410099
30
0
41
1
10
22.9599871015257
20
0.0964115761140931
30
0
41
1
10
23.3149806522885
20
-0.04525606212502
30
0
0
SPLINE
5
105
100
AcDbEntity
8
1
62
256
6
ByLayer
370
18
48
1
60
0
100
AcDbSpline
70
4
71
3
72
28
73
24
40
0
40
0
40
0
40
0
40
0.124999999999986
40
0.124999999999986
40
0.249999999999973
40
0.249999999999973
40
0.312499999999966
40
0.312499999999966
40
0.37499999999996
40
0.37499999999996
40
0.499999999999946
40
0.499999999999946
40
0.56249999999994
40
0.56249999999994
40
0.624999999999933
40
0.624999999999933
40
0.749999999999974
40
0.749999999999974
40
0.875000000000016
40
0.875000000000016
40
0.937500000000008
40
0.937500000000008
40
1
40
1
40
1
40
1
41
1
10
23.3149806522885
20
-0.0452560621250484
30
0
41
1
10
23.3327568970768
20
-0.0210017304078178
30
0
41
1
10
23.3519673644855
20
0.0016858243271827
30
0
41
1
10
23.3930173249145
20
0.0441952876467155
30
0
41
1
10
23.4148599238494
20
0.0640139270624047
30
0
41
1
10
23.4496017635047
20
0.0916033498466788
30
0
41
1
10
23.4615556330494
20
0.100470134807324
30
0
41
1
10
23.4859327194068
20
0.117328792060476
30
0
41
1
10
23.4983201006932
20
0.125300651627185
30
0
41
1
10
23.536070011727
20
0.147888919068237
30
0
41
1
10
23.5620180211527
20
0.161182720669189
30
0
41
1
10
23.6021268586524
20
0.178551055636291
30
0
41
1
10
23.615694889187
20
0.183910492513917
30
0
41
1
10
23.6432369013732
20
0.193768374407512
30
0
41
1
10
23.6572490925247
20
0.198275561313523
30
0
41
1
10
23.6994021185756
20
0.210358918095409
30
0
41
1
10
23.7277800834403
20
0.216555087054843
30
0
41
1
10
23.7851168457437
20
0.225487384221594
30
0
41
1
10
23.8140757313765
20
0.228222155071762
30
0
41
1
10
23.8579789533974
20
0.22983962741344
30
0
41
1
10
23.8727165864256
20
0.229962905093231
30
0
41
1
10
23.9021897958629
20
0.229396050369559
30
0
41
1
10
23.9169293490616
20
0.228707854276791
30
0
41
1
10
23.9316747955283
20
0.22763024106925
30
0
0
SPLINE
5
106
100
AcDbEntity
8
1
62
256
6
ByLayer
370
13
48
1
60
0
100
AcDbSpline
70
4
71
3
72
11
73
7
40
0
40
0
40
0
40
0
40
0.268259721959264
40
0.536519443918529
40
0.804779165877793
40
1
40
1
40
1
40
1
41
1
10
11
20
0.620723110480725
30
0
41
1
10
11.625
20
0.370895019041882
30
0
41
1
10
12.875
20
-0.144925327826456
30
0
41
1
10
14.75
20
-0.909669634031928
30
0
41
1
10
16.4548316848882
20
-1.53772730620315
30
0
41
1
10
17.5346633697764
20
-1.87545261218733
30
0
41
1
10
17.9894950546647
20
-2.00349908499413
30
0
0
SPLINE
5
107
100
AcDbEntity
8
1
62
256
6
ByLayer
370
18
48
1
60
0
100
AcDbSpline
70
4
71
3
72
8
73
4
40
0
40
0
40
0
40
0
40
1
40
1
40
1
40
1
41
1
10
25.7431458204535
20
0.614170457663732
30
0
41
1
10
25.7638480876227
20
0.491507013408551
30
0
41
1
10
25.7856121880063
20
0.36883252885022
30
0
41
1
10
25.8085924142912
20
0.246186381390714
30
0
0
SPLINE
5
108
100
AcDbEntity
8
1
62
256
6
ByLayer
370
18
48
1
60
0
100
AcDbSpline
70
4
71
3
72
8
73
4
40
0
40
0
40
0
40
0
40
1
40
1
40
1
40
1
41
1
10
25.7022326820345
20
0.256217639228964
30
0
41
1
10
25.7376744751212
20
0.252861681994858
30
0
41
1
10
25.7731277446844
20
0.249517955385386
30
0
41
1
10
25.8085924142894
20
0.246186381390686
30
0
0
SPLINE
5
109
100
AcDbEntity
8
1
62
256
6
ByLayer
370
18
48
1
60
0
100
AcDbSpline
70
4
71
3
72
48
73
44
40
0
40
0
40
0
40
0
40
0.06249999999999
40
0.06249999999999
40
0.12499999999998
40
0.12499999999998
40
0.156249999999975
40
0.156249999999975
40
0.187499999999971
40
0.218749999999966
40
0.218749999999966
40
0.234374999999965
40
0.234374999999965
40
0.249999999999964
40
0.312499999999965
40
0.312499999999965
40
0.328124999999969
40
0.328124999999969
40
0.343749999999972
40
0.343749999999972
40
0.374999999999979
40
0.374999999999979
40
0.437499999999984
40
0.437499999999984
40
0.453124999999988
40
0.453124999999988
40
0.468749999999992
40
0.468749999999992
40
0.499999999999999
40
0.499999999999999
40
0.562500000000003
40
0.562500000000003
40
0.625000000000006
40
0.625000000000006
40
0.656250000000008
40
0.656250000000008
40
0.687500000000009
40
0.687500000000009
40
0.750000000000013
40
0.750000000000013
40
0.875000000000006
40
0.875000000000006
40
1
40
1
40
1
40
1
41
1
10
25.7625746857022
20
0.221309168309062
30
0
41
1
10
25.785524398161
20
0.214205632131638
30
0
41
1
10
25.8050314259836
20
0.207329302759433
30
0
41
1
10
25.835747978755
20
0.194124253530532
30
0
41
1
10
25.8469744391001
20
0.187794416137905
30
0
41
1
10
25.8558931993526
20
0.178822417220886
30
0
41
1
10
25.8574990989027
20
0.175951626038795
30
0
41
1
10
25.8577730139081
20
0.170491013743629
30
0
41
1
10
25.8551174703271
20
0.165303389133953
30
0
41
1
10
25.8461732437508
20
0.160701788589478
30
0
41
1
10
25.8369146571345
20
0.157488254061775
30
0
41
1
10
25.8333930476776
20
0.156454308906206
30
0
41
1
10
25.8255088065577
20
0.154480406998488
30
0
41
1
10
25.8037857931439
20
0.149799699739532
30
0
41
1
10
25.7721715710064
20
0.146367662575017
30
0
41
1
10
25.7330794980308
20
0.143879632252151
30
0
41
1
10
25.7248868811534
20
0.143429265631198
30
0
41
1
10
25.7077630424049
20
0.142621774175723
30
0
41
1
10
25.698805135738
20
0.142263919843458
30
0
41
1
10
25.6711157224146
20
0.14133674473203
30
0
41
1
10
25.6515397363225
20
0.140910450974758
30
0
41
1
10
25.5898535934097
20
0.140139863672772
30
0
41
1
10
25.5448015272866
20
0.140301067566838
30
0
41
1
10
25.4845545429109
20
0.141178176624067
30
0
41
1
10
25.4723072122539
20
0.141387608668225
30
0
41
1
10
25.4474362921571
20
0.141871123917099
30
0
41
1
10
25.4347936337024
20
0.142145714612894
30
0
41
1
10
25.3965572588593
20
0.143056041463836
30
0
41
1
10
25.3706086809879
20
0.143778654636094
30
0
41
1
10
25.2915795204547
20
0.146245746773843
30
0
41
1
10
25.237324191346
20
0.148287283333417
30
0
41
1
10
25.126396200964
20
0.152981626125921
30
0
41
1
10
25.0697192636802
20
0.155635513630585
30
0
41
1
10
24.9832479256151
20
0.159984505780045
30
0
41
1
10
24.9541800349378
20
0.161495898148786
30
0
41
1
10
24.8956023309888
20
0.164630431647481
30
0
41
1
10
24.8660532573772
20
0.166255856774342
30
0
41
1
10
24.7772465913544
20
0.171259455058419
30
0
41
1
10
24.7177428144048
20
0.174768423785821
30
0
41
1
10
24.5385064856832
20
0.18571491668024
30
0
41
1
10
24.4180580141756
20
0.193566773659768
30
0
41
1
10
24.1758093719376
20
0.210052772716722
30
0
41
1
10
24.0540032776067
20
0.218690343030687
30
0
41
1
10
23.9316747955283
20
0.22763024106925
30
0
0
SPLINE
5
10A
100
AcDbEntity
8
1
62
256
6
ByLayer
370
18
48
1
60
0
100
AcDbSpline
70
4
71
3
72
18
73
14
40
0
40
0
40
0
40
0
40
0.249999999999997
40
0.249999999999997
40
0.499999999999993
40
0.499999999999993
40
0.624999999999994
40
0.624999999999994
40
0.687499999999994
40
0.687499999999994
40
0.749999999999994
40
0.749999999999994
40
1
40
1
40
1
40
1
41
1
10
7.78133072258004
20
-4.99903363447748
30
0
41
1
10
7.66790427635411
20
-4.99561124229919
30
0
41
1
10
7.56268951415231
20
-4.9830574378577
30
0
41
1
10
7.36760276231681
20
-4.93768156592685
30
0
41
1
10
7.27772530484961
20
-4.90486922098009
30
0
41
1
10
7.15371566401379
20
-4.83856069614524
30
0
41
1
10
7.11418192141517
20
-4.81360457200213
30
0
41
1
10
7.05752084285939
20
-4.77159253508808
30
0
41
1
10
7.03907188860825
20
-4.75681893706874
30
0
41
1
10
7.0032558531025
20
-4.72588683431908
30
0
41
1
10
6.98585994026476
20
-4.70970821973032
30
0
41
1
10
6.90136735934806
20
-4.62520886804273
30
0
41
1
10
6.84169920158121
20
-4.54610387970988
30
0
41
1
10
6.78927004181904
20
-4.45468379864059
30
0
0
SPLINE
5
10B
100
AcDbEntity
8
1
62
256
6
ByLayer
370
18
48
1
60
0
100
AcDbSpline
70
4
71
3
72
19
73
15
40
0
40
0
40
0
40
0
40
0.250000000000004
40
0.250000000000004
40
0.375000000000008
40
0.375000000000008
40
0.500000000000012
40
0.500000000000012
40
0.750000000000015
40
0.750000000000015
40
0.812500000000016
40
0.812500000000016
40
0.875000000000017
40
1
40
1
40
1
40
1
41
1
10
6.78927004181907
20
-4.45468379864059
30
0
41
1
10
6.77897378607008
20
-4.43673034412123
30
0
41
1
10
6.77222006827515
20
-4.41819086569956
30
0
41
1
10
6.76841353408338
20
-4.38941282790069
30
0
41
1
10
6.76820268858518
20
-4.37965837320957
30
0
41
1
10
6.77013120801803
20
-4.35980599230794
30
0
41
1
10
6.7722643267559
20
-4.34985361164473
30
0
41
1
10
6.78213160559795
20
-4.32018189234014
30
0
41
1
10
6.79333319135415
20
-4.30054467435343
30
0
41
1
10
6.81319057945905
20
-4.27627198630981
30
0
41
1
10
6.81745808116324
20
-4.2714309220847
30
0
41
1
10
6.82647620195715
20
-4.26188485007719
30
0
41
1
10
6.84076053685567
20
-4.24772860850152
30
0
41
1
10
6.8572273830595
20
-4.23405230252473
30
0
41
1
10
6.86911162658146
20
-4.22514285441352
30
0
0
SPLINE
5
10C
100
AcDbEntity
8
1
62
256
6
ByLayer
370
18
48
1
60
0
100
AcDbSpline
70
4
71
3
72
37
73
33
40
0
40
0
40
0
40
0
40
0.0312500000000003
40
0.0312500000000003
40
0.0625000000000007
40
0.0625000000000007
40
0.125000000000005
40
0.125000000000005
40
0.187500000000009
40
0.187500000000009
40
0.250000000000014
40
0.250000000000014
40
0.312500000000018
40
0.312500000000018
40
0.375000000000023
40
0.375000000000023
40
0.437500000000027
40
0.437500000000027
40
0.468750000000029
40
0.468750000000029
40
0.500000000000032
40
0.500000000000032
40
0.625000000000029
40
0.625000000000029
40
0.687500000000025
40
0.687500000000025
40
0.750000000000021
40
0.812500000000017
40
0.812500000000017
40
0.875000000000013
40
0.875000000000013
40
1
40
1
40
1
40
1
41
1
10
6.8691116265816
20
-4.22514285441338
30
0
41
1
10
6.89229166276891
20
-4.20776511141739
30
0
41
1
10
6.91726799108881
20
-4.19118676808648
30
0
41
1
10
6.97015571902114
20
-4.15940054064978
30
0
41
1
10
6.99807060860198
20
-4.14419387844438
30
0
41
1
10
7.08555266084645
20
-4.10040163284484
30
0
41
1
10
7.14885386213314
20
-4.07361830801352
30
0
41
1
10
7.28299928234935
20
-4.02421422176576
30
0
41
1
10
7.35224305553726
20
-4.00217172880707
30
0
41
1
10
7.49394057370861
20
-3.96226726517355
30
0
41
1
10
7.56640744208948
20
-3.94441847838041
30
0
41
1
10
7.71395582961401
20
-3.91230761291288
30
0
41
1
10
7.78905909038912
20
-3.89804804277199
30
0
41
1
10
7.94145517370066
20
-3.87277583982939
30
0
41
1
10
8.01814440319495
20
-3.86186298886031
30
0
41
1
10
8.17236846706805
20
-3.84310443701307
30
0
41
1
10
8.24990415385736
20
-3.83526108234776
30
0
41
1
10
8.36677851448664
20
-3.82561751153892
30
0
41
1
10
8.40583208704703
20
-3.82275740507399
30
0
41
1
10
8.48412250936209
20
-3.81772397049772
30
0
41
1
10
8.52337024693034
20
-3.8155506372054
30
0
41
1
10
8.71953000634952
20
-3.8063759828261
30
0
41
1
10
8.87661267491512
20
-3.80439121853306
30
0
41
1
10
9.1124429809399
20
-3.80859854900081
30
0
41
1
10
9.19112130557099
20
-3.81120812873272
30
0
41
1
10
9.34794036630225
20
-3.81870426514004
30
0
41
1
10
9.50436997962996
20
-3.82847796135269
30
0
41
1
10
9.66004552065289
20
-3.84258830974915
30
0
41
1
10
9.81535177573147
20
-3.85877027249657
30
0
41
1
10
9.89274946837944
20
-3.86789140197331
30
0
41
1
10
10.1236543567178
20
-3.89810914876418
30
0
41
1
10
10.2760919260233
20
-3.92208322512875
30
0
41
1
10
10.4270785440748
20
-3.94941752432831
30
0
0
SPLINE
5
10D
100
AcDbEntity
8
1
62
256
6
ByLayer
370
18
48
1
60
0
100
AcDbSpline
70
4
71
3
72
8
73
4
40
0
40
0
40
0
40
0
40
1
40
1
40
1
40
1
41
1
10
25.7440472117143
20
-4.94471037211704
30
0
41
1
10
25.7642915153086
20
-4.96128846809378
30
0
41
1
10
25.7855846203146
20
-4.97677084330715
30
0
41
1
10
25.8080802513181
20
-4.99098342223607
30
0
0
SPLINE
5
10E
100
AcDbEntity
8
1
62
256
6
ByLayer
370
18
48
1
60
0
100
AcDbSpline
70
4
71
3
72
8
73
4
40
0
40
0
40
0
40
0
40
1
40
1
40
1
40
1
41
1
10
25.7429585403422
20
-4.94297246207319
30
0
41
1
10
25.7433220670613
20
-4.9435523815828
30
0
41
1
10
25.7436849564633
20
-4.94413168390176
30
0
41
1
10
25.744047211714
20
-4.9447103721171
30
0
0
SPLINE
5
10F
100
AcDbEntity
8
1
62
256
6
ByLayer
370
18
48
1
60
0
100
AcDbSpline
70
4
71
3
72
15
73
11
40
0
40
0
40
0
40
0
40
0.125388785800452
40
0.250661191286107
40
0.375819933620336
40
0.500867675097238
40
0.625807023901232
40
0.750640534851216
40
0.875370710130194
40
1
40
1
40
1
40
1
41
1
10
9.91640760082706
20
3.83493194057289
30
0
41
1
10
9.90889244635008
20
3.82872273382333
30
0
41
1
10
9.89386911262949
20
3.81631008343479
30
0
41
1
10
9.87145318567818
20
3.79793903143874
30
0
41
1
10
9.84913795099266
20
3.77975957705104
30
0
41
1
10
9.82693131805516
20
3.76178834800555
30
0
41
1
10
9.80483062405261
20
3.7440186392206
30
0
41
1
10
9.78283861956598
20
3.72645533548143
30
0
41
1
10
9.76094697416966
20
3.70908019088088
30
0
41
1
10
9.74643403130048
20
3.69765932083902
30
0
41
1
10
9.73918049567621
20
3.69195119613573
30
0
0
SPLINE
5
110
100
AcDbEntity
8
1
62
256
6
ByLayer
370
18
48
1
60
0
100
AcDbSpline
70
4
71
3
72
8
73
4
40
0
40
0
40
0
40
0
40
1
40
1
40
1
40
1
41
1
10
25.7114117556462
20
-4.99884377743626
30
0
41
1
10
25.7436241938459
20
-4.99608883206355
30
0
41
1
10
25.7758470474817
20
-4.99346899771695
30
0
41
1
10
25.8080802513163
20
-4.99098342223624
30
0
0
SPLINE
5
111
100
AcDbEntity
8
1
62
256
6
ByLayer
370
18
48
1
60
0
100
AcDbSpline
70
4
71
3
72
8
73
4
40
0
40
0
40
0
40
0
40
1
40
1
40
1
40
1
41
1
10
25.6505447720732
20
-4.99930244019322
30
0
41
1
10
25.670833069289
20
-4.99909694234739
30
0
41
1
10
25.6911221993566
20
-4.99894404165414
30
0
41
1
10
25.7114117554264
20
-4.99884377743996
30
0
0
SPLINE
5
112
100
AcDbEntity
8
1
62
256
6
ByLayer
370
13
48
1
60
0
100
AcDbSpline
70
4
71
3
72
8
73
4
40
0
40
0
40
0
40
0
40
1
40
1
40
1
40
1
41
1
10
9.71961239438428
20
3.67443629660855
30
0
41
1
10
9.72563142176952
20
3.68068359251237
30
0
41
1
10
9.73165044915478
20
3.68691218050168
30
0
41
1
10
9.73766947654005
20
3.69312196544095
30
0
0
SPLINE
5
113
100
AcDbEntity
8
1
62
256
6
ByLayer
370
18
48
1
60
0
100
AcDbSpline
70
4
71
3
72
9
73
5
40
0
40
0
40
0
40
0
40
0.391186089579045
40
1
40
1
40
1
40
1
41
1
10
14.0797588029872
20
0.867826971065142
30
0
41
1
10
13.6781725353248
20
1.1419576881336
30
0
41
1
10
12.6515862676624
20
1.83092619574583
30
0
41
1
10
11.625
20
2.46186184649071
30
0
41
1
10
11
20
2.80851541824075
30
0
0
SPLINE
5
114
100
AcDbEntity
8
1
62
256
6
ByLayer
370
18
48
1
60
0
100
AcDbSpline
70
4
71
3
72
8
73
4
40
0
40
0
40
0
40
0
40
1
40
1
40
1
40
1
41
1
10
25.6395122614537
20
0.261747730053628
30
0
41
1
10
25.6604183943259
20
0.259899907428917
30
0
41
1
10
25.6813253316137
20
0.258056530552835
30
0
41
1
10
25.7022326818655
20
0.256217637312631
30
0
0
SPLINE
5
115
100
AcDbEntity
8
1
62
256
6
ByLayer
370
18
48
1
60
0
100
AcDbSpline
70
4
71
3
72
8
73
4
40
0
40
0
40
0
40
0
40
1
40
1
40
1
40
1
41
1
10
25.6395122614531
20
0.261747730054338
30
0
41
1
10
25.677633151695
20
0.248431289942459
30
0
41
1
10
25.7184643481894
20
0.234962432450601
30
0
41
1
10
25.7625746852464
20
0.221309168484737
30
0
0
SPLINE
5
116
100
AcDbEntity
8
1
62
256
6
ByLayer
370
13
48
1
60
0
100
AcDbSpline
70
4
71
3
72
15
73
11
40
0
40
0
40
0
40
0
40
0.0881228222333824
40
0.191170341323874
40
0.32856703344453
40
0.465963725565186
40
0.603360417685842
40
0.740757109806498
40
0.878153801927154
40
1
40
1
40
1
40
1
41
1
10
24.8588283818907
20
0.828261974150081
30
0
41
1
10
24.4579689212604
20
1.09508474530665
30
0
41
1
10
23.5883594606302
20
1.66484377296044
30
0
41
1
10
22.09375
20
2.57808018561482
30
0
41
1
10
20.375
20
3.47787804773083
30
0
41
1
10
18.5
20
4.20802458808819
30
0
41
1
10
16.625
20
4.62150599026168
30
0
41
1
10
14.75
20
4.70081109036693
30
0
41
1
10
12.9457372108445
20
4.43697325242857
30
0
41
1
10
11.7664744216891
20
4.07451835041502
30
0
41
1
10
11.2122116325336
20
3.86583933657676
30
0
0
SPLINE
5
117
100
AcDbEntity
8
1
62
256
6
ByLayer
370
18
48
1
60
0
100
AcDbSpline
70
4
71
3
72
8
73
4
40
0
40
0
40
0
40
0
40
1
40
1
40
1
40
1
41
1
10
25.7791196227513
20
1.20909614641641
30
0
41
1
10
25.7683960062444
20
1.01024658968046
30
0
41
1
10
25.7565571754931
20
0.811872679597542
30
0
41
1
10
25.7431458204391
20
0.614170457657252
30
0
0
SPLINE
5
118
100
AcDbEntity
8
1
62
256
6
ByLayer
370
18
48
1
60
0
100
AcDbSpline
70
4
71
3
72
8
73
4
40
0
40
0
40
0
40
0
40
1
40
1
40
1
40
1
41
1
10
25.7791196227426
20
1.20909614641775
30
0
41
1
10
25.7315179738891
20
1.3275887004053
30
0
41
1
10
25.6840568590412
20
1.44537344316333
30
0
41
1
10
25.6367357060798
20
1.56245325621717
30
0
0
SPLINE
5
119
100
AcDbEntity
8
1
62
256
6
ByLayer
370
18
48
1
60
0
100
AcDbSpline
70
4
71
3
72
21
73
17
40
0
40
0
40
0
40
0
40
0.0230010654572905
40
0.082005388946634
40
0.141009712435978
40
0.200014035925321
40
0.318022682904009
40
0.377027006393352
40
0.436031329882696
40
0.554039976861383
40
0.613044300350727
40
0.67204862384007
40
0.790057270818758
40
0.849061594308101
40
0.908065917797445
40
1
40
1
40
1
40
1
41
1
10
16.4289688501724
20
4.94155355756865
30
0
41
1
10
16.4994021392003
20
4.93680731611073
30
0
41
1
10
16.7504410766156
20
4.91712474454368
30
0
41
1
10
17.1816176224371
20
4.86643475790274
30
0
41
1
10
17.7218339155047
20
4.77319476234655
30
0
41
1
10
18.4408906649574
20
4.60973596655836
30
0
41
1
10
19.159173794383
20
4.38935743763537
30
0
41
1
10
19.8787087345501
20
4.11565220900826
30
0
41
1
10
20.5997142698632
20
3.80738854598056
30
0
41
1
10
21.3239786503667
20
3.44965619463605
30
0
41
1
10
22.0537303022317
20
3.04695513558417
30
0
41
1
10
22.7876030334225
20
2.61576379312922
30
0
41
1
10
23.5286682346334
20
2.14539639859001
30
0
41
1
10
24.2788933981705
20
1.64220580420977
30
0
41
1
10
24.9520130757128
20
1.17731445452276
30
0
41
1
10
25.4420328890486
20
0.829616775706199
30
0
41
1
10
25.7431451402834
20
0.614170944329203
30
0
0
SPLINE
5
11A
100
AcDbEntity
8
1
62
256
6
ByLayer
370
18
48
1
60
0
100
AcDbSpline
70
4
71
3
72
8
73
4
40
0
40
0
40
0
40
0
40
1
40
1
40
1
40
1
41
1
10
25.5705448499118
20
1.67953948597122
30
0
41
1
10
25.5921160772401
20
1.64188780978009
30
0
41
1
10
25.6141695177993
20
1.60288752458737
30
0
41
1
10
25.6367357060798
20
1.5624532562172
30
0
0
SPLINE
5
11B
100
AcDbEntity
8
1
62
256
6
ByLayer
370
13
48
1
60
0
100
AcDbSpline
70
4
71
3
72
8
73
4
40
0
40
0
40
0
40
0
40
1
40
1
40
1
40
1
41
1
10
25.5705448514832
20
1.67953948830703
30
0
41
1
10
25.098444155098
20
1.96617040669219
30
0
41
1
10
24.6263434587127
20
2.24065930093477
30
0
41
1
10
24.1542427623275
20
2.49763489725336
30
0
0
SPLINE
5
11C
100
AcDbEntity
8
1
62
256
6
ByLayer
370
18
48
1
60
0
100
AcDbSpline
70
4
71
3
72
36
73
32
40
0
40
0
40
0
40
0
40
0.113707435288743
40
0.113707435288743
40
0.170561152933116
40
0.170561152933116
40
0.198988011755303
40
0.198988011755303
40
0.227414870577489
40
0.227414870577489
40
0.341122305866235
40
0.341122305866235
40
0.454829741154981
40
0.454829741154981
40
0.511683458799355
40
0.511683458799355
40
0.568537176443728
40
0.568537176443728
40
0.682244611732474
40
0.682244611732474
40
0.71067147055466
40
0.71067147055466
40
0.739098329376847
40
0.739098329376847
40
0.79595204702122
40
0.79595204702122
40
0.909659482309965
40
0.909659482309965
40
0.966513199954339
40
0.966513199954339
40
1
40
1
40
1
40
1
41
1
10
25.6367357060801
20
1.56245325621703
30
0
41
1
10
25.3299848683819
20
1.76504440533702
30
0
41
1
10
25.023718440769
20
1.96247786702446
30
0
41
1
10
24.5638833075159
20
2.24936931367182
30
0
41
1
10
24.4105339526349
20
2.34345409888846
30
0
41
1
10
24.1802606450808
20
2.48203309506263
30
0
41
1
10
24.1034214282446
20
2.52782425817458
30
0
41
1
10
23.9498049047883
20
2.61841506122153
30
0
41
1
10
23.8731181560778
20
2.66316180443437
30
0
41
1
10
23.4902032690744
20
2.88410055252189
30
0
41
1
10
23.185518551614
20
3.05192741497947
30
0
41
1
10
22.5775907983344
20
3.36804832830796
30
0
41
1
10
22.2743220571547
20
3.51635350905846
30
0
41
1
10
21.819262136241
20
3.7226290536083
30
0
41
1
10
21.6675513260951
20
3.78870127636296
30
0
41
1
10
21.3638365546214
20
3.9153761816323
30
0
41
1
10
21.2118331511164
20
3.97598183037022
30
0
41
1
10
20.7550926716035
20
4.14926476483689
30
0
41
1
10
20.4496322059829
20
4.2534239155645
30
0
41
1
10
20.0655060282057
20
4.36803782519817
30
0
41
1
10
19.9887349484584
20
4.39012873421871
30
0
41
1
10
19.8354962601288
20
4.43257060668523
30
0
41
1
10
19.7589938710174
20
4.45293084441846
30
0
41
1
10
19.529781787496
20
4.51144471436899
30
0
41
1
10
19.3773646220784
20
4.54703565386922
30
0
41
1
10
18.9208678364958
20
4.64366553277077
30
0
41
1
10
18.6175557194003
20
4.69453167521559
30
0
41
1
10
18.1628593249241
20
4.75004081661817
30
0
41
1
10
18.0113475819047
20
4.76507646821477
30
0
41
1
10
17.7705362447261
20
4.78338368946376
30
0
41
1
10
17.6812628734259
20
4.78894166874548
30
0
41
1
10
17.5919515735753
20
4.7932855638285
30
0
0
SPLINE
5
11D
100
AcDbEntity
8
1
62
256
6
ByLayer
370
18
48
1
60
0
100
AcDbSpline
70
4
71
3
72
8
73
4
40
0
40
0
40
0
40
0
40
1
40
1
40
1
40
1
41
1
10
25.7785799397842
20
-4.71883772251263
30
0
41
1
10
25.7677126330907
20
-4.79197936843633
30
0
41
1
10
25.7556913979044
20
-4.86617530159131
30
0
41
1
10
25.7420288821393
20
-4.94187079140679
30
0
0
SPLINE
5
11E
100
AcDbEntity
8
1
62
256
6
ByLayer
370
18
48
1
60
0
100
AcDbSpline
70
4
71
3
72
8
73
4
40
0
40
0
40
0
40
0
40
1
40
1
40
1
40
1
41
1
10
25.7785799397729
20
-4.71883772251309
30
0
41
1
10
25.7304113769669
20
-4.67966358261765
30
0
41
1
10
25.6823907666622
20
-4.63818402950409
30
0
41
1
10
25.6345174763033
20
-4.59440891973065
30
0
0
SPLINE
5
11F
100
AcDbEntity
8
1
62
256
6
ByLayer
370
18
48
1
60
0
100
AcDbSpline
70
4
71
3
72
8
73
4
40
0
40
0
40
0
40
0
40
1
40
1
40
1
40
1
41
1
10
11
20
3.80229196169853
30
0
41
1
10
10.7560931167901
20
3.89522741404781
30
0
41
1
10
10.5142521995346
20
3.98459769085946
30
0
41
1
10
10.2750381401723
20
4.0694348777229
30
0
0
SPLINE
5
120
100
AcDbEntity
8
1
62
256
6
ByLayer
370
18
48
1
60
0
100
AcDbSpline
70
4
71
3
72
25
73
21
40
0
40
0
40
0
40
0
40
0.055304518215873
40
0.1106330010237
40
0.16598657375854
40
0.221366339223854
40
0.27677337802444
40
0.332208748894456
40
0.387673489020571
40
0.443168614360238
40
0.498695119955372
40
0.554253980241049
40
0.609846149349713
40
0.665472561410644
40
0.721134130844946
40
0.77683175265588
40
0.8325663027149
40
0.888338638043185
40
0.944149597088844
40
1
40
1
40
1
40
1
41
1
10
10.2750128116603
20
4.06941693330572
30
0
41
1
10
10.2680942204918
20
4.06452746773417
30
0
41
1
10
10.2542540401861
20
4.05474641788447
30
0
41
1
10
10.2336214536865
20
4.04032395483273
30
0
41
1
10
10.2130768350078
20
4.02607895186301
30
0
41
1
10
10.1926296653368
20
4.01202879381663
30
0
41
1
10
10.172277402013
20
3.99816780214746
30
0
41
1
10
10.1520207264788
20
3.98449646735091
30
0
41
1
10
10.1318594557078
20
3.97101361067186
30
0
41
1
10
10.1117936386399
20
3.95771848614385
30
0
41
1
10
10.0918232617793
20
3.94461021631838
30
0
41
1
10
10.0719483295991
20
3.93168794612265
30
0
41
1
10
10.0521688375364
20
3.9189507923922
30
0
41
1
10
10.0324847995674
20
3.90639789208905
30
0
41
1
10
10.0128961648579
20
3.89402826009748
30
0
41
1
10
9.99340312385425
20
3.88184131056391
30
0
41
1
10
9.97400496623385
20
3.869834912268
30
0
41
1
10
9.9547043469768
20
3.85801265283538
30
0
41
1
10
9.93549134899229
20
3.84635670103026
30
0
41
1
10
9.92277035374363
20
3.8387410883208
30
0
41
1
10
9.91640760930261
20
3.83493193687588
30
0
0
SPLINE
5
121
100
AcDbEntity
8
1
62
256
6
ByLayer
370
18
48
1
60
0
100
AcDbSpline
70
4
71
3
72
8
73
4
40
0
40
0
40
0
40
0
40
1
40
1
40
1
40
1
41
1
10
25.742028882134
20
-4.94187079140787
30
0
41
1
10
25.7423388874968
20
-4.94223812780453
30
0
41
1
10
25.7426487735329
20
-4.94260535133077
30
0
41
1
10
25.7429585403543
20
-4.94297246207998
30
0
0
SPLINE
5
122
100
AcDbEntity
8
1
62
256
6
ByLayer
370
18
48
1
60
0
100
AcDbSpline
70
4
71
3
72
8
73
4
40
0
40
0
40
0
40
0
40
1
40
1
40
1
40
1
41
1
10
25.5679378978233
20
-4.23175483088048
30
0
41
1
10
25.5896227111995
20
-4.35323870901854
30
0
41
1
10
25.6118060630303
20
-4.4741350040718
30
0
41
1
10
25.6345174763034
20
-4.59440891973065
30
0
0
SPLINE
5
123
100
AcDbEntity
8
1
62
256
6
ByLayer
370
13
48
1
60
0
100
AcDbSpline
70
4
71
3
72
15
73
11
40
0
40
0
40
0
40
0
40
0.0417174448278131
40
0.157785426762148
40
0.273853408696483
40
0.428610717942264
40
0.583368027188044
40
0.738125336433824
40
0.892882645679604
40
1
40
1
40
1
40
1
41
1
10
25.5679378977857
20
-4.23175483089324
30
0
41
1
10
25.3994585985238
20
-4.19288542467839
30
0
41
1
10
24.762229299262
20
-4.02932389936333
30
0
41
1
10
23.6562500000001
20
-3.65105597614394
30
0
41
1
10
22.0937500000001
20
-2.94064228925529
30
0
41
1
10
20.3750000000001
20
-1.96715575107081
30
0
41
1
10
18.5000000000001
20
-0.752212940215287
30
0
41
1
10
16.6250000000001
20
0.51932084502775
30
0
41
1
10
14.9423978387418
20
1.626763789976
30
0
41
1
10
13.8847956774835
20
2.2564015217786
30
0
41
1
10
13.4521935162252
20
2.49842359222657
30
0
0
SPLINE
5
124
100
AcDbEntity
8
1
62
256
6
ByLayer
370
18
48
1
60
0
100
AcDbSpline
70
4
71
3
72
61
73
57
40
0
40
0
40
0
40
0
40
0.0312500000000008
40
0.0312500000000008
40
0.0625000000000017
40
0.0625000000000017
40
0.0937500000000025
40
0.0937500000000025
40
0.109375000000003
40
0.109375000000003
40
0.125000000000003
40
0.125000000000003
40
0.187500000000001
40
0.187500000000001
40
0.249999999999999
40
0.249999999999999
40
0.312499999999998
40
0.312499999999998
40
0.374999999999997
40
0.374999999999997
40
0.437499999999996
40
0.437499999999996
40
0.468749999999996
40
0.468749999999996
40
0.499999999999996
40
0.499999999999996
40
0.531249999999996
40
0.531249999999996
40
0.562499999999996
40
0.562499999999996
40
0.624999999999997
40
0.624999999999997
40
0.640624999999997
40
0.640624999999997
40
0.656249999999997
40
0.656249999999997
40
0.687499999999997
40
0.687499999999997
40
0.718749999999997
40
0.718749999999997
40
0.749999999999997
40
0.749999999999997
40
0.812499999999998
40
0.812499999999998
40
0.843749999999998
40
0.843749999999998
40
0.874999999999998
40
0.874999999999998
40
0.906249999999999
40
0.906249999999999
40
0.921874999999999
40
0.921874999999999
40
0.937499999999999
40
0.96875
40
0.96875
40
1
40
1
40
1
40
1
41
1
10
25.6345174763033
20
-4.59440891973065
30
0
41
1
10
25.4811799167369
20
-4.56211398588334
30
0
41
1
10
25.3285022969663
20
-4.52595626592338
30
0
41
1
10
25.0231345476805
20
-4.44660324033845
30
0
41
1
10
24.8703663686243
20
-4.40347510719542
30
0
41
1
10
24.5643680164964
20
-4.31055237031748
30
0
41
1
10
24.4111665275833
20
-4.26073526207503
30
0
41
1
10
24.180973398352
20
-4.18096913301454
30
0
41
1
10
24.1041606096318
20
-4.15353456904907
30
0
41
1
10
23.9504493687795
20
-4.09702821282326
30
0
41
1
10
23.8737124998991
20
-4.06801622141299
30
0
41
1
10
23.4905598990237
20
-3.91925813528681
30
0
41
1
10
23.1857589469163
20
-3.78842078089494
30
0
41
1
10
22.5779586422942
20
-3.50482244691506
30
0
41
1
10
22.2749186365232
20
-3.35215557290883
30
0
41
1
10
21.66871891899
20
-3.02702623832306
30
0
41
1
10
21.3655755986846
20
-2.85454321570822
30
0
41
1
10
20.7572815389817
20
-2.49138104398332
30
0
41
1
10
20.4521033028327
20
-2.30065225511328
30
0
41
1
10
19.8375036269832
20
-1.90386284695225
30
0
41
1
10
19.5321970230656
20
-1.7002977244544
30
0
41
1
10
19.0758841529789
20
-1.38904606069477
30
0
41
1
10
18.9240529495386
20
-1.28431314384656
30
0
41
1
10
18.6207023594729
20
-1.07320105823285
30
0
41
1
10
18.469177452848
20
-0.966829851144382
30
0
41
1
10
18.166121664018
20
-0.752928727055831
30
0
41
1
10
18.0145903472388
20
-0.645403842860446
30
0
41
1
10
17.7113727285132
20
-0.429384871221657
30
0
41
1
10
17.5596945131139
20
-0.320873555894934
30
0
41
1
10
17.1040934392649
20
0.0056633572450835
30
0
41
1
10
16.7995693856174
20
0.224602595102226
30
0
41
1
10
16.4167583647691
20
0.49833428276952
30
0
41
1
10
16.3400865190139
20
0.553080050262707
30
0
41
1
10
16.1864863279839
20
0.662514422683103
30
0
41
1
10
16.1097385246479
20
0.717073897976547
30
0
41
1
10
15.8799319220702
20
0.879970677202721
30
0
41
1
10
15.727169279271
20
0.987633589064416
30
0
41
1
10
15.422337494818
20
1.20079031647671
30
0
41
1
10
15.2702723540967
20
1.30628260773733
30
0
41
1
10
14.9665211358109
20
1.51475411032305
30
0
41
1
10
14.8148275930452
20
1.61773299951443
30
0
41
1
10
14.359973151089
20
1.92245216773691
30
0
41
1
10
14.0571160266175
20
2.12000781977673
30
0
41
1
10
13.6020328175085
20
2.40631100289221
30
0
41
1
10
13.4502086652808
20
2.50007074921848
30
0
41
1
10
13.1460819532504
20
2.6839011588809
30
0
41
1
10
12.9937733870951
20
2.77397190402508
30
0
41
1
10
12.6883746999826
20
2.9501258865877
30
0
41
1
10
12.535285819307
20
3.03621325459832
30
0
41
1
10
12.3048853116308
20
3.16206640102789
30
0
41
1
10
12.2280488576295
20
3.2034194217872
30
0
41
1
10
12.0745128319088
20
3.2847613506467
30
0
41
1
10
11.8443022569808
20
3.40478909862131
30
0
41
1
10
11.6142192348053
20
3.51870944145168
30
0
41
1
10
11.3072924061587
20
3.66487136427114
30
0
41
1
10
11.1537705618243
20
3.73504930089879
30
0
41
1
10
11.0000000000001
20
3.8022919616985
30
0
0
SPLINE
5
125
100
AcDbEntity
8
1
62
256
6
ByLayer
370
18
48
1
60
0
100
AcDbSpline
70
4
71
3
72
20
73
16
40
0
40
0
40
0
40
0
40
0.257499681898865
40
0.257499681898865
40
0.386249522848298
40
0.386249522848298
40
0.514999363797732
40
0.514999363797732
40
0.7724990456966
40
0.7724990456966
40
0.836873966171318
40
0.836873966171318
40
0.901248886646036
40
0.901248886646036
40
1
40
1
40
1
40
1
41
1
10
11.0000000000001
20
-4.05057396830955
30
0
41
1
10
11.3063508855765
20
-4.18843479177065
30
0
41
1
10
11.611829958542
20
-4.31243775444824
30
0
41
1
10
12.0704106213996
20
-4.47672264702797
30
0
41
1
10
12.2233321719261
20
-4.52786262440677
30
0
41
1
10
12.5295914129979
20
-4.62269362168033
30
0
41
1
10
12.6824974420545
20
-4.66625170207925
30
0
41
1
10
13.1407459575664
20
-4.78515919279428
30
0
41
1
10
13.4457315397023
20
-4.84875320990483
30
0
41
1
10
13.8277620118532
20
-4.90814297584944
30
0
41
1
10
13.9042075815669
20
-4.91901609953374
30
0
41
1
10
14.0572120472461
20
-4.93873785763898
30
0
41
1
10
14.1338029328767
20
-4.94759004984675
30
0
41
1
10
14.3278837775317
20
-4.96741989485523
30
0
41
1
10
14.4452254345449
20
-4.97699450548421
30
0
41
1
10
14.5624751386834
20
-4.98414744615386
30
0
0
SPLINE
5
126
100
AcDbEntity
8
1
62
256
6
ByLayer
370
18
48
1
60
0
100
AcDbSpline
70
4
71
3
72
8
73
4
40
0
40
0
40
0
40
0
40
1
40
1
40
1
40
1
41
1
10
14.7889248829069
20
-4.99495781974446
30
0
41
1
10
14.924788473579
20
-4.99964106059019
30
0
41
1
10
15.0605749444878
20
-5.00107417670722
30
0
41
1
10
15.196381321461
20
-4.99924961922096
30
0
0
SPLINE
5
127
100
AcDbEntity
8
1
62
256
6
ByLayer
370
18
48
1
60
0
100
AcDbSpline
70
4
71
3
72
9
73
5
40
0
40
0
40
0
40
0
40
0.389214058953723
40
1
40
1
40
1
40
1
41
1
10
15.3131450383546
20
4.99927341847084
30
0
41
1
10
15.3938590460669
20
4.99870336360493
30
0
41
1
10
15.6011936440349
20
4.99458000184032
30
0
41
1
10
15.8084062892326
20
4.98361546504293
30
0
41
1
10
15.9349126798603
20
4.97439911994914
30
0
0
SPLINE
5
128
100
AcDbEntity
8
1
62
256
6
ByLayer
370
18
48
1
60
0
100
AcDbSpline
70
4
71
3
72
21
73
17
40
0
40
0
40
0
40
0
40
0.0522904032154293
40
0.109771219525929
40
0.167252035836428
40
0.224732852146928
40
0.339694484767927
40
0.397175301078427
40
0.454656117388927
40
0.569617750009926
40
0.627098566320425
40
0.684579382630925
40
0.799541015251924
40
0.857021831562424
40
0.914502647872924
40
1
40
1
40
1
40
1
41
1
10
16.1470983528325
20
4.95657882413863
30
0
41
1
10
16.3115925577808
20
4.94093617493698
30
0
41
1
10
16.656689208668
20
4.89921257982215
30
0
41
1
10
17.1816700889043
20
4.8077228540462
30
0
41
1
10
17.7218931773332
20
4.68397082783548
30
0
41
1
10
18.440939776224
20
4.48077842834226
30
0
41
1
10
19.159225244369
20
4.22228586227493
30
0
41
1
10
19.8787519622975
20
3.91236765386853
30
0
41
1
10
20.5997701589731
20
3.56961578691417
30
0
41
1
10
21.3240616928311
20
3.18011492238054
30
0
41
1
10
22.0537449375231
20
2.74872094991895
30
0
41
1
10
22.787647189701
20
2.29137740391926
30
0
41
1
10
23.5287775956853
20
1.79868312650774
30
0
41
1
10
24.2789053150474
20
1.27749176306199
30
0
41
1
10
24.93870016181
20
0.808951145476755
30
0
41
1
10
25.4150414272157
20
0.464567977157714
30
0
41
1
10
25.7022326822021
20
0.256217641137226
30
0
0
SPLINE
5
129
100
AcDbEntity
8
1
62
256
6
ByLayer
370
18
48
1
60
0
100
AcDbSpline
70
4
71
3
72
34
73
30
40
0
40
0
40
0
40
0
40
0.048376297261876
40
0.0656411637960946
40
0.0829060303303131
40
0.11743576339875
40
0.151965496467187
40
0.186495229535624
40
0.221024962604061
40
0.255554695672499
40
0.290084428740935
40
0.324614161809373
40
0.35914389487781
40
0.393673627946247
40
0.428203361014684
40
0.462733094083121
40
0.497262827151558
40
0.531792560219995
40
0.566322293288432
40
0.600852026356869
40
0.669911492493743
40
0.70444122556218
40
0.738970958630618
40
0.808030424767492
40
0.842560157835929
40
0.877089890904366
40
0.911619623972803
40
0.94614935704124
40
1
40
1
40
1
40
1
41
1
10
9.91640760930258
20
3.8349319368759
30
0
41
1
10
10.1684765190818
20
3.71627111374838
30
0
41
1
10
10.5103852024689
20
3.54425600340352
30
0
41
1
10
10.9421312120122
20
3.31010434364094
30
0
41
1
10
11.3017470075867
20
3.10800487931988
30
0
41
1
10
11.7512721152991
20
2.84238464503719
30
0
41
1
10
12.290774378813
20
2.5051134025239
30
0
41
1
10
12.8304543928881
20
2.15146998103674
30
0
41
1
10
13.3703433023328
20
1.78384629443107
30
0
41
1
10
13.910464141931
20
1.40436125745597
30
0
41
1
10
14.4508252314107
20
1.01561326857254
30
0
41
1
10
14.9914659178899
20
0.619999491411505
30
0
41
1
10
15.5323307059884
20
0.220239297447847
30
0
41
1
10
16.0733791183749
20
-0.181145207374385
30
0
41
1
10
16.6145550836761
20
-0.581413445815542
30
0
41
1
10
17.1558267010195
20
-0.977959410700208
30
0
41
1
10
17.697104043406
20
-1.36811780436142
30
0
41
1
10
18.2383357715552
20
-1.74931253774489
30
0
41
1
10
18.7794179318922
20
-2.11904298588831
30
0
41
1
10
19.5008381098772
20
-2.59349642516935
30
0
41
1
10
20.2232667205934
20
-3.03621652806606
30
0
41
1
10
20.9487451649313
20
-3.43949767489292
30
0
41
1
10
21.6768181918158
20
-3.81377294778847
30
0
41
1
10
22.4098514040205
20
-4.14078501149149
30
0
41
1
10
23.1500971550078
20
-4.41320547718342
30
0
41
1
10
23.7093528768387
20
-4.58836829208167
30
0
41
1
10
24.2732856281221
20
-4.73264991592043
30
0
41
1
10
24.9484729810194
20
-4.86502943305953
30
0
41
1
10
25.4403965658817
20
-4.92276631858019
30
0
41
1
10
25.7429585403393
20
-4.94297246207898
30
0
0
SPLINE
5
12A
100
AcDbEntity
8
1
62
256
6
ByLayer
370
18
48
1
60
0
100
AcDbSpline
70
4
71
3
72
8
73
4
40
0
40
0
40
0
40
0
40
1
40
1
40
1
40
1
41
1
10
11
20
-4.0487611659654
30
0
41
1
10
11
20
-4.04936543329691
30
0
41
1
10
11
20
-4.04996970074495
30
0
41
1
10
11
20
-4.05057396830955
30
0
0
SPLINE
5
12B
100
AcDbEntity
8
1
62
256
6
ByLayer
370
18
48
1
60
0
100
AcDbSpline
70
4
71
3
72
19
73
15
40
0
40
0
40
0
40
0
40
0.168695653429161
40
0.218155925785798
40
0.267616198142435
40
0.366536742855708
40
0.465457287568981
40
0.564377832282254
40
0.613838104638891
40
0.663298376995528
40
0.762218921708801
40
0.861139466422074
40
0.960060011135347
40
1
40
1
40
1
40
1
41
1
10
9.75180190730703
20
-3.3886604449425
30
0
41
1
10
10.0582303799469
20
-3.56148925453203
30
0
41
1
10
10.4542970089536
20
-3.77036097629323
30
0
41
1
10
10.9400422697607
20
-4.00024272735274
30
0
41
1
10
11.2991166272829
20
-4.1610666182149
30
0
41
1
10
11.747960737741
20
-4.34441599827852
30
0
41
1
10
12.2866796175507
20
-4.53478996226042
30
0
41
1
10
12.7357838703516
20
-4.66768992196069
30
0
41
1
10
13.0951804874746
20
-4.75802197375549
30
0
41
1
10
13.4546549979427
20
-4.83752153323766
30
0
41
1
10
13.9041567059988
20
-4.91627182256269
30
0
41
1
10
14.4438403047501
20
-4.97712904220612
30
0
41
1
10
14.8765041796969
20
-4.99854265319922
30
0
41
1
10
15.1292536595135
20
-4.9997785296884
30
0
41
1
10
15.2019573143481
20
-4.99920072668905
30
0
0
SPLINE
5
12C
100
AcDbEntity
8
1
62
256
6
ByLayer
370
18
48
1
60
0
100
AcDbSpline
70
4
71
3
72
16
73
12
40
0
40
0
40
0
40
0
40
0.111473755799494
40
0.2228520880745
40
0.334137095302957
40
0.445330837162889
40
0.556435335024856
40
0.667452572435873
40
0.778384495594679
40
0.889233013818143
40
1
40
1
40
1
40
1
41
1
10
9.93017586288977
20
-3.17231148998781
30
0
41
1
10
9.92344726120115
20
-3.18012512774632
30
0
41
1
10
9.90999581762702
20
-3.19574571464995
30
0
41
1
10
9.88991656733836
20
-3.2193762788057
30
0
41
1
10
9.86992018916456
20
-3.24313791274159
30
0
41
1
10
9.85001302294867
20
-3.26704396108724
30
0
41
1
10
9.83019349303547
20
-3.29108888995086
30
0
41
1
10
9.81046157087067
20
-3.31527108790328
30
0
41
1
10
9.79081894350983
20
-3.33959220247871
30
0
41
1
10
9.77125890030104
20
-3.36403704386092
30
0
41
1
10
9.75828598073198
20
-3.38045465792129
30
0
41
1
10
9.75180190730714
20
-3.38866044494259
30
0
0
SPLINE
5
12D
100
AcDbEntity
8
1
62
256
6
ByLayer
370
18
48
1
60
0
100
AcDbSpline
70
4
71
3
72
8
73
4
40
0
40
0
40
0
40
0
40
1
40
1
40
1
40
1
41
1
10
9.84484786131085
20
-3.14697027785075
30
0
41
0.999985300025696
10
9.87325680147756
20
-3.15520278448365
30
0
41
0.999985300025696
10
9.90169988801923
20
-3.16364997974555
30
0
41
1
10
9.93017586659792
20
-3.17231149111572
30
0
0
SPLINE
5
12E
100
AcDbEntity
8
1
62
256
6
ByLayer
370
18
48
1
60
0
100
AcDbSpline
70
4
71
3
72
25
73
21
40
0
40
0
40
0
40
0
40
0.0553018858866359
40
0.110627512882181
40
0.165978117161454
40
0.221354909310217
40
0.276759074716647
40
0.332191773957056
40
0.387654143175769
40
0.443147294459434
40
0.49867231620558
40
0.554230273485639
40
0.609822208402404
40
0.665449140441991
40
0.721112066820433
40
0.77681196282485
40
0.83254978214939
40
0.888326457225953
40
0.944142899549779
40
1
40
1
40
1
40
1
41
1
10
10.2913170362252
20
-2.59528335831115
30
0
41
1
10
10.284339057149
20
-2.60546756310095
30
0
41
1
10
10.2703801033492
20
-2.62584034476131
30
0
41
1
10
10.2495747518085
20
-2.65662154299992
30
0
41
1
10
10.2288613453205
20
-2.68757083350488
30
0
41
1
10
10.2082497501082
20
-2.71870203546169
30
0
41
1
10
10.1877373200578
20
-2.75000913078964
30
0
41
1
10
10.1673247641482
20
-2.78149144545927
30
0
41
1
10
10.1470118917763
20
-2.81314689728237
30
0
41
1
10
10.1267987537382
20
-2.84497380647861
30
0
41
1
10
10.1066853358643
20
-2.8769704095736
30
0
41
1
10
10.0866716426958
20
-2.90913499133399
30
0
41
1
10
10.0667576693649
20
-2.94146584285198
30
0
41
1
10
10.0469434303569
20
-2.97396129656357
30
0
41
1
10
10.0272288725235
20
-3.00661962740088
30
0
41
1
10
10.0076141945542
20
-3.03943941284882
30
0
41
1
10
9.98809865497068
20
-3.07241818968032
30
0
41
1
10
9.96868502492802
20
-3.10555747110865
30
0
41
1
10
9.94936295276398
20
-3.13884400248986
30
0
41
1
10
9.9365731173047
20
-3.16115295641512
30
0
41
1
10
9.93017587131214
20
-3.17231149450203
30
0
0
SPLINE
5
12F
100
AcDbEntity
8
1
62
256
6
ByLayer
370
18
48
1
60
0
100
AcDbSpline
70
4
71
3
72
24
73
20
40
0
40
0
40
0
40
0
40
0.0998577302268671
40
0.136190703445842
40
0.172523676664817
40
0.245189623102768
40
0.317855569540718
40
0.390521515978669
40
0.426854489197644
40
0.46318746241662
40
0.53585340885457
40
0.60851935529252
40
0.681185301730471
40
0.753851248168421
40
0.826517194606372
40
0.862850167825347
40
0.899183141044322
40
0.971849087482273
40
1
40
1
40
1
40
1
41
1
10
9.93017587131209
20
-3.172311494502
30
0
41
1
10
10.1770553822918
20
-3.31687883629905
30
0
41
1
10
10.5136375435334
20
-3.50465461690638
30
0
41
1
10
10.9399206437417
20
-3.72439786744479
30
0
41
1
10
11.2989943600898
20
-3.90113863540304
30
0
41
1
10
11.7478470304943
20
-4.10543227568485
30
0
41
1
10
12.2865601619279
20
-4.32248400430291
30
0
41
1
10
12.7356597351596
20
-4.4787890777344
30
0
41
1
10
13.0950550359584
20
-4.58850748941566
30
0
41
1
10
13.4545335003087
20
-4.68788786381802
30
0
41
1
10
13.9040399725394
20
-4.79204875130361
30
0
41
1
10
14.4437182215605
20
-4.88433035408062
30
0
41
1
10
14.9837017904221
20
-4.94303031715751
30
0
41
1
10
15.5239317701918
20
-4.96796559506424
30
0
41
1
10
15.9742937447163
20
-4.96015852859384
30
0
41
1
10
16.3346520629727
20
-4.93690634537776
30
0
41
1
10
16.6950503173721
20
-4.90241628229458
30
0
41
1
10
17.0352052685348
20
-4.8537663425694
30
0
41
1
10
17.2852493986727
20
-4.80737645554373
30
0
41
1
10
17.3550682788527
20
-4.7935993455215
30
0
0
SPLINE
5
130
100
AcDbEntity
8
1
62
256
6
ByLayer
370
18
48
1
60
0
100
AcDbSpline
70
4
71
3
72
8
73
4
40
0
40
0
40
0
40
0
40
1
40
1
40
1
40
1
41
1
10
9.90428003373938
20
-2.59504342769967
30
0
41
1
10
10.0320586599576
20
-2.59093307160853
30
0
41
1
10
10.1610384922885
20
-2.59101280069771
30
0
41
1
10
10.2912434451982
20
-2.59536603416299
30
0
0
SPLINE
5
131
100
AcDbEntity
8
1
62
256
6
ByLayer
370
18
48
1
60
0
100
AcDbSpline
70
4
71
3
72
8
73
4
40
0
40
0
40
0
40
0
40
1
40
1
40
1
40
1
41
1
10
11.0000000000001
20
-2.96851451327416
30
0
41
1
10
10.7614818014095
20
-2.85094610915769
30
0
41
1
10
10.5250731801496
20
-2.7270899620479
30
0
41
1
10
10.2913462449322
20
-2.59524086185797
30
0
0
SPLINE
5
132
100
AcDbEntity
8
1
62
256
6
ByLayer
370
18
48
1
60
0
100
AcDbSpline
70
4
71
3
72
10
73
6
40
0
40
0
40
0
40
0
40
0.5
40
0.5
40
1
40
1
40
1
40
1
41
1
10
9.73766948420132
20
3.69312196174192
30
0
41
1
10
9.7430436260334
20
3.73097422530429
30
0
41
1
10
9.75341336263622
20
3.76750487191112
30
0
41
1
10
9.78405871870649
20
3.83798795076055
30
0
41
1
10
9.80421768021245
20
3.87158886248568
30
0
41
1
10
9.82870169220703
20
3.90334393530398
30
0
0
SPLINE
5
133
100
AcDbEntity
8
1
62
256
6
ByLayer
370
18
48
1
60
0
100
AcDbSpline
70
4
71
3
72
15
73
11
40
0
40
0
40
0
40
0
40
0.5
40
0.5
40
0.625
40
0.625
40
0.687500000000001
40
0.687500000000001
40
0.750000000000002
40
1
40
1
40
1
40
1
41
1
10
9.82870170014962
20
3.90334393194632
30
0
41
1
10
9.80860409213287
20
3.97508518479992
30
0
41
1
10
9.8023027106297
20
4.04374089645438
30
0
41
1
10
9.81289939348332
20
4.1256841770543
30
0
41
1
10
9.81594953198879
20
4.14187883076366
30
0
41
1
10
9.82196746094743
20
4.1658788828384
30
0
41
1
10
9.82421813810592
20
4.17384074276734
30
0
41
1
10
9.8291695751019
20
4.18954973563041
30
0
41
1
10
9.84268795797163
20
4.22834930978041
30
0
41
1
10
9.86180120555363
20
4.26484860821336
30
0
41
1
10
9.88052222129363
20
4.29270353635627
30
0
0
SPLINE
5
134
100
AcDbEntity
8
1
62
256
6
ByLayer
370
18
48
1
60
0
100
AcDbSpline
70
4
71
3
72
34
73
30
40
0
40
0
40
0
40
0
40
0.250000000000053
40
0.250000000000053
40
0.37500000000006
40
0.37500000000006
40
0.500000000000068
40
0.500000000000068
40
0.562500000000059
40
0.562500000000059
40
0.625000000000051
40
0.625000000000051
40
0.656250000000047
40
0.656250000000047
40
0.687500000000043
40
0.687500000000043
40
0.718750000000038
40
0.718750000000038
40
0.750000000000034
40
0.750000000000034
40
0.78125000000003
40
0.78125000000003
40
0.812500000000026
40
0.812500000000026
40
0.875000000000017
40
0.875000000000017
40
0.937500000000009
40
0.937500000000009
40
1
40
1
40
1
40
1
41
1
10
7.37303611089587
20
4.96288104715606
30
0
41
1
10
7.3564180332861
20
4.96516074616673
30
0
41
1
10
7.34054888780042
20
4.96740730607365
30
0
41
1
10
7.31886211714556
20
4.97077215329188
30
0
41
1
10
7.31197289643384
20
4.9718964368615
30
0
41
1
10
7.29943523054516
20
4.97414911172294
30
0
41
1
10
7.29374882275141
20
4.97528031757915
30
0
41
1
10
7.28702975720881
20
4.97698142827187
30
0
41
1
10
7.28510709177121
20
4.97754657404164
30
0
41
1
10
7.28218062112933
20
4.97867815012336
30
0
41
1
10
7.28116474796312
20
4.97924953507868
30
0
41
1
10
7.28077021024959
20
4.98009775081078
30
0
41
1
10
7.28082911713844
20
4.98037665619324
30
0
41
1
10
7.28141279850558
20
4.98092653827902
30
0
41
1
10
7.28194670837047
20
4.98120009801394
30
0
41
1
10
7.28354928610267
20
4.98172344028549
30
0
41
1
10
7.28461173278072
20
4.98197322574376
30
0
41
1
10
7.28730295235195
20
4.98244866619203
30
0
41
1
10
7.28895715126953
20
4.98267680400127
30
0
41
1
10
7.29274288459803
20
4.98309375738864
30
0
41
1
10
7.29486293739186
20
4.98328280380014
30
0
41
1
10
7.2995081870414
20
4.98362747698982
30
0
41
1
10
7.30204971145614
20
4.98378357757443
30
0
41
1
10
7.30994505060426
20
4.98419555721085
30
0
41
1
10
7.31564588111482
20
4.98440310829656
30
0
41
1
10
7.3275649623163
20
4.98473149474319
30
0
41
1
10
7.33363885291163
20
4.98484832193915
30
0
41
1
10
7.34593313103019
20
4.98502298632283
30
0
41
1
10
7.3521547739
20
4.98508024896748
30
0
41
1
10
7.35842992768985
20
4.98511625791966
30
0
0
SPLINE
5
135
100
AcDbEntity
8
1
62
256
6
ByLayer
370
18
48
1
60
0
100
AcDbSpline
70
4
71
3
72
30
73
26
40
0
40
0
40
0
40
0
40
0.196395712584437
40
0.196395712584437
40
0.294593568876656
40
0.294593568876656
40
0.392791425168874
40
0.392791425168874
40
0.490989281461093
40
0.490989281461093
40
0.589187137753311
40
0.589187137753311
40
0.638286065899412
40
0.638286065899412
40
0.687384994045514
40
0.687384994045514
40
0.785582850337716
40
0.785582850337716
40
0.834681778483822
40
0.834681778483822
40
0.883780706629927
40
0.883780706629927
40
0.981978562922138
40
0.981978562922138
40
1
40
1
40
1
40
1
41
1
10
7.35842992768983
20
4.98511625791966
30
0
41
1
10
7.41541170605171
20
4.98544323861233
30
0
41
1
10
7.4718307915326
20
4.98603232417372
30
0
41
1
10
7.55513807481395
20
4.98742640688599
30
0
41
1
10
7.58278107618892
20
4.98797942249047
30
0
41
1
10
7.63639157814919
20
4.98924243089556
30
0
41
1
10
7.6624668983948
20
4.98995401943805
30
0
41
1
10
7.71281976846649
20
4.99151481010114
30
0
41
1
10
7.73712126210467
20
4.99236560703619
30
0
41
1
10
7.78336452526236
20
4.99414464837048
30
0
41
1
10
7.80456947817342
20
4.99504396864342
30
0
41
1
10
7.83335333545688
20
4.9963166781906
30
0
41
1
10
7.8424440345606
20
4.99672793413859
30
0
41
1
10
7.85959278274839
20
4.99750590686983
30
0
41
1
10
7.86766870483214
20
4.99787332821072
30
0
41
1
10
7.88986415744844
20
4.99885801241837
30
0
41
1
10
7.90214342198908
20
4.99936580257835
30
0
41
1
10
7.9172897074792
20
4.99982433202976
30
0
41
1
10
7.92179873175527
20
4.99992681434784
30
0
41
1
10
7.92976430937944
20
5.00001827801319
30
0
41
1
10
7.93318868581042
20
5.00000706954404
30
0
41
1
10
7.9419966523287
20
4.99979809078798
30
0
41
1
10
7.94592454072472
20
4.99942481593544
30
0
41
1
10
7.94875515352277
20
4.99869469525092
30
0
41
1
10
7.94914219389972
20
4.99857327663503
30
0
41
1
10
7.94947906831914
20
4.99844360777735
30
0
0
SPLINE
5
136
100
AcDbEntity
8
1
62
256
6
ByLayer
370
18
48
1
60
0
100
AcDbSpline
70
4
71
3
72
8
73
4
40
0
40
0
40
0
40
0
40
1
40
1
40
1
40
1
41
1
10
7.79855597559194
20
-5.00000013781772
30
0
41
1
10
7.79400256859992
20
-4.99999561350714
30
0
41
1
10
7.78817570540227
20
-4.99967063260036
30
0
41
1
10
7.78133072258004
20
-4.99903363447748
30
0
0
SPLINE
5
137
100
AcDbEntity
8
1
62
256
6
ByLayer
370
18
48
1
60
0
100
AcDbSpline
70
4
71
3
72
12
73
8
40
0
40
0
40
0
40
0
40
0.250000000000003
40
0.250000000000003
40
0.500000000000005
40
0.500000000000005
40
1
40
1
40
1
40
1
41
1
10
9.73200137538939
20
-3.40822544509496
30
0
41
1
10
9.83705760207198
20
-3.4678048318161
30
0
41
1
10
9.94217667644463
20
-3.52588946296996
30
0
41
1
10
10.1527884419158
20
-3.63888388718908
30
0
41
1
10
10.2582800882798
20
-3.69379616597291
30
0
41
1
10
10.5753775868162
20
-3.8537888067128
30
0
41
1
10
10.7876485754169
20
-3.95412332087187
30
0
41
1
10
10.9999999999756
20
-4.04876116598635
30
0
0
SPLINE
5
138
100
AcDbEntity
8
1
62
256
6
ByLayer
370
13
48
1
60
0
100
AcDbSpline
70
4
71
3
72
9
73
5
40
0
40
0
40
0
40
0
40
0.499802378835861
40
1
40
1
40
1
40
1
41
1
10
9.73200137493919
20
-3.40822544553805
30
0
41
1
10
9.73529693903458
20
-3.40495561609035
30
0
41
1
10
9.74189067334831
20
-3.39841337142295
30
0
41
1
10
9.74849728723299
20
-3.3919122742353
30
0
41
1
10
9.75180189978207
20
-3.38866044088709
30
0
0
SPLINE
5
139
100
AcDbEntity
8
1
62
256
6
ByLayer
370
18
48
1
60
0
100
AcDbSpline
70
4
71
3
72
10
73
6
40
0
40
0
40
0
40
0
40
0.5
40
0.5
40
1
40
1
40
1
40
1
41
1
10
9.75032912145315
20
-3.38821265329801
30
0
41
1
10
9.75651499036792
20
-3.34742066067147
30
0
41
1
10
9.76757463215466
20
-3.30672101806294
30
0
41
1
10
9.79937652808908
20
-3.22571728868886
30
0
41
1
10
9.81999834058158
20
-3.1858036217522
30
0
41
1
10
9.84484785444764
20
-3.14697027586189
30
0
0
SPLINE
5
13A
100
AcDbEntity
8
1
62
256
6
ByLayer
370
18
48
1
60
0
100
AcDbSpline
70
4
71
3
72
15
73
11
40
0
40
0
40
0
40
0
40
0.500000000000003
40
0.500000000000003
40
0.625000000000005
40
0.625000000000005
40
0.687500000000005
40
0.687500000000005
40
0.750000000000004
40
1
40
1
40
1
40
1
41
1
10
9.84484786235041
20
-3.14697028011909
30
0
41
1
10
9.8265706940424
20
-3.05853494046531
30
0
41
1
10
9.82180739414807
20
-2.96779801926462
30
0
41
1
10
9.83399123209358
20
-2.85150792198226
30
0
41
1
10
9.83734184086887
20
-2.82810630164656
30
0
41
1
10
9.84378478258185
20
-2.79278816058925
30
0
41
1
10
9.84617331738471
20
-2.78096166490022
30
0
41
1
10
9.8513914365661
20
-2.75740829478252
30
0
41
1
10
9.8655529094687
20
-2.69869087985805
30
0
41
1
10
9.88519672006194
20
-2.64080262914268
30
0
41
1
10
9.90428003373918
20
-2.59504342770012
30
0
0
SPLINE
5
13B
100
AcDbEntity
8
1
62
256
6
ByLayer
370
18
48
1
60
0
100
AcDbSpline
70
4
71
3
72
32
73
28
40
0
40
0
40
0
40
0
40
0.249999999999982
40
0.249999999999982
40
0.374999999999974
40
0.374999999999974
40
0.499999999999965
40
0.499999999999965
40
0.562499999999947
40
0.562499999999947
40
0.62499999999993
40
0.62499999999993
40
0.687499999999912
40
0.687499999999912
40
0.718749999999904
40
0.718749999999904
40
0.749999999999896
40
0.749999999999896
40
0.781249999999887
40
0.781249999999887
40
0.812499999999879
40
0.812499999999879
40
0.87499999999992
40
0.87499999999992
40
0.93749999999996
40
0.93749999999996
40
1
40
1
40
1
40
1
41
1
10
7.4689864051054
20
-0.648072885808205
30
0
41
1
10
7.45281222508993
20
-0.629487396818718
30
0
41
1
10
7.43738739779457
20
-0.61034268171889
30
0
41
1
10
7.41634350288507
20
-0.580074065029834
30
0
41
1
10
7.40967087083436
20
-0.569701929090741
30
0
41
1
10
7.3975010933803
20
-0.548218730600951
30
0
41
1
10
7.39199042364771
20
-0.537115626248209
30
0
41
1
10
7.38546045676185
20
-0.51983888664563
30
0
41
1
10
7.38359009780407
20
-0.514007993248526
30
0
41
1
10
7.38071730190637
20
-0.502142897246699
30
0
41
1
10
7.37970637151778
20
-0.496110667110514
30
0
41
1
10
7.37905082139122
20
-0.48372709094258
30
0
41
1
10
7.37943274999276
20
-0.477454973354327
30
0
41
1
10
7.38157717096891
20
-0.468356478169994
30
0
41
1
10
7.3825632345534
20
-0.465361745244422
30
0
41
1
10
7.38505037245002
20
-0.459701045948947
30
0
41
1
10
7.38655706790968
20
-0.457003895017948
30
0
41
1
10
7.39012127691308
20
-0.451888570587613
30
0
41
1
10
7.39217795338971
20
-0.4494856003557
30
0
41
1
10
7.39663373790026
20
-0.445148442319464
30
0
41
1
10
7.39905215174988
20
-0.443183997611385
30
0
41
1
10
7.40680873847933
20
-0.437827963453031
30
0
41
1
10
7.41240105012724
20
-0.435119903318878
30
0
41
1
10
7.42407439787439
20
-0.430819340553029
30
0
41
1
10
7.43017019900992
20
-0.429238595282754
30
0
41
1
10
7.44240237253899
20
-0.426911914499243
30
0
41
1
10
7.44858842150575
20
-0.426151900265552
30
0
41
1
10
7.45482403564233
20
-0.42567765662676
30
0
0
SPLINE
5
13C
100
AcDbEntity
8
1
62
256
6
ByLayer
370
18
48
1
60
0
100
AcDbSpline
70
4
71
3
72
36
73
32
40
0
40
0
40
0
40
0
40
0.124999999999958
40
0.124999999999958
40
0.187499999999947
40
0.187499999999947
40
0.249999999999936
40
0.249999999999936
40
0.374999999999935
40
0.374999999999935
40
0.406249999999935
40
0.406249999999935
40
0.437499999999935
40
0.437499999999935
40
0.499999999999934
40
0.562499999999933
40
0.562499999999933
40
0.593749999999939
40
0.593749999999939
40
0.624999999999945
40
0.687499999999957
40
0.687499999999957
40
0.718749999999959
40
0.718749999999959
40
0.749999999999961
40
0.749999999999961
40
0.874999999999981
40
0.874999999999981
40
0.93749999999999
40
0.93749999999999
40
1
40
1
40
1
40
1
41
1
10
7.45482403564233
20
-0.42567765662676
30
0
41
1
10
7.49519059331078
20
-0.422607616887973
30
0
41
1
10
7.53524704464408
20
-0.41773367815594
30
0
41
1
10
7.59469861567291
20
-0.406737482009362
30
0
41
1
10
7.61440952944835
20
-0.40245342784786
30
0
41
1
10
7.653577350174
20
-0.392405926353405
30
0
41
1
10
7.67306067812183
20
-0.386626561881599
30
0
41
1
10
7.73015199196382
20
-0.366937124419223
30
0
41
1
10
7.76669113263932
20
-0.350648745961394
30
0
41
1
10
7.80980690154843
20
-0.324963745044045
30
0
41
1
10
7.8183009230701
20
-0.319557942702573
30
0
41
1
10
7.83500862494171
20
-0.308162487894691
30
0
41
1
10
7.8432546610068
20
-0.302146517627705
30
0
41
1
10
7.86725264103143
20
-0.283370565018458
30
0
41
1
10
7.89725689860552
20
-0.256443119809802
30
0
41
1
10
7.92316745686395
20
-0.225623404832504
30
0
41
1
10
7.94102639899083
20
-0.201010162191807
30
0
41
1
10
7.94673443132069
20
-0.192525046959133
30
0
41
1
10
7.95747550462858
20
-0.175292348322444
30
0
41
1
10
7.97261997326069
20
-0.148999451101275
30
0
41
1
10
7.98502736020805
20
-0.121449609931972
30
0
41
1
10
7.99579666244546
20
-0.0931464775003974
30
0
41
1
10
7.99911306769795
20
-0.083586392925298
30
0
41
1
10
8.00522638097016
20
-0.064227154472718
30
0
41
1
10
8.00802463602804
20
-0.0544164008858843
30
0
41
1
10
8.02065278564638
20
-0.0053492475261123
30
0
41
1
10
8.02660421990475
20
0.0343746382141319
30
0
41
1
10
8.03113597070725
20
0.0944557818959595
30
0
41
1
10
8.03190223558164
20
0.114566728689482
30
0
41
1
10
8.03214584309623
20
0.154933517343864
30
0
41
1
10
8.03162019972007
20
0.175211318429064
30
0
41
1
10
8.03053631157968
20
0.195436651990093
30
0
0
SPLINE
5
13D
100
AcDbEntity
8
1
62
256
6
ByLayer
370
18
48
1
60
0
100
AcDbSpline
70
4
71
3
72
18
73
14
40
0
40
0
40
0
40
0
40
0.250000000000001
40
0.250000000000001
40
0.500000000000003
40
0.500000000000003
40
0.562500000000003
40
0.562500000000003
40
0.625000000000003
40
0.625000000000003
40
0.750000000000002
40
0.750000000000002
40
1
40
1
40
1
40
1
41
1
10
8.03053631157968
20
0.195436651990093
30
0
41
1
10
7.90807237072252
20
0.393223786353701
30
0
41
1
10
7.79629261380268
20
0.594079455534143
30
0
41
1
10
7.5923074683804
20
1.00054649192276
30
0
41
1
10
7.5000916429955
20
1.20615619194953
30
0
41
1
10
7.39611662855333
20
1.46526711168474
30
0
41
1
10
7.37588757401795
20
1.51719426077096
30
0
41
1
10
7.3365438169651
20
1.62123682992873
30
0
41
1
10
7.31750842559984
20
1.67314500193342
30
0
41
1
10
7.26238830572493
20
1.82807932454108
30
0
41
1
10
7.22821957521236
20
1.93049281820376
30
0
41
1
10
7.1328940529863
20
2.23483892070411
30
0
41
1
10
7.07887220048337
20
2.43388692531278
30
0
41
1
10
7.03344526631554
20
2.62830202094611
30
0
0
SPLINE
5
13E
100
AcDbEntity
8
1
62
256
6
ByLayer
370
18
48
1
60
0
100
AcDbSpline
70
4
71
3
72
18
73
14
40
0
40
0
40
0
40
0
40
0.250000000000016
40
0.250000000000016
40
0.375000000000022
40
0.375000000000022
40
0.500000000000027
40
0.500000000000027
40
0.750000000000034
40
0.750000000000034
40
0.875000000000017
40
0.875000000000017
40
1
40
1
40
1
40
1
41
1
10
7.03344526631557
20
2.62830202094611
30
0
41
1
10
7.02944113333547
20
2.64543863627173
30
0
41
1
10
7.02716129695182
20
2.66258008082323
30
0
41
1
10
7.02674838099847
20
2.6883138718247
30
0
41
1
10
7.027113704817
20
2.6968954741227
30
0
41
1
10
7.02895008968943
20
2.71406952982801
30
0
41
1
10
7.03042524096907
20
2.72262423135706
30
0
41
1
10
7.03646704212304
20
2.74767399935982
30
0
41
1
10
7.04266100842042
20
2.76375400160336
30
0
41
1
10
7.05526270232252
20
2.7869476584184
30
0
41
1
10
7.06003951671727
20
2.79454922173127
30
0
41
1
10
7.07051417284154
20
2.80916947388391
30
0
41
1
10
7.07622462770973
20
2.81621987397108
30
0
41
1
10
7.08238436529371
20
2.82302545885526
30
0
0
SPLINE
5
13F
100
AcDbEntity
8
1
62
256
6
ByLayer
370
18
48
1
60
0
100
AcDbSpline
70
4
71
3
72
39
73
35
40
0
40
0
40
0
40
0
40
0.0312499999999983
40
0.0312499999999983
40
0.0624999999999966
40
0.0624999999999966
40
0.124999999999989
40
0.124999999999989
40
0.14062499999999
40
0.14062499999999
40
0.15624999999999
40
0.187499999999992
40
0.187499999999992
40
0.249999999999994
40
0.249999999999994
40
0.312499999999997
40
0.312499999999997
40
0.375
40
0.375
40
0.437500000000003
40
0.437500000000003
40
0.500000000000006
40
0.500000000000006
40
0.625000000000006
40
0.625000000000006
40
0.687500000000006
40
0.687500000000006
40
0.750000000000006
40
0.750000000000006
40
0.812500000000006
40
0.812500000000006
40
0.875000000000006
40
0.875000000000006
40
1
40
1
40
1
40
1
41
1
10
7.08238436529368
20
2.82302545885526
30
0
41
1
10
7.10504647405236
20
2.84806368535587
30
0
41
1
10
7.12926533044723
20
2.87147649289011
30
0
41
1
10
7.18030747721375
20
2.91562643825355
30
0
41
1
10
7.20713309241657
20
2.93636095813602
30
0
41
1
10
7.29098662039684
20
2.99515222042945
30
0
41
1
10
7.35136214784706
20
3.0298289104675
30
0
41
1
10
7.43129629584266
20
3.0688189264342
30
0
41
1
10
7.44746747095508
20
3.07637523851321
30
0
41
1
10
7.47999308228785
20
3.09096795886291
30
0
41
1
10
7.52913164133798
20
3.11211274331393
30
0
41
1
10
7.57924372780388
20
3.13120429433172
30
0
41
1
10
7.68060994006751
20
3.16701440872464
30
0
41
1
10
7.74970199933409
20
3.18774274767634
30
0
41
1
10
7.89037032076033
20
3.22418570668239
30
0
41
1
10
7.96195094408421
20
3.2398901647405
30
0
41
1
10
8.10728118507612
20
3.2670275657247
30
0
41
1
10
8.18045615621992
20
3.27834956977551
30
0
41
1
10
8.32748764523419
20
3.29714055220913
30
0
41
1
10
8.40138130215769
20
3.3046121214131
30
0
41
1
10
8.549851146322
20
3.31613076575638
30
0
41
1
10
8.62453142563353
20
3.32017667387459
30
0
41
1
10
8.84840815767859
20
3.32753629208378
30
0
41
1
10
8.997633512514
20
3.32614954214836
30
0
41
1
10
9.22143713806935
20
3.31565590377159
30
0
41
1
10
9.29591730085232
20
3.31074714529666
30
0
41
1
10
9.44429381478747
20
3.29823303159438
30
0
41
1
10
9.51824579526607
20
3.2906247221012
30
0
41
1
10
9.66569397976548
20
3.27275897073056
30
0
41
1
10
9.73926238979107
20
3.26248902483104
30
0
41
1
10
9.88554820819886
20
3.23937733534359
30
0
41
1
10
9.95825113261688
20
3.22654107238506
30
0
41
1
10
10.1750844066491
20
3.18422391925185
30
0
41
1
10
10.3179410076101
20
3.15094379749686
30
0
41
1
10
10.4591840600411
20
3.11253713085046
30
0
0
SPLINE
5
140
100
AcDbEntity
8
1
62
256
6
ByLayer
370
18
48
1
60
0
100
AcDbSpline
70
4
71
3
72
34
73
30
40
0
40
0
40
0
40
0
40
0.059159883101324
40
0.0762628489106639
40
0.0933658147200039
40
0.127571746338684
40
0.161777677957364
40
0.195983609576043
40
0.230189541194724
40
0.264395472813403
40
0.298601404432083
40
0.332807336050763
40
0.367013267669443
40
0.401219199288123
40
0.435425130906803
40
0.469631062525483
40
0.503836994144163
40
0.538042925762843
40
0.572248857381522
40
0.606454789000202
40
0.674866652237562
40
0.709072583856242
40
0.743278515474922
40
0.811690378712282
40
0.845896310330962
40
0.880102241949642
40
0.914308173568321
40
0.948514105187001
40
1
40
1
40
1
40
1
41
1
10
9.73918049567624
20
3.69195119613571
30
0
41
1
10
10.0504078282673
20
3.53523018922789
30
0
41
1
10
10.4514143377344
20
3.31789638009289
30
0
41
1
10
10.9422363848737
20
3.0309311654963
30
0
41
1
10
11.3018526975729
20
2.81411502797775
30
0
41
1
10
11.7513699743276
20
2.53138541748277
30
0
41
1
10
12.2908780258127
20
2.17563627037245
30
0
41
1
10
12.8305647738266
20
1.80567935643063
30
0
41
1
10
13.3704510038031
20
1.42388938625623
30
0
41
1
10
13.9105643041478
20
1.03263041356928
30
0
41
1
10
14.4509308523608
20
0.634486251501954
30
0
41
1
10
14.9915721071675
20
0.23199549150516
30
0
41
1
10
15.5324357763344
20
-0.172153126769103
30
0
41
1
10
16.0734819584594
20
-0.575340298345367
30
0
41
1
10
16.6146627372383
20
-0.974852845265247
30
0
41
1
10
17.1559315531073
20
-1.3680679203905
30
0
41
1
10
17.6972091649008
20
-1.75235175753841
30
0
41
1
10
18.2384409748691
20
-2.1251789326725
30
0
41
1
10
18.7795209497759
20
-2.48402829065202
30
0
41
1
10
19.5009389613046
20
-2.94083411600263
30
0
41
1
10
20.2233955972547
20
-3.36139032969353
30
0
41
1
10
20.9488399016565
20
-3.73805682697116
30
0
41
1
10
21.6769200843955
20
-4.08303619150632
30
0
41
1
10
22.4099779939415
20
-4.37690187874907
30
0
41
1
10
23.1501947998667
20
-4.61267005262496
30
0
41
1
10
23.7094630577379
20
-4.75878504148798
30
0
41
1
10
24.2733683199432
20
-4.87252541021559
30
0
41
1
10
24.9383057916312
20
-4.96577538373725
30
0
41
1
10
25.4196520368614
20
-4.99533536254543
30
0
41
1
10
25.7114117558642
20
-4.99884377730848
30
0
0
SPLINE
5
141
100
AcDbEntity
8
1
62
256
6
ByLayer
370
18
48
1
60
0
100
AcDbSpline
70
4
71
3
72
12
73
8
40
0
40
0
40
0
40
0
40
0.499999999999995
40
0.499999999999995
40
0.749999999999997
40
0.749999999999997
40
1
40
1
40
1
40
1
41
1
10
10.9999999999917
20
2.96606160057098
30
0
41
1
10
10.7856636075376
20
3.0937162968217
30
0
41
1
10
10.5714009561945
20
3.21617105828679
30
0
41
1
10
10.2512206192798
20
3.39323231058151
30
0
41
1
10
10.1446856039404
20
3.45113067882434
30
0
41
1
10
9.93195315722144
20
3.56459705874087
30
0
41
1
10
9.8257566858552
20
3.62016456665063
30
0
41
1
10
9.71961033452737
20
3.67443419551836
30
0
0
SPLINE
5
142
100
AcDbEntity
8
1
62
256
6
ByLayer
370
18
48
1
60
0
100
AcDbSpline
70
4
71
3
72
8
73
4
40
0
40
0
40
0
40
0
40
1
40
1
40
1
40
1
41
1
10
11
20
2.96606160058022
30
0
41
1
10
11
20
2.96534419385668
30
0
41
1
10
11
20
2.96462678719303
30
0
41
1
10
11
20
2.96390938058931
30
0
0
SPLINE
5
143
100
AcDbEntity
8
1
62
256
6
ByLayer
370
18
48
1
60
0
100
AcDbSpline
70
4
71
3
72
61
73
57
40
0
40
0
40
0
40
0
40
0.0625000000000036
40
0.0625000000000036
40
0.0937500000000054
40
0.0937500000000054
40
0.109375000000006
40
0.109375000000006
40
0.125000000000006
40
0.187500000000008
40
0.187500000000008
40
0.21875000000001
40
0.21875000000001
40
0.23437500000001
40
0.23437500000001
40
0.250000000000011
40
0.250000000000011
40
0.312500000000012
40
0.312500000000012
40
0.343750000000012
40
0.343750000000012
40
0.359375000000013
40
0.359375000000013
40
0.375000000000013
40
0.437500000000013
40
0.437500000000013
40
0.468750000000013
40
0.468750000000013
40
0.484375000000013
40
0.484375000000013
40
0.500000000000013
40
0.562500000000012
40
0.562500000000012
40
0.593750000000011
40
0.593750000000011
40
0.609375000000011
40
0.609375000000011
40
0.625000000000011
40
0.68750000000001
40
0.68750000000001
40
0.71875000000001
40
0.71875000000001
40
0.73437500000001
40
0.73437500000001
40
0.750000000000009
40
0.812500000000007
40
0.812500000000007
40
0.843750000000007
40
0.843750000000007
40
0.859375000000007
40
0.859375000000007
40
0.875000000000007
40
0.875000000000007
40
0.937500000000004
40
0.937500000000004
40
1
40
1
40
1
40
1
41
1
10
11.0000000000001
20
2.96390938058931
30
0
41
1
10
11.305975943734
20
2.77990430050636
30
0
41
1
10
11.6111508557729
20
2.58704206571497
30
0
41
1
10
12.0692347891717
20
2.28629690610032
30
0
41
1
10
12.221983795624
20
2.18414117575148
30
0
41
1
10
12.4513877816715
20
2.02827457282297
30
0
41
1
10
12.5278378546261
20
1.97592395058751
30
0
41
1
10
12.6805925153324
20
1.8705743070316
30
0
41
1
10
13.0622256915777
20
1.60550169953407
30
0
41
1
10
13.4430272120299
20
1.33249844082442
30
0
41
1
10
13.9007680821835
20
0.999319103049714
30
0
41
1
10
14.0534770171379
20
0.88732884399883
30
0
41
1
10
14.2829180315402
20
0.718183720728717
30
0
41
1
10
14.3594440387785
20
0.661621052293697
30
0
41
1
10
14.5123065858668
20
0.548402303871796
30
0
41
1
10
14.5886851715832
20
0.491715291091879
30
0
41
1
10
14.9703846374387
20
0.207986159851572
30
0
41
1
10
15.275107649405
20
-0.0199615605980625
30
0
41
1
10
15.7327354286246
20
-0.361316997194592
30
0
41
1
10
15.8853705587404
20
-0.475005114449715
30
0
41
1
10
16.1146644743453
20
-0.645119879973976
30
0
41
1
10
16.1911713697812
20
-0.701768505729774
30
0
41
1
10
16.3439910215359
20
-0.814627120049977
30
0
41
1
10
16.7257573444004
20
-1.09583220326115
30
0
41
1
10
17.1065652972026
20
-1.37174637725641
30
0
41
1
10
17.5642051107248
20
-1.69573383994094
30
0
41
1
10
17.7168615682609
20
-1.80254651463616
30
0
41
1
10
17.9461925262782
20
-1.96075155606806
30
0
41
1
10
18.0227320384528
20
-2.01317714948968
30
0
41
1
10
18.1756454660534
20
-2.11710934528139
30
0
41
1
10
18.5576383873716
20
-2.37472734651328
30
0
41
1
10
18.9385557513806
20
-2.62085753923171
30
0
41
1
10
19.3961180203207
20
-2.9034991577191
30
0
41
1
10
19.5487144570076
20
-2.99559707682295
30
0
41
1
10
19.7779172867794
20
-3.1303390124323
30
0
41
1
10
19.8544129802732
20
-3.17470956387214
30
0
41
1
10
20.007295472391
20
-3.26213259083281
30
0
41
1
10
20.3891936389994
20
-3.47738239783297
30
0
41
1
10
20.7699937562001
20
-3.67567201746769
30
0
41
1
10
21.2275340622657
20
-3.89589574865335
30
0
41
1
10
21.3801430064174
20
-3.96635223434399
30
0
41
1
10
21.6093838685565
20
-4.06743938457953
30
0
41
1
10
21.685885285575
20
-4.10038284509315
30
0
41
1
10
21.8388682670332
20
-4.16464393193903
30
0
41
1
10
22.2210185933984
20
-4.32112606671905
30
0
41
1
10
22.6019957470723
20
-4.45659842268418
30
0
41
1
10
23.0595251726178
20
-4.5980874404074
30
0
41
1
10
23.2120942981376
20
-4.64173880095351
30
0
41
1
10
23.4412295260113
20
-4.70181836691464
30
0
41
1
10
23.5176662792746
20
-4.72094765860442
30
0
41
1
10
23.6706222897143
20
-4.75737061892318
30
0
41
1
10
23.7470150282079
20
-4.77463411808358
30
0
41
1
10
24.1286387213991
20
-4.85620556908063
30
0
41
1
10
24.4328573036343
20
-4.90629271423924
30
0
41
1
10
25.0412467295907
20
-4.97588405683868
30
0
41
1
10
25.3454155344307
20
-4.9953877832196
30
0
41
1
10
25.6505447720723
20
-4.99930244019359
30
0
0
SPLINE
5
144
100
AcDbEntity
8
1
62
256
6
ByLayer
370
18
48
1
60
0
100
AcDbSpline
70
4
71
3
72
62
73
58
40
0
40
0
40
0
40
0
40
0.0625000000000035
40
0.0625000000000035
40
0.0937500000000053
40
0.0937500000000053
40
0.109375000000006
40
0.109375000000006
40
0.125000000000006
40
0.125000000000006
40
0.187500000000009
40
0.187500000000009
40
0.218750000000009
40
0.218750000000009
40
0.23437500000001
40
0.23437500000001
40
0.25000000000001
40
0.25000000000001
40
0.312500000000011
40
0.312500000000011
40
0.343750000000011
40
0.343750000000011
40
0.359375000000011
40
0.359375000000011
40
0.375000000000012
40
0.375000000000012
40
0.437500000000012
40
0.437500000000012
40
0.468750000000012
40
0.468750000000012
40
0.484375000000013
40
0.484375000000013
40
0.500000000000013
40
0.500000000000013
40
0.562500000000014
40
0.562500000000014
40
0.625000000000014
40
0.625000000000014
40
0.640625000000014
40
0.640625000000014
40
0.656250000000014
40
0.687500000000013
40
0.687500000000013
40
0.750000000000012
40
0.750000000000012
40
0.765625000000012
40
0.765625000000012
40
0.781250000000011
40
0.812500000000011
40
0.812500000000011
40
0.875000000000008
40
0.875000000000008
40
0.906250000000006
40
0.906250000000006
40
0.937500000000005
40
0.937500000000005
40
1
40
1
40
1
40
1
41
1
10
11.0000000000001
20
4.10160393829366
30
0
41
1
10
11.305664178755
20
4.22858008061209
30
0
41
1
10
11.6105906522894
20
4.34315057591809
30
0
41
1
10
12.0682545062691
20
4.49553259198669
30
0
41
1
10
12.2208559487079
20
4.54307697656756
30
0
41
1
10
12.4500123338017
20
4.60937528677024
30
0
41
1
10
12.5263991738139
20
4.63062615780612
30
0
41
1
10
12.6790174291287
20
4.67136718156914
30
0
41
1
10
12.7552769398953
20
4.69086553864258
30
0
41
1
10
13.1364034882003
20
4.78396815407578
30
0
41
1
10
13.4407649430988
20
4.8443651466001
30
0
41
1
10
13.8979297519747
20
4.91342030535458
30
0
41
1
10
14.0504196847999
20
4.93285850619745
30
0
41
1
10
14.2794714035265
20
4.95659696423891
30
0
41
1
10
14.3559149863277
20
4.96360933805593
30
0
41
1
10
14.5087137814747
20
4.97579799301261
30
0
41
1
10
14.5850555405456
20
4.98097440261859
30
0
41
1
10
14.9665402062596
20
5.00227090463295
30
0
41
1
10
15.2709936087879
20
5.00463795515591
30
0
41
1
10
15.7279715963728
20
4.98601619477742
30
0
41
1
10
15.8803490353042
20
4.97611903968107
30
0
41
1
10
16.1091722461541
20
4.9557648522231
30
0
41
1
10
16.1854895643522
20
4.94806151229693
30
0
41
1
10
16.3382405594498
20
4.9308188870047
30
0
41
1
10
16.4146472664199
20
4.92128163349238
30
0
41
1
10
16.7962391868391
20
4.86913057822403
30
0
41
1
10
17.1007105120374
20
4.81307009533282
30
0
41
1
10
17.55766042141
20
4.70805028869643
30
0
41
1
10
17.7100169105278
20
4.66955346352927
30
0
41
1
10
17.9387836405123
20
4.60663254983774
30
0
41
1
10
18.0150777075412
20
4.58479703294753
30
0
41
1
10
18.16776982272
20
4.53941435770156
30
0
41
1
10
18.2442060635172
20
4.51585489006695
30
0
41
1
10
18.6262225307107
20
4.39396076404509
30
0
41
1
10
18.9308762168096
20
4.28348877943628
30
0
41
1
10
19.5400747771277
20
4.03802372342346
30
0
41
1
10
19.8446268047265
20
3.90301574836977
30
0
41
1
10
20.226478577893
20
3.71981989131712
30
0
41
1
10
20.3028927216737
20
3.68246525591476
30
0
41
1
10
20.4555394700789
20
3.60650376569583
30
0
41
1
10
20.6843581272386
20
3.49062552159927
30
0
41
1
10
20.9128609338932
20
3.36909286096926
30
0
41
1
10
21.3698050682356
20
3.11886897058903
30
0
41
1
10
21.6743603440007
20
2.94250811708906
30
0
41
1
10
22.0560856302476
20
2.71129636986228
30
0
41
1
10
22.1325159041236
20
2.66449426909315
30
0
41
1
10
22.2853378688814
20
2.56994266618293
30
0
41
1
10
22.5143947184535
20
2.42676770939829
30
0
41
1
10
22.7430465490246
20
2.27971568662366
30
0
41
1
10
23.2001534968917
20
1.98087845402762
30
0
41
1
10
23.5046246835309
20
1.77533903878864
30
0
41
1
10
23.9623923681693
20
1.45932673835628
30
0
41
1
10
24.1152979194521
20
1.35260876522085
30
0
41
1
10
24.4205257325237
20
1.13775615465616
30
0
41
1
10
24.5729504292005
20
1.0295529342815
30
0
41
1
10
25.0300152019738
20
0.703107067946377
30
0
41
1
10
25.3344506151862
20
0.483035992986345
30
0
41
1
10
25.6395122614537
20
0.261747730053628
30
0
0
SPLINE
5
145
100
AcDbEntity
8
1
62
256
6
ByLayer
370
18
48
1
60
0
100
AcDbSpline
70
4
71
1
72
4
73
2
40
0
40
0
40
1
40
1
41
1
10
24.3570792298306
20
3.0340610736126
30
0
41
1
10
24.2553202502402
20
3.07302207727642
30
0
0
SPLINE
5
146
100
AcDbEntity
8
1
62
256
6
ByLayer
370
18
48
1
60
0
100
AcDbSpline
70
4
71
2
72
6
73
3
40
0
40
0
40
0
40
1
40
1
40
1
41
1
10
15.1967522318301
20
-4.99924002694596
30
0
41
1
10
15.1967385971786
20
-4.99924040875422
30
0
41
1
10
15.1967249625244
20
-4.99924069895394
30
0
0
SPLINE
5
147
100
AcDbEntity
8
1
62
256
6
ByLayer
370
18
48
1
60
0
100
AcDbSpline
70
4
71
3
72
19
73
15
40
0
40
0
40
0
40
0
40
0.152574588553079
40
0.268648579126275
40
0.353183293047733
40
0.434395094087112
40
0.516783543508993
40
0.581421649345132
40
0.63572892311203
40
0.686150903568082
40
0.750180658391051
40
0.842257694655359
40
0.962377880997787
40
1
40
1
40
1
40
1
41
1
10
17.7652652766567
20
-4.39123419778531
30
0
41
1
10
17.9445370560514
20
-4.38513112067906
30
0
41
1
10
18.2587809808225
20
-4.36920594004221
30
0
41
1
10
18.6708100322426
20
-4.3358334979736
30
0
41
1
10
18.9946427089394
20
-4.30267784723776
30
0
41
1
10
19.2811126329372
20
-4.26820045634918
30
0
41
1
10
19.5456282301893
20
-4.23169533204634
30
0
41
1
10
19.7796803207902
20
-4.19571633986433
30
0
41
1
10
19.9772119492898
20
-4.16288629753487
30
0
41
1
10
20.1750872951931
20
-4.12781424410923
30
0
41
1
10
20.4149459951927
20
-4.08251117687399
30
0
41
1
10
20.7354607502055
20
-4.01701085683558
30
0
41
1
10
21.0248376117048
20
-3.95189462791444
30
0
41
1
10
21.2075095320304
20
-3.90820286141008
30
0
41
1
10
21.2510738983996
20
-3.89763487884474
30
0
0
SPLINE
5
148
100
AcDbEntity
8
1
62
256
6
ByLayer
370
18
48
1
60
0
100
AcDbSpline
70
4
71
3
72
9
73
5
40
0
40
0
40
0
40
0
40
0.8447403674219
40
1
40
1
40
1
40
1
41
1
10
21.8435179348192
20
3.8659917250541
30
0
41
1
10
21.612568576177
20
3.92030949551568
30
0
41
1
10
21.3415241604326
20
3.97969413749195
30
0
41
1
10
21.0749889620036
20
4.03304862687347
30
0
41
1
10
21.0336849318328
20
4.04119078837644
30
0
0
SPLINE
5
149
100
AcDbEntity
8
1
62
256
6
ByLayer
370
18
48
1
60
0
100
AcDbSpline
70
4
71
3
72
11
73
7
40
0
40
0
40
0
40
0
40
0.314067527988738
40
0.502407615986563
40
0.689087418423261
40
1
40
1
40
1
40
1
41
1
10
15.9637621078641
20
2.26262699096728
30
0
41
1
10
15.8198882541596
20
2.30099960430786
30
0
41
1
10
15.5895855197973
20
2.36867600213813
30
0
41
1
10
15.2728417233808
20
2.47555770924288
30
0
41
1
10
14.9583670330462
20
2.59170781187143
30
0
41
1
10
14.7294432788634
20
2.68565381810103
30
0
41
1
10
14.5862619171063
20
2.74810526657672
30
0
0
SPLINE
5
14A
100
AcDbEntity
8
1
62
256
6
ByLayer
370
18
48
1
60
0
100
AcDbSpline
70
4
71
1
72
4
73
2
40
0
40
0
40
1
40
1
41
1
10
12.8303256515793
20
3.41084557052548
30
0
41
1
10
11
20
3.91448995884119
30
0
0
SPLINE
5
14B
100
AcDbEntity
8
1
62
256
6
ByLayer
370
18
48
1
60
0
100
AcDbSpline
70
4
71
1
72
4
73
2
40
0
40
0
40
1
40
1
41
1
10
15.3119285361265
20
4.99928193183751
30
0
41
1
10
15.3119395080242
20
4.99928184548475
30
0
0
LINE
5
77
100
AcDbEntity
8
80
62
256
6
ByLayer
370
18
48
1
60
0
100
AcDbLine
10
0
20
0
30
0
11
-5
21
0
31
0
39
0
210
0
220
0
230
1
0
LINE
5
78
100
AcDbEntity
8
4
62
256
6
ByLayer
370
18
48
0.05
60
0
100
AcDbLine
10
0
20
0
30
0
11
26
21
0
31
0
39
0
210
0
220
0
230
1
0
LINE
5
7A
100
AcDbEntity
8
81
62
256
6
ByLayer
370
18
48
1
60
0
100
AcDbLine
10
26
20
0
30
0
11
31
21
0
31
0
39
0
210
0
220
0
230
1
0
LINE
5
7B
100
AcDbEntity
8
SK4
62
256
6
ByLayer
370
18
48
0.05
60
0
100
AcDbLine
10
-40
20
0
30
0
11
26
21
0
31
0
39
0
210
0
220
0
230
1
0
LINE
5
7D
100
AcDbEntity
8
1
62
256
6
ByLayer
370
18
48
1
60
0
100
AcDbLine
10
0
20
5
30
0
11
0
21
0
31
0
39
0
210
0
220
0
230
1
0
LINE
5
7E
100
AcDbEntity
8
1
62
256
6
ByLayer
370
18
48
1
60
0
100
AcDbLine
10
0
20
0
30
0
11
0
21
-5
31
0
39
0
210
0
220
0
230
1
0
LINE
5
7F
100
AcDbEntity
8
1
62
256
6
ByLayer
370
18
48
1
60
0
100
AcDbLine
10
25.912912
20
-0.362647
30
0
11
25.879521
21
-0.450172
31
0
39
0
210
0
220
0
230
1
0
LINE
5
80
100
AcDbEntity
8
1
62
256
6
ByLayer
370
18
48
1
60
0
100
AcDbLine
10
25.99494
20
0.289082
30
0
11
25.990168
21
0.25117
31
0
39
0
210
0
220
0
230
1
0
LINE
5
81
100
AcDbEntity
8
1
62
256
6
ByLayer
370
18
48
1
60
0
100
AcDbLine
10
25.979207
20
0.164083
30
0
11
25.912912
21
-0.362647
31
0
39
0
210
0
220
0
230
1
0
LINE
5
82
100
AcDbEntity
8
1
62
256
6
ByLayer
370
18
48
1
60
0
100
AcDbLine
10
25.912912
20
-0.362647
30
0
11
25.877859
21
-0.387403
31
0
39
0
210
0
220
0
230
1
0
LINE
5
83
100
AcDbEntity
8
1
62
256
6
ByLayer
370
18
48
1
60
0
100
AcDbLine
10
25.985398
20
0.288424
30
0
11
25.99494
21
0.289082
31
0
39
0
210
0
220
0
230
1
0
LINE
5
84
100
AcDbEntity
8
1
62
256
6
ByLayer
370
18
48
1
60
0
100
AcDbLine
10
25.986195
20
0.282208
30
0
11
25.99494
21
0.289082
31
0
39
0
210
0
220
0
230
1
0
LINE
5
85
100
AcDbEntity
8
1
62
256
6
ByLayer
370
18
48
1
60
0
100
AcDbLine
10
25.872855
20
-0.19855
30
0
11
25.891581
21
-0.02095
31
0
39
0
210
0
220
0
230
1
0
LINE
5
86
100
AcDbEntity
8
1
62
256
6
ByLayer
370
18
48
1
60
0
100
AcDbLine
10
25.808918
20
4.984598
30
0
11
25.99494
21
4.800668
31
0
39
0
210
0
220
0
230
1
0
LINE
5
87
100
AcDbEntity
8
1
62
256
6
ByLayer
370
18
48
1
60
0
100
AcDbLine
10
25.891621
20
0.91119
30
0
11
25.99494
21
4.800668
31
0
39
0
210
0
220
0
230
1
0
LINE
5
88
100
AcDbEntity
8
1
62
256
6
ByLayer
370
18
48
1
60
0
100
AcDbLine
10
25.868151
20
-0.021102
30
0
11
25.99494
21
-4.805208
31
0
39
0
210
0
220
0
230
1
0
LINE
5
89
100
AcDbEntity
8
1
62
256
6
ByLayer
370
18
48
1
60
0
100
AcDbLine
10
25.845923
20
-0.059777
30
0
11
25.857512
21
-0.021119
31
0
39
0
210
0
220
0
230
1
0
LINE
5
8A
100
AcDbEntity
8
1
62
256
6
ByLayer
370
18
48
1
60
0
100
AcDbLine
10
25.844476
20
-0.058769
30
0
11
25.845923
21
-0.059777
31
0
39
0
210
0
220
0
230
1
0
LINE
5
8B
100
AcDbEntity
8
1
62
256
6
ByLayer
370
18
48
1
60
0
100
AcDbLine
10
25.844562
20
-0.021182
30
0
11
25.844476
21
-0.058769
31
0
39
0
210
0
220
0
230
1
0
LINE
5
8C
100
AcDbEntity
8
1
62
256
6
ByLayer
370
18
48
1
60
0
100
AcDbLine
10
25.827828
20
-0.265498
30
0
11
25.822521
21
-0.021295
31
0
39
0
210
0
220
0
230
1
0
LINE
5
8D
100
AcDbEntity
8
1
62
256
6
ByLayer
370
18
48
1
60
0
100
AcDbLine
10
25.80808
20
-4.990983
30
0
11
25.99494
21
-4.805208
31
0
39
0
210
0
220
0
230
1
0
LINE
5
8E
100
AcDbEntity
8
1
62
256
6
ByLayer
370
18
48
1
60
0
100
AcDbLine
10
25.99494
20
-4.805208
30
0
11
25.912912
21
-4.689803
31
0
39
0
210
0
220
0
230
1
0
LINE
5
8F
100
AcDbEntity
8
1
62
256
6
ByLayer
370
13
48
1
60
0
100
AcDbLine
10
25.60742
20
-0.022349
30
0
11
25.827828
21
-0.265498
31
0
39
0
210
0
220
0
230
1
0
LINE
5
90
100
AcDbEntity
8
1
62
256
6
ByLayer
370
18
48
1
60
0
100
AcDbLine
10
7.781331
20
-4.999034
30
0
11
10.540032
21
-3.969779
31
0
39
0
210
0
220
0
230
1
0
LINE
5
91
100
AcDbEntity
8
1
62
256
6
ByLayer
370
13
48
1
60
0
100
AcDbLine
10
7.35843
20
4.985116
30
0
11
7.454021
21
4.951153
31
0
39
0
210
0
220
0
230
1
0
LINE
5
92
100
AcDbEntity
8
1
62
256
6
ByLayer
370
13
48
1
60
0
100
AcDbLine
10
6.78927
20
-4.454684
30
0
11
8.49784
21
-3.817227
31
0
39
0
210
0
220
0
230
1
0
LINE
5
93
100
AcDbEntity
8
1
62
256
6
ByLayer
370
18
48
1
60
0
100
AcDbLine
10
25.912912
20
-4.689803
30
0
11
25.77858
21
-4.718838
31
0
39
0
210
0
220
0
230
1
0
LINE
5
94
100
AcDbEntity
8
1
62
256
6
ByLayer
370
18
48
1
60
0
100
AcDbLine
10
25.912912
20
-4.689803
30
0
11
25.817074
21
-1.034712
31
0
39
0
210
0
220
0
230
1
0
LINE
5
95
100
AcDbEntity
8
1
62
256
6
ByLayer
370
18
48
1
60
0
100
AcDbLine
10
25.000363
20
-2.229052
30
0
11
25.80906
21
-1.046983
31
0
39
0
210
0
220
0
230
1
0
LINE
5
96
100
AcDbEntity
8
1
62
256
6
ByLayer
370
13
48
1
60
0
100
AcDbLine
10
25.80906
20
-1.046983
30
0
11
23.196028
21
-0.608577
31
0
39
0
210
0
220
0
230
1
0
LINE
5
97
100
AcDbEntity
8
1
62
256
6
ByLayer
370
13
48
1
60
0
100
AcDbLine
10
6.869112
20
-4.225143
30
0
11
7.676248
21
-3.924005
31
0
39
0
210
0
220
0
230
1
0
LINE
5
98
100
AcDbEntity
8
1
62
256
6
ByLayer
370
18
48
1
60
0
100
AcDbLine
10
11
20
0.398488
30
0
11
11
21
0.620723
31
0
39
0
210
0
220
0
230
1
0
LINE
5
99
100
AcDbEntity
8
1
62
256
6
ByLayer
370
18
48
1
60
0
100
AcDbLine
10
11
20
3.914594
30
0
11
11
21
3.831098
31
0
39
0
210
0
220
0
230
1
0
LINE
5
9A
100
AcDbEntity
8
1
62
256
6
ByLayer
370
18
48
1
60
0
100
AcDbLine
10
11
20
0.620723
30
0
11
11
21
2.808515
31
0
39
0
210
0
220
0
230
1
0
LINE
5
9B
100
AcDbEntity
8
1
62
256
6
ByLayer
370
18
48
1
60
0
100
AcDbLine
10
11
20
-2.633045
30
0
11
11
21
-2.968515
31
0
39
0
210
0
220
0
230
1
0
LINE
5
9C
100
AcDbEntity
8
1
62
256
6
ByLayer
370
18
48
1
60
0
100
AcDbLine
10
25.99494
20
0.213896
30
0
11
25.912912
21
0.854726
31
0
39
0
210
0
220
0
230
1
0
LINE
5
9D
100
AcDbEntity
8
1
62
256
6
ByLayer
370
18
48
1
60
0
100
AcDbLine
10
25.912912
20
0.854726
30
0
11
25.77912
21
1.209096
31
0
39
0
210
0
220
0
230
1
0
LINE
5
9E
100
AcDbEntity
8
1
62
256
6
ByLayer
370
18
48
1
60
0
100
AcDbLine
10
25.808592
20
0.246186
30
0
11
25.99494
21
0.213896
31
0
39
0
210
0
220
0
230
1
0
LINE
5
9F
100
AcDbEntity
8
1
62
256
6
ByLayer
370
13
48
1
60
0
100
AcDbLine
10
23.931675
20
0.22763
30
0
11
25.427092
21
-0.023266
31
0
39
0
210
0
220
0
230
1
0
LINE
5
A0
100
AcDbEntity
8
1
62
256
6
ByLayer
370
18
48
1
60
0
100
AcDbLine
10
25.920813
20
-0.020803
30
0
11
25.427092
21
-0.023266
31
0
39
0
210
0
220
0
230
1
0
LINE
5
A1
100
AcDbEntity
8
1
62
256
6
ByLayer
370
18
48
1
60
0
100
AcDbLine
10
25.920813
20
-0.020803
30
0
11
25.99494
21
0.213896
31
0
39
0
210
0
220
0
230
1
0
LINE
5
A2
100
AcDbEntity
8
1
62
256
6
ByLayer
370
18
48
1
60
0
100
AcDbLine
10
11
20
-2.633045
30
0
11
11
21
-2.418612
31
0
39
0
210
0
220
0
230
1
0
LINE
5
A3
100
AcDbEntity
8
1
62
256
6
ByLayer
370
18
48
1
60
0
100
AcDbLine
10
11
20
-1.473859
30
0
11
11
21
0.398488
31
0
39
0
210
0
220
0
230
1
0
LINE
5
A4
100
AcDbEntity
8
1
62
256
6
ByLayer
370
18
48
1
60
0
100
AcDbLine
10
11
20
-2.418612
30
0
11
11
21
-1.473859
31
0
39
0
210
0
220
0
230
1
0
LINE
5
A5
100
AcDbEntity
8
1
62
256
6
ByLayer
370
18
48
1
60
0
100
AcDbLine
10
11
20
4.101585
30
0
11
11
21
4.101604
31
0
39
0
210
0
220
0
230
1
0
LINE
5
A6
100
AcDbEntity
8
1
62
256
6
ByLayer
370
18
48
1
60
0
100
AcDbLine
10
11
20
4.101585
30
0
11
11
21
3.914598
31
0
39
0
210
0
220
0
230
1
0
LINE
5
A7
100
AcDbEntity
8
1
62
256
6
ByLayer
370
18
48
1
60
0
100
AcDbLine
10
11
20
2.963888
30
0
11
11
21
2.963909
31
0
39
0
210
0
220
0
230
1
0
LINE
5
A8
100
AcDbEntity
8
1
62
256
6
ByLayer
370
18
48
1
60
0
100
AcDbLine
10
11
20
2.963888
30
0
11
11
21
2.808515
31
0
39
0
210
0
220
0
230
1
0
LINE
5
A9
100
AcDbEntity
8
1
62
256
6
ByLayer
370
13
48
1
60
0
100
AcDbLine
10
10.459184
20
3.112537
30
0
11
11
21
2.808515
31
0
39
0
210
0
220
0
230
1
0
LINE
5
AA
100
AcDbEntity
8
1
62
256
6
ByLayer
370
13
48
1
60
0
100
AcDbLine
10
7.082384
20
2.823025
30
0
11
11
21
0.620723
31
0
39
0
210
0
220
0
230
1
0
LINE
5
AB
100
AcDbEntity
8
1
62
256
6
ByLayer
370
13
48
1
60
0
100
AcDbLine
10
7.468986
20
-0.648073
30
0
11
11
21
-2.633045
31
0
39
0
210
0
220
0
230
1
0
LINE
5
AC
100
AcDbEntity
8
1
62
256
6
ByLayer
370
13
48
1
60
0
100
AcDbLine
10
7.033445
20
2.628302
30
0
11
11
21
0.398488
31
0
39
0
210
0
220
0
230
1
0
LINE
5
AD
100
AcDbEntity
8
1
62
256
6
ByLayer
370
13
48
1
60
0
100
AcDbLine
10
7.454824
20
-0.425678
30
0
11
11
21
-2.418612
31
0
39
0
210
0
220
0
230
1
0
LINE
5
AE
100
AcDbEntity
8
1
62
256
6
ByLayer
370
18
48
1
60
0
100
AcDbLine
10
8.030536
20
0.195437
30
0
11
11
21
-1.473859
31
0
39
0
210
0
220
0
230
1
0
LINE
5
AF
100
AcDbEntity
8
SK1
62
256
6
ByLayer
370
18
48
1
60
0
100
AcDbLine
10
-40
20
-4.4
30
0
11
-40
21
4.4
31
0
39
0
210
0
220
0
230
1
0
LINE
5
B1
100
AcDbEntity
8
SK1
62
256
6
ByLayer
370
18
48
1
60
0
100
AcDbLine
10
0
20
5
30
0
11
0
21
0
31
0
39
0
210
0
220
0
230
1
0
LINE
5
B2
100
AcDbEntity
8
SK1
62
256
6
ByLayer
370
18
48
1
60
0
100
AcDbLine
10
0
20
0
30
0
11
0
21
-5
31
0
39
0
210
0
220
0
230
1
0
LINE
5
B3
100
AcDbEntity
8
SK1
62
256
6
ByLayer
370
18
48
1
60
0
100
AcDbLine
10
-39.4
20
5
30
0
11
-39.4
21
-5
31
0
39
0
210
0
220
0
230
1
0
LINE
5
B4
100
AcDbEntity
8
SK1
62
256
6
ByLayer
370
18
48
1
60
0
100
AcDbLine
10
-23.5
20
3.5
30
0
11
-25
21
5
31
0
39
0
210
0
220
0
230
1
0
LINE
5
B5
100
AcDbEntity
8
SK1
62
256
6
ByLayer
370
18
48
1
60
0
100
AcDbLine
10
-16.5
20
3.5
30
0
11
-15
21
5
31
0
39
0
210
0
220
0
230
1
0
LINE
5
B6
100
AcDbEntity
8
SK1
62
256
6
ByLayer
370
18
48
1
60
0
100
AcDbLine
10
-23.5
20
3.5
30
0
11
-16.5
21
3.5
31
0
39
0
210
0
220
0
230
1
0
LINE
5
B7
100
AcDbEntity
8
1
62
256
6
ByLayer
370
18
48
1
60
0
100
AcDbLine
10
7.927169
20
5
30
0
11
0
21
5
31
0
39
0
210
0
220
0
230
1
0
LINE
5
B8
100
AcDbEntity
8
1
62
256
6
ByLayer
370
18
48
1
60
0
100
AcDbLine
10
0
20
-5
30
0
11
7.793419
21
-5
31
0
39
0
210
0
220
0
230
1
0
LINE
5
B9
100
AcDbEntity
8
1
62
256
6
ByLayer
370
18
48
1
60
0
100
AcDbLine
10
7.805818
20
-4.999899
30
0
11
10.55814
21
-3.973024
31
0
39
0
210
0
220
0
230
1
0
LINE
5
BA
100
AcDbEntity
8
1
62
256
6
ByLayer
370
18
48
1
60
0
100
AcDbLine
10
11.008577
20
3.911547
30
0
11
7.943122
21
5.000705
31
0
39
0
210
0
220
0
230
1
0
LINE
5
BB
100
AcDbEntity
8
SK1
62
256
6
ByLayer
370
18
48
1
60
0
100
AcDbLine
10
-40
20
-4.4
30
0
11
-39.4
21
-5
31
0
39
0
210
0
220
0
230
1
0
LINE
5
BC
100
AcDbEntity
8
SK1
62
256
6
ByLayer
370
18
48
1
60
0
100
AcDbLine
10
-39.4
20
5
30
0
11
-40
21
4.4
31
0
39
0
210
0
220
0
230
1
0
LINE
5
BD
100
AcDbEntity
8
SK1
62
256
6
ByLayer
370
18
48
1
60
0
100
AcDbLine
10
0
20
5
30
0
11
-15
21
5
31
0
39
0
210
0
220
0
230
1
0
LINE
5
BE
100
AcDbEntity
8
SK1
62
256
6
ByLayer
370
18
48
1
60
0
100
AcDbLine
10
-25
20
5
30
0
11
-39.4
21
5
31
0
39
0
210
0
220
0
230
1
0
LINE
5
BF
100
AcDbEntity
8
SK1
62
256
6
ByLayer
370
18
48
1
60
0
100
AcDbLine
10
-39.4
20
-5
30
0
11
0
21
-5
31
0
39
0
210
0
220
0
230
1
0
LINE
5
C0
100
AcDbEntity
8
SK2
62
256
6
ByLayer
370
18
48
1
60
0
100
AcDbLine
10
-47.65
20
5
30
0
11
-47.65
21
-23.056066
31
0
39
0
210
0
220
0
230
1
0
LINE
5
C2
100
AcDbEntity
8
SK2
62
256
6
ByLayer
370
18
48
1
60
0
100
AcDbLine
10
-40.9875
20
5
30
0
11
-49.65
21
5
31
0
39
0
210
0
220
0
230
1
0
LINE
5
C3
100
AcDbEntity
8
SK2
62
256
6
ByLayer
370
18
48
1
60
0
100
AcDbLine
10
-40.9875
20
-5
30
0
11
-49.65
21
-5
31
0
39
0
210
0
220
0
230
1
0
LINE
5
C4
100
AcDbEntity
8
1
62
256
6
ByLayer
370
18
48
1
60
1
100
AcDbLine
10
-47.65
20
5
30
0
11
-47.189216
21
1.500002
31
0
39
0
210
0
220
0
230
1
0
LINE
5
C5
100
AcDbEntity
8
1
62
256
6
ByLayer
370
18
48
1
60
1
100
AcDbLine
10
-47.189216
20
1.500002
30
0
11
-48.110784
21
1.499998
31
0
39
0
210
0
220
0
230
1
0
LINE
5
C6
100
AcDbEntity
8
1
62
256
6
ByLayer
370
18
48
1
60
1
100
AcDbLine
10
-48.110784
20
1.499998
30
0
11
-47.65
21
5
31
0
39
0
210
0
220
0
230
1
0
LINE
5
C7
100
AcDbEntity
8
1
62
256
6
ByLayer
370
18
48
1
60
1
100
AcDbLine
10
-47.65
20
-5
30
0
11
-48.110784
21
-1.500002
31
0
39
0
210
0
220
0
230
1
0
LINE
5
C8
100
AcDbEntity
8
1
62
256
6
ByLayer
370
18
48
1
60
1
100
AcDbLine
10
-48.110784
20
-1.500002
30
0
11
-47.189216
21
-1.499998
31
0
39
0
210
0
220
0
230
1
0
LINE
5
C9
100
AcDbEntity
8
1
62
256
6
ByLayer
370
18
48
1
60
1
100
AcDbLine
10
-47.189216
20
-1.499998
30
0
11
-47.65
21
-5
31
0
39
0
210
0
220
0
230
1
0
LINE
5
CA
100
AcDbEntity
8
2
62
256
6
ByLayer
370
18
48
1
60
0
100
AcDbLine
10
38
20
-5.0001
30
0
11
38
21
23.056166
31
0
39
0
210
0
220
0
230
1
0
LINE
5
CC
100
AcDbEntity
8
2
62
256
6
ByLayer
370
18
48
1
60
0
100
AcDbLine
10
27.5875
20
5.0001
30
0
11
40
21
5.0001
31
0
39
0
210
0
220
0
230
1
0
LINE
5
CD
100
AcDbEntity
8
2
62
256
6
ByLayer
370
18
48
1
60
0
100
AcDbLine
10
27.5875
20
-5.0001
30
0
11
40
21
-5.0001
31
0
39
0
210
0
220
0
230
1
0
LINE
5
CE
100
AcDbEntity
8
1
62
256
6
ByLayer
370
18
48
1
60
1
100
AcDbLine
10
38
20
5.0001
30
0
11
38.460784
21
1.500102
31
0
39
0
210
0
220
0
230
1
0
LINE
5
CF
100
AcDbEntity
8
1
62
256
6
ByLayer
370
18
48
1
60
1
100
AcDbLine
10
38.460784
20
1.500102
30
0
11
37.539216
21
1.500098
31
0
39
0
210
0
220
0
230
1
0
LINE
5
D0
100
AcDbEntity
8
1
62
256
6
ByLayer
370
18
48
1
60
1
100
AcDbLine
10
37.539216
20
1.500098
30
0
11
38
21
5.0001
31
0
39
0
210
0
220
0
230
1
0
LINE
5
D1
100
AcDbEntity
8
1
62
256
6
ByLayer
370
18
48
1
60
1
100
AcDbLine
10
38
20
-5.0001
30
0
11
37.539216
21
-1.500102
31
0
39
0
210
0
220
0
230
1
0
LINE
5
D2
100
AcDbEntity
8
1
62
256
6
ByLayer
370
18
48
1
60
1
100
AcDbLine
10
37.539216
20
-1.500102
30
0
11
38.460784
21
-1.500098
31
0
39
0
210
0
220
0
230
1
0
LINE
5
D3
100
AcDbEntity
8
1
62
256
6
ByLayer
370
18
48
1
60
1
100
AcDbLine
10
38.460784
20
-1.500098
30
0
11
38
21
-5.0001
31
0
39
0
210
0
220
0
230
1
0
LINE
5
D4
100
AcDbEntity
8
SK2
62
256
6
ByLayer
370
18
48
1
60
0
100
AcDbLine
10
26
20
-35.67545
30
0
11
-40
21
-35.67545
31
0
39
0
210
0
220
0
230
1
0
LINE
5
D5
100
AcDbEntity
8
SK2
62
256
6
ByLayer
370
18
48
1
60
0
100
AcDbLine
10
-40
20
-5.9875
30
0
11
-40
21
-37.67545
31
0
39
0
210
0
220
0
230
1
0
LINE
5
D6
100
AcDbEntity
8
SK2
62
256
6
ByLayer
370
18
48
1
60
0
100
AcDbLine
10
26
20
-6.5876
30
0
11
26
21
-37.67545
31
0
39
0
210
0
220
0
230
1
0
LINE
5
D7
100
AcDbEntity
8
1
62
256
6
ByLayer
370
18
48
1
60
1
100
AcDbLine
10
-40
20
-35.67545
30
0
11
-36.500002
21
-35.214666
31
0
39
0
210
0
220
0
230
1
0
LINE
5
D8
100
AcDbEntity
8
1
62
256
6
ByLayer
370
18
48
1
60
1
100
AcDbLine
10
-36.500002
20
-35.214666
30
0
11
-36.499998
21
-36.136234
31
0
39
0
210
0
220
0
230
1
0
LINE
5
D9
100
AcDbEntity
8
1
62
256
6
ByLayer
370
18
48
1
60
1
100
AcDbLine
10
-36.499998
20
-36.136234
30
0
11
-40
21
-35.67545
31
0
39
0
210
0
220
0
230
1
0
LINE
5
DA
100
AcDbEntity
8
1
62
256
6
ByLayer
370
18
48
1
60
1
100
AcDbLine
10
26
20
-35.67545
30
0
11
22.500002
21
-36.136234
31
0
39
0
210
0
220
0
230
1
0
LINE
5
DB
100
AcDbEntity
8
1
62
256
6
ByLayer
370
18
48
1
60
1
100
AcDbLine
10
22.500002
20
-36.136234
30
0
11
22.499998
21
-35.214666
31
0
39
0
210
0
220
0
230
1
0
LINE
5
DC
100
AcDbEntity
8
1
62
256
6
ByLayer
370
18
48
1
60
1
100
AcDbLine
10
22.499998
20
-35.214666
30
0
11
26
21
-35.67545
31
0
39
0
210
0
220
0
230
1
0
LINE
5
150
100
AcDbEntity
8
1
62
256
6
ByLayer
370
18
48
1
60
1
100
AcDbLine
10
-47.65
20
5
30
0
11
-47.189216
21
1.500002
31
0
39
0
210
0
220
0
230
1
0
LINE
5
151
100
AcDbEntity
8
1
62
256
6
ByLayer
370
18
48
1
60
1
100
AcDbLine
10
-47.189216
20
1.500002
30
0
11
-48.110784
21
1.499998
31
0
39
0
210
0
220
0
230
1
0
LINE
5
152
100
AcDbEntity
8
1
62
256
6
ByLayer
370
18
48
1
60
1
100
AcDbLine
10
-48.110784
20
1.499998
30
0
11
-47.65
21
5
31
0
39
0
210
0
220
0
230
1
0
LINE
5
154
100
AcDbEntity
8
1
62
256
6
ByLayer
370
18
48
1
60
1
100
AcDbLine
10
-47.65
20
-5
30
0
11
-48.110784
21
-1.500002
31
0
39
0
210
0
220
0
230
1
0
LINE
5
155
100
AcDbEntity
8
1
62
256
6
ByLayer
370
18
48
1
60
1
100
AcDbLine
10
-48.110784
20
-1.500002
30
0
11
-47.189216
21
-1.499998
31
0
39
0
210
0
220
0
230
1
0
LINE
5
156
100
AcDbEntity
8
1
62
256
6
ByLayer
370
18
48
1
60
1
100
AcDbLine
10
-47.189216
20
-1.499998
30
0
11
-47.65
21
-5
31
0
39
0
210
0
220
0
230
1
0
LINE
5
15A
100
AcDbEntity
8
1
62
256
6
ByLayer
370
18
48
1
60
1
100
AcDbLine
10
38
20
5.0001
30
0
11
38.460784
21
1.500102
31
0
39
0
210
0
220
0
230
1
0
LINE
5
15B
100
AcDbEntity
8
1
62
256
6
ByLayer
370
18
48
1
60
1
100
AcDbLine
10
38.460784
20
1.500102
30
0
11
37.539216
21
1.500098
31
0
39
0
210
0
220
0
230
1
0
LINE
5
15C
100
AcDbEntity
8
1
62
256
6
ByLayer
370
18
48
1
60
1
100
AcDbLine
10
37.539216
20
1.500098
30
0
11
38
21
5.0001
31
0
39
0
210
0
220
0
230
1
0
LINE
5
15E
100
AcDbEntity
8
1
62
256
6
ByLayer
370
18
48
1
60
1
100
AcDbLine
10
38
20
-5.0001
30
0
11
37.539216
21
-1.500102
31
0
39
0
210
0
220
0
230
1
0
LINE
5
15F
100
AcDbEntity
8
1
62
256
6
ByLayer
370
18
48
1
60
1
100
AcDbLine
10
37.539216
20
-1.500102
30
0
11
38.460784
21
-1.500098
31
0
39
0
210
0
220
0
230
1
0
LINE
5
160
100
AcDbEntity
8
1
62
256
6
ByLayer
370
18
48
1
60
1
100
AcDbLine
10
38.460784
20
-1.500098
30
0
11
38
21
-5.0001
31
0
39
0
210
0
220
0
230
1
0
LINE
5
163
100
AcDbEntity
8
1
62
256
6
ByLayer
370
18
48
1
60
1
100
AcDbLine
10
-40
20
-35.67545
30
0
11
-36.500002
21
-35.214666
31
0
39
0
210
0
220
0
230
1
0
LINE
5
164
100
AcDbEntity
8
1
62
256
6
ByLayer
370
18
48
1
60
1
100
AcDbLine
10
-36.500002
20
-35.214666
30
0
11
-36.499998
21
-36.136234
31
0
39
0
210
0
220
0
230
1
0
LINE
5
165
100
AcDbEntity
8
1
62
256
6
ByLayer
370
18
48
1
60
1
100
AcDbLine
10
-36.499998
20
-36.136234
30
0
11
-40
21
-35.67545
31
0
39
0
210
0
220
0
230
1
0
LINE
5
167
100
AcDbEntity
8
1
62
256
6
ByLayer
370
18
48
1
60
1
100
AcDbLine
10
26
20
-35.67545
30
0
11
22.500002
21
-36.136234
31
0
39
0
210
0
220
0
230
1
0
LINE
5
168
100
AcDbEntity
8
1
62
256
6
ByLayer
370
18
48
1
60
1
100
AcDbLine
10
22.500002
20
-36.136234
30
0
11
22.499998
21
-35.214666
31
0
39
0
210
0
220
0
230
1
0
LINE
5
169
100
AcDbEntity
8
1
62
256
6
ByLayer
370
18
48
1
60
1
100
AcDbLine
10
22.499998
20
-35.214666
30
0
11
26
21
-35.67545
31
0
39
0
210
0
220
0
230
1
0
MTEXT
5
14C
100
AcDbEntity
8
SK2
62
256
6
ByLayer
370
18
48
1
60
0
100
AcDbMText
10
-49.214634
20
-21.121222
30
0
210
0
220
0
230
1
1
%%c
40
3.5
41
0
44
1.084337
50
90
71
7
72
5
7
iso_b_vert
0
MTEXT
5
14F
100
AcDbEntity
8
SK2
62
256
6
ByLayer
370
18
48
1
60
0
100
AcDbMText
10
-49.214634
20
-14.148566
30
0
210
0
220
0
230
1
1
\W0.5321;10
40
3.5
41
0
44
1.084337
50
90
71
7
72
5
7
iso_b_vert
0
MTEXT
5
158
100
AcDbEntity
8
2
62
256
6
ByLayer
370
18
48
1
60
0
100
AcDbMText
10
36.435366
20
12.934944
30
0
210
0
220
0
230
1
1
%%c
40
3.5
41
0
44
1.084337
50
90
71
7
72
5
7
iso_b_vert
0
MTEXT
5
159
100
AcDbEntity
8
2
62
256
6
ByLayer
370
18
48
1
60
0
100
AcDbMText
10
36.435366
20
19.9076
30
0
210
0
220
0
230
1
1
\W0.5321;10
40
3.5
41
0
44
1.084337
50
90
71
7
72
5
7
iso_b_vert
0
MTEXT
5
162
100
AcDbEntity
8
SK2
62
256
6
ByLayer
370
18
48
1
60
0
100
AcDbMText
10
-8.904966
20
-34.642816
30
0
210
0
220
0
230
1
1
\W0.6740;66
40
3.5
41
0
44
1.084337
50
0
71
7
72
5
7
iso_b_vert
0
MTEXT
5
16B
100
AcDbEntity
8
SK6
62
256
6
ByLayer
370
18
48
1
60
0
100
AcDbMText
10
-31.372347
20
-62.111336
30
0
210
0
220
0
230
1
1
\W0.6918;1K324-1000-XB       1730
40
3
41
0
44
1.084337
50
0
71
7
72
5
7
iso_b_vert
0
HATCH
5
153
100
AcDbEntity
8
SK2
62
256
6
ByLayer
370
13
48
1
60
0
100
AcDbHatch
10
0
20
0
30
0
210
0
220
0
230
1
2
ANSI31
70
0
71
0
91
1
92
5
93
3
72
1
10
-47.65
20
4.99999999999994
11
-47.1892162584472
21
1.50000169255313
72
1
10
-47.1892162584472
20
1.50000169255313
11
-48.1107837415528
21
1.49999830744676
72
1
10
-48.1107837415528
20
1.49999830744676
11
-47.65
21
4.99999999999994
97
0
75
0
76
1
52
0
41
0.0062
77
0
78
1
53
45
43
0
44
0
45
-0.0139193969876572
46
0.0139193969876572
79
0
47
0
98
1
10
0
20
0
0
HATCH
5
157
100
AcDbEntity
8
SK2
62
256
6
ByLayer
370
13
48
1
60
0
100
AcDbHatch
10
0
20
0
30
0
210
0
220
0
230
1
2
ANSI31
70
0
71
0
91
1
92
5
93
3
72
1
10
-47.65
20
-5.00000000000006
11
-48.1107837415528
21
-1.50000169255324
72
1
10
-48.1107837415528
20
-1.50000169255324
11
-47.1892162584472
21
-1.49999830744687
72
1
10
-47.1892162584472
20
-1.49999830744687
11
-47.65
21
-5.00000000000006
97
0
75
0
76
1
52
0
41
0.0062
77
0
78
1
53
45
43
0
44
0
45
-0.0139193969876572
46
0.0139193969876572
79
0
47
0
98
1
10
0
20
0
0
HATCH
5
15D
100
AcDbEntity
8
2
62
256
6
ByLayer
370
13
48
1
60
0
100
AcDbHatch
10
0
20
0
30
0
210
0
220
0
230
1
2
ANSI31
70
0
71
0
91
1
92
5
93
3
72
1
10
38
20
5.00009999999989
11
38.4607837415528
21
1.50010169255307
72
1
10
38.4607837415528
20
1.50010169255307
11
37.5392162584472
21
1.50009830744671
72
1
10
37.5392162584472
20
1.50009830744671
11
38
21
5.00009999999989
97
0
75
0
76
1
52
0
41
0.0062
77
0
78
1
53
45
43
0
44
0
45
-0.0139193969876572
46
0.0139193969876572
79
0
47
0
98
1
10
0
20
0
0
HATCH
5
161
100
AcDbEntity
8
2
62
256
6
ByLayer
370
13
48
1
60
0
100
AcDbHatch
10
0
20
0
30
0
210
0
220
0
230
1
2
ANSI31
70
0
71
0
91
1
92
5
93
3
72
1
10
38
20
-5.00010000000012
11
37.5392162584472
21
-1.5001016925533
72
1
10
37.5392162584472
20
-1.5001016925533
11
38.4607837415528
21
-1.50009830744693
72
1
10
38.4607837415528
20
-1.50009830744693
11
38
21
-5.00010000000012
97
0
75
0
76
1
52
0
41
0.0062
77
0
78
1
53
45
43
0
44
0
45
-0.0139193969876572
46
0.0139193969876572
79
0
47
0
98
1
10
0
20
0
0
HATCH
5
166
100
AcDbEntity
8
SK2
62
256
6
ByLayer
370
13
48
1
60
0
100
AcDbHatch
10
0
20
0
30
0
210
0
220
0
230
1
2
ANSI31
70
0
71
0
91
1
92
5
93
3
72
1
10
-40
20
-35.6754498927035
11
-36.5000016925532
21
-35.2146661511507
72
1
10
-36.5000016925532
20
-35.2146661511507
11
-36.4999983074468
21
-36.1362336342563
72
1
10
-36.4999983074468
20
-36.1362336342563
11
-40
21
-35.6754498927035
97
0
75
0
76
1
52
0
41
0.0062
77
0
78
1
53
45
43
0
44
0
45
-0.0139193969876572
46
0.0139193969876572
79
0
47
0
98
1
10
0
20
0
0
HATCH
5
16A
100
AcDbEntity
8
SK2
62
256
6
ByLayer
370
13
48
1
60
0
100
AcDbHatch
10
0
20
0
30
0
210
0
220
0
230
1
2
ANSI31
70
0
71
0
91
1
92
5
93
3
72
1
10
26
20
-35.6754498927035
11
22.5000016925532
21
-36.1362336342563
72
1
10
22.5000016925532
20
-36.1362336342563
11
22.4999983074468
21
-35.2146661511507
72
1
10
22.4999983074468
20
-35.2146661511507
11
26
21
-35.6754498927035
97
0
75
0
76
1
52
0
41
0.0062
77
0
78
1
53
45
43
0
44
0
45
-0.0139193969876572
46
0.0139193969876572
79
0
47
0
98
1
10
0
20
0
0
DIMENSION
5
16E
100
AcDbEntity
8
2
62
256
6
ByLayer
370
18
48
1
60
0
100
AcDbDimension
2
_U0
10
11
20
-19.67545
30
0
11
18.5
21
-19.67545
31
0
70
32
71
1
72
1
41
1
210
0
220
0
230
1
3
Standard
100
AcDbAlignedDimension
13
26
23
-5.0001
33
0
14
11
24
-5.0001
34
0
50
0
100
AcDbRotatedDimension
1001
ACAD
1000
DSTYLE
1002
{
1070
   371
1070
    13
1070
   372
1070
    13
1070
   170
1070
     0
1070
   144
1040
1.0
1070
   277
1070
     2
1070
   284
1070
     8
1070
   278
1070
    46
1070
   146
1040
1.0
1070
   345
1005
16
1070
   347
1005
16
1070
   346
1005
16
1070
   344
1005
0
1070
   343
1005
0
1070
   172
1070
     1
1070
    76
1070
     0
1070
    75
1070
     0
1070
   282
1070
     0
1070
   281
1070
     0
1070
    71
1070
     0
1070
    74
1070
     0
1070
   279
1070
     0
1070
   173
1070
     1
1070
   340
1005
14D
1070
   271
1070
     2
1070
   272
1070
     2
1070
    77
1070
     1
1070
    73
1070
     1
1070
   171
1070
     3
1070
   274
1070
     4
1070
   177
1070
     2
1070
   176
1070
     2
1070
   178
1070
     2
1070
    78
1070
     8
1070
    48
1040
-0.1
1070
    41
1040
3.5
1070
   147
1040
1.75
1070
    42
1040
1.5875
1070
    44
1040
2.0
1070
   140
1040
3.5
1002
}
1001
ACAD_DSTYLE_DIM_LINETYPE
1070
   380
1005
16
1001
ACAD_DSTYLE_DIM_EXT1_LINETYPE
1070
   381
1005
16
1001
ACAD_DSTYLE_DIM_EXT2_LINETYPE
1070
   382
1005
16
0
ENDSEC
0
SECTION
2
OBJECTS
0
DICTIONARY
5
1f8
330
0
100
AcDbDictionary
280
0
281
1
3
ACAD_GROUP
350
1f9
3
ACAD_MLINESTYLE
350
1fa
0
DICTIONARY
5
1f9
330
0
100
AcDbDictionary
280
0
281
1
0
DICTIONARY
5
1fa
330
0
100
AcDbDictionary
280
0
281
1
3
Standard
350
18
0
MLINESTYLE
5
18
330
1fa
100
AcDbMlineStyle
2
Standard
70
0
3

62
256
51
90
52
90
71
2
49
-0.5
62
256
6
ByLayer
49
0.5
62
256
6
ByLayer
0
RASTERVARIABLES
5
1e6
330

100
AcDbRasterVariables
90
0
70
1
71
1
72
1
0
ENDSEC
0
EOF
