0
SECTION
2
HEADER
9
$ACADVER
1
AC1015
9
$DWGCODEPAGE
3
ANSI_1252
9
$HANDSEED
5
1db
9
$ANGBASE
50
0
9
$ANGDIR
70
0
9
$ATTMODE
70
1
9
$AUNITS
70
0
9
$AUPREC
70
0
9
$CECOLOR
62
256
9
$CELTSCALE
40
1
9
$CELTYPE
6
ByLayer
9
$CELWEIGHT
370
18
9
$CLAYER
8
0
9
$CMLJUST
70
0
9
$CMLSCALE
40
1
9
$CMLSTYLE
2
Standard
9
$DIMSTYLE
2
Standard
9
$TEXTSIZE
40
0.2
9
$TEXTSTYLE
7
Standard
9
$LUNITS
70
2
9
$LUPREC
70
4
9
$EXTNAMES
290
1
9
$INSUNITS
70
4
9
$LTSCALE
40
1
9
$LWDISPLAY
290
1
9
$PDMODE
70
0
9
$PDSIZE
40
0
9
$PLINEGEN
70
0
0
ENDSEC
0
SECTION
2
CLASSES
0
CLASS
1
RASTERVARIABLES
2
AcDbRasterVariables
3
ISM
90
0
280
0
281
0
0
ENDSEC
0
SECTION
2
TABLES
0
TABLE
2
VPORT
5
1d1
100
AcDbSymbolTable
0
VPORT
5
1
100
AcDbSymbolTableRecord
100
AcDbViewportTableRecord
2
*Active
70
0
10
0
20
0
11
1
21
1
12
-1
22
1
13
0
23
0
14
0.5
24
0.5
15
10
25
10
16
0
26
0
36
1
17
0
27
0
37
0
0
ENDTAB
0
TABLE
2
LTYPE
5
1d2
100
AcDbSymbolTable
0
LTYPE
5
14
100
AcDbSymbolTableRecord
100
AcDbLinetypeTableRecord
70
0
2
ByBlock
3

72
65
73
0
40
0
0
LTYPE
5
15
100
AcDbSymbolTableRecord
100
AcDbLinetypeTableRecord
70
0
2
ByLayer
3

72
65
73
0
40
0
0
LTYPE
5
16
100
AcDbSymbolTableRecord
100
AcDbLinetypeTableRecord
70
0
2
Continuous
3
Solid line
72
65
73
0
40
0
0
LTYPE
5
6E
100
AcDbSymbolTableRecord
100
AcDbLinetypeTableRecord
70
0
2
CENTER
3
____ _ ____ _ ____ _ ____
72
65
73
4
40
47.5
49
22
74
0
49
-8.5
74
0
49
8.5
74
0
49
-8.5
74
0
0
LTYPE
5
6F
100
AcDbSymbolTableRecord
100
AcDbLinetypeTableRecord
70
0
2
DASHED
3
__ __ __ __ __ __ __ __ __
72
65
73
2
40
25.72
49
12.86
74
0
49
-12.86
74
0
0
ENDTAB
0
TABLE
2
LAYER
5
1d3
100
AcDbSymbolTable
0
LAYER
5
10
100
AcDbSymbolTableRecord
100
AcDbLayerTableRecord
2
0
70
0
62
7
6
Continuous
290
1
370
-3
390
0
0
LAYER
5
71
100
AcDbSymbolTableRecord
100
AcDbLayerTableRecord
2
81
70
0
62
-3
6
Continuous
290
1
370
-3
390
0
0
LAYER
5
73
100
AcDbSymbolTableRecord
100
AcDbLayerTableRecord
2
80
70
0
62
-6
6
Continuous
290
1
370
-3
390
0
0
LAYER
5
75
100
AcDbSymbolTableRecord
100
AcDbLayerTableRecord
2
1
70
0
62
4
6
Continuous
290
1
370
-3
390
0
0
LAYER
5
7C
100
AcDbSymbolTableRecord
100
AcDbLayerTableRecord
2
4
70
0
62
-2
6
CENTER
290
1
370
-3
390
0
0
LAYER
5
BC
100
AcDbSymbolTableRecord
100
AcDbLayerTableRecord
2
2
70
0
62
7
6
Continuous
290
1
370
-3
390
0
0
LAYER
5
148
100
AcDbSymbolTableRecord
100
AcDbLayerTableRecord
2
Defpoints
70
0
62
7
6
Continuous
290
0
370
-3
390
0
0
LAYER
5
1bd
100
AcDbSymbolTableRecord
100
AcDbLayerTableRecord
2
SK4
70
0
62
2
6
CENTER
290
1
370
-3
390
0
0
LAYER
5
1be
100
AcDbSymbolTableRecord
100
AcDbLayerTableRecord
2
SK1
70
0
62
4
6
Continuous
290
1
370
-3
390
0
0
LAYER
5
1bf
100
AcDbSymbolTableRecord
100
AcDbLayerTableRecord
2
SK2
70
0
62
7
6
Continuous
290
1
370
-3
390
0
0
LAYER
5
1c0
100
AcDbSymbolTableRecord
100
AcDbLayerTableRecord
2
SK6
70
0
62
5
6
Continuous
290
1
370
-3
390
0
0
ENDTAB
0
TABLE
2
STYLE
5
1d4
100
AcDbSymbolTable
0
STYLE
5
11
100
AcDbSymbolTableRecord
100
AcDbTextStyleTableRecord
2
Standard
3
txt
70
0
71
0
40
0
41
1
42
0
50
0
0
STYLE
5
124
100
AcDbSymbolTableRecord
100
AcDbTextStyleTableRecord
2
iso_b_vert
3
simplex.shx
70
0
71
0
40
0
41
1
42
0
50
0
0
STYLE
5
125
100
AcDbSymbolTableRecord
100
AcDbTextStyleTableRecord
2
DWGDirectTextStyle
3
simplex
70
0
71
0
40
0
41
1
42
0
50
0
0
ENDTAB
0
TABLE
2
DIMSTYLE
5
1d5
100
AcDbSymbolTable
100
AcDbDimStyleTable
0
DIMSTYLE
105
27
100
AcDbSymbolTableRecord
100
AcDbDimStyleTableRecord
2
Standard
70
0
3
<>
41
0.18
42
0.0625
44
0.18
140
0.18
147
0.09
73
0
74
0
77
1
271
2
275
0
278
52
280
0
340
11
0
ENDTAB
0
TABLE
2
VIEW
5
1d6
100
AcDbSymbolTable
0
ENDTAB
0
TABLE
2
UCS
5
1d7
100
AcDbSymbolTable
0
ENDTAB
0
TABLE
2
APPID
5
1d8
100
AcDbSymbolTable
0
APPID
5
12
100
AcDbSymbolTableRecord
100
AcDbRegAppTableRecord
2
ACAD
70
0
0
APPID
5
144
100
AcDbSymbolTableRecord
100
AcDbRegAppTableRecord
2
ACAD_DSTYLE_DIMBREAK
70
0
0
APPID
5
17C
100
AcDbSymbolTableRecord
100
AcDbRegAppTableRecord
2
ACAD_DSTYLE_DIM_LINETYPE
70
0
0
APPID
5
17D
100
AcDbSymbolTableRecord
100
AcDbRegAppTableRecord
2
ACAD_DSTYLE_DIM_EXT1_LINETYPE
70
0
0
APPID
5
17E
100
AcDbSymbolTableRecord
100
AcDbRegAppTableRecord
2
ACAD_DSTYLE_DIM_EXT2_LINETYPE
70
0
0
APPID
5
1B9
100
AcDbSymbolTableRecord
100
AcDbRegAppTableRecord
2
ACAD_MLEADERVER
70
0
0
ENDTAB
0
TABLE
2
BLOCK_RECORD
5
1d9
100
AcDbSymbolTable
0
BLOCK_RECORD
5
1F
100
AcDbSymbolTableRecord
100
AcDbBlockTableRecord
2
*Model_Space
340
0
70
0
0
BLOCK_RECORD
5
1B
100
AcDbSymbolTableRecord
100
AcDbBlockTableRecord
2
*Paper_Space
340
0
70
0
0
BLOCK_RECORD
5
23
100
AcDbSymbolTableRecord
100
AcDbBlockTableRecord
2
*Paper_Space0
340
0
70
0
0
BLOCK_RECORD
5
149
100
AcDbSymbolTableRecord
100
AcDbBlockTableRecord
2
*D1
340
0
70
0
0
BLOCK_RECORD
5
155
100
AcDbSymbolTableRecord
100
AcDbBlockTableRecord
2
_U0
340
0
70
0
0
ENDTAB
0
ENDSEC
0
SECTION
2
BLOCKS
0
BLOCK
5
20
100
AcDbEntity
8
0
100
AcDbBlockBegin
2
*Model_Space
70
0
10
0
20
0
30
0
3
*Model_Space
0
ENDBLK
5
21
100
AcDbEntity
8
0
100
AcDbBlockEnd
0
BLOCK
5
1C
100
AcDbEntity
8
0
100
AcDbBlockBegin
2
*Paper_Space
70
0
10
0
20
0
30
0
3
*Paper_Space
0
ENDBLK
5
1D
100
AcDbEntity
8
0
100
AcDbBlockEnd
0
BLOCK
5
24
100
AcDbEntity
8
0
100
AcDbBlockBegin
2
*Paper_Space0
70
0
10
0
20
0
30
0
3
*Paper_Space0
0
ENDBLK
5
25
100
AcDbEntity
8
0
100
AcDbBlockEnd
0
BLOCK
5
14A
100
AcDbEntity
8
0
100
AcDbBlockBegin
2
*D1
70
1
10
0
20
0
30
0
3
*D1
0
LINE
5
14C
100
AcDbEntity
8
0
62
256
6
ByLayer
370
-2
48
1
60
0
100
AcDbLine
10
42
20
-11.5876
30
0
11
42
21
-27.738094
31
0
39
0
210
0
220
0
230
1
0
LINE
5
14D
100
AcDbEntity
8
0
62
256
6
ByLayer
370
-2
48
1
60
0
100
AcDbLine
10
22
20
-11.5876
30
0
11
22
21
-27.738094
31
0
39
0
210
0
220
0
230
1
0
LINE
5
14E
100
AcDbEntity
8
0
62
256
6
ByLayer
370
-2
48
1
60
0
100
AcDbLine
10
38.5
20
-25.738094
30
0
11
25.5
21
-25.738094
31
0
39
0
210
0
220
0
230
1
0
SOLID
5
14F
100
AcDbEntity
8
0
62
256
6
ByLayer
370
-1
48
1
60
0
100
AcDbTrace
10
38.5
20
-26.321427
30
0
11
38.5
21
-25.154761
31
0
12
42
22
-25.738094
32
0
13
42
23
-25.738094
33
0
39
0
210
0
220
0
230
1
0
SOLID
5
150
100
AcDbEntity
8
0
62
256
6
ByLayer
370
-1
48
1
60
0
100
AcDbTrace
10
25.5
20
-25.154761
30
0
11
25.5
21
-26.321427
31
0
12
22
22
-25.738094
32
0
13
22
23
-25.738094
33
0
39
0
210
0
220
0
230
1
0
MTEXT
5
151
100
AcDbEntity
8
0
62
256
6
ByLayer
370
18
48
1
60
0
100
AcDbMText
10
32
20
-18.738094
30
0
210
0
220
0
230
1
1
\A1;20
40
3.5
41
0
44
1
50
0
71
5
72
5
7
iso_b_vert
0
POINT
5
152
100
AcDbEntity
8
Defpoints
62
0
6
ByLayer
370
-1
48
1
60
0
100
AcDbPoint
10
42
20
-10.0001
30
0
39
0
210
0
220
0
230
1
50
360
0
POINT
5
153
100
AcDbEntity
8
Defpoints
62
0
6
ByLayer
370
-1
48
1
60
0
100
AcDbPoint
10
22
20
-10.0001
30
0
39
0
210
0
220
0
230
1
50
360
0
POINT
5
154
100
AcDbEntity
8
Defpoints
62
0
6
ByLayer
370
-1
48
1
60
0
100
AcDbPoint
10
22
20
-25.738094
30
0
39
0
210
0
220
0
230
1
50
360
0
ENDBLK
5
14B
100
AcDbEntity
8
0
100
AcDbBlockEnd
0
BLOCK
5
15C
100
AcDbEntity
8
0
100
AcDbBlockBegin
2
_U0
70
0
10
0
20
0
30
0
3
_U0
0
MTEXT
5
156
100
AcDbEntity
8
2
62
256
6
ByLayer
370
18
48
1
60
0
100
AcDbMText
10
30.095034
20
-24.705461
30
0
210
0
220
0
230
1
1
\W0.6740;20
40
3.5
41
0
44
1.084337
50
0
71
7
72
5
7
iso_b_vert
0
LINE
5
157
100
AcDbEntity
8
2
62
256
6
ByLayer
370
13
48
1
60
0
100
AcDbLine
10
42
20
-11.5876
30
0
11
42
21
-27.738094
31
0
39
0
210
0
220
0
230
1
0
LINE
5
158
100
AcDbEntity
8
2
62
256
6
ByLayer
370
13
48
1
60
0
100
AcDbLine
10
22
20
-11.5876
30
0
11
22
21
-27.738094
31
0
39
0
210
0
220
0
230
1
0
LINE
5
159
100
AcDbEntity
8
2
62
256
6
ByLayer
370
13
48
1
60
0
100
AcDbLine
10
42
20
-25.738094
30
0
11
22
21
-25.738094
31
0
39
0
210
0
220
0
230
1
0
SOLID
5
15A
100
AcDbEntity
8
2
62
256
6
ByLayer
370
18
48
1
60
0
100
AcDbTrace
10
42
20
-25.738094
30
0
11
38.500002
21
-26.198878
31
0
12
38.499998
22
-25.27731
32
0
13
38.499998
23
-25.27731
33
0
39
0
210
0
220
0
230
1
0
SOLID
5
15B
100
AcDbEntity
8
2
62
256
6
ByLayer
370
18
48
1
60
0
100
AcDbTrace
10
22
20
-25.738094
30
0
11
25.499998
21
-25.27731
31
0
12
25.500002
22
-26.198878
32
0
13
25.500002
23
-26.198878
33
0
39
0
210
0
220
0
230
1
0
ENDBLK
5
15D
100
AcDbEntity
8
0
100
AcDbBlockEnd
0
ENDSEC
0
SECTION
2
ENTITIES
0
ELLIPSE
5
CE
100
AcDbEntity
8
1
62
256
6
ByLayer
370
18
48
1
60
0
100
AcDbEllipse
10
31.911342
20
0
30
0
11
19.7900001549225
21
-2.31465517656621
31
0
210
0
220
0
230
1
40
0.491583
41
-2.59773436221288
42
-2.1692360982995
0
ELLIPSE
5
CF
100
AcDbEntity
8
1
62
256
6
ByLayer
370
18
48
1
60
0
100
AcDbEllipse
10
5.163621
20
-1.2E-05
30
0
11
96.9555885875781
21
5.65165452696956
31
0
210
0
220
0
230
1
40
0.085088
41
1.39130343629369
42
1.40351312300066
0
ELLIPSE
5
D0
100
AcDbEntity
8
1
62
256
6
ByLayer
370
18
48
1
60
0
100
AcDbEllipse
10
39.170862
20
1.5E-05
30
0
11
98.8826902469318
21
-2.39783611491021
31
0
210
0
220
0
230
1
40
0.09818
41
-1.7532709176701
42
-1.7429486124574
0
POINT
5
70
100
AcDbEntity
8
81
62
256
6
ByLayer
370
18
48
1
60
0
100
AcDbPoint
10
42
20
0
30
0
39
0
210
0
220
0
230
1
50
360
0
POINT
5
72
100
AcDbEntity
8
80
62
256
6
ByLayer
370
18
48
1
60
0
100
AcDbPoint
10
0
20
0
30
0
39
0
210
0
220
0
230
1
50
360
0
POINT
5
74
100
AcDbEntity
8
1
62
256
6
ByLayer
370
18
48
1
60
1
100
AcDbPoint
10
42
20
-10.0001
30
0
39
0
210
0
220
0
230
1
50
360
0
POINT
5
76
100
AcDbEntity
8
1
62
256
6
ByLayer
370
18
48
1
60
1
100
AcDbPoint
10
22
20
-10.0001
30
0
39
0
210
0
220
0
230
1
50
360
0
SPLINE
5
D1
100
AcDbEntity
8
1
62
256
6
ByLayer
370
18
48
1
60
0
100
AcDbSpline
70
4
71
3
72
8
73
4
40
0
40
0
40
0
40
0
40
1
40
1
40
1
40
1
41
1
10
41.4094382567074
20
9.9894572462654
30
0
41
1
10
41.440718049098
20
9.98919802989434
30
0
41
1
10
41.4719989852437
20
9.98900824955825
30
0
41
1
10
41.5032806040982
20
9.98888803193327
30
0
0
SPLINE
5
D2
100
AcDbEntity
8
1
62
256
6
ByLayer
370
18
48
1
60
0
100
AcDbSpline
70
4
71
3
72
8
73
4
40
0
40
0
40
0
40
0
40
1
40
1
40
1
40
1
41
1
10
41.5032806040996
20
9.98888803193276
30
0
41
1
10
41.5752289644516
20
9.98252237878219
30
0
41
1
10
41.6472085777344
20
9.97653140636189
30
0
41
1
10
41.7192193262875
20
9.97091370404357
30
0
0
SPLINE
5
D3
100
AcDbEntity
8
1
62
256
6
ByLayer
370
18
48
1
60
0
100
AcDbSpline
70
4
71
3
72
27
73
23
40
0
40
0
40
0
40
0
40
0.0073784483940183
40
0.0735532185010825
40
0.0735532185010825
40
0.205902758715212
40
0.205902758715212
40
0.338252298929341
40
0.338252298929341
40
0.47060183914347
40
0.47060183914347
40
0.602951379357598
40
0.602951379357598
40
0.669126149464663
40
0.669126149464663
40
0.702213534518197
40
0.702213534518197
40
0.73530091957173
40
0.73530091957173
40
0.867650459785865
40
0.867650459785865
40
1
40
1
40
1
40
1
41
1
10
32.2476408428654
20
7.23495640388185
30
0
41
1
10
32.270275435869
20
7.24716326655135
30
0
41
1
10
32.4958572349198
20
7.36848413091747
30
0
41
1
10
32.7209061604616
20
7.48616069161341
30
0
41
1
10
33.3272978224177
20
7.79476286643569
30
0
41
1
10
33.7301893405166
20
7.98843654806839
30
0
41
1
10
34.5346567030539
20
8.35091192765586
30
0
41
1
10
34.9362328032425
20
8.51973372802561
30
0
41
1
10
35.739433221509
20
8.8318060012584
30
0
41
1
10
36.1410566074369
20
8.97505862304612
30
0
41
1
10
36.9456704098592
20
9.23501787889322
30
0
41
1
10
37.3486560661008
20
9.35169841775047
30
0
41
1
10
37.9551538413812
20
9.50602498420534
30
0
41
1
10
38.1576575510239
20
9.55401775040093
30
0
41
1
10
38.4620557492434
20
9.62071928796325
30
0
41
1
10
38.5636289031186
20
9.64207216384685
30
0
41
1
10
38.7670122617273
20
9.68299795270471
30
0
41
1
10
38.8688812464589
20
9.7025811181885
30
0
41
1
10
39.3778621770683
20
9.79581755146171
30
0
41
1
10
39.7842102866748
20
9.85552485184229
30
0
41
1
10
40.596660692986
20
9.94502738994919
30
0
41
1
10
41.0027621528133
20
9.97482571024676
30
0
41
1
10
41.4094382567074
20
9.9894572462654
30
0
0
SPLINE
5
D4
100
AcDbEntity
8
1
62
256
6
ByLayer
370
18
48
1
60
0
100
AcDbSpline
70
4
71
3
72
8
73
4
40
0
40
0
40
0
40
0
40
1
40
1
40
1
40
1
41
1
10
41.4094382567071
20
9.98945724626523
30
0
41
1
10
41.4799408695979
20
9.7589396187453
30
0
41
1
10
41.5554763468064
20
9.53012489534055
30
0
41
1
10
41.6371350076239
20
9.30338199293274
30
0
0
SPLINE
5
D5
100
AcDbEntity
8
1
62
256
6
ByLayer
370
18
48
1
60
0
100
AcDbSpline
70
4
71
3
72
10
73
6
40
0
40
0
40
0
40
0
40
0.615206995613089
40
0.615206995613089
40
1
40
1
40
1
40
1
41
1
10
20.1394821677422
20
9.99999994237675
30
0
41
1
10
20.2571763120785
20
9.92658715955417
30
0
41
1
10
20.3762230270426
20
9.8558366295992
30
0
41
1
10
20.5719806395617
20
9.74528225784888
30
0
41
1
10
20.6475625677454
20
9.70397392483147
30
0
41
1
10
20.7234004550231
20
9.66389872669018
30
0
0
SPLINE
5
D6
100
AcDbEntity
8
1
62
256
6
ByLayer
370
18
48
1
60
0
100
AcDbSpline
70
4
71
3
72
8
73
4
40
0
40
0
40
0
40
0
40
1
40
1
40
1
40
1
41
1
10
19.8234003516749
20
9.8891393087199
30
0
41
0.999921783922085
10
19.8744373347483
20
9.85680269865804
30
0
41
0.999921783922085
10
19.925631902469
20
9.82537631052911
30
0
41
1
10
19.9769720421223
20
9.79486751847952
30
0
0
SPLINE
5
D7
100
AcDbEntity
8
1
62
256
6
ByLayer
370
18
48
1
60
0
100
AcDbSpline
70
4
71
3
72
8
73
4
40
0
40
0
40
0
40
0
40
1
40
1
40
1
40
1
41
1
10
19.6041631195931
20
9.78026608261143
30
0
41
0.99999998375518
10
19.6048827744705
20
9.77983802318063
30
0
41
0.99999998375518
10
19.6056024575941
20
9.77941014982684
30
0
41
1
10
19.6063221689287
20
9.77898246257104
30
0
0
SPLINE
5
D8
100
AcDbEntity
8
1
62
256
6
ByLayer
370
18
48
1
60
0
100
AcDbSpline
70
4
71
3
72
51
73
47
40
0
40
0
40
0
40
0
40
0.0663526019006668
40
0.0663526019006668
40
0.132705203801334
40
0.132705203801334
40
0.149293354276499
40
0.149293354276499
40
0.165881504751665
40
0.199057805701997
40
0.232234106652328
40
0.232234106652328
40
0.248822257127494
40
0.248822257127494
40
0.26541040760266
40
0.331763009503326
40
0.331763009503326
40
0.348351159978492
40
0.348351159978492
40
0.364939310453659
40
0.364939310453659
40
0.398115611403991
40
0.398115611403991
40
0.464468213304651
40
0.464468213304651
40
0.481056363779816
40
0.481056363779816
40
0.497644514254981
40
0.497644514254981
40
0.530820815205316
40
0.530820815205316
40
0.597173417105993
40
0.597173417105993
40
0.663526019006669
40
0.663526019006669
40
0.696702319957007
40
0.696702319957007
40
0.729878620907346
40
0.729878620907346
40
0.796231222808022
40
0.796231222808022
40
0.862583824708699
40
0.862583824708699
40
0.928936426609375
40
0.928936426609375
40
1
40
1
40
1
40
1
41
1
10
41.6371350096146
20
9.30338199362922
30
0
41
1
10
41.682817931021
20
9.17653108716237
30
0
41
1
10
41.721019566594
20
9.04803861462037
30
0
41
1
10
41.7794751354592
20
8.78711553141849
30
0
41
1
10
41.79976563703
20
8.65469294460991
30
0
41
1
10
41.8108810109723
20
8.4860384267223
30
0
41
1
10
41.8123802166887
20
8.45215170545822
30
0
41
1
10
41.81383984228
20
8.38468701492795
30
0
41
1
10
41.813738459746
20
8.28371970356878
30
0
41
1
10
41.8017661108303
20
8.11662449876272
30
0
41
1
10
41.778706735923
20
7.9843002646945
30
0
41
1
10
41.7559559768445
20
7.88560424185462
30
0
41
1
10
41.747451609481
20
7.8527600597107
30
0
41
1
10
41.7285916046046
20
7.7874166436477
30
0
41
1
10
41.6771724915174
20
7.62614061969219
30
0
41
1
10
41.6047966192088
20
7.47508754236853
30
0
41
1
10
41.5166493942442
20
7.3317279110972
30
0
41
1
10
41.498230691222
20
7.30344099392886
30
0
41
1
10
41.4598372173944
20
7.24762622723878
30
0
41
1
10
41.4398041110186
20
7.220026113513
30
0
41
1
10
41.3780320878311
20
7.13914697385451
30
0
41
1
10
41.3345407431736
20
7.08762747642757
30
0
41
1
10
41.1979568163232
20
6.93941674839868
30
0
41
1
10
41.0987888253766
20
6.8490374553821
30
0
41
1
10
40.9667329801384
20
6.74447438491097
30
0
41
1
10
40.9399141806137
20
6.72398527123198
30
0
41
1
10
40.8855021597919
20
6.68381161556445
30
0
41
1
10
40.8578708462055
20
6.66410224303121
30
0
41
1
10
40.7743858423389
20
6.60646874250585
30
0
41
1
10
40.7178174928834
20
6.56993496979527
30
0
41
1
10
40.5457561964138
20
6.46521465945136
30
0
41
1
10
40.4279244832207
20
6.40187291550438
30
0
41
1
10
40.1874488037228
20
6.28515809130246
30
0
41
1
10
40.0647961540045
20
6.23180299888537
30
0
41
1
10
39.8779151675554
20
6.1577819269223
30
0
41
1
10
39.815134944603
20
6.13411615519834
30
0
41
1
10
39.6886929183878
20
6.08861082026968
30
0
41
1
10
39.624944654955
20
6.0667447193326
30
0
41
1
10
39.4334805268756
20
6.00395967160205
30
0
41
1
10
39.3053479646265
20
5.96575383517234
30
0
41
1
10
39.0482898358368
20
5.89525291979024
30
0
41
1
10
38.9193634074264
20
5.86296426489304
30
0
41
1
10
38.6608466371639
20
5.8033355176477
30
0
41
1
10
38.5312558119798
20
5.77599902787631
30
0
41
1
10
38.2622828658559
20
5.72378633135108
30
0
41
1
10
38.1228611031062
20
5.69920559982555
30
0
41
1
10
37.9831518385044
20
5.67676779960425
30
0
0
SPLINE
5
D9
100
AcDbEntity
8
1
62
256
6
ByLayer
370
13
48
1
60
0
100
AcDbSpline
70
4
71
3
72
11
73
7
40
0
40
0
40
0
40
0
40
0.247854371251472
40
0.537792033328182
40
0.827729695404892
40
1
40
1
40
1
40
1
41
1
10
41.6371350092654
20
9.30338199367642
30
0
41
1
10
40.9247566728436
20
9.28173388250448
30
0
41
1
10
39.3790450030884
20
9.14025928782757
30
0
41
1
10
37.0000000000001
20
8.61806223714322
30
0
41
1
10
34.8381972887976
20
7.85723195453679
30
0
41
1
10
33.5097279109287
20
7.26632188601645
30
0
41
1
10
33.0145918663929
20
7.03030633271129
30
0
0
SPLINE
5
DA
100
AcDbEntity
8
1
62
256
6
ByLayer
370
18
48
1
60
0
100
AcDbSpline
70
4
71
3
72
15
73
11
40
0
40
0
40
0
40
0
40
0.250000000000015
40
0.250000000000015
40
0.500000000000031
40
0.500000000000031
40
0.625000000000038
40
0.625000000000038
40
0.750000000000046
40
1
40
1
40
1
40
1
41
1
10
36.3522001825334
20
-3.07869692962342
30
0
41
1
10
36.3849223936743
20
-3.04480828433617
30
0
41
1
10
36.4184577093444
20
-3.01170427698392
30
0
41
1
10
36.4876746028787
20
-2.94760277112456
30
0
41
1
10
36.5231986555068
20
-2.91675713001121
30
0
41
1
10
36.5780189350667
20
-2.87282940342246
30
0
41
1
10
36.5965645032024
20
-2.85856577465205
30
0
41
1
10
36.633996218592
20
-2.83104031905594
30
0
41
1
10
36.6907434911722
20
-2.79118233105223
30
0
41
1
10
36.7494898517934
20
-2.75579335637903
30
0
41
1
10
36.7897331293074
20
-2.73436250841581
30
0
0
SPLINE
5
DB
100
AcDbEntity
8
1
62
256
6
ByLayer
370
18
48
1
60
0
100
AcDbSpline
70
4
71
3
72
20
73
16
40
0
40
0
40
0
40
0
40
0.249999999999979
40
0.249999999999979
40
0.374999999999983
40
0.374999999999983
40
0.499999999999986
40
0.499999999999986
40
0.62499999999999
40
0.62499999999999
40
0.749999999999993
40
0.749999999999993
40
0.874999999999997
40
0.874999999999997
40
1
40
1
40
1
40
1
41
1
10
40.9637774241458
20
-7.52346312885095
30
0
41
1
10
40.9800553100378
20
-7.50092176054778
30
0
41
1
10
40.9958560648034
20
-7.4813906414723
30
0
41
1
10
41.0187620040202
20
-7.45711090072373
30
0
41
1
10
41.0262236553404
20
-7.44990743067925
30
0
41
1
10
41.0406617261002
20
-7.43748928955833
30
0
41
1
10
41.0476565402461
20
-7.43225425349954
30
0
41
1
10
41.0611605422684
20
-7.42389377971278
30
0
41
1
10
41.0676700954922
20
-7.42076675488798
30
0
41
1
10
41.080140791785
20
-7.41689504165663
30
0
41
1
10
41.0861172363042
20
-7.41614894613741
30
0
41
1
10
41.0973553664792
20
-7.41748626333847
30
0
41
1
10
41.1025326934929
20
-7.41955482973128
30
0
41
1
10
41.1119001636971
20
-7.42682043707813
30
0
41
1
10
41.1160917873676
20
-7.43201278629041
30
0
41
1
10
41.1196988976462
20
-7.43905751112044
30
0
0
SPLINE
5
DC
100
AcDbEntity
8
1
62
256
6
ByLayer
370
18
48
1
60
0
100
AcDbSpline
70
4
71
3
72
27
73
23
40
0
40
0
40
0
40
0
40
0.125000000000001
40
0.125000000000001
40
0.250000000000003
40
0.250000000000003
40
0.375000000000004
40
0.375000000000004
40
0.437500000000005
40
0.437500000000005
40
0.500000000000006
40
0.500000000000006
40
0.625000000000004
40
0.625000000000004
40
0.750000000000003
40
0.750000000000003
40
0.812500000000003
40
0.843750000000001
40
0.843750000000001
40
0.874999999999999
40
0.874999999999999
40
1
40
1
40
1
40
1
41
1
10
39.7130827019437
20
-8.31120244432057
30
0
41
1
10
39.749440717994
20
-8.3405822980788
30
0
41
1
10
39.7882828079997
20
-8.36103217105628
30
0
41
1
10
39.8705861366806
20
-8.3853265704881
30
0
41
1
10
39.9140487010845
20
-8.38916633108721
30
0
41
1
10
40.0053953868341
20
-8.38095082693181
30
0
41
1
10
40.0532801323819
20
-8.36889331823755
30
0
41
1
10
40.128364256627
20
-8.33909846647765
30
0
41
1
10
40.1539845429078
20
-8.32718189766862
30
0
41
1
10
40.2058994417773
20
-8.29967637406065
30
0
41
1
10
40.2322273482114
20
-8.2840806076656
30
0
41
1
10
40.3122875393643
20
-8.23193791617868
30
0
41
1
10
40.3670940329626
20
-8.19004685695037
30
0
41
1
10
40.4794480369905
20
-8.09262832019689
30
0
41
1
10
40.5369959195183
20
-8.03709899150294
30
0
41
1
10
40.6253316986372
20
-7.94378567389685
30
0
41
1
10
40.670003825194
20
-7.89462046186756
30
0
41
1
10
40.7154309161791
20
-7.84169934048902
30
0
41
1
10
40.7458837007801
20
-7.80558251655836
30
0
41
1
10
40.7612034134841
20
-7.7870946249632
30
0
41
1
10
40.8380894744072
20
-7.69272521271199
30
0
41
1
10
40.9004941022622
20
-7.6111003716191
30
0
41
1
10
40.9637774232796
20
-7.52346312881775
30
0
0
SPLINE
5
DD
100
AcDbEntity
8
1
62
256
6
ByLayer
370
13
48
1
60
0
100
AcDbSpline
70
4
71
3
72
11
73
7
40
0
40
0
40
0
40
0
40
0.141389314864041
40
0.356041986148031
40
0.57069465743202
40
1
40
1
40
1
40
1
41
1
10
33.6467220512361
20
-8.79412333626098
30
0
41
1
10
33.0978147008241
20
-8.80198480177361
30
0
41
1
10
31.7155740170787
20
-8.77082866811108
30
0
41
1
10
29.4999999999999
20
-8.51637652196066
30
0
41
1
10
26.1666666666666
20
-7.77299790399124
30
0
41
1
10
23.6666666666667
20
-6.83303051360392
30
0
41
1
10
22
20
-6.07778459492914
30
0
0
SPLINE
5
DE
100
AcDbEntity
8
1
62
256
6
ByLayer
370
18
48
1
60
0
100
AcDbSpline
70
4
71
3
72
8
73
4
40
0
40
0
40
0
40
0
40
1
40
1
40
1
40
1
41
1
10
41.6611663101065
20
-6.966642951848
30
0
41
1
10
41.5180125481043
20
-7.20235635864668
30
0
41
1
10
41.3755330759765
20
-7.43021342074755
30
0
41
1
10
41.2337213106143
20
-7.65029083984174
30
0
0
SPLINE
5
DF
100
AcDbEntity
8
1
62
256
6
ByLayer
370
18
48
1
60
0
100
AcDbSpline
70
4
71
3
72
8
73
4
40
0
40
0
40
0
40
0
40
1
40
1
40
1
40
1
41
1
10
41.1196988978545
20
-7.43905751086052
30
0
41
1
10
41.1568844821963
20
-7.51179495436745
30
0
41
1
10
41.194874964787
20
-7.58225414889668
30
0
41
1
10
41.2337213106146
20
-7.65029083983862
30
0
0
SPLINE
5
E0
100
AcDbEntity
8
1
62
256
6
ByLayer
370
13
48
1
60
0
100
AcDbSpline
70
4
71
3
72
8
73
4
40
0
40
0
40
0
40
0
40
1
40
1
40
1
40
1
41
1
10
41.1196988979123
20
-7.43905751092157
30
0
41
1
10
41.0804635490193
20
-7.45329210434704
30
0
41
1
10
41.0412282001262
20
-7.46743741267588
30
0
41
1
10
41.0019928512331
20
-7.48149311174944
30
0
0
SPLINE
5
E1
100
AcDbEntity
8
1
62
256
6
ByLayer
370
13
48
1
60
0
100
AcDbSpline
70
4
71
3
72
12
73
8
40
0
40
0
40
0
40
0
40
0.125821838872067
40
0.300657471097653
40
0.47549310332324
40
0.650328735548827
40
1
40
1
40
1
40
1
41
1
10
36.2991446776383
20
-8.71644797077118
30
0
41
1
10
35.6994297850922
20
-8.81397690746999
30
0
41
1
10
34.2663815592128
20
-8.99004753517252
30
0
41
1
10
32.0000000000001
20
-9.04541580684068
30
0
41
1
10
29.5000000000001
20
-8.82059739323159
30
0
41
1
10
26.1666666666667
20
-8.14755353706619
30
0
41
1
10
23.6666666666668
20
-7.24325057235652
30
0
41
1
10
22.0000000000001
20
-6.50260350381169
30
0
0
SPLINE
5
E2
100
AcDbEntity
8
1
62
256
6
ByLayer
370
18
48
1
60
0
100
AcDbSpline
70
4
71
3
72
8
73
4
40
0
40
0
40
0
40
0
40
1
40
1
40
1
40
1
41
1
10
41.2337213106061
20
-7.65029083984388
30
0
41
1
10
41.0546749977073
20
-7.72419651062353
30
0
41
1
10
40.8756644137472
20
-7.79618543684367
30
0
41
1
10
40.6966657915346
20
-7.86623140294097
30
0
0
SPLINE
5
E3
100
AcDbEntity
8
1
62
256
6
ByLayer
370
18
48
1
60
0
100
AcDbSpline
70
4
71
3
72
55
73
51
40
0
40
0
40
0
40
0
40
0.0026536503258513
40
0.0026536503258513
40
0.0382731628142162
40
0.0382731628142162
40
0.0560829190583986
40
0.0560829190583986
40
0.0738926753025811
40
0.0738926753025811
40
0.109512187790944
40
0.109512187790944
40
0.145131700279307
40
0.145131700279307
40
0.216370725256034
40
0.216370725256034
40
0.28760975023276
40
0.28760975023276
40
0.358848775209486
40
0.358848775209486
40
0.39446828769785
40
0.39446828769785
40
0.430087800186214
40
0.430087800186214
40
0.50132682516294
40
0.50132682516294
40
0.519136581407121
40
0.519136581407121
40
0.536946337651303
40
0.572565850139665
40
0.572565850139665
40
0.608185362628027
40
0.608185362628027
40
0.643804875116389
40
0.643804875116389
40
0.715043900093115
40
0.715043900093115
40
0.750663412581479
40
0.750663412581479
40
0.768473168825659
40
0.768473168825659
40
0.78628292506984
40
0.78628292506984
40
0.85752195004656
40
0.85752195004656
40
0.928760975023279
40
0.928760975023279
40
0.96438048751164
40
0.96438048751164
40
1
40
1
40
1
40
1
41
1
10
38.8685528864028
20
-8.51269671099649
30
0
41
1
10
38.8535757203907
20
-8.51741492250588
30
0
41
1
10
38.8385979617938
20
-8.52211878527808
30
0
41
1
10
38.6225673950044
20
-8.58975458321041
30
0
41
1
10
38.4214029422232
20
-8.65011331683431
30
0
41
1
10
38.1194114213972
20
-8.73668287430348
30
0
41
1
10
38.0186970936982
20
-8.76487935674484
30
0
41
1
10
37.8175700346732
20
-8.81980968404642
30
0
41
1
10
37.7171093505239
20
-8.84655752964809
30
0
41
1
10
37.4160287415968
20
-8.92461091601078
30
0
41
1
10
37.2156898133251
20
-8.97376312033816
30
0
41
1
10
36.8154974036235
20
-9.06663796801871
30
0
41
1
10
36.615669523758
20
-9.1103095258803
30
0
41
1
10
36.0168304772013
20
-9.23297265966065
30
0
41
1
10
35.6184673816477
20
-9.30361278651549
30
0
41
1
10
34.8225842365731
20
-9.42219083634697
30
0
41
1
10
34.425051255602
20
-9.47015766075751
30
0
41
1
10
33.6299221367546
20
-9.54280023559124
30
0
41
1
10
33.2323420823141
20
-9.56741596074326
30
0
41
1
10
32.6351104170907
20
-9.58685490700526
30
0
41
1
10
32.4359082756432
20
-9.59034179705338
30
0
41
1
10
32.0370740920509
20
-9.59151343210888
30
0
41
1
10
31.8374267180856
20
-9.58925845656896
30
0
41
1
10
31.2376322265557
20
-9.574084470169
30
0
41
1
10
30.8366723731887
20
-9.55265842027168
30
0
41
1
10
30.3337323334522
20
-9.51101127441279
30
0
41
1
10
30.2330074534222
20
-9.50193519409623
30
0
41
1
10
30.0316542540238
20
-9.48231432758948
30
0
41
1
10
29.7297827373827
20
-9.45068379348487
30
0
41
1
10
29.4283393451393
20
-9.41244877862209
30
0
41
1
10
29.0267012679015
20
-9.35557075844378
30
0
41
1
10
28.8260308568373
20
-9.32416127981656
30
0
41
1
10
28.4248406920644
20
-9.25550669366888
30
0
41
1
10
28.2243061059926
20
-9.21831282941957
30
0
41
1
10
27.6226200634023
20
-9.09852144274126
30
0
41
1
10
27.2214334485327
20
-9.00757145371912
30
0
41
1
10
26.6189603615693
20
-8.85407581019854
30
0
41
1
10
26.4180159253045
20
-8.80007954381392
30
0
41
1
10
26.1163101752929
20
-8.71492406077937
30
0
41
1
10
26.0157390787139
20
-8.68586141683065
30
0
41
1
10
25.8147246888343
20
-8.62646666237268
30
0
41
1
10
25.7142568823703
20
-8.59612982310372
30
0
41
1
10
25.2120670519322
20
-8.4413127709922
30
0
41
1
10
24.8108080787803
20
-8.30740028667179
30
0
41
1
10
24.0084774022433
20
-8.01959026523383
30
0
41
1
10
23.6074142161648
20
-7.86566989547495
30
0
41
1
10
23.005360071605
20
-7.61954008128686
30
0
41
1
10
22.8045666607662
20
-7.53507991406778
30
0
41
1
10
22.4025958182785
20
-7.36160514727507
30
0
41
1
10
22.2014451754847
20
-7.27246151724077
30
0
41
1
10
22.0000000000001
20
-7.18130619010583
30
0
0
SPLINE
5
E4
100
AcDbEntity
8
1
62
256
6
ByLayer
370
18
48
1
60
0
100
AcDbSpline
70
4
71
3
72
16
73
12
40
0
40
0
40
0
40
0
40
0.249999999999997
40
0.499999999999995
40
0.749999999999992
40
0.749999999999992
40
0.812499999999993
40
0.812499999999993
40
0.874999999999994
40
0.874999999999994
40
1
40
1
40
1
40
1
41
1
10
39.5299566442364
20
-7.38566732424647
30
0
41
1
10
39.5349722703025
20
-7.48691669308909
30
0
41
1
10
39.5502804950051
20
-7.67703610434114
30
0
41
1
10
39.5886034998657
20
-7.92618040798735
30
0
41
1
10
39.6242532347806
20
-8.06858037561923
30
0
41
1
10
39.6496985982075
20
-8.15015722717646
30
0
41
1
10
39.6549460846302
20
-8.16610097240533
30
0
41
1
10
39.6657588819251
20
-8.19724287388121
30
0
41
1
10
39.6713270572424
20
-8.212447634341
30
0
41
1
10
39.6884664676808
20
-8.2568302208378
30
0
41
1
10
39.7004830491553
20
-8.28481052117991
30
0
41
1
10
39.7130827019426
20
-8.31120244432086
30
0
0
SPLINE
5
E5
100
AcDbEntity
8
1
62
256
6
ByLayer
370
18
48
1
60
0
100
AcDbSpline
70
4
71
3
72
30
73
26
40
0
40
0
40
0
40
0
40
0.031249999999994
40
0.031249999999994
40
0.0468749999999928
40
0.0468749999999928
40
0.0624999999999917
40
0.124999999999991
40
0.124999999999991
40
0.249999999999991
40
0.249999999999991
40
0.374999999999991
40
0.374999999999991
40
0.49999999999999
40
0.49999999999999
40
0.531249999999989
40
0.531249999999989
40
0.562499999999988
40
0.624999999999989
40
0.624999999999989
40
0.749999999999993
40
0.749999999999993
40
0.874999999999996
40
0.874999999999996
40
1
40
1
40
1
40
1
41
1
10
36.0734261366699
20
-4.29420521462137
30
0
41
1
10
36.1039087247988
20
-4.34124370028727
30
0
41
1
10
36.1347796452264
20
-4.38790452617494
30
0
41
1
10
36.1816596942917
20
-4.45733786268798
30
0
41
1
10
36.1973898064111
20
-4.4804003354453
30
0
41
1
10
36.2289460454123
20
-4.52620545086609
30
0
41
1
10
36.3081278710692
20
-4.63999455187124
30
0
41
1
10
36.3887338416268
20
-4.75024472329301
30
0
41
1
10
36.5847287307257
20
-5.00853196945755
30
0
41
1
10
36.7187701633805
20
-5.17232887357957
30
0
41
1
10
36.9928574239222
20
-5.4850020568891
30
0
41
1
10
37.1329070681466
20
-5.63386885266675
30
0
41
1
10
37.4185230590986
20
-5.91789371157753
30
0
41
1
10
37.5640911141641
20
-6.05304752957562
30
0
41
1
10
37.7493043039628
20
-6.21390595749983
30
0
41
1
10
37.7865171310418
20
-6.2456772703666
30
0
41
1
10
37.8609717771068
20
-6.30817701284818
30
0
41
1
10
37.9728066830926
20
-6.40045808420436
30
0
41
1
10
38.0850879404684
20
-6.48845316587335
30
0
41
1
10
38.3102176443532
20
-6.65899702203626
30
0
41
1
10
38.4610590597071
20
-6.76544372459202
30
0
41
1
10
38.7641401311695
20
-6.96491083466029
30
0
41
1
10
38.9163801572471
20
-7.05792768962678
30
0
41
1
10
39.2221853662262
20
-7.23123687665696
30
0
41
1
10
39.3757507642544
20
-7.31152714301547
30
0
41
1
10
39.5299566442353
20
-7.38566732424661
30
0
0
SPLINE
5
E6
100
AcDbEntity
8
1
62
256
6
ByLayer
370
18
48
1
60
0
100
AcDbSpline
70
4
71
3
72
32
73
28
40
0
40
0
40
0
40
0
40
0.125000000000016
40
0.125000000000016
40
0.187500000000024
40
0.187500000000024
40
0.218750000000026
40
0.218750000000026
40
0.250000000000028
40
0.250000000000028
40
0.375000000000035
40
0.375000000000035
40
0.406250000000036
40
0.406250000000036
40
0.437500000000036
40
0.500000000000031
40
0.562500000000026
40
0.562500000000026
40
0.593750000000024
40
0.593750000000024
40
0.625000000000022
40
0.625000000000022
40
0.750000000000015
40
0.750000000000015
40
0.875000000000007
40
0.875000000000007
40
1
40
1
40
1
40
1
41
1
10
36.0734261366699
20
-4.29420521462134
30
0
41
1
10
36.0440155959417
20
-4.24882103357297
30
0
41
1
10
36.0198121681694
20
-4.20082688888678
30
0
41
1
10
35.9918748115754
20
-4.1245912115476
30
0
41
1
10
35.9839621887665
20
-4.0984693752288
30
0
41
1
10
35.9743185473099
20
-4.05815302093836
30
0
41
1
10
35.9714881503556
20
-4.04456677650538
30
0
41
1
10
35.9666413990397
20
-4.01737331742439
30
0
41
1
10
35.9646152614733
20
-4.00372666826141
30
0
41
1
10
35.9564261980618
20
-3.9352484921221
30
0
41
1
10
35.9560599289792
20
-3.87968497804277
30
0
41
1
10
35.9629228729764
20
-3.80929889338719
30
0
41
1
10
35.9646679168974
20
-3.79515652045956
30
0
41
1
10
35.9688359782593
20
-3.76708764123069
30
0
41
1
10
35.9761135890213
20
-3.72519647928337
30
0
41
1
10
35.9931063238876
20
-3.6563841790005
30
0
41
1
10
36.0114556248612
20
-3.60231957162489
30
0
41
1
10
36.0268791907758
20
-3.56211623195753
30
0
41
1
10
36.0323024883371
20
-3.54876464837878
30
0
41
1
10
36.0435895467901
20
-3.52238964227087
30
0
41
1
10
36.049463526489
20
-3.50933813241372
30
0
41
1
10
36.0799167889728
20
-3.44471997523209
30
0
41
1
10
36.1077179980418
20
-3.39505487774494
30
0
41
1
10
36.16895950226
20
-3.29905500220391
30
0
41
1
10
36.2024097548035
20
-3.2527260985766
30
0
41
1
10
36.2742540088973
20
-3.16299053064367
30
0
41
1
10
36.3123265941271
20
-3.11999178085
30
0
41
1
10
36.3522001825322
20
-3.07869692962313
30
0
0
SPLINE
5
E7
100
AcDbEntity
8
1
62
256
6
ByLayer
370
13
48
1
60
0
100
AcDbSpline
70
4
71
3
72
12
73
8
40
0
40
0
40
0
40
0
40
0.129053396620505
40
0.303242717296404
40
0.477432037972303
40
0.651621358648202
40
1
40
1
40
1
40
1
41
1
10
36.3522001825334
20
-3.07869692962365
30
0
41
1
10
35.7348001216889
20
-2.8241504855414
30
0
41
1
10
34.2840667275111
20
-2.19584715648065
30
0
41
1
10
32
20
-1.12717674719804
30
0
41
1
10
29.5
20
0.0934713269021472
30
0
41
1
10
26.1666666666666
20
1.70511514262947
30
0
41
1
10
23.6666666666668
20
2.81900880283612
30
0
41
1
10
22.0000000000001
20
3.44776400477653
30
0
0
SPLINE
5
E8
100
AcDbEntity
8
1
62
256
6
ByLayer
370
18
48
1
60
0
100
AcDbSpline
70
4
71
3
72
13
73
9
40
0
40
0
40
0
40
0
40
0.153168296427939
40
0.294306913689949
40
0.43544553095196
40
0.57658414821397
40
0.71772276547598
40
1
40
1
40
1
40
1
41
1
10
39.713082701944
20
-8.3112024443208
30
0
41
1
10
38.808721801296
20
-8.34169367012606
30
0
41
1
10
37.0710275673146
20
-8.30003626198695
30
0
41
1
10
34.4999999999999
20
-7.9583446886418
30
0
41
1
10
32
20
-7.37559149277726
30
0
41
1
10
29.5
20
-6.55616148579804
30
0
41
1
10
26.1666666666666
20
-5.18598079699936
30
0
41
1
10
23.6666666666667
20
-3.89737139888064
30
0
41
1
10
22
20
-2.9706771163562
30
0
0
SPLINE
5
E9
100
AcDbEntity
8
1
62
256
6
ByLayer
370
18
48
1
60
0
100
AcDbSpline
70
4
71
3
72
19
73
15
40
0
40
0
40
0
40
0
40
0.150923464808649
40
0.150923464808649
40
0.257058031707561
40
0.310125315157022
40
0.310125315157022
40
0.363192598606482
40
0.363192598606482
40
0.575461732404321
40
0.575461732404321
40
0.78773086620216
40
0.78773086620216
40
1
40
1
40
1
40
1
41
1
10
37.4216856627813
20
5.8889821114567
30
0
41
1
10
37.5204247877905
20
5.86189861203994
30
0
41
1
10
37.6203007517309
20
5.83070954929204
30
0
41
1
10
37.792254654944
20
5.77093607210932
30
0
41
1
10
37.8995533978304
20
5.73101416315129
30
0
41
1
10
38.0080279019657
20
5.6868461273788
30
0
41
1
10
38.0806030076507
20
5.6564662535028
30
0
41
1
10
38.1170498861172
20
5.64079586902415
30
0
41
1
10
38.2995581788908
20
5.56029187484944
30
0
41
1
10
38.4459341451286
20
5.48925556995263
30
0
41
1
10
38.7393627065935
20
5.33503087481856
30
0
41
1
10
38.886415522388
20
5.25183852324241
30
0
41
1
10
39.1811569055034
20
5.07403588363599
30
0
41
1
10
39.3288455999758
20
4.97942331199638
30
0
41
1
10
39.4768394366466
20
4.87933046372311
30
0
0
SPLINE
5
EA
100
AcDbEntity
8
1
62
256
6
ByLayer
370
18
48
1
60
0
100
AcDbSpline
70
4
71
3
72
13
73
9
40
0
40
0
40
0
40
0
40
0.0248306901450921
40
0.232395887362292
40
0.439961084579493
40
0.647526281796693
40
0.855091479013894
40
1
40
1
40
1
40
1
41
1
10
39.7990709723739
20
2.83232936834219
30
0
41
1
10
39.6993806482493
20
2.90040250852138
30
0
41
1
10
38.7663569907913
20
3.53460619987283
30
0
41
1
10
37.0000000000001
20
4.67971188773342
30
0
41
1
10
34.5
20
6.08851647168774
30
0
41
1
10
32
20
7.22103079431798
30
0
41
1
10
29.7515541986772
20
7.94388757691601
30
0
41
1
10
28.3364417306877
20
8.22427668005028
30
0
41
1
10
27.7546625960316
20
8.3087400675141
30
0
0
SPLINE
5
EB
100
AcDbEntity
8
1
62
256
6
ByLayer
370
13
48
1
60
0
100
AcDbSpline
70
4
71
3
72
12
73
8
40
0
40
0
40
0
40
0
40
0.136444205488062
40
0.380018138795563
40
0.623592072103064
40
0.867166005410564
40
1
40
1
40
1
40
1
41
1
10
40.900439320777
20
-0.62548497850284
30
0
41
1
10
40.4336262138514
20
-0.275569514176027
30
0
41
1
10
39.1334797735923
20
0.703549807144952
30
0
41
1
10
37.0000000000001
20
2.29509606031635
30
0
41
1
10
34.5
20
4.05734067861016
30
0
41
1
10
32.3788717495831
20
5.39632437833012
30
0
41
1
10
31.0910768324996
20
6.10698831399432
30
0
41
1
10
30.6366152487493
20
6.34348032079305
30
0
0
SPLINE
5
EC
100
AcDbEntity
8
1
62
256
6
ByLayer
370
18
48
1
60
0
100
AcDbSpline
70
4
71
3
72
10
73
6
40
0
40
0
40
0
40
0
40
0.24705891171883
40
0.24705891171883
40
1
40
1
40
1
40
1
41
1
10
38.7215926642352
20
-2.74421844551301
30
0
41
1
10
38.6358629228362
20
-2.7295223185001
30
0
41
1
10
38.5499915229558
20
-2.71534275628079
30
0
41
1
10
38.2018981184566
20
-2.65984119484406
30
0
41
1
10
37.9386224407754
20
-2.62236146756717
30
0
41
1
10
37.6743994503872
20
-2.58833616383268
30
0
0
SPLINE
5
ED
100
AcDbEntity
8
1
62
256
6
ByLayer
370
13
48
1
60
0
100
AcDbSpline
70
4
71
3
72
12
73
8
40
0
40
0
40
0
40
0
40
0.33807236116329
40
0.507108541744935
40
0.67614472232658
40
0.845180902908225
40
1
40
1
40
1
40
1
41
1
10
22.0000000000001
20
3.72007159620003
30
0
41
1
10
23.6666666666668
20
3.14505292593029
30
0
41
1
10
26.1666666666667
20
2.10561594260136
30
0
41
1
10
29.5
20
0.566556528344506
30
0
41
1
10
32
20
-0.615646431263599
30
0
41
1
10
34.4299110431025
20
-1.73530891289968
30
0
41
1
10
36.0264887528718
20
-2.42321778478509
30
0
41
1
10
36.7897331293077
20
-2.73436250841596
30
0
0
SPLINE
5
EE
100
AcDbEntity
8
1
62
256
6
ByLayer
370
18
48
1
60
0
100
AcDbSpline
70
4
71
3
72
17
73
13
40
0
40
0
40
0
40
0
40
0.249999999999926
40
0.249999999999926
40
0.499999999999851
40
0.499999999999851
40
0.562499999999853
40
0.562499999999853
40
0.624999999999856
40
0.749999999999904
40
0.749999999999904
40
1
40
1
40
1
40
1
41
1
10
36.7897331293077
20
-2.73436250841598
30
0
41
1
10
36.8564466307649
20
-2.69883545621354
30
0
41
1
10
36.9251951141311
20
-2.66946089310395
30
0
41
1
10
37.0669530825359
20
-2.62231295074679
30
0
41
1
10
37.1399619954928
20
-2.6045429774228
30
0
41
1
10
37.2341752535679
20
-2.58951781705238
30
0
41
1
10
37.2531589380045
20
-2.58687684895131
30
0
41
1
10
37.2910893256008
20
-2.58235141501581
30
0
41
1
10
37.3480553058789
20
-2.57667717744158
30
0
41
1
10
37.4052466035487
20
-2.57423776329878
30
0
41
1
10
37.5199686305177
20
-2.5734482966098
30
0
41
1
10
37.5969014537584
20
-2.57835636279327
30
0
41
1
10
37.6743994503872
20
-2.58833616383268
30
0
0
SPLINE
5
EF
100
AcDbEntity
8
1
62
256
6
ByLayer
370
18
48
1
60
0
100
AcDbSpline
70
4
71
3
72
18
73
14
40
0
40
0
40
0
40
0
40
0.25
40
0.25
40
0.5
40
0.5
40
0.562499999999999
40
0.562499999999999
40
0.624999999999999
40
0.624999999999999
40
0.749999999999999
40
0.749999999999999
40
1
40
1
40
1
40
1
41
1
10
39.4768394366466
20
4.87933046372314
30
0
41
1
10
39.475698794936
20
4.76943968817582
30
0
41
1
10
39.4818527541785
20
4.64329401682963
30
0
41
1
10
39.5082676683932
20
4.35956740480617
30
0
41
1
10
39.5285295163953
20
4.20198447414927
30
0
41
1
10
39.5627657004679
20
3.98515375577745
30
0
41
1
10
39.5700599113723
20
3.94079159911973
30
0
41
1
10
39.5855508309448
20
3.85005620840621
30
0
41
1
10
39.5937190379402
20
3.80385214050159
30
0
41
1
10
39.6194208562931
20
3.66305718724854
30
0
41
1
10
39.6381710797146
20
3.56616465542425
30
0
41
1
10
39.6991334717396
20
3.26665306667729
30
0
41
1
10
39.7460405784549
20
3.05523148409583
30
0
41
1
10
39.7990709723716
20
2.83232936834381
30
0
0
SPLINE
5
F0
100
AcDbEntity
8
1
62
256
6
ByLayer
370
18
48
1
60
0
100
AcDbSpline
70
4
71
3
72
24
73
20
40
0
40
0
40
0
40
0
40
0.124999999999996
40
0.124999999999996
40
0.249999999999992
40
0.249999999999992
40
0.312499999999991
40
0.312499999999991
40
0.374999999999989
40
0.374999999999989
40
0.499999999999988
40
0.499999999999988
40
0.56249999999999
40
0.56249999999999
40
0.624999999999991
40
0.624999999999991
40
0.749999999999994
40
0.749999999999994
40
1
40
1
40
1
40
1
41
1
10
39.7990709723734
20
2.83232936834133
30
0
41
1
10
39.834756440028
20
2.69879000715008
30
0
41
1
10
39.8720478802193
20
2.56314669511343
30
0
41
1
10
39.9496891187441
20
2.28785338036542
30
0
41
1
10
39.9900393181055
20
2.14820285227393
30
0
41
1
10
40.0527916243244
20
1.93580950487271
30
0
41
1
10
40.0740942363811
20
1.86448122865497
30
0
41
1
10
40.1172709201866
20
1.72140314166151
30
0
41
1
10
40.1391623740006
20
1.64959355778342
30
0
41
1
10
40.2057270589263
20
1.43337015425425
30
0
41
1
10
40.2512893104916
20
1.28816284571806
30
0
41
1
10
40.3213607247769
20
1.06880953583163
30
0
41
1
10
40.3450177828894
20
0.99539881490179
30
0
41
1
10
40.3928543057125
20
0.848219448193476
30
0
41
1
10
40.4169797898975
20
0.774616213971456
30
0
41
1
10
40.4899635272436
20
0.553766799280396
30
0
41
1
10
40.5394281994303
20
0.406480963401151
30
0
41
1
10
40.6901677410184
20
-0.0355299245779861
30
0
41
1
10
40.7937764896511
20
-0.330407595468557
30
0
41
1
10
40.9004393169023
20
-0.62548498097118
30
0
0
SPLINE
5
F1
100
AcDbEntity
8
1
62
256
6
ByLayer
370
18
48
1
60
0
100
AcDbSpline
70
4
71
3
72
20
73
16
40
0
40
0
40
0
40
0
40
0.250000000000029
40
0.250000000000029
40
0.500000000000059
40
0.500000000000059
40
0.562500000000051
40
0.562500000000051
40
0.625000000000044
40
0.625000000000044
40
0.750000000000029
40
0.750000000000029
40
0.875000000000015
40
0.875000000000015
40
1
40
1
40
1
40
1
41
1
10
40.9004393194775
20
-0.62548498020584
30
0
41
1
10
40.9172635154646
20
-0.672028262402876
30
0
41
1
10
40.9335276381157
20
-0.718405210297988
30
0
41
1
10
40.9648345736016
20
-0.810796386785711
30
0
41
1
10
40.9798822653486
20
-0.85681206594208
30
0
41
1
10
40.9977356742302
20
-0.914047681838611
30
0
41
1
10
41.0012638596589
20
-0.925500934725363
30
0
41
1
10
41.008158636902
20
-0.948191628205677
30
0
41
1
10
41.0115305017891
20
-0.959445439082572
30
0
41
1
10
41.0214053075996
20
-0.992915032128536
30
0
41
1
10
41.0276693751007
20
-1.01484129623984
30
0
41
1
10
41.0394464873987
20
-1.05778357403523
30
0
41
1
10
41.0448982808735
20
-1.07858066897782
30
0
41
1
10
41.0547182940328
20
-1.11832685245864
30
0
41
1
10
41.0591008511282
20
-1.1373238291541
30
0
41
1
10
41.0628375122141
20
-1.15524794646646
30
0
0
SPLINE
5
F2
100
AcDbEntity
8
1
62
256
6
ByLayer
370
18
48
1
60
0
100
AcDbSpline
70
4
71
3
72
12
73
8
40
0
40
0
40
0
40
0
40
0.500000000000001
40
0.500000000000001
40
0.75
40
0.75
40
1
40
1
40
1
40
1
41
1
10
19.6041631195912
20
9.78026608261106
30
0
41
1
10
19.6218620871971
20
9.80264046398011
30
0
41
1
10
19.6496176703099
20
9.82278312698392
30
0
41
1
10
19.7051640734137
20
9.85002537991093
30
0
41
1
10
19.7259071549939
20
9.85855944169367
30
0
41
1
10
19.771636962659
20
9.87462019331676
30
0
41
1
10
19.7965442275431
20
9.88211951479005
30
0
41
1
10
19.8234003516788
20
9.88913930871743
30
0
0
SPLINE
5
F3
100
AcDbEntity
8
1
62
256
6
ByLayer
370
18
48
1
60
0
100
AcDbSpline
70
4
71
3
72
17
73
13
40
0
40
0
40
0
40
0
40
0.249999999999994
40
0.249999999999994
40
0.499999999999988
40
0.499999999999988
40
0.562499999999987
40
0.562499999999987
40
0.624999999999985
40
0.74999999999999
40
0.74999999999999
40
1
40
1
40
1
40
1
41
1
10
19.8234003516772
20
9.88913930871757
30
0
41
1
10
19.8122833134798
20
9.9083658168515
30
0
41
1
10
19.8112223042346
20
9.92496854496773
30
0
41
1
10
19.8280048223366
20
9.95313698841312
30
0
41
1
10
19.8458540704514
20
9.96470197080319
30
0
41
1
10
19.8799317000444
20
9.97611447731063
30
0
41
1
10
19.8873450204096
20
9.9782464103636
30
0
41
1
10
19.903332653155
20
9.98220090542731
30
0
41
1
10
19.928949547617
20
9.98764368621912
30
0
41
1
10
19.9593410561319
20
9.99168256197157
30
0
41
1
10
20.0262371799738
20
9.99804013353045
30
0
41
1
10
20.0789611315361
20
9.99998773711761
30
0
41
1
10
20.1394821677456
20
9.99999994237672
30
0
0
SPLINE
5
F4
100
AcDbEntity
8
1
62
256
6
ByLayer
370
18
48
1
60
0
100
AcDbSpline
70
4
71
3
72
18
73
14
40
0
40
0
40
0
40
0
40
0.20308157057763
40
0.20308157057763
40
0.269491439696163
40
0.269491439696163
40
0.335901308814696
40
0.335901308814696
40
0.468721047051758
40
0.468721047051758
40
0.734360523525879
40
0.734360523525879
40
1
40
1
40
1
40
1
41
1
10
16.3216256500712
20
-9.82076932645396
30
0
41
1
10
16.2581858693465
20
-9.86108124558274
30
0
41
1
10
16.1928875268712
20
-9.89454290947273
30
0
41
1
10
16.1034119460453
20
-9.92995641154295
30
0
41
1
10
16.0811341632303
20
-9.93795781681243
30
0
41
1
10
16.0360981532339
20
-9.95251143837393
30
0
41
1
10
16.0133632210288
20
-9.95905536521744
30
0
41
1
10
15.9445744208508
20
-9.97648401210623
30
0
41
1
10
15.8978978120683
20
-9.98517926406055
30
0
41
1
10
15.7551542966108
20
-10.0026845458073
30
0
41
1
10
15.6563878194086
20
-10.0029218548101
30
0
41
1
10
15.4499478337678
20
-9.98132270554106
30
0
41
1
10
15.3422794876746
20
-9.95948240425088
30
0
41
1
10
15.2290555069397
20
-9.92689567241132
30
0
0
SPLINE
5
F5
100
AcDbEntity
8
1
62
256
6
ByLayer
370
18
48
1
60
0
100
AcDbSpline
70
4
71
3
72
17
73
13
40
0
40
0
40
0
40
0
40
0.249999999999994
40
0.249999999999994
40
0.499999999999989
40
0.499999999999989
40
0.562499999999989
40
0.562499999999989
40
0.62499999999999
40
0.749999999999991
40
0.749999999999991
40
1
40
1
40
1
40
1
41
1
10
15.2290555069398
20
-9.92689567241132
30
0
41
1
10
15.2087545451979
20
-9.92105289959875
30
0
41
1
10
15.1917598607833
20
-9.9147610390846
30
0
41
1
10
15.1652610038588
20
-9.90117203026028
30
0
41
1
10
15.1557494536462
20
-9.89387547837865
30
0
41
1
10
15.149360805882
20
-9.88403790774441
30
0
41
1
10
15.148362450794
20
-9.88203599451319
30
0
41
1
10
15.1469510153783
20
-9.87799893367773
30
0
41
1
10
15.145701865423
20
-9.87187939646898
30
0
41
1
10
15.1470674099382
20
-9.86557086373216
30
0
41
1
10
15.1533378120435
20
-9.85270974360347
30
0
41
1
10
15.1622262789381
20
-9.84381003396521
30
0
41
1
10
15.1760824470602
20
-9.83460800131709
30
0
0
SPLINE
5
F6
100
AcDbEntity
8
1
62
256
6
ByLayer
370
18
48
1
60
0
100
AcDbSpline
70
4
71
3
72
8
73
4
40
0
40
0
40
0
40
0
40
1
40
1
40
1
40
1
41
1
10
41.6088014799811
20
-4.36008892530603
30
0
41
1
10
41.642928529737
20
-4.54707211836163
30
0
41
1
10
41.6787527757016
20
-4.73312630912656
30
0
41
1
10
41.7165053623269
20
-4.91803931155894
30
0
0
SPLINE
5
F7
100
AcDbEntity
8
1
62
256
6
ByLayer
370
18
48
1
60
0
100
AcDbSpline
70
4
71
3
72
8
73
4
40
0
40
0
40
0
40
0
40
1
40
1
40
1
40
1
41
1
10
41.5937881961141
20
-4.20071882106078
30
0
41
1
10
41.5988614153464
20
-4.25386268685978
30
0
41
1
10
41.6038649571482
20
-4.30698579089284
30
0
41
1
10
41.6088014799811
20
-4.36008892530603
30
0
0
SPLINE
5
F8
100
AcDbEntity
8
1
62
256
6
ByLayer
370
18
48
1
60
0
100
AcDbSpline
70
4
71
3
72
8
73
4
40
0
40
0
40
0
40
0
40
1
40
1
40
1
40
1
41
1
10
41.5504739890234
20
-4.91282210913681
30
0
41
1
10
41.6057929445113
20
-4.91443472082602
30
0
41
1
10
41.6611367605298
20
-4.91617391520541
30
0
41
1
10
41.7165053623471
20
-4.91803931155752
30
0
0
SPLINE
5
F9
100
AcDbEntity
8
1
62
256
6
ByLayer
370
18
48
1
60
0
100
AcDbSpline
70
4
71
3
72
8
73
4
40
0
40
0
40
0
40
0
40
1
40
1
40
1
40
1
41
1
10
41.655287558185
20
-2.95023506487613
30
0
41
1
10
41.6334466758968
20
-3.34976711487539
30
0
41
1
10
41.6090268124973
20
-3.74959870551899
30
0
41
1
10
41.5807706752677
20
-4.14980568018208
30
0
0
SPLINE
5
FA
100
AcDbEntity
8
1
62
256
6
ByLayer
370
18
48
1
60
0
100
AcDbSpline
70
4
71
3
72
8
73
4
40
0
40
0
40
0
40
0
40
1
40
1
40
1
40
1
41
1
10
41.6552875581851
20
-2.95023506487613
30
0
41
1
10
41.4954858578454
20
-2.53768968715906
30
0
41
1
10
41.3366701663969
20
-2.1217086638562
30
0
41
1
10
41.1788303282706
20
-1.70232738099281
30
0
0
SPLINE
5
FB
100
AcDbEntity
8
1
62
256
6
ByLayer
370
18
48
1
60
0
100
AcDbSpline
70
4
71
3
72
8
73
4
40
0
40
0
40
0
40
0
40
1
40
1
40
1
40
1
41
1
10
22.0000000000001
20
9.53190788123916
30
0
41
1
10
21.7167609446125
20
9.55535570574344
30
0
41
1
10
21.4355589235048
20
9.57304514409716
30
0
41
1
10
21.1567193569499
20
9.58405628267326
30
0
0
SPLINE
5
FC
100
AcDbEntity
8
1
62
256
6
ByLayer
370
18
48
1
60
0
100
AcDbSpline
70
4
71
3
72
36
73
32
40
0
40
0
40
0
40
0
40
0.0073184689089091
40
0.0362065794712129
40
0.0650946900335168
40
0.0939828005958207
40
0.122870911158125
40
0.151759021720428
40
0.209535242845036
40
0.23842335340734
40
0.267311463969644
40
0.296199574531948
40
0.325087685094252
40
0.38286390621886
40
0.411752016781164
40
0.440640127343468
40
0.498416348468075
40
0.527304459030379
40
0.556192569592683
40
0.585080680154987
40
0.613968790717291
40
0.642856901279595
40
0.671745011841899
40
0.729521232966507
40
0.787297454091114
40
0.816185564653418
40
0.845073675215722
40
0.873961785778026
40
0.90284989634033
40
0.960626117464938
40
1
40
1
40
1
40
1
41
1
10
19.9769720421213
20
9.79486751847926
30
0
41
1
10
20.0296241452894
20
9.78768947761901
30
0
41
1
10
20.29010076291
20
9.75071182192622
30
0
41
1
10
20.7583283983245
20
9.67121395448905
30
0
41
1
10
21.381545035704
20
9.53788077954871
30
0
41
1
10
22.0045763443317
20
9.37756561105397
30
0
41
1
10
22.6273859355364
20
9.19099256949943
30
0
41
1
10
23.4575259552386
20
8.90757300152185
30
0
41
1
10
24.2873539075834
20
8.57313554765523
30
0
41
1
10
25.1170199455593
20
8.19122090820449
30
0
41
1
10
25.7392261755691
20
7.8816453075178
30
0
41
1
10
26.3614234991598
20
7.54984310957823
30
0
41
1
10
27.1910705600166
20
7.07884852794771
30
0
41
1
10
28.0208216553926
20
6.56706206930406
30
0
41
1
10
28.8507852824111
20
6.01910832309099
30
0
41
1
10
29.6808824088922
20
5.44816348088264
30
0
41
1
10
30.5111432540106
20
4.84539827762009
30
0
41
1
10
31.3415461854436
20
4.21623755021974
30
0
41
1
10
31.9644186687963
20
3.73224342570254
30
0
41
1
10
32.5873361678902
20
3.23763592852677
30
0
41
1
10
33.2102653265444
20
2.73392035562264
30
0
41
1
10
33.833181801681
20
2.22256747969172
30
0
41
1
10
34.6638181690456
20
1.53215465484135
30
0
41
1
10
35.7027039343174
20
0.656493919632226
30
0
41
1
10
36.7435358167937
20
-0.226843126195007
30
0
41
1
10
37.5781120706126
20
-0.932824255661643
30
0
41
1
10
38.2051114601845
20
-1.46059206971003
30
0
41
1
10
38.8333767104535
20
-1.98524004602669
30
0
41
1
10
39.6729283478631
20
-2.67870964951538
30
0
41
1
10
40.5921390079174
20
-3.42210024900797
30
0
41
1
10
41.30441049286
20
-3.97851041206772
30
0
41
1
10
41.5937881961129
20
-4.20071882106404
30
0
0
SPLINE
5
FD
100
AcDbEntity
8
1
62
256
6
ByLayer
370
18
48
1
60
0
100
AcDbSpline
70
4
71
3
72
8
73
4
40
0
40
0
40
0
40
0
40
1
40
1
40
1
40
1
41
1
10
41.5807706752676
20
-4.14980568018208
30
0
41
1
10
41.5851231054877
20
-4.16677610609088
30
0
41
1
10
41.5894622469961
20
-4.18374715456562
30
0
41
1
10
41.5937881961214
20
-4.2007188210705
30
0
0
SPLINE
5
FE
100
AcDbEntity
8
1
62
256
6
ByLayer
370
18
48
1
60
0
100
AcDbSpline
70
4
71
3
72
8
73
4
40
0
40
0
40
0
40
0
40
1
40
1
40
1
40
1
41
1
10
41.0628375114658
20
-1.15524794614296
30
0
41
1
10
41.1004463537039
20
-1.33564754907414
30
0
41
1
10
41.1390840089769
20
-1.51795792536726
30
0
41
1
10
41.1788303282706
20
-1.70232738099281
30
0
0
SPLINE
5
FF
100
AcDbEntity
8
1
62
256
6
ByLayer
370
13
48
1
60
0
100
AcDbSpline
70
4
71
3
72
11
73
7
40
0
40
0
40
0
40
0
40
0.186220246626786
40
0.484108295269182
40
0.781996343911578
40
1
40
1
40
1
40
1
41
1
10
41.0628375112352
20
-1.1552479464346
30
0
41
1
10
40.5418916741569
20
-0.75763268067854
30
0
41
1
10
39.1876125037451
20
0.285535586417922
30
0
41
1
10
37.0000000000002
20
1.96681689916542
30
0
41
1
10
34.7234743133595
20
3.63648757140277
30
0
41
1
10
33.2802819600522
20
4.60877531273144
30
0
41
1
10
32.6704229400782
20
4.99924588611023
30
0
0
SPLINE
5
100
100
AcDbEntity
8
1
62
256
6
ByLayer
370
18
48
1
60
0
100
AcDbSpline
70
4
71
3
72
56
73
52
40
0
40
0
40
0
40
0
40
0.0624999999999973
40
0.0624999999999973
40
0.124999999999995
40
0.124999999999995
40
0.140624999999994
40
0.140624999999994
40
0.156249999999994
40
0.156249999999994
40
0.187499999999995
40
0.187499999999995
40
0.218749999999995
40
0.218749999999995
40
0.249999999999996
40
0.249999999999996
40
0.312499999999997
40
0.312499999999997
40
0.374999999999998
40
0.374999999999998
40
0.406249999999998
40
0.406249999999998
40
0.437499999999998
40
0.437499999999998
40
0.468749999999998
40
0.468749999999998
40
0.484374999999997
40
0.484374999999997
40
0.499999999999997
40
0.499999999999997
40
0.531249999999995
40
0.531249999999995
40
0.562499999999994
40
0.562499999999994
40
0.624999999999993
40
0.624999999999993
40
0.687499999999992
40
0.687499999999992
40
0.74999999999999
40
0.74999999999999
40
0.781249999999991
40
0.781249999999991
40
0.796874999999991
40
0.796874999999991
40
0.812499999999992
40
0.812499999999992
40
0.874999999999995
40
0.874999999999995
40
0.937499999999997
40
0.937499999999997
40
1
40
1
40
1
40
1
41
1
10
41.1788303282706
20
-1.70232738099281
30
0
41
1
10
40.7777005523864
20
-1.37871643735832
30
0
41
1
10
40.3772694728729
20
-1.0527376865524
30
0
41
1
10
39.5760406750282
20
-0.398182832382929
30
0
41
1
10
39.1752010396037
20
-0.0696627885654948
30
0
41
1
10
38.6729506808149
20
0.34147062160747
30
0
41
1
10
38.5724410883728
20
0.423722178408639
30
0
41
1
10
38.371273904364
20
0.588239007789667
30
0
41
1
10
38.2705614947749
20
0.670548860248488
30
0
41
1
10
37.96898710017
20
0.916769961897216
30
0
41
1
10
37.768467372009
20
1.08015728108009
30
0
41
1
10
37.3683203009096
20
1.40519324851721
30
0
41
1
10
37.1686896576954
20
1.56683866650624
30
0
41
1
10
36.7699803869401
20
1.88810511470257
30
0
41
1
10
36.5709022458576
20
2.04772860435978
30
0
41
1
10
35.9742467180092
20
2.52326569940894
30
0
41
1
10
35.5772572054023
20
2.8358560230271
30
0
41
1
10
34.7833608311056
20
3.45030421516287
30
0
41
1
10
34.3864313376328
20
3.75215512807989
30
0
41
1
10
33.78994289935
20
4.19529857351836
30
0
41
1
10
33.5909481105092
20
4.34139998021848
30
0
41
1
10
33.1922896743426
20
4.63014000155329
30
0
41
1
10
32.9926106770005
20
4.77278823874622
30
0
41
1
10
32.5923480557736
20
5.05440246041991
30
0
41
1
10
32.3917686674178
20
5.19336836977496
30
0
41
1
10
32.0900972655695
20
5.39882246226307
30
0
41
1
10
31.9893710385691
20
5.46682940119999
30
0
41
1
10
31.7883690276001
20
5.60130851166198
30
0
41
1
10
31.6880043408423
20
5.66784248347514
30
0
41
1
10
31.38729163645
20
5.86529323418077
30
0
41
1
10
31.187343583632
20
5.99403949426221
30
0
41
1
10
30.7881830438081
20
6.24571881253729
30
0
41
1
10
30.5889413603065
20
6.36868445051726
30
0
41
1
10
29.9918737143009
20
6.72885329142591
30
0
41
1
10
29.5947755850619
20
6.95727581027353
30
0
41
1
10
28.8012055337743
20
7.38887883785301
30
0
41
1
10
28.4047450380163
20
7.59197998711755
30
0
41
1
10
27.6102423772803
20
7.97248015899672
30
0
41
1
10
27.2122674451396
20
8.14981696976105
30
0
41
1
10
26.6131525758133
20
8.3946670138198
30
0
41
1
10
26.4130866301746
20
8.47276692246814
30
0
41
1
10
26.1122874016041
20
8.58449541247526
30
0
41
1
10
26.0119036087999
20
8.62083632508927
30
0
41
1
10
25.8108708851889
20
8.69170010057746
30
0
41
1
10
25.7101955013334
20
8.72623108707324
30
0
41
1
10
25.2075495379446
20
8.89381781792079
30
0
41
1
10
24.8066798663811
20
9.01197415371851
30
0
41
1
10
24.0054981117553
20
9.21661565464044
30
0
41
1
10
23.6052026418272
20
9.30312134475793
30
0
41
1
10
22.8038276334168
20
9.44248865872035
30
0
41
1
10
22.4027050920972
20
9.49536060691634
30
0
41
1
10
22.0000000000002
20
9.53190788123916
30
0
0
SPLINE
5
101
100
AcDbEntity
8
1
62
256
6
ByLayer
370
13
48
1
60
0
100
AcDbSpline
70
4
71
3
72
11
73
7
40
0
40
0
40
0
40
0
40
0.124118499815505
40
0.343088874861628
40
0.562059249907752
40
1
40
1
40
1
40
1
41
1
10
33.4170695441033
20
1.73660663259579
30
0
41
1
10
32.9447130294022
20
2.10570310531455
30
0
41
1
10
31.6390231813678
20
3.114209590401
30
0
41
1
10
29.5
20
4.6785851328456
30
0
41
1
10
26.1666666666667
20
6.83640142812092
30
0
41
1
10
23.6666666666667
20
8.02056635087482
30
0
41
1
10
22.0000000000001
20
8.54679404051052
30
0
0
SPLINE
5
102
100
AcDbEntity
8
1
62
256
6
ByLayer
370
18
48
1
60
0
100
AcDbSpline
70
4
71
3
72
16
73
12
40
0
40
0
40
0
40
0
40
0.355903507812634
40
0.355903507812634
40
0.711807015625268
40
0.711807015625268
40
0.800782892578428
40
0.800782892578428
40
0.889758769531589
40
0.889758769531589
40
1
40
1
40
1
40
1
41
1
10
22.0000000000001
20
-9.15401571096615
30
0
41
1
10
22.4052380820123
20
-9.27045597671003
30
0
41
1
10
22.8098706504233
20
-9.37513479473154
30
0
41
1
10
23.618947487862
20
-9.5609008001619
30
0
41
1
10
24.0234010501986
20
-9.64186354332276
30
0
41
1
10
24.5295037960675
20
-9.72802078642246
30
0
41
1
10
24.6307510664397
20
-9.74449964518607
30
0
41
1
10
24.8333152334989
20
-9.77594456506415
30
0
41
1
10
24.9346395382696
20
-9.79091108769163
30
0
41
1
10
25.1613324952799
20
-9.82268230693566
30
0
41
1
10
25.2867054189653
20
-9.83907893581926
30
0
41
1
10
25.4120209281643
20
-9.85428897708044
30
0
0
SPLINE
5
103
100
AcDbEntity
8
1
62
256
6
ByLayer
370
18
48
1
60
0
100
AcDbSpline
70
4
71
3
72
9
73
5
40
0
40
0
40
0
40
0
40
0.218050545653897
40
1
40
1
40
1
40
1
41
1
10
29.2071831570302
20
-9.95025623171762
30
0
41
1
10
29.2318477815661
20
-9.94850034807715
30
0
41
1
10
29.3449354890037
20
-9.94023782971919
30
0
41
1
10
29.4579041963027
20
-9.93101544588387
30
0
41
1
10
29.5461726997651
20
-9.92322092215622
30
0
0
SPLINE
5
104
100
AcDbEntity
8
1
62
256
6
ByLayer
370
18
48
1
60
0
100
AcDbSpline
70
4
71
3
72
8
73
4
40
0
40
0
40
0
40
0
40
1
40
1
40
1
40
1
41
1
10
41.4655071796571
20
-4.90677914798823
30
0
41
1
10
41.4938283683881
20
-4.90876124055472
30
0
41
1
10
41.5221508092291
20
-4.9107755552937
30
0
41
1
10
41.5504739890167
20
-4.91282210920318
30
0
0
SPLINE
5
105
100
AcDbEntity
8
1
62
256
6
ByLayer
370
18
48
1
60
0
100
AcDbSpline
70
4
71
3
72
9
73
5
40
0
40
0
40
0
40
0
40
0.499874165395331
40
1
40
1
40
1
40
1
41
1
10
19.4015086073387
20
-8.25445647168758
30
0
41
1
10
19.4064693021514
20
-8.25034350256064
30
0
41
1
10
19.4163931893139
20
-8.24211549357028
30
0
41
1
10
19.4263307193295
20
-8.23393848513379
30
0
41
1
10
19.4313007348224
20
-8.22984895196493
30
0
0
SPLINE
5
106
100
AcDbEntity
8
1
62
256
6
ByLayer
370
18
48
1
60
0
100
AcDbSpline
70
4
71
1
72
4
73
2
40
0
40
0
40
1
40
1
41
1
10
21.9999999821019
20
-9.15370848766503
30
0
41
1
10
22.0000000178981
20
-9.15401571076075
30
0
0
SPLINE
5
107
100
AcDbEntity
8
1
62
256
6
ByLayer
370
18
48
1
60
0
100
AcDbSpline
70
4
71
3
72
24
73
20
40
0
40
0
40
0
40
0
40
0.0071231152873077
40
0.0674923379890953
40
0.127861560690883
40
0.18823078339267
40
0.248600006094458
40
0.278784617445352
40
0.308969228796245
40
0.33915384014714
40
0.369338451498033
40
0.490076896901608
40
0.610815342305183
40
0.671184565006971
40
0.731553787708758
40
0.852292233112333
40
0.912661455814121
40
0.973030678515908
40
1
40
1
40
1
40
1
41
1
10
19.4313007348215
20
-8.22984895196456
30
0
41
1
10
19.455860177304
20
-8.23979810834084
30
0
41
1
10
19.6885621697572
20
-8.33370788200173
30
0
41
1
10
20.1293788326784
20
-8.50513638868421
30
0
41
1
10
20.7536949479101
20
-8.7309987245919
30
0
41
1
10
21.3779245259393
20
-8.9395150444461
30
0
41
1
10
21.8980532310394
20
-9.09856251337021
30
0
41
1
10
22.3141046396252
20
-9.21684732030221
30
0
41
1
10
22.6261232512251
20
-9.30088965929181
30
0
41
1
10
22.9381202782905
20
-9.38028892660813
30
0
41
1
10
23.5620678935034
20
-9.52991497843033
30
0
41
1
10
24.4978655835208
20
-9.71892674419016
30
0
41
1
10
25.5375196813334
20
-9.86507193231998
30
0
41
1
10
26.3692395872627
20
-9.94288215636377
30
0
41
1
10
27.2009744879114
20
-9.99441698877504
30
0
41
1
10
28.0327534955999
20
-10.0064051793758
30
0
41
1
10
28.8646209578586
20
-9.97872449472885
30
0
41
1
10
29.373502196665
20
-9.94562623531743
30
0
41
1
10
29.6744116259644
20
-9.91919840086834
30
0
41
1
10
29.7673308195598
20
-9.91038607335946
30
0
0
SPLINE
5
108
100
AcDbEntity
8
1
62
256
6
ByLayer
370
18
48
1
60
0
100
AcDbSpline
70
4
71
3
72
8
73
4
40
0
40
0
40
0
40
0
40
1
40
1
40
1
40
1
41
1
10
19.4286823037896
20
-8.22954222153615
30
0
41
0.999999979298748
10
19.4295550779797
20
-8.22964420287594
30
0
41
0.999999979298748
10
19.4304278883419
20
-8.22974644635427
30
0
41
1
10
19.4313007348221
20
-8.2298489519649
30
0
0
SPLINE
5
109
100
AcDbEntity
8
1
62
256
6
ByLayer
370
18
48
1
60
0
100
AcDbSpline
70
4
71
3
72
19
73
15
40
0
40
0
40
0
40
0
40
0.0835439673422042
40
0.167047282042136
40
0.250510672751965
40
0.333934858443372
40
0.417320548341306
40
0.500668441862708
40
0.583979228560303
40
0.667253588071042
40
0.750492190069538
40
0.833695694252159
40
0.916864750771794
40
1
40
1
40
1
40
1
41
1
10
19.7880965011782
20
-7.84720883331224
30
0
41
1
10
19.7780171509159
20
-7.85747508620003
30
0
41
1
10
19.7578633550209
20
-7.8780025963988
30
0
41
1
10
19.7277340203249
20
-7.90905242383317
30
0
41
1
10
19.6976883644273
20
-7.94028014161989
30
0
41
1
10
19.6677331113885
20
-7.97170352335399
30
0
41
1
10
19.6378664547354
20
-8.00331601051627
30
0
41
1
10
19.6080888842725
20
-8.03511759254073
30
0
41
1
10
19.5784002327229
20
-8.06710640332255
30
0
41
1
10
19.5488006692635
20
-8.09928147547419
30
0
41
1
10
19.519289677297
20
-8.13164012308044
30
0
41
1
10
19.4898691483742
20
-8.16418565380118
30
0
41
1
10
19.460532034994
20
-8.19689915391567
30
0
41
1
10
19.441043180944
20
-8.21886717454336
30
0
41
1
10
19.4313007348218
20
-8.2298489519647
30
0
0
SPLINE
5
10A
100
AcDbEntity
8
1
62
256
6
ByLayer
370
18
48
1
60
0
100
AcDbSpline
70
4
71
3
72
8
73
4
40
0
40
0
40
0
40
0
40
1
40
1
40
1
40
1
41
1
10
19.6052349389001
20
-7.82942305693422
30
0
41
0.999904043947448
10
19.6659961818867
20
-7.8340994220067
30
0
41
0.999904043947448
10
19.7269558854316
20
-7.84002858307156
30
0
41
1
10
19.7880965011775
20
-7.84720883331218
30
0
0
SPLINE
5
10B
100
AcDbEntity
8
1
62
256
6
ByLayer
370
18
48
1
60
0
100
AcDbSpline
70
4
71
3
72
36
73
32
40
0
40
0
40
0
40
0
40
0.0343835146160657
40
0.0687711552573443
40
0.103163284549057
40
0.137560260626445
40
0.171962436991124
40
0.206370162374389
40
0.240783780607231
40
0.275203630497087
40
0.309630045711261
40
0.34406335466688
40
0.378503880427382
40
0.412951940605334
40
0.447407847271662
40
0.481871906871049
40
0.516344420143468
40
0.550825682051814
40
0.585315981710797
40
0.619815599466344
40
0.654324802867419
40
0.688843854424586
40
0.723373013037578
40
0.757912533977647
40
0.792462668871629
40
0.827023665687887
40
0.861595768723999
40
0.896179218596258
40
0.930774252230814
40
0.96538110285662
40
1
40
1
40
1
40
1
41
1
10
20.6278917668867
20
-6.60909314046492
30
0
41
1
10
20.6177687669178
20
-6.62235185921784
30
0
41
1
10
20.597521552219
20
-6.64887088777127
30
0
41
1
10
20.5672791156346
20
-6.68892062048985
30
0
41
1
10
20.5371285197114
20
-6.72917016630322
30
0
41
1
10
20.5070791042366
20
-6.76963773752445
30
0
41
1
10
20.4771283705526
20
-6.81031692483842
30
0
41
1
10
20.4472769920003
20
-6.85120790790819
30
0
41
1
10
20.4175247910661
20
-6.892309091165
30
0
41
1
10
20.3878718175596
20
-6.93361934586807
30
0
41
1
10
20.3583180596646
20
-6.97513740957638
30
0
41
1
10
20.328863521399
20
-7.0168620474694
30
0
41
1
10
20.2995082018712
20
-7.05879200947476
30
0
41
1
10
20.270252100855
20
-7.10092604211897
30
0
41
1
10
20.2410952173151
20
-7.14326288571235
30
0
41
1
10
20.2120375498051
20
-7.18580127543925
30
0
41
1
10
20.1830790964282
20
-7.22853994147911
30
0
41
1
10
20.1542198546719
20
-7.27147760907661
30
0
41
1
10
20.125459822984
20
-7.31461299856625
30
0
41
1
10
20.0967989997336
20
-7.35794481909909
30
0
41
1
10
20.0682373710464
20
-7.40147175733114
30
0
41
1
10
20.0397749278192
20
-7.44519250223917
30
0
41
1
10
20.011411662708
20
-7.48910574880688
30
0
41
1
10
19.9831475643796
20
-7.53321019045683
30
0
41
1
10
19.9549826392852
20
-7.57750455210194
30
0
41
1
10
19.926916829811
20
-7.62198746625006
30
0
41
1
10
19.8989503199706
20
-7.66665793592395
30
0
41
1
10
19.8710823939048
20
-7.71151360628002
30
0
41
1
10
19.8433156980868
20
-7.75655721835813
30
0
41
1
10
19.8156403264683
20
-7.80177251133048
30
0
41
1
10
19.7972788413494
20
-7.83206163570154
30
0
41
1
10
19.7880965011767
20
-7.84720883331161
30
0
0
SPLINE
5
10C
100
AcDbEntity
8
1
62
256
6
ByLayer
370
18
48
1
60
0
100
AcDbSpline
70
4
71
3
72
26
73
22
40
0
40
0
40
0
40
0
40
0.0264051107282785
40
0.074724596105958
40
0.123044081483638
40
0.171363566861317
40
0.195523309550157
40
0.219683052238997
40
0.243842794927837
40
0.268002537616676
40
0.364641508372035
40
0.461280479127394
40
0.509599964505074
40
0.557919449882753
40
0.654558420638112
40
0.702877906015792
40
0.751197391393471
40
0.84783636214883
40
0.944475332904189
40
0.992794818281869
40
1
40
1
40
1
40
1
41
1
10
19.7880965011764
20
-7.84720883331147
30
0
41
1
10
19.9018332674966
20
-7.8965102497427
30
0
41
1
10
20.223691308755
20
-8.03383884442857
30
0
41
1
10
20.7536361260279
20
-8.24952678371085
30
0
41
1
10
21.3778816345492
20
-8.48696991600903
30
0
41
1
10
21.8980184563758
20
-8.67083865083382
30
0
41
1
10
22.3140589056098
20
-8.80959788342261
30
0
41
1
10
22.6260675526817
20
-8.90920005553787
30
0
41
1
10
22.9380581441886
20
-9.00435542407359
30
0
41
1
10
23.561994736955
20
-9.18593424041362
30
0
41
1
10
24.4978003322021
20
-9.42378736200902
30
0
41
1
10
25.5374554668915
20
-9.62605642078108
30
0
41
1
10
26.3691875473448
20
-9.74993570383668
30
0
41
1
10
27.2009318550007
20
-9.84802035958504
30
0
41
1
10
28.0327029605017
20
-9.90705081989918
30
0
41
1
10
28.8645554325935
20
-9.92704782639831
30
0
41
1
10
29.6964898739901
20
-9.92057111979716
30
0
41
1
10
30.736474697815
20
-9.86317002586694
30
0
41
1
10
31.7766362036763
20
-9.74088842206501
30
0
41
1
10
32.4317865419333
20
-9.63385472257389
30
0
41
1
10
32.6708516844784
20
-9.59056143444943
30
0
41
1
10
32.7018740636698
20
-9.58487236160792
30
0
0
SPLINE
5
10D
100
AcDbEntity
8
1
62
256
6
ByLayer
370
18
48
1
60
0
100
AcDbSpline
70
4
71
3
72
8
73
4
40
0
40
0
40
0
40
0
40
1
40
1
40
1
40
1
41
1
10
19.8224590356306
20
-6.73381092051125
30
0
41
1
10
20.0869322968471
20
-6.67293602744695
30
0
41
1
10
20.3553581161377
20
-6.6313466993507
30
0
41
1
10
20.6277761889471
20
-6.60923662068271
30
0
0
SPLINE
5
10E
100
AcDbEntity
8
1
62
256
6
ByLayer
370
18
48
1
60
0
100
AcDbSpline
70
4
71
3
72
10
73
6
40
0
40
0
40
0
40
0
40
0.5
40
0.5
40
1
40
1
40
1
40
1
41
1
10
22.0000000000001
20
-7.1813061901058
30
0
41
1
10
21.7695331728352
20
-7.09195598855948
30
0
41
1
10
21.539829447642
20
-7.0000339680785
30
0
41
1
10
21.0823600180721
20
-6.80965837718384
30
0
41
1
10
20.8545922123324
20
-6.71121188881875
30
0
41
1
10
20.6279281202216
20
-6.60904564645676
30
0
0
SPLINE
5
10F
100
AcDbEntity
8
1
62
256
6
ByLayer
370
18
48
1
60
0
100
AcDbSpline
70
4
71
3
72
16
73
12
40
0
40
0
40
0
40
0
40
0.249999999999991
40
0.249999999999991
40
0.374999999999992
40
0.374999999999992
40
0.499999999999992
40
0.499999999999992
40
0.749999999999996
40
0.749999999999996
40
1
40
1
40
1
40
1
41
1
10
19.428682303792
20
-8.22954222153626
30
0
41
1
10
19.4323081620955
20
-8.19645771144548
30
0
41
1
10
19.4389681927184
20
-8.1632123216736
30
0
41
1
10
19.4532245085057
20
-8.11310646566443
30
0
41
1
10
19.458689122738
20
-8.09636497276858
30
0
41
1
10
19.4710114194576
20
-8.0628044576338
30
0
41
1
10
19.4778691826195
20
-8.04599019580016
30
0
41
1
10
19.5003847920307
20
-7.99565643929216
30
0
41
1
10
19.5180329261101
20
-7.96212874801492
30
0
41
1
10
19.5581496799575
20
-7.89542543667159
30
0
41
1
10
19.5805766636275
20
-7.86230698903984
30
0
41
1
10
19.605234938905
20
-7.82942305693459
30
0
0
SPLINE
5
110
100
AcDbEntity
8
1
62
256
6
ByLayer
370
18
48
1
60
0
100
AcDbSpline
70
4
71
3
72
17
73
13
40
0
40
0
40
0
40
0
40
0.249999999999993
40
0.249999999999993
40
0.499999999999987
40
0.499999999999987
40
0.562499999999985
40
0.562499999999985
40
0.624999999999983
40
0.749999999999986
40
0.749999999999986
40
1
40
1
40
1
40
1
41
1
10
19.6052349389036
20
-7.82942305693405
30
0
41
1
10
19.5815027987047
20
-7.74448542875928
30
0
41
1
10
19.569407962972
20
-7.65748354033462
30
0
41
1
10
19.5663463002713
20
-7.47936857293138
30
0
41
1
10
19.5753927635146
20
-7.38825549221175
30
0
41
1
10
19.5994919412561
20
-7.27179525642612
30
0
41
1
10
19.6049554209673
20
-7.24837096243749
30
0
41
1
10
19.6171651986846
20
-7.20128046166312
30
0
41
1
10
19.6372927397205
20
-7.13071319468582
30
0
41
1
10
19.6626714469061
20
-7.06034735401084
30
0
41
1
10
19.7200596876634
20
-6.91989325992466
30
0
41
1
10
19.7671305598086
20
-6.82662221350316
30
0
41
1
10
19.8224590356501
20
-6.73381092049962
30
0
0
SPLINE
5
111
100
AcDbEntity
8
1
62
256
6
ByLayer
370
18
48
1
60
0
100
AcDbSpline
70
4
71
3
72
38
73
34
40
0
40
0
40
0
40
0
40
0.125000000000009
40
0.125000000000009
40
0.250000000000019
40
0.250000000000019
40
0.375000000000028
40
0.375000000000028
40
0.437500000000015
40
0.437500000000015
40
0.500000000000002
40
0.500000000000002
40
0.562499999999989
40
0.562499999999989
40
0.593749999999975
40
0.593749999999975
40
0.624999999999961
40
0.624999999999961
40
0.656249999999948
40
0.656249999999948
40
0.687499999999934
40
0.687499999999934
40
0.718749999999921
40
0.718749999999921
40
0.749999999999907
40
0.749999999999907
40
0.81249999999993
40
0.81249999999993
40
0.874999999999953
40
0.874999999999953
40
0.937499999999977
40
0.937499999999977
40
1
40
1
40
1
40
1
41
1
10
14.3879019911109
20
-3.05319993155214
30
0
41
1
10
14.370011578786
20
-3.03481525681514
30
0
41
1
10
14.3525421755429
20
-3.01608978100447
30
0
41
1
10
14.31872917972
20
-2.97773428517186
30
0
41
1
10
14.3023794203302
20
-2.95810908632333
30
0
41
1
10
14.2713024252735
20
-2.91756455866863
30
0
41
1
10
14.2565267042978
20
-2.89660034551159
30
0
41
1
10
14.2366153835344
20
-2.86400239533413
30
0
41
1
10
14.2303501095284
20
-2.85293247702555
30
0
41
1
10
14.2188384396318
20
-2.83023636045814
30
0
41
1
10
14.2135739908037
20
-2.81856809968835
30
0
41
1
10
14.2046918164132
20
-2.79481818287007
30
0
41
1
10
14.2010426930753
20
-2.78271327096471
30
0
41
1
10
14.1974324533207
20
-2.76401873083023
30
0
41
1
10
14.1965462064272
20
-2.75767307572849
30
0
41
1
10
14.195619850397
20
-2.74503054037069
30
0
41
1
10
14.1955713056921
20
-2.73870676529344
30
0
41
1
10
14.1965144491613
20
-2.72605382650571
30
0
41
1
10
14.1975259193328
20
-2.71967802387121
30
0
41
1
10
14.2007495639286
20
-2.7073847411522
30
0
41
1
10
14.202957297021
20
-2.7014239105435
30
0
41
1
10
14.2087122315951
20
-2.68992095503697
30
0
41
1
10
14.2122338263996
20
-2.68446593910551
30
0
41
1
10
14.2202795705618
20
-2.67446446267127
30
0
41
1
10
14.224863967152
20
-2.6698331874388
30
0
41
1
10
14.2398602274438
20
-2.65721989054325
30
0
41
1
10
14.2511293215176
20
-2.65072715248098
30
0
41
1
10
14.2753036198988
20
-2.64021016986734
30
0
41
1
10
14.2878004879952
20
-2.63636794718943
30
0
41
1
10
14.3132400017879
20
-2.63042860305171
30
0
41
1
10
14.326224469407
20
-2.62834372276481
30
0
41
1
10
14.3524181825763
20
-2.625424837748
30
0
41
1
10
14.3655646125276
20
-2.6245994078034
30
0
41
1
10
14.3787468794229
20
-2.62423240622709
30
0
0
SPLINE
5
112
100
AcDbEntity
8
1
62
256
6
ByLayer
370
18
48
1
60
0
100
AcDbSpline
70
4
71
3
72
14
73
10
40
0
40
0
40
0
40
0
40
0.50000000000001
40
0.50000000000001
40
0.625000000000006
40
0.625000000000006
40
0.750000000000001
40
0.750000000000001
40
1
40
1
40
1
40
1
41
1
10
14.8947803106068
20
6.66747690779772
30
0
41
1
10
14.8621632562919
20
6.71748273254269
30
0
41
1
10
14.8371053693799
20
6.76876110975078
30
0
41
1
10
14.816931215427
20
6.83470067497359
30
0
41
1
10
14.8134578947446
20
6.84798143304047
30
0
41
1
10
14.807695678581
20
6.8747384328278
30
0
41
1
10
14.8054093732312
20
6.88822705018146
30
0
41
1
10
14.8004676727075
20
6.92852951617667
30
0
41
1
10
14.799688368704
20
6.95532964226021
30
0
41
1
10
14.8014852059855
20
6.9820609474198
30
0
0
SPLINE
5
113
100
AcDbEntity
8
1
62
256
6
ByLayer
370
18
48
1
60
0
100
AcDbSpline
70
4
71
3
72
48
73
44
40
0
40
0
40
0
40
0
40
0.0624999999999992
40
0.0624999999999992
40
0.0937499999999991
40
0.0937499999999991
40
0.101562499999999
40
0.101562499999999
40
0.109374999999999
40
0.124999999999999
40
0.124999999999999
40
0.156249999999999
40
0.156249999999999
40
0.187499999999999
40
0.187499999999999
40
0.203124999999999
40
0.203124999999999
40
0.218749999999999
40
0.218749999999999
40
0.249999999999998
40
0.249999999999998
40
0.312500000000002
40
0.312500000000002
40
0.375000000000006
40
0.375000000000006
40
0.390625000000004
40
0.390625000000004
40
0.406250000000002
40
0.437500000000002
40
0.437500000000002
40
0.500000000000002
40
0.500000000000002
40
0.562500000000001
40
0.562500000000001
40
0.625000000000001
40
0.625000000000001
40
0.687500000000001
40
0.687500000000001
40
0.750000000000001
40
0.750000000000001
40
0.875
40
0.875
40
1
40
1
40
1
40
1
41
1
10
14.8014852059855
20
6.98206094741977
30
0
41
1
10
14.8091188192842
20
7.09562517978799
30
0
41
1
10
14.8379329241785
20
7.20257291288866
30
0
41
1
10
14.9081057681932
20
7.35469632020818
30
0
41
1
10
14.9360132956077
20
7.40401405847089
30
0
41
1
10
14.9761919054683
20
7.46405053631244
30
0
41
1
10
14.9845056833889
20
7.47599492759943
30
0
41
1
10
15.0015853339012
20
7.49962917202635
30
0
41
1
10
15.0278661189082
20
7.53468000649534
30
0
41
1
10
15.0560491856591
20
7.56858127595393
30
0
41
1
10
15.1147629076626
20
7.63497193058325
30
0
41
1
10
15.1570286835135
20
7.67735406891293
30
0
41
1
10
15.2470004381686
20
7.75888251753113
30
0
41
1
10
15.2947087488161
20
7.79802738063401
30
0
41
1
10
15.3698949093025
20
7.8546168255688
30
0
41
1
10
15.3956076016166
20
7.87315482084213
30
0
41
1
10
15.4478731555229
20
7.90935386368702
30
0
41
1
10
15.4744388250779
20
7.92702772667477
30
0
41
1
10
15.5553352832462
20
7.9788773628124
30
0
41
1
10
15.6108619162645
20
8.01188489974675
30
0
41
1
10
15.7815934267385
20
8.10690757433639
30
0
41
1
10
15.9009181897166
20
8.16495534655033
30
0
41
1
10
16.1482984828635
20
8.2729138805378
30
0
41
1
10
16.2763710831432
20
8.32280688615504
30
0
41
1
10
16.4410548236153
20
8.38105488056044
30
0
41
1
10
16.4742431178689
20
8.39250371787469
30
0
41
1
10
16.5409080574116
20
8.41495371271728
30
0
41
1
10
16.6413727375743
20
8.44796996853589
30
0
41
1
10
16.7431748444977
20
8.47912103013508
30
0
41
1
10
16.948421723752
20
8.53918278788203
30
0
41
1
10
17.087436464864
20
8.57624731408487
30
0
41
1
10
17.3692895651341
20
8.64541264696686
30
0
41
1
10
17.5121304530496
20
8.67750926833594
30
0
41
1
10
17.8012870626052
20
8.73742680042668
30
0
41
1
10
17.9472037830371
20
8.76516192848558
30
0
41
1
10
18.2411906515301
20
8.81671017282625
30
0
41
1
10
18.3893141315809
20
8.84053235489054
30
0
41
1
10
18.687701407174
20
8.88469492875771
30
0
41
1
10
18.8379976108317
20
8.90503819741014
30
0
41
1
10
19.2918126321507
20
8.96125981828439
30
0
41
1
10
19.5967277297582
20
8.99219344139209
30
0
41
1
10
20.2112361731803
20
9.04253737473627
30
0
41
1
10
20.5208294127015
20
9.06194362216465
30
0
41
1
10
20.8329468908061
20
9.07564129906783
30
0
0
SPLINE
5
114
100
AcDbEntity
8
1
62
256
6
ByLayer
370
18
48
1
60
0
100
AcDbSpline
70
4
71
3
72
8
73
4
40
0
40
0
40
0
40
0
40
1
40
1
40
1
40
1
41
1
10
19.575289978717
20
9.77207066605965
30
0
41
1
10
19.5847290615058
20
9.77485635277421
30
0
41
1
10
19.5943546586588
20
9.77758744721538
30
0
41
1
10
19.6041631195944
20
9.78026608261064
30
0
0
SPLINE
5
115
100
AcDbEntity
8
1
62
256
6
ByLayer
370
18
48
1
60
0
100
AcDbSpline
70
4
71
3
72
50
73
46
40
0
40
0
40
0
40
0
40
0.0625000000000093
40
0.0625000000000093
40
0.093750000000014
40
0.093750000000014
40
0.109375000000016
40
0.109375000000016
40
0.125000000000019
40
0.125000000000019
40
0.187500000000024
40
0.187500000000024
40
0.250000000000029
40
0.250000000000029
40
0.28125000000003
40
0.28125000000003
40
0.31250000000003
40
0.31250000000003
40
0.37500000000003
40
0.37500000000003
40
0.406250000000031
40
0.406250000000031
40
0.437500000000031
40
0.437500000000031
40
0.500000000000025
40
0.500000000000025
40
0.531250000000023
40
0.531250000000023
40
0.56250000000002
40
0.56250000000002
40
0.625000000000014
40
0.625000000000014
40
0.687500000000009
40
0.687500000000009
40
0.718750000000006
40
0.718750000000006
40
0.750000000000004
40
0.750000000000004
40
0.812500000000004
40
0.812500000000004
40
0.843750000000005
40
0.843750000000005
40
0.875000000000005
40
0.875000000000005
40
1
40
1
40
1
40
1
41
1
10
15.1760824470602
20
-9.83460800131706
30
0
41
1
10
15.2134843397089
20
-9.80976899574043
30
0
41
1
10
15.2656828073648
20
-9.78354616169383
30
0
41
1
10
15.3624234207329
20
-9.74293319957849
30
0
41
1
10
15.3977638198404
20
-9.72917975706264
30
0
41
1
10
15.4550891135769
20
-9.70830712678327
30
0
41
1
10
15.4749174813486
20
-9.70130907351805
30
0
41
1
10
15.5159687750765
20
-9.68724445946518
30
0
41
1
10
15.5372438955134
20
-9.68016153720956
30
0
41
1
10
15.6460133161764
20
-9.64492161303599
30
0
41
1
10
15.741008872157
20
-9.61713870617726
30
0
41
1
10
15.9434171364819
20
-9.562729589898
30
0
41
1
10
16.0508607987474
20
-9.53610145537877
30
0
41
1
10
16.219809972056
20
-9.49723208387789
30
0
41
1
10
16.2775458637014
20
-9.48443068022326
30
0
41
1
10
16.3946415140352
20
-9.45938604180162
30
0
41
1
10
16.4540456862524
20
-9.44713056844932
30
0
41
1
10
16.6345980445371
20
-9.41117104046123
30
0
41
1
10
16.7580745028702
20
-9.38827272596623
30
0
41
1
10
16.9473092744438
20
-9.3555865878449
30
0
41
1
10
17.0111129831768
20
-9.34496045260485
30
0
41
1
10
17.1395674258509
20
-9.32434057415881
30
0
41
1
10
17.2042527933943
20
-9.31434020880428
30
0
41
1
10
17.3996000905784
20
-9.28526937838149
30
0
41
1
10
17.5315488026538
20
-9.26712796259579
30
0
41
1
10
17.7318123852492
20
-9.24180581343296
30
0
41
1
10
17.7989953541604
20
-9.23367653487603
30
0
41
1
10
17.9337360569895
20
-9.21809971937881
30
0
41
1
10
18.0013329346509
20
-9.21064684053749
30
0
41
1
10
18.2047767763169
20
-9.18929626468463
30
0
41
1
10
18.3412753347657
20
-9.17640563817417
30
0
41
1
10
18.6159157308032
20
-9.15334546261843
30
0
41
1
10
18.7540579649482
20
-9.14317612256366
30
0
41
1
10
18.9624684247292
20
-9.13001148752363
30
0
41
1
10
19.0321808097738
20
-9.12596965309262
30
0
41
1
10
19.1717332233302
20
-9.11860678661736
30
0
41
1
10
19.2415801152927
20
-9.11528478522865
30
0
41
1
10
19.4513305323962
20
-9.10640280003435
30
0
41
1
10
19.5914434603884
20
-9.10192634223412
30
0
41
1
10
19.8020291665942
20
-9.09741223764178
30
0
41
1
10
19.8722938749218
20
-9.09627443198471
30
0
41
1
10
20.0129627863339
20
-9.09473952381771
30
0
41
1
10
20.0833561554537
20
-9.09434301007764
30
0
41
1
10
20.4349628118562
20
-9.09422569414934
30
0
41
1
10
20.715657131247
20
-9.10009264913549
30
0
41
1
10
20.9957391736997
20
-9.11196385917731
30
0
0
SPLINE
5
116
100
AcDbEntity
8
1
62
256
6
ByLayer
370
18
48
1
60
0
100
AcDbSpline
70
4
71
3
72
14
73
10
40
0
40
0
40
0
40
0
40
0.25
40
0.25
40
0.5
40
0.5
40
0.75
40
0.75
40
1
40
1
40
1
40
1
41
1
10
19.4015057121002
20
-8.25445887518853
30
0
41
1
10
19.6182919362112
20
-8.34144047443266
30
0
41
1
10
19.8349742266986
20
-8.42546017763081
30
0
41
1
10
20.267598653412
20
-8.58793220776391
30
0
41
1
10
20.4834384098569
20
-8.66644420659443
30
0
41
1
10
20.9153684167013
20
-8.8170991501336
30
0
41
1
10
21.1314757317078
20
-8.88923472736136
30
0
41
1
10
21.5647047556054
20
-9.02670081585234
30
0
41
1
10
21.7817976929166
20
-9.09204430809046
30
0
41
1
10
22.0000000000001
20
-9.15370848746053
30
0
0
SPLINE
5
117
100
AcDbEntity
8
1
62
256
6
ByLayer
370
18
48
1
60
0
100
AcDbSpline
70
4
71
3
72
8
73
4
40
0
40
0
40
0
40
0
40
1
40
1
40
1
40
1
41
1
10
19.4015113960629
20
-8.2544542020421
30
0
41
1
10
19.4103491220107
20
-8.24610035272391
30
0
41
1
10
19.4194079075824
20
-8.23779650557245
30
0
41
1
10
19.4286823037926
20
-8.22954222153649
30
0
0
SPLINE
5
118
100
AcDbEntity
8
1
62
256
6
ByLayer
370
18
48
1
60
0
100
AcDbSpline
70
4
71
3
72
42
73
38
40
0
40
0
40
0
40
0
40
0.0625000000000007
40
0.0625000000000007
40
0.125000000000001
40
0.125000000000001
40
0.156250000000002
40
0.156250000000002
40
0.187500000000002
40
0.187500000000002
40
0.250000000000004
40
0.250000000000004
40
0.281250000000004
40
0.281250000000004
40
0.312500000000004
40
0.312500000000004
40
0.375000000000006
40
0.375000000000006
40
0.437500000000007
40
0.437500000000007
40
0.468750000000007
40
0.468750000000007
40
0.500000000000008
40
0.562500000000008
40
0.562500000000008
40
0.593750000000007
40
0.593750000000007
40
0.625000000000007
40
0.625000000000007
40
0.750000000000004
40
0.750000000000004
40
0.781250000000004
40
0.781250000000004
40
0.812500000000004
40
0.875000000000003
40
0.875000000000003
40
1
40
1
40
1
40
1
41
1
10
16.900340311846
20
-0.659778816690988
30
0
41
1
10
16.8973589494976
20
-0.487644124585557
30
0
41
1
10
16.8899585140495
20
-0.315805956311152
30
0
41
1
10
16.8682432431098
20
0.0274119544612574
30
0
41
1
10
16.8539152139964
20
0.198790772433966
30
0
41
1
10
16.8280923022134
20
0.455575092249518
30
0
41
1
10
16.8187541387863
20
0.54115654601884
30
0
41
1
10
16.798741932875
20
0.712080491129854
30
0
41
1
10
16.7880816718203
20
0.797309857379446
30
0
41
1
10
16.7542750760059
20
1.05232474868436
30
0
41
1
10
16.7293111875983
20
1.22143861039456
30
0
41
1
10
16.6885924099431
20
1.47383069563361
30
0
41
1
10
16.6744717593991
20
1.55774785874115
30
0
41
1
10
16.6451727865892
20
1.72516163806699
30
0
41
1
10
16.6299855502746
20
1.80870468786148
30
0
41
1
10
16.5829412296714
20
2.05836003144796
30
0
41
1
10
16.5496391638876
20
2.22334235875004
30
0
41
1
10
16.4793115852118
20
2.55046939230704
30
0
41
1
10
16.4422850539365
20
2.71261379926341
30
0
41
1
10
16.3839587713504
20
2.95372038561626
30
0
41
1
10
16.3640392120518
20
3.03378333926733
30
0
41
1
10
16.3233316132659
20
3.1929233627377
30
0
41
1
10
16.2609663756008
20
3.43016232328571
30
0
41
1
10
16.1946631287422
20
3.66302214592528
30
0
41
1
10
16.1256277349129
20
3.89297542673245
30
0
41
1
10
16.1021598007858
20
3.9691417443388
30
0
41
1
10
16.0542845673343
20
4.12050288440352
30
0
41
1
10
16.0298649897094
20
4.19573318210934
30
0
41
1
10
15.905590543185
20
4.56869360072167
30
0
41
1
10
15.7991361865383
20
4.85730326486765
30
0
41
1
10
15.6557648965959
20
5.20586293947952
30
0
41
1
10
15.6265615652982
20
5.27498444888056
30
0
41
1
10
15.5672331637059
20
5.41162153228797
30
0
41
1
10
15.4768013192484
20
5.61430637940262
30
0
41
1
10
15.3818621652318
20
5.81021823157121
30
0
41
1
10
15.1853548531773
20
6.19305361464328
30
0
41
1
10
15.0455621592729
20
6.43631039514108
30
0
41
1
10
14.8947803106068
20
6.66747690779772
30
0
0
SPLINE
5
119
100
AcDbEntity
8
1
62
256
6
ByLayer
370
18
48
1
60
0
100
AcDbSpline
70
4
71
3
72
38
73
34
40
0
40
0
40
0
40
0
40
0.125000000000052
40
0.125000000000052
40
0.250000000000105
40
0.250000000000105
40
0.281250000000118
40
0.281250000000118
40
0.312500000000131
40
0.312500000000131
40
0.375000000000146
40
0.375000000000146
40
0.437500000000161
40
0.437500000000161
40
0.468750000000169
40
0.468750000000169
40
0.484375000000172
40
0.484375000000172
40
0.500000000000176
40
0.625000000000142
40
0.625000000000142
40
0.656250000000132
40
0.656250000000132
40
0.687500000000121
40
0.750000000000094
40
0.750000000000094
40
0.781250000000081
40
0.781250000000081
40
0.812500000000068
40
0.812500000000068
40
0.875000000000045
40
0.875000000000045
40
1
40
1
40
1
40
1
41
1
10
14.3787468794228
20
-2.62423240622709
30
0
41
1
10
14.5281988020422
20
-2.62007158232478
30
0
41
1
10
14.6769541817405
20
-2.61060044134175
30
0
41
1
10
14.9725962054601
20
-2.57737779579395
30
0
41
1
10
15.1194890840947
20
-2.55367628784146
30
0
41
1
10
15.301464490383
20
-2.51145024516578
30
0
41
1
10
15.3377737706463
20
-2.50236443523889
30
0
41
1
10
15.409725806604
20
-2.4829291306537
30
0
41
1
10
15.4454269098967
20
-2.47256679445087
30
0
41
1
10
15.5516472824348
20
-2.43940526889608
30
0
41
1
10
15.6212857817205
20
-2.41453708277305
30
0
41
1
10
15.7578551773879
20
-2.35841118000869
30
0
41
1
10
15.824786705368
20
-2.32715515288186
30
0
41
1
10
15.9228283596015
20
-2.27468213297439
30
0
41
1
10
15.9551156466424
20
-2.25625793906707
30
0
41
1
10
16.0029092332082
20
-2.22710460172607
30
0
41
1
10
16.0187157982796
20
-2.21714383053111
30
0
41
1
10
16.049903135501
20
-2.19683628437161
30
0
41
1
10
16.1885529794892
20
-2.10358533233372
30
0
41
1
10
16.3117700618947
20
-1.99330498616169
30
0
41
1
10
16.4325808304228
20
-1.85270126678432
30
0
41
1
10
16.4560002289873
20
-1.82358844252869
30
0
41
1
10
16.5006553834146
20
-1.76431473008981
30
0
41
1
10
16.5645510786804
20
-1.67364313251318
30
0
41
1
10
16.6196788584808
20
-1.57793758703474
30
0
41
1
10
16.6695467837634
20
-1.47917038820535
30
0
41
1
10
16.6852919842831
20
-1.44573729391897
30
0
41
1
10
16.7151156036828
20
-1.37789379539294
30
0
41
1
10
16.7292067573982
20
-1.34344971412318
30
0
41
1
10
16.7690213669355
20
-1.23892884047106
30
0
41
1
10
16.7920546056048
20
-1.16832573975185
30
0
41
1
10
16.8522813692628
20
-0.954135405398603
30
0
41
1
10
16.8806869940646
20
-0.808187274472232
30
0
41
1
10
16.900340311846
20
-0.659778816690988
30
0
0
SPLINE
5
11A
100
AcDbEntity
8
1
62
256
6
ByLayer
370
18
48
1
60
0
100
AcDbSpline
70
4
71
3
72
20
73
16
40
0
40
0
40
0
40
0
40
0.07716814331099
40
0.15429176834172
40
0.231371913802921
40
0.308409603623125
40
0.385405846992516
40
0.462361638409435
40
0.539277957729379
40
0.616155770216486
40
0.692996026597368
40
0.769799663117494
40
0.846567601599843
40
0.923300749506089
40
1
40
1
40
1
40
1
41
1
10
19.9769720421231
20
9.79486751847901
30
0
41
1
10
19.9672654074946
20
9.79397805661111
30
0
41
1
10
19.9478577379923
20
9.79219964600566
30
0
41
1
10
19.9188579780652
20
9.7898320178104
30
0
41
1
10
19.8899509024701
20
9.78768349838589
30
0
41
1
10
19.8611439016827
20
9.78577438056683
30
0
41
1
10
19.8324350021245
20
9.78409765857052
30
0
41
1
10
19.803824734316
20
9.78265362047151
30
0
41
1
10
19.7753129717711
20
9.7814406289676
30
0
41
1
10
19.7468997164167
20
9.78045743340459
30
0
41
1
10
19.7185851153765
20
9.77970313417288
30
0
41
1
10
19.6903686095886
20
9.77917501719043
30
0
41
1
10
19.6622523200738
20
9.77887724601504
30
0
41
1
10
19.6342283623682
20
9.77878828063814
30
0
41
1
10
19.6156228632527
20
9.77891774479389
30
0
41
1
10
19.6063221689267
20
9.77898246257067
30
0
0
SPLINE
5
11B
100
AcDbEntity
8
1
62
256
6
ByLayer
370
18
48
1
60
0
100
AcDbSpline
70
4
71
3
72
36
73
32
40
0
40
0
40
0
40
0
40
0.0241282146041386
40
0.0525835799671523
40
0.081038945330166
40
0.10949431069318
40
0.137949676056193
40
0.166405041419207
40
0.223315772145235
40
0.251771137508248
40
0.280226502871262
40
0.308681868234276
40
0.33713723359729
40
0.394047964323317
40
0.422503329686331
40
0.450958695049344
40
0.507869425775372
40
0.536324791138386
40
0.5647801565014
40
0.593235521864413
40
0.621690887227427
40
0.650146252590441
40
0.678601617953454
40
0.735512348679482
40
0.792423079405509
40
0.820878444768523
40
0.849333810131537
40
0.877789175494551
40
0.906244540857564
40
0.963155271583592
40
1
40
1
40
1
40
1
41
1
10
19.6063221689268
20
9.77898246257067
30
0
41
1
10
19.7825793394727
20
9.74757818355394
30
0
41
1
10
20.1666620583387
20
9.67190268149011
30
0
41
1
10
20.7584436437362
20
9.53120789729778
30
0
41
1
10
21.3816504384387
20
9.35605058127493
30
0
41
1
10
22.0046747169602
20
9.1544664598737
30
0
41
1
10
22.6274971529596
20
8.92708534965024
30
0
41
1
10
23.4576439119748
20
8.59028290877171
30
0
41
1
10
24.2874665002532
20
8.20453599519479
30
0
41
1
10
25.1171267808919
20
7.77321841177914
30
0
41
1
10
25.7393296604346
20
7.42777787582313
30
0
41
1
10
26.3615318325949
20
7.06134617579786
30
0
41
1
10
27.1911807065279
20
6.54613127538482
30
0
41
1
10
28.0209410930672
20
5.99320035986469
30
0
41
1
10
28.850895627379
20
5.40709485932447
30
0
41
1
10
29.6809836279021
20
4.80044328977851
30
0
41
1
10
30.5112546892062
20
4.16567840608886
30
0
41
1
10
31.3416653653019
20
3.50817664146757
30
0
41
1
10
31.9645283730428
20
3.00505329454575
30
0
41
1
10
32.587435340255
20
2.49340695146472
30
0
41
1
10
33.2103721520826
20
1.97469326055082
30
0
41
1
10
33.8332911623803
20
1.45040003796149
30
0
41
1
10
34.6639237728143
20
0.745769770776121
30
0
41
1
10
35.7028214964595
20
-0.142068901309301
30
0
41
1
10
36.7436732646768
20
-1.03015306526737
30
0
41
1
10
37.578210685509
20
-1.73533694655754
30
0
41
1
10
38.2052032681647
20
-2.26019437015489
30
0
41
1
10
38.8334631072785
20
-2.77961927926302
30
0
41
1
10
39.6730453518198
20
-3.46306511738388
30
0
41
1
10
40.577948377212
20
-4.1791592920826
30
0
41
1
10
41.27567271572
20
-4.70843228616599
30
0
41
1
10
41.5504739890301
20
-4.91282210906871
30
0
0
SPLINE
5
11C
100
AcDbEntity
8
1
62
256
6
ByLayer
370
18
48
1
60
0
100
AcDbSpline
70
4
71
3
72
9
73
5
40
0
40
0
40
0
40
0
40
0.499853592098568
40
1
40
1
40
1
40
1
41
1
10
19.5752828202167
20
9.77206851014654
30
0
41
1
10
19.5804501280928
20
9.77320487243045
30
0
41
1
10
19.5907877708701
20
9.77547826268292
30
0
41
1
10
19.6011430255162
20
9.77781416794434
30
0
41
1
10
19.6063221689303
20
9.77898246257004
30
0
0
SPLINE
5
11D
100
AcDbEntity
8
1
62
256
6
ByLayer
370
18
48
1
60
0
100
AcDbSpline
70
4
71
3
72
12
73
8
40
0
40
0
40
0
40
0
40
0.25
40
0.25
40
0.5
40
0.5
40
1
40
1
40
1
40
1
41
1
10
19.5752754966396
20
9.77206690650939
30
0
41
1
10
19.7773607518204
20
9.73548591650481
30
0
41
1
10
19.9793369871431
20
9.6945848075317
30
0
41
1
10
20.3828349409223
20
9.6040592722359
30
0
41
1
10
20.5844107980103
20
9.55444211976774
30
0
41
1
10
21.1897152291456
20
9.39286248424702
30
0
41
1
10
21.5939566154826
20
9.26816873922181
30
0
41
1
10
22.0000000000002
20
9.12688549467057
30
0
0
SPLINE
5
11E
100
AcDbEntity
8
1
62
256
6
ByLayer
370
18
48
1
60
0
100
AcDbSpline
70
4
71
1
72
4
73
2
40
0
40
0
40
1
40
1
41
1
10
21.9999998984293
20
9.12688549607381
30
0
41
1
10
22.0000001015708
20
9.12625762146772
30
0
0
SPLINE
5
11F
100
AcDbEntity
8
1
62
256
6
ByLayer
370
18
48
1
60
0
100
AcDbSpline
70
4
71
3
72
46
73
42
40
0
40
0
40
0
40
0
40
0.125000000000005
40
0.125000000000005
40
0.140625000000005
40
0.140625000000005
40
0.156250000000006
40
0.187500000000007
40
0.187500000000007
40
0.250000000000009
40
0.250000000000009
40
0.312500000000011
40
0.312500000000011
40
0.375000000000012
40
0.375000000000012
40
0.406250000000014
40
0.406250000000014
40
0.421875000000014
40
0.421875000000014
40
0.437500000000014
40
0.437500000000014
40
0.500000000000014
40
0.500000000000014
40
0.562500000000013
40
0.562500000000013
40
0.625000000000013
40
0.625000000000013
40
0.687500000000012
40
0.687500000000012
40
0.718750000000012
40
0.726562500000012
40
0.726562500000012
40
0.734375000000012
40
0.734375000000012
40
0.750000000000011
40
0.750000000000011
40
0.875000000000006
40
0.875000000000006
40
0.937500000000003
40
0.937500000000003
40
1
40
1
40
1
40
1
41
1
10
22.0000000000002
20
9.12625762288363
30
0
41
1
10
22.8174462698732
20
8.84087354962097
30
0
41
1
10
23.6306889642698
20
8.49022023235304
30
0
41
1
10
24.5494648377018
20
8.02772808499114
30
0
41
1
10
24.6516662063364
20
7.97536134691319
30
0
41
1
10
24.8558899422509
20
7.86891483809794
30
0
41
1
10
25.1618510173548
20
7.70673451299101
30
0
41
1
10
25.4668293286595
20
7.53716830622261
30
0
41
1
10
26.0758349021623
20
7.18856598558065
30
0
41
1
10
26.4805780563941
20
6.94354457827157
30
0
41
1
10
27.2892980328745
20
6.43008503821767
30
0
41
1
10
27.6932544713865
20
6.16163721033189
30
0
41
1
10
28.5021782866294
20
5.6029032441871
30
0
41
1
10
28.9071513450041
20
5.31260114013517
30
0
41
1
10
29.5168183222859
20
4.86193805001597
30
0
41
1
10
29.7204083680197
20
4.70918385899529
30
0
41
1
10
30.0265293239132
20
4.47639615850912
30
0
41
1
10
30.1287717630231
20
4.39812899459554
30
0
41
1
10
30.3328694113887
20
4.24091170991807
30
0
41
1
10
30.4347803828554
20
4.1619200033322
30
0
41
1
10
30.9437229261853
20
3.76513867759928
30
0
41
1
10
31.3489274306419
20
3.44188859498627
30
0
41
1
10
32.1572644369642
20
2.78596724528208
30
0
41
1
10
32.5603742042453
20
2.4532823658885
30
0
41
1
10
33.3662579076518
20
1.78054822240424
30
0
41
1
10
33.7690415211055
20
1.44049358805339
30
0
41
1
10
34.5761725326138
20
0.755174167435342
30
0
41
1
10
34.9805145975298
20
0.409913628061872
30
0
41
1
10
35.5896030698712
20
-0.110274787856071
30
0
41
1
10
35.8439271736927
20
-0.327499044629377
30
0
41
1
10
36.0991111094777
20
-0.545115209724202
30
0
41
1
10
36.2012572914679
20
-0.632188911016556
30
0
41
1
10
36.2523588118205
20
-0.675732643628123
30
0
41
1
10
36.4054939109477
20
-0.806156712338947
30
0
41
1
10
36.5074510306659
20
-0.892909166744857
30
0
41
1
10
37.4239989494566
20
-1.67177144145768
30
0
41
1
10
38.2310902879477
20
-2.35056837287021
30
0
41
1
10
39.4414345577086
20
-3.3365524458315
30
0
41
1
10
39.844832599582
20
-3.65984432211698
30
0
41
1
10
40.653382646521
20
-4.29355047495758
30
0
41
1
10
41.0585348993316
20
-4.60396223521943
30
0
41
1
10
41.465507179657
20
-4.90677914798823
30
0
0
SPLINE
5
120
100
AcDbEntity
8
1
62
256
6
ByLayer
370
18
48
1
60
0
100
AcDbSpline
70
4
71
3
72
18
73
14
40
0
40
0
40
0
40
0
40
0.174305771939069
40
0.314234946129181
40
0.420644996046467
40
0.506388413199663
40
0.580774783447824
40
0.629505780520741
40
0.682944964271217
40
0.742820675905698
40
0.817788936211974
40
0.915868518168443
40
1
40
1
40
1
40
1
41
1
10
33.6436602711978
20
-8.79416697730522
30
0
41
1
10
34.0186220569992
20
-8.78873145800469
30
0
41
1
10
34.6876025835908
20
-8.77304216911682
30
0
41
1
10
35.5813017239559
20
-8.73745100900672
30
0
41
1
10
36.2554721450919
20
-8.70107613581717
30
0
41
1
10
36.8039473086707
20
-8.6648971832708
30
0
41
1
10
37.2598706402666
20
-8.63469276214556
30
0
41
1
10
37.6448204486363
20
-8.60724494756968
30
0
41
1
10
37.9973154184532
20
-8.57862213295488
30
0
41
1
10
38.3993026677729
20
-8.54386844831555
30
0
41
1
10
38.8924530445638
20
-8.49794334298977
30
0
41
1
10
39.4348188295473
20
-8.4433368367587
30
0
41
1
10
39.8179088398373
20
-8.40048954256071
30
0
41
1
10
39.9945093165511
20
-8.37991251660767
30
0
0
SPLINE
5
121
100
AcDbEntity
8
1
62
256
6
ByLayer
370
18
48
1
60
0
100
AcDbSpline
70
4
71
3
72
22
73
18
40
0
40
0
40
0
40
0
40
0.0458717359027125
40
0.103017949586638
40
0.180572698681052
40
0.267703124297822
40
0.346661141632099
40
0.407902220966222
40
0.455423499447487
40
0.511230347686283
40
0.579909320647296
40
0.656543097909744
40
0.710666331832695
40
0.767369627202972
40
0.82514611385426
40
0.909529073235253
40
1
40
1
40
1
40
1
41
1
10
37.4284482586191
20
5.88746786255561
30
0
41
1
10
37.3196834394773
20
5.91199568350686
30
0
41
1
10
37.0717054410312
20
5.96867862951154
30
0
41
1
10
36.6231818313104
20
6.07211933238907
30
0
41
1
10
36.0464607125956
20
6.21569906731469
30
0
41
1
10
35.4285511589354
20
6.37851640354063
30
0
41
1
10
34.8529032104107
20
6.52895717531527
30
0
41
1
10
34.369583104162
20
6.65542591049223
30
0
41
1
10
33.9511964040245
20
6.76522277384629
30
0
41
1
10
33.5098857835107
20
6.88236125655553
30
0
41
1
10
32.9950671359286
20
7.02049914716429
30
0
41
1
10
32.4883485242877
20
7.15721697367854
30
0
41
1
10
32.0175846718515
20
7.28337226532784
30
0
41
1
10
31.600031027993
20
7.39385315992593
30
0
41
1
10
31.1077734257648
20
7.52066198840487
30
0
41
1
10
30.4959427272805
20
7.69215833331398
30
0
41
1
10
30.0876940365986
20
7.8063872535422
30
0
41
1
10
29.8828857144402
20
7.86470597565133
30
0
0
SPLINE
5
122
100
AcDbEntity
8
1
62
256
6
ByLayer
370
18
48
1
60
0
100
AcDbSpline
70
4
71
3
72
10
73
6
40
0
40
0
40
0
40
0
40
0.478655224621657
40
0.823850091554021
40
1
40
1
40
1
40
1
41
1
10
27.7920620366909
20
8.30326794443349
30
0
41
1
10
27.5417196020892
20
8.33935190447795
30
0
41
1
10
27.1207607515944
20
8.3976059924984
30
0
41
1
10
26.6230966773608
20
8.46109604700067
30
0
41
1
10
26.3763354542257
20
8.49088746999485
30
0
41
1
10
26.2929923083393
20
8.50068954420254
30
0
0
LINE
5
77
100
AcDbEntity
8
80
62
256
6
ByLayer
370
18
48
1
60
0
100
AcDbLine
10
0
20
0
30
0
11
-5
21
0
31
0
39
0
210
0
220
0
230
1
0
LINE
5
78
100
AcDbEntity
8
SK4
62
256
6
ByLayer
370
18
48
0.05
60
0
100
AcDbLine
10
-50
20
0
30
0
11
42
21
0
31
0
39
0
210
0
220
0
230
1
0
LINE
5
7A
100
AcDbEntity
8
81
62
256
6
ByLayer
370
18
48
1
60
0
100
AcDbLine
10
42
20
0
30
0
11
47
21
0
31
0
39
0
210
0
220
0
230
1
0
LINE
5
7B
100
AcDbEntity
8
4
62
256
6
ByLayer
370
18
48
0.05
60
0
100
AcDbLine
10
0
20
0
30
0
11
42
21
0
31
0
39
0
210
0
220
0
230
1
0
LINE
5
7D
100
AcDbEntity
8
1
62
256
6
ByLayer
370
18
48
1
60
0
100
AcDbLine
10
0
20
10
30
0
11
0
21
0
31
0
39
0
210
0
220
0
230
1
0
LINE
5
7E
100
AcDbEntity
8
1
62
256
6
ByLayer
370
18
48
1
60
0
100
AcDbLine
10
0
20
0
30
0
11
0
21
-10
31
0
39
0
210
0
220
0
230
1
0
LINE
5
7F
100
AcDbEntity
8
1
62
256
6
ByLayer
370
18
48
1
60
0
100
AcDbLine
10
41.992459
20
-5.468279
30
0
11
41.780443
21
-6.690116
31
0
39
0
210
0
220
0
230
1
0
LINE
5
80
100
AcDbEntity
8
1
62
256
6
ByLayer
370
18
48
1
60
0
100
AcDbLine
10
41.839946
20
-2.03985
30
0
11
41.862506
21
-2.54699
31
0
39
0
210
0
220
0
230
1
0
LINE
5
81
100
AcDbEntity
8
1
62
256
6
ByLayer
370
18
48
1
60
0
100
AcDbLine
10
41.963781
20
-4.823627
30
0
11
41.992459
21
-5.468279
31
0
39
0
210
0
220
0
230
1
0
LINE
5
82
100
AcDbEntity
8
1
62
256
6
ByLayer
370
18
48
1
60
0
100
AcDbLine
10
41.610563
20
-0.630951
30
0
11
41.717703
21
-0.647046
31
0
39
0
210
0
220
0
230
1
0
LINE
5
83
100
AcDbEntity
8
1
62
256
6
ByLayer
370
18
48
1
60
0
100
AcDbLine
10
41.719219
20
9.970914
30
0
11
41.992459
21
9.70051
31
0
39
0
210
0
220
0
230
1
0
LINE
5
84
100
AcDbEntity
8
1
62
256
6
ByLayer
370
18
48
1
60
0
100
AcDbLine
10
41.717703
20
-0.647046
30
0
11
41.992459
21
9.70051
31
0
39
0
210
0
220
0
230
1
0
LINE
5
85
100
AcDbEntity
8
1
62
256
6
ByLayer
370
18
48
1
60
0
100
AcDbLine
10
41.780443
20
-6.690116
30
0
11
41.661166
21
-6.966643
31
0
39
0
210
0
220
0
230
1
0
LINE
5
86
100
AcDbEntity
8
1
62
256
6
ByLayer
370
18
48
1
60
0
100
AcDbLine
10
41.780443
20
-6.690116
30
0
11
41.702685
21
-4.917643
31
0
39
0
210
0
220
0
230
1
0
LINE
5
87
100
AcDbEntity
8
1
62
256
6
ByLayer
370
13
48
1
60
0
100
AcDbLine
10
15.229056
20
-9.926896
30
0
11
15.685883
21
-9.636705
31
0
39
0
210
0
220
0
230
1
0
LINE
5
88
100
AcDbEntity
8
1
62
256
6
ByLayer
370
18
48
1
60
0
100
AcDbLine
10
39.529957
20
-7.385667
30
0
11
41.063117
21
-4.598425
31
0
39
0
210
0
220
0
230
1
0
LINE
5
89
100
AcDbEntity
8
1
62
256
6
ByLayer
370
18
48
1
60
0
100
AcDbLine
10
41.832942
20
-2.093242
30
0
11
41.839946
21
-2.03985
31
0
39
0
210
0
220
0
230
1
0
LINE
5
8A
100
AcDbEntity
8
1
62
256
6
ByLayer
370
18
48
1
60
0
100
AcDbLine
10
41.823986
20
-2.029582
30
0
11
41.839946
21
-2.03985
31
0
39
0
210
0
220
0
230
1
0
LINE
5
8B
100
AcDbEntity
8
1
62
256
6
ByLayer
370
13
48
1
60
0
100
AcDbLine
10
38.479547
20
-2.705259
30
0
11
36.073426
21
-4.294205
31
0
39
0
210
0
220
0
230
1
0
LINE
5
8C
100
AcDbEntity
8
1
62
256
6
ByLayer
370
18
48
1
60
0
100
AcDbLine
10
22
20
3.447764
30
0
11
22
21
3.720072
31
0
39
0
210
0
220
0
230
1
0
LINE
5
8D
100
AcDbEntity
8
1
62
256
6
ByLayer
370
18
48
1
60
0
100
AcDbLine
10
41.838912
20
-2.135624
30
0
11
41.992459
21
-4.812696
31
0
39
0
210
0
220
0
230
1
0
LINE
5
8E
100
AcDbEntity
8
1
62
256
6
ByLayer
370
18
48
1
60
0
100
AcDbLine
10
41.636589
20
-0.698166
30
0
11
41.838912
21
-2.135624
31
0
39
0
210
0
220
0
230
1
0
LINE
5
8F
100
AcDbEntity
8
1
62
256
6
ByLayer
370
18
48
1
60
0
100
AcDbLine
10
41.716505
20
-4.918039
30
0
11
41.992459
21
-4.812696
31
0
39
0
210
0
220
0
230
1
0
LINE
5
90
100
AcDbEntity
8
1
62
256
6
ByLayer
370
18
48
1
60
0
100
AcDbLine
10
41.992459
20
-4.812696
30
0
11
41.780443
21
-3.222183
31
0
39
0
210
0
220
0
230
1
0
LINE
5
91
100
AcDbEntity
8
1
62
256
6
ByLayer
370
18
48
1
60
0
100
AcDbLine
10
22
20
3.720072
30
0
11
22
21
8.546794
31
0
39
0
210
0
220
0
230
1
0
LINE
5
92
100
AcDbEntity
8
1
62
256
6
ByLayer
370
18
48
1
60
0
100
AcDbLine
10
41.780443
20
-3.222183
30
0
11
41.655288
21
-2.950235
31
0
39
0
210
0
220
0
230
1
0
LINE
5
93
100
AcDbEntity
8
1
62
256
6
ByLayer
370
18
48
1
60
0
100
AcDbLine
10
41.780443
20
-3.222183
30
0
11
41.636589
21
-0.698166
31
0
39
0
210
0
220
0
230
1
0
LINE
5
94
100
AcDbEntity
8
1
62
256
6
ByLayer
370
18
48
1
60
0
100
AcDbLine
10
39.476839
20
4.87933
30
0
11
41.636589
21
-0.698166
31
0
39
0
210
0
220
0
230
1
0
LINE
5
95
100
AcDbEntity
8
1
62
256
6
ByLayer
370
18
48
1
60
0
100
AcDbLine
10
22
20
-6.502604
30
0
11
22
21
-7.181306
31
0
39
0
210
0
220
0
230
1
0
LINE
5
96
100
AcDbEntity
8
1
62
256
6
ByLayer
370
18
48
1
60
0
100
AcDbLine
10
22
20
-6.502604
30
0
11
22
21
-6.077785
31
0
39
0
210
0
220
0
230
1
0
LINE
5
97
100
AcDbEntity
8
1
62
256
6
ByLayer
370
18
48
1
60
0
100
AcDbLine
10
22
20
-2.970677
30
0
11
22
21
3.447764
31
0
39
0
210
0
220
0
230
1
0
LINE
5
98
100
AcDbEntity
8
1
62
256
6
ByLayer
370
18
48
1
60
0
100
AcDbLine
10
22
20
-6.077785
30
0
11
22
21
-2.970677
31
0
39
0
210
0
220
0
230
1
0
LINE
5
99
100
AcDbEntity
8
1
62
256
6
ByLayer
370
18
48
1
60
0
100
AcDbLine
10
22
20
9.126234
30
0
11
22
21
8.546794
31
0
39
0
210
0
220
0
230
1
0
LINE
5
9A
100
AcDbEntity
8
1
62
256
6
ByLayer
370
18
48
1
60
0
100
AcDbLine
10
22
20
9.126234
30
0
11
22
21
9.126258
31
0
39
0
210
0
220
0
230
1
0
LINE
5
9B
100
AcDbEntity
8
1
62
256
6
ByLayer
370
13
48
1
60
0
100
AcDbLine
10
20.832947
20
9.075641
30
0
11
22
21
8.546794
31
0
39
0
210
0
220
0
230
1
0
LINE
5
9C
100
AcDbEntity
8
1
62
256
6
ByLayer
370
13
48
1
60
0
100
AcDbLine
10
14.801485
20
6.982061
30
0
11
22
21
3.720072
31
0
39
0
210
0
220
0
230
1
0
LINE
5
9D
100
AcDbEntity
8
1
62
256
6
ByLayer
370
13
48
1
60
0
100
AcDbLine
10
14.387902
20
-3.0532
30
0
11
22
21
-6.502604
31
0
39
0
210
0
220
0
230
1
0
LINE
5
9E
100
AcDbEntity
8
1
62
256
6
ByLayer
370
13
48
1
60
0
100
AcDbLine
10
14.89478
20
6.667477
30
0
11
22
21
3.447764
31
0
39
0
210
0
220
0
230
1
0
LINE
5
9F
100
AcDbEntity
8
1
62
256
6
ByLayer
370
13
48
1
60
0
100
AcDbLine
10
14.378747
20
-2.624232
30
0
11
22
21
-6.077785
31
0
39
0
210
0
220
0
230
1
0
LINE
5
A0
100
AcDbEntity
8
1
62
256
6
ByLayer
370
18
48
1
60
0
100
AcDbLine
10
16.90034
20
-0.659779
30
0
11
22
21
-2.970677
31
0
39
0
210
0
220
0
230
1
0
LINE
5
A1
100
AcDbEntity
8
SK1
62
256
6
ByLayer
370
18
48
1
60
0
100
AcDbLine
10
-50
20
-9
30
0
11
-50
21
9
31
0
39
0
210
0
220
0
230
1
0
LINE
5
A3
100
AcDbEntity
8
SK1
62
256
6
ByLayer
370
18
48
1
60
0
100
AcDbLine
10
0
20
10
30
0
11
0
21
0
31
0
39
0
210
0
220
0
230
1
0
LINE
5
A4
100
AcDbEntity
8
SK1
62
256
6
ByLayer
370
18
48
1
60
0
100
AcDbLine
10
0
20
0
30
0
11
0
21
-10
31
0
39
0
210
0
220
0
230
1
0
LINE
5
A5
100
AcDbEntity
8
SK1
62
256
6
ByLayer
370
18
48
1
60
0
100
AcDbLine
10
-49
20
10
30
0
11
-49
21
-10
31
0
39
0
210
0
220
0
230
1
0
LINE
5
A6
100
AcDbEntity
8
SK1
62
256
6
ByLayer
370
18
48
1
60
0
100
AcDbLine
10
-30.5
20
8.2
30
0
11
-32.3
21
10
31
0
39
0
210
0
220
0
230
1
0
LINE
5
A7
100
AcDbEntity
8
SK1
62
256
6
ByLayer
370
18
48
1
60
0
100
AcDbLine
10
-17.7
20
10
30
0
11
-19.5
21
8.2
31
0
39
0
210
0
220
0
230
1
0
LINE
5
A8
100
AcDbEntity
8
SK1
62
256
6
ByLayer
370
18
48
1
60
0
100
AcDbLine
10
-30.5
20
8.2
30
0
11
-19.5
21
8.2
31
0
39
0
210
0
220
0
230
1
0
LINE
5
A9
100
AcDbEntity
8
1
62
256
6
ByLayer
370
18
48
1
60
0
100
AcDbLine
10
20.138082
20
10
30
0
11
0
21
10
31
0
39
0
210
0
220
0
230
1
0
LINE
5
AA
100
AcDbEntity
8
1
62
256
6
ByLayer
370
18
48
1
60
0
100
AcDbLine
10
0
20
-10
30
0
11
15.698372
21
-10
31
0
39
0
210
0
220
0
230
1
0
LINE
5
AB
100
AcDbEntity
8
1
62
256
6
ByLayer
370
18
48
1
60
0
100
AcDbLine
10
16.322152
20
-9.820432
30
0
11
17.086693
21
-9.334772
31
0
39
0
210
0
220
0
230
1
0
LINE
5
AC
100
AcDbEntity
8
SK1
62
256
6
ByLayer
370
18
48
1
60
0
100
AcDbLine
10
-50
20
-9
30
0
11
-49
21
-10
31
0
39
0
210
0
220
0
230
1
0
LINE
5
AD
100
AcDbEntity
8
SK1
62
256
6
ByLayer
370
18
48
1
60
0
100
AcDbLine
10
-49
20
10
30
0
11
-50
21
9
31
0
39
0
210
0
220
0
230
1
0
LINE
5
AE
100
AcDbEntity
8
SK1
62
256
6
ByLayer
370
18
48
1
60
0
100
AcDbLine
10
0
20
10
30
0
11
-17.7
21
10
31
0
39
0
210
0
220
0
230
1
0
LINE
5
AF
100
AcDbEntity
8
SK1
62
256
6
ByLayer
370
18
48
1
60
0
100
AcDbLine
10
-32.3
20
10
30
0
11
-49
21
10
31
0
39
0
210
0
220
0
230
1
0
LINE
5
B0
100
AcDbEntity
8
SK1
62
256
6
ByLayer
370
18
48
1
60
0
100
AcDbLine
10
-49
20
-10
30
0
11
0
21
-10
31
0
39
0
210
0
220
0
230
1
0
LINE
5
B1
100
AcDbEntity
8
SK2
62
256
6
ByLayer
370
18
48
1
60
0
100
AcDbLine
10
-57.25
20
10
30
0
11
-57.25
21
-28.930932
31
0
39
0
210
0
220
0
230
1
0
LINE
5
B3
100
AcDbEntity
8
SK2
62
256
6
ByLayer
370
18
48
1
60
0
100
AcDbLine
10
-50.5875
20
10
30
0
11
-59.25
21
10
31
0
39
0
210
0
220
0
230
1
0
LINE
5
B4
100
AcDbEntity
8
SK2
62
256
6
ByLayer
370
18
48
1
60
0
100
AcDbLine
10
-50.5875
20
-10
30
0
11
-59.25
21
-10
31
0
39
0
210
0
220
0
230
1
0
LINE
5
B5
100
AcDbEntity
8
1
62
256
6
ByLayer
370
18
48
1
60
1
100
AcDbLine
10
-57.25
20
10
30
0
11
-56.789216
21
6.500002
31
0
39
0
210
0
220
0
230
1
0
LINE
5
B6
100
AcDbEntity
8
1
62
256
6
ByLayer
370
18
48
1
60
1
100
AcDbLine
10
-56.789216
20
6.500002
30
0
11
-57.710784
21
6.499998
31
0
39
0
210
0
220
0
230
1
0
LINE
5
B7
100
AcDbEntity
8
1
62
256
6
ByLayer
370
18
48
1
60
1
100
AcDbLine
10
-57.710784
20
6.499998
30
0
11
-57.25
21
10
31
0
39
0
210
0
220
0
230
1
0
LINE
5
B8
100
AcDbEntity
8
1
62
256
6
ByLayer
370
18
48
1
60
1
100
AcDbLine
10
-57.25
20
-10
30
0
11
-57.710784
21
-6.500002
31
0
39
0
210
0
220
0
230
1
0
LINE
5
B9
100
AcDbEntity
8
1
62
256
6
ByLayer
370
18
48
1
60
1
100
AcDbLine
10
-57.710784
20
-6.500002
30
0
11
-56.789216
21
-6.499998
31
0
39
0
210
0
220
0
230
1
0
LINE
5
BA
100
AcDbEntity
8
1
62
256
6
ByLayer
370
18
48
1
60
1
100
AcDbLine
10
-56.789216
20
-6.499998
30
0
11
-57.25
21
-10
31
0
39
0
210
0
220
0
230
1
0
LINE
5
BB
100
AcDbEntity
8
2
62
256
6
ByLayer
370
18
48
1
60
0
100
AcDbLine
10
54
20
-10.0001
30
0
11
54
21
28.931032
31
0
39
0
210
0
220
0
230
1
0
LINE
5
BD
100
AcDbEntity
8
2
62
256
6
ByLayer
370
18
48
1
60
0
100
AcDbLine
10
43.5875
20
10.0001
30
0
11
56
21
10.0001
31
0
39
0
210
0
220
0
230
1
0
LINE
5
BE
100
AcDbEntity
8
2
62
256
6
ByLayer
370
18
48
1
60
0
100
AcDbLine
10
43.5875
20
-10.0001
30
0
11
56
21
-10.0001
31
0
39
0
210
0
220
0
230
1
0
LINE
5
BF
100
AcDbEntity
8
1
62
256
6
ByLayer
370
18
48
1
60
1
100
AcDbLine
10
54
20
10.0001
30
0
11
54.460784
21
6.500102
31
0
39
0
210
0
220
0
230
1
0
LINE
5
C0
100
AcDbEntity
8
1
62
256
6
ByLayer
370
18
48
1
60
1
100
AcDbLine
10
54.460784
20
6.500102
30
0
11
53.539216
21
6.500098
31
0
39
0
210
0
220
0
230
1
0
LINE
5
C1
100
AcDbEntity
8
1
62
256
6
ByLayer
370
18
48
1
60
1
100
AcDbLine
10
53.539216
20
6.500098
30
0
11
54
21
10.0001
31
0
39
0
210
0
220
0
230
1
0
LINE
5
C2
100
AcDbEntity
8
1
62
256
6
ByLayer
370
18
48
1
60
1
100
AcDbLine
10
54
20
-10.0001
30
0
11
53.539216
21
-6.500102
31
0
39
0
210
0
220
0
230
1
0
LINE
5
C3
100
AcDbEntity
8
1
62
256
6
ByLayer
370
18
48
1
60
1
100
AcDbLine
10
53.539216
20
-6.500102
30
0
11
54.460784
21
-6.500098
31
0
39
0
210
0
220
0
230
1
0
LINE
5
C4
100
AcDbEntity
8
1
62
256
6
ByLayer
370
18
48
1
60
1
100
AcDbLine
10
54.460784
20
-6.500098
30
0
11
54
21
-10.0001
31
0
39
0
210
0
220
0
230
1
0
LINE
5
C5
100
AcDbEntity
8
SK2
62
256
6
ByLayer
370
18
48
1
60
0
100
AcDbLine
10
42
20
-41.738094
30
0
11
-50
21
-41.738094
31
0
39
0
210
0
220
0
230
1
0
LINE
5
C6
100
AcDbEntity
8
SK2
62
256
6
ByLayer
370
18
48
1
60
0
100
AcDbLine
10
-50
20
-10.5875
30
0
11
-50
21
-43.738094
31
0
39
0
210
0
220
0
230
1
0
LINE
5
C7
100
AcDbEntity
8
SK2
62
256
6
ByLayer
370
18
48
1
60
0
100
AcDbLine
10
42
20
-11.5876
30
0
11
42
21
-43.738094
31
0
39
0
210
0
220
0
230
1
0
LINE
5
C8
100
AcDbEntity
8
1
62
256
6
ByLayer
370
18
48
1
60
1
100
AcDbLine
10
-50
20
-41.738094
30
0
11
-46.500002
21
-41.27731
31
0
39
0
210
0
220
0
230
1
0
LINE
5
C9
100
AcDbEntity
8
1
62
256
6
ByLayer
370
18
48
1
60
1
100
AcDbLine
10
-46.500002
20
-41.27731
30
0
11
-46.499998
21
-42.198878
31
0
39
0
210
0
220
0
230
1
0
LINE
5
CA
100
AcDbEntity
8
1
62
256
6
ByLayer
370
18
48
1
60
1
100
AcDbLine
10
-46.499998
20
-42.198878
30
0
11
-50
21
-41.738094
31
0
39
0
210
0
220
0
230
1
0
LINE
5
CB
100
AcDbEntity
8
1
62
256
6
ByLayer
370
18
48
1
60
1
100
AcDbLine
10
42
20
-41.738094
30
0
11
38.500002
21
-42.198878
31
0
39
0
210
0
220
0
230
1
0
LINE
5
CC
100
AcDbEntity
8
1
62
256
6
ByLayer
370
18
48
1
60
1
100
AcDbLine
10
38.500002
20
-42.198878
30
0
11
38.499998
21
-41.27731
31
0
39
0
210
0
220
0
230
1
0
LINE
5
CD
100
AcDbEntity
8
1
62
256
6
ByLayer
370
18
48
1
60
1
100
AcDbLine
10
38.499998
20
-41.27731
30
0
11
42
21
-41.738094
31
0
39
0
210
0
220
0
230
1
0
LINE
5
127
100
AcDbEntity
8
1
62
256
6
ByLayer
370
18
48
1
60
1
100
AcDbLine
10
-57.25
20
10
30
0
11
-56.789216
21
6.500002
31
0
39
0
210
0
220
0
230
1
0
LINE
5
128
100
AcDbEntity
8
1
62
256
6
ByLayer
370
18
48
1
60
1
100
AcDbLine
10
-56.789216
20
6.500002
30
0
11
-57.710784
21
6.499998
31
0
39
0
210
0
220
0
230
1
0
LINE
5
129
100
AcDbEntity
8
1
62
256
6
ByLayer
370
18
48
1
60
1
100
AcDbLine
10
-57.710784
20
6.499998
30
0
11
-57.25
21
10
31
0
39
0
210
0
220
0
230
1
0
LINE
5
12B
100
AcDbEntity
8
1
62
256
6
ByLayer
370
18
48
1
60
1
100
AcDbLine
10
-57.25
20
-10
30
0
11
-57.710784
21
-6.500002
31
0
39
0
210
0
220
0
230
1
0
LINE
5
12C
100
AcDbEntity
8
1
62
256
6
ByLayer
370
18
48
1
60
1
100
AcDbLine
10
-57.710784
20
-6.500002
30
0
11
-56.789216
21
-6.499998
31
0
39
0
210
0
220
0
230
1
0
LINE
5
12D
100
AcDbEntity
8
1
62
256
6
ByLayer
370
18
48
1
60
1
100
AcDbLine
10
-56.789216
20
-6.499998
30
0
11
-57.25
21
-10
31
0
39
0
210
0
220
0
230
1
0
LINE
5
131
100
AcDbEntity
8
1
62
256
6
ByLayer
370
18
48
1
60
1
100
AcDbLine
10
54
20
10.0001
30
0
11
54.460784
21
6.500102
31
0
39
0
210
0
220
0
230
1
0
LINE
5
132
100
AcDbEntity
8
1
62
256
6
ByLayer
370
18
48
1
60
1
100
AcDbLine
10
54.460784
20
6.500102
30
0
11
53.539216
21
6.500098
31
0
39
0
210
0
220
0
230
1
0
LINE
5
133
100
AcDbEntity
8
1
62
256
6
ByLayer
370
18
48
1
60
1
100
AcDbLine
10
53.539216
20
6.500098
30
0
11
54
21
10.0001
31
0
39
0
210
0
220
0
230
1
0
LINE
5
135
100
AcDbEntity
8
1
62
256
6
ByLayer
370
18
48
1
60
1
100
AcDbLine
10
54
20
-10.0001
30
0
11
53.539216
21
-6.500102
31
0
39
0
210
0
220
0
230
1
0
LINE
5
136
100
AcDbEntity
8
1
62
256
6
ByLayer
370
18
48
1
60
1
100
AcDbLine
10
53.539216
20
-6.500102
30
0
11
54.460784
21
-6.500098
31
0
39
0
210
0
220
0
230
1
0
LINE
5
137
100
AcDbEntity
8
1
62
256
6
ByLayer
370
18
48
1
60
1
100
AcDbLine
10
54.460784
20
-6.500098
30
0
11
54
21
-10.0001
31
0
39
0
210
0
220
0
230
1
0
LINE
5
13A
100
AcDbEntity
8
1
62
256
6
ByLayer
370
18
48
1
60
1
100
AcDbLine
10
-50
20
-41.738094
30
0
11
-46.500002
21
-41.27731
31
0
39
0
210
0
220
0
230
1
0
LINE
5
13B
100
AcDbEntity
8
1
62
256
6
ByLayer
370
18
48
1
60
1
100
AcDbLine
10
-46.500002
20
-41.27731
30
0
11
-46.499998
21
-42.198878
31
0
39
0
210
0
220
0
230
1
0
LINE
5
13C
100
AcDbEntity
8
1
62
256
6
ByLayer
370
18
48
1
60
1
100
AcDbLine
10
-46.499998
20
-42.198878
30
0
11
-50
21
-41.738094
31
0
39
0
210
0
220
0
230
1
0
LINE
5
13E
100
AcDbEntity
8
1
62
256
6
ByLayer
370
18
48
1
60
1
100
AcDbLine
10
42
20
-41.738094
30
0
11
38.500002
21
-42.198878
31
0
39
0
210
0
220
0
230
1
0
LINE
5
13F
100
AcDbEntity
8
1
62
256
6
ByLayer
370
18
48
1
60
1
100
AcDbLine
10
38.500002
20
-42.198878
30
0
11
38.499998
21
-41.27731
31
0
39
0
210
0
220
0
230
1
0
LINE
5
140
100
AcDbEntity
8
1
62
256
6
ByLayer
370
18
48
1
60
1
100
AcDbLine
10
38.499998
20
-41.27731
30
0
11
42
21
-41.738094
31
0
39
0
210
0
220
0
230
1
0
MTEXT
5
123
100
AcDbEntity
8
SK2
62
256
6
ByLayer
370
18
48
1
60
0
100
AcDbMText
10
-58.814634
20
-26.996089
30
0
210
0
220
0
230
1
1
%%c
40
3.5
41
0
44
1.084337
50
90
71
7
72
5
7
iso_b_vert
0
MTEXT
5
126
100
AcDbEntity
8
SK2
62
256
6
ByLayer
370
18
48
1
60
0
100
AcDbMText
10
-58.814634
20
-20.023432
30
0
210
0
220
0
230
1
1
\W0.6740;20
40
3.5
41
0
44
1.084337
50
90
71
7
72
5
7
iso_b_vert
0
MTEXT
5
12F
100
AcDbEntity
8
2
62
256
6
ByLayer
370
18
48
1
60
0
100
AcDbMText
10
52.435366
20
17.934944
30
0
210
0
220
0
230
1
1
%%c
40
3.5
41
0
44
1.084337
50
90
71
7
72
5
7
iso_b_vert
0
MTEXT
5
130
100
AcDbEntity
8
2
62
256
6
ByLayer
370
18
48
1
60
0
100
AcDbMText
10
52.435366
20
24.9076
30
0
210
0
220
0
230
1
1
\W0.6740;20
40
3.5
41
0
44
1.084337
50
90
71
7
72
5
7
iso_b_vert
0
MTEXT
5
139
100
AcDbEntity
8
SK2
62
256
6
ByLayer
370
18
48
1
60
0
100
AcDbMText
10
-5.904966
20
-40.705461
30
0
210
0
220
0
230
1
1
\W0.6740;92
40
3.5
41
0
44
1.084337
50
0
71
7
72
5
7
iso_b_vert
0
MTEXT
5
142
100
AcDbEntity
8
SK6
62
256
6
ByLayer
370
18
48
1
60
0
100
AcDbMText
10
-28.263741
20
-62.191894
30
0
210
0
220
0
230
1
1
\W0.6872;1K313-2000-XB       1730
40
3
41
0
44
1.084337
50
0
71
7
72
5
7
iso_b_vert
0
HATCH
5
12A
100
AcDbEntity
8
SK2
62
256
6
ByLayer
370
13
48
1
60
0
100
AcDbHatch
10
0
20
0
30
0
210
0
220
0
230
1
2
ANSI31
70
0
71
0
91
1
92
5
93
3
72
1
10
-57.2500000000001
20
9.99999999999991
11
-56.7892162584473
21
6.5000016925531
72
1
10
-56.7892162584473
20
6.5000016925531
11
-57.7107837415528
21
6.49999830744673
72
1
10
-57.7107837415528
20
6.49999830744673
11
-57.2500000000001
21
9.99999999999991
97
0
75
0
76
1
52
0
41
0.0062
77
0
78
1
53
45
43
0
44
0
45
-0.0139193969876572
46
0.0139193969876572
79
0
47
0
98
1
10
0
20
0
0
HATCH
5
12E
100
AcDbEntity
8
SK2
62
256
6
ByLayer
370
13
48
1
60
0
100
AcDbHatch
10
0
20
0
30
0
210
0
220
0
230
1
2
ANSI31
70
0
71
0
91
1
92
5
93
3
72
1
10
-57.2500000000001
20
-10.0000000000001
11
-57.7107837415528
21
-6.50000169255327
72
1
10
-57.7107837415528
20
-6.50000169255327
11
-56.7892162584473
21
-6.4999983074469
72
1
10
-56.7892162584473
20
-6.4999983074469
11
-57.2500000000001
21
-10.0000000000001
97
0
75
0
76
1
52
0
41
0.0062
77
0
78
1
53
45
43
0
44
0
45
-0.0139193969876572
46
0.0139193969876572
79
0
47
0
98
1
10
0
20
0
0
HATCH
5
134
100
AcDbEntity
8
2
62
256
6
ByLayer
370
13
48
1
60
0
100
AcDbHatch
10
0
20
0
30
0
210
0
220
0
230
1
2
ANSI31
70
0
71
0
91
1
92
5
93
3
72
1
10
54
20
10.0000999999998
11
54.4607837415528
21
6.50010169255302
72
1
10
54.4607837415528
20
6.50010169255302
11
53.5392162584472
21
6.50009830744665
72
1
10
53.5392162584472
20
6.50009830744665
11
54
21
10.0000999999998
97
0
75
0
76
1
52
0
41
0.0062
77
0
78
1
53
45
43
0
44
0
45
-0.0139193969876572
46
0.0139193969876572
79
0
47
0
98
1
10
0
20
0
0
HATCH
5
138
100
AcDbEntity
8
2
62
256
6
ByLayer
370
13
48
1
60
0
100
AcDbHatch
10
0
20
0
30
0
210
0
220
0
230
1
2
ANSI31
70
0
71
0
91
1
92
5
93
3
72
1
10
54
20
-10.0001000000002
11
53.5392162584472
21
-6.50010169255333
72
1
10
53.5392162584472
20
-6.50010169255333
11
54.4607837415528
21
-6.50009830744696
72
1
10
54.4607837415528
20
-6.50009830744696
11
54
21
-10.0001000000002
97
0
75
0
76
1
52
0
41
0.0062
77
0
78
1
53
45
43
0
44
0
45
-0.0139193969876572
46
0.0139193969876572
79
0
47
0
98
1
10
0
20
0
0
HATCH
5
13D
100
AcDbEntity
8
SK2
62
256
6
ByLayer
370
13
48
1
60
0
100
AcDbHatch
10
0
20
0
30
0
210
0
220
0
230
1
2
ANSI31
70
0
71
0
91
1
92
5
93
3
72
1
10
-50
20
-41.7380941278617
11
-46.5000016925532
21
-41.2773103863089
72
1
10
-46.5000016925532
20
-41.2773103863089
11
-46.4999983074468
21
-42.1988778694145
72
1
10
-46.4999983074468
20
-42.1988778694145
11
-50
21
-41.7380941278617
97
0
75
0
76
1
52
0
41
0.0062
77
0
78
1
53
45
43
0
44
0
45
-0.0139193969876572
46
0.0139193969876572
79
0
47
0
98
1
10
0
20
0
0
HATCH
5
141
100
AcDbEntity
8
SK2
62
256
6
ByLayer
370
13
48
1
60
0
100
AcDbHatch
10
0
20
0
30
0
210
0
220
0
230
1
2
ANSI31
70
0
71
0
91
1
92
5
93
3
72
1
10
42
20
-41.7380941278617
11
38.5000016925532
21
-42.1988778694145
72
1
10
38.5000016925532
20
-42.1988778694145
11
38.4999983074468
21
-41.2773103863089
72
1
10
38.4999983074468
20
-41.2773103863089
11
42
21
-41.7380941278617
97
0
75
0
76
1
52
0
41
0.0062
77
0
78
1
53
45
43
0
44
0
45
-0.0139193969876572
46
0.0139193969876572
79
0
47
0
98
1
10
0
20
0
0
DIMENSION
5
145
100
AcDbEntity
8
2
62
256
6
ByLayer
370
18
48
1
60
0
100
AcDbDimension
2
_U0
10
22
20
-25.738094
30
0
11
32
21
-25.738094
31
0
70
32
71
1
72
1
41
1
210
0
220
0
230
1
3
Standard
100
AcDbAlignedDimension
13
42
23
-10.0001
33
0
14
22
24
-10.0001
34
0
50
0
100
AcDbRotatedDimension
1001
ACAD
1000
DSTYLE
1002
{
1070
   371
1070
    13
1070
   372
1070
    13
1070
   170
1070
     0
1070
   144
1040
1.0
1070
   277
1070
     2
1070
   284
1070
     8
1070
   278
1070
    46
1070
   146
1040
1.0
1070
   345
1005
16
1070
   347
1005
16
1070
   346
1005
16
1070
   344
1005
0
1070
   343
1005
0
1070
   172
1070
     1
1070
    76
1070
     0
1070
    75
1070
     0
1070
   282
1070
     0
1070
   281
1070
     0
1070
    71
1070
     0
1070
    74
1070
     0
1070
   279
1070
     0
1070
   173
1070
     1
1070
   340
1005
124
1070
   271
1070
     2
1070
   272
1070
     2
1070
    77
1070
     1
1070
    73
1070
     1
1070
   171
1070
     3
1070
   274
1070
     4
1070
   177
1070
     2
1070
   176
1070
     2
1070
   178
1070
     2
1070
    78
1070
     8
1070
    48
1040
-0.1
1070
    41
1040
3.5
1070
   147
1040
1.75
1070
    42
1040
1.5875
1070
    44
1040
2.0
1070
   140
1040
3.5
1002
}
1001
ACAD_DSTYLE_DIM_LINETYPE
1070
   380
1005
16
1001
ACAD_DSTYLE_DIM_EXT1_LINETYPE
1070
   381
1005
16
1001
ACAD_DSTYLE_DIM_EXT2_LINETYPE
1070
   382
1005
16
0
ENDSEC
0
SECTION
2
OBJECTS
0
DICTIONARY
5
1ce
330
0
100
AcDbDictionary
280
0
281
1
3
ACAD_GROUP
350
1cf
3
ACAD_MLINESTYLE
350
1d0
0
DICTIONARY
5
1cf
330
0
100
AcDbDictionary
280
0
281
1
0
DICTIONARY
5
1d0
330
0
100
AcDbDictionary
280
0
281
1
3
Standard
350
18
0
MLINESTYLE
5
18
330
1d0
100
AcDbMlineStyle
2
Standard
70
0
3

62
256
51
90
52
90
71
2
49
-0.5
62
256
6
ByLayer
49
0.5
62
256
6
ByLayer
0
RASTERVARIABLES
5
1bc
330

100
AcDbRasterVariables
90
0
70
1
71
1
72
1
0
ENDSEC
0
EOF
