0
SECTION
2
HEADER
9
$ACADVER
1
AC1015
9
$DWGCODEPAGE
3
ANSI_1252
9
$HANDSEED
5
1e4
9
$ANGBASE
50
0
9
$ANGDIR
70
0
9
$ATTMODE
70
1
9
$AUNITS
70
0
9
$AUPREC
70
0
9
$CECOLOR
62
256
9
$CELTSCALE
40
1
9
$CELTYPE
6
ByLayer
9
$CELWEIGHT
370
18
9
$CLAYER
8
0
9
$CMLJUST
70
0
9
$CMLSCALE
40
1
9
$CMLSTYLE
2
Standard
9
$DIMSTYLE
2
Standard
9
$TEXTSIZE
40
0.2
9
$TEXTSTYLE
7
Standard
9
$LUNITS
70
2
9
$LUPREC
70
4
9
$EXTNAMES
290
1
9
$INSUNITS
70
4
9
$LTSCALE
40
1
9
$LWDISPLAY
290
1
9
$PDMODE
70
0
9
$PDSIZE
40
0
9
$PLINEGEN
70
0
0
ENDSEC
0
SECTION
2
CLASSES
0
CLASS
1
RASTERVARIABLES
2
AcDbRasterVariables
3
ISM
90
0
280
0
281
0
0
ENDSEC
0
SECTION
2
TABLES
0
TABLE
2
VPORT
5
1da
100
AcDbSymbolTable
0
VPORT
5
1
100
AcDbSymbolTableRecord
100
AcDbViewportTableRecord
2
*Active
70
0
10
0
20
0
11
1
21
1
12
-1
22
1
13
0
23
0
14
0.5
24
0.5
15
10
25
10
16
0
26
0
36
1
17
0
27
0
37
0
0
ENDTAB
0
TABLE
2
LTYPE
5
1db
100
AcDbSymbolTable
0
LTYPE
5
14
100
AcDbSymbolTableRecord
100
AcDbLinetypeTableRecord
70
0
2
ByBlock
3

72
65
73
0
40
0
0
LTYPE
5
15
100
AcDbSymbolTableRecord
100
AcDbLinetypeTableRecord
70
0
2
ByLayer
3

72
65
73
0
40
0
0
LTYPE
5
16
100
AcDbSymbolTableRecord
100
AcDbLinetypeTableRecord
70
0
2
Continuous
3
Solid line
72
65
73
0
40
0
0
LTYPE
5
6E
100
AcDbSymbolTableRecord
100
AcDbLinetypeTableRecord
70
0
2
CENTER
3
____ _ ____ _ ____ _ ____
72
65
73
4
40
47.5
49
22
74
0
49
-8.5
74
0
49
8.5
74
0
49
-8.5
74
0
0
LTYPE
5
6F
100
AcDbSymbolTableRecord
100
AcDbLinetypeTableRecord
70
0
2
DASHED
3
__ __ __ __ __ __ __ __ __
72
65
73
2
40
25.72
49
12.86
74
0
49
-12.86
74
0
0
ENDTAB
0
TABLE
2
LAYER
5
1dc
100
AcDbSymbolTable
0
LAYER
5
10
100
AcDbSymbolTableRecord
100
AcDbLayerTableRecord
2
0
70
0
62
7
6
Continuous
290
1
370
-3
390
0
0
LAYER
5
71
100
AcDbSymbolTableRecord
100
AcDbLayerTableRecord
2
81
70
0
62
-3
6
Continuous
290
1
370
-3
390
0
0
LAYER
5
73
100
AcDbSymbolTableRecord
100
AcDbLayerTableRecord
2
80
70
0
62
-6
6
Continuous
290
1
370
-3
390
0
0
LAYER
5
75
100
AcDbSymbolTableRecord
100
AcDbLayerTableRecord
2
1
70
0
62
4
6
Continuous
290
1
370
-3
390
0
0
LAYER
5
79
100
AcDbSymbolTableRecord
100
AcDbLayerTableRecord
2
4
70
0
62
-2
6
CENTER
290
1
370
-3
390
0
0
LAYER
5
B7
100
AcDbSymbolTableRecord
100
AcDbLayerTableRecord
2
2
70
0
62
7
6
Continuous
290
1
370
-3
390
0
0
LAYER
5
150
100
AcDbSymbolTableRecord
100
AcDbLayerTableRecord
2
Defpoints
70
0
62
7
6
Continuous
290
0
370
-3
390
0
0
LAYER
5
1c6
100
AcDbSymbolTableRecord
100
AcDbLayerTableRecord
2
SK4
70
0
62
2
6
CENTER
290
1
370
-3
390
0
0
LAYER
5
1c7
100
AcDbSymbolTableRecord
100
AcDbLayerTableRecord
2
SK1
70
0
62
4
6
Continuous
290
1
370
-3
390
0
0
LAYER
5
1c8
100
AcDbSymbolTableRecord
100
AcDbLayerTableRecord
2
SK2
70
0
62
7
6
Continuous
290
1
370
-3
390
0
0
LAYER
5
1c9
100
AcDbSymbolTableRecord
100
AcDbLayerTableRecord
2
SK6
70
0
62
5
6
Continuous
290
1
370
-3
390
0
0
ENDTAB
0
TABLE
2
STYLE
5
1dd
100
AcDbSymbolTable
0
STYLE
5
11
100
AcDbSymbolTableRecord
100
AcDbTextStyleTableRecord
2
Standard
3
txt
70
0
71
0
40
0
41
1
42
0
50
0
0
STYLE
5
12C
100
AcDbSymbolTableRecord
100
AcDbTextStyleTableRecord
2
iso_b_vert
3
simplex.shx
70
0
71
0
40
0
41
1
42
0
50
0
0
STYLE
5
12D
100
AcDbSymbolTableRecord
100
AcDbTextStyleTableRecord
2
DWGDirectTextStyle
3
simplex
70
0
71
0
40
0
41
1
42
0
50
0
0
ENDTAB
0
TABLE
2
DIMSTYLE
5
1de
100
AcDbSymbolTable
100
AcDbDimStyleTable
0
DIMSTYLE
105
27
100
AcDbSymbolTableRecord
100
AcDbDimStyleTableRecord
2
Standard
70
0
3
<>
41
0.18
42
0.0625
44
0.18
140
0.18
147
0.09
73
0
74
0
77
1
271
2
275
0
278
52
280
0
340
11
0
ENDTAB
0
TABLE
2
VIEW
5
1df
100
AcDbSymbolTable
0
ENDTAB
0
TABLE
2
UCS
5
1e0
100
AcDbSymbolTable
0
ENDTAB
0
TABLE
2
APPID
5
1e1
100
AcDbSymbolTable
0
APPID
5
12
100
AcDbSymbolTableRecord
100
AcDbRegAppTableRecord
2
ACAD
70
0
0
APPID
5
14C
100
AcDbSymbolTableRecord
100
AcDbRegAppTableRecord
2
ACAD_DSTYLE_DIMBREAK
70
0
0
APPID
5
185
100
AcDbSymbolTableRecord
100
AcDbRegAppTableRecord
2
ACAD_DSTYLE_DIM_LINETYPE
70
0
0
APPID
5
186
100
AcDbSymbolTableRecord
100
AcDbRegAppTableRecord
2
ACAD_DSTYLE_DIM_EXT1_LINETYPE
70
0
0
APPID
5
187
100
AcDbSymbolTableRecord
100
AcDbRegAppTableRecord
2
ACAD_DSTYLE_DIM_EXT2_LINETYPE
70
0
0
APPID
5
1C2
100
AcDbSymbolTableRecord
100
AcDbRegAppTableRecord
2
ACAD_MLEADERVER
70
0
0
ENDTAB
0
TABLE
2
BLOCK_RECORD
5
1e2
100
AcDbSymbolTable
0
BLOCK_RECORD
5
1F
100
AcDbSymbolTableRecord
100
AcDbBlockTableRecord
2
*Model_Space
340
0
70
0
0
BLOCK_RECORD
5
1B
100
AcDbSymbolTableRecord
100
AcDbBlockTableRecord
2
*Paper_Space
340
0
70
0
0
BLOCK_RECORD
5
23
100
AcDbSymbolTableRecord
100
AcDbBlockTableRecord
2
*Paper_Space0
340
0
70
0
0
BLOCK_RECORD
5
151
100
AcDbSymbolTableRecord
100
AcDbBlockTableRecord
2
*D1
340
0
70
0
0
BLOCK_RECORD
5
15E
100
AcDbSymbolTableRecord
100
AcDbBlockTableRecord
2
_U0
340
0
70
0
0
ENDTAB
0
ENDSEC
0
SECTION
2
BLOCKS
0
BLOCK
5
20
100
AcDbEntity
8
0
100
AcDbBlockBegin
2
*Model_Space
70
0
10
0
20
0
30
0
3
*Model_Space
0
ENDBLK
5
21
100
AcDbEntity
8
0
100
AcDbBlockEnd
0
BLOCK
5
1C
100
AcDbEntity
8
0
100
AcDbBlockBegin
2
*Paper_Space
70
0
10
0
20
0
30
0
3
*Paper_Space
0
ENDBLK
5
1D
100
AcDbEntity
8
0
100
AcDbBlockEnd
0
BLOCK
5
24
100
AcDbEntity
8
0
100
AcDbBlockBegin
2
*Paper_Space0
70
0
10
0
20
0
30
0
3
*Paper_Space0
0
ENDBLK
5
25
100
AcDbEntity
8
0
100
AcDbBlockEnd
0
BLOCK
5
152
100
AcDbEntity
8
0
100
AcDbBlockBegin
2
*D1
70
1
10
0
20
0
30
0
3
*D1
0
LINE
5
154
100
AcDbEntity
8
0
62
256
6
ByLayer
370
-2
48
1
60
0
100
AcDbLine
10
18
20
-4.4876
30
0
11
18
21
-19.420346
31
0
39
0
210
0
220
0
230
1
0
LINE
5
155
100
AcDbEntity
8
0
62
256
6
ByLayer
370
-2
48
1
60
0
100
AcDbLine
10
12.2
20
-4.4876
30
0
11
12.2
21
-19.420346
31
0
39
0
210
0
220
0
230
1
0
LINE
5
156
100
AcDbEntity
8
0
62
256
6
ByLayer
370
-2
48
1
60
0
100
AcDbLine
10
21.5
20
-17.420346
30
0
11
25
21
-17.420346
31
0
39
0
210
0
220
0
230
1
0
LINE
5
157
100
AcDbEntity
8
0
62
256
6
ByLayer
370
-2
48
1
60
0
100
AcDbLine
10
8.7
20
-17.420346
30
0
11
5.2
21
-17.420346
31
0
39
0
210
0
220
0
230
1
0
SOLID
5
158
100
AcDbEntity
8
0
62
256
6
ByLayer
370
-1
48
1
60
0
100
AcDbTrace
10
21.5
20
-16.837012
30
0
11
21.5
21
-18.003679
31
0
12
18
22
-17.420346
32
0
13
18
23
-17.420346
33
0
39
0
210
0
220
0
230
1
0
SOLID
5
159
100
AcDbEntity
8
0
62
256
6
ByLayer
370
-1
48
1
60
0
100
AcDbTrace
10
8.7
20
-18.003679
30
0
11
8.7
21
-16.837012
31
0
12
12.2
22
-17.420346
32
0
13
12.2
23
-17.420346
33
0
39
0
210
0
220
0
230
1
0
MTEXT
5
15A
100
AcDbEntity
8
0
62
256
6
ByLayer
370
18
48
1
60
0
100
AcDbMText
10
15.1
20
-10.420346
30
0
210
0
220
0
230
1
1
\A1;5.8
40
3.5
41
0
44
1
50
0
71
5
72
5
7
iso_b_vert
0
POINT
5
15B
100
AcDbEntity
8
Defpoints
62
0
6
ByLayer
370
-1
48
1
60
0
100
AcDbPoint
10
18
20
-2.9001
30
0
39
0
210
0
220
0
230
1
50
360
0
POINT
5
15C
100
AcDbEntity
8
Defpoints
62
0
6
ByLayer
370
-1
48
1
60
0
100
AcDbPoint
10
12.2
20
-2.9001
30
0
39
0
210
0
220
0
230
1
50
360
0
POINT
5
15D
100
AcDbEntity
8
Defpoints
62
0
6
ByLayer
370
-1
48
1
60
0
100
AcDbPoint
10
12.2
20
-17.420346
30
0
39
0
210
0
220
0
230
1
50
360
0
ENDBLK
5
153
100
AcDbEntity
8
0
100
AcDbBlockEnd
0
BLOCK
5
165
100
AcDbEntity
8
0
100
AcDbBlockBegin
2
_U0
70
0
10
0
20
0
30
0
3
_U0
0
MTEXT
5
15F
100
AcDbEntity
8
2
62
256
6
ByLayer
370
18
48
1
60
0
100
AcDbMText
10
12.486034
20
-16.387712
30
0
210
0
220
0
230
1
1
\W0.7121;5.8
40
3.5
41
0
44
1.084337
50
0
71
7
72
5
7
iso_b_vert
0
LINE
5
160
100
AcDbEntity
8
2
62
256
6
ByLayer
370
13
48
1
60
0
100
AcDbLine
10
18
20
-4.4876
30
0
11
18
21
-19.420346
31
0
39
0
210
0
220
0
230
1
0
LINE
5
161
100
AcDbEntity
8
2
62
256
6
ByLayer
370
13
48
1
60
0
100
AcDbLine
10
12.2
20
-4.4876
30
0
11
12.2
21
-19.420346
31
0
39
0
210
0
220
0
230
1
0
LINE
5
162
100
AcDbEntity
8
2
62
256
6
ByLayer
370
13
48
1
60
0
100
AcDbLine
10
26.75
20
-17.420346
30
0
11
3.45
21
-17.420346
31
0
39
0
210
0
220
0
230
1
0
SOLID
5
163
100
AcDbEntity
8
2
62
256
6
ByLayer
370
18
48
1
60
0
100
AcDbTrace
10
18
20
-17.420346
30
0
11
21.499998
21
-16.959562
31
0
12
21.500002
22
-17.881129
32
0
13
21.500002
23
-17.881129
33
0
39
0
210
0
220
0
230
1
0
SOLID
5
164
100
AcDbEntity
8
2
62
256
6
ByLayer
370
18
48
1
60
0
100
AcDbTrace
10
12.2
20
-17.420346
30
0
11
8.700002
21
-17.881129
31
0
12
8.699998
22
-16.959562
32
0
13
8.699998
23
-16.959562
33
0
39
0
210
0
220
0
230
1
0
ENDBLK
5
166
100
AcDbEntity
8
0
100
AcDbBlockEnd
0
ENDSEC
0
SECTION
2
ENTITIES
0
ELLIPSE
5
C9
100
AcDbEntity
8
1
62
256
6
ByLayer
370
18
48
1
60
0
100
AcDbEllipse
10
15.07301
20
0
30
0
11
5.93429985246751
21
-0.695877466468935
31
0
210
0
220
0
230
1
40
0.491747
41
-2.6621238775601
42
-2.18489160248764
0
POINT
5
70
100
AcDbEntity
8
81
62
256
6
ByLayer
370
18
48
1
60
0
100
AcDbPoint
10
18
20
0
30
0
39
0
210
0
220
0
230
1
50
360
0
POINT
5
72
100
AcDbEntity
8
80
62
256
6
ByLayer
370
18
48
1
60
0
100
AcDbPoint
10
0
20
0
30
0
39
0
210
0
220
0
230
1
50
360
0
POINT
5
74
100
AcDbEntity
8
1
62
256
6
ByLayer
370
18
48
1
60
1
100
AcDbPoint
10
18
20
-2.9001
30
0
39
0
210
0
220
0
230
1
50
360
0
POINT
5
76
100
AcDbEntity
8
1
62
256
6
ByLayer
370
18
48
1
60
1
100
AcDbPoint
10
12.2
20
-2.9001
30
0
39
0
210
0
220
0
230
1
50
360
0
SPLINE
5
CA
100
AcDbEntity
8
1
62
256
6
ByLayer
370
18
48
1
60
0
100
AcDbSpline
70
4
71
3
72
8
73
4
40
0
40
0
40
0
40
0
40
1
40
1
40
1
40
1
41
1
10
17.7173051676096
20
2.89158444523673
30
0
41
1
10
17.7318495084299
20
2.89150949136078
30
0
41
1
10
17.7463953249207
20
2.8914859697062
30
0
41
1
10
17.760942614275
20
2.89151378245347
30
0
0
SPLINE
5
CB
100
AcDbEntity
8
1
62
256
6
ByLayer
370
18
48
1
60
0
100
AcDbSpline
70
4
71
3
72
8
73
4
40
0
40
0
40
0
40
0
40
1
40
1
40
1
40
1
41
1
10
17.7609426142295
20
2.89151378249235
30
0
41
1
10
17.8045344025635
20
2.88409523227676
30
0
41
1
10
17.8482059896781
20
2.87718671824132
30
0
41
1
10
17.8919541662381
20
2.87076772848411
30
0
0
SPLINE
5
CC
100
AcDbEntity
8
1
62
256
6
ByLayer
370
18
48
1
60
0
100
AcDbSpline
70
4
71
3
72
8
73
4
40
0
40
0
40
0
40
0
40
1
40
1
40
1
40
1
41
1
10
17.7173051676078
20
2.89158444523511
30
0
41
1
10
17.735551319028
20
2.82488894180187
30
0
41
1
10
17.7551273321209
20
2.75859686652964
30
0
41
1
10
17.7763376980839
20
2.69280058975448
30
0
0
SPLINE
5
CD
100
AcDbEntity
8
1
62
256
6
ByLayer
370
18
48
1
60
0
100
AcDbSpline
70
4
71
3
72
18
73
14
40
0
40
0
40
0
40
0
40
0.0495909107006769
40
0.185363637743438
40
0.185363637743438
40
0.45690909182896
40
0.45690909182896
40
0.728454545914483
40
0.728454545914483
40
0.796340909435861
40
0.796340909435861
40
0.864227272957239
40
1
40
1
40
1
40
1
41
1
10
15.1791892565562
20
2.10200824708988
30
0
41
1
10
15.2213846893597
20
2.12465509596484
30
0
41
1
10
15.3788518372211
20
2.20767361192512
30
0
41
1
10
15.5354905002516
20
2.28454067730812
30
0
41
1
10
15.8789073529638
20
2.44323923218914
30
0
41
1
10
16.1068040178317
20
2.53543633785259
30
0
41
1
10
16.5636619308535
20
2.69050610414462
30
0
41
1
10
16.7926277975573
20
2.75338613200822
30
0
41
1
10
17.0815614988282
20
2.81210669596484
30
0
41
1
10
17.1395024842126
20
2.82285559975918
30
0
41
1
10
17.2551672514312
20
2.84223842796419
30
0
41
1
10
17.4285372371382
20
2.86818400857186
30
0
41
1
10
17.6017417785573
20
2.88473341154034
30
0
41
1
10
17.7173051676096
20
2.89158444523676
30
0
0
SPLINE
5
CE
100
AcDbEntity
8
1
62
256
6
ByLayer
370
18
48
1
60
0
100
AcDbSpline
70
4
71
3
72
41
73
37
40
0
40
0
40
0
40
0
40
0.0656749908548958
40
0.0656749908548958
40
0.131349981709792
40
0.131349981709792
40
0.164187477137239
40
0.164187477137239
40
0.197024972564687
40
0.229862467992135
40
0.229862467992135
40
0.262699963419583
40
0.262699963419583
40
0.328374954274479
40
0.328374954274479
40
0.361212449701928
40
0.361212449701928
40
0.394049945129377
40
0.394049945129377
40
0.459724935984274
40
0.459724935984274
40
0.525399926839171
40
0.525399926839171
40
0.558237422266614
40
0.558237422266614
40
0.591074917694058
40
0.591074917694058
40
0.656749908548944
40
0.656749908548944
40
0.788099890258729
40
0.788099890258729
40
0.853774881113616
40
0.853774881113616
40
0.919449871968502
40
0.919449871968502
40
1
40
1
40
1
40
1
41
1
10
17.776337705682
20
2.69280059216803
30
0
41
1
10
17.787434000744
20
2.65836651138323
30
0
41
1
10
17.796520829614
20
2.62356679107174
30
0
41
1
10
17.8099880164847
20
2.55311096905953
30
0
41
1
10
17.8143747039061
20
2.51745601878287
30
0
41
1
10
17.8166246408834
20
2.46318569635005
30
0
41
1
10
17.8166394470616
20
2.44496224593269
30
0
41
1
10
17.8150952349399
20
2.40889490593796
30
0
41
1
10
17.811988117125
20
2.37304721146987
30
0
41
1
10
17.8056020262427
20
2.33766033288384
30
0
41
1
10
17.7974867528011
20
2.30251646781772
30
0
41
1
10
17.7925515966144
20
2.28502807252036
30
0
41
1
10
17.7750792720076
20
2.23319045239711
30
0
41
1
10
17.7601928293836
20
2.20035030359674
30
0
41
1
10
17.733394007791
20
2.15346150071704
30
0
41
1
10
17.7237153543376
20
2.1382275892615
30
0
41
1
10
17.7029230513959
20
2.10852120262527
30
0
41
1
10
17.6917575322109
20
2.09399406540408
30
0
41
1
10
17.6568243516476
20
2.05223109726774
30
0
41
1
10
17.6315174581901
20
2.02659466584626
30
0
41
1
10
17.5776838943383
20
1.978840631541
30
0
41
1
10
17.5491533053134
20
1.95672731124861
30
0
41
1
10
17.5043687924775
20
1.92573066320656
30
0
41
1
10
17.4891571105628
20
1.91579859945398
30
0
41
1
10
17.4584380897625
20
1.89677135531673
30
0
41
1
10
17.4428981265273
20
1.88765358964832
30
0
41
1
10
17.3958007868448
20
1.8613476667623
30
0
41
1
10
17.3637687109381
20
1.84520084989921
30
0
41
1
10
17.266151695832
20
1.80009652545016
30
0
41
1
10
17.1990659752794
20
1.77443125710178
30
0
41
1
10
17.0963432862883
20
1.74052716502575
30
0
41
1
10
17.0618211607049
20
1.73003231597255
30
0
41
1
10
16.9927252073263
20
1.71052180981457
30
0
41
1
10
16.9580827802445
20
1.70148413135044
30
0
41
1
10
16.8807724773612
20
1.68272223502981
30
0
41
1
10
16.8380648685702
20
1.67329988341112
30
0
41
1
10
16.7952540732752
20
1.66466147788216
30
0
0
SPLINE
5
CF
100
AcDbEntity
8
1
62
256
6
ByLayer
370
13
48
1
60
0
100
AcDbSpline
70
4
71
3
72
10
73
6
40
0
40
0
40
0
40
0
40
0.518579270655773
40
0.825158746995074
40
1
40
1
40
1
40
1
41
1
10
17.7763377043848
20
2.69280059233506
30
0
41
1
10
17.3675584695899
20
2.67018958084694
30
0
41
1
10
16.7171125681283
20
2.55373800967857
30
0
41
1
10
15.9288449725531
20
2.27833138969314
30
0
41
1
10
15.5493566117729
20
2.11129592319375
30
0
41
1
10
15.4115349176594
20
2.04633090530004
30
0
0
SPLINE
5
D0
100
AcDbEntity
8
1
62
256
6
ByLayer
370
18
48
1
60
0
100
AcDbSpline
70
4
71
3
72
8
73
4
40
0
40
0
40
0
40
0
40
1
40
1
40
1
40
1
41
1
10
11.4917530849868
20
2.99956333577589
30
0
41
1
10
11.6170455317512
20
2.93300233467912
30
0
41
1
10
11.743088905112
20
2.86963656467268
30
0
41
1
10
11.8698785991588
20
2.8094464273716
30
0
0
SPLINE
5
D1
100
AcDbEntity
8
1
62
256
6
ByLayer
370
18
48
1
60
0
100
AcDbSpline
70
4
71
3
72
8
73
4
40
0
40
0
40
0
40
0
40
1
40
1
40
1
40
1
41
1
10
11.3004327984426
20
2.96679949221124
30
0
41
0.999913752855687
10
11.3704883148295
20
2.92227396286389
30
0
41
0.999913752855687
10
11.4407723446356
20
2.8790600305022
30
0
41
1
10
11.5112667024702
20
2.83716887636098
30
0
0
SPLINE
5
D2
100
AcDbEntity
8
1
62
256
6
ByLayer
370
18
48
1
60
0
100
AcDbSpline
70
4
71
3
72
9
73
5
40
0
40
0
40
0
40
0
40
0.500437650293172
40
1
40
1
40
1
40
1
41
1
10
11.1903413021717
20
-2.6772002445328
30
0
41
1
10
11.1889401344363
20
-2.67234312221103
30
0
41
1
10
11.1861402497063
20
-2.66263737301543
30
0
41
1
10
11.1833246367147
20
-2.65294543886304
30
0
41
1
10
11.1819180624728
20
-2.64810371346468
30
0
0
SPLINE
5
D3
100
AcDbEntity
8
1
62
256
6
ByLayer
370
18
48
1
60
0
100
AcDbSpline
70
4
71
3
72
12
73
8
40
0
40
0
40
0
40
0
40
0.499999999999954
40
0.499999999999954
40
0.749999999999977
40
0.749999999999977
40
1
40
1
40
1
40
1
41
1
10
16.3323249720876
20
-0.877770126727313
30
0
41
1
10
16.3473879870177
20
-0.857188611286773
30
0
41
1
10
16.3633302401778
20
-0.837189498892457
30
0
41
1
10
16.3888449307502
20
-0.809344177808441
30
0
41
1
10
16.3976267121336
20
-0.800410740335053
30
0
41
1
10
16.4156239137972
20
-0.783557714701772
30
0
41
1
10
16.4248659854704
20
-0.775606861351861
30
0
41
1
10
16.434405823997
20
-0.768172926314747
30
0
0
SPLINE
5
D4
100
AcDbEntity
8
1
62
256
6
ByLayer
370
18
48
1
60
0
100
AcDbSpline
70
4
71
3
72
9
73
5
40
0
40
0
40
0
40
0
40
0.420229798415192
40
1
40
1
40
1
40
1
41
1
10
11.1819180621008
20
-2.64810371334221
30
0
41
1
10
11.2065365660819
20
-2.65621035008016
30
0
41
1
10
11.2651176167392
20
-2.67515788485858
30
0
41
1
10
11.3236919646746
20
-2.6932783509551
30
0
41
1
10
11.3576488883886
20
-2.70350140349228
30
0
0
SPLINE
5
D5
100
AcDbEntity
8
1
62
256
6
ByLayer
370
18
48
1
60
0
100
AcDbSpline
70
4
71
3
72
10
73
6
40
0
40
0
40
0
40
0
40
0.5
40
0.5
40
1
40
1
40
1
40
1
41
1
10
11.3576488883887
20
-2.70350140349228
30
0
41
1
10
11.4464111875479
20
-2.68678795697286
30
0
41
1
10
11.5357222956255
20
-2.67400914052718
30
0
41
1
10
11.7153858317495
20
-2.65653223202182
30
0
41
1
10
11.8052750163043
20
-2.65188773684156
30
0
41
1
10
11.8951127176506
20
-2.65114529708671
30
0
0
SPLINE
5
D6
100
AcDbEntity
8
1
62
256
6
ByLayer
370
18
48
1
60
0
100
AcDbSpline
70
4
71
3
72
8
73
4
40
0
40
0
40
0
40
0
40
1
40
1
40
1
40
1
41
1
10
11.8951127176506
20
-2.65114529708669
30
0
41
1
10
11.9832467473091
20
-2.65041693687275
30
0
41
1
10
12.0714139952071
20
-2.65124040554568
30
0
41
1
10
12.1596123903633
20
-2.65351895480194
30
0
0
SPLINE
5
D7
100
AcDbEntity
8
1
62
256
6
ByLayer
370
18
48
1
60
0
100
AcDbSpline
70
4
71
3
72
12
73
8
40
0
40
0
40
0
40
0
40
0.454493709779459
40
0.454493709779459
40
0.908987419558917
40
0.908987419558917
40
1
40
1
40
1
40
1
41
1
10
17.7361055522802
20
-2.16986083994135
30
0
41
1
10
17.7408678310488
20
-2.16320125627252
30
0
41
1
10
17.7454965476296
20
-2.15741356302331
30
0
41
1
10
17.7544581327423
20
-2.14776953872612
30
0
41
1
10
17.7587243610107
20
-2.14398850459492
30
0
41
1
10
17.7635026346243
20
-2.14091494688293
30
0
41
1
10
17.7642892759981
20
-2.14044991924831
30
0
41
1
10
17.7650644683283
20
-2.14003597358817
30
0
0
SPLINE
5
D8
100
AcDbEntity
8
1
62
256
6
ByLayer
370
18
48
1
60
0
100
AcDbSpline
70
4
71
3
72
10
73
6
40
0
40
0
40
0
40
0
40
0.0197410171213702
40
0.0197410171213702
40
1
40
1
40
1
40
1
41
1
10
17.7735458037217
20
-2.13771964563546
30
0
41
1
10
17.7736134550893
20
-2.13772306986115
30
0
41
1
10
17.7736809559944
20
-2.13772714126046
30
0
41
1
10
17.7770926113673
20
-2.13796633588092
30
0
41
1
10
17.7799438687367
20
-2.13978580692489
30
0
41
1
10
17.7821402169338
20
-2.14371060825067
30
0
0
SPLINE
5
D9
100
AcDbEntity
8
1
62
256
6
ByLayer
370
18
48
1
60
0
100
AcDbSpline
70
4
71
3
72
8
73
4
40
0
40
0
40
0
40
0
40
1
40
1
40
1
40
1
41
1
10
11.0617574607504
20
-2.63522052109522
30
0
41
0.999975294395978
10
11.1017502304591
20
-2.63909837092485
30
0
41
0.999975294395978
10
11.141804753875
20
-2.64339287444735
30
0
41
1
10
11.1819180622847
20
-2.6481037133679
30
0
0
SPLINE
5
DA
100
AcDbEntity
8
1
62
256
6
ByLayer
370
18
48
1
60
0
100
AcDbSpline
70
4
71
3
72
23
73
19
40
0
40
0
40
0
40
0
40
0.0634302862142145
40
0.126726850315651
40
0.189891970784268
40
0.252927859590778
40
0.315836663987153
40
0.378620468241076
40
0.441281295303842
40
0.503821108413512
40
0.56624181263517
40
0.628545256339966
40
0.690733232624855
40
0.752807480593991
40
0.814769683171102
40
0.876621465342396
40
0.938364398134584
40
1
40
1
40
1
40
1
41
1
10
11.4603201657271
20
-2.38234905235939
30
0
41
1
10
11.4542427161766
20
-2.3873376205452
30
0
41
1
10
11.4421006293998
20
-2.39730424014448
30
0
41
1
10
11.4239954898946
20
-2.41256969504502
30
0
41
1
10
11.4059942501032
20
-2.4280413240578
30
0
41
1
10
11.3881032471795
20
-2.44373932204198
30
0
41
1
10
11.3703208361796
20
-2.45965359615144
30
0
41
1
10
11.3526475013701
20
-2.47578219587515
30
0
41
1
10
11.3350831550635
20
-2.49212104607213
30
0
41
1
10
11.3176278604212
20
-2.50866669190489
30
0
41
1
10
11.3002816342982
20
-2.52541555427084
30
0
41
1
10
11.283044515514
20
-2.54236416780788
30
0
41
1
10
11.2659164890427
20
-2.5595089690207
30
0
41
1
10
11.2488977213532
20
-2.57684690161736
30
0
41
1
10
11.2319876991888
20
-2.5943732079696
30
0
41
1
10
11.2151884274181
20
-2.61208963810378
30
0
41
1
10
11.1984925275191
20
-2.62997388609082
30
0
41
1
10
11.1874396788316
20
-2.64206394343404
30
0
41
1
10
11.1819180621008
20
-2.64810371334218
30
0
0
SPLINE
5
DB
100
AcDbEntity
8
1
62
256
6
ByLayer
370
18
48
1
60
0
100
AcDbSpline
70
4
71
3
72
8
73
4
40
0
40
0
40
0
40
0
40
1
40
1
40
1
40
1
41
1
10
11.6283422343089
20
2.70509247259707
30
0
41
1
10
11.6249513693063
20
2.69552525827126
30
0
41
1
10
11.621733793184
20
2.68580976598636
30
0
41
1
10
11.6186882463759
20
2.67594919047002
30
0
0
SPLINE
5
DC
100
AcDbEntity
8
1
62
256
6
ByLayer
370
18
48
1
60
0
100
AcDbSpline
70
4
71
3
72
20
73
16
40
0
40
0
40
0
40
0
40
0.25
40
0.25
40
0.374999999999997
40
0.374999999999997
40
0.437499999999996
40
0.437499999999996
40
0.499999999999995
40
0.499999999999995
40
0.749999999999995
40
0.749999999999995
40
0.874999999999997
40
0.874999999999997
40
1
40
1
40
1
40
1
41
1
10
17.3678631839859
20
-2.40914666225743
30
0
41
1
10
17.389548589422
20
-2.42535942054255
30
0
41
1
10
17.4140600172524
20
-2.43126541189605
30
0
41
1
10
17.4545982259889
20
-2.42637096633271
30
0
41
1
10
17.4687448970486
20
-2.42242746515802
30
0
41
1
10
17.490898784564
20
-2.413106262665
30
0
41
1
10
17.4984524849557
20
-2.40942186093287
30
0
41
1
10
17.5137474444372
20
-2.40099003795333
30
0
41
1
10
17.5214999426155
20
-2.39623955608275
30
0
41
1
10
17.5607711856942
20
-2.36989746955265
30
0
41
1
10
17.5938037893643
20
-2.34059994126184
30
0
41
1
10
17.6456254638218
20
-2.28508468061713
30
0
41
1
10
17.6633001808541
20
-2.26461455586352
30
0
41
1
10
17.6993299168894
20
-2.21988825025701
30
0
41
1
10
17.7175949522417
20
-2.19574715243547
30
0
41
1
10
17.7361055496104
20
-2.16986083981445
30
0
0
SPLINE
5
DD
100
AcDbEntity
8
1
62
256
6
ByLayer
370
18
48
1
60
0
100
AcDbSpline
70
4
71
3
72
8
73
4
40
0
40
0
40
0
40
0
40
1
40
1
40
1
40
1
41
1
10
15.6479562180918
20
-2.54890975535736
30
0
41
1
10
15.6255524454666
20
-2.54947315205442
30
0
41
1
10
15.6031486728413
20
-2.54992018837825
30
0
41
1
10
15.580744900216
20
-2.55025094924593
30
0
0
SPLINE
5
DE
100
AcDbEntity
8
1
62
256
6
ByLayer
370
13
48
1
60
0
100
AcDbSpline
70
4
71
3
72
11
73
7
40
0
40
0
40
0
40
0
40
0.142200626399977
40
0.356650469799983
40
0.571100313199989
40
1
40
1
40
1
40
1
41
1
10
15.5807439003239
20
-2.55025096400786
30
0
41
1
10
15.4204959335493
20
-2.55261677993639
30
0
41
1
10
15.018581300108
20
-2.5436303223369
30
0
41
1
10
14.3749999999999
20
-2.46963188263317
30
0
41
1
10
13.4083333333333
20
-2.25385486463801
30
0
41
1
10
12.6833333333333
20
-1.98111260171234
30
0
41
1
10
12.2
20
-1.76193059251693
30
0
0
SPLINE
5
DF
100
AcDbEntity
8
1
62
256
6
ByLayer
370
18
48
1
60
0
100
AcDbSpline
70
4
71
3
72
14
73
10
40
0
40
0
40
0
40
0
40
0.499999999999996
40
0.499999999999996
40
0.749999999999995
40
0.749999999999995
40
0.874999999999998
40
0.874999999999998
40
1
40
1
40
1
40
1
41
1
10
17.3099088280753
20
-2.11927093390804
30
0
41
1
10
17.312719025901
20
-2.18384286587639
30
0
41
1
10
17.3190672932448
20
-2.2400439635343
30
0
41
1
10
17.3336062559271
20
-2.31247676281458
30
0
41
1
10
17.3392929904584
20
-2.33463266714963
30
0
41
1
10
17.3490839517902
20
-2.36488341486833
30
0
41
1
10
17.3525626099006
20
-2.37448022562526
30
0
41
1
10
17.3599209558003
20
-2.39261674838602
30
0
41
1
10
17.3637956368138
20
-2.40114705031454
30
0
41
1
10
17.3678631839834
20
-2.40914666225808
30
0
0
SPLINE
5
E0
100
AcDbEntity
8
1
62
256
6
ByLayer
370
18
48
1
60
0
100
AcDbSpline
70
4
71
3
72
25
73
21
40
0
40
0
40
0
40
0
40
0.062499999999989
40
0.0937499999999865
40
0.0937499999999865
40
0.124999999999984
40
0.124999999999984
40
0.249999999999987
40
0.249999999999987
40
0.374999999999989
40
0.374999999999989
40
0.499999999999992
40
0.499999999999992
40
0.562499999999993
40
0.562499999999993
40
0.624999999999994
40
0.624999999999994
40
0.749999999999996
40
0.749999999999996
40
1
40
1
40
1
40
1
41
1
10
16.2931798866456
20
-1.17795115194849
30
0
41
1
10
16.310634210722
20
-1.20633308851041
30
0
41
1
10
16.3375103888911
20
-1.24818015171525
30
0
41
1
10
16.3653894895343
20
-1.2889793219916
30
0
41
1
10
16.3841951200109
20
-1.31594936036831
30
0
41
1
10
16.3937161962754
20
-1.32933075006409
30
0
41
1
10
16.4415773619853
20
-1.39528647273283
30
0
41
1
10
16.4808830987737
20
-1.44531874042747
30
0
41
1
10
16.5612647577501
20
-1.54062651345129
30
0
41
1
10
16.6023422650635
20
-1.58589775930312
30
0
41
1
10
16.6860965846683
20
-1.67214267080303
30
0
41
1
10
16.7287740631246
20
-1.7131145463631
30
0
41
1
10
16.7939062140808
20
-1.77157367414688
30
0
41
1
10
16.8158033319564
20
-1.79055916200983
30
0
41
1
10
16.8599606596047
20
-1.82755445356653
30
0
41
1
10
16.88221947046
20
-1.84555989123817
30
0
41
1
10
16.9490061234689
20
-1.89775211131803
30
0
41
1
10
16.9937191620184
20
-1.9302695417372
30
0
41
1
10
17.1283758963306
20
-2.02157158981049
30
0
41
1
10
17.2188336041494
20
-2.07414951405801
30
0
41
1
10
17.309908828076
20
-2.11927093390793
30
0
0
SPLINE
5
E1
100
AcDbEntity
8
1
62
256
6
ByLayer
370
18
48
1
60
0
100
AcDbSpline
70
4
71
3
72
24
73
20
40
0
40
0
40
0
40
0
40
0.124999999999977
40
0.124999999999977
40
0.187499999999975
40
0.187499999999975
40
0.249999999999974
40
0.249999999999974
40
0.374999999999971
40
0.374999999999971
40
0.437499999999968
40
0.437499999999968
40
0.499999999999965
40
0.499999999999965
40
0.749999999999969
40
0.749999999999969
40
0.874999999999984
40
0.874999999999984
40
1
40
1
40
1
40
1
41
1
10
16.2931798866457
20
-1.17795115194846
30
0
41
1
10
16.2863591311393
20
-1.16686013236847
30
0
41
1
10
16.2805988439895
20
-1.1552721816746
30
0
41
1
10
16.2736112024546
20
-1.13710834741485
30
0
41
1
10
16.2715581293602
20
-1.13092311253709
30
0
41
1
10
16.2680235632821
20
-1.11828123399161
30
0
41
1
10
16.2665367108019
20
-1.11179225450982
30
0
41
1
10
16.2630127666212
20
-1.09213614043216
30
0
41
1
10
16.2619187116322
20
-1.07891738774924
30
0
41
1
10
16.2620113481643
20
-1.05892887092622
30
0
41
1
10
16.2623321052562
20
-1.05223923522445
30
0
41
1
10
16.2635382421266
20
-1.03880762486224
30
0
41
1
10
16.2644301552691
20
-1.0320354639463
30
0
41
1
10
16.2701692997174
20
-0.998596632425972
30
0
41
1
10
16.2787528798875
20
-0.972934606037683
30
0
41
1
10
16.2961005522125
20
-0.935665823352821
30
0
41
1
10
16.3025778299532
20
-0.923594873020988
30
0
41
1
10
16.3166369866157
20
-0.900188527514018
30
0
41
1
10
16.3242319208327
20
-0.888828292984073
30
0
41
1
10
16.3323249720785
20
-0.877770126723817
30
0
0
SPLINE
5
E2
100
AcDbEntity
8
1
62
256
6
ByLayer
370
13
48
1
60
0
100
AcDbSpline
70
4
71
3
72
12
73
8
40
0
40
0
40
0
40
0
40
0.122769863337079
40
0.298215890669663
40
0.473661918002248
40
0.649107945334832
40
1
40
1
40
1
40
1
41
1
10
16.3323249720876
20
-0.877770126727597
30
0
41
1
10
16.1632166480584
20
-0.807632457471357
30
0
41
1
10
15.7524416573625
20
-0.629878373063946
30
0
41
1
10
15.1
20
-0.327446523633625
30
0
41
1
10
14.375
20
0.0267067932961709
30
0
41
1
10
13.4083333333333
20
0.497279614463906
30
0
41
1
10
12.6833333333333
20
0.817697732451563
30
0
41
1
10
12.2
20
0.999826292277419
30
0
0
SPLINE
5
E3
100
AcDbEntity
8
1
62
256
6
ByLayer
370
18
48
1
60
0
100
AcDbSpline
70
4
71
3
72
13
73
9
40
0
40
0
40
0
40
0
40
0.158259449770431
40
0.29854954147536
40
0.438839633180288
40
0.579129724885216
40
0.719419816590144
40
1
40
1
40
1
40
1
41
1
10
17.3678631839866
20
-2.40914666225797
30
0
41
1
10
17.0952421226577
20
-2.41956955449314
30
0
41
1
10
16.5809543946622
20
-2.40834136665219
30
0
41
1
10
15.825
20
-2.30776484995221
30
0
41
1
10
15.1
20
-2.13865124594221
30
0
41
1
10
14.375
20
-1.90093880410217
30
0
41
1
10
13.4083333333333
20
-1.50350686423724
30
0
41
1
10
12.6833333333333
20
-1.12970300931204
30
0
41
1
10
12.2
20
-0.860729761532383
30
0
0
SPLINE
5
E4
100
AcDbEntity
8
1
62
256
6
ByLayer
370
18
48
1
60
0
100
AcDbSpline
70
4
71
3
72
8
73
4
40
0
40
0
40
0
40
0
40
1
40
1
40
1
40
1
41
1
10
11.2068631210334
20
-2.35799495848059
30
0
41
0.999892569668488
10
11.2910645239145
20
-2.36427597446653
30
0
41
0.999892569668488
10
11.3755592831104
20
-2.37239487801486
30
0
41
1
10
11.460320166721
20
-2.38234905247609
30
0
0
SPLINE
5
E5
100
AcDbEntity
8
1
62
256
6
ByLayer
370
18
48
1
60
0
100
AcDbSpline
70
4
71
3
72
8
73
4
40
0
40
0
40
0
40
0
40
1
40
1
40
1
40
1
41
1
10
17.7635609677213
20
-2.2373055920917
30
0
41
1
10
17.7617481890675
20
-2.23741307297206
30
0
41
1
10
17.7599344287159
20
-2.2375184185326
30
0
41
1
10
17.7581196860323
20
-2.23762162739396
30
0
0
SPLINE
5
E6
100
AcDbEntity
8
1
62
256
6
ByLayer
370
18
48
1
60
0
100
AcDbSpline
70
4
71
3
72
8
73
4
40
0
40
0
40
0
40
0
40
1
40
1
40
1
40
1
41
1
10
17.7581196860362
20
-2.23762162739507
30
0
41
1
10
17.7758954793202
20
-2.22283206809581
30
0
41
1
10
17.7936708882445
20
-2.2081848166558
30
0
41
1
10
17.8114459041596
20
-2.19368307560967
30
0
0
SPLINE
5
E7
100
AcDbEntity
8
1
62
256
6
ByLayer
370
18
48
1
60
0
100
AcDbSpline
70
4
71
3
72
8
73
4
40
0
40
0
40
0
40
0
40
1
40
1
40
1
40
1
41
1
10
17.7821402176161
20
-2.14371060739742
30
0
41
1
10
17.7917318801656
20
-2.16087735369285
30
0
41
1
10
17.8014974024643
20
-2.17754359339966
30
0
41
1
10
17.8114459041596
20
-2.19368307560967
30
0
0
SPLINE
5
E8
100
AcDbEntity
8
1
62
256
6
ByLayer
370
13
48
1
60
0
100
AcDbSpline
70
4
71
3
72
8
73
4
40
0
40
0
40
0
40
0
40
1
40
1
40
1
40
1
41
1
10
17.7821402178073
20
-2.14371060759919
30
0
41
1
10
17.7712668140154
20
-2.14771056786662
30
0
41
1
10
17.7603934102234
20
-2.15168693626038
30
0
41
1
10
17.7495200064315
20
-2.15563963190826
30
0
0
SPLINE
5
E9
100
AcDbEntity
8
1
62
256
6
ByLayer
370
13
48
1
60
0
100
AcDbSpline
70
4
71
3
72
12
73
8
40
0
40
0
40
0
40
0
40
0.106615979573641
40
0.285292783658913
40
0.463969587744185
40
0.642646391829457
40
1
40
1
40
1
40
1
41
1
10
16.2576055952625
20
-2.5417030524782
30
0
41
1
10
16.113403730175
20
-2.56318360663036
30
0
41
1
10
15.7275351984208
20
-2.6078643192688
30
0
41
1
10
15.1000000000001
20
-2.62316743368868
30
0
41
1
10
14.3750000000001
20
-2.55787593018505
30
0
41
1
10
13.4083333333335
20
-2.36249320977265
30
0
41
1
10
12.6833333333334
20
-2.10009010463674
30
0
41
1
10
12.2000000000001
20
-1.88514020118188
30
0
0
SPLINE
5
EA
100
AcDbEntity
8
1
62
256
6
ByLayer
370
18
48
1
60
0
100
AcDbSpline
70
4
71
3
72
8
73
4
40
0
40
0
40
0
40
0
40
1
40
1
40
1
40
1
41
1
10
17.7635609677214
20
-2.23730559209164
30
0
41
1
10
17.7222393386352
20
-2.25463315536806
30
0
41
1
10
17.680929662822
20
-2.27159723040066
30
0
41
1
10
17.6396265592427
20
-2.2881953208379
30
0
0
SPLINE
5
EB
100
AcDbEntity
8
1
62
256
6
ByLayer
370
18
48
1
60
0
100
AcDbSpline
70
4
71
3
72
28
73
24
40
0
40
0
40
0
40
0
40
0.0210817941237645
40
0.0210817941237645
40
0.0560431586193432
40
0.0560431586193432
40
0.091004523114922
40
0.091004523114922
40
0.160927252106082
40
0.160927252106082
40
0.440618168070732
40
0.440618168070732
40
0.510540897061895
40
0.510540897061895
40
0.545502261557475
40
0.545502261557475
40
0.580463626053055
40
0.580463626053055
40
0.72030908403537
40
0.72030908403537
40
0.860154542017685
40
0.860154542017685
40
1
40
1
40
1
40
1
41
1
10
17.1698467551087
20
-2.46105989174558
30
0
41
1
10
17.1346952608478
20
-2.47278578824455
30
0
41
1
10
17.099533763791
20
-2.48424010669686
30
0
41
1
10
17.0060261875639
20
-2.51396385896345
30
0
41
1
10
16.947656549046
20
-2.5317529546158
30
0
41
1
10
16.8308134404211
20
-2.56579422398016
30
0
41
1
10
16.7724563641219
20
-2.5820117595961
30
0
41
1
10
16.5977616450153
20
-2.62817757809899
30
0
41
1
10
16.4817045057667
20
-2.65566664066549
30
0
41
1
10
15.9027328426816
20
-2.77659992257628
30
0
41
1
10
15.4437336430957
20
-2.82049671316614
30
0
41
1
10
14.8635306993867
20
-2.80675306554227
30
0
41
1
10
14.7471813420175
20
-2.80057234269222
30
0
41
1
10
14.5720198197847
20
-2.78606174735654
30
0
41
1
10
14.5136029488169
20
-2.78035536474712
30
0
41
1
10
14.3971173170145
20
-2.76726242550433
30
0
41
1
10
14.3389843309897
20
-2.7598707648545
30
0
41
1
10
14.0487857868157
20
-2.71873867565623
30
0
41
1
10
13.8181119368965
20
-2.67249431960934
30
0
41
1
10
13.3573182039971
20
-2.55520452878284
30
0
41
1
10
13.1272384769241
20
-2.48406644384084
30
0
41
1
10
12.6654705256627
20
-2.3177030187592
30
0
41
1
10
12.4337749952546
20
-2.22238079998252
30
0
41
1
10
12.2000000000001
20
-2.11618816289243
30
0
0
SPLINE
5
EC
100
AcDbEntity
8
1
62
256
6
ByLayer
370
18
48
1
60
0
100
AcDbSpline
70
4
71
3
72
28
73
24
40
0
40
0
40
0
40
0
40
0.0475578916158073
40
0.0951112669643547
40
0.142661981481901
40
0.190211859085282
40
0.237762689159157
40
0.285316223752668
40
0.332874174983136
40
0.380438212644591
40
0.428009962011757
40
0.475590997181042
40
0.523182833394479
40
0.570786941828657
40
0.618404753567874
40
0.666037660840211
40
0.713687018203631
40
0.761354143683481
40
0.809040319862761
40
0.856746794926467
40
0.904474783661408
40
0.95222546841298
40
1
40
1
40
1
40
1
41
1
10
11.8030684577841
20
-1.94904927096937
30
0
41
1
10
11.7973115016361
20
-1.95516741051426
30
0
41
1
10
11.785798136041
20
-1.96740310860363
30
0
41
1
10
11.7686441998738
20
-1.98606183991859
30
0
41
1
10
11.7515766832192
20
-2.00493944316778
30
0
41
1
10
11.7346038459269
20
-2.02405563348097
30
0
41
1
10
11.7177234996435
20
-2.04340198439502
30
0
41
1
10
11.7009362562298
20
-2.06297757849279
30
0
41
1
10
11.6842419779746
20
-2.08277945781958
30
0
41
1
10
11.6676407286762
20
-2.10280518351311
30
0
41
1
10
11.6511325194773
20
-2.12305215653262
30
0
41
1
10
11.6347173775367
20
-2.14351778057991
30
0
41
1
10
11.6183953246512
20
-2.16419934963847
30
0
41
1
10
11.602166386494
20
-2.1850942051901
30
0
41
1
10
11.5860305902781
20
-2.20619972141435
30
0
41
1
10
11.5699879594524
20
-2.22751330066504
30
0
41
1
10
11.5540385339294
20
-2.24903240712075
30
0
41
1
10
11.5381822939117
20
-2.27075443398348
30
0
41
1
10
11.5224194442955
20
-2.29267719828658
30
0
41
1
10
11.5067493524165
20
-2.31479709043461
30
0
41
1
10
11.4911745148525
20
-2.33711598245765
30
0
41
1
10
11.4756857428048
20
-2.35961542606248
30
0
41
1
10
11.4654428785455
20
-2.37476991644354
30
0
41
1
10
11.4603201679058
20
-2.38234905321124
30
0
0
SPLINE
5
ED
100
AcDbEntity
8
1
62
256
6
ByLayer
370
18
48
1
60
0
100
AcDbSpline
70
4
71
3
72
14
73
10
40
0
40
0
40
0
40
0
40
0.0623527052833104
40
0.0623527052833104
40
0.296764528962483
40
0.296764528962483
40
0.531176352641655
40
0.531176352641655
40
1
40
1
40
1
40
1
41
1
10
16.7416261742464
20
1.6909131610164
30
0
41
1
10
16.7526539317803
20
1.68770282627736
30
0
41
1
10
16.7637258749789
20
1.68432165473595
30
0
41
1
10
16.8166276991273
20
1.66743470953708
30
0
41
1
10
16.8590249782445
20
1.65173518165423
30
0
41
1
10
16.9449733720877
20
1.61587500513053
30
0
41
1
10
16.9886547091902
20
1.5956376371314
30
0
41
1
10
17.1195246665198
20
1.52943737235034
30
0
41
1
10
17.2070213514511
20
1.47787682535434
30
0
41
1
10
17.2947392028776
20
1.41974705869595
30
0
0
SPLINE
5
EE
100
AcDbEntity
8
1
62
256
6
ByLayer
370
18
48
1
60
0
100
AcDbSpline
70
4
71
3
72
12
73
8
40
0
40
0
40
0
40
0
40
0.235921434379843
40
0.438322235174287
40
0.640723035968732
40
0.843123836763176
40
1
40
1
40
1
40
1
41
1
10
17.3950709644133
20
0.798486562272331
30
0
41
1
10
17.1133806429422
20
0.991283569003031
30
0
41
1
10
16.5900236548044
20
1.33402205528787
30
0
41
1
10
15.825
20
1.76570215152355
30
0
41
1
10
15.1
20
2.0941725156676
30
0
41
1
10
14.4293564421019
20
2.30915546180583
30
0
41
1
10
14.0003795508704
20
2.39177381740816
30
0
41
1
10
13.8130693263057
20
2.41688777472106
30
0
0
SPLINE
5
EF
100
AcDbEntity
8
1
62
256
6
ByLayer
370
13
48
1
60
0
100
AcDbSpline
70
4
71
3
72
11
73
7
40
0
40
0
40
0
40
0
40
0.37627902966321
40
0.609516916209018
40
0.842754802754826
40
1
40
1
40
1
40
1
41
1
10
17.7196311458912
20
-0.209652688634606
30
0
41
1
10
17.3297540972608
20
0.0825224709951726
30
0
41
1
10
16.6982103819637
20
0.559386647246413
30
0
41
1
10
15.825
20
1.1764486329204
30
0
41
1
10
15.1787389226781
20
1.58484013122617
30
0
41
1
10
14.7741445120227
20
1.80477812227022
30
0
41
1
10
14.6112167680341
20
1.88690798545451
30
0
0
SPLINE
5
F0
100
AcDbEntity
8
1
62
256
6
ByLayer
370
13
48
1
60
0
100
AcDbSpline
70
4
71
3
72
12
73
8
40
0
40
0
40
0
40
0
40
0.342432931624696
40
0.513649397437044
40
0.684865863249392
40
0.85608232906174
40
1
40
1
40
1
40
1
41
1
10
12.2
20
1.07882076289798
30
0
41
1
10
12.6833333333333
20
0.912244037415633
30
0
41
1
10
13.4083333333333
20
0.61314417784618
30
0
41
1
10
14.375
20
0.163970185394447
30
0
41
1
10
15.1
20
-0.179035093200042
30
0
41
1
10
15.786468607999
20
-0.492678871159626
30
0
41
1
10
16.2312705493314
20
-0.684471511712133
30
0
41
1
10
16.4344058239971
20
-0.768172926314776
30
0
0
SPLINE
5
F1
100
AcDbEntity
8
1
62
256
6
ByLayer
370
18
48
1
60
0
100
AcDbSpline
70
4
71
3
72
18
73
14
40
0
40
0
40
0
40
0
40
0.249999999999985
40
0.249999999999985
40
0.374999999999978
40
0.374999999999978
40
0.499999999999972
40
0.499999999999972
40
0.750000000000017
40
0.750000000000017
40
0.875000000000008
40
0.875000000000008
40
1
40
1
40
1
40
1
41
1
10
16.4344058239971
20
-0.768172926314776
30
0
41
1
10
16.455039074342
20
-0.752094435969553
30
0
41
1
10
16.4769516067923
20
-0.73862855720273
30
0
41
1
10
16.5118312568192
20
-0.722152951425528
30
0
41
1
10
16.523795690409
20
-0.717285708078862
30
0
41
1
10
16.5484494935176
20
-0.708813406314732
30
0
41
1
10
16.5610889618573
20
-0.705234994815527
30
0
41
1
10
16.5992612191036
20
-0.696578926096805
30
0
41
1
10
16.6253102416961
20
-0.693469949245923
30
0
41
1
10
16.6654368227819
20
-0.692495955279071
30
0
41
1
10
16.6790262168042
20
-0.6927967572868
30
0
41
1
10
16.7061305948492
20
-0.694576733961327
30
0
41
1
10
16.7196957131221
20
-0.696051400631319
30
0
41
1
10
16.7332837731192
20
-0.698073864817928
30
0
0
SPLINE
5
F2
100
AcDbEntity
8
1
62
256
6
ByLayer
370
18
48
1
60
0
100
AcDbSpline
70
4
71
3
72
10
73
6
40
0
40
0
40
0
40
0
40
0.101626514211837
40
0.101626514211837
40
1
40
1
40
1
40
1
41
1
10
16.9698458771621
20
-0.737356964374385
30
0
41
1
10
16.9618712877169
20
-0.735880644883622
30
0
41
1
10
16.9538923632243
20
-0.734420688222485
30
0
41
1
10
16.8753411201535
20
-0.720210233630098
30
0
41
1
10
16.8044417349596
20
-0.708665106648709
30
0
41
1
10
16.7332837731194
20
-0.698073864819918
30
0
0
SPLINE
5
F3
100
AcDbEntity
8
1
62
256
6
ByLayer
370
18
48
1
60
0
100
AcDbSpline
70
4
71
3
72
18
73
14
40
0
40
0
40
0
40
0
40
0.250000000000004
40
0.250000000000004
40
0.500000000000009
40
0.500000000000009
40
0.562500000000008
40
0.562500000000008
40
0.625000000000008
40
0.625000000000008
40
0.750000000000005
40
0.750000000000005
40
1
40
1
40
1
40
1
41
1
10
17.2947392028784
20
1.41974705869498
30
0
41
1
10
17.2941838199393
20
1.38727154160912
30
0
41
1
10
17.2959726261191
20
1.34958860359075
30
0
41
1
10
17.3040405978933
20
1.26425212439702
30
0
41
1
10
17.3103203219178
20
1.21659659614002
30
0
41
1
10
17.320992058142
20
1.15075996645729
30
0
41
1
10
17.323268041376
20
1.13727809825474
30
0
41
1
10
17.3281058264073
20
1.10967962191447
30
0
41
1
10
17.3306652137192
20
1.09557872373435
30
0
41
1
10
17.3387149033289
20
1.05262833151585
30
0
41
1
10
17.3445920514155
20
1.02304091303387
30
0
41
1
10
17.3637085581974
20
0.931504974199299
30
0
41
1
10
17.3784271724903
20
0.866793616181496
30
0
41
1
10
17.3950709644067
20
0.79848656227685
30
0
0
SPLINE
5
F4
100
AcDbEntity
8
1
62
256
6
ByLayer
370
18
48
1
60
0
100
AcDbSpline
70
4
71
3
72
18
73
14
40
0
40
0
40
0
40
0
40
0.249999999999997
40
0.249999999999997
40
0.374999999999997
40
0.374999999999997
40
0.499999999999998
40
0.499999999999998
40
0.624999999999998
40
0.624999999999998
40
0.749999999999999
40
0.749999999999999
40
1
40
1
40
1
40
1
41
1
10
17.3950709644117
20
0.798486562269886
30
0
41
1
10
17.41631462534
20
0.720350863132893
30
0
41
1
10
17.4393820377132
20
0.63985122441963
30
0
41
1
10
17.4765127265628
20
0.515822947129919
30
0
41
1
10
17.4892980802983
20
0.473985775313849
30
0
41
1
10
17.5154970780914
20
0.389876632823047
30
0
41
1
10
17.5289328756368
20
0.347530297075679
30
0
41
1
10
17.5564581068664
20
0.262270546815529
30
0
41
1
10
17.5705682416846
20
0.219297725124079
30
0
41
1
10
17.5991914608648
20
0.13351014048348
30
0
41
1
10
17.61372959218
20
0.0906158722961266
30
0
41
1
10
17.6580010434813
20
-0.0380683125836754
30
0
41
1
10
17.6883881772748
20
-0.123859602709985
30
0
41
1
10
17.7196311425175
20
-0.209652690800027
30
0
0
SPLINE
5
F5
100
AcDbEntity
8
1
62
256
6
ByLayer
370
18
48
1
60
0
100
AcDbSpline
70
4
71
3
72
16
73
12
40
0
40
0
40
0
40
0
40
0.249999999999999
40
0.249999999999999
40
0.499999999999998
40
0.499999999999998
40
0.624999999999998
40
0.624999999999998
40
0.749999999999999
40
0.749999999999999
40
1
40
1
40
1
40
1
41
1
10
17.7196311447546
20
-0.209652690120095
30
0
41
1
10
17.7245668129577
20
-0.223206540792944
30
0
41
1
10
17.7293457263546
20
-0.236723057350304
30
0
41
1
10
17.7385627822217
20
-0.263674924201382
30
0
41
1
10
17.743002253161
20
-0.277110592160369
30
0
41
1
10
17.7493423185505
20
-0.297188082087729
30
0
41
1
10
17.7513956295008
20
-0.303849673909213
30
0
41
1
10
17.7553063165681
20
-0.316909277918143
30
0
41
1
10
17.7571719897653
20
-0.323332907717116
30
0
41
1
10
17.7624526137381
20
-0.342229175784865
30
0
41
1
10
17.7654766064496
20
-0.35403720337527
30
0
41
1
10
17.7677770072959
20
-0.364645334619269
30
0
0
SPLINE
5
F6
100
AcDbEntity
8
1
62
256
6
ByLayer
370
18
48
1
60
0
100
AcDbSpline
70
4
71
3
72
8
73
4
40
0
40
0
40
0
40
0
40
1
40
1
40
1
40
1
41
1
10
11.373876277613
20
-1.98403337398378
30
0
41
1
10
11.5160876745472
20
-1.96743505086641
30
0
41
1
10
11.6591523351956
20
-1.95578138932319
30
0
41
1
10
11.8030668527503
20
-1.94905264690857
30
0
0
SPLINE
5
F7
100
AcDbEntity
8
1
62
256
6
ByLayer
370
18
48
1
60
0
100
AcDbSpline
70
4
71
3
72
8
73
4
40
0
40
0
40
0
40
0
40
1
40
1
40
1
40
1
41
1
10
12.2000000000001
20
-2.11618816289243
30
0
41
1
10
12.0666580481822
20
-2.06385437320952
30
0
41
1
10
11.9342747286715
20
-2.00837993187025
30
0
41
1
10
11.8030684563201
20
-1.94904927258136
30
0
0
SPLINE
5
F8
100
AcDbEntity
8
1
62
256
6
ByLayer
370
18
48
1
60
0
100
AcDbSpline
70
4
71
3
72
21
73
17
40
0
40
0
40
0
40
0
40
0.250000000000006
40
0.250000000000006
40
0.312500000000007
40
0.312500000000007
40
0.375000000000008
40
0.375000000000008
40
0.500000000000008
40
0.625000000000008
40
0.625000000000008
40
0.687500000000001
40
0.687500000000001
40
0.749999999999993
40
0.749999999999993
40
1
40
1
40
1
40
1
41
1
10
11.0617575402852
20
-2.63522052880316
30
0
41
1
10
11.0534736067038
20
-2.6137216598313
30
0
41
1
10
11.0499499612736
20
-2.59129473386935
30
0
41
1
10
11.0522013309899
20
-2.5620759536819
30
0
41
1
10
11.052986295892
20
-2.55617288110494
30
0
41
1
10
11.0552517605885
20
-2.54424721369816
30
0
41
1
10
11.056739572131
20
-2.53820260666748
30
0
41
1
10
11.062232468292
20
-2.5200716357341
30
0
41
1
10
11.0722591841862
20
-2.49595287236346
30
0
41
1
10
11.0875071603225
20
-2.47200939818802
30
0
41
1
10
11.1008629697162
20
-2.45414401124393
30
0
41
1
10
11.1056352266069
20
-2.44820428901974
30
0
41
1
10
11.1158173942493
20
-2.43636042119849
30
0
41
1
10
11.1212373851242
20
-2.43044774988539
30
0
41
1
10
11.149591206655
20
-2.40131307902004
30
0
41
1
10
11.1764567117445
20
-2.37911543847645
30
0
41
1
10
11.2068631238189
20
-2.35799495868838
30
0
0
SPLINE
5
F9
100
AcDbEntity
8
1
62
256
6
ByLayer
370
18
48
1
60
0
100
AcDbSpline
70
4
71
3
72
18
73
14
40
0
40
0
40
0
40
0
40
0.250000000000001
40
0.250000000000001
40
0.375000000000001
40
0.375000000000001
40
0.500000000000001
40
0.500000000000001
40
0.75000000000001
40
0.75000000000001
40
0.875000000000005
40
0.875000000000005
40
1
40
1
40
1
40
1
41
1
10
11.2068631255888
20
-2.35799495942504
30
0
41
1
10
11.2033589797707
20
-2.32777177556235
30
0
41
1
10
11.2041842072811
20
-2.29688017656349
30
0
41
1
10
11.2121822481098
20
-2.24962413625042
30
0
41
1
10
11.2159775330665
20
-2.23371907914506
30
0
41
1
10
11.2259054875832
20
-2.20161817294499
30
0
41
1
10
11.2320792981973
20
-2.18535083558842
30
0
41
1
10
11.2537559763371
20
-2.13714918845463
30
0
41
1
10
11.2724422602819
20
-2.10555403946484
30
0
41
1
10
11.3063349207808
20
-2.05907316738006
30
0
41
1
10
11.3186127618756
20
-2.04373189363878
30
0
41
1
10
11.3450796756418
20
-2.01337568003592
30
0
41
1
10
11.359119685308
20
-1.9985321222899
30
0
41
1
10
11.373876277613
20
-1.98403337398383
30
0
0
SPLINE
5
FA
100
AcDbEntity
8
1
62
256
6
ByLayer
370
18
48
1
60
0
100
AcDbSpline
70
4
71
3
72
24
73
20
40
0
40
0
40
0
40
0
40
0.250000000000009
40
0.250000000000009
40
0.375000000000012
40
0.375000000000012
40
0.500000000000016
40
0.500000000000016
40
0.562500000000014
40
0.562500000000014
40
0.625000000000011
40
0.625000000000011
40
0.687500000000009
40
0.687500000000009
40
0.750000000000007
40
0.750000000000007
40
0.875000000000004
40
0.875000000000004
40
1
40
1
40
1
40
1
41
1
10
9.6500031119169
20
-0.728767563860316
30
0
41
1
10
9.64120844502165
20
-0.718252187056976
30
0
41
1
10
9.63300448511075
20
-0.707342723703078
30
0
41
1
10
9.62262473530828
20
-0.689708646325954
30
0
41
1
10
9.6194784165794
20
-0.683580215969357
30
0
41
1
10
9.61451431077657
20
-0.670849710148985
30
0
41
1
10
9.61265909611521
20
-0.664204210846862
30
0
41
1
10
9.61199269306636
20
-0.654021095620749
30
0
41
1
10
9.61214282927997
20
-0.650548411424722
30
0
41
1
10
9.61346498734898
20
-0.643858623821643
30
0
41
1
10
9.61467167941871
20
-0.640561093668452
30
0
41
1
10
9.6181154939747
20
-0.63465743249867
30
0
41
1
10
9.6203989212633
20
-0.631965692520509
30
0
41
1
10
9.6256222322325
20
-0.627417039748707
30
0
41
1
10
9.6285987814569
20
-0.625505965597426
30
0
41
1
10
9.63789301530571
20
-0.620806639744728
30
0
41
1
10
9.64470159672305
20
-0.618903305680107
30
0
41
1
10
9.65840707437155
20
-0.616433538447751
30
0
41
1
10
9.66534929312797
20
-0.615866762702211
30
0
41
1
10
9.67234357959563
20
-0.615688910903344
30
0
0
SPLINE
5
FB
100
AcDbEntity
8
1
62
256
6
ByLayer
370
18
48
1
60
0
100
AcDbSpline
70
4
71
3
72
29
73
25
40
0
40
0
40
0
40
0
40
0.125000000000007
40
0.125000000000007
40
0.250000000000013
40
0.250000000000013
40
0.312500000000007
40
0.312500000000007
40
0.375
40
0.375
40
0.500000000000006
40
0.500000000000006
40
0.562500000000009
40
0.562500000000009
40
0.625000000000012
40
0.687500000000015
40
0.687500000000015
40
0.750000000000018
40
0.750000000000018
40
0.875000000000013
40
0.875000000000013
40
0.937500000000006
40
0.937500000000006
40
1
40
1
40
1
40
1
41
1
10
9.67234357959561
20
-0.615688910903344
30
0
41
1
10
9.71654357257566
20
-0.614564986640573
30
0
41
1
10
9.76054413453784
20
-0.611989108020566
30
0
41
1
10
9.84802996311504
20
-0.603079779418124
30
0
41
1
10
9.89151637071888
20
-0.596754991651125
30
0
41
1
10
9.95622803851143
20
-0.58347831940111
30
0
41
1
10
9.97771343249141
20
-0.578416477558136
30
0
41
1
10
10.0204718581089
20
-0.566787564552186
30
0
41
1
10
10.0415399797207
20
-0.560274995729344
30
0
41
1
10
10.1036930356485
20
-0.538371132965096
30
0
41
1
10
10.1437356655857
20
-0.520635533334513
30
0
41
1
10
10.2011022679764
20
-0.487917109309336
30
0
41
1
10
10.2198639518408
20
-0.475909252557869
30
0
41
1
10
10.2555689379778
20
-0.450146383253042
30
0
41
1
10
10.2896039862132
20
-0.422579000846667
30
0
41
1
10
10.320217855079
20
-0.391294717062067
30
0
41
1
10
10.3490878787857
20
-0.35810419568341
30
0
41
1
10
10.3627034189063
20
-0.340458874051876
30
0
41
1
10
10.4000606717903
20
-0.285940316043138
30
0
41
1
10
10.420641463359
20
-0.247207982112258
30
0
41
1
10
10.4461465964997
20
-0.186100789178056
30
0
41
1
10
10.4537592850191
20
-0.165185978767226
30
0
41
1
10
10.4671999618398
20
-0.122931381354334
30
0
41
1
10
10.4730550416136
20
-0.101536701435492
30
0
41
1
10
10.4781507412907
20
-0.0799055269347377
30
0
0
SPLINE
5
FC
100
AcDbEntity
8
1
62
256
6
ByLayer
370
18
48
1
60
0
100
AcDbSpline
70
4
71
3
72
31
73
27
40
0
40
0
40
0
40
0
40
0.0625000000000005
40
0.0625000000000005
40
0.125000000000001
40
0.125000000000001
40
0.187500000000002
40
0.187500000000002
40
0.250000000000002
40
0.250000000000002
40
0.312500000000003
40
0.312500000000003
40
0.375000000000003
40
0.437500000000004
40
0.437500000000004
40
0.500000000000004
40
0.500000000000004
40
0.625000000000005
40
0.625000000000005
40
0.750000000000007
40
0.750000000000007
40
0.812500000000006
40
0.812500000000006
40
0.875000000000005
40
0.875000000000005
40
1
40
1
40
1
40
1
41
1
10
10.4781507412907
20
-0.0799055269347377
30
0
41
1
10
10.4820234166694
20
-0.0308895283759796
30
0
41
1
10
10.4841531444832
20
0.0180947369323405
30
0
41
1
10
10.4857160402317
20
0.115995765464902
30
0
41
1
10
10.4851440163454
20
0.164912557914306
30
0
41
1
10
10.481785622457
20
0.262675742314911
30
0
41
1
10
10.4789894930913
20
0.311581363357675
30
0
41
1
10
10.4715457594545
20
0.408695743994571
30
0
41
1
10
10.4668966818276
20
0.456973017205968
30
0
41
1
10
10.4559771252488
20
0.552995892418721
30
0
41
1
10
10.4497044518237
20
0.600748736408065
30
0
41
1
10
10.4356788811511
20
0.695708086619788
30
0
41
1
10
10.4202251489494
20
0.789769545880461
30
0
41
1
10
10.4021157266953
20
0.882096293577234
30
0
41
1
10
10.3827241645564
20
0.973571567378684
30
0
41
1
10
10.3723775569179
20
1.01891603740094
30
0
41
1
10
10.3395733744805
20
1.15306956186052
30
0
41
1
10
10.3153230719621
20
1.24022210496841
30
0
41
1
10
10.2618909063517
20
1.40985824511873
30
0
41
1
10
10.232870267747
20
1.49182736489988
30
0
41
1
10
10.1854914270629
20
1.61056690173561
30
0
41
1
10
10.1690402435998
20
1.64946680735167
30
0
41
1
10
10.1349272677776
20
1.7254564438081
30
0
41
1
10
10.1172469953537
20
1.76259601083839
30
0
41
1
10
10.062182430615
20
1.87147290762044
30
0
41
1
10
10.0227886860669
20
1.94067338826827
30
0
41
1
10
9.98014552714781
20
2.00648594085888
30
0
0
SPLINE
5
FD
100
AcDbEntity
8
1
62
256
6
ByLayer
370
18
48
1
60
0
100
AcDbSpline
70
4
71
3
72
12
73
8
40
0
40
0
40
0
40
0
40
0.500000000000018
40
0.500000000000018
40
0.750000000000009
40
0.750000000000009
40
1
40
1
40
1
40
1
41
1
10
9.98014552714733
20
2.00648594085936
30
0
41
1
10
9.97076024242153
20
2.02097055129275
30
0
41
1
10
9.96357068748409
20
2.0358204283599
30
0
41
1
10
9.95665780213528
20
2.05872732733556
30
0
41
1
10
9.95499886127081
20
2.06651407770562
30
0
41
1
10
9.95314978353332
20
2.08207027016826
30
0
41
1
10
9.95295139832706
20
2.08982812082408
30
0
41
1
10
9.95349575837662
20
2.09756554912909
30
0
0
SPLINE
5
FE
100
AcDbEntity
8
1
62
256
6
ByLayer
370
18
48
1
60
0
100
AcDbSpline
70
4
71
3
72
40
73
36
40
0
40
0
40
0
40
0
40
0.0625000000000069
40
0.0625000000000069
40
0.0937500000000104
40
0.0937500000000104
40
0.109375000000012
40
0.109375000000012
40
0.125000000000013
40
0.125000000000013
40
0.18750000000002
40
0.18750000000002
40
0.21875000000002
40
0.21875000000002
40
0.25000000000002
40
0.25000000000002
40
0.312500000000021
40
0.312500000000021
40
0.375000000000021
40
0.375000000000021
40
0.437500000000022
40
0.437500000000022
40
0.500000000000023
40
0.500000000000023
40
0.562500000000023
40
0.562500000000023
40
0.625000000000024
40
0.625000000000024
40
0.750000000000016
40
0.750000000000016
40
0.812500000000012
40
0.812500000000012
40
0.875000000000008
40
0.875000000000008
40
1
40
1
40
1
40
1
41
1
10
9.95349575837662
20
2.09756554912906
30
0
41
1
10
9.95573055640764
20
2.12933053547474
30
0
41
1
10
9.963638320359
20
2.15933493382946
30
0
41
1
10
9.98276163543886
20
2.20211857262751
30
0
41
1
10
9.99035252056379
20
2.21600754598197
30
0
41
1
10
10.0034530279615
20
2.23632212410371
30
0
41
1
10
10.0081206656423
20
2.24302588399541
30
0
41
1
10
10.0179177678593
20
2.25614378258297
30
0
41
1
10
10.023048189742
20
2.26256318563708
30
0
41
1
10
10.049775446034
20
2.2940160429126
30
0
41
1
10
10.0745644539464
20
2.31713745136506
30
0
41
1
10
10.1157137973421
20
2.34949701589727
30
0
41
1
10
10.1301449339027
20
2.35992125789227
30
0
41
1
10
10.1598610680236
20
2.3798484911826
30
0
41
1
10
10.1751676925323
20
2.38937394164199
30
0
41
1
10
10.2222550836263
20
2.41682442990924
30
0
41
1
10
10.2551945301842
20
2.43363265646482
30
0
41
1
10
10.3235278345953
20
2.46495388214191
30
0
41
1
10
10.3589264325338
20
2.47946197387009
30
0
41
1
10
10.4317858955655
20
2.50661717988771
30
0
41
1
10
10.4692827228984
20
2.51926658494494
30
0
41
1
10
10.5453185753874
20
2.54279089425492
30
0
41
1
10
10.5839534313968
20
2.55370211700239
30
0
41
1
10
10.6622981959309
20
2.5741066769817
30
0
41
1
10
10.7020088388172
20
2.58359880729543
30
0
41
1
10
10.7824015282216
20
2.60136309234937
30
0
41
1
10
10.8231026093949
20
2.60963660926589
30
0
41
1
10
10.9460162999451
20
2.63274771235936
30
0
41
1
10
11.0292096731343
20
2.64593459902335
30
0
41
1
10
11.1556983210462
20
2.66301864312285
30
0
41
1
10
11.1981636343347
20
2.6682604006287
30
0
41
1
10
11.2833371069578
20
2.67786338667261
30
0
41
1
10
11.3260834054753
20
2.68223009236735
30
0
41
1
10
11.4547979369296
20
2.69409945957816
30
0
41
1
10
11.5412384677812
20
2.70038239615837
30
0
41
1
10
11.6283422343089
20
2.70509247259685
30
0
0
SPLINE
5
FF
100
AcDbEntity
8
1
62
256
6
ByLayer
370
18
48
1
60
0
100
AcDbSpline
70
4
71
3
72
8
73
4
40
0
40
0
40
0
40
0
40
1
40
1
40
1
40
1
41
1
10
11.2338128695927
20
2.83722155736598
30
0
41
1
10
11.3654223899465
20
2.79943833181289
30
0
41
1
10
11.496803661996
20
2.75533587241571
30
0
41
1
10
11.6283422343088
20
2.70509247259682
30
0
0
SPLINE
5
100
100
AcDbEntity
8
1
62
256
6
ByLayer
370
18
48
1
60
0
100
AcDbSpline
70
4
71
3
72
8
73
4
40
0
40
0
40
0
40
0
40
1
40
1
40
1
40
1
41
1
10
11.2338129544656
20
2.83722154804988
30
0
41
1
10
11.1986257520174
20
2.84673858076769
30
0
41
1
10
11.163345737029
20
2.85581147349666
30
0
41
1
10
11.1279689867792
20
2.86444828490147
30
0
0
SPLINE
5
101
100
AcDbEntity
8
1
62
256
6
ByLayer
370
18
48
1
60
0
100
AcDbSpline
70
4
71
3
72
19
73
15
40
0
40
0
40
0
40
0
40
0.250000000000005
40
0.250000000000005
40
0.375000000000007
40
0.375000000000007
40
0.50000000000001
40
0.50000000000001
40
0.750000000000014
40
0.750000000000014
40
0.812500000000004
40
0.812500000000004
40
0.874999999999994
40
1
40
1
40
1
40
1
41
1
10
11.1279689867078
20
2.86444828484559
30
0
41
1
10
11.124878838815
20
2.87704581868019
30
0
41
1
10
11.1258836446655
20
2.88867263547198
30
0
41
1
10
11.13421670815
20
2.90470983599783
30
0
41
1
10
11.13813627775
20
2.90982163302675
30
0
41
1
10
11.1484401114709
20
2.9195851958699
30
0
41
1
10
11.1547561469538
20
2.92416372958817
30
0
41
1
10
11.1769508810345
20
2.93696444107579
30
0
41
1
10
11.1961188463517
20
2.94430962595104
30
0
41
1
10
11.2254081470675
20
2.95228823344476
30
0
41
1
10
11.2315346678817
20
2.95382307651749
30
0
41
1
10
11.244190667781
20
2.95675070132799
30
0
41
1
10
11.2638227281776
20
2.96094119063653
30
0
41
1
10
11.2853218102187
20
2.96458037625206
30
0
41
1
10
11.3004327984894
20
2.96679949218142
30
0
0
SPLINE
5
102
100
AcDbEntity
8
1
62
256
6
ByLayer
370
18
48
1
60
0
100
AcDbSpline
70
4
71
3
72
8
73
4
40
0
40
0
40
0
40
0
40
1
40
1
40
1
40
1
41
1
10
11.1903413021717
20
-2.67720024453285
30
0
41
1
10
11.2477965660389
20
-2.69633086454692
30
0
41
1
10
11.3052247489627
20
-2.71465030863979
30
0
41
1
10
11.3626438306752
20
-2.73214961917847
30
0
0
SPLINE
5
103
100
AcDbEntity
8
1
62
256
6
ByLayer
370
18
48
1
60
0
100
AcDbSpline
70
4
71
3
72
8
73
4
40
0
40
0
40
0
40
0
40
1
40
1
40
1
40
1
41
1
10
11.1903413383989
20
-2.67720025282628
30
0
41
1
10
11.1475787199274
20
-2.66354528495205
30
0
41
1
10
11.1047184401437
20
-2.64954762825818
30
0
41
1
10
11.0617575402839
20
-2.63522052880708
30
0
0
SPLINE
5
104
100
AcDbEntity
8
1
62
256
6
ByLayer
370
18
48
1
60
0
100
AcDbSpline
70
4
71
3
72
8
73
4
40
0
40
0
40
0
40
0
40
1
40
1
40
1
40
1
41
1
10
17.799064773292
20
-0.859985898238193
30
0
41
1
10
17.8249202194851
20
-1.02507384103822
30
0
41
1
10
17.8545618080556
20
-1.18876221049018
30
0
41
1
10
17.8898276235705
20
-1.349611551837
30
0
0
SPLINE
5
105
100
AcDbEntity
8
1
62
256
6
ByLayer
370
18
48
1
60
0
100
AcDbSpline
70
4
71
3
72
8
73
4
40
0
40
0
40
0
40
0
40
1
40
1
40
1
40
1
41
1
10
17.7586979474539
20
-0.514027661948177
30
0
41
1
10
17.7734803662409
20
-0.6295231033113
30
0
41
1
10
17.7868225578334
20
-0.744827468255295
30
0
41
1
10
17.799064773292
20
-0.859985898238193
30
0
0
SPLINE
5
106
100
AcDbEntity
8
1
62
256
6
ByLayer
370
18
48
1
60
0
100
AcDbSpline
70
4
71
3
72
8
73
4
40
0
40
0
40
0
40
0
40
1
40
1
40
1
40
1
41
1
10
12.2000000000001
20
2.79268315381091
30
0
41
1
10
12.0888303772041
20
2.80138104888363
30
0
41
1
10
11.9787275508955
20
2.80714131639212
30
0
41
1
10
11.869881348448
20
2.80944123046004
30
0
0
SPLINE
5
107
100
AcDbEntity
8
1
62
256
6
ByLayer
370
18
48
1
60
0
100
AcDbSpline
70
4
71
3
72
15
73
11
40
0
40
0
40
0
40
0
40
0.133627733952401
40
0.267187150730701
40
0.400687150779263
40
0.534136415430899
40
0.667543409938496
40
0.800916397065153
40
0.934263496822708
40
1
40
1
40
1
40
1
41
1
10
11.8698813534735
20
2.8094412310183
30
0
41
1
10
11.8640429409059
20
2.80883952901669
30
0
41
1
10
11.8523691006589
20
2.80763643263362
30
0
41
1
10
11.8349943668902
20
2.80621337868047
30
0
41
1
10
11.8177256079503
20
2.80506753069568
30
0
41
1
10
11.8005722432327
20
2.80422410132235
30
0
41
1
10
11.7835318163455
20
2.80367338273788
30
0
41
1
10
11.7666050171044
20
2.80341532569437
30
0
41
1
10
11.7526324691433
20
2.80344214237644
30
0
41
1
10
11.7443066858984
20
2.80356537630729
30
0
41
1
10
11.741562077858
20
2.80361771073109
30
0
0
SPLINE
5
108
100
AcDbEntity
8
1
62
256
6
ByLayer
370
18
48
1
60
0
100
AcDbSpline
70
4
71
3
72
8
73
4
40
0
40
0
40
0
40
0
40
1
40
1
40
1
40
1
41
1
10
17.7837675036662
20
-1.35023754781073
30
0
41
1
10
17.819052194104
20
-1.34984280439807
30
0
41
1
10
17.8544064458405
20
-1.34963652113973
30
0
41
1
10
17.8898276235705
20
-1.349611551837
30
0
0
SPLINE
5
109
100
AcDbEntity
8
1
62
256
6
ByLayer
370
18
48
1
60
0
100
AcDbSpline
70
4
71
3
72
8
73
4
40
0
40
0
40
0
40
0
40
1
40
1
40
1
40
1
41
1
10
17.7586979474553
20
-0.514027661947921
30
0
41
1
10
17.7570047699654
20
-0.511597632386525
30
0
41
1
10
17.7553105141506
20
-0.509169045335625
30
0
41
1
10
17.7536151793119
20
-0.506741901730464
30
0
0
SPLINE
5
10A
100
AcDbEntity
8
1
62
256
6
ByLayer
370
18
48
1
60
0
100
AcDbSpline
70
4
71
3
72
8
73
4
40
0
40
0
40
0
40
0
40
1
40
1
40
1
40
1
41
1
10
17.753615179315
20
-0.506741901738991
30
0
41
1
10
17.7689608294044
20
-0.508007361068081
30
0
41
1
10
17.7843241065376
20
-0.50905177830731
30
0
41
1
10
17.7997055135777
20
-0.509868847580151
30
0
0
SPLINE
5
10B
100
AcDbEntity
8
1
62
256
6
ByLayer
370
18
48
1
60
0
100
AcDbSpline
70
4
71
3
72
8
73
4
40
0
40
0
40
0
40
0
40
1
40
1
40
1
40
1
41
1
10
17.767777010361
20
-0.364645335875423
30
0
41
1
10
17.7781616802537
20
-0.412579416007219
30
0
41
1
10
17.7887985461556
20
-0.460976303017674
30
0
41
1
10
17.7997055135777
20
-0.509868847580179
30
0
0
SPLINE
5
10C
100
AcDbEntity
8
1
62
256
6
ByLayer
370
13
48
1
60
0
100
AcDbSpline
70
4
71
3
72
10
73
6
40
0
40
0
40
0
40
0
40
0.493095662007981
40
0.786658729493042
40
1
40
1
40
1
40
1
41
1
10
17.7677770113198
20
-0.364645334667671
30
0
41
1
10
17.3618513408799
20
-0.054915188239022
30
0
41
1
10
16.7142590037733
20
0.448136006081171
30
0
41
1
10
15.8910400997844
20
1.05340136761299
30
0
41
1
10
15.4737468662354
20
1.33493275029457
30
0
41
1
10
15.2981202993531
20
1.44744931150265
30
0
0
SPLINE
5
10D
100
AcDbEntity
8
1
62
256
6
ByLayer
370
18
48
1
60
0
100
AcDbSpline
70
4
71
3
72
41
73
37
40
0
40
0
40
0
40
0
40
0.124999999999977
40
0.124999999999977
40
0.140624999999975
40
0.140624999999975
40
0.156249999999973
40
0.156249999999973
40
0.187499999999971
40
0.187499999999971
40
0.249999999999971
40
0.249999999999971
40
0.374999999999969
40
0.374999999999969
40
0.437499999999969
40
0.437499999999969
40
0.468749999999968
40
0.468749999999968
40
0.484374999999969
40
0.484374999999969
40
0.49999999999997
40
0.562499999999976
40
0.562499999999976
40
0.624999999999982
40
0.624999999999982
40
0.749999999999992
40
0.749999999999992
40
0.781249999999994
40
0.781249999999994
40
0.812499999999995
40
0.812499999999995
40
0.874999999999997
40
0.874999999999997
40
0.937499999999998
40
0.937499999999998
40
1
40
1
40
1
40
1
41
1
10
17.7586979474558
20
-0.51402766194866
30
0
41
1
10
17.5261104114527
20
-0.32493621003772
30
0
41
1
10
17.2941982709555
20
-0.13300301025464
30
0
41
1
10
17.0320506140081
20
0.0835960768117161
30
0
41
1
10
17.0029053825441
20
0.107671547786623
30
0
41
1
10
16.944572764458
20
0.155832300952113
30
0
41
1
10
16.9153683319646
20
0.179931618135441
30
0
41
1
10
16.8279186411838
20
0.25203618314282
30
0
41
1
10
16.7697770951672
20
0.299897629364523
30
0
41
1
10
16.5957379527429
20
0.4427630290661
30
0
41
1
10
16.480226538107
20
0.537051580594323
30
0
41
1
10
16.1345230342809
20
0.816233002522324
30
0
41
1
10
15.90517721428
20
0.997444986782682
30
0
41
1
10
15.559544500523
20
1.25806334897217
30
0
41
1
10
15.4440672497708
20
1.34307147993147
30
0
41
1
10
15.2700405688402
20
1.46728999800689
30
0
41
1
10
15.2118963229313
20
1.50814686532743
30
0
41
1
10
15.1244237283917
20
1.56854318508698
30
0
41
1
10
15.0952266037858
20
1.58852426122007
30
0
41
1
10
15.0369549010029
20
1.62803514529023
30
0
41
1
10
14.8914488398433
20
1.72577797561897
30
0
41
1
10
14.7467293622619
20
1.81833560348849
30
0
41
1
10
14.5157396776836
20
1.95967074442325
30
0
41
1
10
14.4005478256885
20
2.02693791707731
30
0
41
1
10
14.0552670659782
20
2.21803721126534
30
0
41
1
10
13.825472691288
20
2.33122326325687
30
0
41
1
10
13.5361614197461
20
2.45245957560016
30
0
41
1
10
13.4781942946726
20
2.47569178849687
30
0
41
1
10
13.361980998556
20
2.52005455844983
30
0
41
1
10
13.3036530822947
20
2.54121125322865
30
0
41
1
10
13.1290662173974
20
2.60110751449903
30
0
41
1
10
13.0130351391369
20
2.63634916327862
30
0
41
1
10
12.7811295966499
20
2.69731640073633
30
0
41
1
10
12.6652478897175
20
2.72305460491756
30
0
41
1
10
12.4330534694673
20
2.76505289872895
30
0
41
1
10
12.316744097734
20
2.7813108210361
30
0
41
1
10
12.2000000000001
20
2.79268315381091
30
0
0
SPLINE
5
10E
100
AcDbEntity
8
1
62
256
6
ByLayer
370
13
48
1
60
0
100
AcDbSpline
70
4
71
3
72
11
73
7
40
0
40
0
40
0
40
0
40
0.124589084691109
40
0.343441813518332
40
0.562294542345555
40
1
40
1
40
1
40
1
41
1
10
15.5127299983193
20
0.503272477270883
30
0
41
1
10
15.3751533322128
20
0.610515057767259
30
0
41
1
10
14.9959099994398
20
0.902511731495139
30
0
41
1
10
14.3749999999999
20
1.35398001286626
30
0
41
1
10
13.4083333333333
20
1.97733851815698
30
0
41
1
10
12.6833333333333
20
2.32592496710547
30
0
41
1
10
12.2
20
2.47857027174803
30
0
0
SPLINE
5
10F
100
AcDbEntity
8
1
62
256
6
ByLayer
370
18
48
1
60
0
100
AcDbSpline
70
4
71
3
72
20
73
16
40
0
40
0
40
0
40
0
40
0.0815905673207671
40
0.163012298437151
40
0.244269935519176
40
0.325368089082513
40
0.406311245815863
40
0.487103775837505
40
0.567749938101068
40
0.648253856461381
40
0.728619499501249
40
0.808850693487779
40
0.88895112532137
40
0.968924344940882
40
1
40
1
40
1
40
1
41
1
10
11.5112667024717
20
2.83716887636012
30
0
41
1
10
11.5053251062757
20
2.83580595845493
30
0
41
1
10
11.4934542088901
20
2.83308294294463
30
0
41
1
10
11.4757668585652
20
2.8293612044545
30
0
41
1
10
11.4581907986538
20
2.8259068923158
30
0
41
1
10
11.4407332664628
20
2.82274273211954
30
0
41
1
10
11.4233924821471
20
2.81985879696208
30
0
41
1
10
11.4061690703894
20
2.81725392134754
30
0
41
1
10
11.389063013305
20
2.81492464335159
30
0
41
1
10
11.3720744599504
20
2.81286811785245
30
0
41
1
10
11.3552035034431
20
2.81108130000203
30
0
41
1
10
11.3384502407194
20
2.8095611705472
30
0
41
1
10
11.3218147749068
20
2.80830472347668
30
0
41
1
10
11.3086550015391
20
2.80751125857051
30
0
41
1
10
11.3010395817335
20
2.8071328626819
30
0
41
1
10
11.2989108393477
20
2.80703340518548
30
0
0
SPLINE
5
110
100
AcDbEntity
8
1
62
256
6
ByLayer
370
18
48
1
60
0
100
AcDbSpline
70
4
71
3
72
15
73
11
40
0
40
0
40
0
40
0
40
0.392137651714712
40
0.392137651714712
40
0.490172064643386
40
0.490172064643386
40
0.58820647757206
40
0.784275303429416
40
0.784275303429416
40
1
40
1
40
1
40
1
41
1
10
12.2000000000001
20
-2.65466428647488
30
0
41
1
10
12.4307834725179
20
-2.72094580666493
30
0
41
1
10
12.6608714008548
20
-2.77423657712791
30
0
41
1
10
12.948979794058
20
-2.82395469261064
30
0
41
1
10
13.0066743154345
20
-2.83306067237015
30
0
41
1
10
13.1219176870428
20
-2.84953540401298
30
0
41
1
10
13.294430877575
20
-2.87162702076191
30
0
41
1
10
13.4660626996601
20
-2.88590496336624
30
0
41
1
10
13.7058703753707
20
-2.89866954427515
30
0
41
1
10
13.8312084934775
20
-2.90118921737147
30
0
41
1
10
13.9564476287321
20
-2.89957668778911
30
0
0
SPLINE
5
111
100
AcDbEntity
8
1
62
256
6
ByLayer
370
18
48
1
60
0
100
AcDbSpline
70
4
71
3
72
16
73
12
40
0
40
0
40
0
40
0
40
0.0554085577684915
40
0.112500797304928
40
0.226685276377801
40
0.340869755450674
40
0.455054234523548
40
0.683423192669294
40
0.797607671742167
40
0.911792150815041
40
1
40
1
40
1
40
1
41
1
10
11.4603201679059
20
-2.38234905321127
30
0
41
1
10
11.5247013374017
20
-2.40852385484507
30
0
41
1
10
11.655394207356
20
-2.45984342124811
30
0
41
1
10
11.9185958132188
20
-2.55551979597101
30
0
41
1
10
12.2497203563
20
-2.66074611201441
30
0
41
1
10
12.64628730798
20
-2.76149895015985
30
0
41
1
10
13.1740538432307
20
-2.86058392166515
30
0
41
1
10
13.7018507965945
20
-2.90600939073479
30
0
41
1
10
14.2324059002769
20
-2.89611116073485
30
0
41
1
10
14.6020530727207
20
-2.86338765994589
30
0
41
1
10
14.8398316156149
20
-2.82770167519797
30
0
41
1
10
14.9437961232657
20
-2.80933682009939
30
0
0
SPLINE
5
112
100
AcDbEntity
8
1
62
256
6
ByLayer
370
18
48
1
60
0
100
AcDbSpline
70
4
71
3
72
8
73
4
40
0
40
0
40
0
40
0
40
1
40
1
40
1
40
1
41
1
10
17.7441228180325
20
-1.34732221142457
30
0
41
1
10
17.7573361768558
20
-1.34827038526649
30
0
41
1
10
17.7705510737754
20
-1.3492421925001
30
0
41
1
10
17.7837675034088
20
-1.3502375503879
30
0
0
SPLINE
5
113
100
AcDbEntity
8
1
62
256
6
ByLayer
370
18
48
1
60
0
100
AcDbSpline
70
4
71
2
72
6
73
3
40
0
40
0
40
0
40
1
40
1
40
1
41
0.500000139209053
10
12.1924145433269
20
-2.65434706504998
30
0
41
0.499999860790947
10
12.1962072134982
20
-2.65450397855689
30
0
41
0.500000139209053
10
12.2000000634617
20
-2.65466079625982
30
0
0
SPLINE
5
114
100
AcDbEntity
8
1
62
256
6
ByLayer
370
18
48
1
60
0
100
AcDbSpline
70
4
71
3
72
8
73
4
40
0
40
0
40
0
40
0
40
1
40
1
40
1
40
1
41
1
10
12.1596123903633
20
-2.65351895480225
30
0
41
1
10
12.1705388332691
20
-2.65361845568088
30
0
41
1
10
12.1814728793004
20
-2.65389437741905
30
0
41
1
10
12.1924145433269
20
-2.65434706504973
30
0
0
SPLINE
5
115
100
AcDbEntity
8
1
62
256
6
ByLayer
370
18
48
1
60
0
100
AcDbSpline
70
4
71
2
72
6
73
3
40
0
40
0
40
0
40
1
40
1
40
1
41
0.499999754113691
10
12.1924145433269
20
2.64628340281992
30
0
41
0.500000245886309
10
12.1956609320845
20
2.64642226526902
30
0
41
0.499999754113691
10
12.198907186942
20
2.64656105518937
30
0
0
SPLINE
5
116
100
AcDbEntity
8
1
62
256
6
ByLayer
370
18
48
1
60
0
100
AcDbSpline
70
4
71
3
72
8
73
4
40
0
40
0
40
0
40
0
40
1
40
1
40
1
40
1
41
1
10
12.1338659254391
20
2.64521487250076
30
0
41
1
10
12.1533395474352
20
2.64509205843791
30
0
41
1
10
12.1728556241202
20
2.64544678107623
30
0
41
1
10
12.1924145433269
20
2.64628340281979
30
0
0
SPLINE
5
117
100
AcDbEntity
8
1
62
256
6
ByLayer
370
18
48
1
60
0
100
AcDbSpline
70
4
71
3
72
8
73
4
40
0
40
0
40
0
40
0
40
1
40
1
40
1
40
1
41
1
10
11.3626438306769
20
-2.73214961917901
30
0
41
1
10
11.3607594819111
20
-2.7225510056814
30
0
41
1
10
11.359096592455
20
-2.71300281571828
30
0
41
1
10
11.3576488883885
20
-2.70350140349234
30
0
0
SPLINE
5
118
100
AcDbEntity
8
1
62
256
6
ByLayer
370
18
48
1
60
0
100
AcDbSpline
70
4
71
3
72
14
73
10
40
0
40
0
40
0
40
0
40
0.25
40
0.25
40
0.5
40
0.5
40
0.75
40
0.75
40
1
40
1
40
1
40
1
41
1
10
12.1596123903677
20
-2.65351895480626
30
0
41
1
10
12.1621584321086
20
-2.65287399572154
30
0
41
1
10
12.1647601561971
20
-2.65228756239614
30
0
41
1
10
12.1701640218278
20
-2.65131810924362
30
0
41
1
10
12.1730122919289
20
-2.65093070502434
30
0
41
1
10
12.1787862323596
20
-2.65056391000431
30
0
41
1
10
12.1817789552426
20
-2.65059700853178
30
0
41
1
10
12.1873630714346
20
-2.65117634519362
30
0
41
1
10
12.1900144559432
20
-2.65171920493367
30
0
41
1
10
12.1924145433241
20
-2.65240773177419
30
0
0
SPLINE
5
119
100
AcDbEntity
8
1
62
256
6
ByLayer
370
18
48
1
60
0
100
AcDbSpline
70
4
71
3
72
8
73
4
40
0
40
0
40
0
40
0
40
1
40
1
40
1
40
1
41
1
10
12.1999999999995
20
-2.65457911948192
30
0
41
1
10
12.1974714661933
20
-2.65385687444117
30
0
41
1
10
12.1949429793934
20
-2.65313307873632
30
0
41
1
10
12.1924145433269
20
-2.65240773177163
30
0
0
SPLINE
5
11A
100
AcDbEntity
8
1
62
256
6
ByLayer
370
18
48
1
60
0
100
AcDbSpline
70
4
71
3
72
21
73
17
40
0
40
0
40
0
40
0
40
0.250000000000021
40
0.250000000000021
40
0.375000000000028
40
0.437500000000027
40
0.437500000000027
40
0.500000000000025
40
0.500000000000025
40
0.749999999999991
40
0.749999999999991
40
0.874999999999984
40
0.874999999999984
40
0.937499999999992
40
0.937499999999992
40
1
40
1
40
1
40
1
41
1
10
11.300432798487
20
2.96679949218165
30
0
41
1
10
11.3008319103638
20
2.97359710858225
30
0
41
1
10
11.3050403802358
20
2.97925462386817
30
0
41
1
10
11.3173730327792
20
2.98616203779304
30
0
41
1
10
11.3250477427671
20
2.98922086699074
30
0
41
1
10
11.3350778301531
20
2.99171115130656
30
0
41
1
10
11.3423011901912
20
2.99324763288428
30
0
41
1
10
11.3461787437174
20
2.99395276642903
30
0
41
1
10
11.3666958907811
20
2.99714622165607
30
0
41
1
10
11.3868597472726
20
2.99867620359336
30
0
41
1
10
11.4223796034908
20
2.99980524460716
30
0
41
1
10
11.4351011521794
20
2.99998641907948
30
0
41
1
10
11.4554829636948
20
3.00000568673173
30
0
41
1
10
11.4625069754928
20
2.99996976350869
30
0
41
1
10
11.4768789802114
20
2.99982149483313
30
0
41
1
10
11.4842344773579
20
2.9997093121728
30
0
41
1
10
11.4917530849828
20
2.99956333577592
30
0
0
SPLINE
5
11B
100
AcDbEntity
8
1
62
256
6
ByLayer
370
18
48
1
60
0
100
AcDbSpline
70
4
71
3
72
14
73
10
40
0
40
0
40
0
40
0
40
0.215942813465852
40
0.215942813465852
40
0.346619011221544
40
0.346619011221544
40
0.477295208977237
40
0.477295208977237
40
1
40
1
40
1
40
1
41
1
10
10.3809183906074
20
-2.95754277261227
30
0
41
1
10
10.3636308077597
20
-2.96856032608017
30
0
41
1
10
10.3455297545695
20
-2.97740862853215
30
0
41
1
10
10.3150882814519
20
-2.98818684986452
30
0
41
1
10
10.3032784579883
20
-2.99147030988459
30
0
41
1
10
10.2790904989136
20
-2.99646149956669
30
0
41
1
10
10.2667083165111
20
-2.99817319964714
30
0
41
1
10
10.203271409306
20
-3.00290394319865
30
0
41
1
10
10.1477358655401
20
-2.99447627565178
30
0
41
1
10
10.0855844574944
20
-2.97464793877583
30
0
0
SPLINE
5
11C
100
AcDbEntity
8
1
62
256
6
ByLayer
370
18
48
1
60
0
100
AcDbSpline
70
4
71
3
72
12
73
8
40
0
40
0
40
0
40
0
40
0.500000000000001
40
0.500000000000001
40
0.75
40
0.75
40
1
40
1
40
1
40
1
41
1
10
10.0855844574944
20
-2.97464793877583
30
0
41
1
10
10.0741480453552
20
-2.97099934834679
30
0
41
1
10
10.0665291022837
20
-2.96684309622572
30
0
41
1
10
10.0626618298131
20
-2.95964436499835
30
0
41
1
10
10.0626909357676
20
-2.95713395579938
30
0
41
1
10
10.0654619123913
20
-2.95195792802801
30
0
41
1
10
10.0681982228188
20
-2.9492836552642
30
0
41
1
10
10.0723506453862
20
-2.9465303130651
30
0
0
SPLINE
5
11D
100
AcDbEntity
8
1
62
256
6
ByLayer
370
18
48
1
60
0
100
AcDbSpline
70
4
71
3
72
32
73
28
40
0
40
0
40
0
40
0
40
0.0624999999999962
40
0.0624999999999962
40
0.124999999999992
40
0.124999999999992
40
0.15624999999999
40
0.15624999999999
40
0.187499999999988
40
0.187499999999988
40
0.249999999999994
40
0.249999999999994
40
0.312499999999999
40
0.312499999999999
40
0.375000000000004
40
0.375000000000004
40
0.500000000000003
40
0.500000000000003
40
0.625000000000002
40
0.625000000000002
40
0.687500000000002
40
0.687500000000002
40
0.750000000000002
40
0.750000000000002
40
0.875000000000001
40
0.875000000000001
40
1
40
1
40
1
40
1
41
1
10
10.0723506453862
20
-2.9465303130651
30
0
41
1
10
10.0813007286304
20
-2.94059579135362
30
0
41
1
10
10.092922855717
20
-2.93443645489447
30
0
41
1
10
10.1207518315555
20
-2.92181664261503
30
0
41
1
10
10.1369620998387
20
-2.91535564902159
30
0
41
1
10
10.1643332261021
20
-2.905527254438
30
0
41
1
10
10.1739990663509
20
-2.90221798581726
30
0
41
1
10
10.1941569327077
20
-2.89561449003227
30
0
41
1
10
10.2045988666826
20
-2.89233556937822
30
0
41
1
10
10.2369015715699
20
-2.88257555084766
30
0
41
1
10
10.259734045933
20
-2.87617134816654
30
0
41
1
10
10.3075629048097
20
-2.86360638231761
30
0
41
1
10
10.3325616247805
20
-2.85744550600882
30
0
41
1
10
10.3844400698482
20
-2.84540174780199
30
0
41
1
10
10.4113866419581
20
-2.83950676052479
30
0
41
1
10
10.4937880562418
20
-2.82248024394414
30
0
41
1
10
10.5510360368754
20
-2.81193964091784
30
0
41
1
10
10.6692007606756
20
-2.79253502516491
30
0
41
1
10
10.7295791159581
20
-2.78376171864775
30
0
41
1
10
10.8216763626739
20
-2.77201009257982
30
0
41
1
10
10.8526384938837
20
-2.76832743398981
30
0
41
1
10
10.9150599115741
20
-2.76143845013181
30
0
41
1
10
10.9465453121741
20
-2.75823020736857
30
0
41
1
10
11.0412967711989
20
-2.74937343571605
30
0
41
1
10
11.1049755063669
20
-2.74447629558264
30
0
41
1
10
11.2332923646117
20
-2.73674045490719
30
0
41
1
10
11.2980275825398
20
-2.73390411350894
30
0
41
1
10
11.3626438306769
20
-2.73214961917901
30
0
0
SPLINE
5
11E
100
AcDbEntity
8
1
62
256
6
ByLayer
370
18
48
1
60
0
100
AcDbSpline
70
4
71
3
72
35
73
31
40
0
40
0
40
0
40
0
40
0.124999999999997
40
0.124999999999997
40
0.156249999999998
40
0.156249999999998
40
0.187499999999998
40
0.250000000000001
40
0.250000000000001
40
0.375000000000009
40
0.375000000000009
40
0.406250000000011
40
0.421875000000011
40
0.421875000000011
40
0.437500000000011
40
0.437500000000011
40
0.500000000000013
40
0.500000000000013
40
0.625000000000014
40
0.625000000000014
40
0.687500000000015
40
0.687500000000015
40
0.718750000000015
40
0.734375000000015
40
0.734375000000015
40
0.750000000000015
40
0.750000000000015
40
0.875000000000007
40
0.875000000000007
40
1
40
1
40
1
40
1
41
1
10
12.2000000000001
20
2.64659331054347
30
0
41
1
10
12.4328272219147
20
2.56530397326114
30
0
41
1
10
12.664462949337
20
2.46585274110691
30
0
41
1
10
12.9549487588364
20
2.32013279791352
30
0
41
1
10
13.0131481661574
20
2.28988789194582
30
0
41
1
10
13.1291617822216
20
2.22759463888289
30
0
41
1
10
13.3027768245858
20
2.13136825976974
30
0
41
1
10
13.4755019468205
20
2.0271246206585
30
0
41
1
10
13.8206201366255
20
1.80880010930858
30
0
41
1
10
14.0502684446465
20
1.65016162325395
30
0
41
1
10
14.3395021061808
20
1.43799800456895
30
0
41
1
10
14.4264339081948
20
1.37330527997625
30
0
41
1
10
14.5136804995441
20
1.30710465418306
30
0
41
1
10
14.5719226721821
20
1.26264161795453
30
0
41
1
10
14.6010682874045
20
1.24025621406676
30
0
41
1
10
14.7465017489264
20
1.12791729724489
30
0
41
1
10
14.8622978269825
20
1.03644022944698
30
0
41
1
10
15.2086715387081
20
0.757971720463729
30
0
41
1
10
15.4381585597285
20
0.566864945031512
30
0
41
1
10
15.7829171031306
20
0.275127628968278
30
0
41
1
10
15.8979334610384
20
0.177043880878046
30
0
41
1
10
16.0710068815303
20
0.0291150434449889
30
0
41
1
10
16.157681534744
20
-0.0450495164801907
30
0
41
1
10
16.2446444895924
20
-0.119423457621849
30
0
41
1
10
16.3026932626582
20
-0.169042153648007
30
0
41
1
10
16.3317807492463
20
-0.193892056195438
30
0
41
1
10
16.59326291732
20
-0.417077039413698
30
0
41
1
10
16.8232809824095
20
-0.611918099603059
30
0
41
1
10
17.2830014066356
20
-0.989646790323064
30
0
41
1
10
17.5127205888887
20
-1.17250408019746
30
0
41
1
10
17.7441228180314
20
-1.34732221142494
30
0
0
SPLINE
5
11F
100
AcDbEntity
8
1
62
256
6
ByLayer
370
18
48
1
60
0
100
AcDbSpline
70
4
71
3
72
24
73
20
40
0
40
0
40
0
40
0
40
0.0139992102384936
40
0.0467505120076975
40
0.112253115546105
40
0.177755719084513
40
0.243258322622921
40
0.374263529699737
40
0.439766133238145
40
0.505268736776552
40
0.538020038545756
40
0.57077134031496
40
0.636273943853368
40
0.701776547391776
40
0.767279150930184
40
0.832781754468592
40
0.898284358006999
40
0.963786961545407
40
1
40
1
40
1
40
1
41
1
10
11.5112667024594
20
2.83716887636228
30
0
41
1
10
11.5394184086271
20
2.83220808392204
30
0
41
1
10
11.6334043604422
20
2.81467094072971
30
0
41
1
10
11.8588323495391
20
2.76483040306292
30
0
41
1
10
12.1867930378148
20
2.66880577452611
30
0
41
1
10
12.5785742926883
20
2.5186447173138
30
0
41
1
10
13.0983888398454
20
2.27507760601955
30
0
41
1
10
13.617114547461
20
1.97058388325715
30
0
41
1
10
14.1397628223318
20
1.61374069823131
30
0
41
1
10
14.4691781090568
20
1.37073698223136
30
0
41
1
10
14.7350533194119
20
1.16553742565145
30
0
41
1
10
15.0026276110067
20
0.953537257367287
30
0
41
1
10
15.3409738171903
20
0.67660291439023
30
0
41
1
10
15.7546209047028
20
0.328118847677985
30
0
41
1
10
16.1775652115604
20
-0.0332523199846548
30
0
41
1
10
16.6112857395125
20
-0.403459102953889
30
0
41
1
10
17.0575273009781
20
-0.777647372474831
30
0
41
1
10
17.4498910997805
20
-1.09420048446827
30
0
41
1
10
17.6954206155145
20
-1.28344986064226
30
0
41
1
10
17.7837675039212
20
-1.35023754521285
30
0
0
SPLINE
5
120
100
AcDbEntity
8
1
62
256
6
ByLayer
370
18
48
1
60
0
100
AcDbSpline
70
4
71
3
72
8
73
4
40
0
40
0
40
0
40
0
40
1
40
1
40
1
40
1
41
1
10
11.6186882463758
20
2.67594919047002
30
0
41
1
10
11.6814883099422
20
2.66763355738098
30
0
41
1
10
11.7448414550268
20
2.66105940746488
30
0
41
1
10
11.8088266715023
20
2.65595956019732
30
0
0
SPLINE
5
121
100
AcDbEntity
8
1
62
256
6
ByLayer
370
18
48
1
60
0
100
AcDbSpline
70
4
71
3
72
10
73
6
40
0
40
0
40
0
40
0
40
0.5
40
0.5
40
1
40
1
40
1
40
1
41
1
10
11.8088266715023
20
2.65595956019729
30
0
41
1
10
11.8626040378571
20
2.65167331456169
30
0
41
1
10
11.9166604103368
20
2.64866090633765
30
0
41
1
10
12.0250975762731
20
2.64510545748715
30
0
41
1
10
12.0794277272005
20
2.64456234081283
30
0
41
1
10
12.1338659254391
20
2.64521487250076
30
0
0
SPLINE
5
122
100
AcDbEntity
8
1
62
256
6
ByLayer
370
18
48
1
60
0
100
AcDbSpline
70
4
71
3
72
18
73
14
40
0
40
0
40
0
40
0
40
0.249999999999852
40
0.249999999999852
40
0.499999999999704
40
0.499999999999704
40
0.624999999999778
40
0.624999999999778
40
0.749999999999852
40
0.749999999999852
40
0.874999999999926
40
0.874999999999926
40
1
40
1
40
1
40
1
41
1
10
12.133865925439
20
2.64521487250076
30
0
41
1
10
12.138332560761
20
2.646226164007
30
0
41
1
10
12.1428705632874
20
2.64721951592426
30
0
41
1
10
12.1521827691699
20
2.64907379425833
30
0
41
1
10
12.1569776947616
20
2.64994859146427
30
0
41
1
10
12.1645104897656
20
2.65094601323412
30
0
41
1
10
12.1670709998456
20
2.65122329974798
30
0
41
1
10
12.1723693612524
20
2.65157165397019
30
0
41
1
10
12.1750860328272
20
2.65163699318282
30
0
41
1
10
12.1804845990561
20
2.6514117057942
30
0
41
1
10
12.1831476457971
20
2.65111248864264
30
0
41
1
10
12.1880602616803
20
2.65017672967696
30
0
41
1
10
12.190340456893
20
2.64954216056452
30
0
41
1
10
12.1924145432952
20
2.64882149728936
30
0
0
SPLINE
5
123
100
AcDbEntity
8
1
62
256
6
ByLayer
370
18
48
1
60
0
100
AcDbSpline
70
4
71
3
72
8
73
4
40
0
40
0
40
0
40
0
40
1
40
1
40
1
40
1
41
1
10
12.192414543327
20
2.64882149730971
30
0
41
1
10
12.1945786247364
20
2.64806956431505
30
0
41
1
10
12.1967428385597
20
2.64731608229661
30
0
41
1
10
12.198907186942
20
2.64656105518938
30
0
0
SPLINE
5
124
100
AcDbEntity
8
1
62
256
6
ByLayer
370
18
48
1
60
0
100
AcDbSpline
70
4
71
3
72
8
73
4
40
0
40
0
40
0
40
0
40
1
40
1
40
1
40
1
41
1
10
12.1989071869419
20
2.64656105518949
30
0
41
1
10
12.1992714531709
20
2.64657175396354
30
0
41
1
10
12.1996357241905
20
2.64658250574999
30
0
41
1
10
12.2000000000001
20
2.64659331054347
30
0
0
SPLINE
5
125
100
AcDbEntity
8
1
62
256
6
ByLayer
370
18
48
1
60
0
100
AcDbSpline
70
4
71
1
72
4
73
2
40
0
40
0
40
1
40
1
41
1
10
13.9549853480981
20
-2.89959402856118
30
0
41
1
10
13.9549450906886
20
-2.89959562048463
30
0
0
SPLINE
5
126
100
AcDbEntity
8
1
62
256
6
ByLayer
370
18
48
1
60
0
100
AcDbSpline
70
4
71
1
72
4
73
2
40
0
40
0
40
1
40
1
41
1
10
17.7628932503542
20
-2.13653181228733
30
0
41
1
10
17.756285492909
20
-2.13836858609494
30
0
0
SPLINE
5
127
100
AcDbEntity
8
1
62
256
6
ByLayer
370
18
48
1
60
0
100
AcDbSpline
70
4
71
2
72
6
73
3
40
0
40
0
40
0
40
1
40
1
40
1
41
1
10
15.5771231113408
20
-2.55030340707742
30
0
41
1
10
16.5202338177358
20
-2.53967409707945
30
0
41
1
10
17.4563255328589
20
-2.41890093963664
30
0
0
SPLINE
5
128
100
AcDbEntity
8
1
62
256
6
ByLayer
370
18
48
1
60
0
100
AcDbSpline
70
4
71
3
72
13
73
9
40
0
40
0
40
0
40
0
40
0.0882179838606214
40
0.223175160875506
40
0.322139074591744
40
0.485483255209056
40
0.711377435604253
40
1
40
1
40
1
40
1
41
1
10
16.7431634954428
20
1.69121307271425
30
0
41
1
10
16.6763081462163
20
1.70675024720646
30
0
41
1
10
16.5073040828366
20
1.74669634130819
30
0
41
1
10
16.2639244413262
20
1.80741463106489
30
0
41
1
10
15.9641724320192
20
1.88377042386549
30
0
41
1
10
15.5966021194594
20
1.97987194410393
30
0
41
1
10
15.0868906945677
20
2.11740793353886
30
0
41
1
10
14.7005527369209
20
2.22187838921357
30
0
41
1
10
14.4840160449443
20
2.28089370377936
30
0
0
SPLINE
5
129
100
AcDbEntity
8
1
62
256
6
ByLayer
370
18
48
1
60
0
100
AcDbSpline
70
4
71
3
72
8
73
4
40
0
40
0
40
0
40
0
40
1
40
1
40
1
40
1
41
1
10
13.8794350734055
20
2.40753182452039
30
0
41
1
10
13.7479413737371
20
2.42710901385146
30
0
41
1
10
13.6168889797353
20
2.44465879429549
30
0
41
1
10
13.4863552498197
20
2.46025751216033
30
0
0
SPLINE
5
12A
100
AcDbEntity
8
1
62
256
6
ByLayer
370
18
48
1
60
0
100
AcDbSpline
70
4
71
1
72
4
73
2
40
0
40
0
40
1
40
1
41
1
10
15.5125325706269
20
0.503426373505818
30
0
41
1
10
15.5125394542075
20
0.50341875194934
30
0
0
LINE
5
77
100
AcDbEntity
8
80
62
256
6
ByLayer
370
18
48
1
60
0
100
AcDbLine
10
0
20
0
30
0
11
-5
21
0
31
0
39
0
210
0
220
0
230
1
0
LINE
5
78
100
AcDbEntity
8
4
62
256
6
ByLayer
370
18
48
0.05
60
0
100
AcDbLine
10
0
20
0
30
0
11
18
21
0
31
0
39
0
210
0
220
0
230
1
0
LINE
5
7A
100
AcDbEntity
8
81
62
256
6
ByLayer
370
18
48
1
60
0
100
AcDbLine
10
18
20
0
30
0
11
23
21
0
31
0
39
0
210
0
220
0
230
1
0
LINE
5
7B
100
AcDbEntity
8
SK4
62
256
6
ByLayer
370
18
48
0.05
60
0
100
AcDbLine
10
-36
20
0
30
0
11
18
21
0
31
0
39
0
210
0
220
0
230
1
0
LINE
5
7D
100
AcDbEntity
8
1
62
256
6
ByLayer
370
18
48
1
60
0
100
AcDbLine
10
0
20
3
30
0
11
0
21
0
31
0
39
0
210
0
220
0
230
1
0
LINE
5
7E
100
AcDbEntity
8
1
62
256
6
ByLayer
370
18
48
1
60
0
100
AcDbLine
10
0
20
0
30
0
11
0
21
-3
31
0
39
0
210
0
220
0
230
1
0
LINE
5
7F
100
AcDbEntity
8
1
62
256
6
ByLayer
370
18
48
1
60
0
100
AcDbLine
10
17.996678
20
-1.623309
30
0
11
17.933616
21
-1.937742
31
0
39
0
210
0
220
0
230
1
0
LINE
5
80
100
AcDbEntity
8
1
62
256
6
ByLayer
370
18
48
1
60
0
100
AcDbLine
10
17.983079
20
-1.31463
30
0
11
17.996678
21
-1.623309
31
0
39
0
210
0
220
0
230
1
0
LINE
5
81
100
AcDbEntity
8
1
62
256
6
ByLayer
370
18
48
1
60
0
100
AcDbLine
10
17.876268
20
-0.08442
30
0
11
17.920736
21
-0.091067
31
0
39
0
210
0
220
0
230
1
0
LINE
5
82
100
AcDbEntity
8
1
62
256
6
ByLayer
370
18
48
1
60
0
100
AcDbLine
10
17.891954
20
2.870768
30
0
11
17.996678
21
2.767261
31
0
39
0
210
0
220
0
230
1
0
LINE
5
83
100
AcDbEntity
8
1
62
256
6
ByLayer
370
18
48
1
60
0
100
AcDbLine
10
17.920736
20
-0.091067
30
0
11
17.996678
21
2.767261
31
0
39
0
210
0
220
0
230
1
0
LINE
5
84
100
AcDbEntity
8
1
62
256
6
ByLayer
370
18
48
1
60
0
100
AcDbLine
10
17.933616
20
-1.937742
30
0
11
17.811446
21
-2.193683
31
0
39
0
210
0
220
0
230
1
0
LINE
5
85
100
AcDbEntity
8
1
62
256
6
ByLayer
370
18
48
1
60
0
100
AcDbLine
10
17.933616
20
-1.937742
30
0
11
17.907771
21
-1.342895
31
0
39
0
210
0
220
0
230
1
0
LINE
5
86
100
AcDbEntity
8
1
62
256
6
ByLayer
370
13
48
1
60
0
100
AcDbLine
10
10.085584
20
-2.974648
30
0
11
10.21876
21
-2.890049
31
0
39
0
210
0
220
0
230
1
0
LINE
5
87
100
AcDbEntity
8
1
62
256
6
ByLayer
370
18
48
1
60
0
100
AcDbLine
10
17.309909
20
-2.119271
30
0
11
17.739678
21
-1.343804
31
0
39
0
210
0
220
0
230
1
0
LINE
5
88
100
AcDbEntity
8
1
62
256
6
ByLayer
370
13
48
1
60
0
100
AcDbLine
10
16.969056
20
-0.738805
30
0
11
16.29318
21
-1.177951
31
0
39
0
210
0
220
0
230
1
0
LINE
5
89
100
AcDbEntity
8
1
62
256
6
ByLayer
370
18
48
1
60
0
100
AcDbLine
10
12.2
20
0.999826
30
0
11
12.2
21
1.078821
31
0
39
0
210
0
220
0
230
1
0
LINE
5
8A
100
AcDbEntity
8
1
62
256
6
ByLayer
370
13
48
1
60
0
100
AcDbLine
10
9.953496
20
2.097566
30
0
11
12.2
21
1.078821
31
0
39
0
210
0
220
0
230
1
0
LINE
5
8B
100
AcDbEntity
8
1
62
256
6
ByLayer
370
18
48
1
60
0
100
AcDbLine
10
17.952381
20
-0.548001
30
0
11
17.996678
21
-1.309541
31
0
39
0
210
0
220
0
230
1
0
LINE
5
8C
100
AcDbEntity
8
1
62
256
6
ByLayer
370
18
48
1
60
0
100
AcDbLine
10
17.893743
20
-0.129619
30
0
11
17.952381
21
-0.548001
31
0
39
0
210
0
220
0
230
1
0
LINE
5
8D
100
AcDbEntity
8
1
62
256
6
ByLayer
370
18
48
1
60
0
100
AcDbLine
10
12.2
20
1.078821
30
0
11
12.2
21
2.47857
31
0
39
0
210
0
220
0
230
1
0
LINE
5
8E
100
AcDbEntity
8
1
62
256
6
ByLayer
370
18
48
1
60
0
100
AcDbLine
10
17.933616
20
-0.819414
30
0
11
17.893743
21
-0.129619
31
0
39
0
210
0
220
0
230
1
0
LINE
5
8F
100
AcDbEntity
8
1
62
256
6
ByLayer
370
18
48
1
60
0
100
AcDbLine
10
17.294739
20
1.419747
30
0
11
17.893743
21
-0.129619
31
0
39
0
210
0
220
0
230
1
0
LINE
5
90
100
AcDbEntity
8
1
62
256
6
ByLayer
370
18
48
1
60
0
100
AcDbLine
10
17.889828
20
-1.349612
30
0
11
17.996678
21
-1.309541
31
0
39
0
210
0
220
0
230
1
0
LINE
5
91
100
AcDbEntity
8
1
62
256
6
ByLayer
370
18
48
1
60
0
100
AcDbLine
10
17.996678
20
-1.309541
30
0
11
17.933616
21
-0.819414
31
0
39
0
210
0
220
0
230
1
0
LINE
5
92
100
AcDbEntity
8
1
62
256
6
ByLayer
370
18
48
1
60
0
100
AcDbLine
10
17.933616
20
-0.819414
30
0
11
17.799706
21
-0.509869
31
0
39
0
210
0
220
0
230
1
0
LINE
5
93
100
AcDbEntity
8
1
62
256
6
ByLayer
370
18
48
1
60
0
100
AcDbLine
10
12.2
20
-1.88514
30
0
11
12.2
21
-2.116188
31
0
39
0
210
0
220
0
230
1
0
LINE
5
94
100
AcDbEntity
8
1
62
256
6
ByLayer
370
13
48
1
60
0
100
AcDbLine
10
9.650003
20
-0.728768
30
0
11
12.2
21
-1.88514
31
0
39
0
210
0
220
0
230
1
0
LINE
5
95
100
AcDbEntity
8
1
62
256
6
ByLayer
370
18
48
1
60
0
100
AcDbLine
10
12.2
20
-1.88514
30
0
11
12.2
21
-1.761931
31
0
39
0
210
0
220
0
230
1
0
LINE
5
96
100
AcDbEntity
8
1
62
256
6
ByLayer
370
13
48
1
60
0
100
AcDbLine
10
9.672344
20
-0.615689
30
0
11
12.2
21
-1.761931
31
0
39
0
210
0
220
0
230
1
0
LINE
5
97
100
AcDbEntity
8
1
62
256
6
ByLayer
370
18
48
1
60
0
100
AcDbLine
10
12.2
20
-1.761931
30
0
11
12.2
21
-0.86073
31
0
39
0
210
0
220
0
230
1
0
LINE
5
98
100
AcDbEntity
8
1
62
256
6
ByLayer
370
18
48
1
60
0
100
AcDbLine
10
10.478151
20
-0.079906
30
0
11
12.2
21
-0.86073
31
0
39
0
210
0
220
0
230
1
0
LINE
5
99
100
AcDbEntity
8
1
62
256
6
ByLayer
370
18
48
1
60
0
100
AcDbLine
10
12.2
20
-0.86073
30
0
11
12.2
21
0.999826
31
0
39
0
210
0
220
0
230
1
0
LINE
5
9A
100
AcDbEntity
8
1
62
256
6
ByLayer
370
13
48
1
60
0
100
AcDbLine
10
9.980146
20
2.006486
30
0
11
12.2
21
0.999826
31
0
39
0
210
0
220
0
230
1
0
LINE
5
9B
100
AcDbEntity
8
1
62
256
6
ByLayer
370
18
48
1
60
0
100
AcDbLine
10
12.2
20
2.646593
30
0
11
12.2
21
2.47857
31
0
39
0
210
0
220
0
230
1
0
LINE
5
9C
100
AcDbEntity
8
1
62
256
6
ByLayer
370
13
48
1
60
0
100
AcDbLine
10
12.192415
20
-2.652408
30
0
11
12.192415
21
-2.654347
31
0
39
0
210
0
220
0
230
1
0
LINE
5
9D
100
AcDbEntity
8
1
62
256
6
ByLayer
370
13
48
1
60
0
100
AcDbLine
10
12.192415
20
2.648821
30
0
11
12.192415
21
2.646283
31
0
39
0
210
0
220
0
230
1
0
LINE
5
9E
100
AcDbEntity
8
1
62
256
6
ByLayer
370
18
48
1
60
0
100
AcDbLine
10
12.2
20
-2.654661
30
0
11
12.2
21
-2.654579
31
0
39
0
210
0
220
0
230
1
0
LINE
5
9F
100
AcDbEntity
8
1
62
256
6
ByLayer
370
13
48
1
60
0
100
AcDbLine
10
11.808827
20
2.65596
30
0
11
12.2
21
2.47857
31
0
39
0
210
0
220
0
230
1
0
LINE
5
A0
100
AcDbEntity
8
SK1
62
256
6
ByLayer
370
18
48
1
60
0
100
AcDbLine
10
-36
20
-2.6
30
0
11
-36
21
2.6
31
0
39
0
210
0
220
0
230
1
0
LINE
5
A2
100
AcDbEntity
8
SK1
62
256
6
ByLayer
370
18
48
1
60
0
100
AcDbLine
10
0
20
3
30
0
11
0
21
0
31
0
39
0
210
0
220
0
230
1
0
LINE
5
A3
100
AcDbEntity
8
SK1
62
256
6
ByLayer
370
18
48
1
60
0
100
AcDbLine
10
0
20
0
30
0
11
0
21
-3
31
0
39
0
210
0
220
0
230
1
0
LINE
5
A4
100
AcDbEntity
8
SK1
62
256
6
ByLayer
370
18
48
1
60
0
100
AcDbLine
10
-35.6
20
3
30
0
11
-35.6
21
-3
31
0
39
0
210
0
220
0
230
1
0
LINE
5
A5
100
AcDbEntity
8
1
62
256
6
ByLayer
370
18
48
1
60
0
100
AcDbLine
10
11.453033
20
3
30
0
11
0
21
3
31
0
39
0
210
0
220
0
230
1
0
LINE
5
A6
100
AcDbEntity
8
1
62
256
6
ByLayer
370
18
48
1
60
0
100
AcDbLine
10
0
20
-3
30
0
11
10.222385
21
-3
31
0
39
0
210
0
220
0
230
1
0
LINE
5
A7
100
AcDbEntity
8
1
62
256
6
ByLayer
370
18
48
1
60
0
100
AcDbLine
10
10.382513
20
-2.95653
30
0
11
10.629621
21
-2.799556
31
0
39
0
210
0
220
0
230
1
0
LINE
5
A8
100
AcDbEntity
8
SK1
62
256
6
ByLayer
370
18
48
1
60
0
100
AcDbLine
10
-36
20
-2.6
30
0
11
-35.6
21
-3
31
0
39
0
210
0
220
0
230
1
0
LINE
5
A9
100
AcDbEntity
8
SK1
62
256
6
ByLayer
370
18
48
1
60
0
100
AcDbLine
10
-35.6
20
3
30
0
11
-36
21
2.6
31
0
39
0
210
0
220
0
230
1
0
LINE
5
AA
100
AcDbEntity
8
SK1
62
256
6
ByLayer
370
18
48
1
60
0
100
AcDbLine
10
0
20
3
30
0
11
-35.6
21
3
31
0
39
0
210
0
220
0
230
1
0
LINE
5
AB
100
AcDbEntity
8
SK1
62
256
6
ByLayer
370
18
48
1
60
0
100
AcDbLine
10
-35.6
20
-3
30
0
11
0
21
-3
31
0
39
0
210
0
220
0
230
1
0
LINE
5
AC
100
AcDbEntity
8
SK2
62
256
6
ByLayer
370
18
48
1
60
0
100
AcDbLine
10
-43.85
20
11.75
30
0
11
-43.85
21
-19.315466
31
0
39
0
210
0
220
0
230
1
0
LINE
5
AE
100
AcDbEntity
8
SK2
62
256
6
ByLayer
370
18
48
1
60
0
100
AcDbLine
10
-37.1875
20
3
30
0
11
-45.85
21
3
31
0
39
0
210
0
220
0
230
1
0
LINE
5
AF
100
AcDbEntity
8
SK2
62
256
6
ByLayer
370
18
48
1
60
0
100
AcDbLine
10
-37.1875
20
-3
30
0
11
-45.85
21
-3
31
0
39
0
210
0
220
0
230
1
0
LINE
5
B0
100
AcDbEntity
8
1
62
256
6
ByLayer
370
18
48
1
60
1
100
AcDbLine
10
-43.85
20
3
30
0
11
-44.310784
21
6.499998
31
0
39
0
210
0
220
0
230
1
0
LINE
5
B1
100
AcDbEntity
8
1
62
256
6
ByLayer
370
18
48
1
60
1
100
AcDbLine
10
-44.310784
20
6.499998
30
0
11
-43.389216
21
6.500002
31
0
39
0
210
0
220
0
230
1
0
LINE
5
B2
100
AcDbEntity
8
1
62
256
6
ByLayer
370
18
48
1
60
1
100
AcDbLine
10
-43.389216
20
6.500002
30
0
11
-43.85
21
3
31
0
39
0
210
0
220
0
230
1
0
LINE
5
B3
100
AcDbEntity
8
1
62
256
6
ByLayer
370
18
48
1
60
1
100
AcDbLine
10
-43.85
20
-3
30
0
11
-43.389216
21
-6.499998
31
0
39
0
210
0
220
0
230
1
0
LINE
5
B4
100
AcDbEntity
8
1
62
256
6
ByLayer
370
18
48
1
60
1
100
AcDbLine
10
-43.389216
20
-6.499998
30
0
11
-44.310784
21
-6.500002
31
0
39
0
210
0
220
0
230
1
0
LINE
5
B5
100
AcDbEntity
8
1
62
256
6
ByLayer
370
18
48
1
60
1
100
AcDbLine
10
-44.310784
20
-6.500002
30
0
11
-43.85
21
-3
31
0
39
0
210
0
220
0
230
1
0
LINE
5
B6
100
AcDbEntity
8
2
62
256
6
ByLayer
370
18
48
1
60
0
100
AcDbLine
10
30
20
23.249032
30
0
11
30
21
-11.6501
31
0
39
0
210
0
220
0
230
1
0
LINE
5
B8
100
AcDbEntity
8
2
62
256
6
ByLayer
370
18
48
1
60
0
100
AcDbLine
10
19.5875
20
2.9001
30
0
11
32
21
2.9001
31
0
39
0
210
0
220
0
230
1
0
LINE
5
B9
100
AcDbEntity
8
2
62
256
6
ByLayer
370
18
48
1
60
0
100
AcDbLine
10
19.5875
20
-2.9001
30
0
11
32
21
-2.9001
31
0
39
0
210
0
220
0
230
1
0
LINE
5
BA
100
AcDbEntity
8
1
62
256
6
ByLayer
370
18
48
1
60
1
100
AcDbLine
10
30
20
2.9001
30
0
11
29.539216
21
6.400098
31
0
39
0
210
0
220
0
230
1
0
LINE
5
BB
100
AcDbEntity
8
1
62
256
6
ByLayer
370
18
48
1
60
1
100
AcDbLine
10
29.539216
20
6.400098
30
0
11
30.460784
21
6.400102
31
0
39
0
210
0
220
0
230
1
0
LINE
5
BC
100
AcDbEntity
8
1
62
256
6
ByLayer
370
18
48
1
60
1
100
AcDbLine
10
30.460784
20
6.400102
30
0
11
30
21
2.9001
31
0
39
0
210
0
220
0
230
1
0
LINE
5
BD
100
AcDbEntity
8
1
62
256
6
ByLayer
370
18
48
1
60
1
100
AcDbLine
10
30
20
-2.9001
30
0
11
30.460784
21
-6.400098
31
0
39
0
210
0
220
0
230
1
0
LINE
5
BE
100
AcDbEntity
8
1
62
256
6
ByLayer
370
18
48
1
60
1
100
AcDbLine
10
30.460784
20
-6.400098
30
0
11
29.539216
21
-6.400102
31
0
39
0
210
0
220
0
230
1
0
LINE
5
BF
100
AcDbEntity
8
1
62
256
6
ByLayer
370
18
48
1
60
1
100
AcDbLine
10
29.539216
20
-6.400102
30
0
11
30
21
-2.9001
31
0
39
0
210
0
220
0
230
1
0
LINE
5
C0
100
AcDbEntity
8
SK2
62
256
6
ByLayer
370
18
48
1
60
0
100
AcDbLine
10
18
20
-33.420346
30
0
11
-36
21
-33.420346
31
0
39
0
210
0
220
0
230
1
0
LINE
5
C1
100
AcDbEntity
8
SK2
62
256
6
ByLayer
370
18
48
1
60
0
100
AcDbLine
10
-36
20
-4.1875
30
0
11
-36
21
-35.420346
31
0
39
0
210
0
220
0
230
1
0
LINE
5
C2
100
AcDbEntity
8
SK2
62
256
6
ByLayer
370
18
48
1
60
0
100
AcDbLine
10
18
20
-4.4876
30
0
11
18
21
-35.420346
31
0
39
0
210
0
220
0
230
1
0
LINE
5
C3
100
AcDbEntity
8
1
62
256
6
ByLayer
370
18
48
1
60
1
100
AcDbLine
10
-36
20
-33.420346
30
0
11
-32.500002
21
-32.959562
31
0
39
0
210
0
220
0
230
1
0
LINE
5
C4
100
AcDbEntity
8
1
62
256
6
ByLayer
370
18
48
1
60
1
100
AcDbLine
10
-32.500002
20
-32.959562
30
0
11
-32.499998
21
-33.881129
31
0
39
0
210
0
220
0
230
1
0
LINE
5
C5
100
AcDbEntity
8
1
62
256
6
ByLayer
370
18
48
1
60
1
100
AcDbLine
10
-32.499998
20
-33.881129
30
0
11
-36
21
-33.420346
31
0
39
0
210
0
220
0
230
1
0
LINE
5
C6
100
AcDbEntity
8
1
62
256
6
ByLayer
370
18
48
1
60
1
100
AcDbLine
10
18
20
-33.420346
30
0
11
14.500002
21
-33.881129
31
0
39
0
210
0
220
0
230
1
0
LINE
5
C7
100
AcDbEntity
8
1
62
256
6
ByLayer
370
18
48
1
60
1
100
AcDbLine
10
14.500002
20
-33.881129
30
0
11
14.499998
21
-32.959562
31
0
39
0
210
0
220
0
230
1
0
LINE
5
C8
100
AcDbEntity
8
1
62
256
6
ByLayer
370
18
48
1
60
1
100
AcDbLine
10
14.499998
20
-32.959562
30
0
11
18
21
-33.420346
31
0
39
0
210
0
220
0
230
1
0
LINE
5
12F
100
AcDbEntity
8
1
62
256
6
ByLayer
370
18
48
1
60
1
100
AcDbLine
10
-43.85
20
3
30
0
11
-44.310784
21
6.499998
31
0
39
0
210
0
220
0
230
1
0
LINE
5
130
100
AcDbEntity
8
1
62
256
6
ByLayer
370
18
48
1
60
1
100
AcDbLine
10
-44.310784
20
6.499998
30
0
11
-43.389216
21
6.500002
31
0
39
0
210
0
220
0
230
1
0
LINE
5
131
100
AcDbEntity
8
1
62
256
6
ByLayer
370
18
48
1
60
1
100
AcDbLine
10
-43.389216
20
6.500002
30
0
11
-43.85
21
3
31
0
39
0
210
0
220
0
230
1
0
LINE
5
133
100
AcDbEntity
8
1
62
256
6
ByLayer
370
18
48
1
60
1
100
AcDbLine
10
-43.85
20
-3
30
0
11
-43.389216
21
-6.499998
31
0
39
0
210
0
220
0
230
1
0
LINE
5
134
100
AcDbEntity
8
1
62
256
6
ByLayer
370
18
48
1
60
1
100
AcDbLine
10
-43.389216
20
-6.499998
30
0
11
-44.310784
21
-6.500002
31
0
39
0
210
0
220
0
230
1
0
LINE
5
135
100
AcDbEntity
8
1
62
256
6
ByLayer
370
18
48
1
60
1
100
AcDbLine
10
-44.310784
20
-6.500002
30
0
11
-43.85
21
-3
31
0
39
0
210
0
220
0
230
1
0
LINE
5
139
100
AcDbEntity
8
1
62
256
6
ByLayer
370
18
48
1
60
1
100
AcDbLine
10
30
20
2.9001
30
0
11
29.539216
21
6.400098
31
0
39
0
210
0
220
0
230
1
0
LINE
5
13A
100
AcDbEntity
8
1
62
256
6
ByLayer
370
18
48
1
60
1
100
AcDbLine
10
29.539216
20
6.400098
30
0
11
30.460784
21
6.400102
31
0
39
0
210
0
220
0
230
1
0
LINE
5
13B
100
AcDbEntity
8
1
62
256
6
ByLayer
370
18
48
1
60
1
100
AcDbLine
10
30.460784
20
6.400102
30
0
11
30
21
2.9001
31
0
39
0
210
0
220
0
230
1
0
LINE
5
13D
100
AcDbEntity
8
1
62
256
6
ByLayer
370
18
48
1
60
1
100
AcDbLine
10
30
20
-2.9001
30
0
11
30.460784
21
-6.400098
31
0
39
0
210
0
220
0
230
1
0
LINE
5
13E
100
AcDbEntity
8
1
62
256
6
ByLayer
370
18
48
1
60
1
100
AcDbLine
10
30.460784
20
-6.400098
30
0
11
29.539216
21
-6.400102
31
0
39
0
210
0
220
0
230
1
0
LINE
5
13F
100
AcDbEntity
8
1
62
256
6
ByLayer
370
18
48
1
60
1
100
AcDbLine
10
29.539216
20
-6.400102
30
0
11
30
21
-2.9001
31
0
39
0
210
0
220
0
230
1
0
LINE
5
142
100
AcDbEntity
8
1
62
256
6
ByLayer
370
18
48
1
60
1
100
AcDbLine
10
-36
20
-33.420346
30
0
11
-32.500002
21
-32.959562
31
0
39
0
210
0
220
0
230
1
0
LINE
5
143
100
AcDbEntity
8
1
62
256
6
ByLayer
370
18
48
1
60
1
100
AcDbLine
10
-32.500002
20
-32.959562
30
0
11
-32.499998
21
-33.881129
31
0
39
0
210
0
220
0
230
1
0
LINE
5
144
100
AcDbEntity
8
1
62
256
6
ByLayer
370
18
48
1
60
1
100
AcDbLine
10
-32.499998
20
-33.881129
30
0
11
-36
21
-33.420346
31
0
39
0
210
0
220
0
230
1
0
LINE
5
146
100
AcDbEntity
8
1
62
256
6
ByLayer
370
18
48
1
60
1
100
AcDbLine
10
18
20
-33.420346
30
0
11
14.500002
21
-33.881129
31
0
39
0
210
0
220
0
230
1
0
LINE
5
147
100
AcDbEntity
8
1
62
256
6
ByLayer
370
18
48
1
60
1
100
AcDbLine
10
14.500002
20
-33.881129
30
0
11
14.499998
21
-32.959562
31
0
39
0
210
0
220
0
230
1
0
LINE
5
148
100
AcDbEntity
8
1
62
256
6
ByLayer
370
18
48
1
60
1
100
AcDbLine
10
14.499998
20
-32.959562
30
0
11
18
21
-33.420346
31
0
39
0
210
0
220
0
230
1
0
MTEXT
5
12B
100
AcDbEntity
8
SK2
62
256
6
ByLayer
370
18
48
1
60
0
100
AcDbMText
10
-45.414634
20
-17.380622
30
0
210
0
220
0
230
1
1
%%c
40
3.5
41
0
44
1.084337
50
90
71
7
72
5
7
iso_b_vert
0
MTEXT
5
12E
100
AcDbEntity
8
SK2
62
256
6
ByLayer
370
18
48
1
60
0
100
AcDbMText
10
-45.414634
20
-10.407966
30
0
210
0
220
0
230
1
1
\W0.5404;6
40
3.5
41
0
44
1.084337
50
90
71
7
72
5
7
iso_b_vert
0
MTEXT
5
137
100
AcDbEntity
8
2
62
256
6
ByLayer
370
18
48
1
60
0
100
AcDbMText
10
28.435366
20
10.834944
30
0
210
0
220
0
230
1
1
%%c
40
3.5
41
0
44
1.084337
50
90
71
7
72
5
7
iso_b_vert
0
MTEXT
5
138
100
AcDbEntity
8
2
62
256
6
ByLayer
370
18
48
1
60
0
100
AcDbMText
10
28.435366
20
17.8076
30
0
210
0
220
0
230
1
1
\W0.7121;5.8
40
3.5
41
0
44
1.084337
50
90
71
7
72
5
7
iso_b_vert
0
MTEXT
5
141
100
AcDbEntity
8
SK2
62
256
6
ByLayer
370
18
48
1
60
0
100
AcDbMText
10
-11.089233
20
-32.387712
30
0
210
0
220
0
230
1
1
\W0.7167;54
40
3.5
41
0
44
1.084337
50
0
71
7
72
5
7
iso_b_vert
0
MTEXT
5
14A
100
AcDbEntity
8
SK6
62
256
6
ByLayer
370
18
48
1
60
0
100
AcDbMText
10
-33.479858
20
-62.112307
30
0
210
0
220
0
230
1
1
\W0.6967;1K313-0580-XA       1730
40
3
41
0
44
1.084337
50
0
71
7
72
5
7
iso_b_vert
0
HATCH
5
132
100
AcDbEntity
8
SK2
62
256
6
ByLayer
370
13
48
1
60
0
100
AcDbHatch
10
0
20
0
30
0
210
0
220
0
230
1
2
ANSI31
70
0
71
0
91
1
92
5
93
3
72
1
10
-43.85
20
2.99999999999997
11
-44.3107837415528
21
6.49999830744679
72
1
10
-44.3107837415528
20
6.49999830744679
11
-43.3892162584472
21
6.50000169255316
72
1
10
-43.3892162584472
20
6.50000169255316
11
-43.85
21
2.99999999999997
97
0
75
0
76
1
52
0
41
0.0062
77
0
78
1
53
45
43
0
44
0
45
-0.0139193969876572
46
0.0139193969876572
79
0
47
0
98
1
10
0
20
0
0
HATCH
5
136
100
AcDbEntity
8
SK2
62
256
6
ByLayer
370
13
48
1
60
0
100
AcDbHatch
10
0
20
0
30
0
210
0
220
0
230
1
2
ANSI31
70
0
71
0
91
1
92
5
93
3
72
1
10
-43.85
20
-3.00000000000003
11
-43.3892162584472
21
-6.49999830744684
72
1
10
-43.3892162584472
20
-6.49999830744684
11
-44.3107837415528
21
-6.50000169255321
72
1
10
-44.3107837415528
20
-6.50000169255321
11
-43.85
21
-3.00000000000003
97
0
75
0
76
1
52
0
41
0.0062
77
0
78
1
53
45
43
0
44
0
45
-0.0139193969876572
46
0.0139193969876572
79
0
47
0
98
1
10
0
20
0
0
HATCH
5
13C
100
AcDbEntity
8
2
62
256
6
ByLayer
370
13
48
1
60
0
100
AcDbHatch
10
0
20
0
30
0
210
0
220
0
230
1
2
ANSI31
70
0
71
0
91
1
92
5
93
3
72
1
10
30
20
2.90009999999995
11
29.5392162584472
21
6.40009830744677
72
1
10
29.5392162584472
20
6.40009830744677
11
30.4607837415528
21
6.40010169255314
72
1
10
30.4607837415528
20
6.40010169255314
11
30
21
2.90009999999995
97
0
75
0
76
1
52
0
41
0.0062
77
0
78
1
53
45
43
0
44
0
45
-0.0139193969876572
46
0.0139193969876572
79
0
47
0
98
1
10
0
20
0
0
HATCH
5
140
100
AcDbEntity
8
2
62
256
6
ByLayer
370
13
48
1
60
0
100
AcDbHatch
10
0
20
0
30
0
210
0
220
0
230
1
2
ANSI31
70
0
71
0
91
1
92
5
93
3
72
1
10
30
20
-2.90010000000007
11
30.4607837415528
21
-6.40009830744688
72
1
10
30.4607837415528
20
-6.40009830744688
11
29.5392162584472
21
-6.40010169255325
72
1
10
29.5392162584472
20
-6.40010169255325
11
30
21
-2.90010000000007
97
0
75
0
76
1
52
0
41
0.0062
77
0
78
1
53
45
43
0
44
0
45
-0.0139193969876572
46
0.0139193969876572
79
0
47
0
98
1
10
0
20
0
0
HATCH
5
145
100
AcDbEntity
8
SK2
62
256
6
ByLayer
370
13
48
1
60
0
100
AcDbHatch
10
0
20
0
30
0
210
0
220
0
230
1
2
ANSI31
70
0
71
0
91
1
92
5
93
3
72
1
10
-36
20
-33.4203456106169
11
-32.5000016925532
21
-32.9595618690641
72
1
10
-32.5000016925532
20
-32.9595618690641
11
-32.4999983074468
21
-33.8811293521696
72
1
10
-32.4999983074468
20
-33.8811293521696
11
-36
21
-33.4203456106169
97
0
75
0
76
1
52
0
41
0.0062
77
0
78
1
53
45
43
0
44
0
45
-0.0139193969876572
46
0.0139193969876572
79
0
47
0
98
1
10
0
20
0
0
HATCH
5
149
100
AcDbEntity
8
SK2
62
256
6
ByLayer
370
13
48
1
60
0
100
AcDbHatch
10
0
20
0
30
0
210
0
220
0
230
1
2
ANSI31
70
0
71
0
91
1
92
5
93
3
72
1
10
18
20
-33.4203456106169
11
14.5000016925532
21
-33.8811293521696
72
1
10
14.5000016925532
20
-33.8811293521696
11
14.4999983074468
21
-32.9595618690641
72
1
10
14.4999983074468
20
-32.9595618690641
11
18
21
-33.4203456106169
97
0
75
0
76
1
52
0
41
0.0062
77
0
78
1
53
45
43
0
44
0
45
-0.0139193969876572
46
0.0139193969876572
79
0
47
0
98
1
10
0
20
0
0
DIMENSION
5
14D
100
AcDbEntity
8
2
62
256
6
ByLayer
370
18
48
1
60
0
100
AcDbDimension
2
_U0
10
12.2
20
-17.420346
30
0
11
15.1
21
-17.420346
31
0
70
32
71
1
72
1
41
1
210
0
220
0
230
1
3
Standard
100
AcDbAlignedDimension
13
18
23
-2.9001
33
0
14
12.2
24
-2.9001
34
0
50
0
100
AcDbRotatedDimension
1001
ACAD
1000
DSTYLE
1002
{
1070
   371
1070
    13
1070
   372
1070
    13
1070
   170
1070
     0
1070
   144
1040
1.0
1070
   277
1070
     2
1070
   284
1070
     8
1070
   278
1070
    46
1070
   146
1040
1.0
1070
   345
1005
16
1070
   347
1005
16
1070
   346
1005
16
1070
   344
1005
0
1070
   343
1005
0
1070
   172
1070
     1
1070
    76
1070
     0
1070
    75
1070
     0
1070
   282
1070
     0
1070
   281
1070
     0
1070
    71
1070
     0
1070
    74
1070
     0
1070
   279
1070
     0
1070
   173
1070
     1
1070
   340
1005
12C
1070
   271
1070
     2
1070
   272
1070
     2
1070
    77
1070
     1
1070
    73
1070
     1
1070
   171
1070
     3
1070
   274
1070
     4
1070
   177
1070
     2
1070
   176
1070
     2
1070
   178
1070
     2
1070
    78
1070
     8
1070
    48
1040
-0.1
1070
    41
1040
3.5
1070
   147
1040
1.75
1070
    42
1040
1.5875
1070
    44
1040
2.0
1070
   140
1040
3.5
1002
}
1001
ACAD_DSTYLE_DIM_LINETYPE
1070
   380
1005
16
1001
ACAD_DSTYLE_DIM_EXT1_LINETYPE
1070
   381
1005
16
1001
ACAD_DSTYLE_DIM_EXT2_LINETYPE
1070
   382
1005
16
0
ENDSEC
0
SECTION
2
OBJECTS
0
DICTIONARY
5
1d7
330
0
100
AcDbDictionary
280
0
281
1
3
ACAD_GROUP
350
1d8
3
ACAD_MLINESTYLE
350
1d9
0
DICTIONARY
5
1d8
330
0
100
AcDbDictionary
280
0
281
1
0
DICTIONARY
5
1d9
330
0
100
AcDbDictionary
280
0
281
1
3
Standard
350
18
0
MLINESTYLE
5
18
330
1d9
100
AcDbMlineStyle
2
Standard
70
0
3

62
256
51
90
52
90
71
2
49
-0.5
62
256
6
ByLayer
49
0.5
62
256
6
ByLayer
0
RASTERVARIABLES
5
1c5
330

100
AcDbRasterVariables
90
0
70
1
71
1
72
1
0
ENDSEC
0
EOF
