0
SECTION
2
HEADER
9
$ACADVER
1
AC1015
9
$DWGCODEPAGE
3
ANSI_1252
9
$HANDSEED
5
1d8
9
$ANGBASE
50
0
9
$ANGDIR
70
0
9
$ATTMODE
70
1
9
$AUNITS
70
0
9
$AUPREC
70
0
9
$CECOLOR
62
256
9
$CELTSCALE
40
1
9
$CELTYPE
6
ByLayer
9
$CELWEIGHT
370
18
9
$CLAYER
8
0
9
$CMLJUST
70
0
9
$CMLSCALE
40
1
9
$CMLSTYLE
2
Standard
9
$DIMSTYLE
2
Standard
9
$TEXTSIZE
40
0.2
9
$TEXTSTYLE
7
Standard
9
$LUNITS
70
2
9
$LUPREC
70
4
9
$EXTNAMES
290
1
9
$INSUNITS
70
4
9
$LTSCALE
40
1
9
$LWDISPLAY
290
1
9
$PDMODE
70
0
9
$PDSIZE
40
0
9
$PLINEGEN
70
0
0
ENDSEC
0
SECTION
2
CLASSES
0
CLASS
1
RASTERVARIABLES
2
AcDbRasterVariables
3
ISM
90
0
280
0
281
0
0
ENDSEC
0
SECTION
2
TABLES
0
TABLE
2
VPORT
5
1ce
100
AcDbSymbolTable
0
VPORT
5
1
100
AcDbSymbolTableRecord
100
AcDbViewportTableRecord
2
*Active
70
0
10
0
20
0
11
1
21
1
12
-1
22
1
13
0
23
0
14
0.5
24
0.5
15
10
25
10
16
0
26
0
36
1
17
0
27
0
37
0
0
ENDTAB
0
TABLE
2
LTYPE
5
1cf
100
AcDbSymbolTable
0
LTYPE
5
14
100
AcDbSymbolTableRecord
100
AcDbLinetypeTableRecord
70
0
2
ByBlock
3

72
65
73
0
40
0
0
LTYPE
5
15
100
AcDbSymbolTableRecord
100
AcDbLinetypeTableRecord
70
0
2
ByLayer
3

72
65
73
0
40
0
0
LTYPE
5
16
100
AcDbSymbolTableRecord
100
AcDbLinetypeTableRecord
70
0
2
Continuous
3
Solid line
72
65
73
0
40
0
0
LTYPE
5
6E
100
AcDbSymbolTableRecord
100
AcDbLinetypeTableRecord
70
0
2
CENTER
3
____ _ ____ _ ____ _ ____
72
65
73
4
40
47.5
49
22
74
0
49
-8.5
74
0
49
8.5
74
0
49
-8.5
74
0
0
LTYPE
5
6F
100
AcDbSymbolTableRecord
100
AcDbLinetypeTableRecord
70
0
2
DASHED
3
__ __ __ __ __ __ __ __ __
72
65
73
2
40
25.72
49
12.86
74
0
49
-12.86
74
0
0
ENDTAB
0
TABLE
2
LAYER
5
1d0
100
AcDbSymbolTable
0
LAYER
5
10
100
AcDbSymbolTableRecord
100
AcDbLayerTableRecord
2
0
70
0
62
7
6
Continuous
290
1
370
-3
390
0
0
LAYER
5
71
100
AcDbSymbolTableRecord
100
AcDbLayerTableRecord
2
81
70
0
62
-3
6
Continuous
290
1
370
-3
390
0
0
LAYER
5
73
100
AcDbSymbolTableRecord
100
AcDbLayerTableRecord
2
80
70
0
62
-6
6
Continuous
290
1
370
-3
390
0
0
LAYER
5
75
100
AcDbSymbolTableRecord
100
AcDbLayerTableRecord
2
1
70
0
62
4
6
Continuous
290
1
370
-3
390
0
0
LAYER
5
79
100
AcDbSymbolTableRecord
100
AcDbLayerTableRecord
2
4
70
0
62
-2
6
CENTER
290
1
370
-3
390
0
0
LAYER
5
BD
100
AcDbSymbolTableRecord
100
AcDbLayerTableRecord
2
2
70
0
62
7
6
Continuous
290
1
370
-3
390
0
0
LAYER
5
144
100
AcDbSymbolTableRecord
100
AcDbLayerTableRecord
2
Defpoints
70
0
62
7
6
Continuous
290
0
370
-3
390
0
0
LAYER
5
1ba
100
AcDbSymbolTableRecord
100
AcDbLayerTableRecord
2
SK4
70
0
62
2
6
CENTER
290
1
370
-3
390
0
0
LAYER
5
1bb
100
AcDbSymbolTableRecord
100
AcDbLayerTableRecord
2
SK1
70
0
62
4
6
Continuous
290
1
370
-3
390
0
0
LAYER
5
1bc
100
AcDbSymbolTableRecord
100
AcDbLayerTableRecord
2
SK2
70
0
62
7
6
Continuous
290
1
370
-3
390
0
0
LAYER
5
1bd
100
AcDbSymbolTableRecord
100
AcDbLayerTableRecord
2
SK6
70
0
62
5
6
Continuous
290
1
370
-3
390
0
0
ENDTAB
0
TABLE
2
STYLE
5
1d1
100
AcDbSymbolTable
0
STYLE
5
11
100
AcDbSymbolTableRecord
100
AcDbTextStyleTableRecord
2
Standard
3
txt
70
0
71
0
40
0
41
1
42
0
50
0
0
STYLE
5
120
100
AcDbSymbolTableRecord
100
AcDbTextStyleTableRecord
2
iso_b_vert
3
simplex.shx
70
0
71
0
40
0
41
1
42
0
50
0
0
STYLE
5
121
100
AcDbSymbolTableRecord
100
AcDbTextStyleTableRecord
2
DWGDirectTextStyle
3
simplex
70
0
71
0
40
0
41
1
42
0
50
0
0
ENDTAB
0
TABLE
2
DIMSTYLE
5
1d2
100
AcDbSymbolTable
100
AcDbDimStyleTable
0
DIMSTYLE
105
27
100
AcDbSymbolTableRecord
100
AcDbDimStyleTableRecord
2
Standard
70
0
3
<>
41
0.18
42
0.0625
44
0.18
140
0.18
147
0.09
73
0
74
0
77
1
271
2
275
0
278
52
280
0
340
11
0
ENDTAB
0
TABLE
2
VIEW
5
1d3
100
AcDbSymbolTable
0
ENDTAB
0
TABLE
2
UCS
5
1d4
100
AcDbSymbolTable
0
ENDTAB
0
TABLE
2
APPID
5
1d5
100
AcDbSymbolTable
0
APPID
5
12
100
AcDbSymbolTableRecord
100
AcDbRegAppTableRecord
2
ACAD
70
0
0
APPID
5
140
100
AcDbSymbolTableRecord
100
AcDbRegAppTableRecord
2
ACAD_DSTYLE_DIMBREAK
70
0
0
APPID
5
179
100
AcDbSymbolTableRecord
100
AcDbRegAppTableRecord
2
ACAD_DSTYLE_DIM_LINETYPE
70
0
0
APPID
5
17A
100
AcDbSymbolTableRecord
100
AcDbRegAppTableRecord
2
ACAD_DSTYLE_DIM_EXT1_LINETYPE
70
0
0
APPID
5
17B
100
AcDbSymbolTableRecord
100
AcDbRegAppTableRecord
2
ACAD_DSTYLE_DIM_EXT2_LINETYPE
70
0
0
APPID
5
1B6
100
AcDbSymbolTableRecord
100
AcDbRegAppTableRecord
2
ACAD_MLEADERVER
70
0
0
ENDTAB
0
TABLE
2
BLOCK_RECORD
5
1d6
100
AcDbSymbolTable
0
BLOCK_RECORD
5
1F
100
AcDbSymbolTableRecord
100
AcDbBlockTableRecord
2
*Model_Space
340
0
70
0
0
BLOCK_RECORD
5
1B
100
AcDbSymbolTableRecord
100
AcDbBlockTableRecord
2
*Paper_Space
340
0
70
0
0
BLOCK_RECORD
5
23
100
AcDbSymbolTableRecord
100
AcDbBlockTableRecord
2
*Paper_Space0
340
0
70
0
0
BLOCK_RECORD
5
145
100
AcDbSymbolTableRecord
100
AcDbBlockTableRecord
2
*D1
340
0
70
0
0
BLOCK_RECORD
5
152
100
AcDbSymbolTableRecord
100
AcDbBlockTableRecord
2
_U0
340
0
70
0
0
ENDTAB
0
ENDSEC
0
SECTION
2
BLOCKS
0
BLOCK
5
20
100
AcDbEntity
8
0
100
AcDbBlockBegin
2
*Model_Space
70
0
10
0
20
0
30
0
3
*Model_Space
0
ENDBLK
5
21
100
AcDbEntity
8
0
100
AcDbBlockEnd
0
BLOCK
5
1C
100
AcDbEntity
8
0
100
AcDbBlockBegin
2
*Paper_Space
70
0
10
0
20
0
30
0
3
*Paper_Space
0
ENDBLK
5
1D
100
AcDbEntity
8
0
100
AcDbBlockEnd
0
BLOCK
5
24
100
AcDbEntity
8
0
100
AcDbBlockBegin
2
*Paper_Space0
70
0
10
0
20
0
30
0
3
*Paper_Space0
0
ENDBLK
5
25
100
AcDbEntity
8
0
100
AcDbBlockEnd
0
BLOCK
5
146
100
AcDbEntity
8
0
100
AcDbBlockBegin
2
*D1
70
1
10
0
20
0
30
0
3
*D1
0
LINE
5
148
100
AcDbEntity
8
0
62
256
6
ByLayer
370
-2
48
1
60
0
100
AcDbLine
10
22
20
-5.5876
30
0
11
22
21
-20.680105
31
0
39
0
210
0
220
0
230
1
0
LINE
5
149
100
AcDbEntity
8
0
62
256
6
ByLayer
370
-2
48
1
60
0
100
AcDbLine
10
14
20
-5.5876
30
0
11
14
21
-20.680105
31
0
39
0
210
0
220
0
230
1
0
LINE
5
14A
100
AcDbEntity
8
0
62
256
6
ByLayer
370
-2
48
1
60
0
100
AcDbLine
10
25.5
20
-18.680105
30
0
11
29
21
-18.680105
31
0
39
0
210
0
220
0
230
1
0
LINE
5
14B
100
AcDbEntity
8
0
62
256
6
ByLayer
370
-2
48
1
60
0
100
AcDbLine
10
10.5
20
-18.680105
30
0
11
7
21
-18.680105
31
0
39
0
210
0
220
0
230
1
0
SOLID
5
14C
100
AcDbEntity
8
0
62
256
6
ByLayer
370
-1
48
1
60
0
100
AcDbTrace
10
25.5
20
-18.096772
30
0
11
25.5
21
-19.263439
31
0
12
22
22
-18.680105
32
0
13
22
23
-18.680105
33
0
39
0
210
0
220
0
230
1
0
SOLID
5
14D
100
AcDbEntity
8
0
62
256
6
ByLayer
370
-1
48
1
60
0
100
AcDbTrace
10
10.5
20
-19.263439
30
0
11
10.5
21
-18.096772
31
0
12
14
22
-18.680105
32
0
13
14
23
-18.680105
33
0
39
0
210
0
220
0
230
1
0
MTEXT
5
14E
100
AcDbEntity
8
0
62
256
6
ByLayer
370
18
48
1
60
0
100
AcDbMText
10
18
20
-11.680105
30
0
210
0
220
0
230
1
1
\A1;8
40
3.5
41
0
44
1
50
0
71
5
72
5
7
iso_b_vert
0
POINT
5
14F
100
AcDbEntity
8
Defpoints
62
0
6
ByLayer
370
-1
48
1
60
0
100
AcDbPoint
10
22
20
-4.0001
30
0
39
0
210
0
220
0
230
1
50
360
0
POINT
5
150
100
AcDbEntity
8
Defpoints
62
0
6
ByLayer
370
-1
48
1
60
0
100
AcDbPoint
10
14
20
-4.0001
30
0
39
0
210
0
220
0
230
1
50
360
0
POINT
5
151
100
AcDbEntity
8
Defpoints
62
0
6
ByLayer
370
-1
48
1
60
0
100
AcDbPoint
10
14
20
-18.680105
30
0
39
0
210
0
220
0
230
1
50
360
0
ENDBLK
5
147
100
AcDbEntity
8
0
100
AcDbBlockEnd
0
BLOCK
5
159
100
AcDbEntity
8
0
100
AcDbBlockBegin
2
_U0
70
0
10
0
20
0
30
0
3
_U0
0
MTEXT
5
153
100
AcDbEntity
8
2
62
256
6
ByLayer
370
18
48
1
60
0
100
AcDbMText
10
17.402767
20
-17.647472
30
0
210
0
220
0
230
1
1
\W0.5404;8
40
3.5
41
0
44
1.084337
50
0
71
7
72
5
7
iso_b_vert
0
LINE
5
154
100
AcDbEntity
8
2
62
256
6
ByLayer
370
13
48
1
60
0
100
AcDbLine
10
22
20
-5.5876
30
0
11
22
21
-20.680105
31
0
39
0
210
0
220
0
230
1
0
LINE
5
155
100
AcDbEntity
8
2
62
256
6
ByLayer
370
13
48
1
60
0
100
AcDbLine
10
14
20
-5.5876
30
0
11
14
21
-20.680105
31
0
39
0
210
0
220
0
230
1
0
LINE
5
156
100
AcDbEntity
8
2
62
256
6
ByLayer
370
13
48
1
60
0
100
AcDbLine
10
22
20
-18.680105
30
0
11
14
21
-18.680105
31
0
39
0
210
0
220
0
230
1
0
SOLID
5
157
100
AcDbEntity
8
2
62
256
6
ByLayer
370
18
48
1
60
0
100
AcDbTrace
10
22
20
-18.680105
30
0
11
18.500002
21
-19.140889
31
0
12
18.499998
22
-18.219322
32
0
13
18.499998
23
-18.219322
33
0
39
0
210
0
220
0
230
1
0
SOLID
5
158
100
AcDbEntity
8
2
62
256
6
ByLayer
370
18
48
1
60
0
100
AcDbTrace
10
14
20
-18.680105
30
0
11
17.499998
21
-18.219322
31
0
12
17.500002
22
-19.140889
32
0
13
17.500002
23
-19.140889
33
0
39
0
210
0
220
0
230
1
0
ENDBLK
5
15A
100
AcDbEntity
8
0
100
AcDbBlockEnd
0
ENDSEC
0
SECTION
2
ENTITIES
0
ELLIPSE
5
CF
100
AcDbEntity
8
1
62
256
6
ByLayer
370
18
48
1
60
0
100
AcDbEllipse
10
17.959335
20
0
30
0
11
7.90546803443524
21
-0.928676059448595
31
0
210
0
220
0
230
1
40
0.492153
41
-2.59734966023788
42
-2.17244582877984
0
ELLIPSE
5
D0
100
AcDbEntity
8
1
62
256
6
ByLayer
370
18
48
1
60
0
100
AcDbEllipse
10
7.260111
20
4E-06
30
0
11
38.8130190384076
21
2.26063158333082
31
0
210
0
220
0
230
1
40
0.085021
41
1.39131154276474
42
1.40349468844973
0
ELLIPSE
5
D1
100
AcDbEntity
8
1
62
256
6
ByLayer
370
18
48
1
60
0
100
AcDbEllipse
10
20.866921
20
-1.3E-05
30
0
11
39.5449785051708
21
-0.959139164987131
31
0
210
0
220
0
230
1
40
0.098199
41
-1.7532712746267
42
-1.74294717715003
0
POINT
5
70
100
AcDbEntity
8
81
62
256
6
ByLayer
370
18
48
1
60
0
100
AcDbPoint
10
22
20
0
30
0
39
0
210
0
220
0
230
1
50
360
0
POINT
5
72
100
AcDbEntity
8
80
62
256
6
ByLayer
370
18
48
1
60
0
100
AcDbPoint
10
0
20
0
30
0
39
0
210
0
220
0
230
1
50
360
0
POINT
5
74
100
AcDbEntity
8
1
62
256
6
ByLayer
370
18
48
1
60
1
100
AcDbPoint
10
22
20
-4.0001
30
0
39
0
210
0
220
0
230
1
50
360
0
POINT
5
76
100
AcDbEntity
8
1
62
256
6
ByLayer
370
18
48
1
60
1
100
AcDbPoint
10
14
20
-4.0001
30
0
39
0
210
0
220
0
230
1
50
360
0
SPLINE
5
D2
100
AcDbEntity
8
1
62
256
6
ByLayer
370
18
48
1
60
0
100
AcDbSpline
70
4
71
3
72
8
73
4
40
0
40
0
40
0
40
0
40
1
40
1
40
1
40
1
41
1
10
21.7139209073379
20
3.99380290521455
30
0
41
1
10
21.7332214050447
20
3.99366180327692
30
0
41
1
10
21.7525229976082
20
3.99358650522518
30
0
41
1
10
21.771825012125
20
3.99357704232074
30
0
0
SPLINE
5
D3
100
AcDbEntity
8
1
62
256
6
ByLayer
370
18
48
1
60
0
100
AcDbSpline
70
4
71
3
72
8
73
4
40
0
40
0
40
0
40
0
40
1
40
1
40
1
40
1
41
1
10
21.7718250124977
20
3.99357704216018
30
0
41
1
10
21.7821329079498
20
3.99269986049344
30
0
41
1
10
21.792442442107
20
3.99184177947984
30
0
41
1
10
21.8027536109537
20
3.99100274297717
30
0
0
SPLINE
5
D4
100
AcDbEntity
8
1
62
256
6
ByLayer
370
18
48
1
60
0
100
AcDbSpline
70
4
71
3
72
15
73
11
40
0
40
0
40
0
40
0
40
0.0660441169853472
40
0.199466385987442
40
0.199466385987442
40
0.466310923991628
40
0.466310923991628
40
0.733155461995814
40
0.733155461995814
40
1
40
1
40
1
40
1
41
1
10
18.1023649243071
20
2.89565017606787
30
0
41
1
10
18.1823218427827
20
2.93862126616514
30
0
41
1
10
18.4232722573516
20
3.06497030273508
30
0
41
1
10
18.6628849090302
20
3.18083191985806
30
0
41
1
10
19.1427148599151
20
3.39881066502141
30
0
41
1
10
19.4612626539312
20
3.5247658156955
30
0
41
1
10
20.1002416413185
20
3.73485624883949
30
0
41
1
10
20.4206847020787
20
3.81898237961946
30
0
41
1
10
21.0681823068667
20
3.9418497795015
30
0
41
1
10
21.3906702359889
20
3.97973990298004
30
0
41
1
10
21.7139209073379
20
3.99380290521455
30
0
0
SPLINE
5
D5
100
AcDbEntity
8
1
62
256
6
ByLayer
370
18
48
1
60
0
100
AcDbSpline
70
4
71
3
72
8
73
4
40
0
40
0
40
0
40
0
40
1
40
1
40
1
40
1
41
1
10
21.7139209073379
20
3.99380290521455
30
0
41
1
10
21.7416675962576
20
3.90165387607189
30
0
41
1
10
21.7714017477986
20
3.81016649077552
30
0
41
1
10
21.8035559675363
20
3.71948476761233
30
0
0
SPLINE
5
D6
100
AcDbEntity
8
1
62
256
6
ByLayer
370
18
48
1
60
0
100
AcDbSpline
70
4
71
3
72
8
73
4
40
0
40
0
40
0
40
0
40
1
40
1
40
1
40
1
41
1
10
13.2415479944017
20
3.99998715049904
30
0
41
1
10
13.3418118664889
20
3.94468379341382
30
0
41
1
10
13.4426802281864
20
3.89134693897611
30
0
41
1
10
13.544154914262
20
3.83998255598286
30
0
0
SPLINE
5
D7
100
AcDbEntity
8
1
62
256
6
ByLayer
370
18
48
1
60
0
100
AcDbSpline
70
4
71
3
72
8
73
4
40
0
40
0
40
0
40
0
40
1
40
1
40
1
40
1
41
1
10
13.1318457786449
20
3.95534577591775
30
0
41
0.999992745108003
10
13.1516084766389
20
3.94336598984385
30
0
41
0.999992745108003
10
13.1713882087886
20
3.93149399790425
30
0
41
1
10
13.1911845445947
20
3.91973005848899
30
0
0
SPLINE
5
D8
100
AcDbEntity
8
1
62
256
6
ByLayer
370
18
48
1
60
0
100
AcDbSpline
70
4
71
3
72
46
73
42
40
0
40
0
40
0
40
0
40
0.0659685029506798
40
0.0659685029506798
40
0.13193700590136
40
0.13193700590136
40
0.148429131639029
40
0.148429131639029
40
0.164921257376699
40
0.197905508852038
40
0.230889760327378
40
0.230889760327378
40
0.247381886065048
40
0.247381886065048
40
0.263874011802718
40
0.263874011802718
40
0.329842514753393
40
0.329842514753393
40
0.362826766228732
40
0.362826766228732
40
0.395811017704071
40
0.395811017704071
40
0.46177952065475
40
0.46177952065475
40
0.494763772130086
40
0.494763772130086
40
0.527748023605422
40
0.527748023605422
40
0.593716526556102
40
0.593716526556102
40
0.659685029506781
40
0.659685029506781
40
0.72565353245746
40
0.72565353245746
40
0.758637783932799
40
0.758637783932799
40
0.791622035408139
40
0.791622035408139
40
0.923559041309497
40
0.923559041309497
40
1
40
1
40
1
40
1
41
1
10
21.8035559663212
20
3.71948476719206
30
0
41
1
10
21.8211796325342
20
3.66976872111025
30
0
41
1
10
21.8358960043773
20
3.61943103382831
30
0
41
1
10
21.8583992995054
20
3.51727399599406
30
0
41
1
10
21.866199034542
20
3.46545738491065
30
0
41
1
10
21.8704968933878
20
3.39952090837261
30
0
41
1
10
21.8710807423648
20
3.38625596202019
30
0
41
1
10
21.8716590667684
20
3.35983983088758
30
0
41
1
10
21.8716494906725
20
3.32030888383849
30
0
41
1
10
21.8671234168657
20
3.25490348914167
30
0
41
1
10
21.8583744878697
20
3.20312439179099
30
0
41
1
10
21.8497479694419
20
3.16450960142845
30
0
41
1
10
21.8465280808067
20
3.15167461952257
30
0
41
1
10
21.8393727654747
20
3.12608073199789
30
0
41
1
10
21.8354443785832
20
3.11335581385535
30
0
41
1
10
21.8142476843144
20
3.05070310707345
30
0
41
1
10
21.7921644897881
20
3.00311318321636
30
0
41
1
10
21.7518364729398
20
2.93528679888519
30
0
41
1
10
21.7371922866402
20
2.9132715700936
30
0
41
1
10
21.7055728800893
20
2.87039267831955
30
0
41
1
10
21.6888595903056
20
2.84988093939344
30
0
41
1
10
21.6363613478553
20
2.79083987033906
30
0
41
1
10
21.5982168015138
20
2.75477064748876
30
0
41
1
10
21.5372349817841
20
2.70460628262919
30
0
41
1
10
21.5162764121872
20
2.68854537815017
30
0
41
1
10
21.4732183844662
20
2.65761732621627
30
0
41
1
10
21.4512391550419
20
2.64283910339802
30
0
41
1
10
21.3844949158199
20
2.60053301148074
30
0
41
1
10
21.3387670536825
20
2.57490076048188
30
0
41
1
10
21.2454162478195
20
2.52759321211318
30
0
41
1
10
21.1977898160793
20
2.50592519776043
30
0
41
1
10
21.1010132895513
20
2.46577059622146
30
0
41
1
10
21.0518614065313
20
2.44728774288276
30
0
41
1
10
20.9771868623199
20
2.42154022519924
30
0
41
1
10
20.9521660660796
20
2.41329966338844
30
0
41
1
10
20.9020998482651
20
2.39750333566258
30
0
41
1
10
20.877022406941
20
2.38993648225485
30
0
41
1
10
20.7514349222827
20
2.35359895761101
30
0
41
1
10
20.6503335626335
20
2.32924738398589
30
0
41
1
10
20.4899452625729
20
2.29610345265581
30
0
41
1
10
20.4309562132079
20
2.28508485905019
30
0
41
1
10
20.3718339904283
20
2.27506151333992
30
0
0
SPLINE
5
D9
100
AcDbEntity
8
1
62
256
6
ByLayer
370
13
48
1
60
0
100
AcDbSpline
70
4
71
3
72
10
73
6
40
0
40
0
40
0
40
0
40
0.531099935010945
40
0.825573710633071
40
1
40
1
40
1
40
1
41
1
10
21.8035559665335
20
3.7194847671623
30
0
41
1
10
21.2023706443557
20
3.69612968294842
30
0
41
1
10
20.2678519888445
20
3.53544733974547
30
0
41
1
10
19.1358892779746
20
3.13995978457413
30
0
41
1
10
18.6051118892825
20
2.90565685894691
30
0
41
1
10
18.4076678339237
20
2.81211195781424
30
0
0
SPLINE
5
DA
100
AcDbEntity
8
1
62
256
6
ByLayer
370
18
48
1
60
0
100
AcDbSpline
70
4
71
3
72
12
73
8
40
0
40
0
40
0
40
0
40
0.500000000000034
40
0.500000000000034
40
0.750000000000017
40
0.750000000000017
40
1
40
1
40
1
40
1
41
1
10
19.7291616897641
20
-1.22665981767955
30
0
41
1
10
19.7538430486685
20
-1.19920531448093
30
0
41
1
10
19.7798859374234
20
-1.17279682522229
30
0
41
1
10
19.8213293528651
20
-1.13671885889798
30
0
41
1
10
19.8355243725027
20
-1.12529501908799
30
0
41
1
10
19.8645340701837
20
-1.10402588157746
30
0
41
1
10
19.8793888198539
20
-1.09414395239332
30
0
41
1
10
19.8946704619421
20
-1.08508192919385
30
0
0
SPLINE
5
DB
100
AcDbEntity
8
1
62
256
6
ByLayer
370
18
48
1
60
0
100
AcDbSpline
70
4
71
3
72
14
73
10
40
0
40
0
40
0
40
0
40
0.25
40
0.25
40
0.5
40
0.5
40
0.75
40
0.75
40
1
40
1
40
1
40
1
41
1
10
21.6006547154102
20
-3.00450894747041
30
0
41
1
10
21.6071971984723
20
-2.99543471325313
30
0
41
1
10
21.6135524215518
20
-2.98756519144726
30
0
41
1
10
21.6258474493344
20
-2.97449863062647
30
0
41
1
10
21.6316947004921
20
-2.96940474416931
30
0
41
1
10
21.6425952513196
20
-2.96259030939427
30
0
41
1
10
21.6476802986844
20
-2.96083063103737
30
0
41
1
10
21.6567985716183
20
-2.96175302517986
30
0
41
1
10
21.6606725486206
20
-2.96440193388656
30
0
41
1
10
21.6636362682062
20
-2.96995729099879
30
0
0
SPLINE
5
DC
100
AcDbEntity
8
1
62
256
6
ByLayer
370
18
48
1
60
0
100
AcDbSpline
70
4
71
3
72
24
73
20
40
0
40
0
40
0
40
0
40
0.124999999999998
40
0.124999999999998
40
0.249999999999996
40
0.249999999999996
40
0.374999999999994
40
0.374999999999994
40
0.437499999999993
40
0.437499999999993
40
0.499999999999992
40
0.499999999999992
40
0.749999999999994
40
0.749999999999994
40
0.812499999999995
40
0.812499999999995
40
0.874999999999995
40
0.874999999999995
40
1
40
1
40
1
40
1
41
1
10
21.0962225144595
20
-3.32412493556271
30
0
41
1
10
21.1109893953205
20
-3.33572603273237
30
0
41
1
10
21.1267436351469
20
-3.34374950139244
30
0
41
1
10
21.1600881831933
20
-3.3531435689442
30
0
41
1
10
21.1776790187975
20
-3.35451225688976
30
0
41
1
10
21.2146183581813
20
-3.35088084089691
30
0
41
1
10
21.2339671098493
20
-3.34587983875099
30
0
41
1
10
21.2642851239346
20
-3.33368640148117
30
0
41
1
10
21.2746260766456
20
-3.32882666149476
30
0
41
1
10
21.2955717071387
20
-3.31763824815465
30
0
41
1
10
21.3061909047356
20
-3.31130616010873
30
0
41
1
10
21.359995932969
20
-3.27607160323953
30
0
41
1
10
21.4052916086415
20
-3.23653386756945
30
0
41
1
10
21.4645492925639
20
-3.17381366730737
30
0
41
1
10
21.4765337690866
20
-3.16059950714384
30
0
41
1
10
21.5007681520008
20
-3.13283321296717
30
0
41
1
10
21.5130292086859
20
-3.11826727258418
30
0
41
1
10
21.5501343419638
20
-3.07265076176944
30
0
41
1
10
21.5752222428928
20
-3.0397845045066
30
0
41
1
10
21.6006547174814
20
-3.00450894755849
30
0
0
SPLINE
5
DD
100
AcDbEntity
8
1
62
256
6
ByLayer
370
13
48
1
60
0
100
AcDbSpline
70
4
71
3
72
11
73
7
40
0
40
0
40
0
40
0
40
0.161864526767641
40
0.371398395075731
40
0.580932263383821
40
1
40
1
40
1
40
1
41
1
10
18.7724981554277
20
-3.51530715289877
30
0
41
1
10
18.5149987702851
20
-3.52225972202012
30
0
41
1
10
17.9241660518092
20
-3.51263226189161
30
0
41
1
10
16.9999999999999
20
-3.40637009445459
30
0
41
1
10
15.6666666666666
20
-3.10883505038862
30
0
41
1
10
14.6666666666666
20
-2.73266250100193
30
0
41
1
10
14
20
-2.43008167302611
30
0
0
SPLINE
5
DE
100
AcDbEntity
8
1
62
256
6
ByLayer
370
18
48
1
60
0
100
AcDbSpline
70
4
71
3
72
14
73
10
40
0
40
0
40
0
40
0
40
0.499999999999998
40
0.499999999999998
40
0.749999999999998
40
0.749999999999998
40
0.874999999999999
40
0.874999999999999
40
1
40
1
40
1
40
1
41
1
10
21.019625716341
20
-2.94207578269851
30
0
41
1
10
21.0237352760338
20
-3.02620092204055
30
0
41
1
10
21.0322970365576
20
-3.09984624083154
30
0
41
1
10
21.0515014410779
20
-3.19533957055734
30
0
41
1
10
21.0589681300922
20
-3.22466330856545
30
0
41
1
10
21.0717685872274
20
-3.26488175571362
30
0
41
1
10
21.0763086448313
20
-3.27767444885413
30
0
41
1
10
21.0858946037577
20
-3.30191514177156
30
0
41
1
10
21.0909359550488
20
-3.31335563524462
30
0
41
1
10
21.0962225144576
20
-3.32412493556319
30
0
0
SPLINE
5
DF
100
AcDbEntity
8
1
62
256
6
ByLayer
370
18
48
1
60
0
100
AcDbSpline
70
4
71
3
72
24
73
20
40
0
40
0
40
0
40
0
40
0.0624999999999979
40
0.0624999999999979
40
0.124999999999996
40
0.124999999999996
40
0.249999999999996
40
0.249999999999996
40
0.374999999999997
40
0.374999999999997
40
0.499999999999998
40
0.499999999999998
40
0.562499999999998
40
0.562499999999998
40
0.624999999999998
40
0.624999999999998
40
0.749999999999999
40
0.749999999999999
40
1
40
1
40
1
40
1
41
1
10
19.6358461266168
20
-1.69341702859012
30
0
41
1
10
19.6601404230739
20
-1.7312068521083
30
0
41
1
10
19.6850727985135
20
-1.76841829422759
30
0
41
1
10
19.7360210917317
20
-1.84150052804753
30
0
41
1
10
19.7618556265756
20
-1.87711498075916
30
0
41
1
10
19.8403608786624
20
-1.98138280828883
30
0
41
1
10
19.8940294571432
20
-2.04747038823686
30
0
41
1
10
20.0037219640077
20
-2.17358925045565
30
0
41
1
10
20.059747487705
20
-2.23361643070552
30
0
41
1
10
20.1739537346666
20
-2.34812913893734
30
0
41
1
10
20.2321351914525
20
-2.40261278081925
30
0
41
1
10
20.3209270157383
20
-2.48043080433439
30
0
41
1
10
20.3508338903283
20
-2.50576174257267
30
0
41
1
10
20.4107480268685
20
-2.55482876930418
30
0
41
1
10
20.4407779572835
20
-2.57858831088629
30
0
41
1
10
20.531075695772
20
-2.64765803416031
30
0
41
1
10
20.5915509572526
20
-2.69076456011388
30
0
41
1
10
20.7737431426536
20
-2.81194311058044
30
0
41
1
10
20.8962215100345
20
-2.88192676829371
30
0
41
1
10
21.0196257163417
20
-2.94207578269842
30
0
0
SPLINE
5
E0
100
AcDbEntity
8
1
62
256
6
ByLayer
370
18
48
1
60
0
100
AcDbSpline
70
4
71
3
72
27
73
23
40
0
40
0
40
0
40
0
40
0.125000000000009
40
0.125000000000009
40
0.187500000000014
40
0.187500000000014
40
0.250000000000018
40
0.250000000000018
40
0.375000000000022
40
0.375000000000022
40
0.437500000000024
40
0.437500000000024
40
0.500000000000027
40
0.562500000000029
40
0.562500000000029
40
0.625000000000032
40
0.625000000000032
40
0.750000000000021
40
0.750000000000021
40
0.875000000000011
40
0.875000000000011
40
1
40
1
40
1
40
1
41
1
10
19.6358461266169
20
-1.69341702858998
30
0
41
1
10
19.6247010829044
20
-1.67608089227744
30
0
41
1
10
19.6154445952531
20
-1.65780695858655
30
0
41
1
10
19.6045746542511
20
-1.62888217854354
30
0
41
1
10
19.6014554924848
20
-1.61898745847651
30
0
41
1
10
19.5962795411746
20
-1.59866235305415
30
0
41
1
10
19.5942387184992
20
-1.5882579338716
30
0
41
1
10
19.589864521352
20
-1.55703191697529
30
0
41
1
10
19.5892004154695
20
-1.53594287182554
30
0
41
1
10
19.591383718861
20
-1.50392233098162
30
0
41
1
10
19.5926546145461
20
-1.49313601749992
30
0
41
1
10
19.5961672557454
20
-1.47184145074013
30
0
41
1
10
19.6006458610076
20
-1.45075208525091
30
0
41
1
10
19.6068912371534
20
-1.43003835835737
30
0
41
1
10
19.6139569939704
20
-1.40949936126273
30
0
41
1
10
19.617917844227
20
-1.39927831945184
30
0
41
1
10
19.6308088821938
20
-1.36920070198724
30
0
41
1
10
19.6407168080525
20
-1.34993244790576
30
0
41
1
10
19.6626662438016
20
-1.31266863875007
30
0
41
1
10
19.6747117307599
20
-1.29467545504352
30
0
41
1
10
19.70065268568
20
-1.25979312179189
30
0
41
1
10
19.714572151049
20
-1.24288856002335
30
0
41
1
10
19.7291616897641
20
-1.22665981767955
30
0
0
SPLINE
5
E1
100
AcDbEntity
8
1
62
256
6
ByLayer
370
13
48
1
60
0
100
AcDbSpline
70
4
71
3
72
12
73
8
40
0
40
0
40
0
40
0
40
0.127271969137627
40
0.301817575310102
40
0.476363181482576
40
0.650908787655051
40
1
40
1
40
1
40
1
41
1
10
19.7291616897641
20
-1.22665981767955
30
0
41
1
10
19.4861077931761
20
-1.12629272222728
30
0
41
1
10
18.9097205632547
20
-0.876530761295925
30
0
41
1
10
18
20
-0.450899954035293
30
0
41
1
10
17
20
0.037350419724703
30
0
41
1
10
15.6666666666667
20
0.682008233373864
30
0
41
1
10
14.6666666666667
20
1.12756847936083
30
0
41
1
10
14
20
1.37906399999633
30
0
0
SPLINE
5
E2
100
AcDbEntity
8
1
62
256
6
ByLayer
370
18
48
1
60
0
100
AcDbSpline
70
4
71
3
72
13
73
9
40
0
40
0
40
0
40
0
40
0.154479726675177
40
0.295399772229314
40
0.436319817783451
40
0.577239863337588
40
0.718159908891726
40
1
40
1
40
1
40
1
41
1
10
21.09622251446
20
-3.32412493556311
30
0
41
1
10
20.73081500964
20
-3.33685660268492
30
0
41
1
10
20.0320741714867
20
-3.32043972156896
30
0
41
1
10
19
20
-3.18310726017626
30
0
41
1
10
18
20
-2.94983116827507
30
0
41
1
10
17
20
-2.62198794556869
30
0
41
1
10
15.6666666666667
20
-2.07386347518135
30
0
41
1
10
14.6666666666667
20
-1.55819585230626
30
0
41
1
10
14
20
-1.18700877205023
30
0
0
SPLINE
5
E3
100
AcDbEntity
8
1
62
256
6
ByLayer
370
18
48
1
60
0
100
AcDbSpline
70
4
71
3
72
8
73
4
40
0
40
0
40
0
40
0
40
1
40
1
40
1
40
1
41
1
10
21.6636362686352
20
-2.96995729046265
30
0
41
1
10
21.6790269738904
20
-2.99885280924909
30
0
41
1
10
21.6947512730953
20
-3.02679664682793
30
0
41
1
10
21.7108302787336
20
-3.05372857490704
30
0
0
SPLINE
5
E4
100
AcDbEntity
8
1
62
256
6
ByLayer
370
13
48
1
60
0
100
AcDbSpline
70
4
71
3
72
8
73
4
40
0
40
0
40
0
40
0
40
1
40
1
40
1
40
1
41
1
10
21.6636362687549
20
-2.96995729058867
30
0
41
1
10
21.6484686993722
20
-2.97548386407851
30
0
41
1
10
21.6333011299896
20
-2.98097709683412
30
0
41
1
10
21.6181335606069
20
-2.9864368724331
30
0
0
SPLINE
5
E5
100
AcDbEntity
8
1
62
256
6
ByLayer
370
13
48
1
60
0
100
AcDbSpline
70
4
71
3
72
12
73
8
40
0
40
0
40
0
40
0
40
0.0923279785041147
40
0.273862382803292
40
0.455396787102469
40
0.636931191401646
40
1
40
1
40
1
40
1
41
1
10
19.5085976890197
20
-3.51849916890919
30
0
41
1
10
19.3390651260132
20
-3.54209106031601
30
0
41
1
10
18.8361992296733
20
-3.5977852831283
30
0
41
1
10
18.0000000000001
20
-3.61815074045038
30
0
41
1
10
17.0000000000001
20
-3.52808599774903
30
0
41
1
10
15.6666666666668
20
-3.25867724891751
30
0
41
1
10
14.6666666666668
20
-2.89677042240922
30
0
41
1
10
14.0000000000001
20
-2.60002919586751
30
0
0
SPLINE
5
E6
100
AcDbEntity
8
1
62
256
6
ByLayer
370
18
48
1
60
0
100
AcDbSpline
70
4
71
3
72
8
73
4
40
0
40
0
40
0
40
0
40
1
40
1
40
1
40
1
41
1
10
21.7939398584802
20
-2.9225477710491
30
0
41
1
10
21.7661751490165
20
-2.96701587485384
30
0
41
1
10
21.7384720378167
20
-3.01074182091776
30
0
41
1
10
21.7108302787331
20
-3.05372857491355
30
0
0
SPLINE
5
E7
100
AcDbEntity
8
1
62
256
6
ByLayer
370
18
48
1
60
0
100
AcDbSpline
70
4
71
3
72
8
73
4
40
0
40
0
40
0
40
0
40
1
40
1
40
1
40
1
41
1
10
21.7108302787165
20
-3.05372857491778
30
0
41
1
10
21.6423133787446
20
-3.08214705734608
30
0
41
1
10
21.5738144377967
20
-3.10985716452333
30
0
41
1
10
21.5053224244715
20
-3.13685181336001
30
0
0
SPLINE
5
E8
100
AcDbEntity
8
1
62
256
6
ByLayer
370
18
48
1
60
0
100
AcDbSpline
70
4
71
3
72
38
73
34
40
0
40
0
40
0
40
0
40
0.0317374976883557
40
0.0317374976883557
40
0.049668284768199
40
0.049668284768199
40
0.0675990718480424
40
0.0675990718480424
40
0.139322220167418
40
0.139322220167418
40
0.211045368486793
40
0.211045368486793
40
0.282768516806169
40
0.282768516806169
40
0.426214813444922
40
0.426214813444922
40
0.497937961764299
40
0.497937961764299
40
0.515868748844145
40
0.515868748844145
40
0.53379953592399
40
0.569661110083683
40
0.64138425840307
40
0.64138425840307
40
0.713107406722456
40
0.713107406722456
40
0.784830555041842
40
0.784830555041842
40
0.856553703361228
40
0.856553703361228
40
0.928276851680614
40
0.928276851680614
40
1
40
1
40
1
40
1
41
1
10
20.7139706846615
20
-3.41640458279312
30
0
41
1
10
20.6424171532394
20
-3.43870429231933
30
0
41
1
10
20.5708243342308
20
-3.46019135371023
30
0
41
1
10
20.4587004939285
20
-3.49252362990978
30
0
41
1
10
20.4181941928523
20
-3.50393478699158
30
0
41
1
10
20.3372916084073
20
-3.52618307589145
30
0
41
1
10
20.2968785713848
20
-3.53702519694437
30
0
41
1
10
20.0949917689125
20
-3.58982176200863
30
0
41
1
10
19.93405128817
20
-3.62754932446012
30
0
41
1
10
19.6130309626176
20
-3.69364909276769
30
0
41
1
10
19.4529565006124
20
-3.72198509643493
30
0
41
1
10
19.1330890773884
20
-3.76957340615081
30
0
41
1
10
18.9732972127903
20
-3.78883254759557
30
0
41
1
10
18.4937843577471
20
-3.83281355050775
30
0
41
1
10
18.1739283492074
20
-3.84381281347436
30
0
41
1
10
17.6916750053976
20
-3.83130457630722
30
0
41
1
10
17.5305070692084
20
-3.82236482839031
30
0
41
1
10
17.32830289342
20
-3.80532720904489
30
0
41
1
10
17.2877993365266
20
-3.80162125950758
30
0
41
1
10
17.2068822320438
20
-3.79363103775077
30
0
41
1
10
17.0856246606089
20
-3.78077812559829
30
0
41
1
10
16.8034709288368
20
-3.74473918300481
30
0
41
1
10
16.562788465776
20
-3.70355496491501
30
0
41
1
10
16.2425682768521
20
-3.63958710402935
30
0
41
1
10
16.0828183525926
20
-3.60301544498137
30
0
41
1
10
15.763515244999
20
-3.5213243183035
30
0
41
1
10
15.6039401319455
20
-3.4763010317688
30
0
41
1
10
15.2846302938283
20
-3.37790674064772
30
0
41
1
10
15.1249058510022
20
-3.32448626984814
30
0
41
1
10
14.8049056944645
20
-3.20945017266169
30
0
41
1
10
14.6446290796199
20
-3.14784847473146
30
0
41
1
10
14.3231525935559
20
-3.01639630858387
30
0
41
1
10
14.1619402986665
20
-2.94657484273074
30
0
41
1
10
14.0000000000001
20
-2.87316276522293
30
0
0
SPLINE
5
E9
100
AcDbEntity
8
1
62
256
6
ByLayer
370
18
48
1
60
0
100
AcDbSpline
70
4
71
3
72
16
73
12
40
0
40
0
40
0
40
0
40
0.15222756621119
40
0.15222756621119
40
0.36417067465839
40
0.36417067465839
40
0.47014222888199
40
0.47014222888199
40
0.57611378310559
40
0.57611378310559
40
1
40
1
40
1
40
1
41
1
10
20.1733042443891
20
2.35554974759236
30
0
41
1
10
20.2132343548406
20
2.34500998497146
30
0
41
1
10
20.253618286145
20
2.33278404264902
30
0
41
1
10
20.3512568787059
20
2.29971292885975
30
0
41
1
10
20.4089156332243
20
2.27736634146723
30
0
41
1
10
20.4965964582555
20
2.23941498672366
30
0
41
1
10
20.5259897999574
20
2.22603622484729
30
0
41
1
10
20.5847318587269
20
2.19804550142808
30
0
41
1
10
20.614132741188
20
2.18341135221144
30
0
41
1
10
20.7612802673599
20
2.10717829691666
30
0
41
1
10
20.8794527527215
20
2.03646735412383
30
0
41
1
10
20.9980327758707
20
1.95703603539727
30
0
0
SPLINE
5
EA
100
AcDbEntity
8
1
62
256
6
ByLayer
370
18
48
1
60
0
100
AcDbSpline
70
4
71
3
72
12
73
8
40
0
40
0
40
0
40
0
40
0.23206540169348
40
0.437108214395182
40
0.642151027096884
40
0.847193839798587
40
1
40
1
40
1
40
1
41
1
10
21.1317899839342
20
1.12448249377866
30
0
41
1
10
20.7545266559561
20
1.38203943020767
30
0
41
1
10
20.0439299946447
20
1.84639258999218
30
0
41
1
10
19
20
2.43545124038704
30
0
41
1
10
18
20
2.88851381295058
30
0
41
1
10
17.0849199114598
20
3.18185386141923
30
0
41
1
10
16.5031731562529
20
3.29514608593331
30
0
41
1
10
16.2547597343794
20
3.32957075186587
30
0
0
SPLINE
5
EB
100
AcDbEntity
8
1
62
256
6
ByLayer
370
13
48
1
60
0
100
AcDbSpline
70
4
71
3
72
11
73
7
40
0
40
0
40
0
40
0
40
0.385984900070238
40
0.630931409676853
40
0.875877919283469
40
1
40
1
40
1
40
1
41
1
10
21.5757926115793
20
-0.261074995428828
30
0
41
1
10
21.0505284077195
20
0.132688174921157
30
0
41
1
10
20.1919308705264
20
0.780399072609981
30
0
41
1
10
18.9999999999999
20
1.62268776537604
30
0
41
1
10
18.1644228762219
20
2.15071367678516
30
0
41
1
10
17.6621790857771
20
2.42817112640577
30
0
41
1
10
17.4932686286656
20
2.51659117278595
30
0
0
SPLINE
5
EC
100
AcDbEntity
8
1
62
256
6
ByLayer
370
13
48
1
60
0
100
AcDbSpline
70
4
71
3
72
12
73
8
40
0
40
0
40
0
40
0
40
0.339289534998198
40
0.508934302497297
40
0.678579069996397
40
0.848223837495496
40
1
40
1
40
1
40
1
41
1
10
14
20
1.48802863847999
30
0
41
1
10
14.6666666666667
20
1.25802117078405
30
0
41
1
10
15.6666666666667
20
0.842246377359117
30
0
41
1
10
17
20
0.226622611933465
30
0
41
1
10
18
20
-0.246258574619503
30
0
41
1
10
18.9648901539807
20
-0.690863862339483
30
0
41
1
10
19.5964469746282
20
-0.963188669557496
30
0
41
1
10
19.8946704619422
20
-1.08508192919388
30
0
0
SPLINE
5
ED
100
AcDbEntity
8
1
62
256
6
ByLayer
370
18
48
1
60
0
100
AcDbSpline
70
4
71
3
72
16
73
12
40
0
40
0
40
0
40
0
40
0.250000000000061
40
0.250000000000061
40
0.375000000000067
40
0.375000000000067
40
0.500000000000074
40
0.500000000000074
40
0.750000000000037
40
0.750000000000037
40
1
40
1
40
1
40
1
41
1
10
19.8946704619422
20
-1.0850819291939
30
0
41
1
10
19.9221132236665
20
-1.06880836591705
30
0
41
1
10
19.9505900863811
20
-1.05531039220611
30
0
41
1
10
19.9949306635212
20
-1.03899258793396
30
0
41
1
10
20.0099830780723
20
-1.03421102020704
30
0
41
1
10
20.0406608336409
20
-1.02595521594461
30
0
41
1
10
20.0563442233611
20
-1.0224712037845
30
0
41
1
10
20.1039145679392
20
-1.01406454569266
30
0
41
1
10
20.1358539670742
20
-1.01123439604709
30
0
41
1
10
20.2002896481532
20
-1.01048322803192
30
0
41
1
10
20.2327855362826
20
-1.01256456741334
30
0
41
1
10
20.2656234072589
20
-1.01694812363871
30
0
0
SPLINE
5
EE
100
AcDbEntity
8
1
62
256
6
ByLayer
370
18
48
1
60
0
100
AcDbSpline
70
4
71
3
72
10
73
6
40
0
40
0
40
0
40
0
40
0.243356506539977
40
0.243356506539977
40
1
40
1
40
1
40
1
41
1
10
20.6739554479652
20
-1.07961355166984
30
0
41
1
10
20.6410285146042
20
-1.07382017638659
30
0
41
1
10
20.6080473077324
20
-1.0682229254914
30
0
41
1
10
20.4723234090438
20
-1.04593676407313
30
0
41
1
10
20.3691596946067
20
-1.03076927353257
30
0
41
1
10
20.2656234072617
20
-1.01694812363911
30
0
0
SPLINE
5
EF
100
AcDbEntity
8
1
62
256
6
ByLayer
370
18
48
1
60
0
100
AcDbSpline
70
4
71
3
72
18
73
14
40
0
40
0
40
0
40
0
40
0.249999999999998
40
0.249999999999998
40
0.499999999999996
40
0.499999999999996
40
0.562499999999996
40
0.562499999999996
40
0.624999999999995
40
0.624999999999995
40
0.749999999999997
40
0.749999999999997
40
1
40
1
40
1
40
1
41
1
10
20.9980327758683
20
1.95703603539795
30
0
41
1
10
20.9975756134744
20
1.91282386698498
30
0
41
1
10
21.0001537362611
20
1.86185014171104
30
0
41
1
10
21.0111579166005
20
1.74687553190614
30
0
41
1
10
21.0195844815303
20
1.68287351711604
30
0
41
1
10
21.0338035588073
20
1.59466016319072
30
0
41
1
10
21.0368323243825
20
1.57660548803804
30
0
41
1
10
21.0432632019997
20
1.5396644520051
30
0
41
1
10
21.0466560860969
20
1.52083252597913
30
0
41
1
10
21.0573255524088
20
1.46345415596176
30
0
41
1
10
21.0651055826339
20
1.42395013926867
30
0
41
1
10
21.0903888186512
20
1.30179164396517
30
0
41
1
10
21.1098279835732
20
1.2155042055536
30
0
41
1
10
21.1317899839286
20
1.12448249378247
30
0
0
SPLINE
5
F0
100
AcDbEntity
8
1
62
256
6
ByLayer
370
18
48
1
60
0
100
AcDbSpline
70
4
71
3
72
19
73
15
40
0
40
0
40
0
40
0
40
0.249999999999999
40
0.249999999999999
40
0.312499999999998
40
0.312499999999998
40
0.374999999999997
40
0.499999999999998
40
0.499999999999998
40
0.625
40
0.625
40
0.750000000000001
40
0.750000000000001
40
1
40
1
40
1
40
1
41
1
10
21.1317899839328
20
1.12448249377664
30
0
41
1
10
21.1607122404168
20
1.01735939315054
30
0
41
1
10
21.1921683213917
20
0.906913250829575
30
0
41
1
10
21.2344169586528
20
0.76501487781357
30
0
41
1
10
21.243019685306
20
0.736423933911652
30
0
41
1
10
21.2604509065808
20
0.679075885114031
30
0
41
1
10
21.2869574126972
20
0.592733469051296
30
0
41
1
10
21.3145187087163
20
0.505451607187581
30
0
41
1
10
21.3521780349378
20
0.388264472643158
30
0
41
1
10
21.3714911229928
20
0.32918478749761
30
0
41
1
10
21.4106835810217
20
0.211214696730337
30
0
41
1
10
21.4305975298515
20
0.152214055925555
30
0
41
1
10
21.4912607710368
20
-0.0248330935649221
30
0
41
1
10
21.5329269201738
20
-0.142924606456773
30
0
41
1
10
21.5757926055975
20
-0.2610749992553
30
0
0
SPLINE
5
F1
100
AcDbEntity
8
1
62
256
6
ByLayer
370
18
48
1
60
0
100
AcDbSpline
70
4
71
3
72
16
73
12
40
0
40
0
40
0
40
0
40
0.250000000000006
40
0.250000000000006
40
0.500000000000012
40
0.500000000000012
40
0.625000000000003
40
0.625000000000003
40
0.749999999999994
40
0.749999999999994
40
1
40
1
40
1
40
1
41
1
10
21.5757926095682
20
-0.261074998062213
30
0
41
1
10
21.5825627614678
20
-0.279736233693001
30
0
41
1
10
21.5891128325429
20
-0.298335401665611
30
0
41
1
10
21.6017338608854
20
-0.335398606957057
30
0
41
1
10
21.6078067065006
20
-0.353863179238687
30
0
41
1
10
21.6164665842814
20
-0.38143329469176
30
0
41
1
10
21.6192700468546
20
-0.390580854418886
30
0
41
1
10
21.6246021885021
20
-0.4084997006957
30
0
41
1
10
21.6271426387802
20
-0.417307502203243
30
0
41
1
10
21.634320636332
20
-0.443195787670703
30
0
41
1
10
21.6384141775989
20
-0.459346279093182
30
0
41
1
10
21.6414976307528
20
-0.473803919866725
30
0
0
SPLINE
5
F2
100
AcDbEntity
8
1
62
256
6
ByLayer
370
18
48
1
60
0
100
AcDbSpline
70
4
71
3
72
10
73
6
40
0
40
0
40
0
40
0
40
0.5
40
0.5
40
1
40
1
40
1
40
1
41
1
10
13.0482390399611
20
3.91384259587207
30
0
41
1
10
13.0555995860717
20
3.92229056649885
30
0
41
1
10
13.066266181758
20
3.92994322051408
30
0
41
1
10
13.0943124315838
20
3.9437963808802
30
0
41
1
10
13.1115939299931
20
3.94993461591542
30
0
41
1
10
13.1318457786503
20
3.95534577591448
30
0
0
SPLINE
5
F3
100
AcDbEntity
8
1
62
256
6
ByLayer
370
18
48
1
60
0
100
AcDbSpline
70
4
71
3
72
16
73
12
40
0
40
0
40
0
40
0
40
0.204744531669654
40
0.204744531669654
40
0.33728710972471
40
0.33728710972471
40
0.469829687779766
40
0.469829687779766
40
0.734914843889883
40
0.734914843889883
40
1
40
1
40
1
40
1
41
1
10
11.7294878665111
20
-3.92782153667565
30
0
41
1
10
11.7038665061729
20
-3.94416753442701
30
0
41
1
10
11.6774875747616
20
-3.95771651938847
30
0
41
1
10
11.632600965917
20
-3.97547998552389
30
0
41
1
10
11.6145734137486
20
-3.9813040571496
30
0
41
1
10
11.5778869343895
20
-3.99059754231925
30
0
41
1
10
11.5592167707087
20
-3.99407479849202
30
0
41
1
10
11.5021209263114
20
-4.00107452709804
30
0
41
1
10
11.4626155387688
20
-4.00116806070543
30
0
41
1
10
11.3800423177395
20
-3.99252599519559
30
0
41
1
10
11.3369765490109
20
-3.98378885910432
30
0
41
1
10
11.2916887463277
20
-3.97075332838077
30
0
0
SPLINE
5
F4
100
AcDbEntity
8
1
62
256
6
ByLayer
370
18
48
1
60
0
100
AcDbSpline
70
4
71
3
72
14
73
10
40
0
40
0
40
0
40
0
40
0.500000000000012
40
0.500000000000012
40
0.62500000000001
40
0.62500000000001
40
0.750000000000007
40
0.750000000000007
40
1
40
1
40
1
40
1
41
1
10
11.2916887463277
20
-3.97075332838077
30
0
41
1
10
11.2754477188196
20
-3.96607855061458
30
0
41
1
10
11.2644103669099
20
-3.96069210167337
30
0
41
1
10
11.2592997234977
20
-3.95282119954118
30
0
41
1
10
11.2587307139965
20
-3.9512008426243
30
0
41
1
10
11.2585295698473
20
-3.94790314645868
30
0
41
1
10
11.2588938263783
20
-3.94622069774655
30
0
41
1
10
11.2614023813103
20
-3.94107572730959
30
0
41
1
10
11.2649581103333
20
-3.93751549191683
30
0
41
1
10
11.2705010139271
20
-3.93383432604634
30
0
0
SPLINE
5
F5
100
AcDbEntity
8
1
62
256
6
ByLayer
370
18
48
1
60
0
100
AcDbSpline
70
4
71
3
72
8
73
4
40
0
40
0
40
0
40
0
40
1
40
1
40
1
40
1
41
1
10
21.7556196117427
20
-1.6799572937341
30
0
41
1
10
21.7698224543814
20
-1.7647926527423
30
0
41
1
10
21.7848215473392
20
-1.84921538275577
30
0
41
1
10
21.8007435268281
20
-1.93312184657771
30
0
0
SPLINE
5
F6
100
AcDbEntity
8
1
62
256
6
ByLayer
370
18
48
1
60
0
100
AcDbSpline
70
4
71
3
72
8
73
4
40
0
40
0
40
0
40
0
40
1
40
1
40
1
40
1
41
1
10
21.7484558284877
20
-1.61250762538967
30
0
41
1
10
21.7508775307124
20
-1.63499986337004
30
0
41
1
10
21.7532650204033
20
-1.65748305218815
30
0
41
1
10
21.7556196117424
20
-1.67995729373419
30
0
0
SPLINE
5
F7
100
AcDbEntity
8
1
62
256
6
ByLayer
370
18
48
1
60
0
100
AcDbSpline
70
4
71
3
72
8
73
4
40
0
40
0
40
0
40
0
40
1
40
1
40
1
40
1
41
1
10
21.7935499121817
20
-1.93289376004282
30
0
41
1
10
21.7959476653613
20
-1.93296920799023
30
0
41
1
10
21.798345536879
20
-1.93304523797269
30
0
41
1
10
21.8007435268275
20
-1.93312184657773
30
0
0
SPLINE
5
F8
100
AcDbEntity
8
1
62
256
6
ByLayer
370
18
48
1
60
0
100
AcDbSpline
70
4
71
3
72
8
73
4
40
0
40
0
40
0
40
0
40
1
40
1
40
1
40
1
41
1
10
21.7912470256663
20
-0.963254656377273
30
0
41
1
10
21.7781427075039
20
-1.1749004558383
30
0
41
1
10
21.7631067020785
20
-1.3867445976683
30
0
41
1
10
21.7448242446326
20
-1.59879169618719
30
0
0
SPLINE
5
F9
100
AcDbEntity
8
1
62
256
6
ByLayer
370
18
48
1
60
0
100
AcDbSpline
70
4
71
3
72
8
73
4
40
0
40
0
40
0
40
0
40
1
40
1
40
1
40
1
41
1
10
21.7912470256583
20
-0.96325465637625
30
0
41
1
10
21.7573196147343
20
-0.874783350334496
30
0
41
1
10
21.723499148658
20
-0.785923612618092
30
0
41
1
10
21.689785412022
20
-0.696676225602886
30
0
0
SPLINE
5
FA
100
AcDbEntity
8
1
62
256
6
ByLayer
370
18
48
1
60
0
100
AcDbSpline
70
4
71
3
72
8
73
4
40
0
40
0
40
0
40
0
40
1
40
1
40
1
40
1
41
1
10
14.0000000000001
20
3.81510453581055
30
0
41
1
10
13.8868477051924
20
3.82450341781993
30
0
41
1
10
13.7745239609269
20
3.8315532779379
30
0
41
1
10
13.6631446375972
20
3.83592561225666
30
0
0
SPLINE
5
FB
100
AcDbEntity
8
1
62
256
6
ByLayer
370
18
48
1
60
0
100
AcDbSpline
70
4
71
3
72
8
73
4
40
0
40
0
40
0
40
0
40
1
40
1
40
1
40
1
41
1
10
21.6414976379904
20
-0.47380392293644
30
0
41
1
10
21.6571513136819
20
-0.547274993726489
30
0
41
1
10
21.6732355948869
20
-0.621544186490922
30
0
41
1
10
21.6897854120221
20
-0.696676225602886
30
0
0
SPLINE
5
FC
100
AcDbEntity
8
1
62
256
6
ByLayer
370
13
48
1
60
0
100
AcDbSpline
70
4
71
3
72
10
73
6
40
0
40
0
40
0
40
0
40
0.487105726270147
40
0.783850427163771
40
1
40
1
40
1
40
1
41
1
10
21.6414976402385
20
-0.473803920098675
30
0
41
1
10
21.0943317601591
20
-0.0559727677256774
30
0
41
1
10
20.2138325467463
20
0.627479431342834
30
0
41
1
10
19.0905325102855
20
1.45337713680934
30
0
41
1
10
18.5143983539043
20
1.8420384691776
30
0
41
1
10
18.2715975308564
20
1.99755275735564
30
0
0
SPLINE
5
FD
100
AcDbEntity
8
1
62
256
6
ByLayer
370
18
48
1
60
0
100
AcDbSpline
70
4
71
3
72
49
73
45
40
0
40
0
40
0
40
0
40
0.0625000000000027
40
0.0625000000000027
40
0.125000000000005
40
0.125000000000005
40
0.140625000000006
40
0.140625000000006
40
0.156250000000007
40
0.156250000000007
40
0.187500000000006
40
0.187500000000006
40
0.250000000000007
40
0.250000000000007
40
0.37500000000001
40
0.37500000000001
40
0.437500000000011
40
0.437500000000011
40
0.468750000000011
40
0.468750000000011
40
0.484375000000012
40
0.484375000000012
40
0.500000000000012
40
0.562500000000013
40
0.562500000000013
40
0.625000000000014
40
0.625000000000014
40
0.687500000000015
40
0.687500000000015
40
0.750000000000016
40
0.750000000000016
40
0.781250000000016
40
0.781250000000016
40
0.796875000000016
40
0.796875000000016
40
0.812500000000015
40
0.812500000000015
40
0.87500000000001
40
0.87500000000001
40
0.937500000000004
40
0.937500000000004
40
0.968750000000002
40
0.968750000000002
40
1
40
1
40
1
40
1
41
1
10
21.6897854120219
20
-0.696676225602914
30
0
41
1
10
21.5289685500564
20
-0.566952806154063
30
0
41
1
10
21.3683306773673
20
-0.436380685893965
30
0
41
1
10
21.0468777740202
20
-0.174220275365712
30
0
41
1
10
20.8860582334234
20
-0.0426392584123789
30
0
41
1
10
20.6845747180741
20
0.122042735732151
30
0
41
1
10
20.6442550404611
20
0.154989488181627
30
0
41
1
10
20.5635607019697
20
0.220892889296806
30
0
41
1
10
20.5231573240526
20
0.253872952290266
30
0
41
1
10
20.4020855109831
20
0.352619838295709
30
0
41
1
10
20.321595791412
20
0.418160689820013
30
0
41
1
10
20.0806835280403
20
0.613783514651601
30
0
41
1
10
19.9208226407264
20
0.74287223612788
30
0
41
1
10
19.4424731079778
20
1.12500678693709
30
0
41
1
10
19.1251991073816
20
1.37290798150974
30
0
41
1
10
18.6471337187163
20
1.72915945199893
30
0
41
1
10
18.4874313543424
20
1.84531441075833
30
0
41
1
10
18.2467868175686
20
2.01497985182684
30
0
41
1
10
18.1663899221002
20
2.07077346944331
30
0
41
1
10
18.0454492495188
20
2.15323257648421
30
0
41
1
10
18.005046799428
20
2.1805341266722
30
0
41
1
10
17.9243855078487
20
2.23453235166841
30
0
41
1
10
17.7229752493304
20
2.36809809273754
30
0
41
1
10
17.5226730867612
20
2.49450184090324
30
0
41
1
10
17.2030486538909
20
2.68735087408569
30
0
41
1
10
17.043674503269
20
2.77907353305869
30
0
41
1
10
16.7252675790682
20
2.95262741066097
30
0
41
1
10
16.5662336933439
20
3.03444713793954
30
0
41
1
10
16.247811983334
20
3.18752706885505
30
0
41
1
10
16.0884218430683
20
3.2587814245602
30
0
41
1
10
15.8484680338706
20
3.35731475051819
30
0
41
1
10
15.7683379698803
20
3.38877267282578
30
0
41
1
10
15.6478541698816
20
3.43382627299223
30
0
41
1
10
15.6076451804459
20
3.44848715366504
30
0
41
1
10
15.5271217774108
20
3.47707512770296
30
0
41
1
10
15.4867918792145
20
3.49100684470986
30
0
41
1
10
15.2854462208845
20
3.55858295195907
30
0
41
1
10
15.1249429071928
20
3.60602969632339
30
0
41
1
10
14.8039767344363
20
3.68834213228877
30
0
41
1
10
14.6435741319112
20
3.72309658866098
30
0
41
1
10
14.4026627518377
20
3.7650649282522
30
0
41
1
10
14.3223092025992
20
3.77734618821495
30
0
41
1
10
14.1613536042805
20
3.79867521461915
30
0
41
1
10
14.0807512991351
20
3.80773133641918
30
0
41
1
10
14.0000000000001
20
3.81510453580947
30
0
0
SPLINE
5
FE
100
AcDbEntity
8
1
62
256
6
ByLayer
370
13
48
1
60
0
100
AcDbSpline
70
4
71
3
72
11
73
7
40
0
40
0
40
0
40
0
40
0.124206808697904
40
0.343155106523428
40
0.562103404348952
40
1
40
1
40
1
40
1
41
1
10
18.5672883047344
20
0.694282826718336
30
0
41
1
10
18.3781922031562
20
0.842044120441869
30
0
41
1
10
17.8557627682448
20
1.2455715742235
30
0
41
1
10
17
20
1.87143405411584
30
0
41
1
10
15.6666666666667
20
2.73456057156869
30
0
41
1
10
14.6666666666666
20
3.20822654082286
30
0
41
1
10
14
20
3.41871761620419
30
0
0
SPLINE
5
FF
100
AcDbEntity
8
1
62
256
6
ByLayer
370
18
48
1
60
0
100
AcDbSpline
70
4
71
3
72
17
73
13
40
0
40
0
40
0
40
0
40
0.396412478994317
40
0.396412478994317
40
0.445964038868603
40
0.445964038868603
40
0.49551559874289
40
0.49551559874289
40
0.594618718491468
40
0.792824957988624
40
0.792824957988624
40
1
40
1
40
1
40
1
41
1
10
14.0000000000001
20
-3.66160945406804
30
0
41
1
10
14.3218824350269
20
-3.75407588265324
30
0
41
1
10
14.6427863595125
20
-3.8281561813854
30
0
41
1
10
15.0044554606321
20
-3.89007913396256
30
0
41
1
10
15.0446502163033
20
-3.89666216787848
30
0
41
1
10
15.1250648322584
20
-3.90923085950689
30
0
41
1
10
15.1652964968884
20
-3.91521793782894
30
0
41
1
10
15.2858201693851
20
-3.93224889786617
30
0
41
1
10
15.5263759774998
20
-3.96262153395909
30
0
41
1
10
15.7657038415079
20
-3.98198727680912
30
0
41
1
10
16.0913518239798
20
-3.99844723382199
30
0
41
1
10
16.2574214574844
20
-4.00154336155177
30
0
41
1
10
16.4233651324591
20
-3.99938142909195
30
0
0
SPLINE
5
100
100
AcDbEntity
8
1
62
256
6
ByLayer
370
18
48
1
60
0
100
AcDbSpline
70
4
71
3
72
29
73
25
40
0
40
0
40
0
40
0
40
0.0217650591087222
40
0.0475280516980507
40
0.0990540368767078
40
0.124817029466036
40
0.150580022055365
40
0.176343014644693
40
0.202106007234022
40
0.22786899982335
40
0.253631992412679
40
0.305157977591336
40
0.356683962769993
40
0.40820994794865
40
0.511261918305964
40
0.562787903484621
40
0.614313888663278
40
0.665839873841935
40
0.717365859020592
40
0.768891844199249
40
0.820417829377906
40
0.871943814556563
40
0.92346979973522
40
1
40
1
40
1
40
1
41
1
10
13.1911845445915
20
3.91973005848811
30
0
41
1
10
13.2518179377872
20
3.91143993517983
30
0
41
1
10
13.3842459234692
20
3.89118769422586
30
0
41
1
10
13.6603364669061
20
3.83934423636157
30
0
41
1
10
13.9477049997213
20
3.76892170748556
30
0
41
1
10
14.2351322805417
20
3.68263888137685
30
0
41
1
10
14.4507178727039
20
3.61019101208794
30
0
41
1
10
14.666298212374
20
3.53002526618613
30
0
41
1
10
14.8818514258498
20
3.44237045584083
30
0
41
1
10
15.0973486077713
20
3.34747818486898
30
0
41
1
10
15.3845740963551
20
3.21164107183395
30
0
41
1
10
15.7433839216178
20
3.02463131152371
30
0
41
1
10
16.1733581086543
20
2.77520478183754
30
0
41
1
10
16.7459074924894
20
2.41184461200746
30
0
41
1
10
17.3189213356966
20
2.00605345100553
30
0
41
1
10
17.8954166650081
20
1.5656459962907
30
0
41
1
10
18.3302015357524
20
1.21995642908499
30
0
41
1
10
18.7682494163315
20
0.861076806976058
30
0
41
1
10
19.2103022366447
20
0.491256346249799
30
0
41
1
10
19.6573176247613
20
0.112895015847783
30
0
41
1
10
20.1100390084638
20
-0.27140865395603
30
0
41
1
10
20.5695143909079
20
-0.658860853910511
30
0
41
1
10
21.1119727531657
20
-1.10896620055408
30
0
41
1
10
21.5078994949398
20
-1.42620164308266
30
0
41
1
10
21.7484558416396
20
-1.61250762397629
30
0
0
SPLINE
5
101
100
AcDbEntity
8
1
62
256
6
ByLayer
370
18
48
1
60
0
100
AcDbSpline
70
4
71
3
72
8
73
4
40
0
40
0
40
0
40
0
40
1
40
1
40
1
40
1
41
1
10
21.7448242446266
20
-1.59879169618773
30
0
41
1
10
21.7460372034862
20
-1.60336348975767
30
0
41
1
10
21.7472477284109
20
-1.60793546732819
30
0
41
1
10
21.748455831051
20
-1.61250762759266
30
0
0
SPLINE
5
102
100
AcDbEntity
8
1
62
256
6
ByLayer
370
18
48
1
60
0
100
AcDbSpline
70
4
71
3
72
16
73
12
40
0
40
0
40
0
40
0
40
0.0541631175658332
40
0.264186884809984
40
0.369198768432059
40
0.474210652054134
40
0.57922253567621
40
0.684234419298285
40
0.78924630292036
40
0.894258186542436
40
1
40
1
40
1
40
1
41
1
10
12.979122496101
20
-3.28656753223109
30
0
41
1
10
13.0536195883594
20
-3.31683586070741
30
0
41
1
10
13.4170237141683
20
-3.46023592119721
30
0
41
1
10
13.9250992398541
20
-3.63105695483972
30
0
41
1
10
14.5033411193353
20
-3.78160036375027
30
0
41
1
10
14.9370846224008
20
-3.87180529212452
30
0
41
1
10
15.3708381533295
20
-3.9388852944528
30
0
41
1
10
15.8045663835407
20
-3.98246606822744
30
0
41
1
10
16.2381961424628
20
-4.00224371526187
30
0
41
1
10
16.672834993988
20
-3.99802611773197
30
0
41
1
10
16.9631701494239
20
-3.97917661907255
30
0
41
1
10
17.1089560797506
20
-3.96569264639709
30
0
0
SPLINE
5
103
100
AcDbEntity
8
1
62
256
6
ByLayer
370
18
48
1
60
0
100
AcDbSpline
70
4
71
3
72
14
73
10
40
0
40
0
40
0
40
0
40
0.143310353329459
40
0.286464250484276
40
0.429464999927691
40
0.572315832554911
40
0.71501990289075
40
0.857580290269767
40
1
40
1
40
1
40
1
41
1
10
13.1155960734183
20
-3.14058620074383
30
0
41
1
10
13.1089904156128
20
-3.14732504797689
30
0
41
1
10
13.0957863115949
20
-3.1607953854431
30
0
41
1
10
13.0760916468346
20
-3.1812734824436
30
0
41
1
10
13.0564927416056
20
-3.20193419134526
30
0
41
1
10
13.036996238034
20
-3.22279417979601
30
0
41
1
10
13.0176022438658
20
-3.24385057846118
30
0
41
1
10
12.9983037134135
20
-3.26508349926061
30
0
41
1
10
12.9855141307208
20
-3.27940854504737
30
0
41
1
10
12.979122496101
20
-3.28656753223112
30
0
0
SPLINE
5
104
100
AcDbEntity
8
1
62
256
6
ByLayer
370
18
48
1
60
0
100
AcDbSpline
70
4
71
3
72
8
73
4
40
0
40
0
40
0
40
0
40
1
40
1
40
1
40
1
41
1
10
13.0441676235964
20
-3.13263965462227
30
0
41
0.999990940036111
10
13.0679557377788
20
-3.13513869847792
30
0
41
0.999990940036111
10
13.0917654367673
20
-3.13778757118375
30
0
41
1
10
13.115596073417
20
-3.14058620074365
30
0
0
SPLINE
5
105
100
AcDbEntity
8
1
62
256
6
ByLayer
370
18
48
1
60
0
100
AcDbSpline
70
4
71
3
72
25
73
21
40
0
40
0
40
0
40
0
40
0.0553095968615039
40
0.110641260486733
40
0.165996380942523
40
0.221376319508886
40
0.27678240926006
40
0.332215955627713
40
0.387678236946676
40
0.443170504983642
40
0.498693985449169
40
0.554249878493365
40
0.609839359185748
40
0.665463577979539
40
0.721123661160887
40
0.776820712654266
40
0.832555821342243
40
0.888330052305714
40
0.944144442257616
40
1
40
1
40
1
40
1
41
1
10
13.452089293567
20
-2.64427972578198
30
0
41
1
10
13.4455685373472
20
-2.65283890811136
30
0
41
1
10
13.432524423334
20
-2.66996068761068
30
0
41
1
10
13.4130900656015
20
-2.69592689839519
30
0
41
1
10
13.3937474970209
20
-2.7221039405722
30
0
41
1
10
13.3745064532794
20
-2.74850980263372
30
0
41
1
10
13.3553643303063
20
-2.77513686901196
30
0
41
1
10
13.3363218328002
20
-2.80198441702004
30
0
41
1
10
13.3173787783966
20
-2.82904990323692
30
0
41
1
10
13.2985352228189
20
-2.85633129984259
30
0
41
1
10
13.2797911577588
20
-2.88382646726126
30
0
41
1
10
13.2611465933822
20
-2.9115333244132
30
0
41
1
10
13.2426015305781
20
-2.93944979425268
30
0
41
1
10
13.224155989359
20
-2.96757385002641
30
0
41
1
10
13.2058099227479
20
-2.99590338362017
30
0
41
1
10
13.1875635315543
20
-3.02443668745988
30
0
41
1
10
13.1694160912409
20
-3.05317066424928
30
0
41
1
10
13.1513703574864
20
-3.08210752353909
30
0
41
1
10
13.1334160749826
20
-3.11122973103363
30
0
41
1
10
13.1215375336362
20
-3.13079830614907
30
0
41
1
10
13.1155960734155
20
-3.1405862007426
30
0
0
SPLINE
5
106
100
AcDbEntity
8
1
62
256
6
ByLayer
370
18
48
1
60
0
100
AcDbSpline
70
4
71
3
72
18
73
14
40
0
40
0
40
0
40
0
40
0.0168470070002625
40
0.184882870616026
40
0.268900802423907
40
0.352918734231789
40
0.436936666039671
40
0.520954597847552
40
0.604972529655434
40
0.688990461463315
40
0.857026325079079
40
0.94104425688696
40
1
40
1
40
1
40
1
41
1
10
13.1155960734155
20
-3.1405862007426
30
0
41
1
10
13.1445618298783
20
-3.15313768653522
30
0
41
1
10
13.4624495382583
20
-3.28949660410416
30
0
41
1
10
13.9249596384211
20
-3.46550373103423
30
0
41
1
10
14.5031936437072
20
-3.6439579232088
30
0
41
1
10
14.9369434297413
20
-3.75579582677625
30
0
41
1
10
15.3706987778065
20
-3.84517835720493
30
0
41
1
10
15.804424641668
20
-3.91158262956239
30
0
41
1
10
16.2380544996107
20
-3.95477302297269
30
0
41
1
10
16.8162350024848
20
-3.98061804218895
30
0
41
1
10
17.3951163139949
20
-3.95892706364833
30
0
41
1
10
17.9327268768411
20
-3.89489984204474
30
0
41
1
10
18.1804955054388
20
-3.85392646112541
30
0
41
1
10
18.2827913234056
20
-3.8350934986353
30
0
0
SPLINE
5
107
100
AcDbEntity
8
1
62
256
6
ByLayer
370
18
48
1
60
0
100
AcDbSpline
70
4
71
3
72
8
73
4
40
0
40
0
40
0
40
0
40
1
40
1
40
1
40
1
41
1
10
13.1080209359267
20
-2.68187318175569
30
0
41
1
10
13.2218633070417
20
-2.66618782099022
30
0
41
1
10
13.336533707952
20
-2.65366370278852
30
0
41
1
10
13.4520419609917
20
-2.64433832674359
30
0
0
SPLINE
5
108
100
AcDbEntity
8
1
62
256
6
ByLayer
370
18
48
1
60
0
100
AcDbSpline
70
4
71
3
72
8
73
4
40
0
40
0
40
0
40
0
40
1
40
1
40
1
40
1
41
1
10
14.0000000000001
20
-2.87316276522293
30
0
41
1
10
13.815931820395
20
-2.80170722122958
30
0
41
1
10
13.6331975287357
20
-2.72575165910251
30
0
41
1
10
13.4521041459954
20
-2.64426030971785
30
0
0
SPLINE
5
109
100
AcDbEntity
8
1
62
256
6
ByLayer
370
18
48
1
60
0
100
AcDbSpline
70
4
71
3
72
10
73
6
40
0
40
0
40
0
40
0
40
0.5
40
0.5
40
1
40
1
40
1
40
1
41
1
10
12.9777977038465
20
-3.28641210390617
30
0
41
1
10
12.9811729783157
20
-3.26100769834866
30
0
41
1
10
12.9884334066786
20
-3.23535237688475
30
0
41
1
10
13.0107550071304
20
-3.18370314190196
30
0
41
1
10
13.0257355961611
20
-3.15795567169937
30
0
41
1
10
13.0441676235994
20
-3.13263965462258
30
0
0
SPLINE
5
10A
100
AcDbEntity
8
1
62
256
6
ByLayer
370
18
48
1
60
0
100
AcDbSpline
70
4
71
3
72
17
73
13
40
0
40
0
40
0
40
0
40
0.249999999999999
40
0.249999999999999
40
0.499999999999998
40
0.499999999999998
40
0.562499999999999
40
0.562499999999999
40
0.624999999999999
40
0.749999999999999
40
0.749999999999999
40
1
40
1
40
1
40
1
41
1
10
13.0441676235961
20
-3.13263965462136
30
0
41
1
10
13.0327421343475
20
-3.09814006783716
30
0
41
1
10
13.0252631452313
20
-3.06266161601212
30
0
41
1
10
13.0185938377871
20
-2.98970767715545
30
0
41
1
10
13.019400630472
20
-2.95223236369191
30
0
41
1
10
13.0260203090665
20
-2.9041025517366
30
0
41
1
10
13.0276303646111
20
-2.89438952644411
30
0
41
1
10
13.0314033071493
20
-2.87495458057683
30
0
41
1
10
13.0378813575132
20
-2.84582100831426
30
0
41
1
10
13.0467747025072
20
-2.81675218332595
30
0
41
1
10
13.0677005131523
20
-2.75872532376468
30
0
41
1
10
13.0858287829089
20
-2.72018743799839
30
0
41
1
10
13.1080209359305
20
-2.68187318174921
30
0
0
SPLINE
5
10B
100
AcDbEntity
8
1
62
256
6
ByLayer
370
18
48
1
60
0
100
AcDbSpline
70
4
71
3
72
30
73
26
40
0
40
0
40
0
40
0
40
0.250000000000024
40
0.250000000000024
40
0.375000000000013
40
0.375000000000013
40
0.437500000000007
40
0.437500000000007
40
0.500000000000001
40
0.500000000000001
40
0.562499999999995
40
0.562499999999995
40
0.624999999999988
40
0.624999999999988
40
0.656249999999989
40
0.656249999999989
40
0.687499999999989
40
0.687499999999989
40
0.749999999999991
40
0.749999999999991
40
0.812499999999994
40
0.812499999999994
40
0.874999999999996
40
0.874999999999996
40
1
40
1
40
1
40
1
41
1
10
10.9594050136679
20
-1.2199905731122
30
0
41
1
10
10.945108970147
20
-1.20528054068848
30
0
41
1
10
10.931443984296
20
-1.19005928977111
30
0
41
1
10
10.9128209929773
20
-1.16573346216384
30
0
41
1
10
10.9069178806301
20
-1.15734817729677
30
0
41
1
10
10.8989624624287
20
-1.14431022475455
30
0
41
1
10
10.8964591838962
20
-1.13988288404366
30
0
41
1
10
10.8918594184497
20
-1.13080639131144
30
0
41
1
10
10.8897558638193
20
-1.12614068479087
30
0
41
1
10
10.8862058017088
20
-1.11664535232092
30
0
41
1
10
10.8847467111342
20
-1.11180617474849
30
0
41
1
10
10.8828184893031
20
-1.10184314790143
30
0
41
1
10
10.8823629099489
20
-1.09674078678981
30
0
41
1
10
10.8829188813809
20
-1.08915212885194
30
0
41
1
10
10.8833192942251
20
-1.08660217654216
30
0
41
1
10
10.8845996201071
20
-1.08168342853409
30
0
41
1
10
10.8854774668844
20
-1.07929854720308
30
0
41
1
10
10.8889117205883
20
-1.07239548136476
30
0
41
1
10
10.892209267034
20
-1.06833608195956
30
0
41
1
10
10.9001934370099
20
-1.06159220655374
30
0
41
1
10
10.904694479994
20
-1.05898957282864
30
0
41
1
10
10.9143504343659
20
-1.05477387820446
30
0
41
1
10
10.9193498193599
20
-1.05323151673508
30
0
41
1
10
10.9346034303065
20
-1.04965918377664
30
0
41
1
10
10.9451667000268
20
-1.04865969881501
30
0
41
1
10
10.9557076855385
20
-1.04836493934235
30
0
0
SPLINE
5
10C
100
AcDbEntity
8
1
62
256
6
ByLayer
370
18
48
1
60
0
100
AcDbSpline
70
4
71
3
72
32
73
28
40
0
40
0
40
0
40
0
40
0.124999999999995
40
0.124999999999995
40
0.24999999999999
40
0.24999999999999
40
0.312499999999987
40
0.312499999999987
40
0.374999999999985
40
0.437499999999982
40
0.437499999999982
40
0.468749999999987
40
0.468749999999987
40
0.499999999999992
40
0.499999999999992
40
0.625000000000012
40
0.625000000000012
40
0.656250000000015
40
0.656250000000015
40
0.687500000000018
40
0.750000000000015
40
0.750000000000015
40
0.812500000000012
40
0.812500000000012
40
0.875000000000009
40
0.875000000000009
40
1
40
1
40
1
40
1
41
1
10
10.9557076855432
20
-1.0483649393629
30
0
41
1
10
11.015441552894
20
-1.0466945904802
30
0
41
1
10
11.0748961341378
20
-1.04289717322922
30
0
41
1
10
11.1930559106273
20
-1.02958153159159
30
0
41
1
10
11.2517636091557
20
-1.02008336070881
30
0
41
1
10
11.3390355045429
20
-0.99977835506678
30
0
41
1
10
11.367867839275
20
-0.992012357220347
30
0
41
1
10
11.4244572918056
20
-0.974298353547368
30
0
41
1
10
11.4801048555684
20
-0.954372633797163
30
0
41
1
10
11.5335836858202
20
-0.929331699303418
30
0
41
1
10
11.5727491888098
20
-0.908313229992245
30
0
41
1
10
11.5856468234852
20
-0.900933436577475
30
0
41
1
10
11.6111017107727
20
-0.885364034671881
30
0
41
1
10
11.6235784452259
20
-0.877221395676912
30
0
41
1
10
11.6843301665754
20
-0.834896437866718
30
0
41
1
10
11.7280534182938
20
-0.79565647554432
30
0
41
1
10
11.7762730723754
20
-0.739387216929998
30
0
41
1
10
11.7856186594611
20
-0.727738599509109
30
0
41
1
10
11.8034350251139
20
-0.704027490687906
30
0
41
1
10
11.8289272936438
20
-0.667758126947547
30
0
41
1
10
11.8509200094296
20
-0.629480317104566
30
0
41
1
10
11.8774450025005
20
-0.576814841533235
30
0
41
1
10
11.8893207517012
20
-0.54963436390895
30
0
41
1
10
11.9104929543538
20
-0.493919959485652
30
0
41
1
10
11.9196794923131
20
-0.465695212361908
30
0
41
1
10
11.9437007978455
20
-0.380072318189974
30
0
41
1
10
11.9550311576015
20
-0.32173353799007
30
0
41
1
10
11.9628709990917
20
-0.262414502367591
30
0
0
SPLINE
5
10D
100
AcDbEntity
8
1
62
256
6
ByLayer
370
18
48
1
60
0
100
AcDbSpline
70
4
71
3
72
34
73
30
40
0
40
0
40
0
40
0
40
0.0625000000000004
40
0.0625000000000004
40
0.125000000000001
40
0.125000000000001
40
0.187500000000001
40
0.187500000000001
40
0.250000000000002
40
0.250000000000002
40
0.312500000000002
40
0.312500000000002
40
0.375000000000003
40
0.437500000000003
40
0.437500000000003
40
0.500000000000004
40
0.500000000000004
40
0.562500000000004
40
0.562500000000004
40
0.625000000000004
40
0.625000000000004
40
0.750000000000003
40
0.750000000000003
40
0.781250000000004
40
0.781250000000004
40
0.812500000000004
40
0.875000000000003
40
0.875000000000003
40
1
40
1
40
1
40
1
41
1
10
11.9628709990917
20
-0.262414502367619
30
0
41
1
10
11.9616532971549
20
-0.193585319246807
30
0
41
1
10
11.9586743404401
20
-0.124875240281852
30
0
41
1
10
11.949959762028
20
0.0123604721142954
30
0
41
1
10
11.9442188940365
20
0.0808857368078293
30
0
41
1
10
11.9304343813094
20
0.217783724245493
30
0
41
1
10
11.9223781765823
20
0.286209850670616
30
0
41
1
10
11.9043484407555
20
0.422162582020604
30
0
41
1
10
11.8943658750906
20
0.489780720732966
30
0
41
1
10
11.872659755445
20
0.624335259653293
30
0
41
1
10
11.8609262461528
20
0.69131851216207
30
0
41
1
10
11.8358554108351
20
0.824412329457118
30
0
41
1
10
11.8092370637593
20
0.956343700259737
30
0
41
1
10
11.7796463802959
20
1.0860069677976
30
0
41
1
10
11.7485723635856
20
1.21454573779838
30
0
41
1
10
11.7322922019848
20
1.27824774854133
30
0
41
1
10
11.6983702721884
20
1.40394583560848
30
0
41
1
10
11.6807107725663
20
1.46601728701012
30
0
41
1
10
11.6439374225362
20
1.58861166660108
30
0
41
1
10
11.6248030638072
20
1.64919494476672
30
0
41
1
10
11.5652292495882
20
1.8281460566474
30
0
41
1
10
11.5227045446856
20
1.94354794596964
30
0
41
1
10
11.465434091246
20
2.08292469474892
30
0
41
1
10
11.453769032429
20
2.11056338372404
30
0
41
1
10
11.4300710587042
20
2.16519855818333
30
0
41
1
10
11.3939493621413
20
2.24624397715166
30
0
41
1
10
11.3560276833571
20
2.32458303648332
30
0
41
1
10
11.2775368488945
20
2.47766947376303
30
0
41
1
10
11.2216999930332
20
2.57494523377631
30
0
41
1
10
11.1614736329384
20
2.66738948756145
30
0
0
SPLINE
5
10E
100
AcDbEntity
8
1
62
256
6
ByLayer
370
18
48
1
60
0
100
AcDbSpline
70
4
71
3
72
12
73
8
40
0
40
0
40
0
40
0
40
0.500000000000015
40
0.500000000000015
40
0.750000000000008
40
0.750000000000008
40
1
40
1
40
1
40
1
41
1
10
11.1614736329384
20
2.66738948756145
30
0
41
1
10
11.148435376291
20
2.6874025168153
30
0
41
1
10
11.1384217675253
20
2.7079230787167
30
0
41
1
10
11.1287517698222
20
2.73958484726893
30
0
41
1
10
11.1264202604635
20
2.75034951709463
30
0
41
1
10
11.1237924936006
20
2.77185070693625
30
0
41
1
10
11.1234843248704
20
2.78257367591422
30
0
41
1
10
11.1242061534438
20
2.79326876324819
30
0
0
SPLINE
5
10F
100
AcDbEntity
8
1
62
256
6
ByLayer
370
18
48
1
60
0
100
AcDbSpline
70
4
71
3
72
41
73
37
40
0
40
0
40
0
40
0
40
0.0624999999999993
40
0.0624999999999993
40
0.093749999999999
40
0.093749999999999
40
0.109374999999997
40
0.109374999999997
40
0.124999999999996
40
0.124999999999996
40
0.187500000000001
40
0.187500000000001
40
0.203125000000001
40
0.203125000000001
40
0.218750000000001
40
0.25
40
0.25
40
0.312499999999995
40
0.312499999999995
40
0.374999999999991
40
0.374999999999991
40
0.406249999999991
40
0.406249999999991
40
0.437499999999992
40
0.437499999999992
40
0.499999999999993
40
0.499999999999993
40
0.562499999999993
40
0.562499999999993
40
0.624999999999994
40
0.624999999999994
40
0.749999999999996
40
0.749999999999996
40
0.874999999999998
40
0.874999999999998
40
1
40
1
40
1
40
1
41
1
10
11.1242061534437
20
2.79326876324819
30
0
41
1
10
11.1272685407936
20
2.83864311023956
30
0
41
1
10
11.1387759774194
20
2.88137781210159
30
0
41
1
10
11.1667881133626
20
2.94216794720961
30
0
41
1
10
11.1779271072083
20
2.96187654470907
30
0
41
1
10
11.1971702027335
20
2.99066791566489
30
0
41
1
10
11.2040143220047
20
3.00014051682717
30
0
41
1
10
11.2183394228643
20
3.01861698493019
30
0
41
1
10
11.2258394929947
20
3.0276512587389
30
0
41
1
10
11.264902183305
20
3.07188303836111
30
0
41
1
10
11.3011015758828
20
3.10429279411855
30
0
41
1
10
11.3511293375621
20
3.14200059218183
30
0
41
1
10
11.3613950434455
20
3.14941248563989
30
0
41
1
10
11.3822656826569
20
3.16388811349444
30
0
41
1
10
11.4140915282512
20
3.18509039476061
30
0
41
1
10
11.4473530924191
20
3.20489023374287
30
0
41
1
10
11.5155362146833
20
3.24289082180127
30
0
41
1
10
11.5631922821256
20
3.26610543626128
30
0
41
1
10
11.6619960414478
20
3.30928111129552
30
0
41
1
10
11.7131505481074
20
3.32923508348162
30
0
41
1
10
11.7920868250172
20
3.35718981569823
30
0
41
1
10
11.8187602775824
20
3.36617240026922
30
0
41
1
10
11.8725113650583
20
3.38344875925716
30
0
41
1
10
11.899624722627
20
3.39175535426028
30
0
41
1
10
11.9816220913197
20
3.41577887954614
30
0
41
1
10
12.037160704974
20
3.43060375367514
30
0
41
1
10
12.1497680009624
20
3.45826771656667
30
0
41
1
10
12.2068376947505
20
3.4711051313418
30
0
41
1
10
12.3223676649821
20
3.49506937487109
30
0
41
1
10
12.3806737527871
20
3.5061628863931
30
0
41
1
10
12.5568772565838
20
3.53708781095108
30
0
41
1
10
12.6761642251744
20
3.55460879655041
30
0
41
1
10
12.9179612322514
20
3.58458543587906
30
0
41
1
10
13.0398087347
20
3.59695342448791
30
0
41
1
10
13.2853757362865
20
3.61707743723798
30
0
41
1
10
13.4090951915512
20
3.62483184042773
30
0
41
1
10
13.5338248234275
20
3.63030112256786
30
0
0
SPLINE
5
110
100
AcDbEntity
8
1
62
256
6
ByLayer
370
18
48
1
60
0
100
AcDbSpline
70
4
71
3
72
16
73
12
40
0
40
0
40
0
40
0
40
0.250000000000003
40
0.250000000000003
40
0.500000000000006
40
0.500000000000006
40
0.625000000000007
40
0.625000000000007
40
0.750000000000008
40
0.750000000000008
40
1
40
1
40
1
40
1
41
1
10
13.1318457786445
20
3.95534577591522
30
0
41
1
10
13.126044648536
20
3.96316122909539
30
0
41
1
10
13.1237445901195
20
3.96992703861682
30
0
41
1
10
13.1265554802658
20
3.98140005663097
30
0
41
1
10
13.1316636885571
20
3.98610718517668
30
0
41
1
10
13.1453827880077
20
3.99164896659781
30
0
41
1
10
13.1509910511003
20
3.99324353662104
30
0
41
1
10
13.164071577907
20
3.99589114305894
30
0
41
1
10
13.1715585542314
20
3.9969533700328
30
0
41
1
10
13.1968071694185
20
3.99941982357126
30
0
41
1
10
13.2173497640541
20
4.00010476989013
30
0
41
1
10
13.2415479944016
20
3.99998715049901
30
0
0
SPLINE
5
111
100
AcDbEntity
8
1
62
256
6
ByLayer
370
18
48
1
60
0
100
AcDbSpline
70
4
71
3
72
43
73
39
40
0
40
0
40
0
40
0
40
0.0625000000000036
40
0.0625000000000036
40
0.0937500000000054
40
0.0937500000000054
40
0.109375000000006
40
0.109375000000006
40
0.125000000000007
40
0.125000000000007
40
0.187499999999997
40
0.187499999999997
40
0.249999999999987
40
0.249999999999987
40
0.281249999999985
40
0.281249999999985
40
0.312499999999983
40
0.312499999999983
40
0.374999999999986
40
0.374999999999986
40
0.406249999999984
40
0.406249999999984
40
0.437499999999982
40
0.437499999999982
40
0.499999999999984
40
0.499999999999984
40
0.562499999999987
40
0.562499999999987
40
0.62499999999999
40
0.687499999999993
40
0.687499999999993
40
0.749999999999996
40
0.749999999999996
40
0.812499999999999
40
0.812499999999999
40
0.875000000000002
40
0.875000000000002
40
1
40
1
40
1
40
1
41
1
10
11.270501013927
20
-3.93383432604634
30
0
41
1
10
11.2854620820324
20
-3.9238983471206
30
0
41
1
10
11.3063413362511
20
-3.91340890989699
30
0
41
1
10
11.3450369202781
20
-3.89716335199708
30
0
41
1
10
11.3591727812076
20
-3.89166186453863
30
0
41
1
10
11.3821023501328
20
-3.88331266537227
30
0
41
1
10
11.3900334975903
20
-3.88051339815803
30
0
41
1
10
11.4064535845355
20
-3.87488746663775
30
0
41
1
10
11.4149634080642
20
-3.87205425524013
30
0
41
1
10
11.4584701013379
20
-3.85795805527692
30
0
41
1
10
11.4964673145603
20
-3.84684474918916
30
0
41
1
10
11.5774284226621
20
-3.82508088296583
30
0
41
1
10
11.6204046975639
20
-3.81442955294926
30
0
41
1
10
11.6879824933081
20
-3.79888173461714
30
0
41
1
10
11.7110762219355
20
-3.79376115426675
30
0
41
1
10
11.7579133049543
20
-3.78374325677473
30
0
41
1
10
11.7816743767938
20
-3.77884105445725
30
0
41
1
10
11.8538935081386
20
-3.76445722728838
30
0
41
1
10
11.9032828559307
20
-3.75529792137829
30
0
41
1
10
11.9789748830214
20
-3.74222353820335
30
0
41
1
10
12.0044957452293
20
-3.73797311327772
30
0
41
1
10
12.0558763110239
20
-3.72972522869779
30
0
41
1
10
12.0817498481178
20
-3.72572512335154
30
0
41
1
10
12.1598869258756
20
-3.71409693481303
30
0
41
1
10
12.2126651682269
20
-3.70684049253538
30
0
41
1
10
12.3194699033952
20
-3.69333564718735
30
0
41
1
10
12.3734492657463
20
-3.68709525733209
30
0
41
1
10
12.481950189479
20
-3.67570867796084
30
0
41
1
10
12.5911465502169
20
-3.66539662266993
30
0
41
1
10
12.701657642614
20
-3.65726160788742
30
0
41
1
10
12.8128073278963
20
-3.65024105405919
30
0
41
1
10
12.8686959309678
20
-3.64729023696265
30
0
41
1
10
12.980560199037
20
-3.64255384529091
30
0
41
1
10
13.0366040412205
20
-3.64076361487335
30
0
41
1
10
13.1489137229678
20
-3.63835683040932
30
0
41
1
10
13.205236528861
20
-3.63774079100674
30
0
41
1
10
13.3740035530101
20
-3.63768567218656
30
0
41
1
10
13.4862783911245
20
-3.64003329693952
30
0
41
1
10
13.5983082070243
20
-3.64478263366385
30
0
0
SPLINE
5
112
100
AcDbEntity
8
1
62
256
6
ByLayer
370
18
48
1
60
0
100
AcDbSpline
70
4
71
3
72
14
73
10
40
0
40
0
40
0
40
0
40
0.25
40
0.25
40
0.5
40
0.5
40
0.75
40
0.75
40
1
40
1
40
1
40
1
41
1
10
14.0000000000001
20
-3.66141269610949
30
0
41
1
10
13.9129532836024
20
-3.63667023155375
30
0
41
1
10
13.8259803532541
20
-3.6106530187628
30
0
41
1
10
13.6523508893523
20
-3.55595798323475
30
0
41
1
10
13.5656935931483
20
-3.52727913673593
30
0
41
1
10
13.3927019327048
20
-3.46721254783847
30
0
41
1
10
13.3063685076266
20
-3.43582265920247
30
0
41
1
10
13.1338714514792
20
-3.37039423882035
30
0
41
1
10
13.0477108870367
20
-3.33635110419226
30
0
41
1
10
12.9614372322669
20
-3.30112492572735
30
0
0
SPLINE
5
113
100
AcDbEntity
8
1
62
256
6
ByLayer
370
13
48
1
60
0
100
AcDbSpline
70
4
71
3
72
8
73
4
40
0
40
0
40
0
40
0
40
1
40
1
40
1
40
1
41
1
10
12.9614396067606
20
-3.30112277543114
30
0
41
1
10
12.9668923057891
20
-3.29624229862995
30
0
41
1
10
12.9723450048177
20
-3.2913387071203
30
0
41
1
10
12.9777977038462
20
-3.28641210390714
30
0
0
SPLINE
5
114
100
AcDbEntity
8
1
62
256
6
ByLayer
370
18
48
1
60
0
100
AcDbSpline
70
4
71
3
72
15
73
11
40
0
40
0
40
0
40
0
40
0.12540310241576
40
0.250683186412056
40
0.375844266670097
40
0.500890303685634
40
0.625825167810521
40
0.750652633921479
40
0.875376382377624
40
1
40
1
40
1
40
1
41
1
10
13.1911845445976
20
3.91973005848729
30
0
41
1
10
13.185157287488
20
3.91917926397514
30
0
41
1
10
13.1731086859107
20
3.91807821527132
30
0
41
1
10
13.1551441334624
20
3.91671488872157
30
0
41
1
10
13.1372704539285
20
3.91556123644685
30
0
41
1
10
13.1194948969775
20
3.91463648640564
30
0
41
1
10
13.1018150257783
20
3.91393181393335
30
0
41
1
10
13.0842333873625
20
3.91345208387961
30
0
41
1
10
13.0667422692527
20
3.91317540845057
30
0
41
1
10
13.0551561911823
20
3.91317385818175
30
0
41
1
10
13.0493654784673
20
3.91317308335863
30
0
0
SPLINE
5
115
100
AcDbEntity
8
1
62
256
6
ByLayer
370
18
48
1
60
0
100
AcDbSpline
70
4
71
3
72
8
73
4
40
0
40
0
40
0
40
0
40
1
40
1
40
1
40
1
41
1
10
21.7411918255981
20
-1.92910475815563
30
0
41
1
10
21.7586435946372
20
-1.93033781191983
30
0
41
1
10
21.7760965365611
20
-1.93160084226014
30
0
41
1
10
21.7935499120523
20
-1.93289376131426
30
0
0
SPLINE
5
116
100
AcDbEntity
8
1
62
256
6
ByLayer
370
18
48
1
60
0
100
AcDbSpline
70
4
71
3
72
30
73
26
40
0
40
0
40
0
40
0
40
0.0127175605076976
40
0.0379320022746629
40
0.0631464440416281
40
0.113575327575559
40
0.138789769342524
40
0.164004211109489
40
0.189218652876454
40
0.21443309464342
40
0.239647536410385
40
0.26486197817735
40
0.315290861711281
40
0.365719745245211
40
0.416148628779141
40
0.517006395847003
40
0.567435279380933
40
0.617864162914863
40
0.668293046448794
40
0.718721929982725
40
0.769150813516655
40
0.819579697050586
40
0.870008580584516
40
0.920437464118446
40
1
40
1
40
1
40
1
41
1
10
13.0493654784673
20
3.91317308335863
30
0
41
1
10
13.0855540679105
20
3.90678415464865
30
0
41
1
10
13.193505198616
20
3.88668190615633
30
0
41
1
10
13.3732746430651
20
3.84804694492703
30
0
41
1
10
13.6605092752415
20
3.77548443514397
30
0
41
1
10
13.947875442965
20
3.68678415043851
30
0
41
1
10
14.2353035469636
20
3.58257391593128
30
0
41
1
10
14.4508886652528
20
3.49682276251079
30
0
41
1
10
14.6664679438498
20
3.40364859005766
30
0
41
1
10
14.8820204214467
20
3.30327851323747
30
0
41
1
10
15.0975203522212
20
3.19595632064127
30
0
41
1
10
15.3847514981642
20
3.04389833276784
30
0
41
1
10
15.7435580068283
20
2.83763079211099
30
0
41
1
10
16.1735286092903
20
2.56658076614039
30
0
41
1
10
16.7460754918071
20
2.17680382415276
30
0
41
1
10
17.319120429803
20
1.74848277734733
30
0
41
1
10
17.895580875371
20
1.28980019649512
30
0
41
1
10
18.3303756345024
20
0.932717009369355
30
0
41
1
10
18.7684099640625
20
0.564855217382956
30
0
41
1
10
19.2104944576393
20
0.188595467001164
30
0
41
1
10
19.6574811449493
20
-0.193543860997266
30
0
41
1
10
20.1102291180994
20
-0.578829410443319
30
0
41
1
10
20.5696383998006
20
-0.964347818784745
30
0
41
1
10
21.1266071152091
20
-1.42043539040571
30
0
41
1
10
21.5376233510176
20
-1.7415394695073
30
0
41
1
10
21.7935499123099
20
-1.93289375873746
30
0
0
SPLINE
5
117
100
AcDbEntity
8
1
62
256
6
ByLayer
370
13
48
1
60
0
100
AcDbSpline
70
4
71
3
72
8
73
4
40
0
40
0
40
0
40
0
40
1
40
1
40
1
40
1
41
1
10
13.0300032398023
20
3.90880001185818
30
0
41
1
10
13.0360818398567
20
3.91050450001953
30
0
41
1
10
13.0421604399111
20
3.91218537151281
30
0
41
1
10
13.0482390399655
20
3.91384259587122
30
0
0
SPLINE
5
118
100
AcDbEntity
8
1
62
256
6
ByLayer
370
18
48
1
60
0
100
AcDbSpline
70
4
71
3
72
12
73
8
40
0
40
0
40
0
40
0
40
0.5
40
0.5
40
0.75
40
0.75
40
1
40
1
40
1
40
1
41
1
10
14.0000000000001
20
3.65054105657856
30
0
41
1
10
13.8377221624454
20
3.70717514369102
30
0
41
1
10
13.6762771233501
20
3.75717722039755
30
0
41
1
10
13.4337615871518
20
3.82171011268403
30
0
41
1
10
13.3529249931759
20
3.84150617561255
30
0
41
1
10
13.1913873896405
20
3.87771146402085
30
0
41
1
10
13.1106823306028
20
3.89411735847509
30
0
41
1
10
13.0299991544608
20
3.90879884518046
30
0
0
SPLINE
5
119
100
AcDbEntity
8
1
62
256
6
ByLayer
370
18
48
1
60
0
100
AcDbSpline
70
4
71
3
72
35
73
31
40
0
40
0
40
0
40
0
40
0.124999999999998
40
0.124999999999998
40
0.156249999999998
40
0.156249999999998
40
0.187499999999997
40
0.187499999999997
40
0.249999999999997
40
0.249999999999997
40
0.374999999999998
40
0.374999999999998
40
0.406249999999999
40
0.406249999999999
40
0.421874999999998
40
0.421874999999998
40
0.437499999999997
40
0.499999999999998
40
0.499999999999998
40
0.624999999999997
40
0.624999999999997
40
0.687499999999997
40
0.687499999999997
40
0.718749999999997
40
0.718749999999997
40
0.749999999999998
40
0.749999999999998
40
0.874999999999999
40
0.874999999999999
40
1
40
1
40
1
40
1
41
1
10
14.0000000000001
20
3.65049517390202
30
0
41
1
10
14.3250921466644
20
3.53698926183245
30
0
41
1
10
14.6485225667886
20
3.39769030926553
30
0
41
1
10
15.0544907323731
20
3.1936768688312
30
0
41
1
10
15.1358055260434
20
3.15135198212229
30
0
41
1
10
15.2978896299598
20
3.0641974991743
30
0
41
1
10
15.3787576979606
20
3.01932031758642
30
0
41
1
10
15.6209810982484
20
2.88094565001785
30
0
41
1
10
15.7819578833161
20
2.78371248863775
30
0
41
1
10
16.2644074917436
20
2.47809401156857
30
0
41
1
10
16.5853545340416
20
2.25574531688972
30
0
41
1
10
16.9893516990759
20
1.95773961010252
30
0
41
1
10
17.0702931348888
20
1.89713410168446
30
0
41
1
10
17.1919912286639
20
1.80477466270287
30
0
41
1
10
17.2326410883036
20
1.77371840394923
30
0
41
1
10
17.3138435857132
20
1.71128899077652
30
0
41
1
10
17.5165715003658
20
1.5544507339948
30
0
41
1
10
17.7180705329005
20
1.39398789522411
30
0
41
1
10
18.200390619214
20
1.00322945316071
30
0
41
1
10
18.5201871700129
20
0.73515116047858
30
0
41
1
10
19.0015631774326
20
0.32669654747022
30
0
41
1
10
19.1623057665075
20
0.189490580716608
30
0
41
1
10
19.4044069412804
20
-0.0172673035848732
30
0
41
1
10
19.4852719526557
20
-0.0863447698950495
30
0
41
1
10
19.6474257712544
20
-0.224711334847711
30
0
41
1
10
19.7288051231821
20
-0.294076843772643
30
0
41
1
10
20.1340836943527
20
-0.63870047594844
30
0
41
1
10
20.4551971163754
20
-0.90917406417924
30
0
41
1
10
21.0970183815755
20
-1.43341405048426
30
0
41
1
10
21.4177413413601
20
-1.68714565835688
30
0
41
1
10
21.7411918255985
20
-1.92910475814924
30
0
0
SPLINE
5
11A
100
AcDbEntity
8
1
62
256
6
ByLayer
370
18
48
1
60
0
100
AcDbSpline
70
4
71
2
72
6
73
3
40
0
40
0
40
0
40
1
40
1
40
1
41
1
10
16.4233669689083
20
-3.99938266652768
30
0
41
1
10
16.4233474147097
20
-3.99938398391367
30
0
41
1
10
16.4233278605074
20
-3.9993851538211
30
0
0
SPLINE
5
11B
100
AcDbEntity
8
1
62
256
6
ByLayer
370
18
48
1
60
0
100
AcDbSpline
70
4
71
3
72
13
73
9
40
0
40
0
40
0
40
0
40
0.24217762896752
40
0.392994330352068
40
0.481508155633937
40
0.582241067790098
40
0.835701008649498
40
1
40
1
40
1
40
1
41
1
10
18.6583622325283
20
-3.51765899186731
30
0
41
1
10
18.8658160489552
20
-3.51466684810063
30
0
41
1
10
19.2021983876584
20
-3.50558040918247
30
0
41
1
10
19.6144104758138
20
-3.4858509965423
30
0
41
1
10
19.9046456277657
20
-3.46850570201531
30
0
41
1
10
20.2832695714911
20
-3.44203666245718
30
0
41
1
10
20.7265610469583
20
-3.4050348478805
30
0
41
1
10
21.0791375577049
20
-3.36412088273764
30
0
41
1
10
21.2173509219581
20
-3.34662819107325
30
0
0
SPLINE
5
11C
100
AcDbEntity
8
1
62
256
6
ByLayer
370
18
48
1
60
0
100
AcDbSpline
70
4
71
3
72
16
73
12
40
0
40
0
40
0
40
0
40
0.0651992306135481
40
0.187195557938524
40
0.26684050623969
40
0.334737031809258
40
0.394249834992619
40
0.486151739903725
40
0.6197434836591
40
0.792462796634643
40
1
40
1
40
1
40
1
41
1
10
20.1750013059568
20
2.35585233364694
30
0
41
1
10
20.1087088316863
20
2.37133250073217
30
0
41
1
10
19.9185421923672
20
2.41628435456258
30
0
41
1
10
19.6478581893885
20
2.48323739115745
30
0
41
1
10
19.3756775258719
20
2.5517795974088
30
0
41
1
10
19.1669232078471
20
2.60537494684527
30
0
41
1
10
18.9467895490669
20
2.66255241290378
30
0
41
1
10
18.658895207128
20
2.73839592191842
30
0
41
1
10
18.2591811681691
20
2.84550782821998
30
0
41
1
10
17.7415150384175
20
2.98514724599662
30
0
41
1
10
17.3590646369654
20
3.08909717933508
30
0
41
1
10
17.1502986191122
20
3.14607873244932
30
0
0
SPLINE
5
11D
100
AcDbEntity
8
1
62
256
6
ByLayer
370
18
48
1
60
0
100
AcDbSpline
70
4
71
3
72
9
73
5
40
0
40
0
40
0
40
0
40
0.600154974943866
40
1
40
1
40
1
40
1
41
1
10
16.3166832048426
20
3.32070086402965
30
0
41
1
10
16.1976665666681
20
3.3383502630046
30
0
41
1
10
15.9991678122586
20
3.36591973836093
30
0
41
1
10
15.8006454905445
20
3.39044284242036
30
0
41
1
10
15.7211272234659
20
3.39975320767073
30
0
0
SPLINE
5
11E
100
AcDbEntity
8
1
62
256
6
ByLayer
370
18
48
1
60
0
100
AcDbSpline
70
4
71
1
72
4
73
2
40
0
40
0
40
1
40
1
41
1
10
18.5669831112137
20
0.694521306039348
30
0
41
1
10
18.5669876783448
20
0.694511967668745
30
0
0
LINE
5
77
100
AcDbEntity
8
80
62
256
6
ByLayer
370
18
48
1
60
0
100
AcDbLine
10
0
20
0
30
0
11
-5
21
0
31
0
39
0
210
0
220
0
230
1
0
LINE
5
78
100
AcDbEntity
8
4
62
256
6
ByLayer
370
18
48
0.05
60
0
100
AcDbLine
10
0
20
0
30
0
11
22
21
0
31
0
39
0
210
0
220
0
230
1
0
LINE
5
7A
100
AcDbEntity
8
81
62
256
6
ByLayer
370
18
48
1
60
0
100
AcDbLine
10
22
20
0
30
0
11
27
21
0
31
0
39
0
210
0
220
0
230
1
0
LINE
5
7B
100
AcDbEntity
8
SK4
62
256
6
ByLayer
370
18
48
0.05
60
0
100
AcDbLine
10
-36
20
0
30
0
11
22
21
0
31
0
39
0
210
0
220
0
230
1
0
LINE
5
7D
100
AcDbEntity
8
1
62
256
6
ByLayer
370
18
48
1
60
0
100
AcDbLine
10
0
20
4
30
0
11
0
21
0
31
0
39
0
210
0
220
0
230
1
0
LINE
5
7E
100
AcDbEntity
8
1
62
256
6
ByLayer
370
18
48
1
60
0
100
AcDbLine
10
0
20
0
30
0
11
0
21
-4
31
0
39
0
210
0
220
0
230
1
0
LINE
5
7F
100
AcDbEntity
8
1
62
256
6
ByLayer
370
18
48
1
60
0
100
AcDbLine
10
21.994916
20
-2.168383
30
0
11
21.910137
21
-2.654079
31
0
39
0
210
0
220
0
230
1
0
LINE
5
80
100
AcDbEntity
8
1
62
256
6
ByLayer
370
18
48
1
60
0
100
AcDbLine
10
21.93584
20
-0.829437
30
0
11
21.938197
21
-0.88287
31
0
39
0
210
0
220
0
230
1
0
LINE
5
81
100
AcDbEntity
8
1
62
256
6
ByLayer
370
18
48
1
60
0
100
AcDbLine
10
21.981536
20
-1.865133
30
0
11
21.994916
21
-2.168383
31
0
39
0
210
0
220
0
230
1
0
LINE
5
82
100
AcDbEntity
8
1
62
256
6
ByLayer
370
18
48
1
60
0
100
AcDbLine
10
21.845461
20
-0.234367
30
0
11
21.887544
21
-0.240663
31
0
39
0
210
0
220
0
230
1
0
LINE
5
83
100
AcDbEntity
8
1
62
256
6
ByLayer
370
18
48
1
60
0
100
AcDbLine
10
21.802754
20
3.991003
30
0
11
21.994916
21
3.801037
31
0
39
0
210
0
220
0
230
1
0
LINE
5
84
100
AcDbEntity
8
1
62
256
6
ByLayer
370
18
48
1
60
0
100
AcDbLine
10
21.887544
20
-0.240663
30
0
11
21.994916
21
3.801037
31
0
39
0
210
0
220
0
230
1
0
LINE
5
85
100
AcDbEntity
8
1
62
256
6
ByLayer
370
18
48
1
60
0
100
AcDbLine
10
21.910137
20
-2.654079
30
0
11
21.79394
21
-2.922548
31
0
39
0
210
0
220
0
230
1
0
LINE
5
86
100
AcDbEntity
8
1
62
256
6
ByLayer
370
18
48
1
60
0
100
AcDbLine
10
21.910137
20
-2.654079
30
0
11
21.87751
21
-1.904253
31
0
39
0
210
0
220
0
230
1
0
LINE
5
87
100
AcDbEntity
8
1
62
256
6
ByLayer
370
13
48
1
60
0
100
AcDbLine
10
11.291689
20
-3.970753
30
0
11
11.469633
21
-3.857715
31
0
39
0
210
0
220
0
230
1
0
LINE
5
88
100
AcDbEntity
8
1
62
256
6
ByLayer
370
18
48
1
60
0
100
AcDbLine
10
21.019626
20
-2.942076
30
0
11
21.629183
21
-1.840916
31
0
39
0
210
0
220
0
230
1
0
LINE
5
89
100
AcDbEntity
8
1
62
256
6
ByLayer
370
18
48
1
60
0
100
AcDbLine
10
21.93527
20
-0.83377
30
0
11
21.93584
21
-0.829437
31
0
39
0
210
0
220
0
230
1
0
LINE
5
8A
100
AcDbEntity
8
1
62
256
6
ByLayer
370
18
48
1
60
0
100
AcDbLine
10
21.934546
20
-0.828597
30
0
11
21.93584
21
-0.829437
31
0
39
0
210
0
220
0
230
1
0
LINE
5
8B
100
AcDbEntity
8
1
62
256
6
ByLayer
370
13
48
1
60
0
100
AcDbLine
10
20.590988
20
-1.071245
30
0
11
19.635846
21
-1.693417
31
0
39
0
210
0
220
0
230
1
0
LINE
5
8C
100
AcDbEntity
8
1
62
256
6
ByLayer
370
18
48
1
60
0
100
AcDbLine
10
14
20
1.379064
30
0
11
14
21
1.488029
31
0
39
0
210
0
220
0
230
1
0
LINE
5
8D
100
AcDbEntity
8
1
62
256
6
ByLayer
370
18
48
1
60
0
100
AcDbLine
10
21.935401
20
-0.834692
30
0
11
21.994916
21
-1.860102
31
0
39
0
210
0
220
0
230
1
0
LINE
5
8E
100
AcDbEntity
8
1
62
256
6
ByLayer
370
18
48
1
60
0
100
AcDbLine
10
21.854478
20
-0.257685
30
0
11
21.935401
21
-0.834692
31
0
39
0
210
0
220
0
230
1
0
LINE
5
8F
100
AcDbEntity
8
1
62
256
6
ByLayer
370
18
48
1
60
0
100
AcDbLine
10
21.800744
20
-1.933122
30
0
11
21.994916
21
-1.860102
31
0
39
0
210
0
220
0
230
1
0
LINE
5
90
100
AcDbEntity
8
1
62
256
6
ByLayer
370
18
48
1
60
0
100
AcDbLine
10
21.994916
20
-1.860102
30
0
11
21.910137
21
-1.222688
31
0
39
0
210
0
220
0
230
1
0
LINE
5
91
100
AcDbEntity
8
1
62
256
6
ByLayer
370
18
48
1
60
0
100
AcDbLine
10
14
20
1.488029
30
0
11
14
21
3.418718
31
0
39
0
210
0
220
0
230
1
0
LINE
5
92
100
AcDbEntity
8
1
62
256
6
ByLayer
370
18
48
1
60
0
100
AcDbLine
10
21.910137
20
-1.222688
30
0
11
21.791247
21
-0.963255
31
0
39
0
210
0
220
0
230
1
0
LINE
5
93
100
AcDbEntity
8
1
62
256
6
ByLayer
370
18
48
1
60
0
100
AcDbLine
10
21.910137
20
-1.222688
30
0
11
21.854478
21
-0.257685
31
0
39
0
210
0
220
0
230
1
0
LINE
5
94
100
AcDbEntity
8
1
62
256
6
ByLayer
370
18
48
1
60
0
100
AcDbLine
10
20.998033
20
1.957036
30
0
11
21.854478
21
-0.257685
31
0
39
0
210
0
220
0
230
1
0
LINE
5
95
100
AcDbEntity
8
1
62
256
6
ByLayer
370
18
48
1
60
0
100
AcDbLine
10
14
20
-2.600029
30
0
11
14
21
-2.873163
31
0
39
0
210
0
220
0
230
1
0
LINE
5
96
100
AcDbEntity
8
1
62
256
6
ByLayer
370
18
48
1
60
0
100
AcDbLine
10
14
20
-2.600029
30
0
11
14
21
-2.430082
31
0
39
0
210
0
220
0
230
1
0
LINE
5
97
100
AcDbEntity
8
1
62
256
6
ByLayer
370
18
48
1
60
0
100
AcDbLine
10
14
20
-1.187009
30
0
11
14
21
1.379064
31
0
39
0
210
0
220
0
230
1
0
LINE
5
98
100
AcDbEntity
8
1
62
256
6
ByLayer
370
18
48
1
60
0
100
AcDbLine
10
14
20
-2.430082
30
0
11
14
21
-1.187009
31
0
39
0
210
0
220
0
230
1
0
LINE
5
99
100
AcDbEntity
8
1
62
256
6
ByLayer
370
18
48
1
60
0
100
AcDbLine
10
14
20
3.650493
30
0
11
14
21
3.418718
31
0
39
0
210
0
220
0
230
1
0
LINE
5
9A
100
AcDbEntity
8
1
62
256
6
ByLayer
370
13
48
1
60
0
100
AcDbLine
10
13.533825
20
3.630301
30
0
11
14
21
3.418718
31
0
39
0
210
0
220
0
230
1
0
LINE
5
9B
100
AcDbEntity
8
1
62
256
6
ByLayer
370
13
48
1
60
0
100
AcDbLine
10
11.124206
20
2.793269
30
0
11
14
21
1.488029
31
0
39
0
210
0
220
0
230
1
0
LINE
5
9C
100
AcDbEntity
8
1
62
256
6
ByLayer
370
13
48
1
60
0
100
AcDbLine
10
10.959405
20
-1.219991
30
0
11
14
21
-2.600029
31
0
39
0
210
0
220
0
230
1
0
LINE
5
9D
100
AcDbEntity
8
1
62
256
6
ByLayer
370
13
48
1
60
0
100
AcDbLine
10
11.161474
20
2.667389
30
0
11
14
21
1.379064
31
0
39
0
210
0
220
0
230
1
0
LINE
5
9E
100
AcDbEntity
8
1
62
256
6
ByLayer
370
13
48
1
60
0
100
AcDbLine
10
10.955708
20
-1.048365
30
0
11
14
21
-2.430082
31
0
39
0
210
0
220
0
230
1
0
LINE
5
9F
100
AcDbEntity
8
1
62
256
6
ByLayer
370
18
48
1
60
0
100
AcDbLine
10
11.962871
20
-0.262415
30
0
11
14
21
-1.187009
31
0
39
0
210
0
220
0
230
1
0
LINE
5
A0
100
AcDbEntity
8
1
62
256
6
ByLayer
370
18
48
1
60
0
100
AcDbLine
10
14
20
-3.661601
30
0
11
14
21
-3.661413
31
0
39
0
210
0
220
0
230
1
0
LINE
5
A1
100
AcDbEntity
8
1
62
256
6
ByLayer
370
18
48
1
60
0
100
AcDbLine
10
14
20
3.650493
30
0
11
14
21
3.650541
31
0
39
0
210
0
220
0
230
1
0
LINE
5
A2
100
AcDbEntity
8
SK1
62
256
6
ByLayer
370
18
48
1
60
0
100
AcDbLine
10
0
20
4
30
0
11
0
21
0
31
0
39
0
210
0
220
0
230
1
0
LINE
5
A4
100
AcDbEntity
8
SK1
62
256
6
ByLayer
370
18
48
1
60
0
100
AcDbLine
10
0
20
0
30
0
11
0
21
-4
31
0
39
0
210
0
220
0
230
1
0
LINE
5
A5
100
AcDbEntity
8
SK1
62
256
6
ByLayer
370
18
48
1
60
0
100
AcDbLine
10
-20.75
20
2.9
30
0
11
-21.85
21
4
31
0
39
0
210
0
220
0
230
1
0
LINE
5
A6
100
AcDbEntity
8
SK1
62
256
6
ByLayer
370
18
48
1
60
0
100
AcDbLine
10
-15.25
20
2.9
30
0
11
-14.15
21
4
31
0
39
0
210
0
220
0
230
1
0
LINE
5
A7
100
AcDbEntity
8
SK1
62
256
6
ByLayer
370
18
48
1
60
0
100
AcDbLine
10
-20.75
20
2.9
30
0
11
-15.25
21
2.9
31
0
39
0
210
0
220
0
230
1
0
LINE
5
A8
100
AcDbEntity
8
SK1
62
256
6
ByLayer
370
18
48
1
60
0
100
AcDbLine
10
-35.4
20
4
30
0
11
-35.4
21
-4
31
0
39
0
210
0
220
0
230
1
0
LINE
5
A9
100
AcDbEntity
8
SK1
62
256
6
ByLayer
370
18
48
1
60
0
100
AcDbLine
10
-36
20
-3.4
30
0
11
-36
21
3.4
31
0
39
0
210
0
220
0
230
1
0
LINE
5
AA
100
AcDbEntity
8
1
62
256
6
ByLayer
370
18
48
1
60
0
100
AcDbLine
10
13.237911
20
4
30
0
11
0
21
4
31
0
39
0
210
0
220
0
230
1
0
LINE
5
AB
100
AcDbEntity
8
1
62
256
6
ByLayer
370
18
48
1
60
0
100
AcDbLine
10
0
20
-4
30
0
11
11.469884
21
-4
31
0
39
0
210
0
220
0
230
1
0
LINE
5
AC
100
AcDbEntity
8
1
62
256
6
ByLayer
370
18
48
1
60
0
100
AcDbLine
10
11.732937
20
-3.925631
30
0
11
12.034778
21
-3.733888
31
0
39
0
210
0
220
0
230
1
0
LINE
5
AD
100
AcDbEntity
8
SK1
62
256
6
ByLayer
370
18
48
1
60
0
100
AcDbLine
10
0
20
4
30
0
11
-14.15
21
4
31
0
39
0
210
0
220
0
230
1
0
LINE
5
AE
100
AcDbEntity
8
SK1
62
256
6
ByLayer
370
18
48
1
60
0
100
AcDbLine
10
-21.85
20
4
30
0
11
-35.4
21
4
31
0
39
0
210
0
220
0
230
1
0
LINE
5
AF
100
AcDbEntity
8
SK1
62
256
6
ByLayer
370
18
48
1
60
0
100
AcDbLine
10
-35.4
20
-4
30
0
11
0
21
-4
31
0
39
0
210
0
220
0
230
1
0
LINE
5
B0
100
AcDbEntity
8
SK1
62
256
6
ByLayer
370
18
48
1
60
0
100
AcDbLine
10
-36
20
-3.4
30
0
11
-35.4
21
-4
31
0
39
0
210
0
220
0
230
1
0
LINE
5
B1
100
AcDbEntity
8
SK1
62
256
6
ByLayer
370
18
48
1
60
0
100
AcDbLine
10
-35.4
20
4
30
0
11
-36
21
3.4
31
0
39
0
210
0
220
0
230
1
0
LINE
5
B2
100
AcDbEntity
8
SK2
62
256
6
ByLayer
370
18
48
1
60
0
100
AcDbLine
10
-43.65
20
4
30
0
11
-43.65
21
-20.315466
31
0
39
0
210
0
220
0
230
1
0
LINE
5
B4
100
AcDbEntity
8
SK2
62
256
6
ByLayer
370
18
48
1
60
0
100
AcDbLine
10
-36.9875
20
4
30
0
11
-45.65
21
4
31
0
39
0
210
0
220
0
230
1
0
LINE
5
B5
100
AcDbEntity
8
SK2
62
256
6
ByLayer
370
18
48
1
60
0
100
AcDbLine
10
-36.9875
20
-4
30
0
11
-45.65
21
-4
31
0
39
0
210
0
220
0
230
1
0
LINE
5
B6
100
AcDbEntity
8
1
62
256
6
ByLayer
370
18
48
1
60
1
100
AcDbLine
10
-43.65
20
4
30
0
11
-43.189216
21
0.500002
31
0
39
0
210
0
220
0
230
1
0
LINE
5
B7
100
AcDbEntity
8
1
62
256
6
ByLayer
370
18
48
1
60
1
100
AcDbLine
10
-43.189216
20
0.500002
30
0
11
-44.110784
21
0.499998
31
0
39
0
210
0
220
0
230
1
0
LINE
5
B8
100
AcDbEntity
8
1
62
256
6
ByLayer
370
18
48
1
60
1
100
AcDbLine
10
-44.110784
20
0.499998
30
0
11
-43.65
21
4
31
0
39
0
210
0
220
0
230
1
0
LINE
5
B9
100
AcDbEntity
8
1
62
256
6
ByLayer
370
18
48
1
60
1
100
AcDbLine
10
-43.65
20
-4
30
0
11
-44.110784
21
-0.500002
31
0
39
0
210
0
220
0
230
1
0
LINE
5
BA
100
AcDbEntity
8
1
62
256
6
ByLayer
370
18
48
1
60
1
100
AcDbLine
10
-44.110784
20
-0.500002
30
0
11
-43.189216
21
-0.499998
31
0
39
0
210
0
220
0
230
1
0
LINE
5
BB
100
AcDbEntity
8
1
62
256
6
ByLayer
370
18
48
1
60
1
100
AcDbLine
10
-43.189216
20
-0.499998
30
0
11
-43.65
21
-4
31
0
39
0
210
0
220
0
230
1
0
LINE
5
BC
100
AcDbEntity
8
2
62
256
6
ByLayer
370
18
48
1
60
0
100
AcDbLine
10
34
20
-4.0001
30
0
11
34
21
20.315566
31
0
39
0
210
0
220
0
230
1
0
LINE
5
BE
100
AcDbEntity
8
2
62
256
6
ByLayer
370
18
48
1
60
0
100
AcDbLine
10
23.5875
20
4.0001
30
0
11
36
21
4.0001
31
0
39
0
210
0
220
0
230
1
0
LINE
5
BF
100
AcDbEntity
8
2
62
256
6
ByLayer
370
18
48
1
60
0
100
AcDbLine
10
23.5875
20
-4.0001
30
0
11
36
21
-4.0001
31
0
39
0
210
0
220
0
230
1
0
LINE
5
C0
100
AcDbEntity
8
1
62
256
6
ByLayer
370
18
48
1
60
1
100
AcDbLine
10
34
20
4.0001
30
0
11
34.460784
21
0.500102
31
0
39
0
210
0
220
0
230
1
0
LINE
5
C1
100
AcDbEntity
8
1
62
256
6
ByLayer
370
18
48
1
60
1
100
AcDbLine
10
34.460784
20
0.500102
30
0
11
33.539216
21
0.500098
31
0
39
0
210
0
220
0
230
1
0
LINE
5
C2
100
AcDbEntity
8
1
62
256
6
ByLayer
370
18
48
1
60
1
100
AcDbLine
10
33.539216
20
0.500098
30
0
11
34
21
4.0001
31
0
39
0
210
0
220
0
230
1
0
LINE
5
C3
100
AcDbEntity
8
1
62
256
6
ByLayer
370
18
48
1
60
1
100
AcDbLine
10
34
20
-4.0001
30
0
11
33.539216
21
-0.500102
31
0
39
0
210
0
220
0
230
1
0
LINE
5
C4
100
AcDbEntity
8
1
62
256
6
ByLayer
370
18
48
1
60
1
100
AcDbLine
10
33.539216
20
-0.500102
30
0
11
34.460784
21
-0.500098
31
0
39
0
210
0
220
0
230
1
0
LINE
5
C5
100
AcDbEntity
8
1
62
256
6
ByLayer
370
18
48
1
60
1
100
AcDbLine
10
34.460784
20
-0.500098
30
0
11
34
21
-4.0001
31
0
39
0
210
0
220
0
230
1
0
LINE
5
C6
100
AcDbEntity
8
SK2
62
256
6
ByLayer
370
18
48
1
60
0
100
AcDbLine
10
22
20
-34.680105
30
0
11
-36
21
-34.680105
31
0
39
0
210
0
220
0
230
1
0
LINE
5
C7
100
AcDbEntity
8
SK2
62
256
6
ByLayer
370
18
48
1
60
0
100
AcDbLine
10
-36
20
-4.9875
30
0
11
-36
21
-36.680105
31
0
39
0
210
0
220
0
230
1
0
LINE
5
C8
100
AcDbEntity
8
SK2
62
256
6
ByLayer
370
18
48
1
60
0
100
AcDbLine
10
22
20
-5.5876
30
0
11
22
21
-36.680105
31
0
39
0
210
0
220
0
230
1
0
LINE
5
C9
100
AcDbEntity
8
1
62
256
6
ByLayer
370
18
48
1
60
1
100
AcDbLine
10
-36
20
-34.680105
30
0
11
-32.500002
21
-34.219322
31
0
39
0
210
0
220
0
230
1
0
LINE
5
CA
100
AcDbEntity
8
1
62
256
6
ByLayer
370
18
48
1
60
1
100
AcDbLine
10
-32.500002
20
-34.219322
30
0
11
-32.499998
21
-35.140889
31
0
39
0
210
0
220
0
230
1
0
LINE
5
CB
100
AcDbEntity
8
1
62
256
6
ByLayer
370
18
48
1
60
1
100
AcDbLine
10
-32.499998
20
-35.140889
30
0
11
-36
21
-34.680105
31
0
39
0
210
0
220
0
230
1
0
LINE
5
CC
100
AcDbEntity
8
1
62
256
6
ByLayer
370
18
48
1
60
1
100
AcDbLine
10
22
20
-34.680105
30
0
11
18.500002
21
-35.140889
31
0
39
0
210
0
220
0
230
1
0
LINE
5
CD
100
AcDbEntity
8
1
62
256
6
ByLayer
370
18
48
1
60
1
100
AcDbLine
10
18.500002
20
-35.140889
30
0
11
18.499998
21
-34.219322
31
0
39
0
210
0
220
0
230
1
0
LINE
5
CE
100
AcDbEntity
8
1
62
256
6
ByLayer
370
18
48
1
60
1
100
AcDbLine
10
18.499998
20
-34.219322
30
0
11
22
21
-34.680105
31
0
39
0
210
0
220
0
230
1
0
LINE
5
123
100
AcDbEntity
8
1
62
256
6
ByLayer
370
18
48
1
60
1
100
AcDbLine
10
-43.65
20
4
30
0
11
-43.189216
21
0.500002
31
0
39
0
210
0
220
0
230
1
0
LINE
5
124
100
AcDbEntity
8
1
62
256
6
ByLayer
370
18
48
1
60
1
100
AcDbLine
10
-43.189216
20
0.500002
30
0
11
-44.110784
21
0.499998
31
0
39
0
210
0
220
0
230
1
0
LINE
5
125
100
AcDbEntity
8
1
62
256
6
ByLayer
370
18
48
1
60
1
100
AcDbLine
10
-44.110784
20
0.499998
30
0
11
-43.65
21
4
31
0
39
0
210
0
220
0
230
1
0
LINE
5
127
100
AcDbEntity
8
1
62
256
6
ByLayer
370
18
48
1
60
1
100
AcDbLine
10
-43.65
20
-4
30
0
11
-44.110784
21
-0.500002
31
0
39
0
210
0
220
0
230
1
0
LINE
5
128
100
AcDbEntity
8
1
62
256
6
ByLayer
370
18
48
1
60
1
100
AcDbLine
10
-44.110784
20
-0.500002
30
0
11
-43.189216
21
-0.499998
31
0
39
0
210
0
220
0
230
1
0
LINE
5
129
100
AcDbEntity
8
1
62
256
6
ByLayer
370
18
48
1
60
1
100
AcDbLine
10
-43.189216
20
-0.499998
30
0
11
-43.65
21
-4
31
0
39
0
210
0
220
0
230
1
0
LINE
5
12D
100
AcDbEntity
8
1
62
256
6
ByLayer
370
18
48
1
60
1
100
AcDbLine
10
34
20
4.0001
30
0
11
34.460784
21
0.500102
31
0
39
0
210
0
220
0
230
1
0
LINE
5
12E
100
AcDbEntity
8
1
62
256
6
ByLayer
370
18
48
1
60
1
100
AcDbLine
10
34.460784
20
0.500102
30
0
11
33.539216
21
0.500098
31
0
39
0
210
0
220
0
230
1
0
LINE
5
12F
100
AcDbEntity
8
1
62
256
6
ByLayer
370
18
48
1
60
1
100
AcDbLine
10
33.539216
20
0.500098
30
0
11
34
21
4.0001
31
0
39
0
210
0
220
0
230
1
0
LINE
5
131
100
AcDbEntity
8
1
62
256
6
ByLayer
370
18
48
1
60
1
100
AcDbLine
10
34
20
-4.0001
30
0
11
33.539216
21
-0.500102
31
0
39
0
210
0
220
0
230
1
0
LINE
5
132
100
AcDbEntity
8
1
62
256
6
ByLayer
370
18
48
1
60
1
100
AcDbLine
10
33.539216
20
-0.500102
30
0
11
34.460784
21
-0.500098
31
0
39
0
210
0
220
0
230
1
0
LINE
5
133
100
AcDbEntity
8
1
62
256
6
ByLayer
370
18
48
1
60
1
100
AcDbLine
10
34.460784
20
-0.500098
30
0
11
34
21
-4.0001
31
0
39
0
210
0
220
0
230
1
0
LINE
5
136
100
AcDbEntity
8
1
62
256
6
ByLayer
370
18
48
1
60
1
100
AcDbLine
10
-36
20
-34.680105
30
0
11
-32.500002
21
-34.219322
31
0
39
0
210
0
220
0
230
1
0
LINE
5
137
100
AcDbEntity
8
1
62
256
6
ByLayer
370
18
48
1
60
1
100
AcDbLine
10
-32.500002
20
-34.219322
30
0
11
-32.499998
21
-35.140889
31
0
39
0
210
0
220
0
230
1
0
LINE
5
138
100
AcDbEntity
8
1
62
256
6
ByLayer
370
18
48
1
60
1
100
AcDbLine
10
-32.499998
20
-35.140889
30
0
11
-36
21
-34.680105
31
0
39
0
210
0
220
0
230
1
0
LINE
5
13A
100
AcDbEntity
8
1
62
256
6
ByLayer
370
18
48
1
60
1
100
AcDbLine
10
22
20
-34.680105
30
0
11
18.500002
21
-35.140889
31
0
39
0
210
0
220
0
230
1
0
LINE
5
13B
100
AcDbEntity
8
1
62
256
6
ByLayer
370
18
48
1
60
1
100
AcDbLine
10
18.500002
20
-35.140889
30
0
11
18.499998
21
-34.219322
31
0
39
0
210
0
220
0
230
1
0
LINE
5
13C
100
AcDbEntity
8
1
62
256
6
ByLayer
370
18
48
1
60
1
100
AcDbLine
10
18.499998
20
-34.219322
30
0
11
22
21
-34.680105
31
0
39
0
210
0
220
0
230
1
0
MTEXT
5
11F
100
AcDbEntity
8
SK2
62
256
6
ByLayer
370
18
48
1
60
0
100
AcDbMText
10
-45.214634
20
-18.380622
30
0
210
0
220
0
230
1
1
%%c
40
3.5
41
0
44
1.084337
50
90
71
7
72
5
7
iso_b_vert
0
MTEXT
5
122
100
AcDbEntity
8
SK2
62
256
6
ByLayer
370
18
48
1
60
0
100
AcDbMText
10
-45.214634
20
-11.407966
30
0
210
0
220
0
230
1
1
\W0.5404;8
40
3.5
41
0
44
1.084337
50
90
71
7
72
5
7
iso_b_vert
0
MTEXT
5
12B
100
AcDbEntity
8
2
62
256
6
ByLayer
370
18
48
1
60
0
100
AcDbMText
10
32.435366
20
11.934944
30
0
210
0
220
0
230
1
1
%%c
40
3.5
41
0
44
1.084337
50
90
71
7
72
5
7
iso_b_vert
0
MTEXT
5
12C
100
AcDbEntity
8
2
62
256
6
ByLayer
370
18
48
1
60
0
100
AcDbMText
10
32.435366
20
18.9076
30
0
210
0
220
0
230
1
1
\W0.5404;8
40
3.5
41
0
44
1.084337
50
90
71
7
72
5
7
iso_b_vert
0
MTEXT
5
135
100
AcDbEntity
8
SK2
62
256
6
ByLayer
370
18
48
1
60
0
100
AcDbMText
10
-8.904966
20
-33.647472
30
0
210
0
220
0
230
1
1
\W0.6740;58
40
3.5
41
0
44
1.084337
50
0
71
7
72
5
7
iso_b_vert
0
MTEXT
5
13E
100
AcDbEntity
8
SK6
62
256
6
ByLayer
370
18
48
1
60
0
100
AcDbMText
10
-31.30311
20
-62.10892
30
0
210
0
220
0
230
1
1
\W0.6872;1K313-0800-XB       1730
40
3
41
0
44
1.084337
50
0
71
7
72
5
7
iso_b_vert
0
HATCH
5
126
100
AcDbEntity
8
SK2
62
256
6
ByLayer
370
13
48
1
60
0
100
AcDbHatch
10
0
20
0
30
0
210
0
220
0
230
1
2
ANSI31
70
0
71
0
91
1
92
5
93
3
72
1
10
-43.65
20
3.99999999999994
11
-43.1892162584472
21
0.500001692553127
72
1
10
-43.1892162584472
20
0.500001692553127
11
-44.1107837415528
21
0.499998307446759
72
1
10
-44.1107837415528
20
0.499998307446759
11
-43.65
21
3.99999999999994
97
0
75
0
76
1
52
0
41
0.0062
77
0
78
1
53
45
43
0
44
0
45
-0.0139193969876572
46
0.0139193969876572
79
0
47
0
98
1
10
0
20
0
0
HATCH
5
12A
100
AcDbEntity
8
SK2
62
256
6
ByLayer
370
13
48
1
60
0
100
AcDbHatch
10
0
20
0
30
0
210
0
220
0
230
1
2
ANSI31
70
0
71
0
91
1
92
5
93
3
72
1
10
-43.65
20
-4.00000000000006
11
-44.1107837415528
21
-0.500001692553241
72
1
10
-44.1107837415528
20
-0.500001692553241
11
-43.1892162584472
21
-0.499998307446873
72
1
10
-43.1892162584472
20
-0.499998307446873
11
-43.65
21
-4.00000000000006
97
0
75
0
76
1
52
0
41
0.0062
77
0
78
1
53
45
43
0
44
0
45
-0.0139193969876572
46
0.0139193969876572
79
0
47
0
98
1
10
0
20
0
0
HATCH
5
130
100
AcDbEntity
8
2
62
256
6
ByLayer
370
13
48
1
60
0
100
AcDbHatch
10
0
20
0
30
0
210
0
220
0
230
1
2
ANSI31
70
0
71
0
91
1
92
5
93
3
72
1
10
34
20
4.00009999999992
11
34.4607837415528
21
0.500101692553102
72
1
10
34.4607837415528
20
0.500101692553102
11
33.5392162584472
21
0.500098307446734
72
1
10
33.5392162584472
20
0.500098307446734
11
34
21
4.00009999999992
97
0
75
0
76
1
52
0
41
0.0062
77
0
78
1
53
45
43
0
44
0
45
-0.0139193969876572
46
0.0139193969876572
79
0
47
0
98
1
10
0
20
0
0
HATCH
5
134
100
AcDbEntity
8
2
62
256
6
ByLayer
370
13
48
1
60
0
100
AcDbHatch
10
0
20
0
30
0
210
0
220
0
230
1
2
ANSI31
70
0
71
0
91
1
92
5
93
3
72
1
10
34
20
-4.00010000000009
11
33.5392162584472
21
-0.500101692553272
72
1
10
33.5392162584472
20
-0.500101692553272
11
34.4607837415528
21
-0.500098307446905
72
1
10
34.4607837415528
20
-0.500098307446905
11
34
21
-4.00010000000009
97
0
75
0
76
1
52
0
41
0.0062
77
0
78
1
53
45
43
0
44
0
45
-0.0139193969876572
46
0.0139193969876572
79
0
47
0
98
1
10
0
20
0
0
HATCH
5
139
100
AcDbEntity
8
SK2
62
256
6
ByLayer
370
13
48
1
60
0
100
AcDbHatch
10
0
20
0
30
0
210
0
220
0
230
1
2
ANSI31
70
0
71
0
91
1
92
5
93
3
72
1
10
-36
20
-34.6801053255528
11
-32.5000016925532
21
-34.219321584
72
1
10
-32.5000016925532
20
-34.219321584
11
-32.4999983074468
21
-35.1408890671056
72
1
10
-32.4999983074468
20
-35.1408890671056
11
-36
21
-34.6801053255528
97
0
75
0
76
1
52
0
41
0.0062
77
0
78
1
53
45
43
0
44
0
45
-0.0139193969876572
46
0.0139193969876572
79
0
47
0
98
1
10
0
20
0
0
HATCH
5
13D
100
AcDbEntity
8
SK2
62
256
6
ByLayer
370
13
48
1
60
0
100
AcDbHatch
10
0
20
0
30
0
210
0
220
0
230
1
2
ANSI31
70
0
71
0
91
1
92
5
93
3
72
1
10
22
20
-34.6801053255528
11
18.5000016925532
21
-35.1408890671056
72
1
10
18.5000016925532
20
-35.1408890671056
11
18.4999983074468
21
-34.219321584
72
1
10
18.4999983074468
20
-34.219321584
11
22
21
-34.6801053255528
97
0
75
0
76
1
52
0
41
0.0062
77
0
78
1
53
45
43
0
44
0
45
-0.0139193969876572
46
0.0139193969876572
79
0
47
0
98
1
10
0
20
0
0
DIMENSION
5
141
100
AcDbEntity
8
2
62
256
6
ByLayer
370
18
48
1
60
0
100
AcDbDimension
2
_U0
10
14
20
-18.680105
30
0
11
18
21
-18.680105
31
0
70
32
71
1
72
1
41
1
210
0
220
0
230
1
3
Standard
100
AcDbAlignedDimension
13
22
23
-4.0001
33
0
14
14
24
-4.0001
34
0
50
0
100
AcDbRotatedDimension
1001
ACAD
1000
DSTYLE
1002
{
1070
   371
1070
    13
1070
   372
1070
    13
1070
   170
1070
     0
1070
   144
1040
1.0
1070
   277
1070
     2
1070
   284
1070
     8
1070
   278
1070
    46
1070
   146
1040
1.0
1070
   345
1005
16
1070
   347
1005
16
1070
   346
1005
16
1070
   344
1005
0
1070
   343
1005
0
1070
   172
1070
     1
1070
    76
1070
     0
1070
    75
1070
     0
1070
   282
1070
     0
1070
   281
1070
     0
1070
    71
1070
     0
1070
    74
1070
     0
1070
   279
1070
     0
1070
   173
1070
     1
1070
   340
1005
120
1070
   271
1070
     2
1070
   272
1070
     2
1070
    77
1070
     1
1070
    73
1070
     1
1070
   171
1070
     3
1070
   274
1070
     4
1070
   177
1070
     2
1070
   176
1070
     2
1070
   178
1070
     2
1070
    78
1070
     8
1070
    48
1040
-0.1
1070
    41
1040
3.5
1070
   147
1040
1.75
1070
    42
1040
1.5875
1070
    44
1040
2.0
1070
   140
1040
3.5
1002
}
1001
ACAD_DSTYLE_DIM_LINETYPE
1070
   380
1005
16
1001
ACAD_DSTYLE_DIM_EXT1_LINETYPE
1070
   381
1005
16
1001
ACAD_DSTYLE_DIM_EXT2_LINETYPE
1070
   382
1005
16
0
ENDSEC
0
SECTION
2
OBJECTS
0
DICTIONARY
5
1cb
330
0
100
AcDbDictionary
280
0
281
1
3
ACAD_GROUP
350
1cc
3
ACAD_MLINESTYLE
350
1cd
0
DICTIONARY
5
1cc
330
0
100
AcDbDictionary
280
0
281
1
0
DICTIONARY
5
1cd
330
0
100
AcDbDictionary
280
0
281
1
3
Standard
350
18
0
MLINESTYLE
5
18
330
1cd
100
AcDbMlineStyle
2
Standard
70
0
3

62
256
51
90
52
90
71
2
49
-0.5
62
256
6
ByLayer
49
0.5
62
256
6
ByLayer
0
RASTERVARIABLES
5
1b9
330

100
AcDbRasterVariables
90
0
70
1
71
1
72
1
0
ENDSEC
0
EOF
