0
SECTION
2
HEADER
9
$ACADVER
1
AC1015
9
$DWGCODEPAGE
3
ANSI_1252
9
$HANDSEED
5
1d9
9
$ANGBASE
50
0
9
$ANGDIR
70
0
9
$ATTMODE
70
1
9
$AUNITS
70
0
9
$AUPREC
70
0
9
$CECOLOR
62
256
9
$CELTSCALE
40
1
9
$CELTYPE
6
ByLayer
9
$CELWEIGHT
370
18
9
$CLAYER
8
0
9
$CMLJUST
70
0
9
$CMLSCALE
40
1
9
$CMLSTYLE
2
Standard
9
$DIMSTYLE
2
Standard
9
$TEXTSIZE
40
0.2
9
$TEXTSTYLE
7
Standard
9
$LUNITS
70
2
9
$LUPREC
70
4
9
$EXTNAMES
290
1
9
$INSUNITS
70
4
9
$LTSCALE
40
1
9
$LWDISPLAY
290
1
9
$PDMODE
70
0
9
$PDSIZE
40
0
9
$PLINEGEN
70
0
0
ENDSEC
0
SECTION
2
CLASSES
0
CLASS
1
RASTERVARIABLES
2
AcDbRasterVariables
3
ISM
90
0
280
0
281
0
0
ENDSEC
0
SECTION
2
TABLES
0
TABLE
2
VPORT
5
1cf
100
AcDbSymbolTable
0
VPORT
5
1
100
AcDbSymbolTableRecord
100
AcDbViewportTableRecord
2
*Active
70
0
10
0
20
0
11
1
21
1
12
-1
22
1
13
0
23
0
14
0.5
24
0.5
15
10
25
10
16
0
26
0
36
1
17
0
27
0
37
0
0
ENDTAB
0
TABLE
2
LTYPE
5
1d0
100
AcDbSymbolTable
0
LTYPE
5
14
100
AcDbSymbolTableRecord
100
AcDbLinetypeTableRecord
70
0
2
ByBlock
3

72
65
73
0
40
0
0
LTYPE
5
15
100
AcDbSymbolTableRecord
100
AcDbLinetypeTableRecord
70
0
2
ByLayer
3

72
65
73
0
40
0
0
LTYPE
5
16
100
AcDbSymbolTableRecord
100
AcDbLinetypeTableRecord
70
0
2
Continuous
3
Solid line
72
65
73
0
40
0
0
LTYPE
5
6E
100
AcDbSymbolTableRecord
100
AcDbLinetypeTableRecord
70
0
2
CENTER
3
____ _ ____ _ ____ _ ____
72
65
73
4
40
47.5
49
22
74
0
49
-8.5
74
0
49
8.5
74
0
49
-8.5
74
0
0
LTYPE
5
6F
100
AcDbSymbolTableRecord
100
AcDbLinetypeTableRecord
70
0
2
DASHED
3
__ __ __ __ __ __ __ __ __
72
65
73
2
40
25.72
49
12.86
74
0
49
-12.86
74
0
0
ENDTAB
0
TABLE
2
LAYER
5
1d1
100
AcDbSymbolTable
0
LAYER
5
10
100
AcDbSymbolTableRecord
100
AcDbLayerTableRecord
2
0
70
0
62
7
6
Continuous
290
1
370
-3
390
0
0
LAYER
5
71
100
AcDbSymbolTableRecord
100
AcDbLayerTableRecord
2
81
70
0
62
-3
6
Continuous
290
1
370
-3
390
0
0
LAYER
5
73
100
AcDbSymbolTableRecord
100
AcDbLayerTableRecord
2
80
70
0
62
-6
6
Continuous
290
1
370
-3
390
0
0
LAYER
5
75
100
AcDbSymbolTableRecord
100
AcDbLayerTableRecord
2
1
70
0
62
4
6
Continuous
290
1
370
-3
390
0
0
LAYER
5
7C
100
AcDbSymbolTableRecord
100
AcDbLayerTableRecord
2
4
70
0
62
-2
6
CENTER
290
1
370
-3
390
0
0
LAYER
5
BF
100
AcDbSymbolTableRecord
100
AcDbLayerTableRecord
2
2
70
0
62
7
6
Continuous
290
1
370
-3
390
0
0
LAYER
5
145
100
AcDbSymbolTableRecord
100
AcDbLayerTableRecord
2
Defpoints
70
0
62
7
6
Continuous
290
0
370
-3
390
0
0
LAYER
5
1bb
100
AcDbSymbolTableRecord
100
AcDbLayerTableRecord
2
SK4
70
0
62
2
6
CENTER
290
1
370
-3
390
0
0
LAYER
5
1bc
100
AcDbSymbolTableRecord
100
AcDbLayerTableRecord
2
SK1
70
0
62
4
6
Continuous
290
1
370
-3
390
0
0
LAYER
5
1bd
100
AcDbSymbolTableRecord
100
AcDbLayerTableRecord
2
SK2
70
0
62
7
6
Continuous
290
1
370
-3
390
0
0
LAYER
5
1be
100
AcDbSymbolTableRecord
100
AcDbLayerTableRecord
2
SK6
70
0
62
5
6
Continuous
290
1
370
-3
390
0
0
ENDTAB
0
TABLE
2
STYLE
5
1d2
100
AcDbSymbolTable
0
STYLE
5
11
100
AcDbSymbolTableRecord
100
AcDbTextStyleTableRecord
2
Standard
3
txt
70
0
71
0
40
0
41
1
42
0
50
0
0
STYLE
5
121
100
AcDbSymbolTableRecord
100
AcDbTextStyleTableRecord
2
iso_b_vert
3
simplex.shx
70
0
71
0
40
0
41
1
42
0
50
0
0
STYLE
5
122
100
AcDbSymbolTableRecord
100
AcDbTextStyleTableRecord
2
DWGDirectTextStyle
3
simplex
70
0
71
0
40
0
41
1
42
0
50
0
0
ENDTAB
0
TABLE
2
DIMSTYLE
5
1d3
100
AcDbSymbolTable
100
AcDbDimStyleTable
0
DIMSTYLE
105
27
100
AcDbSymbolTableRecord
100
AcDbDimStyleTableRecord
2
Standard
70
0
3
<>
41
0.18
42
0.0625
44
0.18
140
0.18
147
0.09
73
0
74
0
77
1
271
2
275
0
278
52
280
0
340
11
0
ENDTAB
0
TABLE
2
VIEW
5
1d4
100
AcDbSymbolTable
0
ENDTAB
0
TABLE
2
UCS
5
1d5
100
AcDbSymbolTable
0
ENDTAB
0
TABLE
2
APPID
5
1d6
100
AcDbSymbolTable
0
APPID
5
12
100
AcDbSymbolTableRecord
100
AcDbRegAppTableRecord
2
ACAD
70
0
0
APPID
5
141
100
AcDbSymbolTableRecord
100
AcDbRegAppTableRecord
2
ACAD_DSTYLE_DIMBREAK
70
0
0
APPID
5
17A
100
AcDbSymbolTableRecord
100
AcDbRegAppTableRecord
2
ACAD_DSTYLE_DIM_LINETYPE
70
0
0
APPID
5
17B
100
AcDbSymbolTableRecord
100
AcDbRegAppTableRecord
2
ACAD_DSTYLE_DIM_EXT1_LINETYPE
70
0
0
APPID
5
17C
100
AcDbSymbolTableRecord
100
AcDbRegAppTableRecord
2
ACAD_DSTYLE_DIM_EXT2_LINETYPE
70
0
0
APPID
5
1B7
100
AcDbSymbolTableRecord
100
AcDbRegAppTableRecord
2
ACAD_MLEADERVER
70
0
0
ENDTAB
0
TABLE
2
BLOCK_RECORD
5
1d7
100
AcDbSymbolTable
0
BLOCK_RECORD
5
1F
100
AcDbSymbolTableRecord
100
AcDbBlockTableRecord
2
*Model_Space
340
0
70
0
0
BLOCK_RECORD
5
1B
100
AcDbSymbolTableRecord
100
AcDbBlockTableRecord
2
*Paper_Space
340
0
70
0
0
BLOCK_RECORD
5
23
100
AcDbSymbolTableRecord
100
AcDbBlockTableRecord
2
*Paper_Space0
340
0
70
0
0
BLOCK_RECORD
5
146
100
AcDbSymbolTableRecord
100
AcDbBlockTableRecord
2
*D1
340
0
70
0
0
BLOCK_RECORD
5
153
100
AcDbSymbolTableRecord
100
AcDbBlockTableRecord
2
_U0
340
0
70
0
0
ENDTAB
0
ENDSEC
0
SECTION
2
BLOCKS
0
BLOCK
5
20
100
AcDbEntity
8
0
100
AcDbBlockBegin
2
*Model_Space
70
0
10
0
20
0
30
0
3
*Model_Space
0
ENDBLK
5
21
100
AcDbEntity
8
0
100
AcDbBlockEnd
0
BLOCK
5
1C
100
AcDbEntity
8
0
100
AcDbBlockBegin
2
*Paper_Space
70
0
10
0
20
0
30
0
3
*Paper_Space
0
ENDBLK
5
1D
100
AcDbEntity
8
0
100
AcDbBlockEnd
0
BLOCK
5
24
100
AcDbEntity
8
0
100
AcDbBlockBegin
2
*Paper_Space0
70
0
10
0
20
0
30
0
3
*Paper_Space0
0
ENDBLK
5
25
100
AcDbEntity
8
0
100
AcDbBlockEnd
0
BLOCK
5
147
100
AcDbEntity
8
0
100
AcDbBlockBegin
2
*D1
70
1
10
0
20
0
30
0
3
*D1
0
LINE
5
149
100
AcDbEntity
8
0
62
256
6
ByLayer
370
-2
48
1
60
0
100
AcDbLine
10
18
20
-3.9876
30
0
11
18
21
-19.1
31
0
39
0
210
0
220
0
230
1
0
LINE
5
14A
100
AcDbEntity
8
0
62
256
6
ByLayer
370
-2
48
1
60
0
100
AcDbLine
10
13.2
20
-3.9876
30
0
11
13.2
21
-19.1
31
0
39
0
210
0
220
0
230
1
0
LINE
5
14B
100
AcDbEntity
8
0
62
256
6
ByLayer
370
-2
48
1
60
0
100
AcDbLine
10
21.5
20
-17.1
30
0
11
25
21
-17.1
31
0
39
0
210
0
220
0
230
1
0
LINE
5
14C
100
AcDbEntity
8
0
62
256
6
ByLayer
370
-2
48
1
60
0
100
AcDbLine
10
9.7
20
-17.1
30
0
11
6.2
21
-17.1
31
0
39
0
210
0
220
0
230
1
0
SOLID
5
14D
100
AcDbEntity
8
0
62
256
6
ByLayer
370
-1
48
1
60
0
100
AcDbTrace
10
21.5
20
-16.516667
30
0
11
21.5
21
-17.683333
31
0
12
18
22
-17.1
32
0
13
18
23
-17.1
33
0
39
0
210
0
220
0
230
1
0
SOLID
5
14E
100
AcDbEntity
8
0
62
256
6
ByLayer
370
-1
48
1
60
0
100
AcDbTrace
10
9.7
20
-17.683333
30
0
11
9.7
21
-16.516667
31
0
12
13.2
22
-17.1
32
0
13
13.2
23
-17.1
33
0
39
0
210
0
220
0
230
1
0
MTEXT
5
14F
100
AcDbEntity
8
0
62
256
6
ByLayer
370
18
48
1
60
0
100
AcDbMText
10
15.6
20
-10.1
30
0
210
0
220
0
230
1
1
\A1;4.8
40
3.5
41
0
44
1
50
0
71
5
72
5
7
iso_b_vert
0
POINT
5
150
100
AcDbEntity
8
Defpoints
62
0
6
ByLayer
370
-1
48
1
60
0
100
AcDbPoint
10
18
20
-2.4001
30
0
39
0
210
0
220
0
230
1
50
360
0
POINT
5
151
100
AcDbEntity
8
Defpoints
62
0
6
ByLayer
370
-1
48
1
60
0
100
AcDbPoint
10
13.2
20
-2.4001
30
0
39
0
210
0
220
0
230
1
50
360
0
POINT
5
152
100
AcDbEntity
8
Defpoints
62
0
6
ByLayer
370
-1
48
1
60
0
100
AcDbPoint
10
13.2
20
-17.1
30
0
39
0
210
0
220
0
230
1
50
360
0
ENDBLK
5
148
100
AcDbEntity
8
0
100
AcDbBlockEnd
0
BLOCK
5
15A
100
AcDbEntity
8
0
100
AcDbBlockBegin
2
_U0
70
0
10
0
20
0
30
0
3
_U0
0
MTEXT
5
154
100
AcDbEntity
8
2
62
256
6
ByLayer
370
18
48
1
60
0
100
AcDbMText
10
12.801767
20
-16.067366
30
0
210
0
220
0
230
1
1
\W0.7610;4.8
40
3.5
41
0
44
1.084337
50
0
71
7
72
5
7
iso_b_vert
0
LINE
5
155
100
AcDbEntity
8
2
62
256
6
ByLayer
370
13
48
1
60
0
100
AcDbLine
10
18
20
-3.9876
30
0
11
18
21
-19.1
31
0
39
0
210
0
220
0
230
1
0
LINE
5
156
100
AcDbEntity
8
2
62
256
6
ByLayer
370
13
48
1
60
0
100
AcDbLine
10
13.2
20
-3.9876
30
0
11
13.2
21
-19.1
31
0
39
0
210
0
220
0
230
1
0
LINE
5
157
100
AcDbEntity
8
2
62
256
6
ByLayer
370
13
48
1
60
0
100
AcDbLine
10
26.75
20
-17.1
30
0
11
4.45
21
-17.1
31
0
39
0
210
0
220
0
230
1
0
SOLID
5
158
100
AcDbEntity
8
2
62
256
6
ByLayer
370
18
48
1
60
0
100
AcDbTrace
10
18
20
-17.1
30
0
11
21.499998
21
-16.639216
31
0
12
21.500002
22
-17.560784
32
0
13
21.500002
23
-17.560784
33
0
39
0
210
0
220
0
230
1
0
SOLID
5
159
100
AcDbEntity
8
2
62
256
6
ByLayer
370
18
48
1
60
0
100
AcDbTrace
10
13.2
20
-17.1
30
0
11
9.700002
21
-17.560784
31
0
12
9.699998
22
-16.639216
32
0
13
9.699998
23
-16.639216
33
0
39
0
210
0
220
0
230
1
0
ENDBLK
5
15B
100
AcDbEntity
8
0
100
AcDbBlockEnd
0
ENDSEC
0
SECTION
2
ENTITIES
0
ARC
5
D1
100
AcDbEntity
8
1
62
256
6
ByLayer
370
18
48
1
60
0
100
AcDbCircle
39
0
10
5.397679
20
3.4
30
0
40
1
210
0
220
0
230
1
100
AcDbArc
50
240
51
270
0
ARC
5
D2
100
AcDbEntity
8
1
62
256
6
ByLayer
370
18
48
1
60
0
100
AcDbCircle
39
0
10
5.397679
20
-3.4
30
0
40
1
210
0
220
0
230
1
100
AcDbArc
50
90
51
120
0
ELLIPSE
5
D3
100
AcDbEntity
8
1
62
256
6
ByLayer
370
18
48
1
60
0
100
AcDbEllipse
10
15.577663
20
0
30
0
11
4.74743988199724
21
-0.556701973168323
31
0
210
0
220
0
230
1
40
0.491747
41
-2.59754375224254
42
-2.16345488453455
0
ELLIPSE
5
D4
100
AcDbEntity
8
1
62
256
6
ByLayer
370
18
48
1
60
0
100
AcDbEllipse
10
9.153284
20
-2E-06
30
0
11
23.3038122671116
21
1.35636773953849
31
0
210
0
220
0
230
1
40
0.084963
41
1.39131817479726
42
1.4035032677603
0
ELLIPSE
5
D5
100
AcDbEntity
8
1
62
256
6
ByLayer
370
18
48
1
60
0
100
AcDbEllipse
10
17.320205
20
2E-05
30
0
11
23.7271390262331
21
-0.575482095805212
31
0
210
0
220
0
230
1
40
0.0982
41
-1.75327234819602
42
-1.74294831476426
0
POINT
5
70
100
AcDbEntity
8
81
62
256
6
ByLayer
370
18
48
1
60
0
100
AcDbPoint
10
18
20
0
30
0
39
0
210
0
220
0
230
1
50
360
0
POINT
5
72
100
AcDbEntity
8
80
62
256
6
ByLayer
370
18
48
1
60
0
100
AcDbPoint
10
0
20
0
30
0
39
0
210
0
220
0
230
1
50
360
0
POINT
5
74
100
AcDbEntity
8
1
62
256
6
ByLayer
370
18
48
1
60
1
100
AcDbPoint
10
18
20
-2.4001
30
0
39
0
210
0
220
0
230
1
50
360
0
POINT
5
76
100
AcDbEntity
8
1
62
256
6
ByLayer
370
18
48
1
60
1
100
AcDbPoint
10
13.2
20
-2.4001
30
0
39
0
210
0
220
0
230
1
50
360
0
SPLINE
5
D6
100
AcDbEntity
8
1
62
256
6
ByLayer
370
18
48
1
60
0
100
AcDbSpline
70
4
71
3
72
8
73
4
40
0
40
0
40
0
40
0
40
1
40
1
40
1
40
1
41
1
10
17.7792804664127
20
2.39373551729199
30
0
41
1
10
17.7938521500751
20
2.39366189870645
30
0
41
1
10
17.8084247596749
20
2.393650307038
30
0
41
1
10
17.8229975042789
20
2.39370044489044
30
0
0
SPLINE
5
D7
100
AcDbEntity
8
1
62
256
6
ByLayer
370
18
48
1
60
0
100
AcDbSpline
70
4
71
3
72
8
73
4
40
0
40
0
40
0
40
0
40
1
40
1
40
1
40
1
41
1
10
17.8229975045209
20
2.3937004447256
30
0
41
1
10
17.8419302552009
20
2.39051058343122
30
0
41
1
10
17.860881008112
20
2.38743512739691
30
0
41
1
10
17.8798493276943
20
2.38447130510662
30
0
0
SPLINE
5
D8
100
AcDbEntity
8
1
62
256
6
ByLayer
370
18
48
1
60
0
100
AcDbSpline
70
4
71
3
72
8
73
4
40
0
40
0
40
0
40
0
40
1
40
1
40
1
40
1
41
1
10
17.7792804664109
20
2.39373551729034
30
0
41
1
10
17.794763354795
20
2.33854773470222
30
0
41
1
10
17.8113695118754
20
2.2837091073265
30
0
41
1
10
17.8293529045788
20
2.22929857742139
30
0
0
SPLINE
5
D9
100
AcDbEntity
8
1
62
256
6
ByLayer
370
18
48
1
60
0
100
AcDbSpline
70
4
71
3
72
18
73
14
40
0
40
0
40
0
40
0
40
0.0528059910404983
40
0.188119420891857
40
0.188119420891857
40
0.458746280594573
40
0.458746280594573
40
0.72937314029729
40
0.72937314029729
40
0.797029855222967
40
0.797029855222967
40
0.864686570148645
40
1
40
1
40
1
40
1
41
1
10
15.6654806890039
20
1.73957319245699
30
0
41
1
10
15.7028985689836
20
1.75965641875862
30
0
41
1
10
15.8359689981692
20
1.82972342725174
30
0
41
1
10
15.9683317872324
20
1.89447760857135
30
0
41
1
10
16.2533191851299
20
2.02570210468241
30
0
41
1
10
16.4424574720141
20
2.10184738887151
30
0
41
1
10
16.8216643302374
20
2.22971702800024
30
0
41
1
10
17.0117345430875
20
2.28145035697432
30
0
41
1
10
17.2516363728611
20
2.32949624727948
30
0
41
1
10
17.2997202508391
20
2.33826847957977
30
0
41
1
10
17.3957098099006
20
2.35405080094526
30
0
41
1
10
17.5395938396728
20
2.3751166834339
30
0
41
1
10
17.6833569049503
20
2.38836381415919
30
0
41
1
10
17.7792804664127
20
2.39373551729199
30
0
0
SPLINE
5
DA
100
AcDbEntity
8
1
62
256
6
ByLayer
370
18
48
1
60
0
100
AcDbSpline
70
4
71
3
72
37
73
33
40
0
40
0
40
0
40
0
40
0.0657397542673451
40
0.0657397542673451
40
0.13147950853469
40
0.13147950853469
40
0.164349385668362
40
0.164349385668362
40
0.197219262802034
40
0.230089139935707
40
0.230089139935707
40
0.262959017069379
40
0.262959017069379
40
0.328698771336723
40
0.328698771336723
40
0.361568648470395
40
0.361568648470395
40
0.394438525604067
40
0.394438525604067
40
0.460178279871412
40
0.460178279871412
40
0.525918034138756
40
0.525918034138756
40
0.5916577884061
40
0.5916577884061
40
0.657397542673444
40
0.657397542673444
40
0.788877051208133
40
0.788877051208133
40
0.920356559742821
40
0.920356559742821
40
1
40
1
40
1
40
1
41
1
10
17.8293529126492
20
2.22929858004525
30
0
41
1
10
17.8388629899603
20
2.20051495435027
30
0
41
1
10
17.8466940299843
20
2.1714121195208
30
0
41
1
10
17.8584071636559
20
2.1124556996225
30
0
41
1
10
17.8622949938987
20
2.08260320487318
30
0
41
1
10
17.8644716136164
20
2.0371295714281
30
0
41
1
10
17.8645761357494
20
2.02186370286702
30
0
41
1
10
17.8634501140092
20
1.99164039713329
30
0
41
1
10
17.8609986015222
20
1.96159161856661
30
0
41
1
10
17.8557556591397
20
1.93191038715358
30
0
41
1
10
17.8490344872698
20
1.90242379399453
30
0
41
1
10
17.8449145322938
20
1.88771923611989
30
0
41
1
10
17.8303319099546
20
1.84431665809052
30
0
41
1
10
17.8178432714067
20
1.8168234386041
30
0
41
1
10
17.7952749691535
20
1.77758221565892
30
0
41
1
10
17.7871122992449
20
1.76483526258431
30
0
41
1
10
17.7695531452155
20
1.73998429968893
30
0
41
1
10
17.7601309448268
20
1.7278601972659
30
0
41
1
10
17.7306897699536
20
1.69307989063574
30
0
41
1
10
17.7093417246369
20
1.67175240597569
30
0
41
1
10
17.6639001891296
20
1.63206434155978
30
0
41
1
10
17.6397702356162
20
1.61368495159127
30
0
41
1
10
17.5893863514656
20
1.5794618831157
30
0
41
1
10
17.563499413815
20
1.56385552342152
30
0
41
1
10
17.5106576300531
20
1.53495560815318
30
0
41
1
10
17.4837007894416
20
1.52166637213304
30
0
41
1
10
17.401544010042
20
1.48458435395634
30
0
41
1
10
17.3450217283565
20
1.46352367449171
30
0
41
1
10
17.2298311478338
20
1.42659098673147
30
0
41
1
10
17.1718622553429
20
1.41095021847798
30
0
41
1
10
17.0783547901006
20
1.38904209691202
30
0
41
1
10
17.0429825103776
20
1.38151705964788
30
0
41
1
10
17.0075259584299
20
1.37462937817395
30
0
0
SPLINE
5
DB
100
AcDbEntity
8
1
62
256
6
ByLayer
370
13
48
1
60
0
100
AcDbSpline
70
4
71
3
72
10
73
6
40
0
40
0
40
0
40
0
40
0.522244020986622
40
0.826655082696551
40
1
40
1
40
1
40
1
41
1
10
17.8293529112636
20
2.22929858022906
30
0
41
1
10
17.4862352741758
20
2.21152973838886
30
0
41
1
10
16.9431176370879
20
2.11512152948583
30
0
41
1
10
16.2861112889066
20
1.88557524512831
30
0
41
1
10
15.9722225778133
20
1.74742957808581
30
0
41
1
10
15.8583338667201
20
1.69375648629168
30
0
0
SPLINE
5
DC
100
AcDbEntity
8
1
62
256
6
ByLayer
370
18
48
1
60
0
100
AcDbSpline
70
4
71
3
72
8
73
4
40
0
40
0
40
0
40
0
40
1
40
1
40
1
40
1
41
1
10
12.7762181955842
20
2.39993417135241
30
0
41
1
10
12.8263037356409
20
2.37502857854403
30
0
41
1
10
12.8765047497002
20
2.35064339835759
30
0
41
1
10
12.9268207863149
20
2.3267765962328
30
0
0
SPLINE
5
DD
100
AcDbEntity
8
1
62
256
6
ByLayer
370
18
48
1
60
0
100
AcDbSpline
70
4
71
3
72
12
73
8
40
0
40
0
40
0
40
0
40
0.500000000000001
40
0.500000000000001
40
0.75
40
0.75
40
1
40
1
40
1
40
1
41
1
10
16.6238268619663
20
-0.728077041229369
30
0
41
1
10
16.6368484997832
20
-0.711199859157887
30
0
41
1
10
16.6506154111571
20
-0.694833433249329
30
0
41
1
10
16.6726099995687
20
-0.672135678461444
30
0
41
1
10
16.6801711578422
20
-0.664872834903946
30
0
41
1
10
16.6956531626192
20
-0.651209280143945
30
0
41
1
10
16.7035970794537
20
-0.644783141586345
30
0
41
1
10
16.7117893492876
20
-0.638798401231583
30
0
0
SPLINE
5
DE
100
AcDbEntity
8
1
62
256
6
ByLayer
370
18
48
1
60
0
100
AcDbSpline
70
4
71
3
72
14
73
10
40
0
40
0
40
0
40
0
40
0.25
40
0.25
40
0.5
40
0.5
40
0.75
40
0.75
40
1
40
1
40
1
40
1
41
1
10
17.7769625916417
20
-1.79727821371694
30
0
41
1
10
17.7809019491698
20
-1.79178063543674
30
0
41
1
10
17.7847305586889
20
-1.78700502290803
30
0
41
1
10
17.792142418624
20
-1.77905332717756
30
0
41
1
10
17.7956704738134
20
-1.77593941589331
30
0
41
1
10
17.8022540742988
20
-1.77173214084235
30
0
41
1
10
17.8053276445058
20
-1.77061479343919
30
0
41
1
10
17.8108554899889
20
-1.77103667982851
30
0
41
1
10
17.8132110135836
20
-1.77255938461343
30
0
41
1
10
17.8150240545291
20
-1.77582452184814
30
0
0
SPLINE
5
DF
100
AcDbEntity
8
1
62
256
6
ByLayer
370
18
48
1
60
0
100
AcDbSpline
70
4
71
3
72
20
73
16
40
0
40
0
40
0
40
0
40
0.25
40
0.25
40
0.374999999999998
40
0.374999999999998
40
0.437499999999997
40
0.437499999999997
40
0.499999999999996
40
0.499999999999996
40
0.749999999999998
40
0.749999999999998
40
0.874999999999999
40
0.874999999999999
40
1
40
1
40
1
40
1
41
1
10
17.4724557619735
20
-1.99394292159835
30
0
41
1
10
17.4903757105911
20
-2.00747528589116
30
0
41
1
10
17.5106359538437
20
-2.01247858321136
30
0
41
1
10
17.5441491876159
20
-2.00860241610994
30
0
41
1
10
17.5558452347011
20
-2.0053971409952
30
0
41
1
10
17.5741626544399
20
-1.99777080270494
30
0
41
1
10
17.580408507574
20
-1.99475097077772
30
0
41
1
10
17.5930557860826
20
-1.98783111864711
30
0
41
1
10
17.5994664455003
20
-1.98392864407362
30
0
41
1
10
17.6319412972002
20
-1.96227241905856
30
0
41
1
10
17.6592598805731
20
-1.93813935509036
30
0
41
1
10
17.7021208589401
20
-1.8923630756843
30
0
41
1
10
17.7167398606931
20
-1.87547782518177
30
0
41
1
10
17.7465419396173
20
-1.838572707445
30
0
41
1
10
17.7616504451938
20
-1.81864797230665
30
0
41
1
10
17.7769625903955
20
-1.79727821365873
30
0
0
SPLINE
5
E0
100
AcDbEntity
8
1
62
256
6
ByLayer
370
18
48
1
60
0
100
AcDbSpline
70
4
71
3
72
8
73
4
40
0
40
0
40
0
40
0
40
1
40
1
40
1
40
1
41
1
10
16.0511617632031
20
-2.10950037689642
30
0
41
1
10
16.0333546349543
20
-2.10994046747862
30
0
41
1
10
16.0155475067054
20
-2.11029173533291
30
0
41
1
10
15.9977403784566
20
-2.11055424271609
30
0
0
SPLINE
5
E1
100
AcDbEntity
8
1
62
256
6
ByLayer
370
13
48
1
60
0
100
AcDbSpline
70
4
71
3
72
11
73
7
40
0
40
0
40
0
40
0
40
0.142164863302174
40
0.356623647476631
40
0.571082431651087
40
1
40
1
40
1
40
1
41
1
10
15.9977403784585
20
-2.11055424271609
30
0
41
1
10
15.8651602523056
20
-2.11250869946468
30
0
41
1
10
15.5325801261528
20
-2.10506889972419
30
0
41
1
10
14.9999999999999
20
-2.04383328217918
30
0
41
1
10
14.1999999999999
20
-1.86525919832115
30
0
41
1
10
13.6
20
-1.63954146348607
30
0
41
1
10
13.2
20
-1.45814945587608
30
0
0
SPLINE
5
E2
100
AcDbEntity
8
1
62
256
6
ByLayer
370
18
48
1
60
0
100
AcDbSpline
70
4
71
3
72
12
73
8
40
0
40
0
40
0
40
0
40
0.499999999999998
40
0.499999999999998
40
0.749999999999999
40
0.749999999999999
40
1
40
1
40
1
40
1
41
1
10
17.4247531008466
20
-1.75607074716925
30
0
41
1
10
17.4271298325158
20
-1.80893570919963
30
0
41
1
10
17.4323833998949
20
-1.85500124290331
30
0
41
1
10
17.4443491289931
20
-1.9144437139654
30
0
41
1
10
17.4490220489465
20
-1.93264041846501
30
0
41
1
10
17.4597372469708
20
-1.965797336641
30
0
41
1
10
17.4657892399946
20
-1.98075792512023
30
0
41
1
10
17.4724557619705
20
-1.99394292159911
30
0
0
SPLINE
5
E3
100
AcDbEntity
8
1
62
256
6
ByLayer
370
18
48
1
60
0
100
AcDbSpline
70
4
71
3
72
22
73
18
40
0
40
0
40
0
40
0
40
0.0625000000000011
40
0.0625000000000011
40
0.125000000000002
40
0.125000000000002
40
0.250000000000005
40
0.250000000000005
40
0.50000000000001
40
0.50000000000001
40
0.562500000000011
40
0.562500000000011
40
0.625000000000012
40
0.625000000000012
40
0.750000000000005
40
0.750000000000005
40
1
40
1
40
1
40
1
41
1
10
16.586093128775
20
-0.984441977875491
30
0
41
1
10
16.6005733895081
20
-1.00771867764257
30
0
41
1
10
16.615432411673
20
-1.0306034668489
30
0
41
1
10
16.6458808271281
20
-1.07561731848156
30
0
41
1
10
16.6615117655013
20
-1.09779971207297
30
0
41
1
10
16.7089418678319
20
-1.16254410602937
30
0
41
1
10
16.741391024852
20
-1.20350063837026
30
0
41
1
10
16.840912427649
20
-1.32058490047575
30
0
41
1
10
16.9101386547065
20
-1.39098038809931
30
0
41
1
10
16.9997035494674
20
-1.47090559946156
30
0
41
1
10
17.0177699566252
20
-1.48648233380973
30
0
41
1
10
17.0542019430508
20
-1.51683963635912
30
0
41
1
10
17.0725192945212
20
-1.53157853245568
30
0
41
1
10
17.127512327666
20
-1.57433816432049
30
0
41
1
10
17.1643321005222
20
-1.60099222271276
30
0
41
1
10
17.2752252890958
20
-1.67585974933459
30
0
41
1
10
17.3497296009661
20
-1.71901348898913
30
0
41
1
10
17.4247531008471
20
-1.75607074716916
30
0
0
SPLINE
5
E4
100
AcDbEntity
8
1
62
256
6
ByLayer
370
18
48
1
60
0
100
AcDbSpline
70
4
71
3
72
24
73
20
40
0
40
0
40
0
40
0
40
0.124999999999985
40
0.124999999999985
40
0.187499999999991
40
0.187499999999991
40
0.249999999999996
40
0.249999999999996
40
0.375000000000006
40
0.375000000000006
40
0.437500000000011
40
0.437500000000011
40
0.500000000000016
40
0.500000000000016
40
0.625000000000012
40
0.625000000000012
40
0.750000000000008
40
0.750000000000008
40
1
40
1
40
1
40
1
41
1
10
16.586093128776
20
-0.984441977874354
30
0
41
1
10
16.580194787094
20
-0.974960523708148
30
0
41
1
10
16.5752335415897
20
-0.965033151244057
30
0
41
1
10
16.5692605178812
20
-0.949436189637169
30
0
41
1
10
16.5675149682278
20
-0.94411925271578
30
0
41
1
10
16.5645340633192
20
-0.933239255598778
30
0
41
1
10
16.563294184554
20
-0.927642489729806
30
0
41
1
10
16.5604249932225
20
-0.910776235051401
30
0
41
1
10
16.5596228790385
20
-0.899422251839468
30
0
41
1
10
16.5599613916364
20
-0.882237088158888
30
0
41
1
10
16.5603320203508
20
-0.876482937012696
30
0
41
1
10
16.5615770827566
20
-0.864924178103564
30
0
41
1
10
16.5624537788854
20
-0.859126052014375
30
0
41
1
10
16.5657431010372
20
-0.841997784603393
30
0
41
1
10
16.5688212175619
20
-0.830813774057447
30
0
41
1
10
16.5764806560063
20
-0.80884510407617
30
0
41
1
10
16.5810876765694
20
-0.79801400175424
30
0
41
1
10
16.5967527744754
20
-0.76638794528418
30
0
41
1
10
16.6094509202338
20
-0.746709731664112
30
0
41
1
10
16.6238268619499
20
-0.728077041222662
30
0
0
SPLINE
5
E5
100
AcDbEntity
8
1
62
256
6
ByLayer
370
13
48
1
60
0
100
AcDbSpline
70
4
71
3
72
12
73
8
40
0
40
0
40
0
40
0
40
0.123787469125392
40
0.299029975300314
40
0.474272481475235
40
0.649514987650157
40
1
40
1
40
1
40
1
41
1
10
16.6238268619663
20
-0.728077041229483
30
0
41
1
10
16.4825512413109
20
-0.669531105625822
30
0
41
1
10
16.1412756206554
20
-0.521892334205859
30
0
41
1
10
15.6
20
-0.270990226194812
30
0
41
1
10
15
20
0.0221021736806506
30
0
41
1
10
14.1999999999999
20
0.411541749870452
30
0
41
1
10
13.6
20
0.67671536473469
30
0
41
1
10
13.2
20
0.827442448781312
30
0
0
SPLINE
5
E6
100
AcDbEntity
8
1
62
256
6
ByLayer
370
18
48
1
60
0
100
AcDbSpline
70
4
71
3
72
13
73
9
40
0
40
0
40
0
40
0
40
0.157393265006796
40
0.297827720838997
40
0.438262176671197
40
0.578696632503398
40
0.719131088335599
40
1
40
1
40
1
40
1
41
1
10
17.4724557619742
20
-1.99394292159897
30
0
41
1
10
17.2483038413162
20
-2.00233783725559
30
0
41
1
10
16.8241519206581
20
-1.99291511674679
30
0
41
1
10
16.2
20
-1.90987435858113
30
0
41
1
10
15.6
20
-1.7699182725039
30
0
41
1
10
15
20
-1.5731907344294
30
0
41
1
10
14.1999999999999
20
-1.24428154281702
30
0
41
1
10
13.6
20
-0.934926628396227
30
0
41
1
10
13.2
20
-0.712328078509557
30
0
0
SPLINE
5
E7
100
AcDbEntity
8
1
62
256
6
ByLayer
370
18
48
1
60
0
100
AcDbSpline
70
4
71
3
72
16
73
12
40
0
40
0
40
0
40
0
40
0.0695505565813341
40
0.0695505565813341
40
0.302162917436014
40
0.302162917436014
40
0.418469097863346
40
0.418469097863346
40
0.534775278290676
40
0.534775278290676
40
1
40
1
40
1
40
1
41
1
10
16.9531905284665
20
1.40060255706717
30
0
41
1
10
16.9634001326124
20
1.39761840483152
30
0
41
1
10
16.9736555365573
20
1.39445835581563
30
0
41
1
10
17.0184029425926
20
1.37998932261294
30
0
41
1
10
17.0533526333911
20
1.36692255843914
30
0
41
1
10
17.1064901642301
20
1.34458411497161
30
0
41
1
10
17.1243437042905
20
1.33667042186391
30
0
41
1
10
17.1601857050513
20
1.3199912237713
30
0
41
1
10
17.1781210729298
20
1.31125156027593
30
0
41
1
10
17.2678665451001
20
1.26564215609724
30
0
41
1
10
17.3398807536395
20
1.22308911181375
30
0
41
1
10
17.4120882323762
20
1.1751544391669
30
0
0
SPLINE
5
E8
100
AcDbEntity
8
1
62
256
6
ByLayer
370
18
48
1
60
0
100
AcDbSpline
70
4
71
3
72
26
73
22
40
0
40
0
40
0
40
0
40
0.0525905277002345
40
0.105173136409943
40
0.15775026052569
40
0.210324265682599
40
0.262897452796155
40
0.315472070392817
40
0.368050315273001
40
0.420634332107371
40
0.473226213104162
40
0.525827997746013
40
0.578441672595367
40
0.631069171166223
40
0.683712373861292
40
0.736373107972421
40
0.789053147742657
40
0.841754214488178
40
0.894477976778038
40
0.947226050669942
40
1
40
1
40
1
40
1
41
1
10
12.8715367218119
20
-1.61497334063313
30
0
41
1
10
12.866316468643
20
-1.62051675655084
30
0
41
1
10
12.855876748362
20
-1.63160275366829
30
0
41
1
10
12.8403330098171
20
-1.64853519132612
30
0
41
1
10
12.8248759078064
20
-1.66568403265964
30
0
41
1
10
12.8095136154113
20
-1.68306846669469
30
0
41
1
10
12.7942439714074
20
-1.70067970558696
30
0
41
1
10
12.7790675943849
20
-1.71851648209667
30
0
41
1
10
12.7639843610052
20
-1.73657553525621
30
0
41
1
10
12.7489943489936
20
-1.75485416055375
30
0
41
1
10
12.7340975844167
20
-1.77334952722904
30
0
41
1
10
12.7192941089357
20
-1.7920588609999
30
0
41
1
10
12.7045839630308
20
-1.81097939785846
30
0
41
1
10
12.6899671853428
20
-1.83010838800811
30
0
41
1
10
12.675443831606
20
-1.84944312815202
30
0
41
1
10
12.6610138990645
20
-1.86898083008356
30
0
41
1
10
12.6466776095443
20
-1.88871911594993
30
0
41
1
10
12.632434351734
20
-1.90865416924649
30
0
41
1
10
12.6182866307907
20
-1.92878764105311
30
0
41
1
10
12.6042253181585
20
-1.94910085977031
30
0
41
1
10
12.5949339653874
20
-1.96279756407859
30
0
41
1
10
12.5902871498186
20
-1.969647595542
30
0
0
SPLINE
5
E9
100
AcDbEntity
8
1
62
256
6
ByLayer
370
18
48
1
60
0
100
AcDbSpline
70
4
71
3
72
8
73
4
40
0
40
0
40
0
40
0
40
1
40
1
40
1
40
1
41
1
10
17.7799273573594
20
-1.86236891765782
30
0
41
1
10
17.7776127663961
20
-1.86248898420485
30
0
41
1
10
17.7752962684828
20
-1.86260487528784
30
0
41
1
10
17.7729778617059
20
-1.86271658671672
30
0
0
SPLINE
5
EA
100
AcDbEntity
8
1
62
256
6
ByLayer
370
18
48
1
60
0
100
AcDbSpline
70
4
71
3
72
8
73
4
40
0
40
0
40
0
40
0
40
1
40
1
40
1
40
1
41
1
10
17.7729778617059
20
-1.86271658671672
30
0
41
1
10
17.7938046644288
20
-1.84531088046322
30
0
41
1
10
17.8146307455721
20
-1.82813990516988
30
0
41
1
10
17.8354560824256
20
-1.81121104849694
30
0
0
SPLINE
5
EB
100
AcDbEntity
8
1
62
256
6
ByLayer
370
18
48
1
60
0
100
AcDbSpline
70
4
71
3
72
8
73
4
40
0
40
0
40
0
40
0
40
1
40
1
40
1
40
1
41
1
10
17.8150240543761
20
-1.77582452203944
30
0
41
1
10
17.8217301993909
20
-1.78792066604834
30
0
41
1
10
17.828539358253
20
-1.79972053845873
30
0
41
1
10
17.8354560824256
20
-1.81121104849692
30
0
0
SPLINE
5
EC
100
AcDbEntity
8
1
62
256
6
ByLayer
370
13
48
1
60
0
100
AcDbSpline
70
4
71
3
72
8
73
4
40
0
40
0
40
0
40
0
40
1
40
1
40
1
40
1
41
1
10
17.8150240543334
20
-1.77582452199425
30
0
41
1
10
17.7875021998045
20
-1.78592818646942
30
0
41
1
10
17.7599803452757
20
-1.79584911185373
30
0
41
1
10
17.7324584907468
20
-1.80558538341006
30
0
0
SPLINE
5
ED
100
AcDbEntity
8
1
62
256
6
ByLayer
370
13
48
1
60
0
100
AcDbSpline
70
4
71
3
72
12
73
8
40
0
40
0
40
0
40
0
40
0.106689652838347
40
0.285351722270678
40
0.464013791703008
40
0.642675861135339
40
1
40
1
40
1
40
1
41
1
10
16.5582953668141
20
-2.1034371272315
30
0
41
1
10
16.438863577876
20
-2.1212340175104
30
0
41
1
10
16.1194317889381
20
-2.15823028889994
30
0
41
1
10
15.6000000000001
20
-2.17089718650101
30
0
41
1
10
15.0000000000001
20
-2.11686283877384
30
0
41
1
10
14.2000000000001
20
-1.95516679429463
30
0
41
1
10
13.6000000000001
20
-1.73800560383728
30
0
41
1
10
13.2000000000001
20
-1.56011602856432
30
0
0
SPLINE
5
EE
100
AcDbEntity
8
1
62
256
6
ByLayer
370
18
48
1
60
0
100
AcDbSpline
70
4
71
3
72
8
73
4
40
0
40
0
40
0
40
0
40
1
40
1
40
1
40
1
41
1
10
17.7799273573596
20
-1.8623689176577
30
0
41
1
10
17.7508271052238
20
-1.87447262478864
30
0
41
1
10
17.7217341959108
20
-1.8863571445292
30
0
41
1
10
17.6926457544767
20
-1.89802118758448
30
0
0
SPLINE
5
EF
100
AcDbEntity
8
1
62
256
6
ByLayer
370
18
48
1
60
0
100
AcDbSpline
70
4
71
3
72
26
73
22
40
0
40
0
40
0
40
0
40
0.027490830109548
40
0.027490830109548
40
0.0969557708160081
40
0.0969557708160081
40
0.166420711522468
40
0.166420711522468
40
0.444280474348305
40
0.444280474348305
40
0.513745415054765
40
0.513745415054765
40
0.548477885407994
40
0.548477885407994
40
0.583210355761224
40
0.583210355761224
40
0.722140237174149
40
0.722140237174149
40
0.861070118587075
40
0.861070118587075
40
1
40
1
40
1
40
1
41
1
10
17.3182800722956
20
-2.03586834226201
30
0
41
1
10
17.2802996050715
20
-2.04859052516852
30
0
41
1
10
17.2423057408
20
-2.06092779000252
30
0
41
1
10
17.1082376590582
20
-2.10307170308477
30
0
41
1
10
17.0119342289247
20
-2.13081566831443
30
0
41
1
10
16.8202718183641
20
-2.18083181816698
30
0
41
1
10
16.724761202022
20
-2.20315583212329
30
0
41
1
10
16.2482647326753
20
-2.30120534861859
30
0
41
1
10
15.8703998144337
20
-2.33622332774789
30
0
41
1
10
15.3926592620371
20
-2.32378402848354
30
0
41
1
10
15.2968518286613
20
-2.31849371575166
30
0
41
1
10
15.1526113592519
20
-2.30627484847008
30
0
41
1
10
15.1045496759514
20
-2.30149530816132
30
0
41
1
10
15.0086782213615
20
-2.29056098023466
30
0
41
1
10
14.9608310409574
20
-2.28440345456104
30
0
41
1
10
14.7219673921063
20
-2.25021537670619
30
0
41
1
10
14.5320654981224
20
-2.21200459698315
30
0
41
1
10
14.1527921357601
20
-2.11491897672462
30
0
41
1
10
13.9634164426756
20
-2.05604983870865
30
0
41
1
10
13.5832325333468
20
-1.91904560024059
30
0
41
1
10
13.3924368047415
20
-1.84086852789997
30
0
41
1
10
13.2000000000001
20
-1.75337545723102
30
0
0
SPLINE
5
F0
100
AcDbEntity
8
1
62
256
6
ByLayer
370
18
48
1
60
0
100
AcDbSpline
70
4
71
3
72
12
73
8
40
0
40
0
40
0
40
0
40
0.233913593985373
40
0.435928110709436
40
0.6379426274335
40
0.839957144157563
40
1
40
1
40
1
40
1
41
1
10
17.494742925742
20
0.663981829678249
30
0
41
1
10
17.2631619504947
20
0.822391840495982
30
0
41
1
10
16.8315809752473
20
1.10488838527761
30
0
41
1
10
16.2
20
1.46127074608845
30
0
41
1
10
15.6
20
1.73310828882833
30
0
41
1
10
15.0415531136695
20
1.91212522781353
30
0
41
1
10
14.683106227339
20
1.98071655988664
30
0
41
1
10
14.5246593410085
20
2.00154991118211
30
0
0
SPLINE
5
F1
100
AcDbEntity
8
1
62
256
6
ByLayer
370
13
48
1
60
0
100
AcDbSpline
70
4
71
3
72
11
73
7
40
0
40
0
40
0
40
0
40
0.374778523920955
40
0.608274646505954
40
0.841770769090954
40
1
40
1
40
1
40
1
41
1
10
17.763044318951
20
-0.169813758560935
30
0
41
1
10
17.4420295459674
20
0.0707740252815654
30
0
41
1
10
16.9210147729836
20
0.464101074706264
30
0
41
1
10
16.1999999999999
20
0.973612661727202
30
0
41
1
10
15.6644695002578
20
1.31203023142589
30
0
41
1
10
15.3289390005155
20
1.49436359590481
30
0
41
1
10
15.1934085007734
20
1.56262772576957
30
0
0
SPLINE
5
F2
100
AcDbEntity
8
1
62
256
6
ByLayer
370
18
48
1
60
0
100
AcDbSpline
70
4
71
3
72
16
73
12
40
0
40
0
40
0
40
0
40
0.250000000000001
40
0.250000000000001
40
0.500000000000003
40
0.500000000000003
40
0.625000000000003
40
0.625000000000003
40
0.750000000000003
40
0.750000000000003
40
1
40
1
40
1
40
1
41
1
10
17.4120882323748
20
1.1751544391673
30
0
41
1
10
17.4116801724072
20
1.14835636391845
30
0
41
1
10
17.4131884991912
20
1.11729891565128
30
0
41
1
10
17.4198801623915
20
1.04701592003269
30
0
41
1
10
17.4250639357225
20
1.00778940159211
30
0
41
1
10
17.4356127453423
20
0.942786004467422
30
0
41
1
10
17.4396094541607
20
0.920002711603104
30
0
41
1
10
17.4484374364354
20
0.872911015882721
30
0
41
1
10
17.453269523772
20
0.848583159053391
30
0
41
1
10
17.4689820039983
20
0.773324768667578
30
0
41
1
10
17.481073910223
20
0.720128215249702
30
0
41
1
10
17.4947429257344
20
0.663981829683394
30
0
0
SPLINE
5
F3
100
AcDbEntity
8
1
62
256
6
ByLayer
370
18
48
1
60
0
100
AcDbSpline
70
4
71
3
72
18
73
14
40
0
40
0
40
0
40
0
40
0.249999999999998
40
0.249999999999998
40
0.374999999999997
40
0.374999999999997
40
0.499999999999996
40
0.499999999999996
40
0.624999999999995
40
0.624999999999995
40
0.749999999999994
40
0.749999999999994
40
1
40
1
40
1
40
1
41
1
10
17.4947429257402
20
0.663981829675464
30
0
41
1
10
17.512292807046
20
0.599394528500568
30
0
41
1
10
17.5313535031299
20
0.532842154496819
30
0
41
1
10
17.5620400554287
20
0.430288026992145
30
0
41
1
10
17.5726072739784
20
0.395692188921657
30
0
41
1
10
17.5942625382167
20
0.32613637218401
30
0
41
1
10
17.6053688876016
20
0.291114921234282
30
0
41
1
10
17.62812329756
20
0.220598673198253
30
0
41
1
10
17.6397884416997
20
0.185054833105056
30
0
41
1
10
17.6634530669724
20
0.114093936820552
30
0
41
1
10
17.6754732796753
20
0.0786110464535739
30
0
41
1
10
17.7120789329949
20
-0.0278447084640447
30
0
41
1
10
17.7372066991312
20
-0.09882462177967
30
0
41
1
10
17.7630443144811
20
-0.169813761428827
30
0
0
SPLINE
5
F4
100
AcDbEntity
8
1
62
256
6
ByLayer
370
18
48
1
60
0
100
AcDbSpline
70
4
71
3
72
14
73
10
40
0
40
0
40
0
40
0
40
0.25
40
0.25
40
0.5
40
0.5
40
0.75
40
0.75
40
1
40
1
40
1
40
1
41
1
10
17.7630443174455
20
-0.16981376052945
30
0
41
1
10
17.7671259167154
20
-0.181028430422629
30
0
41
1
10
17.7710774676323
20
-0.19221081169411
30
0
41
1
10
17.7786978068224
20
-0.214505362399734
30
0
41
1
10
17.7823676979877
20
-0.225617807366831
30
0
41
1
10
17.7893543191113
20
-0.247755009256935
30
0
41
1
10
17.792623430685
20
-0.258630942949395
30
0
41
1
10
17.7984387741162
20
-0.279455908215937
30
0
41
1
10
17.8009350420792
20
-0.289212675168358
30
0
41
1
10
17.8028314875931
20
-0.297972231970874
30
0
0
SPLINE
5
F5
100
AcDbEntity
8
1
62
256
6
ByLayer
370
13
48
1
60
0
100
AcDbSpline
70
4
71
3
72
12
73
8
40
0
40
0
40
0
40
0
40
0.341706144829946
40
0.512559217244918
40
0.683412289659891
40
0.854265362074864
40
1
40
1
40
1
40
1
41
1
10
13.2
20
0.892817183087971
30
0
41
1
10
13.6
20
0.754960582642269
30
0
41
1
10
14.1999999999999
20
0.507429664397449
30
0
41
1
10
15
20
0.135699463701599
30
0
41
1
10
15.6
20
-0.14816697344969
30
0
41
1
10
16.1705964497626
20
-0.408869392012122
30
0
41
1
10
16.5411928995252
20
-0.568601315828602
30
0
41
1
10
16.7117893492878
20
-0.638798401231668
30
0
0
SPLINE
5
F6
100
AcDbEntity
8
1
62
256
6
ByLayer
370
18
48
1
60
0
100
AcDbSpline
70
4
71
3
72
18
73
14
40
0
40
0
40
0
40
0
40
0.249999999999982
40
0.249999999999982
40
0.374999999999973
40
0.374999999999973
40
0.499999999999965
40
0.499999999999965
40
0.750000000000021
40
0.750000000000021
40
0.87500000000001
40
0.87500000000001
40
1
40
1
40
1
40
1
41
1
10
16.7117893492874
20
-0.638798401231526
30
0
41
1
10
16.7287894545234
20
-0.626379230086854
30
0
41
1
10
16.7467284006437
20
-0.616001289252125
30
0
41
1
10
16.7751137882514
20
-0.603338532330326
30
0
41
1
10
16.7848235439973
20
-0.599604540625933
30
0
41
1
10
16.8047724881027
20
-0.593116198404431
30
0
41
1
10
16.815024312424
20
-0.590366861861867
30
0
41
1
10
16.8459122013432
20
-0.583739482961846
30
0
41
1
10
16.866905069453
20
-0.58138821446417
30
0
41
1
10
16.8990943165225
20
-0.580696282369303
30
0
41
1
10
16.9099830275079
20
-0.580944225924355
30
0
41
1
10
16.9317926215299
20
-0.582357222046426
30
0
41
1
10
16.9426972089315
20
-0.583516791699907
30
0
41
1
10
16.9536087331611
20
-0.585100088095629
30
0
0
SPLINE
5
F7
100
AcDbEntity
8
1
62
256
6
ByLayer
370
18
48
1
60
0
100
AcDbSpline
70
4
71
3
72
10
73
6
40
0
40
0
40
0
40
0
40
0.0960445588288872
40
0.0960445588288872
40
1
40
1
40
1
40
1
41
1
10
17.1505341670548
20
-0.617015736454647
30
0
41
1
10
17.1442603728588
20
-0.615881301416721
30
0
41
1
10
17.1379833221386
20
-0.614758799554039
30
0
41
1
10
17.0725949785551
20
-0.603191445505132
30
0
41
1
10
17.0132102797186
20
-0.593748459474824
30
0
41
1
10
16.9536087331612
20
-0.585100088096311
30
0
0
SPLINE
5
F8
100
AcDbEntity
8
1
62
256
6
ByLayer
370
18
48
1
60
0
100
AcDbSpline
70
4
71
3
72
8
73
4
40
0
40
0
40
0
40
0
40
1
40
1
40
1
40
1
41
1
10
12.6988244983882
20
-1.62544939446201
30
0
41
1
10
12.7562585685626
20
-1.6211501854159
30
0
41
1
10
12.8138290348716
20
-1.61765879925494
30
0
41
1
10
12.8715355907005
20
-1.61497342001667
30
0
0
SPLINE
5
F9
100
AcDbEntity
8
1
62
256
6
ByLayer
370
18
48
1
60
0
100
AcDbSpline
70
4
71
3
72
8
73
4
40
0
40
0
40
0
40
0
40
1
40
1
40
1
40
1
41
1
10
13.2000000000001
20
-1.75337545723102
30
0
41
1
10
13.0896518507088
20
-1.71005980488965
30
0
41
1
10
12.9801257674371
20
-1.66405130313649
30
0
41
1
10
12.8715367207512
20
-1.61497334180336
30
0
0
SPLINE
5
FA
100
AcDbEntity
8
1
62
256
6
ByLayer
370
13
48
1
60
0
100
AcDbSpline
70
4
71
3
72
8
73
4
40
0
40
0
40
0
40
0
40
1
40
1
40
1
40
1
41
1
10
12.576304822638
20
-1.98111469053222
30
0
41
1
10
12.5806660156007
20
-1.97728091879867
30
0
41
1
10
12.5850272085635
20
-1.97342334710495
30
0
41
1
10
12.5893884015262
20
-1.96954211447664
30
0
0
SPLINE
5
FB
100
AcDbEntity
8
1
62
256
6
ByLayer
370
18
48
1
60
0
100
AcDbSpline
70
4
71
3
72
21
73
17
40
0
40
0
40
0
40
0
40
0.25
40
0.25
40
0.3125
40
0.3125
40
0.374999999999999
40
0.374999999999999
40
0.499999999999996
40
0.624999999999993
40
0.624999999999993
40
0.687499999999991
40
0.687499999999991
40
0.74999999999999
40
0.74999999999999
40
1
40
1
40
1
40
1
41
1
10
12.5893884015208
20
-1.96954211447442
30
0
41
1
10
12.5780014235847
20
-1.94365548832144
30
0
41
1
10
12.5710773880793
20
-1.91650243448413
30
0
41
1
10
12.5689274165112
20
-1.88084817624878
30
0
41
1
10
12.56882483341
20
-1.87363143166218
30
0
41
1
10
12.5693075553288
20
-1.85902179361676
30
0
41
1
10
12.569896459302
20
-1.85160363820685
30
0
41
1
10
12.5727255673593
20
-1.82927035758098
30
0
41
1
10
12.5792886011286
20
-1.7994354383205
30
0
41
1
10
12.5913572771886
20
-1.76956393785065
30
0
41
1
10
12.6024731861769
20
-1.74717834168936
30
0
41
1
10
12.6065228542514
20
-1.73971951189665
30
0
41
1
10
12.615314515484
20
-1.7248136489952
30
0
41
1
10
12.6200735997354
20
-1.71734353933738
30
0
41
1
10
12.6452996340571
20
-1.68047954631646
30
0
41
1
10
12.6701111197378
20
-1.65232480126852
30
0
41
1
10
12.6988244983812
20
-1.6254493944684
30
0
0
SPLINE
5
FC
100
AcDbEntity
8
1
62
256
6
ByLayer
370
18
48
1
60
0
100
AcDbSpline
70
4
71
3
72
24
73
20
40
0
40
0
40
0
40
0
40
0.249999999999984
40
0.249999999999984
40
0.375000000000017
40
0.375000000000017
40
0.500000000000051
40
0.500000000000051
40
0.562500000000044
40
0.562500000000044
40
0.625000000000038
40
0.625000000000038
40
0.687500000000032
40
0.687500000000032
40
0.750000000000025
40
0.750000000000025
40
0.875000000000013
40
0.875000000000013
40
1
40
1
40
1
40
1
41
1
10
11.3739610360749
20
-0.732043844463306
30
0
41
1
10
11.3653769469919
20
-0.723218161116819
30
0
41
1
10
11.3571714816557
20
-0.714085446636716
30
0
41
1
10
11.3459884769026
20
-0.699488689869241
30
0
41
1
10
11.3424437601129
20
-0.694457049480008
30
0
41
1
10
11.3360746015676
20
-0.684025404200526
30
0
41
1
10
11.3332045524209
20
-0.678578966650605
30
0
41
1
10
11.3300078191953
20
-0.670029907983832
30
0
41
1
10
11.3291321401871
20
-0.667125126252699
30
0
41
1
10
11.3279762929971
20
-0.661144030163655
30
0
41
1
10
11.32770446953
20
-0.658082734221296
30
0
41
1
10
11.3281544751681
20
-0.652009819763919
30
0
41
1
10
11.3288951481405
20
-0.648996721274756
30
0
41
1
10
11.3316524241699
20
-0.643474635295718
30
0
41
1
10
11.3336359794338
20
-0.641041480521693
30
0
41
1
10
11.3408299441906
20
-0.634981641255791
30
0
41
1
10
11.3468815463933
20
-0.63270613750268
30
0
41
1
10
11.3590897664963
20
-0.629852722755317
30
0
41
1
10
11.3654300189348
20
-0.629253977725796
30
0
41
1
10
11.3717565240294
20
-0.629077569598877
30
0
0
SPLINE
5
FD
100
AcDbEntity
8
1
62
256
6
ByLayer
370
18
48
1
60
0
100
AcDbSpline
70
4
71
3
72
30
73
26
40
0
40
0
40
0
40
0
40
0.124999999999986
40
0.124999999999986
40
0.249999999999971
40
0.249999999999971
40
0.312499999999976
40
0.312499999999976
40
0.374999999999981
40
0.437499999999985
40
0.437499999999985
40
0.49999999999999
40
0.49999999999999
40
0.624999999999979
40
0.624999999999979
40
0.65624999999998
40
0.65624999999998
40
0.687499999999982
40
0.749999999999984
40
0.749999999999984
40
0.812499999999986
40
0.812499999999986
40
0.874999999999989
40
0.874999999999989
40
1
40
1
40
1
40
1
41
1
10
11.3717565240325
20
-0.62907756961215
30
0
41
1
10
11.4076154319812
20
-0.628077680614723
30
0
41
1
10
11.4433070331975
20
-0.62580264628005
30
0
41
1
10
11.5142413532976
20
-0.61782334421622
30
0
41
1
10
11.5494855704114
20
-0.612131087021112
30
0
41
1
10
11.6018789444829
20
-0.599961897625974
30
0
41
1
10
11.6191909845765
20
-0.595306900272163
30
0
41
1
10
11.6531689913815
20
-0.584688984290835
30
0
41
1
10
11.6865824871456
20
-0.572745023948528
30
0
41
1
10
11.7186960935677
20
-0.557734033176473
30
0
41
1
10
11.7500555250306
20
-0.540933911445563
30
0
41
1
10
11.7654448271641
20
-0.531568922541823
30
0
41
1
10
11.8092376419504
20
-0.501112229935814
30
0
41
1
10
11.8355061671207
20
-0.477578793847812
30
0
41
1
10
11.8644794186406
20
-0.443826919971485
30
0
41
1
10
11.8700955629362
20
-0.436838852488734
30
0
41
1
10
11.8808034821698
20
-0.422612299673347
30
0
41
1
10
11.8961249886022
20
-0.400850176936331
30
0
41
1
10
11.9093437464115
20
-0.377880976075971
30
0
41
1
10
11.9252869539028
20
-0.346276595755455
30
0
41
1
10
11.932424513236
20
-0.329966747661842
30
0
41
1
10
11.9451524868657
20
-0.296525292875856
30
0
41
1
10
11.9506750045366
20
-0.279583489930275
30
0
41
1
10
11.9651152658159
20
-0.228187501358008
30
0
41
1
10
11.9719261056713
20
-0.193167561715114
30
0
41
1
10
11.976638513102
20
-0.157558088156691
30
0
0
SPLINE
5
FE
100
AcDbEntity
8
1
62
256
6
ByLayer
370
18
48
1
60
0
100
AcDbSpline
70
4
71
3
72
31
73
27
40
0
40
0
40
0
40
0
40
0.125000000000001
40
0.125000000000001
40
0.187500000000001
40
0.187500000000001
40
0.250000000000001
40
0.250000000000001
40
0.312500000000001
40
0.312500000000001
40
0.375
40
0.4375
40
0.4375
40
0.5
40
0.5
40
0.5625
40
0.5625
40
0.625
40
0.625
40
0.75
40
0.75
40
0.8125
40
0.8125
40
0.875
40
0.875
40
1
40
1
40
1
40
1
41
1
10
11.976638513102
20
-0.157558088156691
30
0
41
1
10
11.9751842294896
20
-0.0749549399712066
30
0
41
1
10
11.9695905432001
20
0.0073685677079709
30
0
41
1
10
11.9571809233817
20
0.130588176827473
30
0
41
1
10
11.9523450963533
20
0.171647878836211
30
0
41
1
10
11.9415216389148
20
0.253227180569752
30
0
41
1
10
11.9355285968775
20
0.293801655818783
30
0
41
1
10
11.9224967585143
20
0.374541142057382
30
0
41
1
10
11.9154520512883
20
0.414733917789391
30
0
41
1
10
11.9003989973422
20
0.49459722496232
30
0
41
1
10
11.8844167133738
20
0.57376246886642
30
0
41
1
10
11.8666488261812
20
0.651565488275793
30
0
41
1
10
11.8479903875602
20
0.728693307817139
30
0
41
1
10
11.8382146867945
20
0.766917262018353
30
0
41
1
10
11.8178456605859
20
0.842340752946228
30
0
41
1
10
11.8072416835249
20
0.879585565387146
30
0
41
1
10
11.7851604621318
20
0.953145364638715
30
0
41
1
10
11.7736709922574
20
0.989496315443432
30
0
41
1
10
11.7378981022428
20
1.09687221373105
30
0
41
1
10
11.712363064193
20
1.16611507728075
30
0
41
1
10
11.6710963896731
20
1.26646660991668
30
0
41
1
10
11.6568594843576
20
1.2992877074125
30
0
41
1
10
11.6274584748714
20
1.36340357261389
30
0
41
1
10
11.6122777624773
20
1.39473948365736
30
0
41
1
10
11.5651463071649
20
1.48659119875441
30
0
41
1
10
11.5316184383489
20
1.54495520976229
30
0
41
1
10
11.4954558556744
20
1.60041915977814
30
0
0
SPLINE
5
FF
100
AcDbEntity
8
1
62
256
6
ByLayer
370
18
48
1
60
0
100
AcDbSpline
70
4
71
3
72
12
73
8
40
0
40
0
40
0
40
0
40
0.500000000000002
40
0.500000000000002
40
0.750000000000001
40
0.750000000000001
40
1
40
1
40
1
40
1
41
1
10
11.4954558556728
20
1.60041915977962
30
0
41
1
10
11.4876280933148
20
1.61242490129621
30
0
41
1
10
11.4816154896778
20
1.6247357996036
30
0
41
1
10
11.475808720994
20
1.64373203759564
30
0
41
1
10
11.4744085578297
20
1.65019088092566
30
0
41
1
10
11.4728304346437
20
1.66309102821396
30
0
41
1
10
11.4726452316004
20
1.6695246178862
30
0
41
1
10
11.4730785152236
20
1.67594157085895
30
0
0
SPLINE
5
100
100
AcDbEntity
8
1
62
256
6
ByLayer
370
18
48
1
60
0
100
AcDbSpline
70
4
71
3
72
37
73
33
40
0
40
0
40
0
40
0
40
0.0624999999999791
40
0.0624999999999791
40
0.0937499999999685
40
0.0937499999999685
40
0.109374999999963
40
0.109374999999963
40
0.124999999999958
40
0.124999999999958
40
0.187499999999937
40
0.187499999999937
40
0.218749999999927
40
0.218749999999927
40
0.249999999999916
40
0.249999999999916
40
0.312499999999904
40
0.312499999999904
40
0.374999999999892
40
0.374999999999892
40
0.406249999999891
40
0.406249999999891
40
0.43749999999989
40
0.499999999999897
40
0.499999999999897
40
0.624999999999923
40
0.624999999999923
40
0.749999999999949
40
0.749999999999949
40
0.874999999999974
40
0.874999999999974
40
1
40
1
40
1
40
1
41
1
10
11.4730785152236
20
1.67594157085895
30
0
41
1
10
11.4749178914035
20
1.70318282765999
30
0
41
1
10
11.481834469285
20
1.72883715495152
30
0
41
1
10
11.4986706478983
20
1.76532823192017
30
0
41
1
10
11.505365491619
20
1.7771585033681
30
0
41
1
10
11.5169308667148
20
1.79444028994735
30
0
41
1
10
11.5210438984527
20
1.80012556073794
30
0
41
1
10
11.5296523245788
20
1.8112144063989
30
0
41
1
10
11.5341592592154
20
1.81663630217761
30
0
41
1
10
11.5576322129343
20
1.84318138862437
30
0
41
1
10
11.5793828406398
20
1.862630069511
30
0
41
1
10
11.6154513856907
20
1.88978231098304
30
0
41
1
10
11.6280490086931
20
1.89848312788359
30
0
41
1
10
11.6539228991535
20
1.91506980267948
30
0
41
1
10
11.6672426391077
20
1.92298913069376
30
0
41
1
10
11.7081978635139
20
1.94578741581216
30
0
41
1
10
11.7368217439065
20
1.95971448648277
30
0
41
1
10
11.7961642419415
20
1.9856162292954
30
0
41
1
10
11.8268869526085
20
1.99758664313268
30
0
41
1
10
11.8742934679446
20
2.01435645948516
30
0
41
1
10
11.8903111766098
20
2.01974457200612
30
0
41
1
10
11.9225891934459
20
2.03010771238866
30
0
41
1
10
11.9714348744086
20
2.04505442720696
30
0
41
1
10
12.0214598438423
20
2.0583932490477
30
0
41
1
10
12.1228860959011
20
2.08328408083517
30
0
41
1
10
12.1924579727045
20
2.09753283198216
30
0
41
1
10
12.3335197030507
20
2.12226537637443
30
0
41
1
10
12.4051419915586
20
2.13277506735662
30
0
41
1
10
12.550313224985
20
2.15075558101566
30
0
41
1
10
12.6234677528323
20
2.15817429833624
30
0
41
1
10
12.7708990109827
20
2.17024570325137
30
0
41
1
10
12.8451757157926
20
2.17489741710784
30
0
41
1
10
12.9200579460332
20
2.17817869768132
30
0
0
SPLINE
5
101
100
AcDbEntity
8
1
62
256
6
ByLayer
370
18
48
1
60
0
100
AcDbSpline
70
4
71
3
72
10
73
6
40
0
40
0
40
0
40
0
40
0.5
40
0.5
40
1
40
1
40
1
40
1
41
1
10
13.1999999999204
20
-2.19607896494853
30
0
41
1
10
13.0961951858279
20
-2.16605340368918
30
0
41
1
10
12.9925034259897
20
-2.13289533098288
30
0
41
1
10
12.784690442993
20
-2.06112387426708
30
0
41
1
10
12.6804326644478
20
-2.02260020114568
30
0
41
1
10
12.576302135276
20
-1.98111701166286
30
0
0
SPLINE
5
102
100
AcDbEntity
8
1
62
256
6
ByLayer
370
18
48
1
60
0
100
AcDbSpline
70
4
71
3
72
8
73
4
40
0
40
0
40
0
40
0
40
1
40
1
40
1
40
1
41
1
10
17.7756087837228
20
-0.406718658535624
30
0
41
1
10
17.7733318885364
20
-0.403476258971438
30
0
41
1
10
17.771052677093
20
-0.400237004322605
30
0
41
1
10
17.7687711469093
20
-0.397000897958662
30
0
0
SPLINE
5
103
100
AcDbEntity
8
1
62
256
6
ByLayer
370
18
48
1
60
0
100
AcDbSpline
70
4
71
3
72
8
73
4
40
0
40
0
40
0
40
0
40
1
40
1
40
1
40
1
41
1
10
17.7687711469123
20
-0.397000897966876
30
0
41
1
10
17.7876056763745
20
-0.398697869068769
30
0
41
1
10
17.8064719962019
20
-0.399994453418429
30
0
41
1
10
17.8253714347742
20
-0.400873920611815
30
0
0
SPLINE
5
104
100
AcDbEntity
8
1
62
256
6
ByLayer
370
18
48
1
60
0
100
AcDbSpline
70
4
71
3
72
8
73
4
40
0
40
0
40
0
40
0
40
1
40
1
40
1
40
1
41
1
10
17.8028314861218
20
-0.297972231363531
30
0
41
1
10
17.8101880553907
20
-0.331984625055242
30
0
41
1
10
17.8176982703244
20
-0.366279485394074
30
0
41
1
10
17.8253714347742
20
-0.400873920611815
30
0
0
SPLINE
5
105
100
AcDbEntity
8
1
62
256
6
ByLayer
370
13
48
1
60
0
100
AcDbSpline
70
4
71
3
72
10
73
6
40
0
40
0
40
0
40
0
40
0.491482727406491
40
0.785539745619493
40
1
40
1
40
1
40
1
41
1
10
17.8028314856622
20
-0.297972231943078
30
0
41
1
10
17.4685543237748
20
-0.0428662258797488
30
0
41
1
10
16.9342771618874
20
0.372092653123247
30
0
41
1
10
16.2541369590948
20
0.872160501104958
30
0
41
1
10
15.9082739181894
20
1.10546937111349
30
0
41
1
10
15.7624108772841
20
1.19888239800443
30
0
0
SPLINE
5
106
100
AcDbEntity
8
1
62
256
6
ByLayer
370
18
48
1
60
0
100
AcDbSpline
70
4
71
3
72
8
73
4
40
0
40
0
40
0
40
0
40
1
40
1
40
1
40
1
41
1
10
17.8303171243296
20
-0.875404482985488
30
0
41
1
10
17.8444989979349
20
-0.959804911924522
30
0
41
1
10
17.8600409698448
20
-1.04365113370383
30
0
41
1
10
17.8773358328243
20
-1.12665632559489
30
0
0
SPLINE
5
107
100
AcDbEntity
8
1
62
256
6
ByLayer
370
18
48
1
60
0
100
AcDbSpline
70
4
71
3
72
8
73
4
40
0
40
0
40
0
40
0
40
1
40
1
40
1
40
1
41
1
10
17.7756087837135
20
-0.406718658536221
30
0
41
1
10
17.7967384081604
20
-0.563298775635786
30
0
41
1
10
17.8145991559276
20
-0.719519229807588
30
0
41
1
10
17.8303171243278
20
-0.875404482985772
30
0
0
SPLINE
5
108
100
AcDbEntity
8
1
62
256
6
ByLayer
370
18
48
1
60
0
100
AcDbSpline
70
4
71
3
72
35
73
31
40
0
40
0
40
0
40
0
40
0.125000000000006
40
0.125000000000006
40
0.156250000000006
40
0.156250000000006
40
0.187500000000007
40
0.250000000000007
40
0.250000000000007
40
0.312500000000007
40
0.312500000000007
40
0.375000000000008
40
0.375000000000008
40
0.437500000000008
40
0.437500000000008
40
0.468750000000008
40
0.468750000000008
40
0.500000000000008
40
0.500000000000008
40
0.625000000000006
40
0.625000000000006
40
0.750000000000003
40
0.750000000000003
40
0.781250000000002
40
0.781250000000002
40
0.812500000000002
40
0.812500000000002
40
0.875
40
0.875
40
1
40
1
40
1
40
1
41
1
10
17.7756087837285
20
-0.406718658536789
30
0
41
1
10
17.5840776664814
20
-0.250997309494323
30
0
41
1
10
17.3931547672086
20
-0.092832696306516
30
0
41
1
10
17.1533505750689
20
0.105540313246394
30
0
41
1
10
17.1052621532985
20
0.145303651370654
30
0
41
1
10
17.0093810970955
20
0.22444288197363
30
0
41
1
10
16.8659378126884
20
0.342624467243383
30
0
41
1
10
16.7234056648897
20
0.458997157677288
30
0
41
1
10
16.5337476241629
20
0.612101857144324
30
0
41
1
10
16.4391152236628
20
0.687627057967831
30
0
41
1
10
16.2498697064584
20
0.836124534350262
30
0
41
1
10
16.1552409723037
20
0.909091258117428
30
0
41
1
10
15.9655190668365
20
1.05193915685851
30
0
41
1
10
15.8704319853663
20
1.12182257908569
30
0
41
1
10
15.7271279368193
20
1.22392400183972
30
0
41
1
10
15.679246603881
20
1.25750370837565
30
0
41
1
10
15.5831943390593
20
1.32369080645842
30
0
41
1
10
15.5351943827779
20
1.35617782186762
30
0
41
1
10
15.2959058140714
20
1.5150760901779
30
0
41
1
10
15.1061533464496
20
1.63135173561091
30
0
41
1
10
14.7272718020868
20
1.84053076374741
30
0
41
1
10
14.5381110580183
20
1.93346743362523
30
0
41
1
10
14.2999447164526
20
2.03307838839265
30
0
41
1
10
14.2522241022979
20
2.05217175605955
30
0
41
1
10
14.1565522534397
20
2.08864507498302
30
0
41
1
10
14.1085342114007
20
2.10604625552972
30
0
41
1
10
13.9647945829732
20
2.15533876828306
30
0
41
1
10
13.8692541677962
20
2.18438163360366
30
0
41
1
10
13.5828267461607
20
2.25985634683877
30
0
41
1
10
13.3921195712695
20
2.29465429356247
30
0
41
1
10
13.2000000000001
20
2.31319901067292
30
0
0
SPLINE
5
109
100
AcDbEntity
8
1
62
256
6
ByLayer
370
18
48
1
60
0
100
AcDbSpline
70
4
71
3
72
8
73
4
40
0
40
0
40
0
40
0
40
1
40
1
40
1
40
1
41
1
10
13.2000000000001
20
2.31319901067292
30
0
41
1
10
13.1080127663558
20
2.32028428371831
30
0
41
1
10
13.01692951744
20
2.32487704044513
30
0
41
1
10
12.9268233413019
20
2.32677575847128
30
0
0
SPLINE
5
10A
100
AcDbEntity
8
1
62
256
6
ByLayer
370
18
48
1
60
0
100
AcDbSpline
70
4
71
3
72
27
73
23
40
0
40
0
40
0
40
0
40
0.0499828084509631
40
0.0999472496660527
40
0.149897156159042
40
0.199836247019283
40
0.249768128717048
40
0.299696296014742
40
0.349624132980765
40
0.39955491410168
40
0.449491805488914
40
0.499437856969879
40
0.549395927181935
40
0.599368763655865
40
0.649359074309042
40
0.699369528812391
40
0.749402758871068
40
0.799461358354126
40
0.849547883288029
40
0.899664851729022
40
0.949814743527769
40
1
40
1
40
1
40
1
41
1
10
12.9268233455647
20
2.32677575895477
30
0
41
1
10
12.9215653099931
20
2.32622608926639
30
0
41
1
10
12.9110511710259
20
2.32512695187734
30
0
41
1
10
12.8954131094885
20
2.32385689234192
30
0
41
1
10
12.8798768283732
20
2.32286121423567
30
0
41
1
10
12.8644515950226
20
2.32216456267929
30
0
41
1
10
12.8491349139511
20
2.32175691881068
30
0
41
1
10
12.8339274470785
20
2.32163750369958
30
0
41
1
10
12.8188290174488
20
2.32180302001098
30
0
41
1
10
12.803839678282
20
2.32225080502951
30
0
41
1
10
12.7889594321724
20
2.32297798270315
30
0
41
1
10
12.7741882965947
20
2.32398171044531
30
0
41
1
10
12.7595263949767
20
2.32525900413117
30
0
41
1
10
12.7449739040397
20
2.32680684794928
30
0
41
1
10
12.7305309809443
20
2.32862223118417
30
0
41
1
10
12.716197793901
20
2.33070218418985
30
0
41
1
10
12.7019744285503
20
2.33304360060657
30
0
41
1
10
12.6878612276853
20
2.33564391073787
30
0
41
1
10
12.6738575279775
20
2.33849856131559
30
0
41
1
10
12.659966380055
20
2.34161042795293
30
0
41
1
10
12.6461769190292
20
2.34495465247653
30
0
41
1
10
12.6370824748109
20
2.347390654355
30
0
41
1
10
12.6325336499631
20
2.34860908459751
30
0
0
SPLINE
5
10B
100
AcDbEntity
8
1
62
256
6
ByLayer
370
18
48
1
60
0
100
AcDbSpline
70
4
71
3
72
8
73
4
40
0
40
0
40
0
40
0
40
1
40
1
40
1
40
1
41
1
10
17.839964288099
20
-1.1269517365275
30
0
41
1
10
17.8524112337501
20
-1.12682568093663
30
0
41
1
10
17.8648684791464
20
-1.12672738577035
30
0
41
1
10
17.8773358328098
20
-1.12665632559569
30
0
0
SPLINE
5
10C
100
AcDbEntity
8
1
62
256
6
ByLayer
370
18
48
1
60
0
100
AcDbSpline
70
4
71
3
72
8
73
4
40
0
40
0
40
0
40
0
40
1
40
1
40
1
40
1
41
1
10
15.9763075196141
20
0.389389718189449
30
0
41
1
10
15.965104538768
20
0.398143675291152
30
0
41
1
10
15.9539015579219
20
0.406887757348983
30
0
41
1
10
15.9426985770758
20
0.415621316377695
30
0
0
SPLINE
5
10D
100
AcDbEntity
8
1
62
256
6
ByLayer
370
13
48
1
60
0
100
AcDbSpline
70
4
71
3
72
11
73
7
40
0
40
0
40
0
40
0
40
0.124949664560814
40
0.343712248420611
40
0.562474832280407
40
1
40
1
40
1
40
1
41
1
10
15.9426993657404
20
0.415620701554815
30
0
41
1
10
15.8284662438269
20
0.504673944025029
30
0
41
1
10
15.5142331219134
20
0.746632453530083
30
0
41
1
10
15
20
1.1205351829436
30
0
41
1
10
14.1999999999999
20
1.63641808396906
30
0
41
1
10
13.6
20
1.9249034209976
30
0
41
1
10
13.2
20
2.05123056972249
30
0
0
SPLINE
5
10E
100
AcDbEntity
8
1
62
256
6
ByLayer
370
18
48
1
60
0
100
AcDbSpline
70
4
71
3
72
8
73
4
40
0
40
0
40
0
40
0
40
1
40
1
40
1
40
1
41
1
10
17.8002341761069
20
-1.12400712318416
30
0
41
1
10
17.8134768681274
20
-1.1249604113556
30
0
41
1
10
17.8267205301881
20
-1.12594203987356
30
0
41
1
10
17.839964287731
20
-1.12695174019933
30
0
0
SPLINE
5
10F
100
AcDbEntity
8
1
62
256
6
ByLayer
370
18
48
1
60
0
100
AcDbSpline
70
4
71
3
72
12
73
8
40
0
40
0
40
0
40
0
40
0.740946510798852
40
0.740946510798852
40
0.926183138498565
40
0.926183138498565
40
1
40
1
40
1
40
1
41
1
10
13.2000000000001
20
-2.19699589730214
30
0
41
1
10
13.3916120249476
20
-2.2520037434833
30
0
41
1
10
13.5826476871283
20
-2.29618710252146
30
0
41
1
10
13.8218545371398
20
-2.33739606137249
30
0
41
1
10
13.8697579468284
20
-2.34494110384543
30
0
41
1
10
13.9366585698173
20
-2.35447896260942
30
0
41
1
10
13.9557063005455
20
-2.35708111370735
30
0
41
1
10
13.9747395668363
20
-2.35956786300088
30
0
0
SPLINE
5
110
100
AcDbEntity
8
1
62
256
6
ByLayer
370
18
48
1
60
0
100
AcDbSpline
70
4
71
3
72
10
73
6
40
0
40
0
40
0
40
0
40
0.74125424195035
40
0.74125424195035
40
1
40
1
40
1
40
1
41
1
10
14.8067184054232
20
-2.39517827789604
30
0
41
1
10
14.8422382681412
20
-2.39356649010187
30
0
41
1
10
14.8777575990141
20
-2.39155490823507
30
0
41
1
10
14.9256832796032
20
-2.38830364384628
30
0
41
1
10
14.9380845604048
20
-2.38741388354046
30
0
41
1
10
14.9504867891789
20
-2.38647563011475
30
0
0
SPLINE
5
111
100
AcDbEntity
8
1
62
256
6
ByLayer
370
18
48
1
60
0
100
AcDbSpline
70
4
71
3
72
14
73
10
40
0
40
0
40
0
40
0
40
0.0835847395455442
40
0.215806886241447
40
0.480251179633254
40
0.612473326329157
40
0.74469547302506
40
0.876917619720964
40
1
40
1
40
1
40
1
41
1
10
12.5902871498191
20
-1.9696475955422
30
0
41
1
10
12.6701781770487
20
-2.00220503002578
30
0
41
1
10
12.8761976100388
20
-2.08187017646498
30
0
41
1
10
13.333188710611
20
-2.23277425234156
30
0
41
1
10
13.8356154016432
20
-2.34370180680196
30
0
41
1
10
14.3410583648412
20
-2.39559713848183
30
0
41
1
10
14.7226342823559
20
-2.4040945299555
30
0
41
1
10
15.0988500061689
20
-2.38191381501554
30
0
41
1
10
15.3495408871923
20
-2.34745023662202
30
0
41
1
10
15.4712084183088
20
-2.32613280833508
30
0
0
SPLINE
5
112
100
AcDbEntity
8
1
62
256
6
ByLayer
370
18
48
1
60
0
100
AcDbSpline
70
4
71
3
72
8
73
4
40
0
40
0
40
0
40
0
40
1
40
1
40
1
40
1
41
1
10
13.2
20
-2.19607896489467
30
0
41
1
10
13.2
20
-2.19638460856061
30
0
41
1
10
13.2
20
-2.19669025269641
30
0
41
1
10
13.2
20
-2.19699589730214
30
0
0
SPLINE
5
113
100
AcDbEntity
8
1
62
256
6
ByLayer
370
18
48
1
60
0
100
AcDbSpline
70
4
71
3
72
18
73
14
40
0
40
0
40
0
40
0
40
0.249999999999989
40
0.249999999999989
40
0.374999999999984
40
0.374999999999984
40
0.499999999999978
40
0.499999999999978
40
0.749999999999979
40
0.749999999999979
40
0.87499999999999
40
0.87499999999999
40
1
40
1
40
1
40
1
41
1
10
12.6318447644445
20
2.34901849893669
30
0
41
1
10
12.6257873542565
20
2.35783370140982
30
0
41
1
10
12.6237109161685
20
2.36550034720787
30
0
41
1
10
12.6275129956121
20
2.37529039788393
30
0
41
1
10
12.6299382356964
20
2.37826861745233
30
0
41
1
10
12.6373471421623
20
2.38365529753202
30
0
41
1
10
12.6422648332675
20
2.38601186614073
30
0
41
1
10
12.6605831724853
20
2.3921533136926
30
0
41
1
10
12.677543529615
20
2.39502305846006
30
0
41
1
10
12.710234430685
20
2.39787535994853
30
0
41
1
10
12.7221909411607
20
2.39856914482098
30
0
41
1
10
12.7478699926158
20
2.39953875174493
30
0
41
1
10
12.7616208736735
20
2.39981695051847
30
0
41
1
10
12.77621819558
20
2.39993417135239
30
0
0
SPLINE
5
114
100
AcDbEntity
8
1
62
256
6
ByLayer
370
18
48
1
60
0
100
AcDbSpline
70
4
71
3
72
14
73
10
40
0
40
0
40
0
40
0
40
0.204746131275641
40
0.204746131275641
40
0.337288442729699
40
0.337288442729699
40
0.469830754183758
40
0.469830754183758
40
1
40
1
40
1
40
1
41
1
10
11.8376930093655
20
-2.35669248806494
30
0
41
1
10
11.8223202146843
20
-2.36650036092737
30
0
41
1
10
11.8064927054681
20
-2.37462984807274
30
0
41
1
10
11.7795605795502
20
-2.38528799131436
30
0
41
1
10
11.7687440482492
20
-2.38878243428977
30
0
41
1
10
11.7467321606337
20
-2.39435852539157
30
0
41
1
10
11.7355300624252
20
-2.39644487909524
30
0
41
1
10
11.678434218028
20
-2.40344460770126
30
0
41
1
10
11.6293586110164
20
-2.39809463389676
30
0
41
1
10
11.5750132477966
20
-2.38245199702848
30
0
0
SPLINE
5
115
100
AcDbEntity
8
1
62
256
6
ByLayer
370
18
48
1
60
0
100
AcDbSpline
70
4
71
3
72
12
73
8
40
0
40
0
40
0
40
0
40
0.499999999999993
40
0.499999999999993
40
0.749999999999996
40
0.749999999999996
40
1
40
1
40
1
40
1
41
1
10
11.5750132477966
20
-2.38245199702848
30
0
41
1
10
11.5652686312918
20
-2.37964713036877
30
0
41
1
10
11.5586462201459
20
-2.37641526100404
30
0
41
1
10
11.5549665568891
20
-2.37074821146885
30
0
41
1
10
11.5548345848404
20
-2.36876141273555
30
0
41
1
10
11.5568414287859
20
-2.36464543638596
30
0
41
1
10
11.5589748662
20
-2.36250929515012
30
0
41
1
10
11.5623006083562
20
-2.36030059562782
30
0
0
SPLINE
5
116
100
AcDbEntity
8
1
62
256
6
ByLayer
370
18
48
1
60
0
100
AcDbSpline
70
4
71
3
72
39
73
35
40
0
40
0
40
0
40
0
40
0.0625000000000147
40
0.0625000000000147
40
0.0937500000000221
40
0.0937500000000221
40
0.12500000000003
40
0.12500000000003
40
0.187500000000036
40
0.187500000000036
40
0.250000000000043
40
0.250000000000043
40
0.281250000000042
40
0.281250000000042
40
0.31250000000004
40
0.31250000000004
40
0.375000000000036
40
0.375000000000036
40
0.437500000000033
40
0.437500000000033
40
0.500000000000029
40
0.500000000000029
40
0.562500000000025
40
0.562500000000025
40
0.625000000000022
40
0.687500000000018
40
0.687500000000018
40
0.750000000000014
40
0.750000000000014
40
0.812500000000011
40
0.812500000000011
40
0.875000000000007
40
0.875000000000007
40
1
40
1
40
1
40
1
41
1
10
11.5623006083562
20
-2.36030059562782
30
0
41
1
10
11.5712772492195
20
-2.35433900827238
30
0
41
1
10
11.5838048017507
20
-2.3480453459382
30
0
41
1
10
11.6070221521668
20
-2.33829801119825
30
0
41
1
10
11.6155036687246
20
-2.33499711872321
30
0
41
1
10
11.6338473238647
20
-2.3283177593901
30
0
41
1
10
11.6437572416456
20
-2.3249240971397
30
0
41
1
10
11.6750820608026
20
-2.31477483316618
30
0
41
1
10
11.6978803887361
20
-2.30810684951354
30
0
41
1
10
11.7464570535972
20
-2.29504852977953
30
0
41
1
10
11.7722428185383
20
-2.2886577317696
30
0
41
1
10
11.8127894959848
20
-2.27932904077031
30
0
41
1
10
11.8266457331613
20
-2.27625669256008
30
0
41
1
10
11.8547479829725
20
-2.27024595406488
30
0
41
1
10
11.8690046260762
20
-2.26730463267438
30
0
41
1
10
11.9123361048831
20
-2.25867433637305
30
0
41
1
10
11.9419697135584
20
-2.25317875282701
30
0
41
1
10
12.0025233352309
20
-2.24271924628704
30
0
41
1
10
12.033422493319
20
-2.23776071171864
30
0
41
1
10
12.0959321555253
20
-2.22845816088784
30
0
41
1
10
12.1275991009361
20
-2.22410429552124
30
0
41
1
10
12.1916819420371
20
-2.21600138831244
30
0
41
1
10
12.2240695594477
20
-2.21225715439928
30
0
41
1
10
12.2891701136873
20
-2.20542520677654
30
0
41
1
10
12.3546878349609
20
-2.19923792343599
30
0
41
1
10
12.4209945855683
20
-2.19435696473246
30
0
41
1
10
12.4876843967377
20
-2.19014463243553
30
0
41
1
10
12.5212175585807
20
-2.18837414217759
30
0
41
1
10
12.5883361194222
20
-2.18553230717455
30
0
41
1
10
12.6219624247323
20
-2.18445816892401
30
0
41
1
10
12.6893482337807
20
-2.18301409824562
30
0
41
1
10
12.7231419173166
20
-2.18264447460405
30
0
41
1
10
12.8244021318061
20
-2.18261140331197
30
0
41
1
10
12.8917670346747
20
-2.18401997816372
30
0
41
1
10
12.9589849242146
20
-2.18686958019833
30
0
0
SPLINE
5
117
100
AcDbEntity
8
1
62
256
6
ByLayer
370
18
48
1
60
0
100
AcDbSpline
70
4
71
3
72
34
73
30
40
0
40
0
40
0
40
0
40
0.125000000000003
40
0.125000000000003
40
0.156250000000004
40
0.156250000000004
40
0.187500000000005
40
0.250000000000004
40
0.250000000000004
40
0.375000000000002
40
0.375000000000002
40
0.406250000000002
40
0.406250000000002
40
0.437500000000001
40
0.437500000000001
40
0.499999999999998
40
0.499999999999998
40
0.624999999999991
40
0.624999999999991
40
0.687499999999986
40
0.687499999999986
40
0.718749999999985
40
0.734374999999984
40
0.734374999999984
40
0.749999999999983
40
0.749999999999983
40
0.874999999999992
40
0.874999999999992
40
1
40
1
40
1
40
1
41
1
10
13.2000000000001
20
2.19035855559309
30
0
41
1
10
13.3931838487065
20
2.12293000808288
30
0
41
1
10
13.5853802075907
20
2.04030198091746
30
0
41
1
10
13.8264171164594
20
1.91926125421435
30
0
41
1
10
13.8747073759709
20
1.89414008029857
30
0
41
1
10
13.9709650637452
20
1.84240313544623
30
0
41
1
10
14.1150161808505
20
1.76248475069065
30
0
41
1
10
14.2583318657815
20
1.67591139164196
30
0
41
1
10
14.5446923750451
20
1.49459739216448
30
0
41
1
10
14.7352499327958
20
1.36284149719617
30
0
41
1
10
14.9752703492775
20
1.18662383418101
30
0
41
1
10
15.0233648522481
20
1.15080216866093
30
0
41
1
10
15.1197883140417
20
1.07804483955647
30
0
41
1
10
15.1681986880876
20
1.04104552535554
30
0
41
1
10
15.3129804392543
20
0.929117842534538
30
0
41
1
10
15.4090462297995
20
0.853163474903056
30
0
41
1
10
15.6964119263663
20
0.621959088831801
30
0
41
1
10
15.88680949592
20
0.4633083717207
30
0
41
1
10
16.1728777111888
20
0.221138324043437
30
0
41
1
10
16.2683203975391
20
0.139724265279256
30
0
41
1
10
16.4119503998741
20
0.0169473395265811
30
0
41
1
10
16.4838821759853
20
-0.0446045976893572
30
0
41
1
10
16.556056486185
20
-0.106326290581905
30
0
41
1
10
16.6042345075448
20
-0.147503097119113
30
0
41
1
10
16.6283750109978
20
-0.168123590391332
30
0
41
1
10
16.8452698073962
20
-0.353215964862841
30
0
41
1
10
17.0360849233924
20
-0.514763715499356
30
0
41
1
10
17.4175285202913
20
-0.827779827467225
30
0
41
1
10
17.6081801009558
20
-0.979217193586607
30
0
41
1
10
17.800234176106
20
-1.12400712318447
30
0
0
SPLINE
5
118
100
AcDbEntity
8
1
62
256
6
ByLayer
370
18
48
1
60
0
100
AcDbSpline
70
4
71
3
72
25
73
21
40
0
40
0
40
0
40
0
40
0.0312807576927122
40
0.0695080184139386
40
0.107735279135165
40
0.260644322020071
40
0.337098843462524
40
0.413553364904976
40
0.451780625626203
40
0.490007886347429
40
0.528235147068656
40
0.566462407789882
40
0.604689668511109
40
0.642916929232335
40
0.719371450674788
40
0.757598711396014
40
0.795825972117241
40
0.872280493559693
40
0.948735015002146
40
1
40
1
40
1
40
1
41
1
10
12.6325336499629
20
2.34860908459754
30
0
41
1
10
12.6835020714999
20
2.33968194451757
30
0
41
1
10
12.7965643812386
20
2.31729715537025
30
0
41
1
10
12.9711046467633
20
2.27408072076111
30
0
41
1
10
13.3415072968942
20
2.16263033940655
30
0
41
1
10
13.7714602784402
20
1.97706127714224
30
0
41
1
10
14.2662278294736
20
1.69721367732703
30
0
41
1
10
14.578280010974
20
1.49581700341889
30
0
41
1
10
14.830516492702
20
1.31992651322966
30
0
41
1
10
15.021124384225
20
1.18091083368958
30
0
41
1
10
15.2134750003536
20
1.03508368139643
30
0
41
1
10
15.4078265138304
20
0.882841958257444
30
0
41
1
10
15.6044721531022
20
0.724584248366369
30
0
41
1
10
15.8698897220205
20
0.506038483084637
30
0
41
1
10
16.140974675678
20
0.27711045373303
30
0
41
1
10
16.4186672400011
20
0.0401908633883181
30
0
41
1
10
16.7011653950304
20
-0.201339651740653
30
0
41
1
10
17.0640703572245
20
-0.509708100682076
30
0
41
1
10
17.4687446652797
20
-0.841099165161381
30
0
41
1
10
17.7323196810428
20
-1.04568206258784
30
0
41
1
10
17.8399642884652
20
-1.12695173279525
30
0
0
SPLINE
5
119
100
AcDbEntity
8
1
62
256
6
ByLayer
370
13
48
1
60
0
100
AcDbSpline
70
4
71
3
72
8
73
4
40
0
40
0
40
0
40
0
40
1
40
1
40
1
40
1
41
1
10
12.6170088117113
20
2.34503087079597
30
0
41
1
10
12.6219541310432
20
2.34638481605938
30
0
41
1
10
12.6268994503752
20
2.34771403916187
30
0
41
1
10
12.631844769707
20
2.34901849806457
30
0
0
SPLINE
5
11A
100
AcDbEntity
8
1
62
256
6
ByLayer
370
18
48
1
60
0
100
AcDbSpline
70
4
71
3
72
14
73
10
40
0
40
0
40
0
40
0
40
0.25
40
0.25
40
0.5
40
0.5
40
0.75
40
0.75
40
1
40
1
40
1
40
1
41
1
10
13.1999999999999
20
2.19246962387592
30
0
41
1
10
13.1512654217807
20
2.20915026095506
30
0
41
1
10
13.1024181288099
20
2.22479620858874
30
0
41
1
10
13.0048991711684
20
2.25412082585686
30
0
41
1
10
12.9562369700045
20
2.26781857260798
30
0
41
1
10
12.8591654449284
20
2.29329225354141
30
0
41
1
10
12.8107285838516
20
2.30505612286274
30
0
41
1
10
12.7139229358729
20
2.32657781785352
30
0
41
1
10
12.6655479762842
20
2.33633115726252
30
0
41
1
10
12.6170057696231
20
2.34502995738757
30
0
0
SPLINE
5
11B
100
AcDbEntity
8
1
62
256
6
ByLayer
370
18
48
1
60
0
100
AcDbSpline
70
4
71
3
72
8
73
4
40
0
40
0
40
0
40
0
40
1
40
1
40
1
40
1
41
1
10
13.2
20
2.19246962387595
30
0
41
1
10
13.2
20
2.19176592724716
30
0
41
1
10
13.2
20
2.19106223781952
30
0
41
1
10
13.2
20
2.19035855559309
30
0
0
SPLINE
5
11C
100
AcDbEntity
8
1
62
256
6
ByLayer
370
18
48
1
60
0
100
AcDbSpline
70
4
71
2
72
6
73
3
40
0
40
0
40
0
40
1
40
1
40
1
41
1
10
15.9948630504131
20
-2.11059588695548
30
0
41
1
10
16.7731961339885
20
-2.10182311440516
30
0
41
1
10
17.5458569402238
20
-2.00238804768816
30
0
0
SPLINE
5
11D
100
AcDbEntity
8
1
62
256
6
ByLayer
370
18
48
1
60
0
100
AcDbSpline
70
4
71
3
72
12
73
8
40
0
40
0
40
0
40
0
40
0.181900563710723
40
0.321198053625586
40
0.484469618786162
40
0.71067733760479
40
1
40
1
40
1
40
1
41
1
10
16.9546210119919
20
1.40057714989092
30
0
41
1
10
16.8409140924325
20
1.42746209189099
30
0
41
1
10
16.6403978707174
20
1.47607252063185
30
0
41
1
10
16.3386592672122
20
1.55287760581845
30
0
41
1
10
16.010065917549
20
1.63874024752496
30
0
41
1
10
15.5888263056906
20
1.75243349128593
30
0
41
1
10
15.2693525414681
20
1.83881607519678
30
0
41
1
10
15.0902133006025
20
1.88763802489029
30
0
0
SPLINE
5
11E
100
AcDbEntity
8
1
62
256
6
ByLayer
370
18
48
1
60
0
100
AcDbSpline
70
4
71
2
72
6
73
3
40
0
40
0
40
0
40
1
40
1
40
1
41
1
10
14.5898710718197
20
1.9924410518592
30
0
41
1
10
14.4328822248252
20
2.0160367784535
30
0
41
1
10
14.2767983880888
20
2.03485586006843
30
0
0
SPLINE
5
11F
100
AcDbEntity
8
1
62
256
6
ByLayer
370
18
48
1
60
0
100
AcDbSpline
70
4
71
2
72
6
73
3
40
0
40
0
40
0
40
1
40
1
40
1
41
1
10
13.7251618296135
20
2.08664030046958
30
0
41
1
10
13.4821084309924
20
2.10290063292334
30
0
41
1
10
13.2412954716568
20
2.10733592475609
30
0
0
LINE
5
77
100
AcDbEntity
8
80
62
256
6
ByLayer
370
18
48
1
60
0
100
AcDbLine
10
0
20
0
30
0
11
-5
21
0
31
0
39
0
210
0
220
0
230
1
0
LINE
5
78
100
AcDbEntity
8
SK4
62
256
6
ByLayer
370
18
48
0.05
60
0
100
AcDbLine
10
-36
20
0
30
0
11
18
21
0
31
0
39
0
210
0
220
0
230
1
0
LINE
5
7A
100
AcDbEntity
8
81
62
256
6
ByLayer
370
18
48
1
60
0
100
AcDbLine
10
18
20
0
30
0
11
23
21
0
31
0
39
0
210
0
220
0
230
1
0
LINE
5
7B
100
AcDbEntity
8
4
62
256
6
ByLayer
370
18
48
0.05
60
0
100
AcDbLine
10
0
20
0
30
0
11
18
21
0
31
0
39
0
210
0
220
0
230
1
0
LINE
5
7D
100
AcDbEntity
8
1
62
256
6
ByLayer
370
18
48
1
60
0
100
AcDbLine
10
0
20
3
30
0
11
0
21
0
31
0
39
0
210
0
220
0
230
1
0
LINE
5
7E
100
AcDbEntity
8
1
62
256
6
ByLayer
370
18
48
1
60
0
100
AcDbLine
10
0
20
0
30
0
11
0
21
-3
31
0
39
0
210
0
220
0
230
1
0
LINE
5
7F
100
AcDbEntity
8
1
62
256
6
ByLayer
370
18
48
1
60
0
100
AcDbLine
10
17.996678
20
-1.322828
30
0
11
17.94449
21
-1.582876
31
0
39
0
210
0
220
0
230
1
0
LINE
5
80
100
AcDbEntity
8
1
62
256
6
ByLayer
370
18
48
1
60
0
100
AcDbLine
10
17.986245
20
-1.08586
30
0
11
17.996678
21
-1.322828
31
0
39
0
210
0
220
0
230
1
0
LINE
5
81
100
AcDbEntity
8
1
62
256
6
ByLayer
370
18
48
1
60
0
100
AcDbLine
10
17.879849
20
2.384471
30
0
11
17.996678
21
2.269011
31
0
39
0
210
0
220
0
230
1
0
LINE
5
82
100
AcDbEntity
8
1
62
256
6
ByLayer
370
18
48
1
60
0
100
AcDbLine
10
17.900384
20
-0.087994
30
0
11
17.933919
21
-0.093006
31
0
39
0
210
0
220
0
230
1
0
LINE
5
83
100
AcDbEntity
8
1
62
256
6
ByLayer
370
18
48
1
60
0
100
AcDbLine
10
17.933919
20
-0.093006
30
0
11
17.996678
21
2.269011
31
0
39
0
210
0
220
0
230
1
0
LINE
5
84
100
AcDbEntity
8
1
62
256
6
ByLayer
370
18
48
1
60
0
100
AcDbLine
10
17.94449
20
-1.582876
30
0
11
17.835456
21
-1.811211
31
0
39
0
210
0
220
0
230
1
0
LINE
5
85
100
AcDbEntity
8
1
62
256
6
ByLayer
370
18
48
1
60
0
100
AcDbLine
10
17.94449
20
-1.582876
30
0
11
17.923924
21
-1.109217
31
0
39
0
210
0
220
0
230
1
0
LINE
5
86
100
AcDbEntity
8
1
62
256
6
ByLayer
370
13
48
1
60
0
100
AcDbLine
10
11.575013
20
-2.382452
30
0
11
11.68178
21
-2.314629
31
0
39
0
210
0
220
0
230
1
0
LINE
5
87
100
AcDbEntity
8
1
62
256
6
ByLayer
370
18
48
1
60
0
100
AcDbLine
10
17.424753
20
-1.756071
30
0
11
17.782847
21
-1.110278
31
0
39
0
210
0
220
0
230
1
0
LINE
5
88
100
AcDbEntity
8
1
62
256
6
ByLayer
370
13
48
1
60
0
100
AcDbLine
10
17.149656
20
-0.618694
30
0
11
16.586093
21
-0.984442
31
0
39
0
210
0
220
0
230
1
0
LINE
5
89
100
AcDbEntity
8
1
62
256
6
ByLayer
370
13
48
1
60
0
100
AcDbLine
10
12.920058
20
2.178179
30
0
11
13.2
21
2.051231
31
0
39
0
210
0
220
0
230
1
0
LINE
5
8A
100
AcDbEntity
8
1
62
256
6
ByLayer
370
18
48
1
60
0
100
AcDbLine
10
13.2
20
0.827442
30
0
11
13.2
21
0.892817
31
0
39
0
210
0
220
0
230
1
0
LINE
5
8B
100
AcDbEntity
8
1
62
256
6
ByLayer
370
13
48
1
60
0
100
AcDbLine
10
11.473079
20
1.675942
30
0
11
13.2
21
0.892817
31
0
39
0
210
0
220
0
230
1
0
LINE
5
8C
100
AcDbEntity
8
1
62
256
6
ByLayer
370
18
48
1
60
0
100
AcDbLine
10
17.960756
20
-0.465014
30
0
11
17.996678
21
-1.081958
31
0
39
0
210
0
220
0
230
1
0
LINE
5
8D
100
AcDbEntity
8
1
62
256
6
ByLayer
370
18
48
1
60
0
100
AcDbLine
10
17.912221
20
-0.118617
30
0
11
17.960756
21
-0.465014
31
0
39
0
210
0
220
0
230
1
0
LINE
5
8E
100
AcDbEntity
8
1
62
256
6
ByLayer
370
18
48
1
60
0
100
AcDbLine
10
17.94449
20
-0.6763
30
0
11
17.912221
21
-0.118617
31
0
39
0
210
0
220
0
230
1
0
LINE
5
8F
100
AcDbEntity
8
1
62
256
6
ByLayer
370
18
48
1
60
0
100
AcDbLine
10
17.412088
20
1.175154
30
0
11
17.912221
21
-0.118617
31
0
39
0
210
0
220
0
230
1
0
LINE
5
90
100
AcDbEntity
8
1
62
256
6
ByLayer
370
18
48
1
60
0
100
AcDbLine
10
13.2
20
0.892817
30
0
11
13.2
21
2.051231
31
0
39
0
210
0
220
0
230
1
0
LINE
5
91
100
AcDbEntity
8
1
62
256
6
ByLayer
370
18
48
1
60
0
100
AcDbLine
10
13.2
20
-1.560116
30
0
11
13.2
21
-1.753375
31
0
39
0
210
0
220
0
230
1
0
LINE
5
92
100
AcDbEntity
8
1
62
256
6
ByLayer
370
18
48
1
60
0
100
AcDbLine
10
17.877336
20
-1.126656
30
0
11
17.996678
21
-1.081958
31
0
39
0
210
0
220
0
230
1
0
LINE
5
93
100
AcDbEntity
8
1
62
256
6
ByLayer
370
18
48
1
60
0
100
AcDbLine
10
17.996678
20
-1.081958
30
0
11
17.94449
21
-0.6763
31
0
39
0
210
0
220
0
230
1
0
LINE
5
94
100
AcDbEntity
8
1
62
256
6
ByLayer
370
18
48
1
60
0
100
AcDbLine
10
17.94449
20
-0.6763
30
0
11
17.825371
21
-0.400874
31
0
39
0
210
0
220
0
230
1
0
LINE
5
95
100
AcDbEntity
8
1
62
256
6
ByLayer
370
13
48
1
60
0
100
AcDbLine
10
11.373961
20
-0.732044
30
0
11
13.2
21
-1.560116
31
0
39
0
210
0
220
0
230
1
0
LINE
5
96
100
AcDbEntity
8
1
62
256
6
ByLayer
370
18
48
1
60
0
100
AcDbLine
10
13.2
20
-1.560116
30
0
11
13.2
21
-1.458149
31
0
39
0
210
0
220
0
230
1
0
LINE
5
97
100
AcDbEntity
8
1
62
256
6
ByLayer
370
18
48
1
60
0
100
AcDbLine
10
13.2
20
-0.712328
30
0
11
13.2
21
0.827442
31
0
39
0
210
0
220
0
230
1
0
LINE
5
98
100
AcDbEntity
8
1
62
256
6
ByLayer
370
13
48
1
60
0
100
AcDbLine
10
11.495456
20
1.600419
30
0
11
13.2
21
0.827442
31
0
39
0
210
0
220
0
230
1
0
LINE
5
99
100
AcDbEntity
8
1
62
256
6
ByLayer
370
13
48
1
60
0
100
AcDbLine
10
11.371757
20
-0.629078
30
0
11
13.2
21
-1.458149
31
0
39
0
210
0
220
0
230
1
0
LINE
5
9A
100
AcDbEntity
8
1
62
256
6
ByLayer
370
18
48
1
60
0
100
AcDbLine
10
13.2
20
-1.458149
30
0
11
13.2
21
-0.712328
31
0
39
0
210
0
220
0
230
1
0
LINE
5
9B
100
AcDbEntity
8
1
62
256
6
ByLayer
370
18
48
1
60
0
100
AcDbLine
10
11.976639
20
-0.157558
30
0
11
13.2
21
-0.712328
31
0
39
0
210
0
220
0
230
1
0
LINE
5
9C
100
AcDbEntity
8
1
62
256
6
ByLayer
370
18
48
1
60
0
100
AcDbLine
10
13.2
20
2.190296
30
0
11
13.2
21
2.190359
31
0
39
0
210
0
220
0
230
1
0
LINE
5
9D
100
AcDbEntity
8
1
62
256
6
ByLayer
370
18
48
1
60
0
100
AcDbLine
10
13.2
20
2.190296
30
0
11
13.2
21
2.051231
31
0
39
0
210
0
220
0
230
1
0
LINE
5
9E
100
AcDbEntity
8
1
62
256
6
ByLayer
370
13
48
1
60
0
100
AcDbLine
10
5.397679
20
-2.4
30
0
11
5.397679
21
0
31
0
39
0
210
0
220
0
230
1
0
LINE
5
9F
100
AcDbEntity
8
1
62
256
6
ByLayer
370
13
48
1
60
0
100
AcDbLine
10
5.397679
20
0
30
0
11
5.397679
21
2.4
31
0
39
0
210
0
220
0
230
1
0
LINE
5
A0
100
AcDbEntity
8
1
62
256
6
ByLayer
370
13
48
1
60
0
100
AcDbLine
10
4.897679
20
2.533975
30
0
11
4.897679
21
0
31
0
39
0
210
0
220
0
230
1
0
LINE
5
A1
100
AcDbEntity
8
1
62
256
6
ByLayer
370
13
48
1
60
0
100
AcDbLine
10
4.897679
20
0
30
0
11
4.897679
21
-2.533975
31
0
39
0
210
0
220
0
230
1
0
LINE
5
A2
100
AcDbEntity
8
1
62
256
6
ByLayer
370
18
48
1
60
0
100
AcDbLine
10
4.090499
20
3
30
0
11
4.090499
21
0
31
0
39
0
210
0
220
0
230
1
0
LINE
5
A3
100
AcDbEntity
8
1
62
256
6
ByLayer
370
18
48
1
60
0
100
AcDbLine
10
4.090499
20
0
30
0
11
4.090499
21
-3
31
0
39
0
210
0
220
0
230
1
0
LINE
5
A4
100
AcDbEntity
8
SK1
62
256
6
ByLayer
370
18
48
1
60
0
100
AcDbLine
10
-36
20
-2.6
30
0
11
-36
21
2.6
31
0
39
0
210
0
220
0
230
1
0
LINE
5
A6
100
AcDbEntity
8
SK1
62
256
6
ByLayer
370
18
48
1
60
0
100
AcDbLine
10
0
20
3
30
0
11
0
21
0
31
0
39
0
210
0
220
0
230
1
0
LINE
5
A7
100
AcDbEntity
8
SK1
62
256
6
ByLayer
370
18
48
1
60
0
100
AcDbLine
10
0
20
0
30
0
11
0
21
-3
31
0
39
0
210
0
220
0
230
1
0
LINE
5
A8
100
AcDbEntity
8
SK1
62
256
6
ByLayer
370
18
48
1
60
0
100
AcDbLine
10
-35.6
20
3
30
0
11
-35.6
21
-3
31
0
39
0
210
0
220
0
230
1
0
LINE
5
A9
100
AcDbEntity
8
1
62
256
6
ByLayer
370
18
48
1
60
0
100
AcDbLine
10
4.090499
20
3
30
0
11
0
21
3
31
0
39
0
210
0
220
0
230
1
0
LINE
5
AA
100
AcDbEntity
8
1
62
256
6
ByLayer
370
18
48
1
60
0
100
AcDbLine
10
0
20
-3
30
0
11
4.090499
21
-3
31
0
39
0
210
0
220
0
230
1
0
LINE
5
AB
100
AcDbEntity
8
1
62
256
6
ByLayer
370
18
48
1
60
0
100
AcDbLine
10
11.839762
20
-2.355378
30
0
11
12.020866
21
-2.240333
31
0
39
0
210
0
220
0
230
1
0
LINE
5
AC
100
AcDbEntity
8
1
62
256
6
ByLayer
370
18
48
1
60
0
100
AcDbLine
10
12.752884
20
2.4
30
0
11
5.397679
21
2.4
31
0
39
0
210
0
220
0
230
1
0
LINE
5
AD
100
AcDbEntity
8
1
62
256
6
ByLayer
370
18
48
1
60
0
100
AcDbLine
10
5.397679
20
-2.4
30
0
11
11.68193
21
-2.4
31
0
39
0
210
0
220
0
230
1
0
LINE
5
AE
100
AcDbEntity
8
1
62
256
6
ByLayer
370
18
48
1
60
0
100
AcDbLine
10
4.897679
20
2.533975
30
0
11
4.090499
21
3
31
0
39
0
210
0
220
0
230
1
0
LINE
5
AF
100
AcDbEntity
8
1
62
256
6
ByLayer
370
18
48
1
60
0
100
AcDbLine
10
4.090499
20
-3
30
0
11
4.897679
21
-2.533975
31
0
39
0
210
0
220
0
230
1
0
LINE
5
B0
100
AcDbEntity
8
SK1
62
256
6
ByLayer
370
18
48
1
60
0
100
AcDbLine
10
-36
20
-2.6
30
0
11
-35.6
21
-3
31
0
39
0
210
0
220
0
230
1
0
LINE
5
B1
100
AcDbEntity
8
SK1
62
256
6
ByLayer
370
18
48
1
60
0
100
AcDbLine
10
-35.6
20
3
30
0
11
-36
21
2.6
31
0
39
0
210
0
220
0
230
1
0
LINE
5
B2
100
AcDbEntity
8
SK1
62
256
6
ByLayer
370
18
48
1
60
0
100
AcDbLine
10
0
20
3
30
0
11
-35.6
21
3
31
0
39
0
210
0
220
0
230
1
0
LINE
5
B3
100
AcDbEntity
8
SK1
62
256
6
ByLayer
370
18
48
1
60
0
100
AcDbLine
10
-35.6
20
-3
30
0
11
0
21
-3
31
0
39
0
210
0
220
0
230
1
0
LINE
5
B4
100
AcDbEntity
8
SK2
62
256
6
ByLayer
370
18
48
1
60
0
100
AcDbLine
10
-43.85
20
11.75
30
0
11
-43.85
21
-19.315466
31
0
39
0
210
0
220
0
230
1
0
LINE
5
B6
100
AcDbEntity
8
SK2
62
256
6
ByLayer
370
18
48
1
60
0
100
AcDbLine
10
-37.1875
20
3
30
0
11
-45.85
21
3
31
0
39
0
210
0
220
0
230
1
0
LINE
5
B7
100
AcDbEntity
8
SK2
62
256
6
ByLayer
370
18
48
1
60
0
100
AcDbLine
10
-37.1875
20
-3
30
0
11
-45.85
21
-3
31
0
39
0
210
0
220
0
230
1
0
LINE
5
B8
100
AcDbEntity
8
1
62
256
6
ByLayer
370
18
48
1
60
1
100
AcDbLine
10
-43.85
20
3
30
0
11
-44.310784
21
6.499998
31
0
39
0
210
0
220
0
230
1
0
LINE
5
B9
100
AcDbEntity
8
1
62
256
6
ByLayer
370
18
48
1
60
1
100
AcDbLine
10
-44.310784
20
6.499998
30
0
11
-43.389216
21
6.500002
31
0
39
0
210
0
220
0
230
1
0
LINE
5
BA
100
AcDbEntity
8
1
62
256
6
ByLayer
370
18
48
1
60
1
100
AcDbLine
10
-43.389216
20
6.500002
30
0
11
-43.85
21
3
31
0
39
0
210
0
220
0
230
1
0
LINE
5
BB
100
AcDbEntity
8
1
62
256
6
ByLayer
370
18
48
1
60
1
100
AcDbLine
10
-43.85
20
-3
30
0
11
-43.389216
21
-6.499998
31
0
39
0
210
0
220
0
230
1
0
LINE
5
BC
100
AcDbEntity
8
1
62
256
6
ByLayer
370
18
48
1
60
1
100
AcDbLine
10
-43.389216
20
-6.499998
30
0
11
-44.310784
21
-6.500002
31
0
39
0
210
0
220
0
230
1
0
LINE
5
BD
100
AcDbEntity
8
1
62
256
6
ByLayer
370
18
48
1
60
1
100
AcDbLine
10
-44.310784
20
-6.500002
30
0
11
-43.85
21
-3
31
0
39
0
210
0
220
0
230
1
0
LINE
5
BE
100
AcDbEntity
8
2
62
256
6
ByLayer
370
18
48
1
60
0
100
AcDbLine
10
30
20
23.117565
30
0
11
30
21
-11.1501
31
0
39
0
210
0
220
0
230
1
0
LINE
5
C0
100
AcDbEntity
8
2
62
256
6
ByLayer
370
18
48
1
60
0
100
AcDbLine
10
19.5875
20
2.4001
30
0
11
32
21
2.4001
31
0
39
0
210
0
220
0
230
1
0
LINE
5
C1
100
AcDbEntity
8
2
62
256
6
ByLayer
370
18
48
1
60
0
100
AcDbLine
10
19.5875
20
-2.4001
30
0
11
32
21
-2.4001
31
0
39
0
210
0
220
0
230
1
0
LINE
5
C2
100
AcDbEntity
8
1
62
256
6
ByLayer
370
18
48
1
60
1
100
AcDbLine
10
30
20
2.4001
30
0
11
29.539216
21
5.900098
31
0
39
0
210
0
220
0
230
1
0
LINE
5
C3
100
AcDbEntity
8
1
62
256
6
ByLayer
370
18
48
1
60
1
100
AcDbLine
10
29.539216
20
5.900098
30
0
11
30.460784
21
5.900102
31
0
39
0
210
0
220
0
230
1
0
LINE
5
C4
100
AcDbEntity
8
1
62
256
6
ByLayer
370
18
48
1
60
1
100
AcDbLine
10
30.460784
20
5.900102
30
0
11
30
21
2.4001
31
0
39
0
210
0
220
0
230
1
0
LINE
5
C5
100
AcDbEntity
8
1
62
256
6
ByLayer
370
18
48
1
60
1
100
AcDbLine
10
30
20
-2.4001
30
0
11
30.460784
21
-5.900098
31
0
39
0
210
0
220
0
230
1
0
LINE
5
C6
100
AcDbEntity
8
1
62
256
6
ByLayer
370
18
48
1
60
1
100
AcDbLine
10
30.460784
20
-5.900098
30
0
11
29.539216
21
-5.900102
31
0
39
0
210
0
220
0
230
1
0
LINE
5
C7
100
AcDbEntity
8
1
62
256
6
ByLayer
370
18
48
1
60
1
100
AcDbLine
10
29.539216
20
-5.900102
30
0
11
30
21
-2.4001
31
0
39
0
210
0
220
0
230
1
0
LINE
5
C8
100
AcDbEntity
8
SK2
62
256
6
ByLayer
370
18
48
1
60
0
100
AcDbLine
10
18
20
-33.1
30
0
11
-36
21
-33.1
31
0
39
0
210
0
220
0
230
1
0
LINE
5
C9
100
AcDbEntity
8
SK2
62
256
6
ByLayer
370
18
48
1
60
0
100
AcDbLine
10
-36
20
-4.1875
30
0
11
-36
21
-35.1
31
0
39
0
210
0
220
0
230
1
0
LINE
5
CA
100
AcDbEntity
8
SK2
62
256
6
ByLayer
370
18
48
1
60
0
100
AcDbLine
10
18
20
-3.9876
30
0
11
18
21
-35.1
31
0
39
0
210
0
220
0
230
1
0
LINE
5
CB
100
AcDbEntity
8
1
62
256
6
ByLayer
370
18
48
1
60
1
100
AcDbLine
10
-36
20
-33.1
30
0
11
-32.500002
21
-32.639216
31
0
39
0
210
0
220
0
230
1
0
LINE
5
CC
100
AcDbEntity
8
1
62
256
6
ByLayer
370
18
48
1
60
1
100
AcDbLine
10
-32.500002
20
-32.639216
30
0
11
-32.499998
21
-33.560784
31
0
39
0
210
0
220
0
230
1
0
LINE
5
CD
100
AcDbEntity
8
1
62
256
6
ByLayer
370
18
48
1
60
1
100
AcDbLine
10
-32.499998
20
-33.560784
30
0
11
-36
21
-33.1
31
0
39
0
210
0
220
0
230
1
0
LINE
5
CE
100
AcDbEntity
8
1
62
256
6
ByLayer
370
18
48
1
60
1
100
AcDbLine
10
18
20
-33.1
30
0
11
14.500002
21
-33.560784
31
0
39
0
210
0
220
0
230
1
0
LINE
5
CF
100
AcDbEntity
8
1
62
256
6
ByLayer
370
18
48
1
60
1
100
AcDbLine
10
14.500002
20
-33.560784
30
0
11
14.499998
21
-32.639216
31
0
39
0
210
0
220
0
230
1
0
LINE
5
D0
100
AcDbEntity
8
1
62
256
6
ByLayer
370
18
48
1
60
1
100
AcDbLine
10
14.499998
20
-32.639216
30
0
11
18
21
-33.1
31
0
39
0
210
0
220
0
230
1
0
LINE
5
124
100
AcDbEntity
8
1
62
256
6
ByLayer
370
18
48
1
60
1
100
AcDbLine
10
-43.85
20
3
30
0
11
-44.310784
21
6.499998
31
0
39
0
210
0
220
0
230
1
0
LINE
5
125
100
AcDbEntity
8
1
62
256
6
ByLayer
370
18
48
1
60
1
100
AcDbLine
10
-44.310784
20
6.499998
30
0
11
-43.389216
21
6.500002
31
0
39
0
210
0
220
0
230
1
0
LINE
5
126
100
AcDbEntity
8
1
62
256
6
ByLayer
370
18
48
1
60
1
100
AcDbLine
10
-43.389216
20
6.500002
30
0
11
-43.85
21
3
31
0
39
0
210
0
220
0
230
1
0
LINE
5
128
100
AcDbEntity
8
1
62
256
6
ByLayer
370
18
48
1
60
1
100
AcDbLine
10
-43.85
20
-3
30
0
11
-43.389216
21
-6.499998
31
0
39
0
210
0
220
0
230
1
0
LINE
5
129
100
AcDbEntity
8
1
62
256
6
ByLayer
370
18
48
1
60
1
100
AcDbLine
10
-43.389216
20
-6.499998
30
0
11
-44.310784
21
-6.500002
31
0
39
0
210
0
220
0
230
1
0
LINE
5
12A
100
AcDbEntity
8
1
62
256
6
ByLayer
370
18
48
1
60
1
100
AcDbLine
10
-44.310784
20
-6.500002
30
0
11
-43.85
21
-3
31
0
39
0
210
0
220
0
230
1
0
LINE
5
12E
100
AcDbEntity
8
1
62
256
6
ByLayer
370
18
48
1
60
1
100
AcDbLine
10
30
20
2.4001
30
0
11
29.539216
21
5.900098
31
0
39
0
210
0
220
0
230
1
0
LINE
5
12F
100
AcDbEntity
8
1
62
256
6
ByLayer
370
18
48
1
60
1
100
AcDbLine
10
29.539216
20
5.900098
30
0
11
30.460784
21
5.900102
31
0
39
0
210
0
220
0
230
1
0
LINE
5
130
100
AcDbEntity
8
1
62
256
6
ByLayer
370
18
48
1
60
1
100
AcDbLine
10
30.460784
20
5.900102
30
0
11
30
21
2.4001
31
0
39
0
210
0
220
0
230
1
0
LINE
5
132
100
AcDbEntity
8
1
62
256
6
ByLayer
370
18
48
1
60
1
100
AcDbLine
10
30
20
-2.4001
30
0
11
30.460784
21
-5.900098
31
0
39
0
210
0
220
0
230
1
0
LINE
5
133
100
AcDbEntity
8
1
62
256
6
ByLayer
370
18
48
1
60
1
100
AcDbLine
10
30.460784
20
-5.900098
30
0
11
29.539216
21
-5.900102
31
0
39
0
210
0
220
0
230
1
0
LINE
5
134
100
AcDbEntity
8
1
62
256
6
ByLayer
370
18
48
1
60
1
100
AcDbLine
10
29.539216
20
-5.900102
30
0
11
30
21
-2.4001
31
0
39
0
210
0
220
0
230
1
0
LINE
5
137
100
AcDbEntity
8
1
62
256
6
ByLayer
370
18
48
1
60
1
100
AcDbLine
10
-36
20
-33.1
30
0
11
-32.500002
21
-32.639216
31
0
39
0
210
0
220
0
230
1
0
LINE
5
138
100
AcDbEntity
8
1
62
256
6
ByLayer
370
18
48
1
60
1
100
AcDbLine
10
-32.500002
20
-32.639216
30
0
11
-32.499998
21
-33.560784
31
0
39
0
210
0
220
0
230
1
0
LINE
5
139
100
AcDbEntity
8
1
62
256
6
ByLayer
370
18
48
1
60
1
100
AcDbLine
10
-32.499998
20
-33.560784
30
0
11
-36
21
-33.1
31
0
39
0
210
0
220
0
230
1
0
LINE
5
13B
100
AcDbEntity
8
1
62
256
6
ByLayer
370
18
48
1
60
1
100
AcDbLine
10
18
20
-33.1
30
0
11
14.500002
21
-33.560784
31
0
39
0
210
0
220
0
230
1
0
LINE
5
13C
100
AcDbEntity
8
1
62
256
6
ByLayer
370
18
48
1
60
1
100
AcDbLine
10
14.500002
20
-33.560784
30
0
11
14.499998
21
-32.639216
31
0
39
0
210
0
220
0
230
1
0
LINE
5
13D
100
AcDbEntity
8
1
62
256
6
ByLayer
370
18
48
1
60
1
100
AcDbLine
10
14.499998
20
-32.639216
30
0
11
18
21
-33.1
31
0
39
0
210
0
220
0
230
1
0
MTEXT
5
120
100
AcDbEntity
8
SK2
62
256
6
ByLayer
370
18
48
1
60
0
100
AcDbMText
10
-45.414634
20
-17.380622
30
0
210
0
220
0
230
1
1
%%c
40
3.5
41
0
44
1.084337
50
90
71
7
72
5
7
iso_b_vert
0
MTEXT
5
123
100
AcDbEntity
8
SK2
62
256
6
ByLayer
370
18
48
1
60
0
100
AcDbMText
10
-45.414634
20
-10.407966
30
0
210
0
220
0
230
1
1
\W0.5404;6
40
3.5
41
0
44
1.084337
50
90
71
7
72
5
7
iso_b_vert
0
MTEXT
5
12C
100
AcDbEntity
8
2
62
256
6
ByLayer
370
18
48
1
60
0
100
AcDbMText
10
28.435366
20
10.334944
30
0
210
0
220
0
230
1
1
%%c
40
3.5
41
0
44
1.084337
50
90
71
7
72
5
7
iso_b_vert
0
MTEXT
5
12D
100
AcDbEntity
8
2
62
256
6
ByLayer
370
18
48
1
60
0
100
AcDbMText
10
28.435366
20
17.3076
30
0
210
0
220
0
230
1
1
\W0.7610;4.8
40
3.5
41
0
44
1.084337
50
90
71
7
72
5
7
iso_b_vert
0
MTEXT
5
136
100
AcDbEntity
8
SK2
62
256
6
ByLayer
370
18
48
1
60
0
100
AcDbMText
10
-11.089233
20
-32.067366
30
0
210
0
220
0
230
1
1
\W0.7167;54
40
3.5
41
0
44
1.084337
50
0
71
7
72
5
7
iso_b_vert
0
MTEXT
5
13F
100
AcDbEntity
8
SK6
62
256
6
ByLayer
370
18
48
1
60
0
100
AcDbMText
10
-33.637801
20
-62.114886
30
0
210
0
220
0
230
1
1
\W0.7007;1K313-0480-XA       1730
40
3
41
0
44
1.084337
50
0
71
7
72
5
7
iso_b_vert
0
HATCH
5
127
100
AcDbEntity
8
SK2
62
256
6
ByLayer
370
13
48
1
60
0
100
AcDbHatch
10
0
20
0
30
0
210
0
220
0
230
1
2
ANSI31
70
0
71
0
91
1
92
5
93
3
72
1
10
-43.85
20
2.99999999999997
11
-44.3107837415528
21
6.49999830744679
72
1
10
-44.3107837415528
20
6.49999830744679
11
-43.3892162584472
21
6.50000169255316
72
1
10
-43.3892162584472
20
6.50000169255316
11
-43.85
21
2.99999999999997
97
0
75
0
76
1
52
0
41
0.0062
77
0
78
1
53
45
43
0
44
0
45
-0.0139193969876572
46
0.0139193969876572
79
0
47
0
98
1
10
0
20
0
0
HATCH
5
12B
100
AcDbEntity
8
SK2
62
256
6
ByLayer
370
13
48
1
60
0
100
AcDbHatch
10
0
20
0
30
0
210
0
220
0
230
1
2
ANSI31
70
0
71
0
91
1
92
5
93
3
72
1
10
-43.85
20
-3.00000000000003
11
-43.3892162584472
21
-6.49999830744684
72
1
10
-43.3892162584472
20
-6.49999830744684
11
-44.3107837415528
21
-6.50000169255321
72
1
10
-44.3107837415528
20
-6.50000169255321
11
-43.85
21
-3.00000000000003
97
0
75
0
76
1
52
0
41
0.0062
77
0
78
1
53
45
43
0
44
0
45
-0.0139193969876572
46
0.0139193969876572
79
0
47
0
98
1
10
0
20
0
0
HATCH
5
131
100
AcDbEntity
8
2
62
256
6
ByLayer
370
13
48
1
60
0
100
AcDbHatch
10
0
20
0
30
0
210
0
220
0
230
1
2
ANSI31
70
0
71
0
91
1
92
5
93
3
72
1
10
30
20
2.40009999999992
11
29.5392162584472
21
5.90009830744674
72
1
10
29.5392162584472
20
5.90009830744674
11
30.4607837415528
21
5.90010169255311
72
1
10
30.4607837415528
20
5.90010169255311
11
30
21
2.40009999999992
97
0
75
0
76
1
52
0
41
0.0062
77
0
78
1
53
45
43
0
44
0
45
-0.0139193969876572
46
0.0139193969876572
79
0
47
0
98
1
10
0
20
0
0
HATCH
5
135
100
AcDbEntity
8
2
62
256
6
ByLayer
370
13
48
1
60
0
100
AcDbHatch
10
0
20
0
30
0
210
0
220
0
230
1
2
ANSI31
70
0
71
0
91
1
92
5
93
3
72
1
10
30
20
-2.40010000000007
11
30.4607837415528
21
-5.90009830744688
72
1
10
30.4607837415528
20
-5.90009830744688
11
29.5392162584472
21
-5.90010169255325
72
1
10
29.5392162584472
20
-5.90010169255325
11
30
21
-2.40010000000007
97
0
75
0
76
1
52
0
41
0.0062
77
0
78
1
53
45
43
0
44
0
45
-0.0139193969876572
46
0.0139193969876572
79
0
47
0
98
1
10
0
20
0
0
HATCH
5
13A
100
AcDbEntity
8
SK2
62
256
6
ByLayer
370
13
48
1
60
0
100
AcDbHatch
10
0
20
0
30
0
210
0
220
0
230
1
2
ANSI31
70
0
71
0
91
1
92
5
93
3
72
1
10
-36
20
-33.1000000000001
11
-32.5000016925532
21
-32.6392162584473
72
1
10
-32.5000016925532
20
-32.6392162584473
11
-32.4999983074468
21
-33.5607837415528
72
1
10
-32.4999983074468
20
-33.5607837415528
11
-36
21
-33.1000000000001
97
0
75
0
76
1
52
0
41
0.0062
77
0
78
1
53
45
43
0
44
0
45
-0.0139193969876572
46
0.0139193969876572
79
0
47
0
98
1
10
0
20
0
0
HATCH
5
13E
100
AcDbEntity
8
SK2
62
256
6
ByLayer
370
13
48
1
60
0
100
AcDbHatch
10
0
20
0
30
0
210
0
220
0
230
1
2
ANSI31
70
0
71
0
91
1
92
5
93
3
72
1
10
18
20
-33.1000000000001
11
14.5000016925532
21
-33.5607837415528
72
1
10
14.5000016925532
20
-33.5607837415528
11
14.4999983074468
21
-32.6392162584473
72
1
10
14.4999983074468
20
-32.6392162584473
11
18
21
-33.1000000000001
97
0
75
0
76
1
52
0
41
0.0062
77
0
78
1
53
45
43
0
44
0
45
-0.0139193969876572
46
0.0139193969876572
79
0
47
0
98
1
10
0
20
0
0
DIMENSION
5
142
100
AcDbEntity
8
2
62
256
6
ByLayer
370
18
48
1
60
0
100
AcDbDimension
2
_U0
10
13.2
20
-17.1
30
0
11
15.6
21
-17.1
31
0
70
32
71
1
72
1
41
1
210
0
220
0
230
1
3
Standard
100
AcDbAlignedDimension
13
18
23
-2.4001
33
0
14
13.2
24
-2.4001
34
0
50
0
100
AcDbRotatedDimension
1001
ACAD
1000
DSTYLE
1002
{
1070
   371
1070
    13
1070
   372
1070
    13
1070
   170
1070
     0
1070
   144
1040
1.0
1070
   277
1070
     2
1070
   284
1070
     8
1070
   278
1070
    46
1070
   146
1040
1.0
1070
   345
1005
16
1070
   347
1005
16
1070
   346
1005
16
1070
   344
1005
0
1070
   343
1005
0
1070
   172
1070
     1
1070
    76
1070
     0
1070
    75
1070
     0
1070
   282
1070
     0
1070
   281
1070
     0
1070
    71
1070
     0
1070
    74
1070
     0
1070
   279
1070
     0
1070
   173
1070
     1
1070
   340
1005
121
1070
   271
1070
     2
1070
   272
1070
     2
1070
    77
1070
     1
1070
    73
1070
     1
1070
   171
1070
     3
1070
   274
1070
     4
1070
   177
1070
     2
1070
   176
1070
     2
1070
   178
1070
     2
1070
    78
1070
     8
1070
    48
1040
-0.1
1070
    41
1040
3.5
1070
   147
1040
1.75
1070
    42
1040
1.5875
1070
    44
1040
2.0
1070
   140
1040
3.5
1002
}
1001
ACAD_DSTYLE_DIM_LINETYPE
1070
   380
1005
16
1001
ACAD_DSTYLE_DIM_EXT1_LINETYPE
1070
   381
1005
16
1001
ACAD_DSTYLE_DIM_EXT2_LINETYPE
1070
   382
1005
16
0
ENDSEC
0
SECTION
2
OBJECTS
0
DICTIONARY
5
1cc
330
0
100
AcDbDictionary
280
0
281
1
3
ACAD_GROUP
350
1cd
3
ACAD_MLINESTYLE
350
1ce
0
DICTIONARY
5
1cd
330
0
100
AcDbDictionary
280
0
281
1
0
DICTIONARY
5
1ce
330
0
100
AcDbDictionary
280
0
281
1
3
Standard
350
18
0
MLINESTYLE
5
18
330
1ce
100
AcDbMlineStyle
2
Standard
70
0
3

62
256
51
90
52
90
71
2
49
-0.5
62
256
6
ByLayer
49
0.5
62
256
6
ByLayer
0
RASTERVARIABLES
5
1ba
330

100
AcDbRasterVariables
90
0
70
1
71
1
72
1
0
ENDSEC
0
EOF
