0
SECTION
2
HEADER
9
$ACADVER
1
AC1015
9
$DWGCODEPAGE
3
ANSI_1252
9
$HANDSEED
5
1bb
9
$ANGBASE
50
0
9
$ANGDIR
70
0
9
$ATTMODE
70
1
9
$AUNITS
70
0
9
$AUPREC
70
0
9
$CECOLOR
62
256
9
$CELTSCALE
40
1
9
$CELTYPE
6
ByLayer
9
$CELWEIGHT
370
18
9
$CLAYER
8
0
9
$CMLJUST
70
0
9
$CMLSCALE
40
1
9
$CMLSTYLE
2
Standard
9
$DIMSTYLE
2
Standard
9
$TEXTSIZE
40
0.2
9
$TEXTSTYLE
7
Standard
9
$LUNITS
70
2
9
$LUPREC
70
4
9
$EXTNAMES
290
1
9
$INSUNITS
70
4
9
$LTSCALE
40
1
9
$LWDISPLAY
290
1
9
$PDMODE
70
0
9
$PDSIZE
40
0
9
$PLINEGEN
70
0
0
ENDSEC
0
SECTION
2
CLASSES
0
CLASS
1
RASTERVARIABLES
2
AcDbRasterVariables
3
ISM
90
0
280
0
281
0
0
ENDSEC
0
SECTION
2
TABLES
0
TABLE
2
VPORT
5
1b1
100
AcDbSymbolTable
0
VPORT
5
1
100
AcDbSymbolTableRecord
100
AcDbViewportTableRecord
2
*Active
70
0
10
0
20
0
11
1
21
1
12
-1
22
1
13
0
23
0
14
0.5
24
0.5
15
10
25
10
16
0
26
0
36
1
17
0
27
0
37
0
0
ENDTAB
0
TABLE
2
LTYPE
5
1b2
100
AcDbSymbolTable
0
LTYPE
5
14
100
AcDbSymbolTableRecord
100
AcDbLinetypeTableRecord
70
0
2
ByBlock
3

72
65
73
0
40
0
0
LTYPE
5
15
100
AcDbSymbolTableRecord
100
AcDbLinetypeTableRecord
70
0
2
ByLayer
3

72
65
73
0
40
0
0
LTYPE
5
16
100
AcDbSymbolTableRecord
100
AcDbLinetypeTableRecord
70
0
2
Continuous
3
Solid line
72
65
73
0
40
0
0
LTYPE
5
6E
100
AcDbSymbolTableRecord
100
AcDbLinetypeTableRecord
70
0
2
CENTER
3
____ _ ____ _ ____ _ ____
72
65
73
4
40
47.5
49
22
74
0
49
-8.5
74
0
49
8.5
74
0
49
-8.5
74
0
0
LTYPE
5
6F
100
AcDbSymbolTableRecord
100
AcDbLinetypeTableRecord
70
0
2
DASHED
3
__ __ __ __ __ __ __ __ __
72
65
73
2
40
25.72
49
12.86
74
0
49
-12.86
74
0
0
ENDTAB
0
TABLE
2
LAYER
5
1b3
100
AcDbSymbolTable
0
LAYER
5
10
100
AcDbSymbolTableRecord
100
AcDbLayerTableRecord
2
0
70
0
62
7
6
Continuous
290
1
370
-3
390
0
0
LAYER
5
71
100
AcDbSymbolTableRecord
100
AcDbLayerTableRecord
2
81
70
0
62
-3
6
Continuous
290
1
370
-3
390
0
0
LAYER
5
73
100
AcDbSymbolTableRecord
100
AcDbLayerTableRecord
2
80
70
0
62
-6
6
Continuous
290
1
370
-3
390
0
0
LAYER
5
75
100
AcDbSymbolTableRecord
100
AcDbLayerTableRecord
2
1
70
0
62
4
6
Continuous
290
1
370
-3
390
0
0
LAYER
5
79
100
AcDbSymbolTableRecord
100
AcDbLayerTableRecord
2
4
70
0
62
-2
6
CENTER
290
1
370
-3
390
0
0
LAYER
5
B6
100
AcDbSymbolTableRecord
100
AcDbLayerTableRecord
2
2
70
0
62
7
6
Continuous
290
1
370
-3
390
0
0
LAYER
5
128
100
AcDbSymbolTableRecord
100
AcDbLayerTableRecord
2
Defpoints
70
0
62
7
6
Continuous
290
0
370
-3
390
0
0
LAYER
5
19d
100
AcDbSymbolTableRecord
100
AcDbLayerTableRecord
2
SK4
70
0
62
2
6
CENTER
290
1
370
-3
390
0
0
LAYER
5
19e
100
AcDbSymbolTableRecord
100
AcDbLayerTableRecord
2
SK1
70
0
62
4
6
Continuous
290
1
370
-3
390
0
0
LAYER
5
19f
100
AcDbSymbolTableRecord
100
AcDbLayerTableRecord
2
SK2
70
0
62
7
6
Continuous
290
1
370
-3
390
0
0
LAYER
5
1a0
100
AcDbSymbolTableRecord
100
AcDbLayerTableRecord
2
SK6
70
0
62
5
6
Continuous
290
1
370
-3
390
0
0
ENDTAB
0
TABLE
2
STYLE
5
1b4
100
AcDbSymbolTable
0
STYLE
5
11
100
AcDbSymbolTableRecord
100
AcDbTextStyleTableRecord
2
Standard
3
txt
70
0
71
0
40
0
41
1
42
0
50
0
0
STYLE
5
104
100
AcDbSymbolTableRecord
100
AcDbTextStyleTableRecord
2
iso_b_vert
3
simplex.shx
70
0
71
0
40
0
41
1
42
0
50
0
0
STYLE
5
105
100
AcDbSymbolTableRecord
100
AcDbTextStyleTableRecord
2
DWGDirectTextStyle
3
simplex
70
0
71
0
40
0
41
1
42
0
50
0
0
ENDTAB
0
TABLE
2
DIMSTYLE
5
1b5
100
AcDbSymbolTable
100
AcDbDimStyleTable
0
DIMSTYLE
105
27
100
AcDbSymbolTableRecord
100
AcDbDimStyleTableRecord
2
Standard
70
0
3
<>
41
0.18
42
0.0625
44
0.18
140
0.18
147
0.09
73
0
74
0
77
1
271
2
275
0
278
52
280
0
340
11
0
ENDTAB
0
TABLE
2
VIEW
5
1b6
100
AcDbSymbolTable
0
ENDTAB
0
TABLE
2
UCS
5
1b7
100
AcDbSymbolTable
0
ENDTAB
0
TABLE
2
APPID
5
1b8
100
AcDbSymbolTable
0
APPID
5
12
100
AcDbSymbolTableRecord
100
AcDbRegAppTableRecord
2
ACAD
70
0
0
APPID
5
124
100
AcDbSymbolTableRecord
100
AcDbRegAppTableRecord
2
ACAD_DSTYLE_DIMBREAK
70
0
0
APPID
5
15C
100
AcDbSymbolTableRecord
100
AcDbRegAppTableRecord
2
ACAD_DSTYLE_DIM_LINETYPE
70
0
0
APPID
5
15D
100
AcDbSymbolTableRecord
100
AcDbRegAppTableRecord
2
ACAD_DSTYLE_DIM_EXT1_LINETYPE
70
0
0
APPID
5
15E
100
AcDbSymbolTableRecord
100
AcDbRegAppTableRecord
2
ACAD_DSTYLE_DIM_EXT2_LINETYPE
70
0
0
APPID
5
199
100
AcDbSymbolTableRecord
100
AcDbRegAppTableRecord
2
ACAD_MLEADERVER
70
0
0
ENDTAB
0
TABLE
2
BLOCK_RECORD
5
1b9
100
AcDbSymbolTable
0
BLOCK_RECORD
5
1F
100
AcDbSymbolTableRecord
100
AcDbBlockTableRecord
2
*Model_Space
340
0
70
0
0
BLOCK_RECORD
5
1B
100
AcDbSymbolTableRecord
100
AcDbBlockTableRecord
2
*Paper_Space
340
0
70
0
0
BLOCK_RECORD
5
23
100
AcDbSymbolTableRecord
100
AcDbBlockTableRecord
2
*Paper_Space0
340
0
70
0
0
BLOCK_RECORD
5
129
100
AcDbSymbolTableRecord
100
AcDbBlockTableRecord
2
*D1
340
0
70
0
0
BLOCK_RECORD
5
135
100
AcDbSymbolTableRecord
100
AcDbBlockTableRecord
2
_U0
340
0
70
0
0
ENDTAB
0
ENDSEC
0
SECTION
2
BLOCKS
0
BLOCK
5
20
100
AcDbEntity
8
0
100
AcDbBlockBegin
2
*Model_Space
70
0
10
0
20
0
30
0
3
*Model_Space
0
ENDBLK
5
21
100
AcDbEntity
8
0
100
AcDbBlockEnd
0
BLOCK
5
1C
100
AcDbEntity
8
0
100
AcDbBlockBegin
2
*Paper_Space
70
0
10
0
20
0
30
0
3
*Paper_Space
0
ENDBLK
5
1D
100
AcDbEntity
8
0
100
AcDbBlockEnd
0
BLOCK
5
24
100
AcDbEntity
8
0
100
AcDbBlockBegin
2
*Paper_Space0
70
0
10
0
20
0
30
0
3
*Paper_Space0
0
ENDBLK
5
25
100
AcDbEntity
8
0
100
AcDbBlockEnd
0
BLOCK
5
12A
100
AcDbEntity
8
0
100
AcDbBlockBegin
2
*D1
70
1
10
0
20
0
30
0
3
*D1
0
LINE
5
12C
100
AcDbEntity
8
0
62
256
6
ByLayer
370
-2
48
1
60
0
100
AcDbLine
10
64
20
-11.5876
30
0
11
64
21
-27.637679
31
0
39
0
210
0
220
0
230
1
0
LINE
5
12D
100
AcDbEntity
8
0
62
256
6
ByLayer
370
-2
48
1
60
0
100
AcDbLine
10
24
20
-11.5876
30
0
11
24
21
-27.637679
31
0
39
0
210
0
220
0
230
1
0
LINE
5
12E
100
AcDbEntity
8
0
62
256
6
ByLayer
370
-2
48
1
60
0
100
AcDbLine
10
60.5
20
-25.637679
30
0
11
27.5
21
-25.637679
31
0
39
0
210
0
220
0
230
1
0
SOLID
5
12F
100
AcDbEntity
8
0
62
256
6
ByLayer
370
-1
48
1
60
0
100
AcDbTrace
10
60.5
20
-26.221012
30
0
11
60.5
21
-25.054345
31
0
12
64
22
-25.637679
32
0
13
64
23
-25.637679
33
0
39
0
210
0
220
0
230
1
0
SOLID
5
130
100
AcDbEntity
8
0
62
256
6
ByLayer
370
-1
48
1
60
0
100
AcDbTrace
10
27.5
20
-25.054345
30
0
11
27.5
21
-26.221012
31
0
12
24
22
-25.637679
32
0
13
24
23
-25.637679
33
0
39
0
210
0
220
0
230
1
0
MTEXT
5
131
100
AcDbEntity
8
0
62
256
6
ByLayer
370
18
48
1
60
0
100
AcDbMText
10
44
20
-18.637679
30
0
210
0
220
0
230
1
1
\A1;40
40
3.5
41
0
44
1
50
0
71
5
72
5
7
iso_b_vert
0
POINT
5
132
100
AcDbEntity
8
Defpoints
62
0
6
ByLayer
370
-1
48
1
60
0
100
AcDbPoint
10
64
20
-10.0001
30
0
39
0
210
0
220
0
230
1
50
360
0
POINT
5
133
100
AcDbEntity
8
Defpoints
62
0
6
ByLayer
370
-1
48
1
60
0
100
AcDbPoint
10
24
20
-10.0001
30
0
39
0
210
0
220
0
230
1
50
360
0
POINT
5
134
100
AcDbEntity
8
Defpoints
62
0
6
ByLayer
370
-1
48
1
60
0
100
AcDbPoint
10
24
20
-25.637679
30
0
39
0
210
0
220
0
230
1
50
360
0
ENDBLK
5
12B
100
AcDbEntity
8
0
100
AcDbBlockEnd
0
BLOCK
5
13C
100
AcDbEntity
8
0
100
AcDbBlockBegin
2
_U0
70
0
10
0
20
0
30
0
3
_U0
0
MTEXT
5
136
100
AcDbEntity
8
2
62
256
6
ByLayer
370
18
48
1
60
0
100
AcDbMText
10
41.910767
20
-24.605045
30
0
210
0
220
0
230
1
1
\W0.7361;40
40
3.5
41
0
44
1.084337
50
0
71
7
72
5
7
iso_b_vert
0
LINE
5
137
100
AcDbEntity
8
2
62
256
6
ByLayer
370
13
48
1
60
0
100
AcDbLine
10
64
20
-11.5876
30
0
11
64
21
-27.637679
31
0
39
0
210
0
220
0
230
1
0
LINE
5
138
100
AcDbEntity
8
2
62
256
6
ByLayer
370
13
48
1
60
0
100
AcDbLine
10
24
20
-11.5876
30
0
11
24
21
-27.637679
31
0
39
0
210
0
220
0
230
1
0
LINE
5
139
100
AcDbEntity
8
2
62
256
6
ByLayer
370
13
48
1
60
0
100
AcDbLine
10
64
20
-25.637679
30
0
11
24
21
-25.637679
31
0
39
0
210
0
220
0
230
1
0
SOLID
5
13A
100
AcDbEntity
8
2
62
256
6
ByLayer
370
18
48
1
60
0
100
AcDbTrace
10
64
20
-25.637679
30
0
11
60.500002
21
-26.098462
31
0
12
60.499998
22
-25.176895
32
0
13
60.499998
23
-25.176895
33
0
39
0
210
0
220
0
230
1
0
SOLID
5
13B
100
AcDbEntity
8
2
62
256
6
ByLayer
370
18
48
1
60
0
100
AcDbTrace
10
24
20
-25.637679
30
0
11
27.499998
21
-25.176895
31
0
12
27.500002
22
-26.098462
32
0
13
27.500002
23
-26.098462
33
0
39
0
210
0
220
0
230
1
0
ENDBLK
5
13D
100
AcDbEntity
8
0
100
AcDbBlockEnd
0
ENDSEC
0
SECTION
2
ENTITIES
0
ELLIPSE
5
C8
100
AcDbEntity
8
1
62
256
6
ByLayer
370
18
48
1
60
0
100
AcDbEllipse
10
63.124426
20
-1.148885
30
0
11
0.191405507547086
21
-0.160822838801152
31
0
210
0
220
0
230
1
40
0.03972
41
-3.05403029570775
42
-1.52686720023036
0
ELLIPSE
5
C9
100
AcDbEntity
8
1
62
256
6
ByLayer
370
18
48
1
60
0
100
AcDbEllipse
10
62.94
20
-0.307025
30
0
11
0.285322521565773
21
-0.320841152419954
31
0
210
0
220
0
230
1
40
0.873769
41
-1.95861680560184
42
-1.49233620268937
0
ELLIPSE
5
CA
100
AcDbEntity
8
1
62
256
6
ByLayer
370
18
48
1
60
0
100
AcDbEllipse
10
62.94
20
-0.479221
30
0
11
0.184764081445117
21
-0.356732848805938
31
0
210
0
220
0
230
1
40
0.9945
41
2.66144492638044
42
2.94401047799394
0
ELLIPSE
5
CB
100
AcDbEntity
8
1
62
256
6
ByLayer
370
18
48
1
60
0
100
AcDbEllipse
10
62.94
20
-0.405907
30
0
11
0.214879447275486
21
0.702617933386273
31
0
210
0
220
0
230
1
40
0.480179
41
1.49441359636714
42
2.20988466552124
0
ELLIPSE
5
CC
100
AcDbEntity
8
1
62
256
6
ByLayer
370
18
48
1
60
0
100
AcDbEllipse
10
62.94
20
-0.659226
30
0
11
0.285322521562299
21
0.320841152421096
31
0
210
0
220
0
230
1
40
0.873769
41
2.43697689888151
42
-3.04551985250292
0
ELLIPSE
5
CD
100
AcDbEntity
8
1
62
256
6
ByLayer
370
18
48
1
60
0
100
AcDbEllipse
10
37.748252
20
0
30
0
11
27.4773328940569
21
-9.55422561998221
31
0
210
0
220
0
230
1
40
0.107449
41
2.2455075997156
42
2.7530581044764
0
ELLIPSE
5
CE
100
AcDbEntity
8
1
62
256
6
ByLayer
370
18
48
1
60
0
100
AcDbEllipse
10
19.37687
20
0
30
0
11
26.597627874343
21
9.43624004961798
31
0
210
0
220
0
230
1
40
0.124454
41
1.3521384318954
42
1.47408445065898
0
POINT
5
70
100
AcDbEntity
8
81
62
256
6
ByLayer
370
18
48
1
60
0
100
AcDbPoint
10
64
20
0
30
0
39
0
210
0
220
0
230
1
50
360
0
POINT
5
72
100
AcDbEntity
8
80
62
256
6
ByLayer
370
18
48
1
60
0
100
AcDbPoint
10
0
20
0
30
0
39
0
210
0
220
0
230
1
50
360
0
POINT
5
74
100
AcDbEntity
8
1
62
256
6
ByLayer
370
18
48
1
60
1
100
AcDbPoint
10
64
20
-10.0001
30
0
39
0
210
0
220
0
230
1
50
360
0
POINT
5
76
100
AcDbEntity
8
1
62
256
6
ByLayer
370
18
48
1
60
1
100
AcDbPoint
10
24
20
-10.0001
30
0
39
0
210
0
220
0
230
1
50
360
0
SPLINE
5
CF
100
AcDbEntity
8
1
62
256
6
ByLayer
370
18
48
1
60
0
100
AcDbSpline
70
4
71
3
72
28
73
24
40
0
40
0
40
0
40
0
40
0.0968615919122905
40
0.0968615919122905
40
0.247384659926911
40
0.247384659926911
40
0.285015426930565
40
0.285015426930565
40
0.32264619393422
40
0.32264619393422
40
0.397907727941529
40
0.397907727941529
40
0.548430795956145
40
0.548430795956145
40
0.623692329963453
40
0.623692329963453
40
0.661323096967109
40
0.661323096967109
40
0.698953863970764
40
0.698953863970764
40
0.849476931985382
40
0.849476931985382
40
1
40
1
40
1
40
1
41
1
10
46.9898256783654
20
6.18107401898539
30
0
41
1
10
47.5165972380645
20
6.40134544128969
30
0
41
1
10
48.0429329447142
20
6.61419071309638
30
0
41
1
10
49.3872174965351
20
7.13721706755857
30
0
41
1
10
50.2051596080298
20
7.4361573938838
30
0
41
1
10
51.2295863260155
20
7.78281956686121
30
0
41
1
10
51.434571827271
20
7.85079937189863
30
0
41
1
10
51.8447912367758
20
7.98399013748804
30
0
41
1
10
52.0498309864802
20
8.04913643338463
30
0
41
1
10
52.6646061104216
20
8.24011436124121
30
0
41
1
10
53.0740871758584
20
8.36151919641929
30
0
41
1
10
54.3019537908396
20
8.70759152017118
30
0
41
1
10
55.1197321656183
20
8.91415175024963
30
0
41
1
10
56.3474179433689
20
9.18558568554562
30
0
41
1
10
56.7568211384188
20
9.26964756633629
30
0
41
1
10
57.3714892969279
20
9.38583616859333
30
0
41
1
10
57.5764861716594
20
9.42291785564828
30
0
41
1
10
57.9866629229873
20
9.49373154996596
30
0
41
1
10
58.1916287955664
20
9.52742719896636
30
0
41
1
10
59.2159726531607
20
9.68731132359093
30
0
41
1
10
60.0339015071389
20
9.78772390875503
30
0
41
1
10
61.6698105603547
20
9.93272878036137
30
0
41
1
10
62.4877891870761
20
9.97732365833502
30
0
41
1
10
63.3072906555334
20
9.99331733605078
30
0
0
SPLINE
5
D0
100
AcDbEntity
8
1
62
256
6
ByLayer
370
18
48
1
60
0
100
AcDbSpline
70
4
71
3
72
8
73
4
40
0
40
0
40
0
40
0
40
1
40
1
40
1
40
1
41
1
10
63.4538128723262
20
9.99282891003298
30
0
41
1
10
63.5411061131798
20
9.98789516898464
30
0
41
1
10
63.6284116017235
20
9.98318876533676
30
0
41
1
10
63.7157292685751
20
9.9787084272277
30
0
0
SPLINE
5
D1
100
AcDbEntity
8
1
62
256
6
ByLayer
370
18
48
1
60
0
100
AcDbSpline
70
4
71
3
72
8
73
4
40
0
40
0
40
0
40
0
40
1
40
1
40
1
40
1
41
1
10
63.3072906555345
20
9.9933173360501
30
0
41
1
10
63.3561309083483
20
9.99308620891162
30
0
41
1
10
63.4049717422061
20
9.99292336616463
30
0
41
1
10
63.453812872748
20
9.99282890974897
30
0
0
SPLINE
5
D2
100
AcDbEntity
8
1
62
256
6
ByLayer
370
18
48
1
60
0
100
AcDbSpline
70
4
71
3
72
8
73
4
40
0
40
0
40
0
40
0
40
1
40
1
40
1
40
1
41
1
10
63.3072906555104
20
9.99331733603961
30
0
41
1
10
63.3991093591354
20
9.76111473038179
30
0
41
1
10
63.4975417798984
20
9.53179843980641
30
0
41
1
10
63.6038857197476
20
9.30593484253296
30
0
0
SPLINE
5
D3
100
AcDbEntity
8
1
62
256
6
ByLayer
370
18
48
1
60
0
100
AcDbSpline
70
4
71
3
72
60
73
56
40
0
40
0
40
0
40
0
40
0.0312500000000155
40
0.0312500000000155
40
0.0625000000000309
40
0.0625000000000309
40
0.0781250000000388
40
0.0781250000000388
40
0.0937500000000468
40
0.0937500000000468
40
0.125000000000063
40
0.125000000000063
40
0.140625000000072
40
0.140625000000072
40
0.148437500000076
40
0.148437500000076
40
0.15625000000008
40
0.187500000000092
40
0.187500000000092
40
0.203125000000097
40
0.203125000000097
40
0.218750000000103
40
0.218750000000103
40
0.250000000000114
40
0.250000000000114
40
0.281250000000125
40
0.281250000000125
40
0.289062500000128
40
0.289062500000128
40
0.296875000000131
40
0.312500000000132
40
0.312500000000132
40
0.34375000000013
40
0.34375000000013
40
0.375000000000128
40
0.375000000000128
40
0.406250000000126
40
0.406250000000126
40
0.421875000000125
40
0.421875000000125
40
0.437500000000124
40
0.437500000000124
40
0.50000000000011
40
0.50000000000011
40
0.562500000000096
40
0.562500000000096
40
0.625000000000082
40
0.625000000000082
40
0.687500000000069
40
0.687500000000069
40
0.750000000000055
40
0.750000000000055
40
0.875000000000028
40
0.875000000000028
40
1
40
1
40
1
40
1
41
1
10
63.6038857367016
20
9.30593484959712
30
0
41
1
10
63.6387705102493
20
9.23184041111247
30
0
41
1
10
63.6698057709871
20
9.1564851686266
30
0
41
1
10
63.7227640709368
20
9.0027902226123
30
0
41
1
10
63.7446971814121
20
8.92445381739512
30
0
41
1
10
63.7692445781457
20
8.80421364989999
30
0
41
1
10
63.7760357034727
20
8.76354149466007
30
0
41
1
10
63.786348120883
20
8.68250976581308
30
0
41
1
10
63.7899042544939
20
8.6420255668784
30
0
41
1
10
63.7955580513995
20
8.52067220909422
30
0
41
1
10
63.7926515329659
20
8.43990208300943
30
0
41
1
10
63.7772480192207
20
8.31896544943783
30
0
41
1
10
63.7702703913244
20
8.27868971366073
30
0
41
1
10
63.7568856510707
20
8.21833386312545
30
0
41
1
10
63.7519564716769
20
8.19831948923385
30
0
41
1
10
63.7412391529909
20
8.15873673835975
30
0
41
1
10
63.7122547880022
20
8.06070562013429
30
0
41
1
10
63.672604925669
20
7.96718083329372
30
0
41
1
10
63.6156891094053
20
7.85889568022031
30
0
41
1
10
63.5951593827096
20
7.82345881778866
30
0
41
1
10
63.5511162174779
20
7.75384575559082
30
0
41
1
10
63.5278854471115
20
7.72011312542281
30
0
41
1
10
63.4550142359659
20
7.62185336066477
30
0
41
1
10
63.4021889520859
20
7.5602143754445
30
0
41
1
10
63.2896629693601
20
7.44320121456468
30
0
41
1
10
63.2299552749038
20
7.38783341323563
30
0
41
1
10
63.1517423415089
20
7.32188418681804
30
0
41
1
10
63.1359109504449
20
7.30885153801438
30
0
41
1
10
63.1040520406239
20
7.28321659771652
30
0
41
1
10
63.0559169567121
20
7.24536495577331
30
0
41
1
10
63.0068059191075
20
7.20920437181871
30
0
41
1
10
62.9074260515616
20
7.13888933800658
30
0
41
1
10
62.8396348997608
20
7.09467741614236
30
0
41
1
10
62.7015605783255
20
7.01057155050717
30
0
41
1
10
62.6312749825704
20
6.97068181053268
30
0
41
1
10
62.4886296934432
20
6.89449616845758
30
0
41
1
10
62.4162686027544
20
6.85820268752096
30
0
41
1
10
62.3064076228746
20
6.80604852432515
30
0
41
1
10
62.2695667187822
20
6.78904600303847
30
0
41
1
10
62.1954763996242
20
6.7557487970669
30
0
41
1
10
62.1581954882951
20
6.73944082766019
30
0
41
1
10
61.9712257544289
20
6.65970827304929
30
0
41
1
10
61.8204002328884
20
6.60185157671191
30
0
41
1
10
61.5169425059686
20
6.49470996987159
30
0
41
1
10
61.3643044583452
20
6.44545277781285
30
0
41
1
10
61.0576387838019
20
6.35353123294763
30
0
41
1
10
60.9036085093771
20
6.31087944119074
30
0
41
1
10
60.5944393341146
20
6.23083571996014
30
0
41
1
10
60.4392990798433
20
6.19345021183295
30
0
41
1
10
60.1281089293612
20
6.12299497885209
30
0
41
1
10
59.9720582775217
20
6.08992883906791
30
0
41
1
10
59.5027615248506
20
5.99616189355962
30
0
41
1
10
59.1883817370579
20
5.94083984953431
30
0
41
1
10
58.5573828510469
20
5.84082013801975
30
0
41
1
10
58.2407574045689
20
5.79615258975849
30
0
41
1
10
57.9232481479671
20
5.7556782660875
30
0
0
SPLINE
5
D4
100
AcDbEntity
8
1
62
256
6
ByLayer
370
18
48
1
60
0
100
AcDbSpline
70
4
71
3
72
12
73
8
40
0
40
0
40
0
40
0
40
0.297583839295231
40
0.45917768437619
40
0.620771529457148
40
0.782365374538107
40
1
40
1
40
1
40
1
41
1
10
63.6038857350375
20
9.30593484971808
30
0
41
1
10
62.0692571566916
20
9.2795639252302
30
0
41
1
10
59.7012952450125
20
9.09276247705828
30
0
41
1
10
56.5
20
8.55638568354249
30
0
41
1
10
54
20
7.98743206840305
30
0
41
0.999999999999999
10
51.2109998199866
20
7.1917457684356
30
0
41
1
10
49.2553329733067
20
6.51632821688711
30
0
41
1
10
48.1329994599599
20
6.09667572927944
30
0
0
SPLINE
5
D5
100
AcDbEntity
8
1
62
256
6
ByLayer
370
13
48
1
60
0
100
AcDbSpline
70
4
71
3
72
8
73
4
40
0
40
0
40
0
40
0
40
1
40
1
40
1
40
1
41
1
10
56.2689130115195
20
5.4999474977364
30
0
41
1
10
56.3324766537909
20
5.50002910356386
30
0
41
1
10
56.3960402960623
20
5.50001669358747
30
0
41
1
10
56.4596039383336
20
5.49991024319112
30
0
0
SPLINE
5
D6
100
AcDbEntity
8
1
62
256
6
ByLayer
370
18
48
1
60
0
100
AcDbSpline
70
4
71
3
72
27
73
23
40
0
40
0
40
0
40
0
40
0.125000000000038
40
0.125000000000038
40
0.250000000000076
40
0.250000000000076
40
0.375000000000113
40
0.375000000000113
40
0.500000000000151
40
0.500000000000151
40
0.562500000000169
40
0.562500000000169
40
0.625000000000187
40
0.687500000000204
40
0.687500000000204
40
0.750000000000222
40
0.750000000000222
40
0.875000000000162
40
0.875000000000162
40
0.937500000000081
40
0.937500000000081
40
1
40
1
40
1
40
1
41
1
10
57.6783360317343
20
5.64307542317513
30
0
41
1
10
57.6762494219614
20
5.64770102020628
30
0
41
1
10
57.675864727545
20
5.65258090371023
30
0
41
1
10
57.6787454171654
20
5.66293222592637
30
0
41
1
10
57.6820975735542
20
5.66846271341981
30
0
41
1
10
57.6924782810278
20
5.67963036116103
30
0
41
1
10
57.6995186469566
20
5.68534201836619
30
0
41
1
10
57.7174078381962
20
5.69690145022409
30
0
41
1
10
57.7279122214009
20
5.70253390112237
30
0
41
1
10
57.7458845108525
20
5.71074264651762
30
0
41
1
10
57.7522919431545
20
5.71345511382768
30
0
41
1
10
57.7656131423447
20
5.71869342619127
30
0
41
1
10
57.7794200810569
20
5.72374350866278
30
0
41
1
10
57.7941390219962
20
5.72842551065804
30
0
41
1
10
57.8092985622202
20
5.7329220366781
30
0
41
1
10
57.8171202683925
20
5.73508162194713
30
0
41
1
10
57.8407600976234
20
5.7411578282709
30
0
41
1
10
57.8568934141155
20
5.74472052907888
30
0
41
1
10
57.8815953591824
20
5.74937554926785
30
0
41
1
10
57.8899277486012
20
5.75081321682333
30
0
41
1
10
57.9065717781496
20
5.75343057058399
30
0
41
1
10
57.914904626639
20
5.75461468014237
30
0
41
1
10
57.9232481479673
20
5.75567826608759
30
0
0
SPLINE
5
D7
100
AcDbEntity
8
1
62
256
6
ByLayer
370
18
48
1
60
0
100
AcDbSpline
70
4
71
3
72
29
73
25
40
0
40
0
40
0
40
0
40
0.124999999999983
40
0.124999999999983
40
0.187499999999974
40
0.187499999999974
40
0.249999999999966
40
0.249999999999966
40
0.374999999999948
40
0.374999999999948
40
0.43749999999994
40
0.43749999999994
40
0.499999999999931
40
0.499999999999931
40
0.624999999999973
40
0.624999999999973
40
0.687499999999993
40
0.687499999999993
40
0.750000000000014
40
0.812500000000035
40
0.812500000000035
40
0.875000000000055
40
0.875000000000055
40
1
40
1
40
1
40
1
41
1
10
62.6199985336462
20
-0.249411954040369
30
0
41
1
10
62.6205385084398
20
-0.247853448708952
30
0
41
1
10
62.6220212343844
20
-0.245049554863243
30
0
41
1
10
62.6256617503821
20
-0.239177416716245
30
0
41
1
10
62.6271140735896
20
-0.236941160225172
30
0
41
1
10
62.6305301560631
20
-0.231931483044548
30
0
41
1
10
62.6325060698119
20
-0.229142216668208
30
0
41
1
10
62.639151848693
20
-0.220167628400645
30
0
41
1
10
62.6445405787827
20
-0.21335933479719
30
0
41
1
10
62.6542995185625
20
-0.202166304879683
30
0
41
1
10
62.657834134779
20
-0.198270756628261
30
0
41
1
10
62.6655409718259
20
-0.190182747624419
30
0
41
1
10
62.6696742322086
20
-0.186033215389898
30
0
41
1
10
62.6828360308173
20
-0.173480559132315
30
0
41
1
10
62.6926685774151
20
-0.164919490746968
30
0
41
1
10
62.7093265597147
20
-0.152088976131722
30
0
41
1
10
62.7152480323699
20
-0.14778205311228
30
0
41
1
10
62.7275282369913
20
-0.139416363185973
30
0
41
1
10
62.7402361146518
20
-0.131295957342331
30
0
41
1
10
62.7538236634191
20
-0.123747047444766
30
0
41
1
10
62.7678708241554
20
-0.116525924881159
30
0
41
1
10
62.7751627937888
20
-0.113062748826735
30
0
41
1
10
62.7974929420432
20
-0.103352807900166
30
0
41
1
10
62.812781370961
20
-0.0978581703532768
30
0
41
1
10
62.8284718505475
20
-0.0933591254156738
30
0
0
SPLINE
5
D8
100
AcDbEntity
8
1
62
256
6
ByLayer
370
13
48
1
60
0
100
AcDbSpline
70
4
71
3
72
13
73
9
40
0
40
0
40
0
40
0
40
0.0585953147883176
40
0.260324890190821
40
0.39481127379249
40
0.596540849194993
40
0.731027232796662
40
1
40
1
40
1
40
1
41
1
10
42.5892425169574
20
-4.19124723141641
30
0
41
1
10
42.2261616779716
20
-4.12219912006651
30
0
41
1
10
40.6130808389858
20
-3.80495965765351
30
0
41
1
10
38.1666666666666
20
-3.25658730876853
30
0
41
1
10
34.8333333333333
20
-2.4195364502244
30
0
41
1
10
31.9166666666667
20
-1.62026614640172
30
0
41
1
10
28.1666666666667
20
-0.54202197438471
30
0
41
1
10
25.6666666666667
20
0.195488735171779
30
0
41
1
10
24
20
0.679675034588286
30
0
0
SPLINE
5
D9
100
AcDbEntity
8
1
62
256
6
ByLayer
370
18
48
1
60
0
100
AcDbSpline
70
4
71
3
72
8
73
4
40
0
40
0
40
0
40
0
40
1
40
1
40
1
40
1
41
1
10
26.8001889841441
20
-8.3439371883452
30
0
41
1
10
25.8667926560961
20
-8.44139224090097
30
0
41
1
10
24.933396328048
20
-8.50796099416038
30
0
41
1
10
24
20
-8.54219687899732
30
0
0
SPLINE
5
DA
100
AcDbEntity
8
1
62
256
6
ByLayer
370
18
48
1
60
0
100
AcDbSpline
70
4
71
3
72
9
73
5
40
0
40
0
40
0
40
0
40
0.5
40
1
40
1
40
1
40
1
41
1
10
21.3855890644672
20
8.27376202318115
30
0
41
1
10
21.5456873889224
20
8.20088764361935
30
0
41
1
10
21.8688885930115
20
8.05827070758323
30
0
41
1
10
22.1981008656846
20
7.92191945889584
30
0
41
1
10
22.3642349278269
20
7.85533648072754
30
0
0
SPLINE
5
DB
100
AcDbEntity
8
1
62
256
6
ByLayer
370
18
48
1
60
0
100
AcDbSpline
70
4
71
3
72
8
73
4
40
0
40
0
40
0
40
0
40
1
40
1
40
1
40
1
41
1
10
21.325850693451
20
7.06655926780925
30
0
41
0.999860632202564
10
21.4055407927554
20
7.01829545489203
30
0
41
0.999860632202564
10
21.4855223955588
20
6.97088369945922
30
0
41
1
10
21.5657620612813
20
6.92434382452666
30
0
0
SPLINE
5
DC
100
AcDbEntity
8
1
62
256
6
ByLayer
370
18
48
1
60
0
100
AcDbSpline
70
4
71
3
72
8
73
4
40
0
40
0
40
0
40
0
40
1
40
1
40
1
40
1
41
1
10
21.2439861605768
20
6.51140620416288
30
0
41
0.999999963487951
10
21.2452484766856
20
6.51067352682744
30
0
41
0.999999963487951
10
21.2465108544514
20
6.50994107389285
30
0
41
1
10
21.2477732937357
20
6.50920884543939
30
0
0
SPLINE
5
DD
100
AcDbEntity
8
1
62
256
6
ByLayer
370
18
48
1
60
0
100
AcDbSpline
70
4
71
3
72
13
73
9
40
0
40
0
40
0
40
0
40
0.500000000000001
40
0.500000000000001
40
0.625000000000001
40
0.625000000000001
40
0.750000000000001
40
1
40
1
40
1
40
1
41
1
10
57.6783360317358
20
5.64307542317567
30
0
41
1
10
57.6962230363404
20
5.60342350719577
30
0
41
1
10
57.708880626706
20
5.56950861551735
30
0
41
1
10
57.7167090358556
20
5.53588450239926
30
0
41
1
10
57.7178685493406
20
5.52961194929117
30
0
41
1
10
57.7193332278105
20
5.51806832056621
30
0
41
1
10
57.7202548689453
20
5.5022271306355
30
0
41
1
10
57.7172284625581
20
5.49094962930667
30
0
41
1
10
57.713317748455
20
5.48561960811639
30
0
0
SPLINE
5
DE
100
AcDbEntity
8
1
62
256
6
ByLayer
370
18
48
1
60
0
100
AcDbSpline
70
4
71
3
72
8
73
4
40
0
40
0
40
0
40
0
40
1
40
1
40
1
40
1
41
1
10
57.713317748607
20
5.48561960806487
30
0
41
1
10
57.7108914235094
20
5.48231127889284
30
0
41
1
10
57.7066003097868
20
5.48118887521727
30
0
41
1
10
57.7003488910325
20
5.48240951262832
30
0
0
SPLINE
5
DF
100
AcDbEntity
8
1
62
256
6
ByLayer
370
18
48
1
60
0
100
AcDbSpline
70
4
71
3
72
26
73
22
40
0
40
0
40
0
40
0
40
0.125
40
0.249999999999999
40
0.249999999999999
40
0.312499999999999
40
0.343749999999999
40
0.343749999999999
40
0.374999999999999
40
0.374999999999999
40
0.499999999999998
40
0.499999999999998
40
0.624999999999998
40
0.749999999999997
40
0.749999999999997
40
0.812499999999996
40
0.843749999999997
40
0.843749999999997
40
0.874999999999997
40
0.874999999999997
40
1
40
1
40
1
40
1
41
1
10
61.3912703173571
20
0.216918608532978
30
0
41
1
10
61.3757015813931
20
0.0424952039859363
30
0
41
1
10
61.3498714536927
20
-0.310623516613958
30
0
41
1
10
61.3347417117837
20
-0.672355038498296
30
0
41
1
10
61.3275068915198
20
-0.946963843380246
30
0
41
1
10
61.3249186849158
20
-1.08509665758493
30
0
41
1
10
61.3239034978065
20
-1.22449560411323
30
0
41
1
10
61.3235803012982
20
-1.3177128456733
30
0
41
1
10
61.3235960916258
20
-1.36436922093361
30
0
41
1
10
61.3245551259017
20
-1.59730629957292
30
0
41
1
10
61.3281322850559
20
-1.78313208077054
30
0
41
1
10
61.3407364581959
20
-2.15376757602968
30
0
41
1
10
61.3587911583931
20
-2.52338687882335
30
0
41
1
10
61.3875974330776
20
-2.89100166556364
30
0
41
1
10
61.4132448845223
20
-3.16595902897853
30
0
41
1
10
61.4270803125948
20
-3.30324908960506
30
0
41
1
10
61.4424448098695
20
-3.44025407163528
30
0
41
1
10
61.4530295586701
20
-3.53152701057513
30
0
41
1
10
61.4584965419439
20
-3.57716082655287
30
0
41
1
10
61.4866167149868
20
-3.80457986081521
30
0
41
1
10
61.5116536700886
20
-3.98442036983909
30
0
41
1
10
61.5391905739596
20
-4.16219985308479
30
0
0
SPLINE
5
E0
100
AcDbEntity
8
1
62
256
6
ByLayer
370
18
48
1
60
0
100
AcDbSpline
70
4
71
3
72
54
73
50
40
0
40
0
40
0
40
0
40
0.0625000000000025
40
0.0625000000000025
40
0.125000000000005
40
0.125000000000005
40
0.156250000000006
40
0.156250000000006
40
0.171875000000007
40
0.171875000000007
40
0.187500000000007
40
0.187500000000007
40
0.250000000000008
40
0.250000000000008
40
0.312500000000008
40
0.312500000000008
40
0.343750000000008
40
0.343750000000008
40
0.359375000000008
40
0.359375000000008
40
0.375000000000007
40
0.375000000000007
40
0.437500000000006
40
0.437500000000006
40
0.500000000000005
40
0.500000000000005
40
0.531250000000005
40
0.531250000000005
40
0.546875000000005
40
0.546875000000005
40
0.562500000000006
40
0.562500000000006
40
0.625000000000005
40
0.625000000000005
40
0.687500000000003
40
0.687500000000003
40
0.750000000000002
40
0.750000000000002
40
0.781250000000003
40
0.781250000000003
40
0.796875000000003
40
0.796875000000003
40
0.812500000000003
40
0.812500000000003
40
0.875000000000002
40
0.875000000000002
40
0.937500000000001
40
0.937500000000001
40
1
40
1
40
1
40
1
41
1
10
57.7003488911919
20
5.4824095125675
30
0
41
1
10
57.6704199741599
20
5.48825582018546
30
0
41
1
10
57.6486161887277
20
5.48465309595252
30
0
41
1
10
57.6214333771799
20
5.45834665596618
30
0
41
1
10
57.6160530156833
20
5.43564449305302
30
0
41
1
10
57.620704718478
20
5.38679605484433
30
0
41
1
10
57.6243786275204
20
5.36804392571352
30
0
41
1
10
57.6331544748206
20
5.33611875537423
30
0
41
1
10
57.6366241385023
20
5.32484394978965
30
0
41
1
10
57.6446683198309
20
5.30100946094947
30
0
41
1
10
57.6492503070499
20
5.28843293702064
30
0
41
1
10
57.6747765740922
20
5.22275316687825
30
0
41
1
10
57.7036286592969
20
5.16101503953689
30
0
41
1
10
57.7774124553086
20
5.02000351890797
30
0
41
1
10
57.82234626661
20
4.94072783497469
30
0
41
1
10
57.9015203985414
20
4.80897508210103
30
0
41
1
10
57.9298769016371
20
4.76291447507319
30
0
41
1
10
57.9753483845471
20
4.69062098305116
30
0
41
1
10
57.9910025153064
20
4.66597775510553
30
0
41
1
10
58.023259568921
20
4.61567098336761
30
0
41
1
10
58.0398043316594
20
4.59009790873196
30
0
41
1
10
58.1245573114635
20
4.46018653673425
30
0
41
1
10
58.1988364628656
20
4.34972694432
30
0
41
1
10
58.3593025546444
20
4.11680119086881
30
0
41
1
10
58.4454929987195
20
3.99433149706894
30
0
41
1
10
58.5831988697609
20
3.80213690262877
30
0
41
1
10
58.6305066531854
20
3.73665454953857
30
0
41
1
10
58.7035326719333
20
3.63634955177483
30
0
41
1
10
58.7282101252242
20
3.60257988008473
30
0
41
1
10
58.7780014323968
20
3.53468612143334
30
0
41
1
10
58.8031445134731
20
3.50052181625412
30
0
41
1
10
58.9300619738887
20
3.32864398961544
30
0
41
1
10
59.0354322657345
20
3.18777057534976
30
0
41
1
10
59.253126351976
20
2.89991338605958
30
0
41
1
10
59.3654525014229
20
2.75292754154401
30
0
41
1
10
59.5965613737925
20
2.45328216605842
30
0
41
1
10
59.7153455471228
20
2.30062136054983
30
0
41
1
10
59.8981108650604
20
2.06759753715892
30
0
41
1
10
59.9597985983211
20
1.98924984473283
30
0
41
1
10
60.0534563695806
20
1.87073868779836
30
0
41
1
10
60.0848923826585
20
1.83103344539137
30
0
41
1
10
60.147980992811
20
1.75149204568123
30
0
41
1
10
60.1796212885685
20
1.71167123298619
30
0
41
1
10
60.3382912977736
20
1.51232256879024
30
0
41
1
10
60.4667234408792
20
1.35206256566727
30
0
41
1
10
60.7263419350021
20
1.03010469922018
30
0
41
1
10
60.8575289589242
20
0.868406484599745
30
0
41
1
10
61.1224889148922
20
0.543660057648452
30
0
41
1
10
61.2562622638794
20
0.380611627649387
30
0
41
1
10
61.3912703173571
20
0.216918608532978
30
0
0
SPLINE
5
E1
100
AcDbEntity
8
1
62
256
6
ByLayer
370
18
48
1
60
0
100
AcDbSpline
70
4
71
3
72
24
73
20
40
0
40
0
40
0
40
0
40
0.125
40
0.25
40
0.25
40
0.281249999999999
40
0.281249999999999
40
0.312499999999999
40
0.374999999999999
40
0.374999999999999
40
0.499999999999996
40
0.499999999999996
40
0.562499999999995
40
0.562499999999995
40
0.624999999999995
40
0.624999999999995
40
0.749999999999996
40
0.874999999999998
40
1
40
1
40
1
40
1
41
1
10
61.53919057396
20
-4.16219985308504
30
0
41
1
10
61.5849555830419
20
-4.3507587439135
30
0
41
1
10
61.6812745208554
20
-4.71781506081908
30
0
41
1
10
61.7869043221499
20
-5.06530936132685
30
0
41
1
10
61.8558038405196
20
-5.27644057722171
30
0
41
1
10
61.8697347582015
20
-5.31838330853725
30
0
41
1
10
61.8978318812144
20
-5.40150653614384
30
0
41
1
10
61.9403421997882
20
-5.52508568217621
30
0
41
1
10
61.9839371345463
20
-5.64537590034624
30
0
41
1
10
62.0725548635755
20
-5.88162657745576
30
0
41
1
10
62.1335350761487
20
-6.03336034241616
30
0
41
1
10
62.2278240967163
20
-6.25241372058611
30
0
41
1
10
62.2597632746133
20
-6.32408645542142
30
0
41
1
10
62.3242724593081
20
-6.46392045344922
30
0
41
1
10
62.356865050669
20
-6.53214044167834
30
0
41
1
10
62.4556378106201
20
-6.73180482447881
30
0
41
1
10
62.589985098015
20
-6.98471762017613
30
0
41
1
10
62.7992653833063
20
-7.32512898478277
30
0
41
1
10
62.9439208100989
20
-7.52628712129064
30
0
41
1
10
63.0175446892067
20
-7.62035845699586
30
0
0
SPLINE
5
E2
100
AcDbEntity
8
1
62
256
6
ByLayer
370
18
48
1
60
0
100
AcDbSpline
70
4
71
3
72
19
73
15
40
0
40
0
40
0
40
0
40
0.067641058188438
40
0.134238125460692
40
0.200835192732947
40
0.267432260005201
40
0.367327860913583
40
0.433924928185837
40
0.533820529094219
40
0.633716130002601
40
0.700313197274855
40
0.800208798183237
40
0.866805865455491
40
1
40
1
40
1
40
1
41
1
10
61.5391905739601
20
-4.16219985308496
30
0
41
1
10
60.6927937159734
20
-3.82498513298995
30
0
41
1
10
59.0130635246534
20
-3.13071320261534
30
0
41
1
10
56.5
20
-2.03633892983015
30
0
41
1
10
54
20
-0.91101002315429
30
0
41
0.999999999999999
10
51.0833333333333
20
0.419639154956116
30
0
41
1
10
48.1666666666667
20
1.7448649710984
30
0
41
1
10
44.8333333333333
20
3.20282593798953
30
0
41
1
10
41.5000000000001
20
4.57125623067569
30
0
41
1
10
38.1666666666667
20
5.77939193485108
30
0
41
1
10
34.8333333333333
20
6.81354978075263
30
0
41
1
10
31.9166666666667
20
7.54511300294357
30
0
41
1
10
28.1666666666667
20
8.23473590830125
30
0
41
1
10
25.6666666666668
20
8.48106549638186
30
0
41
1
10
24
20
8.54219687899712
30
0
0
SPLINE
5
E3
100
AcDbEntity
8
1
62
256
6
ByLayer
370
18
48
1
60
0
100
AcDbSpline
70
4
71
3
72
24
73
20
40
0
40
0
40
0
40
0
40
0.250000000000072
40
0.250000000000072
40
0.375000000000107
40
0.375000000000107
40
0.437500000000113
40
0.437500000000113
40
0.500000000000118
40
0.500000000000118
40
0.625000000000109
40
0.625000000000109
40
0.687500000000098
40
0.687500000000098
40
0.750000000000088
40
0.750000000000088
40
0.875000000000044
40
0.875000000000044
40
1
40
1
40
1
40
1
41
1
10
63.0175446895793
20
-7.62035845690636
30
0
41
1
10
63.0328716791953
20
-7.6399420963015
30
0
41
1
10
63.0475299636834
20
-7.66261055103763
30
0
41
1
10
63.0684622189455
20
-7.70148086809047
30
0
41
1
10
63.0752623928334
20
-7.71525529072744
30
0
41
1
10
63.0851745933423
20
-7.7372457814981
30
0
41
1
10
63.0884305237958
20
-7.7447980039957
30
0
41
1
10
63.0948405704163
20
-7.76037213050319
30
0
41
1
10
63.0980024637896
20
-7.7684154534789
30
0
41
1
10
63.1072514366243
20
-7.79309927019062
30
0
41
1
10
63.113107787105
20
-7.81029407593459
30
0
41
1
10
63.1213904414264
20
-7.83728398861535
30
0
41
1
10
63.1240674423689
20
-7.84648081292835
30
0
41
1
10
63.1292439545755
20
-7.86529803641727
30
0
41
1
10
63.1317499729849
20
-7.87494596426382
30
0
41
1
10
63.1389253564885
20
-7.90432991550105
30
0
41
1
10
63.1432539488853
20
-7.92448853110864
30
0
41
1
10
63.150928354647
20
-7.96603546519268
30
0
41
1
10
63.15427512509
20
-7.9874225861644
30
0
41
1
10
63.1570625353415
20
-8.00950960688002
30
0
0
SPLINE
5
E4
100
AcDbEntity
8
1
62
256
6
ByLayer
370
13
48
1
60
0
100
AcDbSpline
70
4
71
3
72
19
73
15
40
0
40
0
40
0
40
0
40
0.113701806118971
40
0.184455098802201
40
0.25520839148543
40
0.325961684168659
40
0.432091623193503
40
0.502844915876732
40
0.608974854901576
40
0.715104793926419
40
0.785858086609649
40
0.891988025634492
40
0.962741318317721
40
1
40
1
40
1
40
1
41
1
10
63.0175446896877
20
-7.62035845684068
30
0
41
1
10
61.6783631264584
20
-7.33614688282418
30
0
41
1
10
59.5058482298959
20
-6.78047256735695
30
0
41
1
10
56.4999999999999
20
-5.82948337459601
30
0
41
1
10
54
20
-4.93341907472276
30
0
41
0.999999999999999
10
51.0833333333333
20
-3.79021756248653
30
0
41
1
10
48.1666666666667
20
-2.54330789453437
30
0
41
1
10
44.8333333333333
20
-1.04707152206828
30
0
41
1
10
41.5
20
0.481889894887701
30
0
41
1
10
38.1666666666666
20
1.99612247527457
30
0
41
1
10
34.8333333333333
20
3.44692623845325
30
0
41
1
10
31.9166666666667
20
4.62948103991067
30
0
41
1
10
29.3945000264383
20
5.54765872833909
30
0
41
1
10
28.1223333862098
20
5.9718743148365
30
0
41
1
10
27.6835000793147
20
6.11321055214137
30
0
0
SPLINE
5
E5
100
AcDbEntity
8
1
62
256
6
ByLayer
370
13
48
1
60
0
100
AcDbSpline
70
4
71
3
72
13
73
9
40
0
40
0
40
0
40
0
40
0.274711765487556
40
0.412067648231334
40
0.618101472347001
40
0.755457355090778
40
0.961491179206445
40
1
40
1
40
1
40
1
41
1
10
24
20
0.817654236185433
30
0
41
1
10
25.6666666666667
20
0.335984092667132
30
0
41
1
10
28.1666666666667
20
-0.400540556931986
30
0
41
1
10
31.9166666666667
20
-1.48255858444247
30
0
41
1
10
34.8333333333333
20
-2.28820874004234
30
0
41
1
10
38.1666666666666
20
-3.13674276815189
30
0
41
1
10
40.483631667997
20
-3.66637587728331
30
0
41
1
10
41.967263335994
20
-3.96897965843547
30
0
41
1
10
42.200895003991
20
-4.01569521925464
30
0
0
SPLINE
5
E6
100
AcDbEntity
8
1
62
256
6
ByLayer
370
18
48
1
60
0
100
AcDbSpline
70
4
71
3
72
19
73
15
40
0
40
0
40
0
40
0
40
0.0735378392198133
40
0.0735378392198133
40
0.382358559479815
40
0.382358559479815
40
0.459563739544826
40
0.498166329577338
40
0.498166329577338
40
0.536768919609851
40
0.536768919609851
40
0.691179279739901
40
0.691179279739901
40
1
40
1
40
1
40
1
41
1
10
16.4886355774708
20
-9.99999322186002
30
0
41
1
10
16.5474017142082
20
-10.0000180525563
30
0
41
1
10
16.6057833481232
20
-9.99998145981849
30
0
41
1
10
16.9072383962331
20
-9.99939207551205
30
0
41
1
10
17.1436110180355
20
-9.99762905256421
30
0
41
1
10
17.4281753236853
20
-9.9915735008228
30
0
41
1
10
17.5127252293522
20
-9.98946017034504
30
0
41
1
10
17.5959841936154
20
-9.98681294845903
30
0
41
1
10
17.6511962419582
20
-9.98491833322311
30
0
41
1
10
17.6786844015197
20
-9.98390499233318
30
0
41
1
10
17.8149868810148
20
-9.9785006140205
30
0
41
1
10
17.9201596575609
20
-9.97311113222011
30
0
41
1
10
18.2239371047572
20
-9.95281795351917
30
0
41
1
10
18.4107599706956
20
-9.93381980055102
30
0
41
1
10
18.5820380170325
20
-9.90647976435238
30
0
0
SPLINE
5
E7
100
AcDbEntity
8
1
62
256
6
ByLayer
370
18
48
1
60
0
100
AcDbSpline
70
4
71
3
72
67
73
63
40
0
40
0
40
0
40
0
40
0.031249999999999
40
0.031249999999999
40
0.062499999999998
40
0.062499999999998
40
0.093749999999997
40
0.093749999999997
40
0.109374999999996
40
0.109374999999996
40
0.124999999999996
40
0.124999999999996
40
0.187499999999995
40
0.187499999999995
40
0.218749999999994
40
0.218749999999994
40
0.234374999999994
40
0.234374999999994
40
0.249999999999994
40
0.249999999999994
40
0.312499999999995
40
0.312499999999995
40
0.328124999999997
40
0.328124999999997
40
0.343749999999998
40
0.343749999999998
40
0.374999999999999
40
0.374999999999999
40
0.437500000000002
40
0.437500000000002
40
0.453125000000003
40
0.453125000000003
40
0.468750000000004
40
0.500000000000004
40
0.531250000000004
40
0.531250000000004
40
0.546875000000004
40
0.546875000000004
40
0.562500000000004
40
0.562500000000004
40
0.625000000000009
40
0.625000000000009
40
0.65625000000001
40
0.65625000000001
40
0.671875000000011
40
0.671875000000011
40
0.687500000000012
40
0.750000000000012
40
0.750000000000012
40
0.765625000000012
40
0.765625000000012
40
0.781250000000012
40
0.781250000000012
40
0.812500000000013
40
0.875000000000011
40
0.875000000000011
40
0.890625000000009
40
0.890625000000009
40
0.906250000000007
40
0.937500000000006
40
0.937500000000006
40
1
40
1
40
1
40
1
41
1
10
18.5820380170325
20
-9.90647976435238
30
0
41
1
10
18.5763095944058
20
-9.88665452426352
30
0
41
1
10
18.5675358262113
20
-9.86377069257611
30
0
41
1
10
18.5449405890878
20
-9.81198679648978
30
0
41
1
10
18.5311143744754
20
-9.78308649149582
30
0
41
1
10
18.4991029203838
20
-9.71932590870136
30
0
41
1
10
18.4809149014439
20
-9.68446549462129
30
0
41
1
10
18.4507073677334
20
-9.62771825707705
30
0
41
1
10
18.4401490417478
20
-9.60805945310045
30
0
41
1
10
18.4180956141262
20
-9.56725462316055
30
0
41
1
10
18.4066088785128
20
-9.54612424383257
30
0
41
1
10
18.3470912928471
20
-9.43706816691255
30
0
41
1
10
18.2927750526244
20
-9.33875998560472
30
0
41
1
10
18.2023943306379
20
-9.17513740165163
30
0
41
1
10
18.1707694323575
20
-9.11789928680167
30
0
41
1
10
18.1211262762824
20
-9.02801899516498
30
0
41
1
10
18.104217921797
20
-8.99740194274031
30
0
41
1
10
18.0697505633351
20
-8.93498325847696
30
0
41
1
10
18.0521825224949
20
-8.90316528429244
30
0
41
1
10
17.9626788611675
20
-8.74106591668092
30
0
41
1
10
17.8857865518125
20
-8.6017676315667
30
0
41
1
10
17.7828374241383
20
-8.41603467786015
30
0
41
1
10
17.7619038596688
20
-8.37830689078379
30
0
41
1
10
17.7193357248419
20
-8.3016966885298
30
0
41
1
10
17.6977071187915
20
-8.2628251048219
30
0
41
1
10
17.6318974694533
20
-8.14476165172454
30
0
41
1
10
17.5867480216929
20
-8.064038871457
30
0
41
1
10
17.4473053557318
20
-7.81602622845665
30
0
41
1
10
17.3490379371729
20
-7.64289449731086
30
0
41
1
10
17.2187179458223
20
-7.41733788416289
30
0
41
1
10
17.1922818744233
20
-7.37177614779114
30
0
41
1
10
17.1387501832417
20
-7.27995677254307
30
0
41
1
10
17.0574207798181
20
-7.14111100932215
30
0
41
1
10
16.9165477101256
20
-6.90428409991273
30
0
41
1
10
16.7977552351891
20
-6.70939839540634
30
0
41
1
10
16.7061932348878
20
-6.5613356407126
30
0
41
1
10
16.6752610121616
20
-6.51166501630399
30
0
41
1
10
16.6125395572074
20
-6.41171429089565
30
0
41
1
10
16.5807513801394
20
-6.36143645843495
30
0
41
1
10
16.4199360706453
20
-6.10914020114012
30
0
41
1
10
16.2850317708073
20
-5.90395884151786
30
0
41
1
10
16.0717363291883
20
-5.59262889961539
30
0
41
1
10
15.9988110746255
20
-5.48826046888931
30
0
41
1
10
15.8864539852312
20
-5.33101712460973
30
0
41
1
10
15.848503836944
20
-5.27848489627448
30
0
41
1
10
15.7717484847189
20
-5.17346268994928
30
0
41
1
10
15.5776153117726
20
-4.91086743051912
30
0
41
1
10
15.3718862135177
20
-4.64851379018034
30
0
41
1
10
15.1554832721102
20
-4.38790546166001
30
0
41
1
10
15.1116683182936
20
-4.33587156876501
30
0
41
1
10
15.0229321198923
20
-4.23202024733143
30
0
41
1
10
14.9780027216951
20
-4.18019464112766
30
0
41
1
10
14.8418314404556
20
-4.02547838389023
30
0
41
1
10
14.5636448267283
20
-3.71871641550811
30
0
41
1
10
14.2669678161204
20
-3.4213782831726
30
0
41
1
10
14.0084233401434
20
-3.18038340823278
30
0
41
1
10
13.9561160809448
20
-3.13249470850025
30
0
41
1
10
13.8505824846357
20
-3.0376445920657
30
0
41
1
10
13.6908633392038
20
-2.89671883430009
30
0
41
1
10
13.5268330170935
20
-2.75996870389645
30
0
41
1
10
13.1928993922142
20
-2.49234420592813
30
0
41
1
10
12.9624373879073
20
-2.32177510268076
30
0
41
1
10
12.7239046515807
20
-2.15972914466633
30
0
0
SPLINE
5
E8
100
AcDbEntity
8
1
62
256
6
ByLayer
370
18
48
1
60
0
100
AcDbSpline
70
4
71
3
72
8
73
4
40
0
40
0
40
0
40
0
40
1
40
1
40
1
40
1
41
1
10
12.7239046515807
20
-2.15972914466633
30
0
41
1
10
12.6773675311686
20
-2.12811439703654
30
0
41
1
10
12.6332843692503
20
-2.09353731100575
30
0
41
1
10
12.5926322471986
20
-2.05480530506338
30
0
0
SPLINE
5
E9
100
AcDbEntity
8
1
62
256
6
ByLayer
370
18
48
1
60
0
100
AcDbSpline
70
4
71
3
72
75
73
71
40
0
40
0
40
0
40
0
40
0.0156250000000035
40
0.0156250000000035
40
0.0312500000000083
40
0.0312500000000083
40
0.0390625000000107
40
0.0390625000000107
40
0.0468750000000131
40
0.0468750000000131
40
0.0625000000000179
40
0.0625000000000179
40
0.0703125000000204
40
0.0703125000000204
40
0.0742187500000214
40
0.0742187500000214
40
0.0781250000000225
40
0.0937500000000268
40
0.0937500000000268
40
0.101562500000029
40
0.10546875000003
40
0.10546875000003
40
0.109375000000031
40
0.109375000000031
40
0.125000000000034
40
0.125000000000034
40
0.140625000000037
40
0.140625000000037
40
0.148437500000038
40
0.148437500000038
40
0.156250000000039
40
0.156250000000039
40
0.171875000000041
40
0.171875000000041
40
0.187500000000043
40
0.187500000000043
40
0.218750000000048
40
0.218750000000048
40
0.226562500000049
40
0.226562500000049
40
0.23437500000005
40
0.250000000000052
40
0.250000000000052
40
0.281250000000054
40
0.281250000000054
40
0.312500000000056
40
0.312500000000056
40
0.328125000000055
40
0.328125000000055
40
0.343750000000055
40
0.343750000000055
40
0.375000000000054
40
0.375000000000054
40
0.437500000000052
40
0.437500000000052
40
0.500000000000049
40
0.500000000000049
40
0.531250000000047
40
0.531250000000047
40
0.562500000000044
40
0.562500000000044
40
0.625000000000039
40
0.625000000000039
40
0.750000000000028
40
0.750000000000028
40
0.812500000000021
40
0.812500000000021
40
0.875000000000014
40
0.875000000000014
40
1
40
1
40
1
40
1
41
1
10
12.5926322471986
20
-2.05480530506341
30
0
41
1
10
12.5488611135339
20
-2.01310160735605
30
0
41
1
10
12.5072847994626
20
-1.96966299094609
30
0
41
1
10
12.4292380011447
20
-1.87873779667092
30
0
41
1
10
12.3927638173206
20
-1.83125420560026
30
0
41
1
10
12.3426089796523
20
-1.7564060688191
30
0
41
1
10
12.3266524466509
20
-1.73085101066295
30
0
41
1
10
12.2964206067867
20
-1.67840224377173
30
0
41
1
10
12.2822608324078
20
-1.65169871709941
30
0
41
1
10
12.2430185230949
20
-1.57054013716836
30
0
41
1
10
12.2210611571466
20
-1.51485533887498
30
0
41
1
10
12.1949762266841
20
-1.42874502768805
30
0
41
1
10
12.1874243022905
20
-1.39961060824709
30
0
41
1
10
12.1778913082342
20
-1.35523097193126
30
0
41
1
10
12.1750073178541
20
-1.34029052185878
30
0
41
1
10
12.1698814962477
20
-1.31035459166165
30
0
41
1
10
12.1586837935253
20
-1.23548743051373
30
0
41
1
10
12.1554012406977
20
-1.16048437651708
30
0
41
1
10
12.1585394146235
20
-1.07035257053443
30
0
41
1
10
12.1618794706077
20
-1.02525462313349
30
0
41
1
10
12.1677917091703
20
-0.980108967961172
30
0
41
1
10
12.172296241963
20
-0.950001298017781
30
0
41
1
10
12.1748318304994
20
-0.934940012405519
30
0
41
1
10
12.188768132639
20
-0.86021764456251
30
0
41
1
10
12.2039933482944
20
-0.801798354309256
30
0
41
1
10
12.241188506504
20
-0.687203935903256
30
0
41
1
10
12.2631641398064
20
-0.63103072587225
30
0
41
1
10
12.3004251374733
20
-0.548198482718135
30
0
41
1
10
12.3135641658606
20
-0.520826484288392
30
0
41
1
10
12.3411760971199
20
-0.4665252407774
30
0
41
1
10
12.3556095650383
20
-0.439678527157753
30
0
41
1
10
12.4003575700411
20
-0.36042067934298
30
0
41
1
10
12.4322135084211
20
-0.309084812421361
30
0
41
1
10
12.4992367498653
20
-0.208871258113135
30
0
41
1
10
12.5344071471791
20
-0.159995870350258
30
0
41
1
10
12.6440955744796
20
-0.0164701945841443
30
0
41
1
10
12.7227517011077
20
0.0751086873658551
30
0
41
1
10
12.8262174445487
20
0.185764226336971
30
0
41
1
10
12.8471886264714
20
0.207719542417095
30
0
41
1
10
12.8895133968934
20
0.251159295285561
30
0
41
1
10
12.9535778638091
20
0.315617987805723
30
0
41
1
10
13.0192440914688
20
0.378131415053787
30
0
41
1
10
13.1524337664438
20
0.500901656633943
30
0
41
1
10
13.2436905985012
20
0.579754883176037
30
0
41
1
10
13.4300677170887
20
0.732762448613016
30
0
41
1
10
13.5251942244811
20
0.806909264997216
30
0
41
1
10
13.6702496074287
20
0.915249726874777
30
0
41
1
10
13.7189977543301
20
0.950880734091982
30
0
41
1
10
13.8172170462693
20
1.02126224949305
30
0
41
1
10
13.8666920847325
20
1.05601444754976
30
0
41
1
10
14.0157868551991
20
1.15883901106994
30
0
41
1
10
14.1161852171113
20
1.22556586231715
30
0
41
1
10
14.4199031891145
20
1.42114627629513
30
0
41
1
10
14.6257220306726
20
1.54544220040722
30
0
41
1
10
15.0423324333329
20
1.78492809343047
30
0
41
1
10
15.2531378894627
20
1.90009313971433
30
0
41
1
10
15.5722930556478
20
2.06742308043323
30
0
41
1
10
15.6791729346503
20
2.12229020754563
30
0
41
1
10
15.8938233948021
20
2.23038407019081
30
0
41
1
10
16.0016243402916
20
2.28362508413363
30
0
41
1
10
16.3259871976476
20
2.4409891004278
30
0
41
1
10
16.5434765292182
20
2.54275221948993
30
0
41
1
10
17.1990498475512
20
2.84015736071925
30
0
41
1
10
17.6402075655112
20
3.02799231258283
30
0
41
1
10
18.306463848331
20
3.29810895363258
30
0
41
1
10
18.5293294142186
20
3.38619092529723
30
0
41
1
10
18.9760768672035
20
3.55876451675471
30
0
41
1
10
19.2000002446834
20
3.64327224605421
30
0
41
1
10
19.8732261729412
20
3.89203546734794
30
0
41
1
10
20.3239765222222
20
4.0515553877176
30
0
41
1
10
20.7762749881159
20
4.2058985724081
30
0
0
SPLINE
5
EA
100
AcDbEntity
8
1
62
256
6
ByLayer
370
18
48
1
60
0
100
AcDbSpline
70
4
71
3
72
8
73
4
40
0
40
0
40
0
40
0
40
1
40
1
40
1
40
1
41
1
10
63.6158737516336
20
-9.86740529381575
30
0
41
1
10
63.6478737185299
20
-9.90582477098212
30
0
41
1
10
63.6811110950225
20
-9.94297762386299
30
0
41
1
10
63.7157292685544
20
-9.97870842722921
30
0
0
SPLINE
5
EB
100
AcDbEntity
8
1
62
256
6
ByLayer
370
18
48
1
60
0
100
AcDbSpline
70
4
71
3
72
17
73
13
40
0
40
0
40
0
40
0
40
0.100173173200412
40
0.200306718756076
40
0.300401074782204
40
0.400456674274287
40
0.500473945161719
40
0.600453310360488
40
0.700395187825026
40
0.80029999059924
40
0.900168126866705
40
1
40
1
40
1
40
1
41
1
10
21.5657620635878
20
6.92434382405921
30
0
41
1
10
21.5550440344852
20
6.91023027030886
30
0
41
1
10
21.53361221624
20
6.88200874600849
30
0
41
1
10
21.5015509530792
20
6.83988809158993
30
0
41
1
10
21.4695611313931
20
6.79793272596285
30
0
41
1
10
21.4376484951926
20
6.75615695348333
30
0
41
1
10
21.4058114758878
20
6.71455648474441
30
0
41
1
10
21.3740505970497
20
6.67313233469955
30
0
41
1
10
21.3423653235813
20
6.63188286189094
30
0
41
1
10
21.310757263921
20
6.59081172293617
30
0
41
1
10
21.2792205155934
20
6.54990402414262
30
0
41
1
10
21.2582544346598
20
6.52277226207823
30
0
41
1
10
21.2477732977879
20
6.50920884444787
30
0
0
SPLINE
5
EC
100
AcDbEntity
8
1
62
256
6
ByLayer
370
18
48
1
60
0
100
AcDbSpline
70
4
71
3
72
8
73
4
40
0
40
0
40
0
40
0
40
1
40
1
40
1
40
1
41
1
10
63.4538128723261
20
-9.99282891003344
30
0
41
1
10
63.5411061131728
20
-9.98789516898549
30
0
41
1
10
63.6284116017097
20
-9.98318876533796
30
0
41
1
10
63.7157292685543
20
-9.97870842722921
30
0
0
SPLINE
5
ED
100
AcDbEntity
8
1
62
256
6
ByLayer
370
18
48
1
60
0
100
AcDbSpline
70
4
71
3
72
8
73
4
40
0
40
0
40
0
40
0
40
1
40
1
40
1
40
1
41
1
10
63.3072906555062
20
-9.99331733605067
30
0
41
1
10
63.3561309083295
20
-9.9930862089121
30
0
41
1
10
63.4049717421966
20
-9.99292336616509
30
0
41
1
10
63.4538128727479
20
-9.99282890974942
30
0
0
SPLINE
5
EE
100
AcDbEntity
8
1
62
256
6
ByLayer
370
18
48
1
60
0
100
AcDbSpline
70
4
71
3
72
46
73
42
40
0
40
0
40
0
40
0
40
0.0136978820710442
40
0.0359007951300823
40
0.0581037081891204
40
0.0803066212481585
40
0.124712447366235
40
0.146915360425273
40
0.158016816954792
40
0.169118273484311
40
0.191321186543349
40
0.213524099602387
40
0.235727012661426
40
0.257929925720464
40
0.280132838779502
40
0.30233575183854
40
0.324538664897578
40
0.346741577956616
40
0.391147404074692
40
0.41335031713373
40
0.435553230192768
40
0.457756143251807
40
0.479959056310845
40
0.524364882428921
40
0.546567795487959
40
0.568770708546997
40
0.613176534665073
40
0.635379447724112
40
0.65758236078315
40
0.679785273842188
40
0.701988186901226
40
0.724191099960264
40
0.746394013019302
40
0.790799839137379
40
0.835205665255455
40
0.857408578314493
40
0.879611491373531
40
0.901814404432569
40
0.924017317491607
40
0.968423143609684
40
1
40
1
40
1
40
1
41
1
10
21.2477732977879
20
6.50920884444787
30
0
41
1
10
21.4403412229923
20
6.43149650147629
30
0
41
1
10
21.9450798581867
20
6.22512655554161
30
0
41
1
10
22.7621184483176
20
5.88009099632524
30
0
41
1
10
23.6989201423386
20
5.46986886769082
30
0
41
1
10
24.9481681585511
20
4.9047136162163
30
0
41
1
10
26.1975868877327
20
4.31443044740888
30
0
41
1
10
27.2907707693832
20
3.77992615424137
30
0
41
1
10
27.9154007988154
20
3.46991136338198
30
0
41
1
10
28.5399960335386
20
3.15703142711661
30
0
41
1
10
29.3206729178988
20
2.76094366346925
30
0
41
1
10
30.2573814397574
20
2.27884351977397
30
0
41
1
10
31.1939787401694
20
1.79116862270229
30
0
41
1
10
32.1304661725142
20
1.29910600166181
30
0
41
1
10
33.06683583006
20
0.803886454362072
30
0
41
1
10
34.0030820825604
20
0.306729822190306
30
0
41
1
10
34.9391971276048
20
-0.191116500022645
30
0
41
1
10
36.1871768943814
20
-0.854186066015927
30
0
41
1
10
37.4349547756367
20
-1.51371226335829
30
0
41
1
10
38.6826305378418
20
-2.16490464423032
30
0
41
1
10
39.6183622545348
20
-2.6479392369483
30
0
41
1
10
40.5540953799695
20
-3.12440700179673
30
0
41
1
10
41.8017743196819
20
-3.74939332982007
30
0
41
1
10
43.0495299547861
20
-4.3566360179619
30
0
41
1
10
44.297417329128
20
-4.94164741068187
30
0
41
1
10
45.5453991278708
20
-5.51036632097782
30
0
41
1
10
46.7935036714912
20
-6.0525751853211
30
0
41
1
10
48.0416999694335
20
-6.5641481177874
30
0
41
1
10
48.9778860364032
20
-6.93153776272825
30
0
41
1
10
49.914100926197
20
-7.28184038846331
30
0
41
1
10
50.8503321740379
20
-7.61419288946951
30
0
41
1
10
51.7865481058215
20
-7.92759852424049
30
0
41
1
10
53.0348857446596
20
-8.31915726048311
30
0
41
1
10
54.5956885329067
20
-8.75786377519304
30
0
41
1
10
56.1577142711713
20
-9.12471164465259
30
0
41
1
10
57.4085002103237
20
-9.372664010508
30
0
41
1
10
58.3472678967025
20
-9.53535765780128
30
0
41
1
10
59.2868099271203
20
-9.67438865646434
30
0
41
1
10
60.5407001900513
20
-9.82773620034939
30
0
41
1
10
61.9291060182845
20
-9.94350378390419
30
0
41
1
10
63.0058764354804
20
-9.98439223753144
30
0
41
1
10
63.4538128719034
20
-9.99282891020627
30
0
0
SPLINE
5
EF
100
AcDbEntity
8
1
62
256
6
ByLayer
370
18
48
1
60
0
100
AcDbSpline
70
4
71
3
72
9
73
5
40
0
40
0
40
0
40
0
40
0.311987779297242
40
1
40
1
40
1
40
1
41
1
10
31.2673127737366
20
1.69070816853778
30
0
41
1
10
30.5115418491577
20
2.0585181152122
30
0
41
1
10
28.0891042579122
20
3.2245294395301
30
0
41
1
10
25.6666666666667
20
4.32248027403694
30
0
41
1
10
24
20
5.01765636521486
30
0
0
SPLINE
5
F0
100
AcDbEntity
8
1
62
256
6
ByLayer
370
18
48
1
60
0
100
AcDbSpline
70
4
71
3
72
8
73
4
40
0
40
0
40
0
40
0
40
1
40
1
40
1
40
1
41
1
10
63.7360525839286
20
-9.38025502829393
30
0
41
1
10
63.6991057382879
20
-9.53983436276243
30
0
41
1
10
63.6593094584588
20
-9.70198616841631
30
0
41
1
10
63.6158737391217
20
-9.86740529868101
30
0
0
SPLINE
5
F1
100
AcDbEntity
8
1
62
256
6
ByLayer
370
18
48
1
60
0
100
AcDbSpline
70
4
71
3
72
8
73
4
40
0
40
0
40
0
40
0
40
1
40
1
40
1
40
1
41
1
10
63.7360525839176
20
-9.38025502829407
30
0
41
1
10
63.5825019596568
20
-9.24340404525202
30
0
41
1
10
63.4297305019122
20
-9.09783992180621
30
0
41
1
10
63.2777272873445
20
-8.94368480974939
30
0
0
SPLINE
5
F2
100
AcDbEntity
8
1
62
256
6
ByLayer
370
18
48
1
60
0
100
AcDbSpline
70
4
71
3
72
8
73
4
40
0
40
0
40
0
40
0
40
1
40
1
40
1
40
1
41
1
10
24.0000000000001
20
7.42329954338067
30
0
41
1
10
23.4526283933174
20
7.57121857729086
30
0
41
1
10
22.9072595321554
20
7.71545562925539
30
0
41
1
10
22.3642904018825
20
7.85528085469608
30
0
0
SPLINE
5
F3
100
AcDbEntity
8
1
62
256
6
ByLayer
370
18
48
1
60
0
100
AcDbSpline
70
4
71
3
72
33
73
29
40
0
40
0
40
0
40
0
40
0.0382929118118619
40
0.0765978834454933
40
0.114915106410319
40
0.153244770098891
40
0.191587061764899
40
0.229942166502245
40
0.268310267225122
40
0.306691544649121
40
0.345086177273343
40
0.383494341363516
40
0.421916210936056
40
0.460351957743195
40
0.498801751258955
40
0.53726575866614
40
0.575744144844281
40
0.614237072358444
40
0.652744701448999
40
0.691267189894288
40
0.729804691592838
40
0.768357357324534
40
0.806925335931529
40
0.845508774360562
40
0.884107817682904
40
0.922722609113948
40
0.961353290032527
40
1
40
1
40
1
40
1
41
1
10
22.3642760175806
20
7.85526352113959
30
0
41
1
10
22.3537064639144
20
7.84253604793554
30
0
41
1
10
22.3325640278478
20
7.81707709318616
30
0
41
1
10
22.3009571599327
20
7.77913799622524
30
0
41
1
10
22.2694222035876
20
7.74137352955492
30
0
41
1
10
22.2379671847972
20
7.70380177456764
30
0
41
1
10
22.206589952821
20
7.66641752203964
30
0
41
1
10
22.1752910848085
20
7.62922179524875
30
0
41
1
10
22.144070426345
20
7.5922139355545
30
0
41
1
10
22.112928018871
20
7.55539372421796
30
0
41
1
10
22.0818638510606
20
7.51876081369025
30
0
41
1
10
22.0508779254778
20
7.4823148801874
30
0
41
1
10
22.0199702407115
20
7.44605558289766
30
0
41
1
10
21.9891407961688
20
7.40998257502986
30
0
41
1
10
21.958389590793
20
7.37409550095404
30
0
41
1
10
21.9277166234202
20
7.33839399710308
30
0
41
1
10
21.8971218926532
20
7.30287769174257
30
0
41
1
10
21.8666053970299
20
7.26754620550108
30
0
41
1
10
21.8361671345301
20
7.23239915002597
30
0
41
1
10
21.8058071049376
20
7.19743613395769
30
0
41
1
10
21.7755253017193
20
7.16265673877592
30
0
41
1
10
21.7453217321412
20
7.12806056758876
30
0
41
1
10
21.7151963506314
20
7.09364710688419
30
0
41
1
10
21.6851493122923
20
7.05941626898203
30
0
41
1
10
21.6551800233536
20
7.02536635808926
30
0
41
1
10
21.6252906874988
20
6.99150166757514
30
0
41
1
10
21.5954730625411
20
6.95780410869901
30
0
41
1
10
21.5756670964328
20
6.935498795564
30
0
41
1
10
21.5657620592797
20
6.9243438256876
30
0
0
SPLINE
5
F4
100
AcDbEntity
8
1
62
256
6
ByLayer
370
18
48
1
60
0
100
AcDbSpline
70
4
71
3
72
46
73
42
40
0
40
0
40
0
40
0
40
0.0061801490121501
40
0.028466245011593
40
0.050752341011036
40
0.0730384370104789
40
0.117610629009365
40
0.139896725008808
40
0.151039773008529
40
0.162182821008251
40
0.184468917007694
40
0.206755013007137
40
0.22904110900658
40
0.251327205006022
40
0.273613301005465
40
0.295899397004908
40
0.318185493004351
40
0.340471589003794
40
0.38504378100268
40
0.407329877002123
40
0.429615973001566
40
0.451902069001009
40
0.474188165000452
40
0.518760356999338
40
0.541046452998781
40
0.563332548998224
40
0.607904740997109
40
0.630190836996552
40
0.652476932995995
40
0.674763028995438
40
0.697049124994881
40
0.719335220994324
40
0.741621316993767
40
0.786193508992653
40
0.830765700991539
40
0.853051796990982
40
0.875337892990425
40
0.897623988989868
40
0.91991008498931
40
0.964482276988196
40
1
40
1
40
1
40
1
41
1
10
21.5657620592797
20
6.9243438256876
30
0
41
1
10
21.6523265051987
20
6.89162324931519
30
0
41
1
10
22.0510618053555
20
6.739897070529
30
0
41
1
10
22.7620670895529
20
6.4611879733832
30
0
41
1
10
23.6988681935231
20
6.07785901914838
30
0
41
1
10
24.9481135032674
20
5.54660620491669
30
0
41
1
10
26.1975324885348
20
4.98689706793252
30
0
41
1
10
27.2907125894817
20
4.47631169705807
30
0
41
1
10
27.9153445745247
20
4.17914228998939
30
0
41
1
10
28.5399436063849
20
3.8784796017801
30
0
41
1
10
29.3206230184283
20
3.49651802704668
30
0
41
1
10
30.2573318351538
20
3.02952677573387
30
0
41
1
10
31.1939212521494
20
2.55514518600612
30
0
41
1
10
32.1304072656211
20
2.07448084754071
30
0
41
1
10
33.0667835860996
20
1.58870802764426
30
0
41
1
10
34.0030351971836
20
1.09905645047377
30
0
41
1
10
34.9391415116555
20
0.606775355089013
30
0
41
1
10
36.1871181064287
20
-0.0515438964918928
30
0
41
1
10
37.434898891119
20
-0.710268584173775
30
0
41
1
10
38.6825784764883
20
-1.36463147170591
30
0
41
1
10
39.6183128390018
20
-1.85203955345611
30
0
41
1
10
40.5540410699303
20
-2.33485570843669
30
0
41
1
10
41.8017193860396
20
-2.97090960116736
30
0
41
1
10
43.0494699685446
20
-3.59301097982424
30
0
41
1
10
44.2973635910564
20
-4.19676067460847
30
0
41
1
10
45.545353174669
20
-4.78664064754466
30
0
41
1
10
46.7934495180337
20
-5.35353065734833
30
0
41
1
10
48.0416337440591
20
-5.89340490912107
30
0
41
1
10
48.9778296106983
20
-6.28356634228331
30
0
41
1
10
49.9140611923356
20
-6.65815952979989
30
0
41
1
10
50.8502846309987
20
-7.01645376951652
30
0
41
1
10
51.7864895180106
20
-7.35749890156509
30
0
41
1
10
53.0348300162363
20
-7.7875579827288
30
0
41
1
10
54.5956325668728
20
-8.27756859839218
30
0
41
1
10
56.15764804795
20
-8.69975162294315
30
0
41
1
10
57.4084560217798
20
-8.99438255801442
30
0
41
1
10
58.3472247131371
20
-9.19292312728538
30
0
41
1
10
59.2867617263489
20
-9.36867609428876
30
0
41
1
10
60.540640886883
20
-9.57189873699642
30
0
41
1
10
61.9828777172003
20
-9.75105016810426
30
0
41
1
10
63.1137605310134
20
-9.8389273523654
30
0
41
1
10
63.6158737397485
20
-9.8674052962736
30
0
0
SPLINE
5
F5
100
AcDbEntity
8
1
62
256
6
ByLayer
370
18
48
1
60
0
100
AcDbSpline
70
4
71
3
72
8
73
4
40
0
40
0
40
0
40
0
40
1
40
1
40
1
40
1
41
1
10
63.1570625355376
20
-8.00950960674652
30
0
41
1
10
63.1964433994381
20
-8.32153764032145
30
0
41
1
10
63.2366479069946
20
-8.63294229885858
30
0
41
1
10
63.2777272873445
20
-8.9436848097495
30
0
0
SPLINE
5
F6
100
AcDbEntity
8
1
62
256
6
ByLayer
370
18
48
1
60
0
100
AcDbSpline
70
4
71
3
72
18
73
14
40
0
40
0
40
0
40
0
40
0.126670580232795
40
0.202848517868264
40
0.279026455503733
40
0.355204393139202
40
0.469471299592406
40
0.545649237227876
40
0.65991614368108
40
0.774183050134284
40
0.850360987769753
40
0.964627894222957
40
1
40
1
40
1
40
1
41
1
10
63.1570625355778
20
-8.00950960672486
30
0
41
1
10
61.7713750237185
20
-7.73932056787308
30
0
41
1
10
59.552354178526
20
-7.20144147826514
30
0
41
1
10
56.5000000000001
20
-6.26082588910481
30
0
41
1
10
54.0000000000001
20
-5.37770863872521
30
0
41
1
10
51.0833333333334
20
-4.24045672502231
30
0
41
1
10
48.1666666666667
20
-2.98793109088513
30
0
41
1
10
44.8333333333335
20
-1.47224860329737
30
0
41
1
10
41.5000000000001
20
0.0887419584706493
30
0
41
1
10
38.1666666666667
20
1.64887541464526
30
0
41
1
10
34.8333333333335
20
3.15555991320238
30
0
41
1
10
32.3630539139134
20
4.20504396555441
30
0
41
1
10
30.7261078278267
20
4.84982255113241
30
0
41
1
10
30.33916174174
20
4.9990996843575
30
0
0
SPLINE
5
F7
100
AcDbEntity
8
1
62
256
6
ByLayer
370
18
48
1
60
0
100
AcDbSpline
70
4
71
3
72
84
73
80
40
0
40
0
40
0
40
0
40
0.0624999999999967
40
0.0624999999999967
40
0.0937499999999946
40
0.0937499999999946
40
0.109374999999994
40
0.109374999999994
40
0.124999999999993
40
0.124999999999993
40
0.156249999999993
40
0.156249999999993
40
0.187499999999993
40
0.187499999999993
40
0.218749999999992
40
0.218749999999992
40
0.249999999999992
40
0.249999999999992
40
0.265624999999991
40
0.265624999999991
40
0.281249999999991
40
0.281249999999991
40
0.29687499999999
40
0.29687499999999
40
0.31249999999999
40
0.31249999999999
40
0.343749999999989
40
0.343749999999989
40
0.374999999999987
40
0.374999999999987
40
0.390624999999986
40
0.390624999999986
40
0.406249999999985
40
0.406249999999985
40
0.437499999999984
40
0.437499999999984
40
0.445312499999984
40
0.445312499999984
40
0.453124999999984
40
0.453124999999984
40
0.468749999999984
40
0.468749999999984
40
0.499999999999984
40
0.499999999999984
40
0.562499999999984
40
0.562499999999984
40
0.593749999999984
40
0.593749999999984
40
0.624999999999985
40
0.624999999999985
40
0.656249999999985
40
0.656249999999985
40
0.687499999999985
40
0.687499999999985
40
0.718749999999985
40
0.718749999999985
40
0.749999999999986
40
0.749999999999986
40
0.781249999999986
40
0.781249999999986
40
0.796874999999986
40
0.796874999999986
40
0.804687499999987
40
0.804687499999987
40
0.812499999999987
40
0.812499999999987
40
0.843749999999989
40
0.843749999999989
40
0.87499999999999
40
0.87499999999999
40
0.890624999999991
40
0.890624999999991
40
0.906249999999992
40
0.906249999999992
40
0.937499999999995
40
0.937499999999995
40
0.968749999999997
40
0.968749999999997
40
1
40
1
40
1
40
1
41
1
10
63.2777272873449
20
-8.94368480974941
30
0
41
1
10
62.4563919095854
20
-8.792025916575
30
0
41
1
10
61.6356867792267
20
-8.61590222485609
30
0
41
1
10
60.4038008721573
20
-8.31591195856643
30
0
41
1
10
59.993029063411
20
-8.20995618775254
30
0
41
1
10
59.3764189393971
20
-8.04209329483328
30
0
41
1
10
59.1708207753244
20
-7.98464358585417
30
0
41
1
10
58.7599975112919
20
-7.86696101890701
30
0
41
1
10
58.5547001236928
20
-7.80671467915573
30
0
41
1
10
57.9390796928473
20
-7.62189059570335
30
0
41
1
10
57.5290391846472
20
-7.49319474924152
30
0
41
1
10
56.7094620722139
20
-7.22496127420189
30
0
41
1
10
56.2998859336278
20
-7.08559198148384
30
0
41
1
10
55.4806670209859
20
-6.79733294803339
30
0
41
1
10
55.0710352291749
20
-6.64837624375264
30
0
41
1
10
54.2513108708553
20
-6.34127062091227
30
0
41
1
10
53.8412051419368
20
-6.18314322308794
30
0
41
1
10
53.2254320585278
20
-5.9393540344384
30
0
41
1
10
53.0200756361612
20
-5.85698514111684
30
0
41
1
10
52.6091362572295
20
-5.69005248599973
30
0
41
1
10
52.4034749657596
20
-5.6054580540924
30
0
41
1
10
51.992518833194
20
-5.43431303426954
30
0
41
1
10
51.7871805733081
20
-5.34773324807162
30
0
41
1
10
51.3767419580344
20
-5.17262910002657
30
0
41
1
10
51.1716345763637
20
-5.08412608752843
30
0
41
1
10
50.5564855861821
20
-4.81618671841414
30
0
41
1
10
50.1465959998785
20
-4.6343937190056
30
0
41
1
10
49.3269835652948
20
-4.26483362474914
30
0
41
1
10
48.9172805401538
20
-4.07700378742933
30
0
41
1
10
48.3027365318277
20
-3.79068702054246
30
0
41
1
10
48.0978882452001
20
-3.69449152005339
30
0
41
1
10
47.6881436366991
20
-3.50065958018382
30
0
41
1
10
47.4832437413218
20
-3.40303593242194
30
0
41
1
10
46.868333242486
20
-3.10837629739353
30
0
41
1
10
46.4580970299006
20
-2.90961620993355
30
0
41
1
10
45.9447205442598
20
-2.65858259024228
30
0
41
1
10
45.8420162791724
20
-2.60824608020525
30
0
41
1
10
45.6365444660807
20
-2.50732066043685
30
0
41
1
10
45.5337469744072
20
-2.45671694595836
30
0
41
1
10
45.2255766408114
20
-2.30469887352979
30
0
41
1
10
45.0203730909274
20
-2.20305257535517
30
0
41
1
10
44.405444456658
20
-1.89731125557554
30
0
41
1
10
43.9964296801371
20
-1.69236450935818
30
0
41
1
10
42.7714412872334
20
-1.07561262596653
30
0
41
1
10
41.9573428232221
20
-0.662192471970883
30
0
41
1
10
40.7387169324936
20
-0.0415297449984848
30
0
41
1
10
40.3329243844152
20
0.165436745279635
30
0
41
1
10
39.5217679664153
20
0.578736794030107
30
0
41
1
10
39.1163868721162
20
0.785043229286885
30
0
41
1
10
38.3056827138032
20
1.19628945189112
30
0
41
1
10
37.9003595054974
20
1.40122795881004
30
0
41
1
10
37.0893366835967
20
1.80890925451058
30
0
41
1
10
36.6836518188659
20
2.01167569929674
30
0
41
1
10
35.8716441598297
20
2.41443155222498
30
0
41
1
10
35.4653301465743
20
2.61443031476776
30
0
41
1
10
34.651646527151
20
3.01082927885267
30
0
41
1
10
34.2442773286596
20
3.20723389321699
30
0
41
1
10
33.4281245893397
20
3.59580457115769
30
0
41
1
10
33.0193564389822
20
3.78799239230608
30
0
41
1
10
32.404974183619
20
4.07269907184062
30
0
41
1
10
32.1999737750614
20
4.16700341058981
30
0
41
1
10
31.8921314991834
20
4.3074968733599
30
0
41
1
10
31.78946027944
20
4.3541673507064
30
0
41
1
10
31.5839972124355
20
4.44717519897284
30
0
41
1
10
31.4812025188942
20
4.49351370110369
30
0
41
1
10
30.9675630287335
20
4.72405391368264
30
0
41
1
10
30.5571926863008
20
4.9050354641335
30
0
41
1
10
29.7371014609179
20
5.25955503954046
30
0
41
1
10
29.3273858777945
20
5.433098683597
30
0
41
1
10
28.7131236353629
20
5.68732593886276
30
0
41
1
10
28.5084238791137
20
5.77105088095956
30
0
41
1
10
28.099100771876
20
5.93636574586407
30
0
41
1
10
27.8944673648522
20
6.01796292058981
30
0
41
1
10
27.2805141832963
20
6.25952876142841
30
0
41
1
10
26.8711817030854
20
6.41622967196489
30
0
41
1
10
26.0520197802971
20
6.72047338661233
30
0
41
1
10
25.6421942833249
20
6.86802214291362
30
0
41
1
10
24.8217678388925
20
7.15325104356737
30
0
41
1
10
24.4111798370863
20
7.29089227387533
30
0
41
1
10
24.0000000000001
20
7.42329954338067
30
0
0
SPLINE
5
F8
100
AcDbEntity
8
1
62
256
6
ByLayer
370
18
48
1
60
0
100
AcDbSpline
70
4
71
3
72
17
73
13
40
0
40
0
40
0
40
0
40
0.25
40
0.25
40
0.374999999999998
40
0.374999999999998
40
0.499999999999997
40
0.624999999999995
40
0.624999999999995
40
0.749999999999994
40
0.749999999999994
40
1
40
1
40
1
40
1
41
1
10
21.2439861682711
20
6.51140620105591
30
0
41
1
10
21.2364510252631
20
6.55968001461798
30
0
41
1
10
21.2329337845053
20
6.60765247617422
30
0
41
1
10
21.2331784169688
20
6.67913959531003
30
0
41
1
10
21.2341852331847
20
6.70291720503718
30
0
41
1
10
21.2379776919525
20
6.75018424648107
30
0
41
1
10
21.2435378554199
20
6.79708732257873
30
0
41
1
10
21.2524691319062
20
6.84328495338494
30
0
41
1
10
21.2630215904933
20
6.88913924994492
30
0
41
1
10
21.2691125720588
20
6.91190123382171
30
0
41
1
10
21.2896409764195
20
6.97938847185773
30
0
41
1
10
21.3063476595715
20
7.02341947106501
30
0
41
1
10
21.3258506934603
20
7.0665592678036
30
0
0
SPLINE
5
F9
100
AcDbEntity
8
1
62
256
6
ByLayer
370
18
48
1
60
0
100
AcDbSpline
70
4
71
3
72
21
73
17
40
0
40
0
40
0
40
0
40
0.125000000000003
40
0.125000000000003
40
0.250000000000006
40
0.250000000000006
40
0.500000000000014
40
0.500000000000014
40
0.531250000000015
40
0.531250000000015
40
0.562500000000016
40
0.625000000000014
40
0.625000000000014
40
0.750000000000011
40
0.750000000000011
40
1
40
1
40
1
40
1
41
1
10
21.3258506934597
20
7.066559267804
30
0
41
1
10
21.2999969176318
20
7.12129608187749
30
0
41
1
10
21.2782914794253
20
7.17575013055816
30
0
41
1
10
21.2425022207906
20
7.2839808077797
30
0
41
1
10
21.2284203672631
20
7.33775770374834
30
0
41
1
10
21.1969425780869
20
7.49793950132556
30
0
41
1
10
21.1902401171398
20
7.60319014182448
30
0
41
1
10
21.1979318524931
20
7.71956792885598
30
0
41
1
10
21.1990010628038
20
7.73248029239997
30
0
41
1
10
21.2015509757587
20
7.75812186983438
30
0
41
1
10
21.2059951303808
20
7.79635307740438
30
0
41
1
10
21.2122554443706
20
7.83390244451317
30
0
41
1
10
21.2271040946728
20
7.90811960382285
30
0
41
1
10
21.2401026273772
20
7.95642316085343
30
0
41
1
10
21.2878409424095
20
8.09799301088498
30
0
41
1
10
21.331273750104
20
8.18792721908665
30
0
41
1
10
21.3855890644852
20
8.27376202316739
30
0
0
SPLINE
5
FA
100
AcDbEntity
8
1
62
256
6
ByLayer
370
18
48
1
60
0
100
AcDbSpline
70
4
71
3
72
40
73
36
40
0
40
0
40
0
40
0
40
0.124999999999988
40
0.124999999999988
40
0.249999999999976
40
0.249999999999976
40
0.312499999999988
40
0.312499999999988
40
0.375
40
0.375
40
0.437500000000012
40
0.437500000000012
40
0.468750000000011
40
0.468750000000011
40
0.50000000000001
40
0.50000000000001
40
0.53125000000001
40
0.53125000000001
40
0.562500000000009
40
0.562500000000009
40
0.593750000000008
40
0.593750000000008
40
0.625000000000007
40
0.625000000000007
40
0.687500000000006
40
0.687500000000006
40
0.718750000000006
40
0.718750000000006
40
0.750000000000005
40
0.750000000000005
40
0.812500000000004
40
0.812500000000004
40
0.875000000000003
40
0.875000000000003
40
1
40
1
40
1
40
1
41
1
10
12.7078434347947
20
9.96057568916723
30
0
41
1
10
12.6858441346233
20
9.96229368684385
30
0
41
1
10
12.6644228928219
20
9.9640056343226
30
0
41
1
10
12.6233148897555
20
9.96744019919265
30
0
41
1
10
12.6035986171898
20
9.96916138199879
30
0
41
1
10
12.5762843055605
20
9.97179273549611
30
0
41
1
10
12.5675777544153
20
9.9726775489809
30
0
41
1
10
12.5515391353948
20
9.97445452919575
30
0
41
1
10
12.5441684767286
20
9.97534881316466
30
0
41
1
10
12.5314963843475
20
9.97716991314215
30
0
41
1
10
12.5261695144477
20
9.97810122247901
30
0
41
1
10
12.5212569518666
20
9.97949394950439
30
0
41
1
10
12.52012748197
20
9.97996360970467
30
0
41
1
10
12.5192846813993
20
9.98087950222353
30
0
41
1
10
12.5195550384179
20
9.98132727249629
30
0
41
1
10
12.5217966065964
20
9.98220199474599
30
0
41
1
10
12.5238234345388
20
9.98263178672275
30
0
41
1
10
12.5295102489022
20
9.98341671440647
30
0
41
1
10
12.5331720316497
20
9.98377908362605
30
0
41
1
10
12.5420474887473
20
9.98445046147705
30
0
41
1
10
12.5470991273857
20
9.98474751918138
30
0
41
1
10
12.5580659497345
20
9.98528031425894
30
0
41
1
10
12.5640396201242
20
9.98551828614086
30
0
41
1
10
12.5827068891212
20
9.98615323948201
30
0
41
1
10
12.5959811277351
20
9.98647213828494
30
0
41
1
10
12.6166024156706
20
9.98686663675747
30
0
41
1
10
12.6236249674398
20
9.98698373661384
30
0
41
1
10
12.6377277379969
20
9.98719260965839
30
0
41
1
10
12.6448057904571
20
9.98728447027386
30
0
41
1
10
12.666103264417
20
9.98753081068512
30
0
41
1
10
12.6803851523658
20
9.9876564911543
30
0
41
1
10
12.7090636513128
20
9.98785674799188
30
0
41
1
10
12.7234608818219
20
9.98793099561448
30
0
41
1
10
12.7667824087138
20
9.98809714178458
30
0
41
1
10
12.7958344008573
20
9.98813349509095
30
0
41
1
10
12.8249962377383
20
9.98812284302002
30
0
0
SPLINE
5
FB
100
AcDbEntity
8
1
62
256
6
ByLayer
370
18
48
1
60
0
100
AcDbSpline
70
4
71
3
72
31
73
27
40
0
40
0
40
0
40
0
40
0.124999999999999
40
0.124999999999999
40
0.249999999999998
40
0.249999999999998
40
0.374999999999998
40
0.374999999999998
40
0.499999999999997
40
0.499999999999997
40
0.531249999999995
40
0.531249999999995
40
0.562499999999993
40
0.562499999999993
40
0.624999999999996
40
0.624999999999996
40
0.750000000000001
40
0.750000000000001
40
0.781250000000001
40
0.796875000000001
40
0.796875000000001
40
0.812500000000001
40
0.812500000000001
40
0.875000000000001
40
0.875000000000001
40
1
40
1
40
1
40
1
41
1
10
12.8249962377401
20
9.98812284301439
30
0
41
1
10
13.085584883247
20
9.98802765666719
30
0
41
1
10
13.3456222268397
20
9.98817505149279
30
0
41
1
10
13.8643282069538
20
9.98903602708938
30
0
41
1
10
14.1229981655719
20
9.98975290091843
30
0
41
1
10
14.6386051352775
20
9.99171380695344
30
0
41
1
10
14.895544307853
20
9.99296467588232
30
0
41
1
10
15.4071750308248
20
9.99568822409049
30
0
41
1
10
15.6618702754205
20
9.99717558675576
30
0
41
1
10
15.978365996271
20
9.99862741539184
30
0
41
1
10
16.0415707221631
20
9.99889528221524
30
0
41
1
10
16.1677761562498
20
9.99936177872303
30
0
41
1
10
16.2308232951161
20
9.9995604085405
30
0
41
1
10
16.4185041834162
20
10.000005699746
30
0
41
1
10
16.5420226997021
20
10.0001061202803
30
0
41
1
10
16.907238396233
20
9.99939207551193
30
0
41
1
10
17.1436110180354
20
9.99762905256412
30
0
41
1
10
17.4281753236852
20
9.99157350082268
30
0
41
1
10
17.5127252293521
20
9.98946017034496
30
0
41
1
10
17.5959841936153
20
9.98681294845892
30
0
41
1
10
17.6511962419581
20
9.98491833322299
30
0
41
1
10
17.6786844015196
20
9.98390499233307
30
0
41
1
10
17.8149868810147
20
9.97850061402039
30
0
41
1
10
17.9201596575608
20
9.97311113222
30
0
41
1
10
18.2239371047571
20
9.95281795351906
30
0
41
1
10
18.4107599706954
20
9.93381980055091
30
0
41
1
10
18.5820380170324
20
9.90647976435227
30
0
0
SPLINE
5
FC
100
AcDbEntity
8
1
62
256
6
ByLayer
370
18
48
1
60
0
100
AcDbSpline
70
4
71
3
72
8
73
4
40
0
40
0
40
0
40
0
40
1
40
1
40
1
40
1
41
1
10
21.2200859288819
20
6.47087569217004
30
0
41
1
10
21.2277337028147
20
6.48452566220254
30
0
41
1
10
21.23570406797
20
6.49803410517654
30
0
41
1
10
21.2439861605947
20
6.51140620415248
30
0
0
SPLINE
5
FD
100
AcDbEntity
8
1
62
256
6
ByLayer
370
18
48
1
60
0
100
AcDbSpline
70
4
71
3
72
9
73
5
40
0
40
0
40
0
40
0
40
0.49990258809056
40
1
40
1
40
1
40
1
41
1
10
21.2200840635389
20
6.47087299852211
30
0
41
1
10
21.2246958284188
20
6.47725482695103
30
0
41
1
10
21.2339211554921
20
6.49002097095783
30
0
41
1
10
21.2431553122109
20
6.50281205802017
30
0
41
1
10
21.2477732900871
20
6.50920884755556
30
0
0
SPLINE
5
FE
100
AcDbEntity
8
1
62
256
6
ByLayer
370
18
48
1
60
0
100
AcDbSpline
70
4
71
3
72
12
73
8
40
0
40
0
40
0
40
0
40
0.249999999999997
40
0.249999999999997
40
0.499999999999994
40
0.499999999999994
40
1
40
1
40
1
40
1
41
1
10
21.2200841251868
20
6.4708730856199
30
0
41
1
10
21.4518204765129
20
6.37723754907728
30
0
41
1
10
21.6835852953851
20
6.28225819047589
30
0
41
1
10
22.1470188135493
20
6.08939387313202
30
0
41
1
10
22.378703611901
20
5.99153174973384
30
0
41
1
10
23.0736496934889
20
5.69361906160583
30
0
41
1
10
23.5367277091839
20
5.48912174844494
30
0
41
1
10
24.0000000000001
20
5.27929922708142
30
0
0
SPLINE
5
FF
100
AcDbEntity
8
1
62
256
6
ByLayer
370
18
48
1
60
0
100
AcDbSpline
70
4
71
1
72
4
73
2
40
0
40
0
40
1
40
1
41
1
10
23.999999960342
20
5.27929922728256
30
0
41
1
10
24.000000039658
20
5.27828907600528
30
0
0
SPLINE
5
100
100
AcDbEntity
8
1
62
256
6
ByLayer
370
18
48
1
60
0
100
AcDbSpline
70
4
71
3
72
62
73
58
40
0
40
0
40
0
40
0
40
0.0625000000000038
40
0.0625000000000038
40
0.0781250000000048
40
0.0781250000000048
40
0.0937500000000058
40
0.0937500000000058
40
0.125000000000007
40
0.125000000000007
40
0.18750000000001
40
0.18750000000001
40
0.218750000000011
40
0.218750000000011
40
0.234375000000011
40
0.234375000000011
40
0.250000000000012
40
0.250000000000012
40
0.312500000000012
40
0.312500000000012
40
0.375000000000011
40
0.375000000000011
40
0.390625000000011
40
0.390625000000011
40
0.406250000000011
40
0.406250000000011
40
0.437500000000011
40
0.437500000000011
40
0.500000000000011
40
0.500000000000011
40
0.531250000000011
40
0.531250000000011
40
0.546875000000011
40
0.546875000000011
40
0.562500000000011
40
0.562500000000011
40
0.625000000000009
40
0.625000000000009
40
0.687500000000007
40
0.687500000000007
40
0.703125000000007
40
0.703125000000007
40
0.718750000000006
40
0.718750000000006
40
0.750000000000006
40
0.750000000000006
40
0.812500000000005
40
0.812500000000005
40
0.843750000000004
40
0.843750000000004
40
0.859375000000003
40
0.859375000000003
40
0.875000000000003
40
0.875000000000003
40
0.937500000000001
40
0.937500000000001
40
1
40
1
40
1
40
1
41
1
10
24.0000000000001
20
5.27828907620753
30
0
41
1
10
24.8204319018997
20
4.90775458198473
30
0
41
1
10
25.6398775911123
20
4.52253897821521
30
0
41
1
10
26.6648513671185
20
4.02589810695755
30
0
41
1
10
26.8698849683478
20
3.92581199348484
30
0
41
1
10
27.2800523445747
20
3.72421600771895
30
0
41
1
10
27.4850149275768
20
3.62278926850573
30
0
41
1
10
28.0996161729581
20
3.31676753606223
30
0
41
1
10
28.5089660739465
20
3.11044456283534
30
0
41
1
10
29.7364753305412
20
2.4856106397568
30
0
41
1
10
30.5540938156861
20
2.06128361203099
30
0
41
1
10
31.7817866411798
20
1.4174327822156
30
0
41
1
10
32.1912263905433
20
1.20158615686961
30
0
41
1
10
32.8059758276158
20
0.876489281168915
30
0
41
1
10
33.010990624124
20
0.76790235638677
30
0
41
1
10
33.4212627753957
20
0.550370649105105
30
0
41
1
10
33.6262817112395
20
0.441552307298707
30
0
41
1
10
34.6508885329797
20
-0.10258360501507
30
0
41
1
10
35.4690141923757
20
-0.538064835375707
30
0
41
1
10
37.105014466787
20
-1.40396110118832
30
0
41
1
10
37.9229129297142
20
-1.83433738956458
30
0
41
1
10
38.9472458690077
20
-2.36516546940487
30
0
41
1
10
39.1522102793392
20
-2.47097422340366
30
0
41
1
10
39.5623856044986
20
-2.68178271466817
30
0
41
1
10
39.7673726146782
20
-2.78666701203534
30
0
41
1
10
40.3820305034306
20
-3.09959071785374
30
0
41
1
10
40.7914327575255
20
-3.30591608175052
30
0
41
1
10
42.0191076033653
20
-3.91704431699432
30
0
41
1
10
42.836845636206
20
-4.31402083075133
30
0
41
1
10
44.0645966396713
20
-4.88998926015535
30
0
41
1
10
44.4740376759852
20
-5.07872571284167
30
0
41
1
10
45.0887460828277
20
-5.35650635620755
30
0
41
1
10
45.2937393421017
20
-5.44821436487209
30
0
41
1
10
45.7039504831461
20
-5.6297852077887
30
0
41
1
10
45.9089603323569
20
-5.71955486781138
30
0
41
1
10
46.9334182815839
20
-6.16303897941464
30
0
41
1
10
47.7513372840226
20
-6.50073838250029
30
0
41
1
10
49.3872174965176
20
-7.1372170675524
30
0
41
1
10
50.2051596080117
20
-7.43615739387769
30
0
41
1
10
51.2295863259966
20
-7.7828195668553
30
0
41
1
10
51.4345718272519
20
-7.85079937189275
30
0
41
1
10
51.8447912367565
20
-7.98399013748224
30
0
41
1
10
52.0498309864608
20
-8.04913643337889
30
0
41
1
10
52.6646061104016
20
-8.24011436123561
30
0
41
1
10
53.0740871758384
20
-8.36151919641381
30
0
41
1
10
54.3019537908187
20
-8.70759152016606
30
0
41
1
10
55.1197321655967
20
-8.9141517502448
30
0
41
1
10
56.3474179433465
20
-9.1855856855413
30
0
41
1
10
56.7568211383961
20
-9.26964756633214
30
0
41
1
10
57.3714892969047
20
-9.38583616858949
30
0
41
1
10
57.5764861716361
20
-9.42291785564453
30
0
41
1
10
57.9866629229637
20
-9.49373154996246
30
0
41
1
10
58.1916287955427
20
-9.52742719896295
30
0
41
1
10
59.2159726531363
20
-9.68731132358809
30
0
41
1
10
60.0339015071139
20
-9.78772390875267
30
0
41
1
10
61.6698105603286
20
-9.93272878036007
30
0
41
1
10
62.4877891870494
20
-9.97732365833429
30
0
41
1
10
63.3072906555062
20
-9.99331733605067
30
0
0
SPLINE
5
101
100
AcDbEntity
8
1
62
256
6
ByLayer
370
18
48
1
60
0
100
AcDbSpline
70
4
71
3
72
26
73
22
40
0
40
0
40
0
40
0
40
0.0477684816966449
40
0.088741305774139
40
0.125146917642995
40
0.160301610381313
40
0.21436862852093
40
0.265988800775706
40
0.32087385011712
40
0.374669226669088
40
0.431059504563376
40
0.483979383406109
40
0.540894927738666
40
0.599523584134226
40
0.651239570098537
40
0.702016499567698
40
0.757268473081024
40
0.84792098167378
40
0.923220806719935
40
0.998009581722078
40
1
40
1
40
1
40
1
41
1
10
26.7996405224374
20
-8.34399444917312
30
0
41
1
10
27.1053809783351
20
-8.30993704985448
30
0
41
1
10
27.6810894688327
20
-8.24654344291648
30
0
41
1
10
28.5351647964042
20
-8.14714047147666
30
0
41
1
10
29.2817407696535
20
-8.07393687011938
30
0
41
1
10
30.1081972472865
20
-7.98728272991866
30
0
41
1
10
31.0524344673952
20
-7.88287250360102
30
0
41
1
10
32.1356169277652
20
-7.76103775711906
30
0
41
1
10
33.2190951115806
20
-7.63896171130725
30
0
41
1
10
34.333729632826
20
-7.51275192660972
30
0
41
1
10
35.4357225919338
20
-7.38782303815444
30
0
41
1
10
36.5582225930291
20
-7.26069471717526
30
0
41
1
10
37.6962534864673
20
-7.13261698755576
30
0
41
1
10
38.8263869967034
20
-7.0068139225028
30
0
41
1
10
39.9149340130271
20
-6.88744071987904
30
0
41
1
10
40.9805280091144
20
-6.77263644630341
30
0
41
1
10
42.3091460222101
20
-6.63245426291454
30
0
41
1
10
43.8043984227538
20
-6.47995601584378
30
0
41
1
10
45.4295690428141
20
-6.32221593101963
30
0
41
1
10
46.4567795117442
20
-6.22750972901213
30
0
41
1
10
46.9754039681058
20
-6.18118148051417
30
0
41
1
10
46.988848766533
20
-6.17998147196738
30
0
0
SPLINE
5
102
100
AcDbEntity
8
1
62
256
6
ByLayer
370
18
48
1
60
0
100
AcDbSpline
70
4
71
3
72
43
73
39
40
0
40
0
40
0
40
0
40
0.0122768515775308
40
0.0286773874693127
40
0.0468234929722921
40
0.0901775447169508
40
0.125067981071148
40
0.152643023303183
40
0.17946088421399
40
0.207168230486931
40
0.236700196711339
40
0.269049035102948
40
0.296532008819344
40
0.325946249567208
40
0.358308028471318
40
0.395379283747055
40
0.429259218509269
40
0.457436150386202
40
0.482001569977678
40
0.511723292345537
40
0.539807209984614
40
0.56664026724073
40
0.594382611186411
40
0.624054046496069
40
0.656254851959263
40
0.693845013308551
40
0.738839244652561
40
0.777324565770934
40
0.811499923787819
40
0.841871531005339
40
0.86901536811142
40
0.880315241285126
40
0.891084077746962
40
0.902271946850781
40
0.918354000597272
40
0.939987611120663
40
0.967201919260599
40
1
40
1
40
1
40
1
41
1
10
57.6642803577724
20
5.48087960403942
30
0
41
1
10
57.5512421850005
20
5.48309959390318
30
0
41
1
10
57.2803777879007
20
5.4897724809845
30
0
41
1
10
56.7997511016006
20
5.50611554511494
30
0
41
1
10
55.9913103748753
20
5.54546068161022
30
0
41
1
10
55.0009274991323
20
5.604055695938
30
0
41
1
10
53.9062104597149
20
5.66457904052339
30
0
41
1
10
52.9801648292631
20
5.72009448862713
30
0
41
1
10
52.1406219608644
20
5.7749478995425
30
0
41
1
10
51.2782398204019
20
5.83428033712747
30
0
41
1
10
50.3543470964793
20
5.9016925627985
30
0
41
1
10
49.4338396629958
20
5.97290417948406
30
0
41
1
10
48.5142270680561
20
6.04778035976955
30
0
41
1
10
47.5946252981573
20
6.12602103158403
30
0
41
1
10
46.5762368525613
20
6.2164240375991
30
0
41
1
10
45.5117905482709
20
6.31503206250932
30
0
41
1
10
44.4904573603567
20
6.41325316323929
30
0
41
1
10
43.5979572101517
20
6.50165840509663
30
0
41
1
10
42.7482991763766
20
6.58777578347315
30
0
41
1
10
41.8996240669147
20
6.67566142126813
30
0
41
1
10
41.0275820048334
20
6.76777063486531
30
0
41
1
10
40.1758756972088
20
6.85924491419334
30
0
41
1
10
39.307857751555
20
6.95387418855779
30
0
41
1
10
38.3845609072951
20
7.05589125157331
30
0
41
1
10
37.3598172172884
20
7.17041324090312
30
0
41
1
10
36.1771874143436
20
7.30377167213328
30
0
41
1
10
34.9297646878879
20
7.44519165735122
30
0
41
1
10
33.7175164165443
20
7.58256419640253
30
0
41
1
10
32.6559080540736
20
7.70260717622543
30
0
41
1
10
31.7111428843415
20
7.80890808488161
30
0
41
1
10
31.001962258496
20
7.88827234584105
30
0
41
1
10
30.4973172127954
20
7.94426909505557
30
0
41
1
10
30.1581302796377
20
7.98155544106876
30
0
41
1
10
29.7716383382615
20
8.02333313780892
30
0
41
1
10
29.2666763401375
20
8.07864551478849
30
0
41
1
10
28.5977570343789
20
8.15183997072441
30
0
41
1
10
27.7560671718627
20
8.24313604884526
30
0
41
1
10
27.1376296657944
20
8.30860956281671
30
0
41
1
10
26.7996404991871
20
8.34399445160017
30
0
0
LINE
5
77
100
AcDbEntity
8
80
62
256
6
ByLayer
370
18
48
1
60
0
100
AcDbLine
10
0
20
0
30
0
11
-5
21
0
31
0
39
0
210
0
220
0
230
1
0
LINE
5
78
100
AcDbEntity
8
4
62
256
6
ByLayer
370
18
48
0.05
60
0
100
AcDbLine
10
0
20
0
30
0
11
64
21
0
31
0
39
0
210
0
220
0
230
1
0
LINE
5
7A
100
AcDbEntity
8
81
62
256
6
ByLayer
370
18
48
1
60
0
100
AcDbLine
10
64
20
0
30
0
11
69
21
0
31
0
39
0
210
0
220
0
230
1
0
LINE
5
7B
100
AcDbEntity
8
SK4
62
256
6
ByLayer
370
18
48
0.05
60
0
100
AcDbLine
10
-50
20
0
30
0
11
64
21
0
31
0
39
0
210
0
220
0
230
1
0
LINE
5
7D
100
AcDbEntity
8
1
62
256
6
ByLayer
370
18
48
1
60
0
100
AcDbLine
10
0
20
10
30
0
11
0
21
0
31
0
39
0
210
0
220
0
230
1
0
LINE
5
7E
100
AcDbEntity
8
1
62
256
6
ByLayer
370
18
48
1
60
0
100
AcDbLine
10
0
20
0
30
0
11
0
21
-10
31
0
39
0
210
0
220
0
230
1
0
LINE
5
7F
100
AcDbEntity
8
1
62
256
6
ByLayer
370
18
48
1
60
0
100
AcDbLine
10
63.715729
20
9.978708
30
0
11
63.992288
21
9.703192
31
0
39
0
210
0
220
0
230
1
0
LINE
5
80
100
AcDbEntity
8
1
62
256
6
ByLayer
370
13
48
1
60
0
100
AcDbLine
10
57.923248
20
5.755678
30
0
11
62.828472
21
-0.093359
31
0
39
0
210
0
220
0
230
1
0
LINE
5
81
100
AcDbEntity
8
1
62
256
6
ByLayer
370
18
48
1
60
0
100
AcDbLine
10
63.733138
20
-0.081534
30
0
11
62.94
21
-0.07795
31
0
39
0
210
0
220
0
230
1
0
LINE
5
82
100
AcDbEntity
8
1
62
256
6
ByLayer
370
18
48
1
60
0
100
AcDbLine
10
63.733138
20
-0.081534
30
0
11
63.992288
21
9.703192
31
0
39
0
210
0
220
0
230
1
0
LINE
5
83
100
AcDbEntity
8
1
62
256
6
ByLayer
370
18
48
1
60
0
100
AcDbLine
10
63.78062
20
-1.711245
30
0
11
63.992288
21
-9.703192
31
0
39
0
210
0
220
0
230
1
0
LINE
5
84
100
AcDbEntity
8
1
62
256
6
ByLayer
370
18
48
1
60
0
100
AcDbLine
10
63.715729
20
-9.978708
30
0
11
63.992288
21
-9.703192
31
0
39
0
210
0
220
0
230
1
0
LINE
5
85
100
AcDbEntity
8
1
62
256
6
ByLayer
370
18
48
1
60
0
100
AcDbLine
10
63.992288
20
-9.703192
30
0
11
63.74008
21
-9.379219
31
0
39
0
210
0
220
0
230
1
0
LINE
5
86
100
AcDbEntity
8
1
62
256
6
ByLayer
370
18
48
1
60
0
100
AcDbLine
10
62.933195
20
-0.989343
30
0
11
62.785461
21
-0.681244
31
0
39
0
210
0
220
0
230
1
0
LINE
5
87
100
AcDbEntity
8
1
62
256
6
ByLayer
370
18
48
1
60
0
100
AcDbLine
10
62.785461
20
-0.681244
30
0
11
62.682885
21
-0.580712
31
0
39
0
210
0
220
0
230
1
0
LINE
5
88
100
AcDbEntity
8
1
62
256
6
ByLayer
370
18
48
1
60
0
100
AcDbLine
10
63.536454
20
-1.608043
30
0
11
63.78062
21
-1.711245
31
0
39
0
210
0
220
0
230
1
0
LINE
5
89
100
AcDbEntity
8
1
62
256
6
ByLayer
370
18
48
1
60
0
100
AcDbLine
10
63.78062
20
-1.711245
30
0
11
63.126449
21
-1.163543
31
0
39
0
210
0
220
0
230
1
0
LINE
5
8A
100
AcDbEntity
8
1
62
256
6
ByLayer
370
13
48
1
60
0
100
AcDbLine
10
62.682885
20
-1.002503
30
0
11
62.682885
21
-0.580712
31
0
39
0
210
0
220
0
230
1
0
LINE
5
8B
100
AcDbEntity
8
1
62
256
6
ByLayer
370
18
48
1
60
0
100
AcDbLine
10
18.582038
20
9.90648
30
0
11
24
21
8.542197
31
0
39
0
210
0
220
0
230
1
0
LINE
5
8C
100
AcDbEntity
8
1
62
256
6
ByLayer
370
13
48
1
60
0
100
AcDbLine
10
12.824996
20
9.988123
30
0
11
13.056703
21
9.929777
31
0
39
0
210
0
220
0
230
1
0
LINE
5
8D
100
AcDbEntity
8
1
62
256
6
ByLayer
370
13
48
1
60
0
100
AcDbLine
10
62.619999
20
-0.249412
30
0
11
57.678336
21
5.643075
31
0
39
0
210
0
220
0
230
1
0
LINE
5
8E
100
AcDbEntity
8
1
62
256
6
ByLayer
370
18
48
1
60
0
100
AcDbLine
10
63.74008
20
-9.379219
30
0
11
63.736053
21
-9.380255
31
0
39
0
210
0
220
0
230
1
0
LINE
5
8F
100
AcDbEntity
8
1
62
256
6
ByLayer
370
18
48
1
60
0
100
AcDbLine
10
63.74008
20
-9.379219
30
0
11
63.536454
21
-1.608043
31
0
39
0
210
0
220
0
230
1
0
LINE
5
90
100
AcDbEntity
8
1
62
256
6
ByLayer
370
18
48
1
60
0
100
AcDbLine
10
62.682885
20
-1.002503
30
0
11
63.536454
21
-1.608043
31
0
39
0
210
0
220
0
230
1
0
LINE
5
91
100
AcDbEntity
8
1
62
256
6
ByLayer
370
18
48
1
60
0
100
AcDbLine
10
61.39127
20
0.216919
30
0
11
62.541036
21
-0.742177
31
0
39
0
210
0
220
0
230
1
0
LINE
5
92
100
AcDbEntity
8
1
62
256
6
ByLayer
370
18
48
1
60
0
100
AcDbLine
10
24
20
7.445209
30
0
11
24
21
8.542197
31
0
39
0
210
0
220
0
230
1
0
LINE
5
93
100
AcDbEntity
8
1
62
256
6
ByLayer
370
18
48
1
60
0
100
AcDbLine
10
24
20
0.679675
30
0
11
24
21
0.817654
31
0
39
0
210
0
220
0
230
1
0
LINE
5
94
100
AcDbEntity
8
1
62
256
6
ByLayer
370
18
48
1
60
0
100
AcDbLine
10
18.582038
20
-9.90648
30
0
11
24
21
-8.542197
31
0
39
0
210
0
220
0
230
1
0
LINE
5
95
100
AcDbEntity
8
1
62
256
6
ByLayer
370
18
48
1
60
0
100
AcDbLine
10
24
20
-8.542197
30
0
11
24
21
0.679675
31
0
39
0
210
0
220
0
230
1
0
LINE
5
96
100
AcDbEntity
8
1
62
256
6
ByLayer
370
13
48
1
60
0
100
AcDbLine
10
12.723905
20
-2.159729
30
0
11
24
21
0.679675
31
0
39
0
210
0
220
0
230
1
0
LINE
5
97
100
AcDbEntity
8
1
62
256
6
ByLayer
370
13
48
1
60
0
100
AcDbLine
10
12.592632
20
-2.054805
30
0
11
24
21
0.817654
31
0
39
0
210
0
220
0
230
1
0
LINE
5
98
100
AcDbEntity
8
1
62
256
6
ByLayer
370
18
48
1
60
0
100
AcDbLine
10
24
20
0.817654
30
0
11
24
21
5.017656
31
0
39
0
210
0
220
0
230
1
0
LINE
5
99
100
AcDbEntity
8
1
62
256
6
ByLayer
370
13
48
1
60
0
100
AcDbLine
10
20.776275
20
4.205899
30
0
11
24
21
5.017656
31
0
39
0
210
0
220
0
230
1
0
LINE
5
9A
100
AcDbEntity
8
1
62
256
6
ByLayer
370
18
48
1
60
0
100
AcDbLine
10
24
20
5.278281
30
0
11
24
21
5.278289
31
0
39
0
210
0
220
0
230
1
0
LINE
5
9B
100
AcDbEntity
8
1
62
256
6
ByLayer
370
18
48
1
60
0
100
AcDbLine
10
24
20
5.278281
30
0
11
24
21
5.017656
31
0
39
0
210
0
220
0
230
1
0
LINE
5
9C
100
AcDbEntity
8
SK1
62
256
6
ByLayer
370
18
48
1
60
0
100
AcDbLine
10
-50
20
-9
30
0
11
-50
21
9
31
0
39
0
210
0
220
0
230
1
0
LINE
5
9E
100
AcDbEntity
8
SK1
62
256
6
ByLayer
370
18
48
1
60
0
100
AcDbLine
10
0
20
10
30
0
11
0
21
0
31
0
39
0
210
0
220
0
230
1
0
LINE
5
9F
100
AcDbEntity
8
SK1
62
256
6
ByLayer
370
18
48
1
60
0
100
AcDbLine
10
0
20
0
30
0
11
0
21
-10
31
0
39
0
210
0
220
0
230
1
0
LINE
5
A0
100
AcDbEntity
8
SK1
62
256
6
ByLayer
370
18
48
1
60
0
100
AcDbLine
10
-49
20
10
30
0
11
-49
21
-10
31
0
39
0
210
0
220
0
230
1
0
LINE
5
A1
100
AcDbEntity
8
SK1
62
256
6
ByLayer
370
18
48
1
60
0
100
AcDbLine
10
-30.5
20
8.2
30
0
11
-32.3
21
10
31
0
39
0
210
0
220
0
230
1
0
LINE
5
A2
100
AcDbEntity
8
SK1
62
256
6
ByLayer
370
18
48
1
60
0
100
AcDbLine
10
-17.7
20
10
30
0
11
-19.5
21
8.2
31
0
39
0
210
0
220
0
230
1
0
LINE
5
A3
100
AcDbEntity
8
SK1
62
256
6
ByLayer
370
18
48
1
60
0
100
AcDbLine
10
-30.5
20
8.2
30
0
11
-19.5
21
8.2
31
0
39
0
210
0
220
0
230
1
0
LINE
5
A4
100
AcDbEntity
8
1
62
256
6
ByLayer
370
18
48
1
60
0
100
AcDbLine
10
16.484495
20
10
30
0
11
0
21
10
31
0
39
0
210
0
220
0
230
1
0
LINE
5
A5
100
AcDbEntity
8
1
62
256
6
ByLayer
370
18
48
1
60
0
100
AcDbLine
10
0
20
-10
30
0
11
16.484495
21
-10
31
0
39
0
210
0
220
0
230
1
0
LINE
5
A6
100
AcDbEntity
8
SK1
62
256
6
ByLayer
370
18
48
1
60
0
100
AcDbLine
10
-50
20
-9
30
0
11
-49
21
-10
31
0
39
0
210
0
220
0
230
1
0
LINE
5
A7
100
AcDbEntity
8
SK1
62
256
6
ByLayer
370
18
48
1
60
0
100
AcDbLine
10
-49
20
10
30
0
11
-50
21
9
31
0
39
0
210
0
220
0
230
1
0
LINE
5
A8
100
AcDbEntity
8
SK1
62
256
6
ByLayer
370
18
48
1
60
0
100
AcDbLine
10
0
20
10
30
0
11
-17.7
21
10
31
0
39
0
210
0
220
0
230
1
0
LINE
5
A9
100
AcDbEntity
8
SK1
62
256
6
ByLayer
370
18
48
1
60
0
100
AcDbLine
10
-32.3
20
10
30
0
11
-49
21
10
31
0
39
0
210
0
220
0
230
1
0
LINE
5
AA
100
AcDbEntity
8
SK1
62
256
6
ByLayer
370
18
48
1
60
0
100
AcDbLine
10
-49
20
-10
30
0
11
0
21
-10
31
0
39
0
210
0
220
0
230
1
0
LINE
5
AB
100
AcDbEntity
8
SK2
62
256
6
ByLayer
370
18
48
1
60
0
100
AcDbLine
10
-57.25
20
10
30
0
11
-57.25
21
-28.930932
31
0
39
0
210
0
220
0
230
1
0
LINE
5
AD
100
AcDbEntity
8
SK2
62
256
6
ByLayer
370
18
48
1
60
0
100
AcDbLine
10
-50.5875
20
10
30
0
11
-59.25
21
10
31
0
39
0
210
0
220
0
230
1
0
LINE
5
AE
100
AcDbEntity
8
SK2
62
256
6
ByLayer
370
18
48
1
60
0
100
AcDbLine
10
-50.5875
20
-10
30
0
11
-59.25
21
-10
31
0
39
0
210
0
220
0
230
1
0
LINE
5
AF
100
AcDbEntity
8
1
62
256
6
ByLayer
370
18
48
1
60
1
100
AcDbLine
10
-57.25
20
10
30
0
11
-56.789216
21
6.500002
31
0
39
0
210
0
220
0
230
1
0
LINE
5
B0
100
AcDbEntity
8
1
62
256
6
ByLayer
370
18
48
1
60
1
100
AcDbLine
10
-56.789216
20
6.500002
30
0
11
-57.710784
21
6.499998
31
0
39
0
210
0
220
0
230
1
0
LINE
5
B1
100
AcDbEntity
8
1
62
256
6
ByLayer
370
18
48
1
60
1
100
AcDbLine
10
-57.710784
20
6.499998
30
0
11
-57.25
21
10
31
0
39
0
210
0
220
0
230
1
0
LINE
5
B2
100
AcDbEntity
8
1
62
256
6
ByLayer
370
18
48
1
60
1
100
AcDbLine
10
-57.25
20
-10
30
0
11
-57.710784
21
-6.500002
31
0
39
0
210
0
220
0
230
1
0
LINE
5
B3
100
AcDbEntity
8
1
62
256
6
ByLayer
370
18
48
1
60
1
100
AcDbLine
10
-57.710784
20
-6.500002
30
0
11
-56.789216
21
-6.499998
31
0
39
0
210
0
220
0
230
1
0
LINE
5
B4
100
AcDbEntity
8
1
62
256
6
ByLayer
370
18
48
1
60
1
100
AcDbLine
10
-56.789216
20
-6.499998
30
0
11
-57.25
21
-10
31
0
39
0
210
0
220
0
230
1
0
LINE
5
B5
100
AcDbEntity
8
2
62
256
6
ByLayer
370
18
48
1
60
0
100
AcDbLine
10
76
20
-10.0001
30
0
11
76
21
28.931032
31
0
39
0
210
0
220
0
230
1
0
LINE
5
B7
100
AcDbEntity
8
2
62
256
6
ByLayer
370
18
48
1
60
0
100
AcDbLine
10
65.5875
20
10.0001
30
0
11
78
21
10.0001
31
0
39
0
210
0
220
0
230
1
0
LINE
5
B8
100
AcDbEntity
8
2
62
256
6
ByLayer
370
18
48
1
60
0
100
AcDbLine
10
65.5875
20
-10.0001
30
0
11
78
21
-10.0001
31
0
39
0
210
0
220
0
230
1
0
LINE
5
B9
100
AcDbEntity
8
1
62
256
6
ByLayer
370
18
48
1
60
1
100
AcDbLine
10
76
20
10.0001
30
0
11
76.460784
21
6.500102
31
0
39
0
210
0
220
0
230
1
0
LINE
5
BA
100
AcDbEntity
8
1
62
256
6
ByLayer
370
18
48
1
60
1
100
AcDbLine
10
76.460784
20
6.500102
30
0
11
75.539216
21
6.500098
31
0
39
0
210
0
220
0
230
1
0
LINE
5
BB
100
AcDbEntity
8
1
62
256
6
ByLayer
370
18
48
1
60
1
100
AcDbLine
10
75.539216
20
6.500098
30
0
11
76
21
10.0001
31
0
39
0
210
0
220
0
230
1
0
LINE
5
BC
100
AcDbEntity
8
1
62
256
6
ByLayer
370
18
48
1
60
1
100
AcDbLine
10
76
20
-10.0001
30
0
11
75.539216
21
-6.500102
31
0
39
0
210
0
220
0
230
1
0
LINE
5
BD
100
AcDbEntity
8
1
62
256
6
ByLayer
370
18
48
1
60
1
100
AcDbLine
10
75.539216
20
-6.500102
30
0
11
76.460784
21
-6.500098
31
0
39
0
210
0
220
0
230
1
0
LINE
5
BE
100
AcDbEntity
8
1
62
256
6
ByLayer
370
18
48
1
60
1
100
AcDbLine
10
76.460784
20
-6.500098
30
0
11
76
21
-10.0001
31
0
39
0
210
0
220
0
230
1
0
LINE
5
BF
100
AcDbEntity
8
SK2
62
256
6
ByLayer
370
18
48
1
60
0
100
AcDbLine
10
64
20
-41.637679
30
0
11
-50
21
-41.637679
31
0
39
0
210
0
220
0
230
1
0
LINE
5
C0
100
AcDbEntity
8
SK2
62
256
6
ByLayer
370
18
48
1
60
0
100
AcDbLine
10
-50
20
-10.5875
30
0
11
-50
21
-43.637679
31
0
39
0
210
0
220
0
230
1
0
LINE
5
C1
100
AcDbEntity
8
SK2
62
256
6
ByLayer
370
18
48
1
60
0
100
AcDbLine
10
64
20
-11.5876
30
0
11
64
21
-43.637679
31
0
39
0
210
0
220
0
230
1
0
LINE
5
C2
100
AcDbEntity
8
1
62
256
6
ByLayer
370
18
48
1
60
1
100
AcDbLine
10
-50
20
-41.637679
30
0
11
-46.500002
21
-41.176895
31
0
39
0
210
0
220
0
230
1
0
LINE
5
C3
100
AcDbEntity
8
1
62
256
6
ByLayer
370
18
48
1
60
1
100
AcDbLine
10
-46.500002
20
-41.176895
30
0
11
-46.499998
21
-42.098462
31
0
39
0
210
0
220
0
230
1
0
LINE
5
C4
100
AcDbEntity
8
1
62
256
6
ByLayer
370
18
48
1
60
1
100
AcDbLine
10
-46.499998
20
-42.098462
30
0
11
-50
21
-41.637679
31
0
39
0
210
0
220
0
230
1
0
LINE
5
C5
100
AcDbEntity
8
1
62
256
6
ByLayer
370
18
48
1
60
1
100
AcDbLine
10
64
20
-41.637679
30
0
11
60.500002
21
-42.098462
31
0
39
0
210
0
220
0
230
1
0
LINE
5
C6
100
AcDbEntity
8
1
62
256
6
ByLayer
370
18
48
1
60
1
100
AcDbLine
10
60.500002
20
-42.098462
30
0
11
60.499998
21
-41.176895
31
0
39
0
210
0
220
0
230
1
0
LINE
5
C7
100
AcDbEntity
8
1
62
256
6
ByLayer
370
18
48
1
60
1
100
AcDbLine
10
60.499998
20
-41.176895
30
0
11
64
21
-41.637679
31
0
39
0
210
0
220
0
230
1
0
LINE
5
107
100
AcDbEntity
8
1
62
256
6
ByLayer
370
18
48
1
60
1
100
AcDbLine
10
-57.25
20
10
30
0
11
-56.789216
21
6.500002
31
0
39
0
210
0
220
0
230
1
0
LINE
5
108
100
AcDbEntity
8
1
62
256
6
ByLayer
370
18
48
1
60
1
100
AcDbLine
10
-56.789216
20
6.500002
30
0
11
-57.710784
21
6.499998
31
0
39
0
210
0
220
0
230
1
0
LINE
5
109
100
AcDbEntity
8
1
62
256
6
ByLayer
370
18
48
1
60
1
100
AcDbLine
10
-57.710784
20
6.499998
30
0
11
-57.25
21
10
31
0
39
0
210
0
220
0
230
1
0
LINE
5
10B
100
AcDbEntity
8
1
62
256
6
ByLayer
370
18
48
1
60
1
100
AcDbLine
10
-57.25
20
-10
30
0
11
-57.710784
21
-6.500002
31
0
39
0
210
0
220
0
230
1
0
LINE
5
10C
100
AcDbEntity
8
1
62
256
6
ByLayer
370
18
48
1
60
1
100
AcDbLine
10
-57.710784
20
-6.500002
30
0
11
-56.789216
21
-6.499998
31
0
39
0
210
0
220
0
230
1
0
LINE
5
10D
100
AcDbEntity
8
1
62
256
6
ByLayer
370
18
48
1
60
1
100
AcDbLine
10
-56.789216
20
-6.499998
30
0
11
-57.25
21
-10
31
0
39
0
210
0
220
0
230
1
0
LINE
5
111
100
AcDbEntity
8
1
62
256
6
ByLayer
370
18
48
1
60
1
100
AcDbLine
10
76
20
10.0001
30
0
11
76.460784
21
6.500102
31
0
39
0
210
0
220
0
230
1
0
LINE
5
112
100
AcDbEntity
8
1
62
256
6
ByLayer
370
18
48
1
60
1
100
AcDbLine
10
76.460784
20
6.500102
30
0
11
75.539216
21
6.500098
31
0
39
0
210
0
220
0
230
1
0
LINE
5
113
100
AcDbEntity
8
1
62
256
6
ByLayer
370
18
48
1
60
1
100
AcDbLine
10
75.539216
20
6.500098
30
0
11
76
21
10.0001
31
0
39
0
210
0
220
0
230
1
0
LINE
5
115
100
AcDbEntity
8
1
62
256
6
ByLayer
370
18
48
1
60
1
100
AcDbLine
10
76
20
-10.0001
30
0
11
75.539216
21
-6.500102
31
0
39
0
210
0
220
0
230
1
0
LINE
5
116
100
AcDbEntity
8
1
62
256
6
ByLayer
370
18
48
1
60
1
100
AcDbLine
10
75.539216
20
-6.500102
30
0
11
76.460784
21
-6.500098
31
0
39
0
210
0
220
0
230
1
0
LINE
5
117
100
AcDbEntity
8
1
62
256
6
ByLayer
370
18
48
1
60
1
100
AcDbLine
10
76.460784
20
-6.500098
30
0
11
76
21
-10.0001
31
0
39
0
210
0
220
0
230
1
0
LINE
5
11A
100
AcDbEntity
8
1
62
256
6
ByLayer
370
18
48
1
60
1
100
AcDbLine
10
-50
20
-41.637679
30
0
11
-46.500002
21
-41.176895
31
0
39
0
210
0
220
0
230
1
0
LINE
5
11B
100
AcDbEntity
8
1
62
256
6
ByLayer
370
18
48
1
60
1
100
AcDbLine
10
-46.500002
20
-41.176895
30
0
11
-46.499998
21
-42.098462
31
0
39
0
210
0
220
0
230
1
0
LINE
5
11C
100
AcDbEntity
8
1
62
256
6
ByLayer
370
18
48
1
60
1
100
AcDbLine
10
-46.499998
20
-42.098462
30
0
11
-50
21
-41.637679
31
0
39
0
210
0
220
0
230
1
0
LINE
5
11E
100
AcDbEntity
8
1
62
256
6
ByLayer
370
18
48
1
60
1
100
AcDbLine
10
64
20
-41.637679
30
0
11
60.500002
21
-42.098462
31
0
39
0
210
0
220
0
230
1
0
LINE
5
11F
100
AcDbEntity
8
1
62
256
6
ByLayer
370
18
48
1
60
1
100
AcDbLine
10
60.500002
20
-42.098462
30
0
11
60.499998
21
-41.176895
31
0
39
0
210
0
220
0
230
1
0
LINE
5
120
100
AcDbEntity
8
1
62
256
6
ByLayer
370
18
48
1
60
1
100
AcDbLine
10
60.499998
20
-41.176895
30
0
11
64
21
-41.637679
31
0
39
0
210
0
220
0
230
1
0
MTEXT
5
103
100
AcDbEntity
8
SK2
62
256
6
ByLayer
370
18
48
1
60
0
100
AcDbMText
10
-58.814634
20
-26.996089
30
0
210
0
220
0
230
1
1
%%c
40
3.5
41
0
44
1.084337
50
90
71
7
72
5
7
iso_b_vert
0
MTEXT
5
106
100
AcDbEntity
8
SK2
62
256
6
ByLayer
370
18
48
1
60
0
100
AcDbMText
10
-58.814634
20
-20.023432
30
0
210
0
220
0
230
1
1
\W0.6740;20
40
3.5
41
0
44
1.084337
50
90
71
7
72
5
7
iso_b_vert
0
MTEXT
5
10F
100
AcDbEntity
8
2
62
256
6
ByLayer
370
18
48
1
60
0
100
AcDbMText
10
74.435366
20
17.934944
30
0
210
0
220
0
230
1
1
%%c
40
3.5
41
0
44
1.084337
50
90
71
7
72
5
7
iso_b_vert
0
MTEXT
5
110
100
AcDbEntity
8
2
62
256
6
ByLayer
370
18
48
1
60
0
100
AcDbMText
10
74.435366
20
24.9076
30
0
210
0
220
0
230
1
1
\W0.6740;20
40
3.5
41
0
44
1.084337
50
90
71
7
72
5
7
iso_b_vert
0
MTEXT
5
119
100
AcDbEntity
8
SK2
62
256
6
ByLayer
370
18
48
1
60
0
100
AcDbMText
10
4.4779
20
-40.605045
30
0
210
0
220
0
230
1
1
\W0.5601;114
40
3.5
41
0
44
1.084337
50
0
71
7
72
5
7
iso_b_vert
0
MTEXT
5
122
100
AcDbEntity
8
SK6
62
256
6
ByLayer
370
18
48
1
60
0
100
AcDbMText
10
-17.402326
20
-62.114886
30
0
210
0
220
0
230
1
1
\W0.6978;1K232-2000-XB       1730
40
3
41
0
44
1.084337
50
0
71
7
72
5
7
iso_b_vert
0
HATCH
5
10A
100
AcDbEntity
8
SK2
62
256
6
ByLayer
370
13
48
1
60
0
100
AcDbHatch
10
0
20
0
30
0
210
0
220
0
230
1
2
ANSI31
70
0
71
0
91
1
92
5
93
3
72
1
10
-57.2500000000001
20
9.99999999999991
11
-56.7892162584473
21
6.5000016925531
72
1
10
-56.7892162584473
20
6.5000016925531
11
-57.7107837415528
21
6.49999830744673
72
1
10
-57.7107837415528
20
6.49999830744673
11
-57.2500000000001
21
9.99999999999991
97
0
75
0
76
1
52
0
41
0.0062
77
0
78
1
53
45
43
0
44
0
45
-0.0139193969876572
46
0.0139193969876572
79
0
47
0
98
1
10
0
20
0
0
HATCH
5
10E
100
AcDbEntity
8
SK2
62
256
6
ByLayer
370
13
48
1
60
0
100
AcDbHatch
10
0
20
0
30
0
210
0
220
0
230
1
2
ANSI31
70
0
71
0
91
1
92
5
93
3
72
1
10
-57.2500000000001
20
-10.0000000000001
11
-57.7107837415528
21
-6.50000169255327
72
1
10
-57.7107837415528
20
-6.50000169255327
11
-56.7892162584473
21
-6.4999983074469
72
1
10
-56.7892162584473
20
-6.4999983074469
11
-57.2500000000001
21
-10.0000000000001
97
0
75
0
76
1
52
0
41
0.0062
77
0
78
1
53
45
43
0
44
0
45
-0.0139193969876572
46
0.0139193969876572
79
0
47
0
98
1
10
0
20
0
0
HATCH
5
114
100
AcDbEntity
8
2
62
256
6
ByLayer
370
13
48
1
60
0
100
AcDbHatch
10
0
20
0
30
0
210
0
220
0
230
1
2
ANSI31
70
0
71
0
91
1
92
5
93
3
72
1
10
76
20
10.0000999999998
11
76.4607837415528
21
6.50010169255296
72
1
10
76.4607837415528
20
6.50010169255296
11
75.5392162584472
21
6.50009830744659
72
1
10
75.5392162584472
20
6.50009830744659
11
76
21
10.0000999999998
97
0
75
0
76
1
52
0
41
0.0062
77
0
78
1
53
45
43
0
44
0
45
-0.0139193969876572
46
0.0139193969876572
79
0
47
0
98
1
10
0
20
0
0
HATCH
5
118
100
AcDbEntity
8
2
62
256
6
ByLayer
370
13
48
1
60
0
100
AcDbHatch
10
0
20
0
30
0
210
0
220
0
230
1
2
ANSI31
70
0
71
0
91
1
92
5
93
3
72
1
10
76
20
-10.0001000000002
11
75.5392162584472
21
-6.50010169255342
72
1
10
75.5392162584472
20
-6.50010169255342
11
76.4607837415528
21
-6.50009830744705
72
1
10
76.4607837415528
20
-6.50009830744705
11
76
21
-10.0001000000002
97
0
75
0
76
1
52
0
41
0.0062
77
0
78
1
53
45
43
0
44
0
45
-0.0139193969876572
46
0.0139193969876572
79
0
47
0
98
1
10
0
20
0
0
HATCH
5
11D
100
AcDbEntity
8
SK2
62
256
6
ByLayer
370
13
48
1
60
0
100
AcDbHatch
10
0
20
0
30
0
210
0
220
0
230
1
2
ANSI31
70
0
71
0
91
1
92
5
93
3
72
1
10
-50
20
-41.6376787123212
11
-46.5000016925532
21
-41.1768949707684
72
1
10
-46.5000016925532
20
-41.1768949707684
11
-46.4999983074468
21
-42.0984624538739
72
1
10
-46.4999983074468
20
-42.0984624538739
11
-50
21
-41.6376787123212
97
0
75
0
76
1
52
0
41
0.0062
77
0
78
1
53
45
43
0
44
0
45
-0.0139193969876572
46
0.0139193969876572
79
0
47
0
98
1
10
0
20
0
0
HATCH
5
121
100
AcDbEntity
8
SK2
62
256
6
ByLayer
370
13
48
1
60
0
100
AcDbHatch
10
0
20
0
30
0
210
0
220
0
230
1
2
ANSI31
70
0
71
0
91
1
92
5
93
3
72
1
10
64
20
-41.6376787123212
11
60.5000016925532
21
-42.0984624538739
72
1
10
60.5000016925532
20
-42.0984624538739
11
60.4999983074468
21
-41.1768949707684
72
1
10
60.4999983074468
20
-41.1768949707684
11
64
21
-41.6376787123212
97
0
75
0
76
1
52
0
41
0.0062
77
0
78
1
53
45
43
0
44
0
45
-0.0139193969876572
46
0.0139193969876572
79
0
47
0
98
1
10
0
20
0
0
DIMENSION
5
125
100
AcDbEntity
8
2
62
256
6
ByLayer
370
18
48
1
60
0
100
AcDbDimension
2
_U0
10
24
20
-25.637679
30
0
11
44
21
-25.637679
31
0
70
32
71
1
72
1
41
1
210
0
220
0
230
1
3
Standard
100
AcDbAlignedDimension
13
64
23
-10.0001
33
0
14
24
24
-10.0001
34
0
50
0
100
AcDbRotatedDimension
1001
ACAD
1000
DSTYLE
1002
{
1070
   371
1070
    13
1070
   372
1070
    13
1070
   170
1070
     0
1070
   144
1040
1.0
1070
   277
1070
     2
1070
   284
1070
     8
1070
   278
1070
    46
1070
   146
1040
1.0
1070
   345
1005
16
1070
   347
1005
16
1070
   346
1005
16
1070
   344
1005
0
1070
   343
1005
0
1070
   172
1070
     1
1070
    76
1070
     0
1070
    75
1070
     0
1070
   282
1070
     0
1070
   281
1070
     0
1070
    71
1070
     0
1070
    74
1070
     0
1070
   279
1070
     0
1070
   173
1070
     1
1070
   340
1005
104
1070
   271
1070
     2
1070
   272
1070
     2
1070
    77
1070
     1
1070
    73
1070
     1
1070
   171
1070
     3
1070
   274
1070
     4
1070
   177
1070
     2
1070
   176
1070
     2
1070
   178
1070
     2
1070
    78
1070
     8
1070
    48
1040
-0.1
1070
    41
1040
3.5
1070
   147
1040
1.75
1070
    42
1040
1.5875
1070
    44
1040
2.0
1070
   140
1040
3.5
1002
}
1001
ACAD_DSTYLE_DIM_LINETYPE
1070
   380
1005
16
1001
ACAD_DSTYLE_DIM_EXT1_LINETYPE
1070
   381
1005
16
1001
ACAD_DSTYLE_DIM_EXT2_LINETYPE
1070
   382
1005
16
0
ENDSEC
0
SECTION
2
OBJECTS
0
DICTIONARY
5
1ae
330
0
100
AcDbDictionary
280
0
281
1
3
ACAD_GROUP
350
1af
3
ACAD_MLINESTYLE
350
1b0
0
DICTIONARY
5
1af
330
0
100
AcDbDictionary
280
0
281
1
0
DICTIONARY
5
1b0
330
0
100
AcDbDictionary
280
0
281
1
3
Standard
350
18
0
MLINESTYLE
5
18
330
1b0
100
AcDbMlineStyle
2
Standard
70
0
3

62
256
51
90
52
90
71
2
49
-0.5
62
256
6
ByLayer
49
0.5
62
256
6
ByLayer
0
RASTERVARIABLES
5
19c
330

100
AcDbRasterVariables
90
0
70
1
71
1
72
1
0
ENDSEC
0
EOF
