0
SECTION
2
HEADER
9
$ACADVER
1
AC1015
9
$DWGCODEPAGE
3
ANSI_1252
9
$HANDSEED
5
1b9
9
$ANGBASE
50
0
9
$ANGDIR
70
0
9
$ATTMODE
70
1
9
$AUNITS
70
0
9
$AUPREC
70
0
9
$CECOLOR
62
256
9
$CELTSCALE
40
1
9
$CELTYPE
6
ByLayer
9
$CELWEIGHT
370
18
9
$CLAYER
8
0
9
$CMLJUST
70
0
9
$CMLSCALE
40
1
9
$CMLSTYLE
2
Standard
9
$DIMSTYLE
2
Standard
9
$TEXTSIZE
40
0.2
9
$TEXTSTYLE
7
Standard
9
$LUNITS
70
2
9
$LUPREC
70
4
9
$EXTNAMES
290
1
9
$INSUNITS
70
4
9
$LTSCALE
40
1
9
$LWDISPLAY
290
1
9
$PDMODE
70
0
9
$PDSIZE
40
0
9
$PLINEGEN
70
0
0
ENDSEC
0
SECTION
2
CLASSES
0
CLASS
1
RASTERVARIABLES
2
AcDbRasterVariables
3
ISM
90
0
280
0
281
0
0
ENDSEC
0
SECTION
2
TABLES
0
TABLE
2
VPORT
5
1af
100
AcDbSymbolTable
0
VPORT
5
1
100
AcDbSymbolTableRecord
100
AcDbViewportTableRecord
2
*Active
70
0
10
0
20
0
11
1
21
1
12
-1
22
1
13
0
23
0
14
0.5
24
0.5
15
10
25
10
16
0
26
0
36
1
17
0
27
0
37
0
0
ENDTAB
0
TABLE
2
LTYPE
5
1b0
100
AcDbSymbolTable
0
LTYPE
5
14
100
AcDbSymbolTableRecord
100
AcDbLinetypeTableRecord
70
0
2
ByBlock
3

72
65
73
0
40
0
0
LTYPE
5
15
100
AcDbSymbolTableRecord
100
AcDbLinetypeTableRecord
70
0
2
ByLayer
3

72
65
73
0
40
0
0
LTYPE
5
16
100
AcDbSymbolTableRecord
100
AcDbLinetypeTableRecord
70
0
2
Continuous
3
Solid line
72
65
73
0
40
0
0
LTYPE
5
6E
100
AcDbSymbolTableRecord
100
AcDbLinetypeTableRecord
70
0
2
CENTER
3
____ _ ____ _ ____ _ ____
72
65
73
4
40
47.5
49
22
74
0
49
-8.5
74
0
49
8.5
74
0
49
-8.5
74
0
0
LTYPE
5
6F
100
AcDbSymbolTableRecord
100
AcDbLinetypeTableRecord
70
0
2
DASHED
3
__ __ __ __ __ __ __ __ __
72
65
73
2
40
25.72
49
12.86
74
0
49
-12.86
74
0
0
ENDTAB
0
TABLE
2
LAYER
5
1b1
100
AcDbSymbolTable
0
LAYER
5
10
100
AcDbSymbolTableRecord
100
AcDbLayerTableRecord
2
0
70
0
62
7
6
Continuous
290
1
370
-3
390
0
0
LAYER
5
71
100
AcDbSymbolTableRecord
100
AcDbLayerTableRecord
2
81
70
0
62
-3
6
Continuous
290
1
370
-3
390
0
0
LAYER
5
73
100
AcDbSymbolTableRecord
100
AcDbLayerTableRecord
2
80
70
0
62
-6
6
Continuous
290
1
370
-3
390
0
0
LAYER
5
75
100
AcDbSymbolTableRecord
100
AcDbLayerTableRecord
2
1
70
0
62
4
6
Continuous
290
1
370
-3
390
0
0
LAYER
5
79
100
AcDbSymbolTableRecord
100
AcDbLayerTableRecord
2
4
70
0
62
-2
6
CENTER
290
1
370
-3
390
0
0
LAYER
5
B3
100
AcDbSymbolTableRecord
100
AcDbLayerTableRecord
2
2
70
0
62
7
6
Continuous
290
1
370
-3
390
0
0
LAYER
5
125
100
AcDbSymbolTableRecord
100
AcDbLayerTableRecord
2
Defpoints
70
0
62
7
6
Continuous
290
0
370
-3
390
0
0
LAYER
5
19b
100
AcDbSymbolTableRecord
100
AcDbLayerTableRecord
2
SK4
70
0
62
2
6
CENTER
290
1
370
-3
390
0
0
LAYER
5
19c
100
AcDbSymbolTableRecord
100
AcDbLayerTableRecord
2
SK1
70
0
62
4
6
Continuous
290
1
370
-3
390
0
0
LAYER
5
19d
100
AcDbSymbolTableRecord
100
AcDbLayerTableRecord
2
SK2
70
0
62
7
6
Continuous
290
1
370
-3
390
0
0
LAYER
5
19e
100
AcDbSymbolTableRecord
100
AcDbLayerTableRecord
2
SK6
70
0
62
5
6
Continuous
290
1
370
-3
390
0
0
ENDTAB
0
TABLE
2
STYLE
5
1b2
100
AcDbSymbolTable
0
STYLE
5
11
100
AcDbSymbolTableRecord
100
AcDbTextStyleTableRecord
2
Standard
3
txt
70
0
71
0
40
0
41
1
42
0
50
0
0
STYLE
5
101
100
AcDbSymbolTableRecord
100
AcDbTextStyleTableRecord
2
iso_b_vert
3
simplex.shx
70
0
71
0
40
0
41
1
42
0
50
0
0
STYLE
5
102
100
AcDbSymbolTableRecord
100
AcDbTextStyleTableRecord
2
DWGDirectTextStyle
3
simplex
70
0
71
0
40
0
41
1
42
0
50
0
0
ENDTAB
0
TABLE
2
DIMSTYLE
5
1b3
100
AcDbSymbolTable
100
AcDbDimStyleTable
0
DIMSTYLE
105
27
100
AcDbSymbolTableRecord
100
AcDbDimStyleTableRecord
2
Standard
70
0
3
<>
41
0.18
42
0.0625
44
0.18
140
0.18
147
0.09
73
0
74
0
77
1
271
2
275
0
278
52
280
0
340
11
0
ENDTAB
0
TABLE
2
VIEW
5
1b4
100
AcDbSymbolTable
0
ENDTAB
0
TABLE
2
UCS
5
1b5
100
AcDbSymbolTable
0
ENDTAB
0
TABLE
2
APPID
5
1b6
100
AcDbSymbolTable
0
APPID
5
12
100
AcDbSymbolTableRecord
100
AcDbRegAppTableRecord
2
ACAD
70
0
0
APPID
5
121
100
AcDbSymbolTableRecord
100
AcDbRegAppTableRecord
2
ACAD_DSTYLE_DIMBREAK
70
0
0
APPID
5
15A
100
AcDbSymbolTableRecord
100
AcDbRegAppTableRecord
2
ACAD_DSTYLE_DIM_LINETYPE
70
0
0
APPID
5
15B
100
AcDbSymbolTableRecord
100
AcDbRegAppTableRecord
2
ACAD_DSTYLE_DIM_EXT1_LINETYPE
70
0
0
APPID
5
15C
100
AcDbSymbolTableRecord
100
AcDbRegAppTableRecord
2
ACAD_DSTYLE_DIM_EXT2_LINETYPE
70
0
0
APPID
5
197
100
AcDbSymbolTableRecord
100
AcDbRegAppTableRecord
2
ACAD_MLEADERVER
70
0
0
ENDTAB
0
TABLE
2
BLOCK_RECORD
5
1b7
100
AcDbSymbolTable
0
BLOCK_RECORD
5
1F
100
AcDbSymbolTableRecord
100
AcDbBlockTableRecord
2
*Model_Space
340
0
70
0
0
BLOCK_RECORD
5
1B
100
AcDbSymbolTableRecord
100
AcDbBlockTableRecord
2
*Paper_Space
340
0
70
0
0
BLOCK_RECORD
5
23
100
AcDbSymbolTableRecord
100
AcDbBlockTableRecord
2
*Paper_Space0
340
0
70
0
0
BLOCK_RECORD
5
126
100
AcDbSymbolTableRecord
100
AcDbBlockTableRecord
2
*D1
340
0
70
0
0
BLOCK_RECORD
5
133
100
AcDbSymbolTableRecord
100
AcDbBlockTableRecord
2
_U0
340
0
70
0
0
ENDTAB
0
ENDSEC
0
SECTION
2
BLOCKS
0
BLOCK
5
20
100
AcDbEntity
8
0
100
AcDbBlockBegin
2
*Model_Space
70
0
10
0
20
0
30
0
3
*Model_Space
0
ENDBLK
5
21
100
AcDbEntity
8
0
100
AcDbBlockEnd
0
BLOCK
5
1C
100
AcDbEntity
8
0
100
AcDbBlockBegin
2
*Paper_Space
70
0
10
0
20
0
30
0
3
*Paper_Space
0
ENDBLK
5
1D
100
AcDbEntity
8
0
100
AcDbBlockEnd
0
BLOCK
5
24
100
AcDbEntity
8
0
100
AcDbBlockBegin
2
*Paper_Space0
70
0
10
0
20
0
30
0
3
*Paper_Space0
0
ENDBLK
5
25
100
AcDbEntity
8
0
100
AcDbBlockEnd
0
BLOCK
5
127
100
AcDbEntity
8
0
100
AcDbBlockBegin
2
*D1
70
1
10
0
20
0
30
0
3
*D1
0
LINE
5
129
100
AcDbEntity
8
0
62
256
6
ByLayer
370
-2
48
1
60
0
100
AcDbLine
10
14
20
-2.0876
30
0
11
14
21
-19.1
31
0
39
0
210
0
220
0
230
1
0
LINE
5
12A
100
AcDbEntity
8
0
62
256
6
ByLayer
370
-2
48
1
60
0
100
AcDbLine
10
12
20
-2.0876
30
0
11
12
21
-19.1
31
0
39
0
210
0
220
0
230
1
0
LINE
5
12B
100
AcDbEntity
8
0
62
256
6
ByLayer
370
-2
48
1
60
0
100
AcDbLine
10
17.5
20
-17.1
30
0
11
21
21
-17.1
31
0
39
0
210
0
220
0
230
1
0
LINE
5
12C
100
AcDbEntity
8
0
62
256
6
ByLayer
370
-2
48
1
60
0
100
AcDbLine
10
8.5
20
-17.1
30
0
11
5
21
-17.1
31
0
39
0
210
0
220
0
230
1
0
SOLID
5
12D
100
AcDbEntity
8
0
62
256
6
ByLayer
370
-1
48
1
60
0
100
AcDbTrace
10
17.5
20
-16.516667
30
0
11
17.5
21
-17.683333
31
0
12
14
22
-17.1
32
0
13
14
23
-17.1
33
0
39
0
210
0
220
0
230
1
0
SOLID
5
12E
100
AcDbEntity
8
0
62
256
6
ByLayer
370
-1
48
1
60
0
100
AcDbTrace
10
8.5
20
-17.683333
30
0
11
8.5
21
-16.516667
31
0
12
12
22
-17.1
32
0
13
12
23
-17.1
33
0
39
0
210
0
220
0
230
1
0
MTEXT
5
12F
100
AcDbEntity
8
0
62
256
6
ByLayer
370
18
48
1
60
0
100
AcDbMText
10
13
20
-10.1
30
0
210
0
220
0
230
1
1
\A1;2
40
3.5
41
0
44
1
50
0
71
5
72
5
7
iso_b_vert
0
POINT
5
130
100
AcDbEntity
8
Defpoints
62
0
6
ByLayer
370
-1
48
1
60
0
100
AcDbPoint
10
14
20
-0.5001
30
0
39
0
210
0
220
0
230
1
50
360
0
POINT
5
131
100
AcDbEntity
8
Defpoints
62
0
6
ByLayer
370
-1
48
1
60
0
100
AcDbPoint
10
12
20
-0.5001
30
0
39
0
210
0
220
0
230
1
50
360
0
POINT
5
132
100
AcDbEntity
8
Defpoints
62
0
6
ByLayer
370
-1
48
1
60
0
100
AcDbPoint
10
12
20
-17.1
30
0
39
0
210
0
220
0
230
1
50
360
0
ENDBLK
5
128
100
AcDbEntity
8
0
100
AcDbBlockEnd
0
BLOCK
5
13A
100
AcDbEntity
8
0
100
AcDbBlockBegin
2
_U0
70
0
10
0
20
0
30
0
3
_U0
0
MTEXT
5
134
100
AcDbEntity
8
2
62
256
6
ByLayer
370
18
48
1
60
0
100
AcDbMText
10
12.402767
20
-16.067366
30
0
210
0
220
0
230
1
1
\W0.5404;2
40
3.5
41
0
44
1.084337
50
0
71
7
72
5
7
iso_b_vert
0
LINE
5
135
100
AcDbEntity
8
2
62
256
6
ByLayer
370
13
48
1
60
0
100
AcDbLine
10
14
20
-2.0876
30
0
11
14
21
-19.1
31
0
39
0
210
0
220
0
230
1
0
LINE
5
136
100
AcDbEntity
8
2
62
256
6
ByLayer
370
13
48
1
60
0
100
AcDbLine
10
12
20
-2.0876
30
0
11
12
21
-19.1
31
0
39
0
210
0
220
0
230
1
0
LINE
5
137
100
AcDbEntity
8
2
62
256
6
ByLayer
370
13
48
1
60
0
100
AcDbLine
10
22.75
20
-17.1
30
0
11
3.25
21
-17.1
31
0
39
0
210
0
220
0
230
1
0
SOLID
5
138
100
AcDbEntity
8
2
62
256
6
ByLayer
370
18
48
1
60
0
100
AcDbTrace
10
14
20
-17.1
30
0
11
17.499998
21
-16.639216
31
0
12
17.500002
22
-17.560784
32
0
13
17.500002
23
-17.560784
33
0
39
0
210
0
220
0
230
1
0
SOLID
5
139
100
AcDbEntity
8
2
62
256
6
ByLayer
370
18
48
1
60
0
100
AcDbTrace
10
12
20
-17.1
30
0
11
8.500002
21
-17.560784
31
0
12
8.499998
22
-16.639216
32
0
13
8.499998
23
-16.639216
33
0
39
0
210
0
220
0
230
1
0
ENDBLK
5
13B
100
AcDbEntity
8
0
100
AcDbBlockEnd
0
ENDSEC
0
SECTION
2
ENTITIES
0
ARC
5
C5
100
AcDbEntity
8
1
62
256
6
ByLayer
370
18
48
1
60
0
100
AcDbCircle
39
0
10
7.997679
20
1.5
30
0
40
1
210
0
220
0
230
1
100
AcDbArc
50
240
51
270
0
ARC
5
C6
100
AcDbEntity
8
1
62
256
6
ByLayer
370
18
48
1
60
0
100
AcDbCircle
39
0
10
7.997679
20
-1.5
30
0
40
1
210
0
220
0
230
1
100
AcDbArc
50
90
51
120
0
ELLIPSE
5
C7
100
AcDbEntity
8
1
62
256
6
ByLayer
370
18
48
1
60
0
100
AcDbEllipse
10
13.97
20
-0.131952
30
0
11
0.0470975331760836
21
-0.0887447974283886
31
0
210
0
220
0
230
1
40
0.994026
41
2.65119656702359
42
2.97821355287592
0
ELLIPSE
5
C8
100
AcDbEntity
8
1
62
256
6
ByLayer
370
18
48
1
60
0
100
AcDbEllipse
10
13.97
20
-0.128823
30
0
11
0.0470979551481926
21
0.0887445981818585
31
0
210
0
220
0
230
1
40
0.994026
41
2.84092957803892
42
2.93386167364698
0
ELLIPSE
5
C9
100
AcDbEntity
8
1
62
256
6
ByLayer
370
18
48
1
60
0
100
AcDbEllipse
10
13.97
20
-0.120045
30
0
11
0.054540702582802
21
0.18469609416549
31
0
210
0
220
0
230
1
40
0.453811
41
1.41756983584868
42
1.59389764304268
0
ELLIPSE
5
CA
100
AcDbEntity
8
1
62
256
6
ByLayer
370
18
48
1
60
0
100
AcDbEllipse
10
12.65847
20
0
30
0
11
1.31584040887104
21
-0.477529001583448
31
0
210
0
220
0
230
1
40
0.112635
41
2.23251331103088
42
2.75243875578583
0
ELLIPSE
5
CB
100
AcDbEntity
8
1
62
256
6
ByLayer
370
18
48
1
60
0
100
AcDbEllipse
10
11.777793
20
0
30
0
11
1.27820256409241
21
0.472346887813957
31
0
210
0
220
0
230
1
40
0.128287
41
1.3488916657259
42
1.47057804592321
0
POINT
5
70
100
AcDbEntity
8
81
62
256
6
ByLayer
370
18
48
1
60
0
100
AcDbPoint
10
14
20
0
30
0
39
0
210
0
220
0
230
1
50
360
0
POINT
5
72
100
AcDbEntity
8
80
62
256
6
ByLayer
370
18
48
1
60
0
100
AcDbPoint
10
0
20
0
30
0
39
0
210
0
220
0
230
1
50
360
0
POINT
5
74
100
AcDbEntity
8
1
62
256
6
ByLayer
370
18
48
1
60
1
100
AcDbPoint
10
14
20
-0.5001
30
0
39
0
210
0
220
0
230
1
50
360
0
POINT
5
76
100
AcDbEntity
8
1
62
256
6
ByLayer
370
18
48
1
60
1
100
AcDbPoint
10
12
20
-0.5001
30
0
39
0
210
0
220
0
230
1
50
360
0
SPLINE
5
CC
100
AcDbEntity
8
1
62
256
6
ByLayer
370
18
48
1
60
0
100
AcDbSpline
70
4
71
3
72
8
73
4
40
0
40
0
40
0
40
0
40
1
40
1
40
1
40
1
41
1
10
13.9974718052296
20
0.499999765698789
30
0
41
1
10
13.9967396067283
20
0.488504023624444
30
0
41
1
10
13.9960117635739
20
0.477001976061018
30
0
41
1
10
13.9952882139407
20
0.465493949310741
30
0
0
SPLINE
5
CD
100
AcDbEntity
8
1
62
256
6
ByLayer
370
18
48
1
60
0
100
AcDbSpline
70
4
71
3
72
18
73
14
40
0
40
0
40
0
40
0
40
0.114227646047906
40
0.114227646047906
40
0.261856371706588
40
0.261856371706588
40
0.409485097365271
40
0.409485097365271
40
0.557113823023953
40
0.557113823023953
40
0.704742548682636
40
0.704742548682636
40
1
40
1
40
1
40
1
41
1
10
13.1520593570338
20
0.309630119001497
30
0
41
1
10
13.1843169633341
20
0.323045202815166
30
0
41
1
10
13.2165130921064
20
0.335925375887541
30
0
41
1
10
13.2902378718241
20
0.364070425830164
30
0
41
1
10
13.3317523658528
20
0.378931048135513
30
0
41
1
10
13.4148641640457
20
0.406409724378136
30
0
41
1
10
13.4565254525249
20
0.419032750326579
30
0
41
1
10
13.5396944196659
20
0.441647715774366
30
0
41
1
10
13.5812252011801
20
0.451659740157197
30
0
41
1
10
13.6643635929349
20
0.468973559636112
30
0
41
1
10
13.7060226462687
20
0.476282077565713
30
0
41
1
10
13.8309867127304
20
0.493912274477111
30
0
41
1
10
13.9140880019413
20
0.499931752860448
30
0
41
1
10
13.9974718052542
20
0.499999765694667
30
0
0
SPLINE
5
CE
100
AcDbEntity
8
1
62
256
6
ByLayer
370
18
48
1
60
0
100
AcDbSpline
70
4
71
3
72
12
73
8
40
0
40
0
40
0
40
0
40
0.426238652858513
40
0.426238652858513
40
0.712907991017289
40
0.712907991017289
40
1
40
1
40
1
40
1
41
1
10
13.6238025395608
20
0.275276475990211
30
0
41
1
10
13.6247984115302
20
0.27517210578614
30
0
41
1
10
13.6258108523215
20
0.275093967912397
30
0
41
1
10
13.6275300104944
20
0.275004154054386
30
0
41
1
10
13.6282286433694
20
0.274979068251184
30
0
41
1
10
13.6296405822529
20
0.274949658328211
30
0
41
1
10
13.6303541688141
20
0.274945359045944
30
0
41
1
10
13.631074380129
20
0.274950756748552
30
0
0
SPLINE
5
CF
100
AcDbEntity
8
1
62
256
6
ByLayer
370
18
48
1
60
0
100
AcDbSpline
70
4
71
3
72
18
73
14
40
0
40
0
40
0
40
0
40
0.250000000000002
40
0.250000000000002
40
0.375000000000001
40
0.375000000000001
40
0.5
40
0.5
40
0.749999999999998
40
0.749999999999998
40
0.874999999999999
40
0.874999999999999
40
1
40
1
40
1
40
1
41
1
10
13.9952882139419
20
0.465493949310428
30
0
41
1
10
13.9945387421717
20
0.453572194082113
30
0
41
1
10
13.9939844222052
20
0.441603906657292
30
0
41
1
10
13.9934345408399
20
0.423584330864941
30
0
41
1
10
13.9932984963694
20
0.417566539424968
30
0
41
1
10
13.9931228085443
20
0.405507970564059
30
0
41
1
10
13.9930839498907
20
0.399472476694939
30
0
41
1
10
13.9931133404809
20
0.381738454277439
30
0
41
1
10
13.9933237136458
20
0.370270253235816
30
0
41
1
10
13.9939159830167
20
0.353582096101036
30
0
41
1
10
13.9941614922525
20
0.348079046319924
30
0
41
1
10
13.9947367260898
20
0.337428262416808
30
0
41
1
10
13.9950662142723
20
0.332270801787814
30
0
41
1
10
13.9954357065667
20
0.327273783973709
30
0
0
SPLINE
5
D0
100
AcDbEntity
8
1
62
256
6
ByLayer
370
18
48
1
60
0
100
AcDbSpline
70
4
71
3
72
10
73
6
40
0
40
0
40
0
40
0
40
0.650505658197575
40
0.978852689222205
40
1
40
1
40
1
40
1
41
1
10
13.9952882139421
20
0.4654939493104
30
0
41
1
10
13.8301921426281
20
0.463944531288092
30
0
41
1
10
13.5817627379807
20
0.425948450303906
30
0
41
1
10
13.3279662194823
20
0.347219819003271
30
0
41
1
10
13.239265772298
20
0.315597218727561
30
0
41
1
10
13.233898658447
20
0.313668958320619
30
0
0
SPLINE
5
D1
100
AcDbEntity
8
1
62
256
6
ByLayer
370
18
48
1
60
0
100
AcDbSpline
70
4
71
3
72
12
73
8
40
0
40
0
40
0
40
0
40
0.5
40
0.5
40
0.75
40
0.75
40
1
40
1
40
1
40
1
41
1
10
13.631074380129
20
0.274950756748552
30
0
41
1
10
13.6376199773082
20
0.274996493661632
30
0
41
1
10
13.644610883598
20
0.275397872900953
30
0
41
1
10
13.6557341560443
20
0.27610201239284
30
0
41
1
10
13.6595336593881
20
0.276353813762626
30
0
41
1
10
13.6671005521977
20
0.276817784170959
30
0
41
1
10
13.6708979276119
20
0.27703208190664
30
0
41
1
10
13.6747101854424
20
0.277205374615676
30
0
0
SPLINE
5
D2
100
AcDbEntity
8
1
62
256
6
ByLayer
370
18
48
1
60
0
100
AcDbSpline
70
4
71
3
72
16
73
12
40
0
40
0
40
0
40
0
40
0.125
40
0.125
40
0.25
40
0.25
40
0.5
40
0.5
40
0.75
40
0.75
40
1
40
1
40
1
40
1
41
1
10
13.9954357065682
20
0.327273783974022
30
0
41
1
10
13.9826908129322
20
0.322140743152374
30
0
41
1
10
13.9697531077273
20
0.317910453848214
30
0
41
1
10
13.943659133747
20
0.310473198663743
30
0
41
1
10
13.9304996578902
20
0.30728124846766
30
0
41
1
10
13.8907981570643
20
0.298749835829227
30
0
41
1
10
13.8640379203772
20
0.294432049423961
30
0
41
1
10
13.8101928989936
20
0.287316023440752
30
0
41
1
10
13.7831003100106
20
0.284546549289075
30
0
41
1
10
13.7289435274503
20
0.280106755590964
30
0
41
1
10
13.7018376835467
20
0.278438501503104
30
0
41
1
10
13.6747101854422
20
0.277205374614965
30
0
0
SPLINE
5
D3
100
AcDbEntity
8
1
62
256
6
ByLayer
370
13
48
1
60
0
100
AcDbSpline
70
4
71
3
72
10
73
6
40
0
40
0
40
0
40
0
40
0.181648163435515
40
0.45443210895701
40
1
40
1
40
1
40
1
41
1
10
12.9164762226826
20
-0.207048242144424
30
0
41
1
10
12.8609841484551
20
-0.196377457983971
30
0
41
1
10
12.7221587408942
20
-0.166870796126943
30
0
41
1
10
12.4166666666667
20
-0.0885953514038249
30
0
41
1
10
12.1666666666667
20
-0.0141999447930345
30
0
41
1
10
12
20
0.0339081989154408
30
0
0
SPLINE
5
D4
100
AcDbEntity
8
1
62
256
6
ByLayer
370
18
48
1
60
0
100
AcDbSpline
70
4
71
3
72
8
73
4
40
0
40
0
40
0
40
0
40
1
40
1
40
1
40
1
41
1
10
12.3081731126644
20
-0.393334404156633
30
0
41
1
10
12.2054487417762
20
-0.412203642085217
30
0
41
1
10
12.1027243708881
20
-0.42400381032482
30
0
41
1
10
12
20
-0.42727112440943
30
0
0
SPLINE
5
D5
100
AcDbEntity
8
1
62
256
6
ByLayer
370
18
48
1
60
0
100
AcDbSpline
70
4
71
3
72
20
73
16
40
0
40
0
40
0
40
0
40
0.125
40
0.125
40
0.25
40
0.25
40
0.375
40
0.375
40
0.5
40
0.5
40
0.625
40
0.625
40
0.75
40
0.75
40
1
40
1
40
1
40
1
41
1
10
13.8954893053834
20
-0.067394461685268
30
0
41
1
10
13.8956070528931
20
-0.0670788750879581
30
0
41
1
10
13.8959301728712
20
-0.0665369500021313
30
0
41
1
10
13.8969839619491
20
-0.0650420567018841
30
0
41
1
10
13.8977242636509
20
-0.0640774418970125
30
0
41
1
10
13.8996299716195
20
-0.0618087268698844
30
0
41
1
10
13.9007830476778
20
-0.0605182638494455
30
0
41
1
10
13.9035389050498
20
-0.0576817891265193
30
0
41
1
10
13.9051645611077
20
-0.0561164549223179
30
0
41
1
10
13.908811532215
20
-0.0529126135548665
30
0
41
1
10
13.9108371588959
20
-0.0512663804774434
30
0
41
1
10
13.9153586676584
20
-0.0479514896066178
30
0
41
1
10
13.9178594971602
20
-0.0462860835953904
30
0
41
1
10
13.9257404916327
20
-0.0416193967867287
30
0
41
1
10
13.9317150634778
20
-0.038840701824796
30
0
41
1
10
13.9378780466715
20
-0.0367739256344635
30
0
0
SPLINE
5
D6
100
AcDbEntity
8
1
62
256
6
ByLayer
370
18
48
1
60
0
100
AcDbSpline
70
4
71
3
72
18
73
14
40
0
40
0
40
0
40
0
40
0.125000000000016
40
0.125000000000016
40
0.250000000000032
40
0.250000000000032
40
0.500000000000066
40
0.500000000000066
40
0.750000000000099
40
0.750000000000099
40
0.875000000000049
40
0.875000000000049
40
1
40
1
40
1
40
1
41
1
10
13.87270757019
20
-0.149765401006931
30
0
41
1
10
13.8727598105526
20
-0.150177306037705
30
0
41
1
10
13.8729050300169
20
-0.150978578493436
30
0
41
1
10
13.8733899435839
20
-0.153225087271522
30
0
41
1
10
13.8737357030188
20
-0.154690556223699
30
0
41
1
10
13.8751089780512
20
-0.159778454621033
30
0
41
1
10
13.8764888622615
20
-0.164137533828011
30
0
41
1
10
13.8804723795064
20
-0.173681018336197
30
0
41
1
10
13.8831334531187
20
-0.178983874387171
30
0
41
1
10
13.8882208585103
20
-0.186907066425221
30
0
41
1
10
13.8901206370581
20
-0.189579326072419
30
0
41
1
10
13.8942736525635
20
-0.194794192993925
30
0
41
1
10
13.8965003029307
20
-0.197308526435677
30
0
41
1
10
13.8988898374145
20
-0.199721494830925
30
0
0
SPLINE
5
D7
100
AcDbEntity
8
1
62
256
6
ByLayer
370
18
48
1
60
0
100
AcDbSpline
70
4
71
3
72
34
73
30
40
0
40
0
40
0
40
0
40
0.062499999999998
40
0.062499999999998
40
0.124999999999996
40
0.124999999999996
40
0.187499999999994
40
0.187499999999994
40
0.218749999999991
40
0.218749999999991
40
0.249999999999987
40
0.249999999999987
40
0.312499999999988
40
0.312499999999988
40
0.374999999999989
40
0.374999999999989
40
0.499999999999992
40
0.499999999999992
40
0.562499999999993
40
0.562499999999993
40
0.624999999999994
40
0.624999999999994
40
0.749999999999996
40
0.749999999999996
40
0.812499999999997
40
0.812499999999997
40
0.874999999999998
40
0.874999999999998
40
1
40
1
40
1
40
1
41
1
10
13.6063659595778
20
0.277551708329753
30
0
41
1
10
13.6043592160184
20
0.277971590773092
30
0
41
1
10
13.6029984775067
20
0.277623521164514
30
0
41
1
10
13.6016592209945
20
0.275284238319017
30
0
41
1
10
13.6016956843368
20
0.273263137567994
30
0
41
1
10
13.6032104802196
20
0.267640649710017
30
0
41
1
10
13.604675064304
20
0.264040910722144
30
0
41
1
10
13.6079147021247
20
0.257478648741568
30
0
41
1
10
13.6091687853523
20
0.255096994981102
30
0
41
1
10
13.6120272705405
20
0.24994309073719
30
0
41
1
10
13.6136366521718
20
0.247163332860424
30
0
41
1
10
13.6189027442504
20
0.238383671501793
30
0
41
1
10
13.6230150607306
20
0.231907943703618
30
0
41
1
10
13.6323405389603
20
0.217817156800294
30
0
41
1
10
13.6375798165885
20
0.210165302561307
30
0
41
1
10
13.6546980851125
20
0.185826259480791
30
0
41
1
10
13.6676936816674
20
0.168140284890171
30
0
41
1
10
13.6890903488256
20
0.139856463970858
30
0
41
1
10
13.6965790626428
20
0.130087318071332
30
0
41
1
10
13.7120002487628
20
0.110200297519469
30
0
41
1
10
13.7198899072021
20
0.100136394088025
30
0
41
1
10
13.7440379192846
20
0.0696226073096113
30
0
41
1
10
13.7607709902187
20
0.0488535516420256
30
0
41
1
10
13.7867044393395
20
0.0171393407503899
30
0
41
1
10
13.7955230810883
20
0.0064328666205711
30
0
41
1
10
13.8132542268708
20
-0.0149478847375804
30
0
41
1
10
13.8221499864789
20
-0.0256026718755038
30
0
41
1
10
13.8489216409493
20
-0.0574675588690923
30
0
41
1
10
13.8668813300535
20
-0.0785788697494638
30
0
41
1
10
13.8849453820647
20
-0.099567142287043
30
0
0
SPLINE
5
D8
100
AcDbEntity
8
1
62
256
6
ByLayer
370
18
48
1
60
0
100
AcDbSpline
70
4
71
3
72
12
73
8
40
0
40
0
40
0
40
0
40
0.249999999999913
40
0.249999999999913
40
0.499999999999826
40
0.499999999999826
40
1
40
1
40
1
40
1
41
1
10
13.6063659595778
20
0.277551708329753
30
0
41
1
10
13.6067670276765
20
0.277467790555392
30
0
41
1
10
13.6074949233063
20
0.277342561900298
30
0
41
1
10
13.6095235082338
20
0.277029618827527
30
0
41
1
10
13.6108446505361
20
0.276839241810961
30
0
41
1
10
13.6154468691713
20
0.276220725215069
30
0
41
1
10
13.6193798451883
20
0.275743654991658
30
0
41
1
10
13.6238025395608
20
0.275276475990211
30
0
0
SPLINE
5
D9
100
AcDbEntity
8
1
62
256
6
ByLayer
370
18
48
1
60
0
100
AcDbSpline
70
4
71
3
72
8
73
4
40
0
40
0
40
0
40
0
40
1
40
1
40
1
40
1
41
1
10
13.6238025395608
20
0.275276475990211
30
0
41
1
10
13.5977540386376
20
0.275503839473544
30
0
41
1
10
13.5717055377145
20
0.275410911124112
30
0
41
1
10
13.5456570367912
20
0.274994524273978
30
0
0
SPLINE
5
DA
100
AcDbEntity
8
1
62
256
6
ByLayer
370
18
48
1
60
0
100
AcDbSpline
70
4
71
3
72
20
73
16
40
0
40
0
40
0
40
0
40
0.250000000000031
40
0.250000000000031
40
0.375000000000026
40
0.375000000000026
40
0.500000000000021
40
0.500000000000021
40
0.625000000000015
40
0.625000000000015
40
0.75000000000001
40
0.75000000000001
40
0.875000000000005
40
0.875000000000005
40
1
40
1
40
1
40
1
41
1
10
13.8849453820647
20
-0.0995671422870146
30
0
41
1
10
13.8795915522603
20
-0.108284329908116
30
0
41
1
10
13.8756402807905
20
-0.117604005973675
30
0
41
1
10
13.8718522038095
20
-0.132424149138103
30
0
41
1
10
13.8709637806817
20
-0.137492793258133
30
0
41
1
10
13.8699804872615
20
-0.147542358318816
30
0
41
1
10
13.8698722541312
20
-0.152569806014526
30
0
41
1
10
13.8704251888418
20
-0.162629899736714
30
0
41
1
10
13.8710967970441
20
-0.167674455284782
30
0
41
1
10
13.8731601219097
20
-0.177416891595044
30
0
41
1
10
13.8745515542738
20
-0.182160810915491
30
0
41
1
10
13.8780424013612
20
-0.19140314001811
30
0
41
1
10
13.8801561387454
20
-0.195917673088132
30
0
41
1
10
13.884983462507
20
-0.204469510420665
30
0
41
1
10
13.8877050634117
20
-0.208536811873927
30
0
41
1
10
13.8907370332527
20
-0.212400174638816
30
0
0
SPLINE
5
DB
100
AcDbEntity
8
1
62
256
6
ByLayer
370
18
48
1
60
0
100
AcDbSpline
70
4
71
3
72
14
73
10
40
0
40
0
40
0
40
0
40
0.25
40
0.25
40
0.5
40
0.5
40
0.75
40
0.75
40
1
40
1
40
1
40
1
41
1
10
13.9351286411161
20
-0.251369508443361
30
0
41
1
10
13.9370965258004
20
-0.265304809861704
30
0
41
1
10
13.9391847491655
20
-0.278642410721318
30
0
41
1
10
13.943561735215
20
-0.303870672017439
30
0
41
1
10
13.9458420237591
20
-0.315720721061837
30
0
41
1
10
13.9505852657949
20
-0.337900364480532
30
0
41
1
10
13.9530347881242
20
-0.348160078375173
30
0
41
1
10
13.9580429160994
20
-0.366870437458544
30
0
41
1
10
13.9606080626194
20
-0.375352140061494
30
0
41
1
10
13.9632352346552
20
-0.382946881132966
30
0
0
SPLINE
5
DC
100
AcDbEntity
8
1
62
256
6
ByLayer
370
18
48
1
60
0
100
AcDbSpline
70
4
71
3
72
8
73
4
40
0
40
0
40
0
40
0
40
1
40
1
40
1
40
1
41
1
10
13.9057212390313
20
-0.227554592366374
30
0
41
1
10
13.915627342271
20
-0.2355977087947
30
0
41
1
10
13.9254314517218
20
-0.243537674863461
30
0
41
1
10
13.9351286411161
20
-0.251369508443332
30
0
0
SPLINE
5
DD
100
AcDbEntity
8
1
62
256
6
ByLayer
370
18
48
1
60
0
100
AcDbSpline
70
4
71
3
72
8
73
4
40
0
40
0
40
0
40
0
40
1
40
1
40
1
40
1
41
1
10
13.8907370332579
20
-0.212400174641857
30
0
41
1
10
13.8951415411931
20
-0.217959773493021
30
0
41
1
10
13.9001236025981
20
-0.223009672889674
30
0
41
1
10
13.905721239031
20
-0.227554592366573
30
0
0
SPLINE
5
DE
100
AcDbEntity
8
1
62
256
6
ByLayer
370
18
48
1
60
0
100
AcDbSpline
70
4
71
3
72
13
73
9
40
0
40
0
40
0
40
0
40
0.206658581487089
40
0.338882151239241
40
0.471105720991393
40
0.603329290743545
40
0.735552860495696
40
1
40
1
40
1
40
1
41
1
10
13.8907370332583
20
-0.212400174641061
30
0
41
1
10
13.7604913555055
20
-0.160060363757168
30
0
41
1
10
13.5469123444194
20
-0.0667967840042536
30
0
41
1
10
13.25
20
0.0683798109837141
30
0
41
1
10
13
20
0.178427420718066
30
0
41
1
10
12.75
20
0.276169676874048
30
0
41
1
10
12.4166666666667
20
0.380325647758525
30
0
41
1
10
12.1666666666667
20
0.421970022609173
30
0
41
1
10
12
20
0.427271124409373
30
0
0
SPLINE
5
DF
100
AcDbEntity
8
1
62
256
6
ByLayer
370
18
48
1
60
0
100
AcDbSpline
70
4
71
3
72
12
73
8
40
0
40
0
40
0
40
0
40
0.250000000000025
40
0.250000000000025
40
0.50000000000005
40
0.50000000000005
40
1
40
1
40
1
40
1
41
1
10
13.963235234928
20
-0.382946881109149
30
0
41
1
10
13.9635523357074
20
-0.383863973669605
30
0
41
1
10
13.9638551029
20
-0.384953983923197
30
0
41
1
10
13.9644322794138
20
-0.387476121433423
30
0
41
1
10
13.9647099048405
20
-0.388930608866161
30
0
41
1
10
13.9654628440441
20
-0.393675387104395
30
0
41
1
10
13.9658729206666
20
-0.397421101809613
30
0
41
1
10
13.9661330797575
20
-0.401478932516142
30
0
0
SPLINE
5
E0
100
AcDbEntity
8
1
62
256
6
ByLayer
370
13
48
1
60
0
100
AcDbSpline
70
4
71
3
72
13
73
9
40
0
40
0
40
0
40
0
40
0.281968802673366
40
0.434142461632825
40
0.586316120592284
40
0.738489779551743
40
0.890663438511202
40
1
40
1
40
1
40
1
41
1
10
13.9632352349964
20
-0.382946881055545
30
0
41
1
10
13.8088234899976
20
-0.348547258742059
30
0
41
1
10
13.5710784116654
20
-0.276208040472881
30
0
41
1
10
13.2499999999999
20
-0.148551699849293
30
0
41
1
10
12.9999999999999
20
-0.0361252134854908
30
0
41
1
10
12.7499999999999
20
0.0808882977834457
30
0
41
1
10
12.5234584496881
20
0.181149338933722
30
0
41
1
10
12.3802502327095
20
0.237031227203772
30
0
41
1
10
12.3203753490643
20
0.258864429895795
30
0
0
SPLINE
5
E1
100
AcDbEntity
8
1
62
256
6
ByLayer
370
18
48
1
60
0
100
AcDbSpline
70
4
71
3
72
8
73
4
40
0
40
0
40
0
40
0
40
1
40
1
40
1
40
1
41
1
10
12.320375249714
20
0.258864466123583
30
0
41
1
10
12.287552415156
20
0.270833216635026
30
0
41
1
10
12.2547295805979
20
0.282341933084069
30
0
41
1
10
12.2219067460398
20
0.293354352781847
30
0
0
SPLINE
5
E2
100
AcDbEntity
8
1
62
256
6
ByLayer
370
18
48
1
60
0
100
AcDbSpline
70
4
71
3
72
18
73
14
40
0
40
0
40
0
40
0
40
0.250000000000006
40
0.250000000000006
40
0.375000000000006
40
0.375000000000006
40
0.500000000000006
40
0.500000000000006
40
0.750000000000005
40
0.750000000000005
40
0.875000000000003
40
0.875000000000003
40
1
40
1
40
1
40
1
41
1
10
13.9952882139419
20
-0.465493949310513
30
0
41
1
10
13.9945387421717
20
-0.453572194082199
30
0
41
1
10
13.9939844222052
20
-0.441603906657349
30
0
41
1
10
13.9934345408399
20
-0.423584330864998
30
0
41
1
10
13.9932984963694
20
-0.417566539425024
30
0
41
1
10
13.9931228085443
20
-0.405507970564116
30
0
41
1
10
13.9930839498907
20
-0.399472476694996
30
0
41
1
10
13.9931133404808
20
-0.381738454277496
30
0
41
1
10
13.9933237136458
20
-0.370270253235873
30
0
41
1
10
13.9939159830166
20
-0.353582096101064
30
0
41
1
10
13.9941614922525
20
-0.348079046319953
30
0
41
1
10
13.9947367260898
20
-0.337428262416836
30
0
41
1
10
13.9950662142723
20
-0.332270801787843
30
0
41
1
10
13.9954357065668
20
-0.327273783973737
30
0
0
SPLINE
5
E3
100
AcDbEntity
8
1
62
256
6
ByLayer
370
13
48
1
60
0
100
AcDbSpline
70
4
71
3
72
10
73
6
40
0
40
0
40
0
40
0
40
0.550488066694521
40
0.825732100041781
40
1
40
1
40
1
40
1
41
1
10
12
20
0.0408827118092461
30
0
41
1
10
12.1666666666667
20
-0.0069690155808644
30
0
41
1
10
12.4166666666667
20
-0.0814888170284575
30
0
41
1
10
12.7194283008424
20
-0.160248177355641
30
0
41
1
10
12.8555232683514
20
-0.189991760688969
30
0
41
1
10
12.9082849025272
20
-0.200529958073247
30
0
0
SPLINE
5
E4
100
AcDbEntity
8
1
62
256
6
ByLayer
370
18
48
1
60
0
100
AcDbSpline
70
4
71
3
72
8
73
4
40
0
40
0
40
0
40
0
40
1
40
1
40
1
40
1
41
1
10
13.9922851465019
20
-0.499214403817405
30
0
41
1
10
13.9848436388724
20
-0.4875975232695
30
0
41
1
10
13.9774129215671
20
-0.474943644502701
30
0
41
1
10
13.9699987090194
20
-0.461276666434486
30
0
0
SPLINE
5
E5
100
AcDbEntity
8
1
62
256
6
ByLayer
370
18
48
1
60
0
100
AcDbSpline
70
4
71
3
72
8
73
4
40
0
40
0
40
0
40
0
40
1
40
1
40
1
40
1
41
1
10
13.966133079996
20
-0.401478932412203
30
0
41
1
10
13.9674077465483
20
-0.421432107356566
30
0
41
1
10
13.9686961177773
20
-0.441364940136339
30
0
41
1
10
13.9699987090193
20
-0.461276666434458
30
0
0
SPLINE
5
E6
100
AcDbEntity
8
1
62
256
6
ByLayer
370
13
48
1
60
0
100
AcDbSpline
70
4
71
3
72
13
73
9
40
0
40
0
40
0
40
0
40
0.290740988303334
40
0.446673382262782
40
0.602605776222231
40
0.758538170181679
40
0.914470564141128
40
1
40
1
40
1
40
1
41
1
10
13.9661330800498
20
-0.401478932374403
30
0
41
1
10
13.8107553866999
20
-0.369325566921759
30
0
41
1
10
13.5720443600166
20
-0.298960990228522
30
0
41
1
10
13.2500000000001
20
-0.171081167986102
30
0
41
1
10
13.0000000000001
20
-0.0571857922051038
30
0
41
1
10
12.7500000000001
20
0.0627851560048782
30
0
41
1
10
12.5376247232925
20
0.160316234312745
30
0
41
1
10
12.4085827799183
20
0.21385642591332
30
0
41
1
10
12.3628741698774
20
0.232004352925486
30
0
0
SPLINE
5
E7
100
AcDbEntity
8
1
62
256
6
ByLayer
370
18
48
1
60
0
100
AcDbSpline
70
4
71
3
72
8
73
4
40
0
40
0
40
0
40
0
40
1
40
1
40
1
40
1
41
1
10
13.9974718052296
20
-0.499999765698874
30
0
41
1
10
13.9967396067283
20
-0.488504023624529
30
0
41
1
10
13.9960117635739
20
-0.477001976061104
30
0
41
1
10
13.9952882139407
20
-0.465493949310826
30
0
0
SPLINE
5
E8
100
AcDbEntity
8
1
62
256
6
ByLayer
370
18
48
1
60
0
100
AcDbSpline
70
4
71
3
72
8
73
4
40
0
40
0
40
0
40
0
40
1
40
1
40
1
40
1
41
1
10
13.9974718052295
20
-0.499999765694753
30
0
41
1
10
13.9957444976506
20
-0.499796431594263
30
0
41
1
10
13.9940155645047
20
-0.499534641329973
30
0
41
1
10
13.9922851505354
20
-0.499214404090083
30
0
0
SPLINE
5
E9
100
AcDbEntity
8
1
62
256
6
ByLayer
370
18
48
1
60
0
100
AcDbSpline
70
4
71
3
72
34
73
30
40
0
40
0
40
0
40
0
40
0.0624999999999984
40
0.0624999999999984
40
0.124999999999997
40
0.124999999999997
40
0.250000000000002
40
0.250000000000002
40
0.312500000000005
40
0.312500000000005
40
0.375000000000007
40
0.375000000000007
40
0.43750000000001
40
0.43750000000001
40
0.500000000000013
40
0.500000000000013
40
0.625000000000009
40
0.625000000000009
40
0.687500000000008
40
0.687500000000008
40
0.750000000000006
40
0.750000000000006
40
0.812500000000005
40
0.812500000000005
40
0.875000000000003
40
0.875000000000003
40
0.937500000000002
40
0.937500000000002
40
1
40
1
40
1
40
1
41
1
10
13.9699987090195
20
-0.461276666434458
30
0
41
1
10
13.9294347881363
20
-0.453597951233405
30
0
41
1
10
13.8887101608303
20
-0.444599384971553
30
0
41
1
10
13.8068873360776
20
-0.424326826404183
30
0
41
1
10
13.7657290850266
20
-0.413042836546168
30
0
41
1
10
13.6421522302337
20
-0.376217517606364
30
0
41
1
10
13.5597306787639
20
-0.347769554990464
30
0
41
1
10
13.4358898324699
20
-0.299458812442765
30
0
41
1
10
13.3945162582289
20
-0.282350424143317
30
0
41
1
10
13.3120379465825
20
-0.24669538476229
30
0
41
1
10
13.2708915510219
20
-0.228142627517912
30
0
41
1
10
13.1886747001372
20
-0.189755406580389
30
0
41
1
10
13.1476046377984
20
-0.169919334481165
30
0
41
1
10
13.0654001266821
20
-0.129158221416503
30
0
41
1
10
13.0242495036044
20
-0.108219495000128
30
0
41
1
10
12.9012523597453
20
-0.0446692926662422
30
0
41
1
10
12.8195895409093
20
-0.0011895616424056
30
0
41
1
10
12.6964458031377
20
0.0635310513622187
30
0
41
1
10
12.6554576755974
20
0.0849265841831368
30
0
41
1
10
12.5735383477344
20
0.126919312683441
30
0
41
1
10
12.5325799454824
20
0.147529437017283
30
0
41
1
10
12.4505241097752
20
0.187733314438134
30
0
41
1
10
12.4094207382236
20
0.207333208626324
30
0
41
1
10
12.3270281436007
20
0.245341463342783
30
0
41
1
10
12.2859477746526
20
0.263656099217144
30
0
41
1
10
12.2039858313113
20
0.29876528823695
30
0
41
1
10
12.1631019584222
20
0.315552504007769
30
0
41
1
10
12.0814437028204
20
0.347568538226454
30
0
41
1
10
12.0406798299685
20
0.362794489069216
30
0
41
1
10
12.0000000000001
20
0.377171881006206
30
0
0
SPLINE
5
EA
100
AcDbEntity
8
1
62
256
6
ByLayer
370
18
48
1
60
0
100
AcDbSpline
70
4
71
3
72
8
73
4
40
0
40
0
40
0
40
0
40
1
40
1
40
1
40
1
41
1
10
12.3504847870236
20
0.0904013437653077
30
0
41
1
10
12.2336565246824
20
0.147283736451385
30
0
41
1
10
12.1168282623411
20
0.202133347160071
30
0
41
1
10
12
20
0.25088281826072
30
0
0
SPLINE
5
EB
100
AcDbEntity
8
1
62
256
6
ByLayer
370
18
48
1
60
0
100
AcDbSpline
70
4
71
3
72
8
73
4
40
0
40
0
40
0
40
0
40
1
40
1
40
1
40
1
41
1
10
11.8923562294007
20
0.41035651925867
30
0
41
1
10
11.9016274548656
20
0.406591170019084
30
0
41
1
10
11.9109017483954
20
0.402832160305536
30
0
41
1
10
11.9201791009915
20
0.399079471523834
30
0
0
SPLINE
5
EC
100
AcDbEntity
8
1
62
256
6
ByLayer
370
18
48
1
60
0
100
AcDbSpline
70
4
71
3
72
16
73
12
40
0
40
0
40
0
40
0
40
0.25000000000002
40
0.25000000000002
40
0.50000000000004
40
0.50000000000004
40
0.625000000000049
40
0.625000000000049
40
0.750000000000058
40
0.750000000000058
40
1
40
1
40
1
40
1
41
1
10
11.8743879954183
20
0.34204918566445
30
0
41
1
10
11.8717685657917
20
0.348523517543299
30
0
41
1
10
11.870041424141
20
0.354919403527362
30
0
41
1
10
11.8687012012651
20
0.367556206410541
30
0
41
1
10
11.8691338857769
20
0.373832799061432
30
0
41
1
10
11.871486694754
20
0.382609214679434
30
0
41
1
10
11.8725487866141
20
0.385451036174771
30
0
41
1
10
11.8752187707318
20
0.390975577191938
30
0
41
1
10
11.8768395649228
20
0.393674436921799
30
0
41
1
10
11.8824012197654
20
0.40140118418293
30
0
41
1
10
11.8870145416407
20
0.406065352287101
30
0
41
1
10
11.8923562294142
20
0.410356519249234
30
0
0
SPLINE
5
ED
100
AcDbEntity
8
1
62
256
6
ByLayer
370
18
48
1
60
0
100
AcDbSpline
70
4
71
3
72
18
73
14
40
0
40
0
40
0
40
0
40
0.249999999999722
40
0.249999999999722
40
0.374999999999768
40
0.374999999999768
40
0.499999999999814
40
0.499999999999814
40
0.62499999999986
40
0.62499999999986
40
0.749999999999907
40
0.749999999999907
40
1
40
1
40
1
40
1
41
1
10
11.4614209329681
20
0.498055879151735
30
0
41
1
10
11.4593020641991
20
0.498225887028212
30
0
41
1
10
11.4572808963324
20
0.498393509483805
30
0
41
1
10
11.4546471119037
20
0.498651141075953
30
0
41
1
10
11.4538356171358
20
0.49873815490858
30
0
41
1
10
11.4525807471221
20
0.498914615090172
30
0
41
1
10
11.4521127393978
20
0.499005553720338
30
0
41
1
10
11.4523133434431
20
0.499179623473793
30
0
41
1
10
11.4531346671109
20
0.49925206198634
30
0
41
1
10
11.4554160302443
20
0.499343297489815
30
0
41
1
10
11.4567884863743
20
0.499368788316559
30
0
41
1
10
11.4609276662749
20
0.499422530555535
30
0
41
1
10
11.4638095640624
20
0.499429298595459
30
0
41
1
10
11.4666706564378
20
0.499428707343497
30
0
0
SPLINE
5
EE
100
AcDbEntity
8
1
62
256
6
ByLayer
370
18
48
1
60
0
100
AcDbSpline
70
4
71
3
72
18
73
14
40
0
40
0
40
0
40
0
40
0.25
40
0.25
40
0.5
40
0.5
40
0.625
40
0.625
40
0.75
40
0.75
40
0.875
40
0.875
40
1
40
1
40
1
40
1
41
1
10
11.4666706564378
20
0.499428707343526
30
0
41
1
10
11.4916992356545
20
0.499423535124521
30
0
41
1
10
11.5166022423276
20
0.499470215761448
30
0
41
1
10
11.5660117472054
20
0.499669882355761
30
0
41
1
10
11.5905222167069
20
0.499835175723518
30
0
41
1
10
11.6267799129702
20
0.499989655701683
30
0
41
1
10
11.6388439673365
20
0.500022113108088
30
0
41
1
10
11.6620654388701
20
0.499943733697421
30
0
41
1
10
11.6732852871763
20
0.499834421631874
30
0
41
1
10
11.694791850509
20
0.499298217401332
30
0
41
1
10
11.7051491903953
20
0.498863619332269
30
0
41
1
10
11.7241740407418
20
0.497449811039104
30
0
41
1
10
11.7329037271929
20
0.496471499905226
30
0
41
1
10
11.7408824765386
20
0.495095043388744
30
0
0
SPLINE
5
EF
100
AcDbEntity
8
1
62
256
6
ByLayer
370
18
48
1
60
0
100
AcDbSpline
70
4
71
3
72
14
73
10
40
0
40
0
40
0
40
0
40
0.108173938713871
40
0.108173938713871
40
0.405449292475914
40
0.405449292475914
40
0.702724646237957
40
0.702724646237957
40
1
40
1
40
1
40
1
41
1
10
11.6376205125387
20
-0.499999779128785
30
0
41
1
10
11.6419447411698
20
-0.500001957527189
30
0
41
1
10
11.6462297345568
20
-0.499997183935136
30
0
41
1
10
11.66206543887
20
-0.499943733697506
30
0
41
1
10
11.6732852871762
20
-0.49983442163196
30
0
41
1
10
11.6947918505089
20
-0.499298217401389
30
0
41
1
10
11.7051491903952
20
-0.498863619332354
30
0
41
1
10
11.7241740407417
20
-0.497449811039161
30
0
41
1
10
11.7329037271928
20
-0.496471499905311
30
0
41
1
10
11.7408824765385
20
-0.495095043388801
30
0
0
SPLINE
5
F0
100
AcDbEntity
8
1
62
256
6
ByLayer
370
18
48
1
60
0
100
AcDbSpline
70
4
71
3
72
34
73
30
40
0
40
0
40
0
40
0
40
0.0625000000000026
40
0.0625000000000026
40
0.125000000000005
40
0.125000000000005
40
0.187500000000008
40
0.187500000000008
40
0.250000000000011
40
0.250000000000011
40
0.312500000000014
40
0.312500000000014
40
0.375000000000016
40
0.375000000000016
40
0.500000000000022
40
0.500000000000022
40
0.625000000000027
40
0.625000000000027
40
0.687500000000023
40
0.687500000000023
40
0.750000000000018
40
0.750000000000018
40
0.812500000000014
40
0.812500000000014
40
0.875000000000009
40
0.875000000000009
40
0.937500000000005
40
0.937500000000005
40
1
40
1
40
1
40
1
41
1
10
11.7408824765385
20
-0.495095043388801
30
0
41
1
10
11.7402575919601
20
-0.493086325866017
30
0
41
1
10
11.7390805476134
20
-0.490479820277898
30
0
41
1
10
11.7359315792866
20
-0.484100283281663
30
0
41
1
10
11.7339497559301
20
-0.48031605814964
30
0
41
1
10
11.729347489685
20
-0.471633917045608
30
0
41
1
10
11.7267329078669
20
-0.46674930577089
30
0
41
1
10
11.7209452054403
20
-0.455919685580767
30
0
41
1
10
11.7177629242386
20
-0.449958865714109
30
0
41
1
10
11.7109042975745
20
-0.437096352406741
30
0
41
1
10
11.707225269367
20
-0.430190322998584
30
0
41
1
10
11.6993497772636
20
-0.415459446734843
30
0
41
1
10
11.6951503900104
20
-0.407629685942226
30
0
41
1
10
11.6818224706182
20
-0.383027090730565
30
0
41
1
10
11.671895319625
20
-0.364994236488883
30
0
41
1
10
11.6497701662696
20
-0.326790707601248
30
0
41
1
10
11.6375144258847
20
-0.306525905770968
30
0
41
1
10
11.6170930301084
20
-0.275464399638764
30
0
41
1
10
11.6099171604799
20
-0.2649598915757
30
0
41
1
10
11.5948318628651
20
-0.243933440302669
30
0
41
1
10
11.5869285738754
20
-0.233417924679998
30
0
41
1
10
11.5702866326651
20
-0.212503661184968
30
0
41
1
10
11.5615301338192
20
-0.20208750973373
30
0
41
1
10
11.5432284114842
20
-0.181691758815248
30
0
41
1
10
11.5336687739477
20
-0.171692251872827
30
0
41
1
10
11.5136407477614
20
-0.152217358898895
30
0
41
1
10
11.5031900521045
20
-0.142763921621082
30
0
41
1
10
11.4815284611898
20
-0.124677105990145
30
0
41
1
10
11.4702948774418
20
-0.116021341305668
30
0
41
1
10
11.4586423114095
20
-0.107791982219908
30
0
0
SPLINE
5
F1
100
AcDbEntity
8
1
62
256
6
ByLayer
370
18
48
1
60
0
100
AcDbSpline
70
4
71
3
72
8
73
4
40
0
40
0
40
0
40
0
40
1
40
1
40
1
40
1
41
1
10
11.4586423114045
20
-0.107791982221158
30
0
41
1
10
11.456373893257
20
-0.106189963623621
30
0
41
1
10
11.4542329851529
20
-0.104440053098926
30
0
41
1
10
11.4522674302099
20
-0.102486092215685
30
0
0
SPLINE
5
F2
100
AcDbEntity
8
1
62
256
6
ByLayer
370
18
48
1
60
0
100
AcDbSpline
70
4
71
3
72
30
73
26
40
0
40
0
40
0
40
0
40
0.0312499999999965
40
0.0312499999999965
40
0.062499999999993
40
0.062499999999993
40
0.0937499999999895
40
0.0937499999999895
40
0.124999999999986
40
0.124999999999986
40
0.187499999999989
40
0.187499999999989
40
0.249999999999993
40
0.249999999999993
40
0.312499999999996
40
0.312499999999996
40
0.375
40
0.375
40
0.500000000000007
40
0.500000000000007
40
0.625000000000013
40
0.625000000000013
40
0.75000000000002
40
0.75000000000002
40
1
40
1
40
1
40
1
41
1
10
11.4522674302255
20
-0.102486092193175
30
0
41
1
10
11.4480890777213
20
-0.0983323861949259
30
0
41
1
10
11.4443405707318
20
-0.0938554139220855
30
0
41
1
10
11.4379997842188
20
-0.0840265397434337
30
0
41
1
10
11.4354354219263
20
-0.0786561800702259
30
0
41
1
10
11.4320941686343
20
-0.0674667778982041
30
0
41
1
10
11.4312973083989
20
-0.061514979775211
30
0
41
1
10
11.4315238888831
20
-0.0498006634404362
30
0
41
1
10
11.432533510411
20
-0.043878123027838
30
0
41
1
10
11.4375081488832
20
-0.0269519222687506
30
0
41
1
10
11.4433802641641
20
-0.0164373398137627
30
0
41
1
10
11.4570483164239
20
0.0026561039491071
30
0
41
1
10
11.4649620170206
20
0.0114243880165361
30
0
41
1
10
11.4818618894257
20
0.0278997263655469
30
0
41
1
10
11.4907912222329
20
0.0355352468133106
30
0
41
1
10
11.5092538058875
20
0.0500458607463372
30
0
41
1
10
11.5188039380741
20
0.0569213948334948
30
0
41
1
10
11.5480347033678
20
0.0766706741931671
30
0
41
1
10
11.5681673526151
20
0.0886164688825204
30
0
41
1
10
11.6091738910745
20
0.111092393684402
30
0
41
1
10
11.6300665809101
20
0.121604772992669
30
0
41
1
10
11.6723402615972
20
0.141615089432463
30
0
41
1
10
11.693668889282
20
0.151082134749345
30
0
41
1
10
11.7580729161849
20
0.178289842644091
30
0
41
1
10
11.8015593484111
20
0.194856464339608
30
0
41
1
10
11.8453861560575
20
0.210412699974
30
0
0
SPLINE
5
F3
100
AcDbEntity
8
1
62
256
6
ByLayer
370
18
48
1
60
0
100
AcDbSpline
70
4
71
3
72
8
73
4
40
0
40
0
40
0
40
0
40
1
40
1
40
1
40
1
41
1
10
12.0000000000001
20
0.377171881006234
30
0
41
1
10
11.9732858959908
20
0.384670123746844
30
0
41
1
10
11.9466730813464
20
0.391983348983786
30
0
41
1
10
11.9201791307974
20
0.399079454306445
30
0
0
SPLINE
5
F4
100
AcDbEntity
8
1
62
256
6
ByLayer
370
18
48
1
60
0
100
AcDbSpline
70
4
71
3
72
14
73
10
40
0
40
0
40
0
40
0
40
0.142994184543584
40
0.285922955592422
40
0.42879875398432
40
0.571633359987822
40
0.714437982224993
40
0.857223408683588
40
1
40
1
40
1
40
1
41
1
10
11.9201791323871
20
0.399079456475505
30
0
41
1
10
11.9178901663008
20
0.396147319632689
30
0
41
1
10
11.9133132812286
20
0.390284387269588
30
0
41
1
10
11.9065344512587
20
0.381697825248096
30
0
41
1
10
11.8998214082381
20
0.373265500182527
30
0
41
1
10
11.8931797689745
20
0.365000170038144
30
0
41
1
10
11.8866096530237
20
0.356900746999116
30
0
41
1
10
11.8801050849458
20
0.348952573430893
30
0
41
1
10
11.8758282913427
20
0.343789775005632
30
0
41
1
10
11.8736899607021
20
0.341208455660166
30
0
0
SPLINE
5
F5
100
AcDbEntity
8
1
62
256
6
ByLayer
370
18
48
1
60
0
100
AcDbSpline
70
4
71
3
72
8
73
4
40
0
40
0
40
0
40
0
40
1
40
1
40
1
40
1
41
1
10
11.874387993842
20
0.342049188835517
30
0
41
1
10
11.9162858375272
20
0.32585329647884
30
0
41
1
10
11.95812529546
20
0.30862899772066
30
0
41
1
10
12.0000000000001
20
0.290504649422417
30
0
0
SPLINE
5
F6
100
AcDbEntity
8
1
62
256
6
ByLayer
370
18
48
1
60
0
100
AcDbSpline
70
4
71
3
72
8
73
4
40
0
40
0
40
0
40
0
40
1
40
1
40
1
40
1
41
1
10
12
20
0.290504649422417
30
0
41
1
10
12
20
0.290040931227821
30
0
41
1
10
12
20
0.289577214308167
30
0
41
1
10
12
20
0.289113498663483
30
0
0
SPLINE
5
F7
100
AcDbEntity
8
1
62
256
6
ByLayer
370
18
48
1
60
0
100
AcDbSpline
70
4
71
3
72
34
73
30
40
0
40
0
40
0
40
0
40
0.0624999999999939
40
0.0624999999999939
40
0.124999999999988
40
0.124999999999988
40
0.187499999999982
40
0.187499999999982
40
0.249999999999975
40
0.249999999999975
40
0.374999999999971
40
0.374999999999971
40
0.437499999999973
40
0.437499999999973
40
0.499999999999975
40
0.499999999999975
40
0.562499999999977
40
0.562499999999977
40
0.624999999999979
40
0.624999999999979
40
0.687499999999982
40
0.687499999999982
40
0.749999999999984
40
0.749999999999984
40
0.812499999999986
40
0.812499999999986
40
0.874999999999988
40
0.874999999999988
40
1
40
1
40
1
40
1
41
1
10
12.0000000000001
20
0.263935896694079
30
0
41
1
10
12.0416906888694
20
0.24510595059067
30
0
41
1
10
12.0833343716665
20
0.225524471316078
30
0
41
1
10
12.1666561691605
20
0.185075091041853
30
0
41
1
10
12.2083166665562
20
0.164217500135663
30
0
41
1
10
12.2914138814402
20
0.121705127465873
30
0
41
1
10
12.3329021599807
20
0.100027186228971
30
0
41
1
10
12.4159348911198
20
0.0561550560431954
30
0
41
1
10
12.4575248030173
20
0.0339362723022987
30
0
41
1
10
12.5823587205598
20
-0.0328013733318926
30
0
41
1
10
12.665250893973
20
-0.0771473623674979
30
0
41
1
10
12.7902000394822
20
-0.141382021408873
30
0
41
1
10
12.8319873582616
20
-0.162433408745415
30
0
41
1
10
12.9153637784854
20
-0.203290794952096
30
0
41
1
10
12.9570147070317
20
-0.223130203400444
30
0
41
1
10
13.0403380204798
20
-0.261477898979734
30
0
41
1
10
13.0820064940287
20
-0.279991999183807
30
0
41
1
10
13.1654850967961
20
-0.315461141417302
30
0
41
1
10
13.2071091306118
20
-0.332335335104375
30
0
41
1
10
13.2902378718241
20
-0.364070425830249
30
0
41
1
10
13.3317523658528
20
-0.378931048135598
30
0
41
1
10
13.4148641640457
20
-0.406409724378221
30
0
41
1
10
13.4565254525249
20
-0.419032750326664
30
0
41
1
10
13.5396944196659
20
-0.441647715774451
30
0
41
1
10
13.5812252011801
20
-0.451659740157282
30
0
41
1
10
13.6643635929349
20
-0.468973559636197
30
0
41
1
10
13.7060226462687
20
-0.476282077565798
30
0
41
1
10
13.8309867127304
20
-0.493912274477196
30
0
41
1
10
13.9140880019413
20
-0.499931752860533
30
0
41
1
10
13.9974718052542
20
-0.499999765694753
30
0
0
SPLINE
5
F8
100
AcDbEntity
8
1
62
256
6
ByLayer
370
18
48
1
60
0
100
AcDbSpline
70
4
71
3
72
21
73
17
40
0
40
0
40
0
40
0
40
0.0362061551374177
40
0.08017405696766
40
0.124141958797902
40
0.212077762458387
40
0.300013566118872
40
0.387949369779356
40
0.475885173439841
40
0.563820977100326
40
0.65175678076081
40
0.695724682591052
40
0.739692584421295
40
0.82762838808178
40
0.915564191742264
40
1
40
1
40
1
40
1
41
1
10
11.9999999902722
20
0.28911349942635
30
0
41
1
10
12.0227777355893
20
0.279216930295803
30
0
41
1
10
12.0732369700106
20
0.256728918834824
30
0
41
1
10
12.15146568244
20
0.220135408411068
30
0
41
1
10
12.2624862251094
20
0.165896223301644
30
0
41
1
10
12.4017242981609
20
0.0943578758640058
30
0
41
1
10
12.5699218804883
20
0.00502757858618
30
0
41
1
10
12.7395714395392
20
-0.0853227936052576
30
0
41
1
10
12.9108676389276
20
-0.173811920544779
30
0
41
1
10
13.0841679841311
20
-0.25743753379075
30
0
41
1
10
13.2307477893647
20
-0.32069528829328
30
0
41
1
10
13.3494887779615
20
-0.366027153842538
30
0
41
1
10
13.4693720615824
20
-0.407452547232197
30
0
41
1
10
13.6213491219353
20
-0.450635166006634
30
0
41
1
10
13.8053841946948
20
-0.485725873437246
30
0
41
1
10
13.9302802400427
20
-0.496972331534835
30
0
41
1
10
13.9922851424793
20
-0.499214403942148
30
0
0
SPLINE
5
F9
100
AcDbEntity
8
1
62
256
6
ByLayer
370
18
48
1
60
0
100
AcDbSpline
70
4
71
3
72
8
73
4
40
0
40
0
40
0
40
0
40
1
40
1
40
1
40
1
41
1
10
11.9999999951472
20
0.289113499416715
30
0
41
1
10
11.9999999951472
20
0.28474070945569
30
0
41
1
10
12
20
0.280367976906803
30
0
41
1
10
12
20
0.275995301627575
30
0
0
SPLINE
5
FA
100
AcDbEntity
8
1
62
256
6
ByLayer
370
18
48
1
60
0
100
AcDbSpline
70
4
71
3
72
8
73
4
40
0
40
0
40
0
40
0
40
1
40
1
40
1
40
1
41
1
10
11.8678270064671
20
0.333023021678031
30
0
41
1
10
11.911748579471
20
0.31492478991521
30
0
41
1
10
11.9557178423807
20
0.295761955715847
30
0
41
1
10
12.0000000000001
20
0.275995301627575
30
0
0
SPLINE
5
FB
100
AcDbEntity
8
1
62
256
6
ByLayer
370
13
48
1
60
0
100
AcDbSpline
70
4
71
3
72
8
73
4
40
0
40
0
40
0
40
0
40
1
40
1
40
1
40
1
41
1
10
11.8620618765902
20
0.325019265058557
30
0
41
1
10
11.8639830401492
20
0.327711149851865
30
0
41
1
10
11.8659042037081
20
0.330378562305839
30
0
41
1
10
11.867825367267
20
0.333020899955443
30
0
0
SPLINE
5
FC
100
AcDbEntity
8
1
62
256
6
ByLayer
370
18
48
1
60
0
100
AcDbSpline
70
4
71
3
72
10
73
6
40
0
40
0
40
0
40
0
40
0.5
40
0.5
40
1
40
1
40
1
40
1
41
1
10
11.9999999997992
20
0.267308803167225
30
0
41
1
10
11.9770620488905
20
0.277539952956659
30
0
41
1
10
11.9540620629993
20
0.287407571960813
30
0
41
1
10
11.9080701829848
20
0.306621888635277
30
0
41
1
10
11.8850672876009
20
0.315954050063084
30
0
41
1
10
11.8620593292884
20
0.325015296177668
30
0
0
SPLINE
5
FD
100
AcDbEntity
8
1
62
256
6
ByLayer
370
18
48
1
60
0
100
AcDbSpline
70
4
71
3
72
8
73
4
40
0
40
0
40
0
40
0
40
1
40
1
40
1
40
1
41
1
10
12
20
0.267308803446724
30
0
41
1
10
12
20
0.266184497403714
30
0
41
1
10
12
20
0.265060195152813
30
0
41
1
10
12
20
0.263935896694079
30
0
0
SPLINE
5
FE
100
AcDbEntity
8
1
62
256
6
ByLayer
370
18
48
1
60
0
100
AcDbSpline
70
4
71
3
72
12
73
8
40
0
40
0
40
0
40
0
40
0.388066736688802
40
0.605641009685678
40
0.743832882113001
40
0.911944551116494
40
1
40
1
40
1
40
1
41
1
10
12.302297729128
20
-0.394405923235297
30
0
41
1
10
12.4099081312992
20
-0.385305914451209
30
0
41
1
10
12.5795255142509
20
-0.369450362307333
30
0
41
1
10
12.7926452139602
20
-0.343945249537228
30
0
41
1
10
12.942239036451
20
-0.327967222341272
30
0
41
1
10
13.055093159465
20
-0.316828144991689
30
0
41
1
10
13.1280074493157
20
-0.310281318199088
30
0
41
1
10
13.1530337063077
20
-0.308102298422369
30
0
0
SPLINE
5
FF
100
AcDbEntity
8
1
62
256
6
ByLayer
370
18
48
1
60
0
100
AcDbSpline
70
4
71
3
72
14
73
10
40
0
40
0
40
0
40
0
40
0.21558346435479
40
0.343611358221853
40
0.427528055877496
40
0.503696491503543
40
0.592746694673339
40
0.748516324832372
40
1
40
1
40
1
40
1
41
1
10
13.5816342207147
20
0.275364253514937
30
0
41
1
10
13.4913486012049
20
0.281581910466713
30
0
41
1
10
13.346125347782
20
0.292430584997646
30
0
41
1
10
13.1636605259352
20
0.306899183775443
30
0
41
1
10
13.0386686405177
20
0.318417120923044
30
0
41
1
10
12.9310983451059
20
0.329158025022849
30
0
41
1
10
12.7922033394934
20
0.34407952128484
30
0
41
1
10
12.5798411127883
20
0.36864315534541
30
0
41
1
10
12.4049354234033
20
0.385567404564512
30
0
41
1
10
12.2970953545496
20
0.395341784817077
30
0
0
LINE
5
77
100
AcDbEntity
8
80
62
256
6
ByLayer
370
18
48
1
60
0
100
AcDbLine
10
0
20
0
30
0
11
-5
21
0
31
0
39
0
210
0
220
0
230
1
0
LINE
5
78
100
AcDbEntity
8
4
62
256
6
ByLayer
370
18
48
0.05
60
0
100
AcDbLine
10
0
20
0
30
0
11
14
21
0
31
0
39
0
210
0
220
0
230
1
0
LINE
5
7A
100
AcDbEntity
8
81
62
256
6
ByLayer
370
18
48
1
60
0
100
AcDbLine
10
14
20
0
30
0
11
19
21
0
31
0
39
0
210
0
220
0
230
1
0
LINE
5
7B
100
AcDbEntity
8
SK4
62
256
6
ByLayer
370
18
48
0.05
60
0
100
AcDbLine
10
-36
20
0
30
0
11
14
21
0
31
0
39
0
210
0
220
0
230
1
0
LINE
5
7D
100
AcDbEntity
8
1
62
256
6
ByLayer
370
18
48
1
60
0
100
AcDbLine
10
0
20
3
30
0
11
0
21
0
31
0
39
0
210
0
220
0
230
1
0
LINE
5
7E
100
AcDbEntity
8
1
62
256
6
ByLayer
370
18
48
1
60
0
100
AcDbLine
10
0
20
0
30
0
11
0
21
-3
31
0
39
0
210
0
220
0
230
1
0
LINE
5
7F
100
AcDbEntity
8
1
62
256
6
ByLayer
370
18
48
1
60
0
100
AcDbLine
10
13.9859
20
-0.031696
30
0
11
13.97
21
-0.031617
31
0
39
0
210
0
220
0
230
1
0
LINE
5
80
100
AcDbEntity
8
1
62
256
6
ByLayer
370
18
48
1
60
0
100
AcDbLine
10
13.9859
20
-0.031696
30
0
11
13.995436
21
0.327274
31
0
39
0
210
0
220
0
230
1
0
LINE
5
81
100
AcDbEntity
8
1
62
256
6
ByLayer
370
13
48
1
60
0
100
AcDbLine
10
13.67471
20
0.277205
30
0
11
13.937878
21
-0.036774
31
0
39
0
210
0
220
0
230
1
0
LINE
5
82
100
AcDbEntity
8
1
62
256
6
ByLayer
370
18
48
1
60
0
100
AcDbLine
10
11.740882
20
0.495095
30
0
11
12
21
0.427271
31
0
39
0
210
0
220
0
230
1
0
LINE
5
83
100
AcDbEntity
8
1
62
256
6
ByLayer
370
13
48
1
60
0
100
AcDbLine
10
11.466671
20
0.499429
30
0
11
11.477446
21
0.496608
31
0
39
0
210
0
220
0
230
1
0
LINE
5
84
100
AcDbEntity
8
1
62
256
6
ByLayer
370
18
48
1
60
0
100
AcDbLine
10
13.994181
20
-0.280039
30
0
11
13.995436
21
-0.327274
31
0
39
0
210
0
220
0
230
1
0
LINE
5
85
100
AcDbEntity
8
1
62
256
6
ByLayer
370
18
48
1
60
0
100
AcDbLine
10
13.935129
20
-0.25137
30
0
11
13.994181
21
-0.280039
31
0
39
0
210
0
220
0
230
1
0
LINE
5
86
100
AcDbEntity
8
1
62
256
6
ByLayer
370
18
48
1
60
0
100
AcDbLine
10
13.994181
20
-0.280039
30
0
11
13.905721
21
-0.206004
31
0
39
0
210
0
220
0
230
1
0
LINE
5
87
100
AcDbEntity
8
1
62
256
6
ByLayer
370
13
48
1
60
0
100
AcDbLine
10
13.905721
20
-0.227555
30
0
11
13.905721
21
-0.206004
31
0
39
0
210
0
220
0
230
1
0
LINE
5
88
100
AcDbEntity
8
1
62
256
6
ByLayer
370
18
48
1
60
0
100
AcDbLine
10
13.895489
20
-0.067394
30
0
11
13.606366
21
0.277552
31
0
39
0
210
0
220
0
230
1
0
LINE
5
89
100
AcDbEntity
8
1
62
256
6
ByLayer
370
18
48
1
60
0
100
AcDbLine
10
12
20
0.37787
30
0
11
12
21
0.427271
31
0
39
0
210
0
220
0
230
1
0
LINE
5
8A
100
AcDbEntity
8
1
62
256
6
ByLayer
370
18
48
1
60
0
100
AcDbLine
10
11.740882
20
-0.495095
30
0
11
12
21
-0.427271
31
0
39
0
210
0
220
0
230
1
0
LINE
5
8B
100
AcDbEntity
8
1
62
256
6
ByLayer
370
18
48
1
60
0
100
AcDbLine
10
12
20
-0.427271
30
0
11
12
21
0.033908
31
0
39
0
210
0
220
0
230
1
0
LINE
5
8C
100
AcDbEntity
8
1
62
256
6
ByLayer
370
13
48
1
60
0
100
AcDbLine
10
11.458642
20
-0.107792
30
0
11
12
21
0.033908
31
0
39
0
210
0
220
0
230
1
0
LINE
5
8D
100
AcDbEntity
8
1
62
256
6
ByLayer
370
13
48
1
60
0
100
AcDbLine
10
11.452267
20
-0.102486
30
0
11
12
21
0.040883
31
0
39
0
210
0
220
0
230
1
0
LINE
5
8E
100
AcDbEntity
8
1
62
256
6
ByLayer
370
18
48
1
60
0
100
AcDbLine
10
12
20
0.040883
30
0
11
12
21
0.250883
31
0
39
0
210
0
220
0
230
1
0
LINE
5
8F
100
AcDbEntity
8
1
62
256
6
ByLayer
370
18
48
1
60
0
100
AcDbLine
10
12
20
0.263914
30
0
11
12
21
0.263936
31
0
39
0
210
0
220
0
230
1
0
LINE
5
90
100
AcDbEntity
8
1
62
256
6
ByLayer
370
18
48
1
60
0
100
AcDbLine
10
12
20
0.263914
30
0
11
12
21
0.250883
31
0
39
0
210
0
220
0
230
1
0
LINE
5
91
100
AcDbEntity
8
1
62
256
6
ByLayer
370
18
48
1
60
0
100
AcDbLine
10
12
20
0.033908
30
0
11
12
21
0.040883
31
0
39
0
210
0
220
0
230
1
0
LINE
5
92
100
AcDbEntity
8
1
62
256
6
ByLayer
370
13
48
1
60
0
100
AcDbLine
10
11.845386
20
0.210413
30
0
11
12
21
0.250883
31
0
39
0
210
0
220
0
230
1
0
LINE
5
93
100
AcDbEntity
8
1
62
256
6
ByLayer
370
13
48
1
60
0
100
AcDbLine
10
7.997679
20
-0.5
30
0
11
7.997679
21
0
31
0
39
0
210
0
220
0
230
1
0
LINE
5
94
100
AcDbEntity
8
1
62
256
6
ByLayer
370
13
48
1
60
0
100
AcDbLine
10
7.997679
20
0
30
0
11
7.997679
21
0.5
31
0
39
0
210
0
220
0
230
1
0
LINE
5
95
100
AcDbEntity
8
1
62
256
6
ByLayer
370
13
48
1
60
0
100
AcDbLine
10
7.497679
20
0.633975
30
0
11
7.497679
21
0
31
0
39
0
210
0
220
0
230
1
0
LINE
5
96
100
AcDbEntity
8
1
62
256
6
ByLayer
370
13
48
1
60
0
100
AcDbLine
10
7.497679
20
0
30
0
11
7.497679
21
-0.633975
31
0
39
0
210
0
220
0
230
1
0
LINE
5
97
100
AcDbEntity
8
1
62
256
6
ByLayer
370
18
48
1
60
0
100
AcDbLine
10
3.399603
20
3
30
0
11
3.399603
21
0
31
0
39
0
210
0
220
0
230
1
0
LINE
5
98
100
AcDbEntity
8
1
62
256
6
ByLayer
370
18
48
1
60
0
100
AcDbLine
10
3.399603
20
0
30
0
11
3.399603
21
-3
31
0
39
0
210
0
220
0
230
1
0
LINE
5
99
100
AcDbEntity
8
SK1
62
256
6
ByLayer
370
18
48
1
60
0
100
AcDbLine
10
0
20
3
30
0
11
0
21
0
31
0
39
0
210
0
220
0
230
1
0
LINE
5
9B
100
AcDbEntity
8
SK1
62
256
6
ByLayer
370
18
48
1
60
0
100
AcDbLine
10
0
20
0
30
0
11
0
21
-3
31
0
39
0
210
0
220
0
230
1
0
LINE
5
9C
100
AcDbEntity
8
SK1
62
256
6
ByLayer
370
18
48
1
60
0
100
AcDbLine
10
-35.6
20
3
30
0
11
-35.6
21
-3
31
0
39
0
210
0
220
0
230
1
0
LINE
5
9D
100
AcDbEntity
8
SK1
62
256
6
ByLayer
370
18
48
1
60
0
100
AcDbLine
10
-36
20
-2.6
30
0
11
-36
21
2.6
31
0
39
0
210
0
220
0
230
1
0
LINE
5
9E
100
AcDbEntity
8
1
62
256
6
ByLayer
370
18
48
1
60
0
100
AcDbLine
10
11.637359
20
0.5
30
0
11
7.997679
21
0.5
31
0
39
0
210
0
220
0
230
1
0
LINE
5
9F
100
AcDbEntity
8
1
62
256
6
ByLayer
370
18
48
1
60
0
100
AcDbLine
10
7.997679
20
-0.5
30
0
11
11.637359
21
-0.5
31
0
39
0
210
0
220
0
230
1
0
LINE
5
A0
100
AcDbEntity
8
1
62
256
6
ByLayer
370
18
48
1
60
0
100
AcDbLine
10
3.399603
20
3
30
0
11
0
21
3
31
0
39
0
210
0
220
0
230
1
0
LINE
5
A1
100
AcDbEntity
8
1
62
256
6
ByLayer
370
18
48
1
60
0
100
AcDbLine
10
0
20
-3
30
0
11
3.399603
21
-3
31
0
39
0
210
0
220
0
230
1
0
LINE
5
A2
100
AcDbEntity
8
1
62
256
6
ByLayer
370
18
48
1
60
0
100
AcDbLine
10
7.497679
20
0.633975
30
0
11
3.399603
21
3
31
0
39
0
210
0
220
0
230
1
0
LINE
5
A3
100
AcDbEntity
8
1
62
256
6
ByLayer
370
18
48
1
60
0
100
AcDbLine
10
3.399603
20
-3
30
0
11
7.497679
21
-0.633975
31
0
39
0
210
0
220
0
230
1
0
LINE
5
A4
100
AcDbEntity
8
SK1
62
256
6
ByLayer
370
18
48
1
60
0
100
AcDbLine
10
0
20
3
30
0
11
-35.6
21
3
31
0
39
0
210
0
220
0
230
1
0
LINE
5
A5
100
AcDbEntity
8
SK1
62
256
6
ByLayer
370
18
48
1
60
0
100
AcDbLine
10
-35.6
20
-3
30
0
11
0
21
-3
31
0
39
0
210
0
220
0
230
1
0
LINE
5
A6
100
AcDbEntity
8
SK1
62
256
6
ByLayer
370
18
48
1
60
0
100
AcDbLine
10
-36
20
-2.6
30
0
11
-35.6
21
-3
31
0
39
0
210
0
220
0
230
1
0
LINE
5
A7
100
AcDbEntity
8
SK1
62
256
6
ByLayer
370
18
48
1
60
0
100
AcDbLine
10
-35.6
20
3
30
0
11
-36
21
2.6
31
0
39
0
210
0
220
0
230
1
0
LINE
5
A8
100
AcDbEntity
8
SK2
62
256
6
ByLayer
370
18
48
1
60
0
100
AcDbLine
10
-43.85
20
11.75
30
0
11
-43.85
21
-19.315466
31
0
39
0
210
0
220
0
230
1
0
LINE
5
AA
100
AcDbEntity
8
SK2
62
256
6
ByLayer
370
18
48
1
60
0
100
AcDbLine
10
-37.1875
20
3
30
0
11
-45.85
21
3
31
0
39
0
210
0
220
0
230
1
0
LINE
5
AB
100
AcDbEntity
8
SK2
62
256
6
ByLayer
370
18
48
1
60
0
100
AcDbLine
10
-37.1875
20
-3
30
0
11
-45.85
21
-3
31
0
39
0
210
0
220
0
230
1
0
LINE
5
AC
100
AcDbEntity
8
1
62
256
6
ByLayer
370
18
48
1
60
1
100
AcDbLine
10
-43.85
20
3
30
0
11
-44.310784
21
6.499998
31
0
39
0
210
0
220
0
230
1
0
LINE
5
AD
100
AcDbEntity
8
1
62
256
6
ByLayer
370
18
48
1
60
1
100
AcDbLine
10
-44.310784
20
6.499998
30
0
11
-43.389216
21
6.500002
31
0
39
0
210
0
220
0
230
1
0
LINE
5
AE
100
AcDbEntity
8
1
62
256
6
ByLayer
370
18
48
1
60
1
100
AcDbLine
10
-43.389216
20
6.500002
30
0
11
-43.85
21
3
31
0
39
0
210
0
220
0
230
1
0
LINE
5
AF
100
AcDbEntity
8
1
62
256
6
ByLayer
370
18
48
1
60
1
100
AcDbLine
10
-43.85
20
-3
30
0
11
-43.389216
21
-6.499998
31
0
39
0
210
0
220
0
230
1
0
LINE
5
B0
100
AcDbEntity
8
1
62
256
6
ByLayer
370
18
48
1
60
1
100
AcDbLine
10
-43.389216
20
-6.499998
30
0
11
-44.310784
21
-6.500002
31
0
39
0
210
0
220
0
230
1
0
LINE
5
B1
100
AcDbEntity
8
1
62
256
6
ByLayer
370
18
48
1
60
1
100
AcDbLine
10
-44.310784
20
-6.500002
30
0
11
-43.85
21
-3
31
0
39
0
210
0
220
0
230
1
0
LINE
5
B2
100
AcDbEntity
8
2
62
256
6
ByLayer
370
18
48
1
60
0
100
AcDbLine
10
26
20
15.9407
30
0
11
26
21
-9.2501
31
0
39
0
210
0
220
0
230
1
0
LINE
5
B4
100
AcDbEntity
8
2
62
256
6
ByLayer
370
18
48
1
60
0
100
AcDbLine
10
15.5875
20
0.5001
30
0
11
28
21
0.5001
31
0
39
0
210
0
220
0
230
1
0
LINE
5
B5
100
AcDbEntity
8
2
62
256
6
ByLayer
370
18
48
1
60
0
100
AcDbLine
10
15.4465
20
-0.5001
30
0
11
28
21
-0.5001
31
0
39
0
210
0
220
0
230
1
0
LINE
5
B6
100
AcDbEntity
8
1
62
256
6
ByLayer
370
18
48
1
60
1
100
AcDbLine
10
26
20
0.5001
30
0
11
25.539216
21
4.000098
31
0
39
0
210
0
220
0
230
1
0
LINE
5
B7
100
AcDbEntity
8
1
62
256
6
ByLayer
370
18
48
1
60
1
100
AcDbLine
10
25.539216
20
4.000098
30
0
11
26.460784
21
4.000102
31
0
39
0
210
0
220
0
230
1
0
LINE
5
B8
100
AcDbEntity
8
1
62
256
6
ByLayer
370
18
48
1
60
1
100
AcDbLine
10
26.460784
20
4.000102
30
0
11
26
21
0.5001
31
0
39
0
210
0
220
0
230
1
0
LINE
5
B9
100
AcDbEntity
8
1
62
256
6
ByLayer
370
18
48
1
60
1
100
AcDbLine
10
26
20
-0.5001
30
0
11
26.460784
21
-4.000098
31
0
39
0
210
0
220
0
230
1
0
LINE
5
BA
100
AcDbEntity
8
1
62
256
6
ByLayer
370
18
48
1
60
1
100
AcDbLine
10
26.460784
20
-4.000098
30
0
11
25.539216
21
-4.000102
31
0
39
0
210
0
220
0
230
1
0
LINE
5
BB
100
AcDbEntity
8
1
62
256
6
ByLayer
370
18
48
1
60
1
100
AcDbLine
10
25.539216
20
-4.000102
30
0
11
26
21
-0.5001
31
0
39
0
210
0
220
0
230
1
0
LINE
5
BC
100
AcDbEntity
8
SK2
62
256
6
ByLayer
370
18
48
1
60
0
100
AcDbLine
10
14
20
-33.1
30
0
11
-36
21
-33.1
31
0
39
0
210
0
220
0
230
1
0
LINE
5
BD
100
AcDbEntity
8
SK2
62
256
6
ByLayer
370
18
48
1
60
0
100
AcDbLine
10
-36
20
-4.1875
30
0
11
-36
21
-35.1
31
0
39
0
210
0
220
0
230
1
0
LINE
5
BE
100
AcDbEntity
8
SK2
62
256
6
ByLayer
370
18
48
1
60
0
100
AcDbLine
10
14
20
-2.0876
30
0
11
14
21
-35.1
31
0
39
0
210
0
220
0
230
1
0
LINE
5
BF
100
AcDbEntity
8
1
62
256
6
ByLayer
370
18
48
1
60
1
100
AcDbLine
10
-36
20
-33.1
30
0
11
-32.500002
21
-32.639216
31
0
39
0
210
0
220
0
230
1
0
LINE
5
C0
100
AcDbEntity
8
1
62
256
6
ByLayer
370
18
48
1
60
1
100
AcDbLine
10
-32.500002
20
-32.639216
30
0
11
-32.499998
21
-33.560784
31
0
39
0
210
0
220
0
230
1
0
LINE
5
C1
100
AcDbEntity
8
1
62
256
6
ByLayer
370
18
48
1
60
1
100
AcDbLine
10
-32.499998
20
-33.560784
30
0
11
-36
21
-33.1
31
0
39
0
210
0
220
0
230
1
0
LINE
5
C2
100
AcDbEntity
8
1
62
256
6
ByLayer
370
18
48
1
60
1
100
AcDbLine
10
14
20
-33.1
30
0
11
10.500002
21
-33.560784
31
0
39
0
210
0
220
0
230
1
0
LINE
5
C3
100
AcDbEntity
8
1
62
256
6
ByLayer
370
18
48
1
60
1
100
AcDbLine
10
10.500002
20
-33.560784
30
0
11
10.499998
21
-32.639216
31
0
39
0
210
0
220
0
230
1
0
LINE
5
C4
100
AcDbEntity
8
1
62
256
6
ByLayer
370
18
48
1
60
1
100
AcDbLine
10
10.499998
20
-32.639216
30
0
11
14
21
-33.1
31
0
39
0
210
0
220
0
230
1
0
LINE
5
104
100
AcDbEntity
8
1
62
256
6
ByLayer
370
18
48
1
60
1
100
AcDbLine
10
-43.85
20
3
30
0
11
-44.310784
21
6.499998
31
0
39
0
210
0
220
0
230
1
0
LINE
5
105
100
AcDbEntity
8
1
62
256
6
ByLayer
370
18
48
1
60
1
100
AcDbLine
10
-44.310784
20
6.499998
30
0
11
-43.389216
21
6.500002
31
0
39
0
210
0
220
0
230
1
0
LINE
5
106
100
AcDbEntity
8
1
62
256
6
ByLayer
370
18
48
1
60
1
100
AcDbLine
10
-43.389216
20
6.500002
30
0
11
-43.85
21
3
31
0
39
0
210
0
220
0
230
1
0
LINE
5
108
100
AcDbEntity
8
1
62
256
6
ByLayer
370
18
48
1
60
1
100
AcDbLine
10
-43.85
20
-3
30
0
11
-43.389216
21
-6.499998
31
0
39
0
210
0
220
0
230
1
0
LINE
5
109
100
AcDbEntity
8
1
62
256
6
ByLayer
370
18
48
1
60
1
100
AcDbLine
10
-43.389216
20
-6.499998
30
0
11
-44.310784
21
-6.500002
31
0
39
0
210
0
220
0
230
1
0
LINE
5
10A
100
AcDbEntity
8
1
62
256
6
ByLayer
370
18
48
1
60
1
100
AcDbLine
10
-44.310784
20
-6.500002
30
0
11
-43.85
21
-3
31
0
39
0
210
0
220
0
230
1
0
LINE
5
10E
100
AcDbEntity
8
1
62
256
6
ByLayer
370
18
48
1
60
1
100
AcDbLine
10
26
20
0.5001
30
0
11
25.539216
21
4.000098
31
0
39
0
210
0
220
0
230
1
0
LINE
5
10F
100
AcDbEntity
8
1
62
256
6
ByLayer
370
18
48
1
60
1
100
AcDbLine
10
25.539216
20
4.000098
30
0
11
26.460784
21
4.000102
31
0
39
0
210
0
220
0
230
1
0
LINE
5
110
100
AcDbEntity
8
1
62
256
6
ByLayer
370
18
48
1
60
1
100
AcDbLine
10
26.460784
20
4.000102
30
0
11
26
21
0.5001
31
0
39
0
210
0
220
0
230
1
0
LINE
5
112
100
AcDbEntity
8
1
62
256
6
ByLayer
370
18
48
1
60
1
100
AcDbLine
10
26
20
-0.5001
30
0
11
26.460784
21
-4.000098
31
0
39
0
210
0
220
0
230
1
0
LINE
5
113
100
AcDbEntity
8
1
62
256
6
ByLayer
370
18
48
1
60
1
100
AcDbLine
10
26.460784
20
-4.000098
30
0
11
25.539216
21
-4.000102
31
0
39
0
210
0
220
0
230
1
0
LINE
5
114
100
AcDbEntity
8
1
62
256
6
ByLayer
370
18
48
1
60
1
100
AcDbLine
10
25.539216
20
-4.000102
30
0
11
26
21
-0.5001
31
0
39
0
210
0
220
0
230
1
0
LINE
5
117
100
AcDbEntity
8
1
62
256
6
ByLayer
370
18
48
1
60
1
100
AcDbLine
10
-36
20
-33.1
30
0
11
-32.500002
21
-32.639216
31
0
39
0
210
0
220
0
230
1
0
LINE
5
118
100
AcDbEntity
8
1
62
256
6
ByLayer
370
18
48
1
60
1
100
AcDbLine
10
-32.500002
20
-32.639216
30
0
11
-32.499998
21
-33.560784
31
0
39
0
210
0
220
0
230
1
0
LINE
5
119
100
AcDbEntity
8
1
62
256
6
ByLayer
370
18
48
1
60
1
100
AcDbLine
10
-32.499998
20
-33.560784
30
0
11
-36
21
-33.1
31
0
39
0
210
0
220
0
230
1
0
LINE
5
11B
100
AcDbEntity
8
1
62
256
6
ByLayer
370
18
48
1
60
1
100
AcDbLine
10
14
20
-33.1
30
0
11
10.500002
21
-33.560784
31
0
39
0
210
0
220
0
230
1
0
LINE
5
11C
100
AcDbEntity
8
1
62
256
6
ByLayer
370
18
48
1
60
1
100
AcDbLine
10
10.500002
20
-33.560784
30
0
11
10.499998
21
-32.639216
31
0
39
0
210
0
220
0
230
1
0
LINE
5
11D
100
AcDbEntity
8
1
62
256
6
ByLayer
370
18
48
1
60
1
100
AcDbLine
10
10.499998
20
-32.639216
30
0
11
14
21
-33.1
31
0
39
0
210
0
220
0
230
1
0
MTEXT
5
100
100
AcDbEntity
8
SK2
62
256
6
ByLayer
370
18
48
1
60
0
100
AcDbMText
10
-45.414634
20
-17.380622
30
0
210
0
220
0
230
1
1
%%c
40
3.5
41
0
44
1.084337
50
90
71
7
72
5
7
iso_b_vert
0
MTEXT
5
103
100
AcDbEntity
8
SK2
62
256
6
ByLayer
370
18
48
1
60
0
100
AcDbMText
10
-45.414634
20
-10.407966
30
0
210
0
220
0
230
1
1
\W0.5404;6
40
3.5
41
0
44
1.084337
50
90
71
7
72
5
7
iso_b_vert
0
MTEXT
5
10C
100
AcDbEntity
8
2
62
256
6
ByLayer
370
18
48
1
60
0
100
AcDbMText
10
24.435366
20
8.434944
30
0
210
0
220
0
230
1
1
%%c
40
3.5
41
0
44
1.084337
50
90
71
7
72
5
7
iso_b_vert
0
MTEXT
5
10D
100
AcDbEntity
8
2
62
256
6
ByLayer
370
18
48
1
60
0
100
AcDbMText
10
24.435366
20
15.4076
30
0
210
0
220
0
230
1
1
\W0.3580;1
40
3.5
41
0
44
1.084337
50
90
71
7
72
5
7
iso_b_vert
0
MTEXT
5
116
100
AcDbEntity
8
SK2
62
256
6
ByLayer
370
18
48
1
60
0
100
AcDbMText
10
-12.904966
20
-32.067366
30
0
210
0
220
0
230
1
1
\W0.6740;50
40
3.5
41
0
44
1.084337
50
0
71
7
72
5
7
iso_b_vert
0
MTEXT
5
11F
100
AcDbEntity
8
SK6
62
256
6
ByLayer
370
18
48
1
60
0
100
AcDbMText
10
-35.475445
20
-62.114886
30
0
210
0
220
0
230
1
1
\W0.6967;1K232-0100-XA       1730
40
3
41
0
44
1.084337
50
0
71
7
72
5
7
iso_b_vert
0
HATCH
5
107
100
AcDbEntity
8
SK2
62
256
6
ByLayer
370
13
48
1
60
0
100
AcDbHatch
10
0
20
0
30
0
210
0
220
0
230
1
2
ANSI31
70
0
71
0
91
1
92
5
93
3
72
1
10
-43.85
20
3
11
-44.3107837415528
21
6.49999830744682
72
1
10
-44.3107837415528
20
6.49999830744682
11
-43.3892162584472
21
6.50000169255318
72
1
10
-43.3892162584472
20
6.50000169255318
11
-43.85
21
3
97
0
75
0
76
1
52
0
41
0.0062
77
0
78
1
53
45
43
0
44
0
45
-0.0139193969876572
46
0.0139193969876572
79
0
47
0
98
1
10
0
20
0
0
HATCH
5
10B
100
AcDbEntity
8
SK2
62
256
6
ByLayer
370
13
48
1
60
0
100
AcDbHatch
10
0
20
0
30
0
210
0
220
0
230
1
2
ANSI31
70
0
71
0
91
1
92
5
93
3
72
1
10
-43.85
20
-3
11
-43.3892162584472
21
-6.49999830744682
72
1
10
-43.3892162584472
20
-6.49999830744682
11
-44.3107837415528
21
-6.50000169255318
72
1
10
-44.3107837415528
20
-6.50000169255318
11
-43.85
21
-3
97
0
75
0
76
1
52
0
41
0.0062
77
0
78
1
53
45
43
0
44
0
45
-0.0139193969876572
46
0.0139193969876572
79
0
47
0
98
1
10
0
20
0
0
HATCH
5
111
100
AcDbEntity
8
2
62
256
6
ByLayer
370
13
48
1
60
0
100
AcDbHatch
10
0
20
0
30
0
210
0
220
0
230
1
2
ANSI31
70
0
71
0
91
1
92
5
93
3
72
1
10
26
20
0.500099999999975
11
25.5392162584472
21
4.00009830744679
72
1
10
25.5392162584472
20
4.00009830744679
11
26.4607837415528
21
4.00010169255316
72
1
10
26.4607837415528
20
4.00010169255316
11
26
21
0.500099999999975
97
0
75
0
76
1
52
0
41
0.0062
77
0
78
1
53
45
43
0
44
0
45
-0.0139193969876572
46
0.0139193969876572
79
0
47
0
98
1
10
0
20
0
0
HATCH
5
115
100
AcDbEntity
8
2
62
256
6
ByLayer
370
13
48
1
60
0
100
AcDbHatch
10
0
20
0
30
0
210
0
220
0
230
1
2
ANSI31
70
0
71
0
91
1
92
5
93
3
72
1
10
26
20
-0.500100000000032
11
26.4607837415528
21
-4.00009830744685
72
1
10
26.4607837415528
20
-4.00009830744685
11
25.5392162584472
21
-4.00010169255322
72
1
10
25.5392162584472
20
-4.00010169255322
11
26
21
-0.500100000000032
97
0
75
0
76
1
52
0
41
0.0062
77
0
78
1
53
45
43
0
44
0
45
-0.0139193969876572
46
0.0139193969876572
79
0
47
0
98
1
10
0
20
0
0
HATCH
5
11A
100
AcDbEntity
8
SK2
62
256
6
ByLayer
370
13
48
1
60
0
100
AcDbHatch
10
0
20
0
30
0
210
0
220
0
230
1
2
ANSI31
70
0
71
0
91
1
92
5
93
3
72
1
10
-36
20
-33.1000000000001
11
-32.5000016925532
21
-32.6392162584473
72
1
10
-32.5000016925532
20
-32.6392162584473
11
-32.4999983074468
21
-33.5607837415528
72
1
10
-32.4999983074468
20
-33.5607837415528
11
-36
21
-33.1000000000001
97
0
75
0
76
1
52
0
41
0.0062
77
0
78
1
53
45
43
0
44
0
45
-0.0139193969876572
46
0.0139193969876572
79
0
47
0
98
1
10
0
20
0
0
HATCH
5
11E
100
AcDbEntity
8
SK2
62
256
6
ByLayer
370
13
48
1
60
0
100
AcDbHatch
10
0
20
0
30
0
210
0
220
0
230
1
2
ANSI31
70
0
71
0
91
1
92
5
93
3
72
1
10
14
20
-33.1000000000001
11
10.5000016925532
21
-33.5607837415528
72
1
10
10.5000016925532
20
-33.5607837415528
11
10.4999983074468
21
-32.6392162584473
72
1
10
10.4999983074468
20
-32.6392162584473
11
14
21
-33.1000000000001
97
0
75
0
76
1
52
0
41
0.0062
77
0
78
1
53
45
43
0
44
0
45
-0.0139193969876572
46
0.0139193969876572
79
0
47
0
98
1
10
0
20
0
0
DIMENSION
5
122
100
AcDbEntity
8
2
62
256
6
ByLayer
370
18
48
1
60
0
100
AcDbDimension
2
_U0
10
12
20
-17.1
30
0
11
13
21
-17.1
31
0
70
32
71
1
72
1
41
1
210
0
220
0
230
1
3
Standard
100
AcDbAlignedDimension
13
14
23
-0.5001
33
0
14
12
24
-0.5001
34
0
50
0
100
AcDbRotatedDimension
1001
ACAD
1000
DSTYLE
1002
{
1070
   371
1070
    13
1070
   372
1070
    13
1070
   170
1070
     0
1070
   144
1040
1.0
1070
   277
1070
     2
1070
   284
1070
     8
1070
   278
1070
    46
1070
   146
1040
1.0
1070
   345
1005
16
1070
   347
1005
16
1070
   346
1005
16
1070
   344
1005
0
1070
   343
1005
0
1070
   172
1070
     1
1070
    76
1070
     0
1070
    75
1070
     0
1070
   282
1070
     0
1070
   281
1070
     0
1070
    71
1070
     0
1070
    74
1070
     0
1070
   279
1070
     0
1070
   173
1070
     1
1070
   340
1005
101
1070
   271
1070
     2
1070
   272
1070
     2
1070
    77
1070
     1
1070
    73
1070
     1
1070
   171
1070
     3
1070
   274
1070
     4
1070
   177
1070
     2
1070
   176
1070
     2
1070
   178
1070
     2
1070
    78
1070
     8
1070
    48
1040
-0.1
1070
    41
1040
3.5
1070
   147
1040
1.75
1070
    42
1040
1.5875
1070
    44
1040
2.0
1070
   140
1040
3.5
1002
}
1001
ACAD_DSTYLE_DIM_LINETYPE
1070
   380
1005
16
1001
ACAD_DSTYLE_DIM_EXT1_LINETYPE
1070
   381
1005
16
1001
ACAD_DSTYLE_DIM_EXT2_LINETYPE
1070
   382
1005
16
0
ENDSEC
0
SECTION
2
OBJECTS
0
DICTIONARY
5
1ac
330
0
100
AcDbDictionary
280
0
281
1
3
ACAD_GROUP
350
1ad
3
ACAD_MLINESTYLE
350
1ae
0
DICTIONARY
5
1ad
330
0
100
AcDbDictionary
280
0
281
1
0
DICTIONARY
5
1ae
330
0
100
AcDbDictionary
280
0
281
1
3
Standard
350
18
0
MLINESTYLE
5
18
330
1ae
100
AcDbMlineStyle
2
Standard
70
0
3

62
256
51
90
52
90
71
2
49
-0.5
62
256
6
ByLayer
49
0.5
62
256
6
ByLayer
0
RASTERVARIABLES
5
19a
330

100
AcDbRasterVariables
90
0
70
1
71
1
72
1
0
ENDSEC
0
EOF
