0
SECTION
2
HEADER
9
$ACADVER
1
AC1015
9
$DWGCODEPAGE
3
ANSI_1252
9
$HANDSEED
5
1c2
9
$ANGBASE
50
0
9
$ANGDIR
70
0
9
$ATTMODE
70
1
9
$AUNITS
70
0
9
$AUPREC
70
0
9
$CECOLOR
62
256
9
$CELTSCALE
40
1
9
$CELTYPE
6
ByLayer
9
$CELWEIGHT
370
18
9
$CLAYER
8
0
9
$CMLJUST
70
0
9
$CMLSCALE
40
1
9
$CMLSTYLE
2
Standard
9
$DIMSTYLE
2
Standard
9
$TEXTSIZE
40
0.2
9
$TEXTSTYLE
7
Standard
9
$LUNITS
70
2
9
$LUPREC
70
4
9
$EXTNAMES
290
1
9
$INSUNITS
70
4
9
$LTSCALE
40
1
9
$LWDISPLAY
290
1
9
$PDMODE
70
0
9
$PDSIZE
40
0
9
$PLINEGEN
70
0
0
ENDSEC
0
SECTION
2
CLASSES
0
CLASS
1
RASTERVARIABLES
2
AcDbRasterVariables
3
ISM
90
0
280
0
281
0
0
ENDSEC
0
SECTION
2
TABLES
0
TABLE
2
VPORT
5
1b8
100
AcDbSymbolTable
0
VPORT
5
1
100
AcDbSymbolTableRecord
100
AcDbViewportTableRecord
2
*Active
70
0
10
0
20
0
11
1
21
1
12
-1
22
1
13
0
23
0
14
0.5
24
0.5
15
10
25
10
16
0
26
0
36
1
17
0
27
0
37
0
0
ENDTAB
0
TABLE
2
LTYPE
5
1b9
100
AcDbSymbolTable
0
LTYPE
5
14
100
AcDbSymbolTableRecord
100
AcDbLinetypeTableRecord
70
0
2
ByBlock
3

72
65
73
0
40
0
0
LTYPE
5
15
100
AcDbSymbolTableRecord
100
AcDbLinetypeTableRecord
70
0
2
ByLayer
3

72
65
73
0
40
0
0
LTYPE
5
16
100
AcDbSymbolTableRecord
100
AcDbLinetypeTableRecord
70
0
2
Continuous
3
Solid line
72
65
73
0
40
0
0
LTYPE
5
6E
100
AcDbSymbolTableRecord
100
AcDbLinetypeTableRecord
70
0
2
CENTER
3
____ _ ____ _ ____ _ ____
72
65
73
4
40
47.5
49
22
74
0
49
-8.5
74
0
49
8.5
74
0
49
-8.5
74
0
0
LTYPE
5
6F
100
AcDbSymbolTableRecord
100
AcDbLinetypeTableRecord
70
0
2
DASHED
3
__ __ __ __ __ __ __ __ __
72
65
73
2
40
25.72
49
12.86
74
0
49
-12.86
74
0
0
ENDTAB
0
TABLE
2
LAYER
5
1ba
100
AcDbSymbolTable
0
LAYER
5
10
100
AcDbSymbolTableRecord
100
AcDbLayerTableRecord
2
0
70
0
62
7
6
Continuous
290
1
370
-3
390
0
0
LAYER
5
71
100
AcDbSymbolTableRecord
100
AcDbLayerTableRecord
2
81
70
0
62
-3
6
Continuous
290
1
370
-3
390
0
0
LAYER
5
73
100
AcDbSymbolTableRecord
100
AcDbLayerTableRecord
2
80
70
0
62
-6
6
Continuous
290
1
370
-3
390
0
0
LAYER
5
75
100
AcDbSymbolTableRecord
100
AcDbLayerTableRecord
2
1
70
0
62
4
6
Continuous
290
1
370
-3
390
0
0
LAYER
5
79
100
AcDbSymbolTableRecord
100
AcDbLayerTableRecord
2
4
70
0
62
-2
6
CENTER
290
1
370
-3
390
0
0
LAYER
5
B5
100
AcDbSymbolTableRecord
100
AcDbLayerTableRecord
2
2
70
0
62
7
6
Continuous
290
1
370
-3
390
0
0
LAYER
5
12E
100
AcDbSymbolTableRecord
100
AcDbLayerTableRecord
2
Defpoints
70
0
62
7
6
Continuous
290
0
370
-3
390
0
0
LAYER
5
1a4
100
AcDbSymbolTableRecord
100
AcDbLayerTableRecord
2
SK4
70
0
62
2
6
CENTER
290
1
370
-3
390
0
0
LAYER
5
1a5
100
AcDbSymbolTableRecord
100
AcDbLayerTableRecord
2
SK1
70
0
62
4
6
Continuous
290
1
370
-3
390
0
0
LAYER
5
1a6
100
AcDbSymbolTableRecord
100
AcDbLayerTableRecord
2
SK2
70
0
62
7
6
Continuous
290
1
370
-3
390
0
0
LAYER
5
1a7
100
AcDbSymbolTableRecord
100
AcDbLayerTableRecord
2
SK6
70
0
62
5
6
Continuous
290
1
370
-3
390
0
0
ENDTAB
0
TABLE
2
STYLE
5
1bb
100
AcDbSymbolTable
0
STYLE
5
11
100
AcDbSymbolTableRecord
100
AcDbTextStyleTableRecord
2
Standard
3
txt
70
0
71
0
40
0
41
1
42
0
50
0
0
STYLE
5
10A
100
AcDbSymbolTableRecord
100
AcDbTextStyleTableRecord
2
iso_b_vert
3
simplex.shx
70
0
71
0
40
0
41
1
42
0
50
0
0
STYLE
5
10B
100
AcDbSymbolTableRecord
100
AcDbTextStyleTableRecord
2
DWGDirectTextStyle
3
simplex
70
0
71
0
40
0
41
1
42
0
50
0
0
ENDTAB
0
TABLE
2
DIMSTYLE
5
1bc
100
AcDbSymbolTable
100
AcDbDimStyleTable
0
DIMSTYLE
105
27
100
AcDbSymbolTableRecord
100
AcDbDimStyleTableRecord
2
Standard
70
0
3
<>
41
0.18
42
0.0625
44
0.18
140
0.18
147
0.09
73
0
74
0
77
1
271
2
275
0
278
52
280
0
340
11
0
ENDTAB
0
TABLE
2
VIEW
5
1bd
100
AcDbSymbolTable
0
ENDTAB
0
TABLE
2
UCS
5
1be
100
AcDbSymbolTable
0
ENDTAB
0
TABLE
2
APPID
5
1bf
100
AcDbSymbolTable
0
APPID
5
12
100
AcDbSymbolTableRecord
100
AcDbRegAppTableRecord
2
ACAD
70
0
0
APPID
5
12A
100
AcDbSymbolTableRecord
100
AcDbRegAppTableRecord
2
ACAD_DSTYLE_DIMBREAK
70
0
0
APPID
5
163
100
AcDbSymbolTableRecord
100
AcDbRegAppTableRecord
2
ACAD_DSTYLE_DIM_LINETYPE
70
0
0
APPID
5
164
100
AcDbSymbolTableRecord
100
AcDbRegAppTableRecord
2
ACAD_DSTYLE_DIM_EXT1_LINETYPE
70
0
0
APPID
5
165
100
AcDbSymbolTableRecord
100
AcDbRegAppTableRecord
2
ACAD_DSTYLE_DIM_EXT2_LINETYPE
70
0
0
APPID
5
1A0
100
AcDbSymbolTableRecord
100
AcDbRegAppTableRecord
2
ACAD_MLEADERVER
70
0
0
ENDTAB
0
TABLE
2
BLOCK_RECORD
5
1c0
100
AcDbSymbolTable
0
BLOCK_RECORD
5
1F
100
AcDbSymbolTableRecord
100
AcDbBlockTableRecord
2
*Model_Space
340
0
70
0
0
BLOCK_RECORD
5
1B
100
AcDbSymbolTableRecord
100
AcDbBlockTableRecord
2
*Paper_Space
340
0
70
0
0
BLOCK_RECORD
5
23
100
AcDbSymbolTableRecord
100
AcDbBlockTableRecord
2
*Paper_Space0
340
0
70
0
0
BLOCK_RECORD
5
12F
100
AcDbSymbolTableRecord
100
AcDbBlockTableRecord
2
*D1
340
0
70
0
0
BLOCK_RECORD
5
13C
100
AcDbSymbolTableRecord
100
AcDbBlockTableRecord
2
_U0
340
0
70
0
0
ENDTAB
0
ENDSEC
0
SECTION
2
BLOCKS
0
BLOCK
5
20
100
AcDbEntity
8
0
100
AcDbBlockBegin
2
*Model_Space
70
0
10
0
20
0
30
0
3
*Model_Space
0
ENDBLK
5
21
100
AcDbEntity
8
0
100
AcDbBlockEnd
0
BLOCK
5
1C
100
AcDbEntity
8
0
100
AcDbBlockBegin
2
*Paper_Space
70
0
10
0
20
0
30
0
3
*Paper_Space
0
ENDBLK
5
1D
100
AcDbEntity
8
0
100
AcDbBlockEnd
0
BLOCK
5
24
100
AcDbEntity
8
0
100
AcDbBlockBegin
2
*Paper_Space0
70
0
10
0
20
0
30
0
3
*Paper_Space0
0
ENDBLK
5
25
100
AcDbEntity
8
0
100
AcDbBlockEnd
0
BLOCK
5
130
100
AcDbEntity
8
0
100
AcDbBlockBegin
2
*D1
70
1
10
0
20
0
30
0
3
*D1
0
LINE
5
132
100
AcDbEntity
8
0
62
256
6
ByLayer
370
-2
48
1
60
0
100
AcDbLine
10
27
20
-5.4876
30
0
11
27
21
-20.208377
31
0
39
0
210
0
220
0
230
1
0
LINE
5
133
100
AcDbEntity
8
0
62
256
6
ByLayer
370
-2
48
1
60
0
100
AcDbLine
10
19.2
20
-5.4876
30
0
11
19.2
21
-20.208377
31
0
39
0
210
0
220
0
230
1
0
LINE
5
134
100
AcDbEntity
8
0
62
256
6
ByLayer
370
-2
48
1
60
0
100
AcDbLine
10
30.5
20
-18.208377
30
0
11
34
21
-18.208377
31
0
39
0
210
0
220
0
230
1
0
LINE
5
135
100
AcDbEntity
8
0
62
256
6
ByLayer
370
-2
48
1
60
0
100
AcDbLine
10
15.7
20
-18.208377
30
0
11
12.2
21
-18.208377
31
0
39
0
210
0
220
0
230
1
0
SOLID
5
136
100
AcDbEntity
8
0
62
256
6
ByLayer
370
-1
48
1
60
0
100
AcDbTrace
10
30.5
20
-17.625044
30
0
11
30.5
21
-18.79171
31
0
12
27
22
-18.208377
32
0
13
27
23
-18.208377
33
0
39
0
210
0
220
0
230
1
0
SOLID
5
137
100
AcDbEntity
8
0
62
256
6
ByLayer
370
-1
48
1
60
0
100
AcDbTrace
10
15.7
20
-18.79171
30
0
11
15.7
21
-17.625044
31
0
12
19.2
22
-18.208377
32
0
13
19.2
23
-18.208377
33
0
39
0
210
0
220
0
230
1
0
MTEXT
5
138
100
AcDbEntity
8
0
62
256
6
ByLayer
370
18
48
1
60
0
100
AcDbMText
10
23.1
20
-11.208377
30
0
210
0
220
0
230
1
1
\A1;7.8
40
3.5
41
0
44
1
50
0
71
5
72
5
7
iso_b_vert
0
POINT
5
139
100
AcDbEntity
8
Defpoints
62
0
6
ByLayer
370
-1
48
1
60
0
100
AcDbPoint
10
27
20
-3.9001
30
0
39
0
210
0
220
0
230
1
50
360
0
POINT
5
13A
100
AcDbEntity
8
Defpoints
62
0
6
ByLayer
370
-1
48
1
60
0
100
AcDbPoint
10
19.2
20
-3.9001
30
0
39
0
210
0
220
0
230
1
50
360
0
POINT
5
13B
100
AcDbEntity
8
Defpoints
62
0
6
ByLayer
370
-1
48
1
60
0
100
AcDbPoint
10
19.2
20
-18.208377
30
0
39
0
210
0
220
0
230
1
50
360
0
ENDBLK
5
131
100
AcDbEntity
8
0
100
AcDbBlockEnd
0
BLOCK
5
143
100
AcDbEntity
8
0
100
AcDbBlockBegin
2
_U0
70
0
10
0
20
0
30
0
3
_U0
0
MTEXT
5
13D
100
AcDbEntity
8
2
62
256
6
ByLayer
370
18
48
1
60
0
100
AcDbMText
10
20.486034
20
-17.175743
30
0
210
0
220
0
230
1
1
\W0.7121;7.8
40
3.5
41
0
44
1.084337
50
0
71
7
72
5
7
iso_b_vert
0
LINE
5
13E
100
AcDbEntity
8
2
62
256
6
ByLayer
370
13
48
1
60
0
100
AcDbLine
10
27
20
-5.4876
30
0
11
27
21
-20.208377
31
0
39
0
210
0
220
0
230
1
0
LINE
5
13F
100
AcDbEntity
8
2
62
256
6
ByLayer
370
13
48
1
60
0
100
AcDbLine
10
19.2
20
-5.4876
30
0
11
19.2
21
-20.208377
31
0
39
0
210
0
220
0
230
1
0
LINE
5
140
100
AcDbEntity
8
2
62
256
6
ByLayer
370
13
48
1
60
0
100
AcDbLine
10
27
20
-18.208377
30
0
11
19.2
21
-18.208377
31
0
39
0
210
0
220
0
230
1
0
SOLID
5
141
100
AcDbEntity
8
2
62
256
6
ByLayer
370
18
48
1
60
0
100
AcDbTrace
10
27
20
-18.208377
30
0
11
23.500002
21
-18.669161
31
0
12
23.499998
22
-17.747593
32
0
13
23.499998
23
-17.747593
33
0
39
0
210
0
220
0
230
1
0
SOLID
5
142
100
AcDbEntity
8
2
62
256
6
ByLayer
370
18
48
1
60
0
100
AcDbTrace
10
19.2
20
-18.208377
30
0
11
22.699998
21
-17.747593
31
0
12
22.700002
22
-18.669161
32
0
13
22.700002
23
-18.669161
33
0
39
0
210
0
220
0
230
1
0
ENDBLK
5
144
100
AcDbEntity
8
0
100
AcDbBlockEnd
0
ENDSEC
0
SECTION
2
ENTITIES
0
ELLIPSE
5
C7
100
AcDbEntity
8
1
62
256
6
ByLayer
370
18
48
1
60
0
100
AcDbEllipse
10
26.588315
20
-0.648249
30
0
11
0.114870754926418
21
-0.0964609236047078
31
0
210
0
220
0
230
1
40
0.030017
41
-2.00112053248624
42
-1.53502702583035
0
ELLIPSE
5
C8
100
AcDbEntity
8
1
62
256
6
ByLayer
370
18
48
1
60
0
100
AcDbEllipse
10
26.7306
20
-0.434932
30
0
11
0.154540960555099
21
-0.462495942442599
31
0
210
0
220
0
230
1
40
0.555967
41
-1.82875639091212
42
-1.52223286156974
0
ELLIPSE
5
C9
100
AcDbEntity
8
1
62
256
6
ByLayer
370
18
48
1
60
0
100
AcDbEllipse
10
26.7306
20
-0.345203
30
0
11
0.212009523398111
21
-0.235069049885611
31
0
210
0
220
0
230
1
40
0.902945
41
-2.17258369302427
42
-2.07241026000422
0
ELLIPSE
5
CA
100
AcDbEntity
8
1
62
256
6
ByLayer
370
18
48
1
60
0
100
AcDbEllipse
10
26.7306
20
-0.3812
30
0
11
0.132293230156738
21
-0.270419694660347
31
0
210
0
220
0
230
1
40
0.995695
41
2.68490523047448
42
-2.94709519871691
0
ELLIPSE
5
CB
100
AcDbEntity
8
1
62
256
6
ByLayer
370
18
48
1
60
0
100
AcDbEllipse
10
26.7306
20
-0.288298
30
0
11
0.15454096042463
21
0.46249594221799
31
0
210
0
220
0
230
1
40
0.555967
41
1.71422868969379
42
2.0871353236153
0
ELLIPSE
5
CC
100
AcDbEntity
8
1
62
256
6
ByLayer
370
18
48
1
60
0
100
AcDbEllipse
10
26.7306
20
-0.418729
30
0
11
0.212009523394973
21
0.23506904988587
31
0
210
0
220
0
230
1
40
0.902945
41
2.33078919274382
42
-3.05490354655389
0
ELLIPSE
5
CD
100
AcDbEntity
8
1
62
256
6
ByLayer
370
18
48
1
60
0
100
AcDbEllipse
10
24.55868
20
0
30
0
11
10.9693950555414
21
-3.15551560226054
31
0
210
0
220
0
230
1
40
0.224096
41
-2.69581842901306
42
-2.15677155127837
0
ELLIPSE
5
CE
100
AcDbEntity
8
1
62
256
6
ByLayer
370
18
48
1
60
0
100
AcDbEllipse
10
17.397813
20
0
30
0
11
10.6207887899651
21
3.266725316584
31
0
210
0
220
0
230
1
40
0.217343
41
-1.62417965937526
42
-1.54609060521759
0
POINT
5
70
100
AcDbEntity
8
81
62
256
6
ByLayer
370
18
48
1
60
0
100
AcDbPoint
10
27
20
0
30
0
39
0
210
0
220
0
230
1
50
360
0
POINT
5
72
100
AcDbEntity
8
80
62
256
6
ByLayer
370
18
48
1
60
0
100
AcDbPoint
10
0
20
0
30
0
39
0
210
0
220
0
230
1
50
360
0
POINT
5
74
100
AcDbEntity
8
1
62
256
6
ByLayer
370
18
48
1
60
1
100
AcDbPoint
10
27
20
-3.9001
30
0
39
0
210
0
220
0
230
1
50
360
0
POINT
5
76
100
AcDbEntity
8
1
62
256
6
ByLayer
370
18
48
1
60
1
100
AcDbPoint
10
19.2
20
-3.9001
30
0
39
0
210
0
220
0
230
1
50
360
0
SPLINE
5
CF
100
AcDbEntity
8
1
62
256
6
ByLayer
370
18
48
1
60
0
100
AcDbSpline
70
4
71
3
72
28
73
24
40
0
40
0
40
0
40
0
40
0.036287528063592
40
0.036287528063592
40
0.110419256674081
40
0.110419256674081
40
0.25868271389506
40
0.25868271389506
40
0.33281444250555
40
0.369880306810797
40
0.369880306810797
40
0.406946171116043
40
0.406946171116043
40
0.555209628337034
40
0.555209628337034
40
0.629341356947529
40
0.629341356947529
40
0.703473085558023
40
0.777604814168517
40
0.777604814168517
40
0.851736542779011
40
0.851736542779011
40
1
40
1
40
1
40
1
41
1
10
20.3684454451091
20
2.41177122618035
30
0
41
1
10
20.4444070426116
20
2.44352997971703
30
0
41
1
10
20.5203612233656
20
2.47490099876529
30
0
41
1
10
20.7513475713431
20
2.569083971406
30
0
41
1
10
20.9062716185558
20
2.63057592680738
30
0
41
1
10
21.370806648636
20
2.80949590495425
30
0
41
1
10
21.680186000905
20
2.92136320962899
30
0
41
1
10
22.1446220416654
20
3.07712616505188
30
0
41
1
10
22.3769297129525
20
3.15200138619676
30
0
41
1
10
22.6095189853028
20
3.22219156134221
30
0
41
1
10
22.7646576482147
20
3.26792272594375
30
0
41
1
10
22.8422887308771
20
3.29026334665951
30
0
41
1
10
23.2303362775163
20
3.39916051908196
30
0
41
1
10
23.5404741171554
20
3.47730809433048
30
0
41
1
10
24.0060003987392
20
3.58030396632299
30
0
41
1
10
24.1612544785669
20
3.61227437219253
30
0
41
1
10
24.4715244963134
20
3.67129453466217
30
0
41
1
10
24.7816700126788
20
3.72541666440179
30
0
41
1
10
25.0918582272655
20
3.76959023242796
30
0
41
1
10
25.4022198943951
20
3.80870153696637
30
0
41
1
10
25.5572893859458
20
3.82570061112187
30
0
41
1
10
26.0223096412084
20
3.86895169876604
30
0
41
1
10
26.3321100613292
20
3.88746368975521
30
0
41
1
10
26.6423272947362
20
3.89545684209756
30
0
0
SPLINE
5
D0
100
AcDbEntity
8
1
62
256
6
ByLayer
370
18
48
1
60
0
100
AcDbSpline
70
4
71
3
72
8
73
4
40
0
40
0
40
0
40
0
40
1
40
1
40
1
40
1
41
1
10
26.7107460413057
20
3.8953097629267
30
0
41
1
10
26.767005586842
20
3.89221466159674
30
0
41
1
10
26.8232776243205
20
3.88936162792655
30
0
41
1
10
26.8795620476598
20
3.88674860586917
30
0
0
SPLINE
5
D1
100
AcDbEntity
8
1
62
256
6
ByLayer
370
18
48
1
60
0
100
AcDbSpline
70
4
71
3
72
8
73
4
40
0
40
0
40
0
40
0
40
1
40
1
40
1
40
1
41
1
10
26.6423272947362
20
3.89545684209756
30
0
41
1
10
26.6651327396071
20
3.8953695924323
30
0
41
1
10
26.6879389879283
20
3.8953205407567
30
0
41
1
10
26.7107460412954
20
3.89530976293466
30
0
0
SPLINE
5
D2
100
AcDbEntity
8
1
62
256
6
ByLayer
370
18
48
1
60
0
100
AcDbSpline
70
4
71
3
72
8
73
4
40
0
40
0
40
0
40
0
40
1
40
1
40
1
40
1
41
1
10
26.6423272947354
20
3.89545684209716
30
0
41
1
10
26.6783793894084
20
3.8048235273794
30
0
41
1
10
26.7170384632329
20
3.71533651235279
30
0
41
1
10
26.7588208231234
20
3.62722281933796
30
0
0
SPLINE
5
D3
100
AcDbEntity
8
1
62
256
6
ByLayer
370
18
48
1
60
0
100
AcDbSpline
70
4
71
3
72
52
73
48
40
0
40
0
40
0
40
0
40
0.0312499999999956
40
0.0312499999999956
40
0.0624999999999911
40
0.0624999999999911
40
0.0781249999999891
40
0.0781249999999891
40
0.0937499999999871
40
0.0937499999999871
40
0.124999999999983
40
0.124999999999983
40
0.140624999999981
40
0.140624999999981
40
0.156249999999978
40
0.156249999999978
40
0.187499999999969
40
0.187499999999969
40
0.203124999999964
40
0.203124999999964
40
0.218749999999959
40
0.218749999999959
40
0.249999999999958
40
0.249999999999958
40
0.281249999999957
40
0.281249999999957
40
0.296874999999957
40
0.296874999999957
40
0.312499999999956
40
0.312499999999956
40
0.374999999999966
40
0.374999999999966
40
0.40624999999997
40
0.40624999999997
40
0.437499999999975
40
0.437499999999975
40
0.499999999999978
40
0.499999999999978
40
0.56249999999998
40
0.56249999999998
40
0.624999999999983
40
0.624999999999983
40
0.749999999999989
40
0.749999999999989
40
0.874999999999994
40
0.874999999999994
40
1
40
1
40
1
40
1
41
1
10
26.7588208376356
20
3.62722282547139
30
0
41
1
10
26.7724878982189
20
3.59841605567038
30
0
41
1
10
26.7846598173849
20
3.56911354674085
30
0
41
1
10
26.8054623425835
20
3.50933434847917
30
0
41
1
10
26.8140968689409
20
3.47885895872977
30
0
41
1
10
26.8238010534239
20
3.43206907694298
30
0
41
1
10
26.8264949270154
20
3.41624016279687
30
0
41
1
10
26.8306093710631
20
3.384698584185
30
0
41
1
10
26.8320436399736
20
3.36893745202698
30
0
41
1
10
26.8343933424782
20
3.32168433297832
30
0
41
1
10
26.8333597893344
20
3.29022255968272
30
0
41
1
10
26.8275044771379
20
3.2430966364677
30
0
41
1
10
26.8248342232025
20
3.2273991334713
30
0
41
1
10
26.8179761373199
20
3.19602765328617
30
0
41
1
10
26.8138311867075
20
3.180565319609
30
0
41
1
10
26.7994160869272
20
3.13511338766341
30
0
41
1
10
26.7871399282233
20
3.10592599022971
30
0
41
1
10
26.7650759310497
20
3.06366975962735
30
0
41
1
10
26.7571122736302
20
3.04983878552088
30
0
41
1
10
26.7400179737738
20
3.02266440242931
30
0
41
1
10
26.7309972895411
20
3.00949455748545
30
0
41
1
10
26.7026905562674
20
2.97112827265732
30
0
41
1
10
26.6821572554707
20
2.94705510816419
30
0
41
1
10
26.6383968406291
20
2.90134687018696
30
0
41
1
10
26.6151669881314
20
2.87971427519588
30
0
41
1
10
26.5786388308925
20
2.84878895898893
30
0
41
1
10
26.5662102628841
20
2.83876186630204
30
0
41
1
10
26.5410620905228
20
2.81933575820341
30
0
41
1
10
26.5283178069847
20
2.80991576886353
30
0
41
1
10
26.463839005045
20
2.76411997046668
30
0
41
1
10
26.4098739444965
20
2.7315849565658
30
0
41
1
10
26.3265283561832
20
2.68691157407559
30
0
41
1
10
26.2983386314771
20
2.67272274854915
30
0
41
1
10
26.2412680527361
20
2.6455351607199
30
0
41
1
10
26.212348353511
20
2.63252064634227
30
0
41
1
10
26.1249578229728
20
2.59512580254824
30
0
41
1
10
26.0662046995616
20
2.57251136305419
30
0
41
1
10
25.9479859503883
20
2.53063043350781
30
0
41
1
10
25.8885180252913
20
2.51137474771016
30
0
41
1
10
25.7690341787731
20
2.4754383346187
30
0
41
1
10
25.7090172157583
20
2.4587625016284
30
0
41
1
10
25.5283106563791
20
2.41181590636106
30
0
41
1
10
25.4069741624665
20
2.38458482568282
30
0
41
1
10
25.1631189547846
20
2.33567775099238
30
0
41
1
10
25.0405943250142
20
2.31402955544607
30
0
41
1
10
24.7946632611423
20
2.2748766402521
30
0
41
1
10
24.671254421495
20
2.25738322392957
30
0
41
1
10
24.5474989580119
20
2.24151854479709
30
0
0
SPLINE
5
D4
100
AcDbEntity
8
1
62
256
6
ByLayer
370
13
48
1
60
0
100
AcDbSpline
70
4
71
3
72
11
73
7
40
0
40
0
40
0
40
0
40
0.450599231444009
40
0.777993850884118
40
0.941691160604173
40
1
40
1
40
1
40
1
41
1
10
26.7588208362082
20
3.62722282561009
30
0
41
1
10
25.8642138908054
20
3.60553033775721
30
0
41
1
10
24.3196069454027
20
3.43117406675216
30
0
41
1
10
22.45
20
2.94647821244669
30
0
41
1
10
21.3592352825709
20
2.57943975852899
30
0
41
1
10
20.9184705651418
20
2.41775829501353
30
0
41
1
10
20.8027058477127
20
2.3744171881535
30
0
0
SPLINE
5
D5
100
AcDbEntity
8
1
62
256
6
ByLayer
370
18
48
1
60
0
100
AcDbSpline
70
4
71
3
72
25
73
21
40
0
40
0
40
0
40
0
40
0.124999999999999
40
0.124999999999999
40
0.249999999999998
40
0.249999999999998
40
0.374999999999996
40
0.374999999999996
40
0.499999999999995
40
0.499999999999995
40
0.562499999999995
40
0.562499999999995
40
0.624999999999996
40
0.687499999999996
40
0.687499999999996
40
0.749999999999996
40
0.749999999999996
40
0.874999999999998
40
0.874999999999998
40
1
40
1
40
1
40
1
41
1
10
24.396321561041
20
2.18068061913542
30
0
41
1
10
24.3954390431125
20
2.18291670470268
30
0
41
1
10
24.3956114856983
20
2.18531545110883
30
0
41
1
10
24.3981568151636
20
2.19049680954239
30
0
41
1
10
24.4005844988784
20
2.19330977663344
30
0
41
1
10
24.4075575281618
20
2.19908252366344
30
0
41
1
10
24.4121211858318
20
2.20208209092701
30
0
41
1
10
24.423387680485
20
2.20822695774817
30
0
41
1
10
24.4298950523258
20
2.21126940927459
30
0
41
1
10
24.4408956367182
20
2.21576080310305
30
0
41
1
10
24.4447958758246
20
2.2172543744054
30
0
41
1
10
24.4528838337664
20
2.22016127461507
30
0
41
1
10
24.4612396807486
20
2.22298363105389
30
0
41
1
10
24.4701009579453
20
2.22563262992608
30
0
41
1
10
24.4792073886558
20
2.228190382908
30
0
41
1
10
24.483904990429
20
2.22942856840788
30
0
41
1
10
24.4981115595062
20
2.23293645337188
30
0
41
1
10
24.5077799221685
20
2.23501686866865
30
0
41
1
10
24.5274742886447
20
2.23866913490826
30
0
41
1
10
24.5375053793071
20
2.24023743029051
30
0
41
1
10
24.5474989580119
20
2.24151854479709
30
0
0
SPLINE
5
D6
100
AcDbEntity
8
1
62
256
6
ByLayer
370
18
48
1
60
0
100
AcDbSpline
70
4
71
3
72
28
73
24
40
0
40
0
40
0
40
0
40
0.125000000000051
40
0.125000000000051
40
0.187500000000081
40
0.187500000000081
40
0.250000000000111
40
0.250000000000111
40
0.375000000000154
40
0.375000000000154
40
0.500000000000198
40
0.500000000000198
40
0.625000000000241
40
0.625000000000241
40
0.687500000000263
40
0.687500000000263
40
0.750000000000236
40
0.750000000000236
40
0.875000000000181
40
0.875000000000181
40
0.93750000000009
40
0.93750000000009
40
1
40
1
40
1
40
1
41
1
10
26.4540177517546
20
-0.26937052861706
30
0
41
1
10
26.4542488514494
20
-0.268435725884245
30
0
41
1
10
26.454884971197
20
-0.266540583816578
30
0
41
1
10
26.4564422267339
20
-0.262447964956948
30
0
41
1
10
26.4570632486998
20
-0.260874145003925
30
0
41
1
10
26.4585245430895
20
-0.257324893736382
30
0
41
1
10
26.4593689130889
20
-0.255340836158069
30
0
41
1
10
26.4622076262507
20
-0.248936612971221
30
0
41
1
10
26.4645137582019
20
-0.244042202437584
30
0
41
1
10
26.4701068538394
20
-0.233195720933111
30
0
41
1
10
26.4734248802198
20
-0.227197685251184
30
0
41
1
10
26.4810154282765
20
-0.214707907101939
30
0
41
1
10
26.4853048190634
20
-0.208173755434245
30
0
41
1
10
26.49265636737
20
-0.198018336750465
30
0
41
1
10
26.4952790025606
20
-0.194551207644793
30
0
41
1
10
26.500769608194
20
-0.187636748340168
30
0
41
1
10
26.5036350273223
20
-0.184190237555612
30
0
41
1
10
26.5126131094618
20
-0.173904172900933
30
0
41
1
10
26.5191043138344
20
-0.167118344357107
30
0
41
1
10
26.5297331367692
20
-0.157120350653116
30
0
41
1
10
26.5334260542743
20
-0.153820035944165
30
0
41
1
10
26.5409549614783
20
-0.147441063793167
30
0
41
1
10
26.544811152883
20
-0.144342770575633
30
0
41
1
10
26.5487612271398
20
-0.141338040912132
30
0
0
SPLINE
5
D7
100
AcDbEntity
8
1
62
256
6
ByLayer
370
18
48
1
60
0
100
AcDbSpline
70
4
71
3
72
19
73
15
40
0
40
0
40
0
40
0
40
0.249999999999982
40
0.249999999999982
40
0.374999999999985
40
0.374999999999985
40
0.499999999999988
40
0.624999999999991
40
0.624999999999991
40
0.749999999999994
40
0.749999999999994
40
0.874999999999997
40
0.874999999999997
40
1
40
1
40
1
40
1
41
1
10
26.481272807536
20
-0.543201755745571
30
0
41
1
10
26.4816948431354
20
-0.544359739952341
30
0
41
1
10
26.4831239650458
20
-0.547026276512582
30
0
41
1
10
26.4868251608522
20
-0.553004409304009
30
0
41
1
10
26.4883377795525
20
-0.555349849116567
30
0
41
1
10
26.4918676878613
20
-0.560551280480354
30
0
41
1
10
26.4959050671318
20
-0.566270390982481
30
0
41
1
10
26.5010450138153
20
-0.572906209896075
30
0
41
1
10
26.5068216966471
20
-0.579963959741889
30
0
41
1
10
26.5099973812543
20
-0.583663211544348
30
0
41
1
10
26.5168860120559
20
-0.591233715943758
30
0
41
1
10
26.5206115925273
20
-0.59512109115289
30
0
41
1
10
26.5287032064526
20
-0.603049121105641
30
0
41
1
10
26.5330913421475
20
-0.607107625959401
30
0
41
1
10
26.5377637170941
20
-0.611142237277136
30
0
0
SPLINE
5
D8
100
AcDbEntity
8
1
62
256
6
ByLayer
370
18
48
1
60
0
100
AcDbSpline
70
4
71
3
72
10
73
6
40
0
40
0
40
0
40
0
40
0.5
40
0.5
40
1
40
1
40
1
40
1
41
1
10
24.3963215610411
20
2.18068061913544
30
0
41
1
10
24.4002824225514
20
2.17064476040574
30
0
41
1
10
24.4028058917361
20
2.16221718389934
30
0
41
1
10
24.4045021526662
20
2.14911106645985
30
0
41
1
10
24.4036612094793
20
2.14451477237427
30
0
41
1
10
24.400933159768
20
2.14211299615451
30
0
0
SPLINE
5
D9
100
AcDbEntity
8
1
62
256
6
ByLayer
370
18
48
1
60
0
100
AcDbSpline
70
4
71
3
72
8
73
4
40
0
40
0
40
0
40
0
40
1
40
1
40
1
40
1
41
1
10
24.4009331505961
20
2.14211299929789
30
0
41
1
10
24.3998769563066
20
2.14117941590521
30
0
41
1
10
24.3980940764086
20
2.14109907397213
30
0
41
1
10
24.3955495530572
20
2.14192902575772
30
0
0
SPLINE
5
DA
100
AcDbEntity
8
1
62
256
6
ByLayer
370
18
48
1
60
0
100
AcDbSpline
70
4
71
3
72
21
73
17
40
0
40
0
40
0
40
0
40
0.125
40
0.125
40
0.1875
40
0.1875
40
0.250000000000001
40
0.250000000000001
40
0.500000000000001
40
0.500000000000001
40
0.750000000000001
40
0.750000000000001
40
0.812500000000001
40
0.812500000000001
40
0.875000000000001
40
1
40
1
40
1
40
1
41
1
10
25.9698962634617
20
-0.0429217314033394
30
0
41
1
10
25.9658050472951
20
-0.106761325392398
30
0
41
1
10
25.9625977004722
20
-0.171400964302705
30
0
41
1
10
25.9591453622983
20
-0.269590250006672
30
0
41
1
10
25.9582212349686
20
-0.302525168735798
30
0
41
1
10
25.9568343918747
20
-0.368812658398411
30
0
41
1
10
25.9563714138816
20
-0.402241403841686
30
0
41
1
10
25.9552395791905
20
-0.569414657593342
30
0
41
1
10
25.9580841673797
20
-0.702809988472325
30
0
41
1
10
25.9709478768676
20
-0.968943908772189
30
0
41
1
10
25.98096803284
20
-1.10168240348128
30
0
41
1
10
25.9980345234739
20
-1.26718982134838
30
0
41
1
10
26.0016817837586
20
-1.30031857573252
30
0
41
1
10
26.009401515936
20
-1.36623155306609
30
0
41
1
10
26.0216187454552
20
-1.46460317469132
30
0
41
1
10
26.0357258404991
20
-1.56149924297827
30
0
41
1
10
26.0459614170562
20
-1.62544792046185
30
0
0
SPLINE
5
DB
100
AcDbEntity
8
1
62
256
6
ByLayer
370
18
48
1
60
0
100
AcDbSpline
70
4
71
3
72
46
73
42
40
0
40
0
40
0
40
0
40
0.0625000000000019
40
0.0625000000000019
40
0.125000000000004
40
0.125000000000004
40
0.156250000000005
40
0.156250000000005
40
0.171875000000005
40
0.171875000000005
40
0.187500000000006
40
0.250000000000007
40
0.250000000000007
40
0.312500000000007
40
0.312500000000007
40
0.328125000000008
40
0.328125000000008
40
0.343750000000008
40
0.343750000000008
40
0.375000000000008
40
0.375000000000008
40
0.43750000000001
40
0.43750000000001
40
0.500000000000012
40
0.500000000000012
40
0.515625000000012
40
0.515625000000012
40
0.531250000000013
40
0.562500000000014
40
0.562500000000014
40
0.625000000000016
40
0.625000000000016
40
0.687500000000018
40
0.687500000000018
40
0.718750000000018
40
0.718750000000018
40
0.750000000000018
40
0.750000000000018
40
0.875000000000009
40
0.875000000000009
40
1
40
1
40
1
40
1
41
1
10
24.3955495436996
20
2.14192902931032
30
0
41
1
10
24.3826130786284
20
2.14615421329089
30
0
41
1
10
24.3732176103033
20
2.14625099273417
30
0
41
1
10
24.3616057332795
20
2.13807454426285
30
0
41
1
10
24.3593885476249
20
2.12980222965996
30
0
41
1
10
24.361655033064
20
2.1108737942661
30
0
41
1
10
24.3633440535866
20
2.10347592808284
30
0
41
1
10
24.3673188362631
20
2.09069878792096
30
0
41
1
10
24.3688868950722
20
2.08615220006357
30
0
41
1
10
24.3724985822577
20
2.07652398432748
30
0
41
1
10
24.3826960686539
20
2.05116786190115
30
0
41
1
10
24.3986255665172
20
2.01950413345887
30
0
41
1
10
24.4311370711223
20
1.96111249612593
30
0
41
1
10
24.450905825996
20
1.92805090777739
30
0
41
1
10
24.479930729478
20
1.88197676516825
30
0
41
1
10
24.4859518393532
20
1.87252410430492
30
0
41
1
10
24.498426094593
20
1.85314336314366
30
0
41
1
10
24.5048901354281
20
1.84319878598117
30
0
41
1
10
24.5248292007565
20
1.81280567027255
30
0
41
1
10
24.5388527312287
20
1.79179348993117
30
0
41
1
10
24.5830088081262
20
1.72661643715853
30
0
41
1
10
24.6152214232304
20
1.68031661270552
30
0
41
1
10
24.6847805664505
20
1.58244759068924
30
0
41
1
10
24.7221285371593
20
1.53087691246967
30
0
41
1
10
24.7718624851123
20
1.46328413159915
30
0
41
1
10
24.7819613819973
20
1.44960984826588
30
0
41
1
10
24.8023538355336
20
1.42209569553822
30
0
41
1
10
24.8332736399768
20
1.38052283927735
30
0
41
1
10
24.865156051736
20
1.33807312601328
30
0
41
1
10
24.9301353517491
20
1.25206741013736
30
0
41
1
10
24.9750710373643
20
1.19325808289531
30
0
41
1
10
25.0678979913784
20
1.07294713278915
30
0
41
1
10
25.115790207871
20
1.01144464628848
30
0
41
1
10
25.1897071183335
20
0.917297493936474
30
0
41
1
10
25.2146931369359
20
0.885598976898592
30
0
41
1
10
25.2653426734685
20
0.821584796016737
30
0
41
1
10
25.2910397007985
20
0.78922711465836
30
0
41
1
10
25.4208104587024
20
0.626396740240324
30
0
41
1
10
25.5273847991222
20
0.494478231325246
30
0
41
1
10
25.7452134560758
20
0.227833959383503
30
0
41
1
10
25.8564758219316
20
0.0931033680218434
30
0
41
1
10
25.9698962634622
20
-0.04292173140351
30
0
0
SPLINE
5
DC
100
AcDbEntity
8
1
62
256
6
ByLayer
370
18
48
1
60
0
100
AcDbSpline
70
4
71
3
72
20
73
16
40
0
40
0
40
0
40
0
40
0.249999999999998
40
0.249999999999998
40
0.312499999999998
40
0.312499999999998
40
0.374999999999997
40
0.499999999999996
40
0.499999999999996
40
0.562499999999996
40
0.562499999999996
40
0.624999999999997
40
0.749999999999998
40
0.749999999999998
40
1
40
1
40
1
40
1
41
1
10
26.0459614170574
20
-1.62544792046271
30
0
41
1
10
26.0824338777369
20
-1.77265611627934
30
0
41
1
10
26.1225870011273
20
-1.91201312926358
30
0
41
1
10
26.1772048911254
20
-2.07676730538114
30
0
41
1
10
26.1883478078387
20
-2.10923036245768
30
0
41
1
10
26.2109813775766
20
-2.17294271702036
30
0
41
1
10
26.2454875885309
20
-2.26679317005781
30
0
41
1
10
26.28163744395
20
-2.35556333439695
30
0
41
1
10
26.3188697721648
20
-2.44098771780369
30
0
41
1
10
26.3314768261551
20
-2.46893636617313
30
0
41
1
10
26.3569312372201
20
-2.52346281591866
30
0
41
1
10
26.3954987681849
20
-2.60326001113626
30
0
41
1
10
26.4352003808804
20
-2.6772019320251
30
0
41
1
10
26.5160788027497
20
-2.8174693209204
30
0
41
1
10
26.5719566008129
20
-2.90086735230898
30
0
41
1
10
26.6297970065628
20
-2.97413242229607
30
0
0
SPLINE
5
DD
100
AcDbEntity
8
1
62
256
6
ByLayer
370
18
48
1
60
0
100
AcDbSpline
70
4
71
3
72
11
73
7
40
0
40
0
40
0
40
0
40
0.287901332916142
40
0.572740799749685
40
0.715160533166457
40
1
40
1
40
1
40
1
41
1
10
26.0459614170657
20
-1.62544792046563
30
0
41
1
10
25.3889742780438
20
-1.36377517773715
30
0
41
1
10
24.0819871390219
20
-0.804495678656991
30
0
41
1
10
22.45
20
-0.0584882532641018
30
0
41
1
10
20.825
20
0.680056750385972
30
0
41
1
10
19.85
20
1.1092917202449
30
0
41
1
10
19.2
20
1.38045707616487
30
0
0
SPLINE
5
DE
100
AcDbEntity
8
1
62
256
6
ByLayer
370
18
48
1
60
0
100
AcDbSpline
70
4
71
3
72
18
73
14
40
0
40
0
40
0
40
0
40
0.24999999999999
40
0.24999999999999
40
0.374999999999984
40
0.374999999999984
40
0.499999999999979
40
0.499999999999979
40
0.624999999999974
40
0.624999999999974
40
0.749999999999968
40
0.749999999999968
40
1
40
1
40
1
40
1
41
1
10
26.6297970105794
20
-2.97413242134252
30
0
41
1
10
26.635822554595
20
-2.98176629877452
30
0
41
1
10
26.6415932066283
20
-2.99060534336661
30
0
41
1
10
26.6498478831221
20
-3.00576137842683
30
0
41
1
10
26.6525320309064
20
-3.01113212427205
30
0
41
1
10
26.657754423195
20
-3.02256347854879
30
0
41
1
10
26.6603017587766
20
-3.02864761745843
30
0
41
1
10
26.6651901006457
20
-3.04148351959253
30
0
41
1
10
26.6675154367626
20
-3.0481897939716
30
0
41
1
10
26.6719094515883
20
-3.06222505848987
30
0
41
1
10
26.6739855497013
20
-3.06958297404509
30
0
41
1
10
26.6797285638293
20
-3.09251177590207
30
0
41
1
10
26.6828680007761
20
-3.10867748620717
30
0
41
1
10
26.6851566631565
20
-3.12592924261403
30
0
0
SPLINE
5
DF
100
AcDbEntity
8
1
62
256
6
ByLayer
370
13
48
1
60
0
100
AcDbSpline
70
4
71
3
72
11
73
7
40
0
40
0
40
0
40
0
40
0.343858251809104
40
0.606314951085463
40
0.737543300723642
40
1
40
1
40
1
40
1
41
1
10
26.6297970117604
20
-2.97413242061444
30
0
41
1
10
25.7781980078403
20
-2.79309920661339
30
0
41
1
10
24.2765990039202
20
-2.37142858110087
30
0
41
1
10
22.45
20
-1.67936115055792
30
0
41
1
10
20.825
20
-0.994297003310237
30
0
41
1
10
19.85
20
-0.554062541842626
30
0
41
1
10
19.2
20
-0.257832825324527
30
0
0
SPLINE
5
E0
100
AcDbEntity
8
1
62
256
6
ByLayer
370
13
48
1
60
0
100
AcDbSpline
70
4
71
3
72
8
73
4
40
0
40
0
40
0
40
0
40
1
40
1
40
1
40
1
41
1
10
17.7971206403095
20
-1.96093064935903
30
0
41
1
10
17.7964763410827
20
-1.95967557262966
30
0
41
1
10
17.7958320418559
20
-1.95842049590033
30
0
41
1
10
17.7951877426291
20
-1.95716541917099
30
0
0
SPLINE
5
E1
100
AcDbEntity
8
1
62
256
6
ByLayer
370
18
48
1
60
0
100
AcDbSpline
70
4
71
3
72
8
73
4
40
0
40
0
40
0
40
0
40
1
40
1
40
1
40
1
41
1
10
26.6423272954319
20
-3.89545684209509
30
0
41
1
10
26.6651327400709
20
-3.89536959243151
30
0
41
1
10
26.6879389881603
20
-3.89532054075679
30
0
41
1
10
26.7107460412955
20
-3.89530976293486
30
0
0
SPLINE
5
E2
100
AcDbEntity
8
1
62
256
6
ByLayer
370
18
48
1
60
0
100
AcDbSpline
70
4
71
3
72
10
73
6
40
0
40
0
40
0
40
0
40
0.12354601368441
40
0.880874973104007
40
1
40
1
40
1
40
1
41
1
10
17.79518773719
20
-1.95716541659198
30
0
41
1
10
17.8187397317663
20
-1.9683329749914
30
0
41
1
10
17.986665627395
20
-2.04774238893111
30
0
41
1
10
18.1773142247993
20
-2.13612694227964
30
0
41
1
10
18.3444215849782
20
-2.21190513750489
30
0
41
1
10
18.3671345418316
20
-2.22217300642686
30
0
0
SPLINE
5
E3
100
AcDbEntity
8
1
62
256
6
ByLayer
370
18
48
1
60
0
100
AcDbSpline
70
4
71
3
72
10
73
6
40
0
40
0
40
0
40
0
40
0.5
40
0.5
40
1
40
1
40
1
40
1
41
1
10
18.3671345418037
20
-2.22217300545319
30
0
41
1
10
18.4941811075886
20
-2.16587828045775
30
0
41
1
10
18.6220362697155
20
-2.11225702473132
30
0
41
1
10
18.8793361698188
20
-2.01027013910271
30
0
41
1
10
19.0085635746237
20
-1.96199233207014
30
0
41
1
10
19.1382330864243
20
-1.91645169867331
30
0
0
SPLINE
5
E4
100
AcDbEntity
8
1
62
256
6
ByLayer
370
18
48
1
60
0
100
AcDbSpline
70
4
71
3
72
14
73
10
40
0
40
0
40
0
40
0
40
0.325391386592809
40
0.325391386592809
40
0.65869639593842
40
0.65869639593842
40
0.992035135222721
40
0.992035135222721
40
1
40
1
40
1
40
1
41
1
10
26.8424969572935
20
-3.84841726336938
30
0
41
1
10
26.8463817852514
20
-3.85271457346281
30
0
41
1
10
26.8503093034156
20
-3.85696792667136
30
0
41
1
10
26.8583489175279
20
-3.86548611420002
30
0
41
1
10
26.8624632011705
20
-3.86974873576577
30
0
41
1
10
26.8707874598568
20
-3.87817583189414
30
0
41
1
10
26.8749974687675
20
-3.88234032131177
30
0
41
1
10
26.8793584231126
20
-3.8865521147948
30
0
41
1
10
26.8794602213229
20
-3.88665037489704
30
0
41
1
10
26.8795620476402
20
-3.88674860587028
30
0
0
SPLINE
5
E5
100
AcDbEntity
8
1
62
256
6
ByLayer
370
18
48
1
60
0
100
AcDbSpline
70
4
71
3
72
8
73
4
40
0
40
0
40
0
40
0
40
1
40
1
40
1
40
1
41
1
10
26.7107460413058
20
-3.89530976292687
30
0
41
1
10
26.7670055868355
20
-3.89221466159728
30
0
41
1
10
26.8232776243073
20
-3.88936162792743
30
0
41
1
10
26.87956204764
20
-3.88674860587028
30
0
0
SPLINE
5
E6
100
AcDbEntity
8
1
62
256
6
ByLayer
370
18
48
1
60
0
100
AcDbSpline
70
4
71
3
72
8
73
4
40
0
40
0
40
0
40
0
40
1
40
1
40
1
40
1
41
1
10
17.7432081977189
20
-1.93533038106992
30
0
41
0.999995815854217
10
17.7605254249418
20
-1.94256960199475
30
0
41
0.999995815854217
10
17.7778520115026
20
-1.9498479780041
30
0
41
1
10
17.7951877399104
20
-1.95716541773658
30
0
0
SPLINE
5
E7
100
AcDbEntity
8
1
62
256
6
ByLayer
370
18
48
1
60
0
100
AcDbSpline
70
4
71
3
72
23
73
19
40
0
40
0
40
0
40
0
40
0.0632601193421809
40
0.126415472477967
40
0.189466846315681
40
0.252415010463911
40
0.31526071741596
40
0.378004702733792
40
0.440647685231672
40
0.503190367159212
40
0.565633434384027
40
0.627977556573809
40
0.69022338737789
40
0.752371564608152
40
0.814422710543792
40
0.876377435177141
40
0.938236336977684
40
1
40
1
40
1
40
1
41
1
10
18.1285770789604
20
-1.35038585129198
30
0
41
1
10
18.1214010547841
20
-1.36290826184236
30
0
41
1
10
18.1070608907724
20
-1.38793234435673
30
0
41
1
10
18.0856379746802
20
-1.42558365239307
30
0
41
1
10
18.0643017778385
20
-1.46327733609164
30
0
41
1
10
18.0430572512304
20
-1.5010221715475
30
0
41
1
10
18.0219030695451
20
-1.53881351256339
30
0
41
1
10
18.0008395845601
20
-1.57665032744504
30
0
41
1
10
17.9798666990776
20
-1.61453064480492
30
0
41
1
10
17.9589844360523
20
-1.65245277194231
30
0
41
1
10
17.9381927834178
20
-1.69041496467707
30
0
41
1
10
17.9174917469997
20
-1.72841553182423
30
0
41
1
10
17.8968812938894
20
-1.76645274635121
30
0
41
1
10
17.8763615258262
20
-1.80452509542832
30
0
41
1
10
17.8559320433406
20
-1.84263037122247
30
0
41
1
10
17.8355943093442
20
-1.88076905269068
30
0
41
1
10
17.8153428583804
20
-1.91893170435375
30
0
41
1
10
17.8019026594787
20
-1.94442739313564
30
0
41
1
10
17.7951877371901
20
-1.95716541659198
30
0
0
SPLINE
5
E8
100
AcDbEntity
8
1
62
256
6
ByLayer
370
18
48
1
60
0
100
AcDbSpline
70
4
71
3
72
8
73
4
40
0
40
0
40
0
40
0
40
1
40
1
40
1
40
1
41
1
10
17.7885939477894
20
-1.21135230114919
30
0
41
0.999825562085581
10
17.9014696359327
20
-1.25601498077527
30
0
41
0.999825562085581
10
18.0148171172963
20
-1.30236758266127
30
0
41
1
10
18.1285770755854
20
-1.35038584985355
30
0
0
SPLINE
5
E9
100
AcDbEntity
8
1
62
256
6
ByLayer
370
18
48
1
60
0
100
AcDbSpline
70
4
71
3
72
8
73
4
40
0
40
0
40
0
40
0
40
1
40
1
40
1
40
1
41
1
10
18.2507327580903
20
-1.11142170891111
30
0
41
1
10
18.2100137739313
20
-1.19073772059866
30
0
41
1
10
18.1692951839933
20
-1.27040517065393
30
0
41
1
10
18.1285770718238
20
-1.35038584773255
30
0
0
SPLINE
5
EA
100
AcDbEntity
8
1
62
256
6
ByLayer
370
18
48
1
60
0
100
AcDbSpline
70
4
71
3
72
10
73
6
40
0
40
0
40
0
40
0
40
0.5
40
0.5
40
1
40
1
40
1
40
1
41
1
10
17.7885939429386
20
-1.21135229868554
30
0
41
1
10
17.7937397131799
20
-1.16721681867503
30
0
41
1
10
17.8026717280031
20
-1.1235387410583
30
0
41
1
10
17.8277168288959
20
-1.03713065683152
30
0
41
1
10
17.8437480262962
20
-0.994743313111485
30
0
41
1
10
17.8628383432968
20
-0.953471752818047
30
0
0
SPLINE
5
EB
100
AcDbEntity
8
1
62
256
6
ByLayer
370
18
48
1
60
0
100
AcDbSpline
70
4
71
3
72
28
73
24
40
0
40
0
40
0
40
0
40
0.125000000000001
40
0.125000000000001
40
0.250000000000001
40
0.250000000000001
40
0.312500000000001
40
0.312500000000001
40
0.375
40
0.375
40
0.4375
40
0.4375
40
0.499999999999999
40
0.499999999999999
40
0.562499999999998
40
0.562499999999998
40
0.624999999999998
40
0.624999999999998
40
0.749999999999999
40
0.749999999999999
40
0.874999999999999
40
0.874999999999999
40
1
40
1
40
1
40
1
41
1
10
14.3563587458447
20
1.78728272649391
30
0
41
1
10
14.3486094239172
20
1.7940604248146
30
0
41
1
10
14.3411653469772
20
1.80103639639017
30
0
41
1
10
14.327226045948
20
1.8156102591966
30
0
41
1
10
14.320708499635
20
1.82319321373336
30
0
41
1
10
14.3122539459599
20
1.83544134067705
30
0
41
1
10
14.3096589122409
20
1.83967157247764
30
0
41
1
10
14.3052024245725
20
1.84861915393535
30
0
41
1
10
14.3033899292575
20
1.85323927807408
30
0
41
1
10
14.301188092323
20
1.86280318584548
30
0
41
1
10
14.3008253062063
20
1.86770723777718
30
0
41
1
10
14.3024061281352
20
1.87738582944934
30
0
41
1
10
14.3043463967995
20
1.88195497112628
30
0
41
1
10
14.3104197028449
20
1.89015900899332
30
0
41
1
10
14.3143984953868
20
1.89361970330862
30
0
41
1
10
14.3232116873969
20
1.89940090564187
30
0
41
1
10
14.3280059974048
20
1.90172785183844
30
0
41
1
10
14.3431072738761
20
1.90766647166035
30
0
41
1
10
14.3536488860224
20
1.9101117097635
30
0
41
1
10
14.3749940602904
20
1.91368879373161
30
0
41
1
10
14.3858829890789
20
1.91477145713907
30
0
41
1
10
14.4076932821996
20
1.91608351135051
30
0
41
1
10
14.4186186715596
20
1.91630660161817
30
0
41
1
10
14.4295576507704
20
1.91623915125754
30
0
0
SPLINE
5
EC
100
AcDbEntity
8
1
62
256
6
ByLayer
370
18
48
1
60
0
100
AcDbSpline
70
4
71
3
72
30
73
26
40
0
40
0
40
0
40
0
40
0.12499999999999
40
0.12499999999999
40
0.249999999999981
40
0.249999999999981
40
0.374999999999971
40
0.374999999999971
40
0.499999999999961
40
0.499999999999961
40
0.56249999999996
40
0.56249999999996
40
0.593749999999964
40
0.593749999999964
40
0.624999999999967
40
0.624999999999967
40
0.749999999999981
40
0.749999999999981
40
0.812499999999988
40
0.812499999999988
40
0.843749999999991
40
0.843749999999991
40
0.874999999999994
40
0.874999999999994
40
1
40
1
40
1
40
1
41
1
10
14.4295576507704
20
1.91623915125754
30
0
41
1
10
14.5337945202123
20
1.9155964208621
30
0
41
1
10
14.637815987873
20
1.91661472235413
30
0
41
1
10
14.8453316805621
20
1.92271041350409
30
0
41
1
10
14.9488263318879
20
1.92778516253003
30
0
41
1
10
15.1551584720869
20
1.94295991440649
30
0
41
1
10
15.2579966403347
20
1.95305592824064
30
0
41
1
10
15.4628357469047
20
1.97956931898483
30
0
41
1
10
15.5648378131187
20
1.99598050487333
30
0
41
1
10
15.7170206748225
20
2.02666948727071
30
0
41
1
10
15.7676108918
20
2.03791548716089
30
0
41
1
10
15.8432579003004
20
2.05652393654725
30
0
41
1
10
15.8684220714071
20
2.06301531986656
30
0
41
1
10
15.9183705580161
20
2.07653406464382
30
0
41
1
10
15.943189973784
20
2.08356986040877
30
0
41
1
10
16.0664735091939
20
2.12018692663588
30
0
41
1
10
16.1625041037626
20
2.15408283043223
30
0
41
1
10
16.3018129105984
20
2.21291632499654
30
0
41
1
10
16.3474582222049
20
2.23385913771906
30
0
41
1
10
16.4146223207369
20
2.26739951798461
30
0
41
1
10
16.4367929632454
20
2.27893391448302
30
0
41
1
10
16.4806790137277
20
2.30273119497343
30
0
41
1
10
16.5023766930332
20
2.31498676190518
30
0
41
1
10
16.6088754173029
20
2.37763105455807
30
0
41
1
10
16.6883353128548
20
2.43249024572501
30
0
41
1
10
16.761914468843
20
2.49158536192115
30
0
0
SPLINE
5
ED
100
AcDbEntity
8
1
62
256
6
ByLayer
370
18
48
1
60
0
100
AcDbSpline
70
4
71
3
72
27
73
23
40
0
40
0
40
0
40
0
40
0.0716794227354604
40
0.0716794227354604
40
0.137988035397214
40
0.171142341728091
40
0.171142341728091
40
0.204296648058967
40
0.204296648058967
40
0.336913873382477
40
0.336913873382477
40
0.403222486044232
40
0.403222486044232
40
0.469531098705987
40
0.469531098705987
40
0.602148324029498
40
0.602148324029498
40
0.66845693669125
40
0.66845693669125
40
0.734765549353002
40
0.734765549353002
40
1
40
1
40
1
40
1
41
1
10
16.1455839144951
20
-3.91223468875336
30
0
41
1
10
16.1204891317524
20
-3.92366482390565
30
0
41
1
10
16.0946062462999
20
-3.93392789677341
30
0
41
1
10
16.0431527395392
20
-3.95149770224924
30
0
41
1
10
16.0049769194627
20
-3.96270284799223
30
0
41
1
10
15.9650415789273
20
-3.97176943473019
30
0
41
1
10
15.9380108629653
20
-3.97734410037552
30
0
41
1
10
15.9242852562645
20
-3.97989724625921
30
0
41
1
10
15.854843314105
20
-3.99146626242882
30
0
41
1
10
15.7965191144122
20
-3.99693258733342
30
0
41
1
10
15.7043029035461
20
-4.00006401270298
30
0
41
1
10
15.6727747200575
20
-4.00026299820289
30
0
41
1
10
15.6080305961944
20
-3.99907462308016
30
0
41
1
10
15.5747777919553
20
-3.99768376428841
30
0
41
1
10
15.4727908596419
20
-3.99132735936598
30
0
41
1
10
15.4017284358023
20
-3.98418248382825
30
0
41
1
10
15.2900354950422
20
-3.96994318084506
30
0
41
1
10
15.2519544025446
20
-3.96460975262545
30
0
41
1
10
15.1740086152941
20
-3.95290966722194
30
0
41
1
10
15.1342053235439
20
-3.94655155076254
30
0
41
1
10
14.9317211568202
20
-3.9127499383915
30
0
41
1
10
14.7578455465825
20
-3.87923784919602
30
0
41
1
10
14.5712864616565
20
-3.84398874310926
30
0
0
SPLINE
5
EE
100
AcDbEntity
8
1
62
256
6
ByLayer
370
18
48
1
60
0
100
AcDbSpline
70
4
71
3
72
8
73
4
40
0
40
0
40
0
40
0
40
1
40
1
40
1
40
1
41
1
10
14.5712864616565
20
-3.84398874310924
30
0
41
1
10
14.5528555582684
20
-3.84050634572796
30
0
41
1
10
14.5353562847034
20
-3.83664715899391
30
0
41
1
10
14.519156381659
20
-3.83223997339502
30
0
0
SPLINE
5
EF
100
AcDbEntity
8
1
62
256
6
ByLayer
370
18
48
1
60
0
100
AcDbSpline
70
4
71
3
72
51
73
47
40
0
40
0
40
0
40
0
40
0.0312500000000083
40
0.0312500000000083
40
0.0390625000000096
40
0.0390625000000096
40
0.046875000000011
40
0.046875000000011
40
0.0625000000000114
40
0.0625000000000114
40
0.0781250000000119
40
0.0781250000000119
40
0.0937500000000124
40
0.109375000000013
40
0.109375000000013
40
0.117187500000013
40
0.117187500000013
40
0.125000000000014
40
0.125000000000014
40
0.156250000000013
40
0.156250000000013
40
0.171875000000013
40
0.171875000000013
40
0.187500000000012
40
0.187500000000012
40
0.218750000000012
40
0.218750000000012
40
0.250000000000011
40
0.250000000000011
40
0.281250000000011
40
0.281250000000011
40
0.31250000000001
40
0.31250000000001
40
0.375000000000009
40
0.375000000000009
40
0.437500000000009
40
0.437500000000009
40
0.500000000000008
40
0.500000000000008
40
0.625000000000006
40
0.625000000000006
40
0.750000000000004
40
0.750000000000004
40
0.875000000000002
40
0.875000000000002
40
1
40
1
40
1
40
1
41
1
10
14.519156381659
20
-3.83223997339499
30
0
41
1
10
14.4858101836036
20
-3.82316813614724
30
0
41
1
10
14.4554611524555
20
-3.81305720798741
30
0
41
1
10
14.4226377324935
20
-3.79852907383852
30
0
41
1
10
14.4163319914942
20
-3.79552755627364
30
0
41
1
10
14.4042885645186
20
-3.78931108829579
30
0
41
1
10
14.3985399305485
20
-3.78608763992074
30
0
41
1
10
14.3824461985774
20
-3.77619899926341
30
0
41
1
10
14.3731770644574
20
-3.76928224699989
30
0
41
1
10
14.357806111244
20
-3.75471827578434
30
0
41
1
10
14.3517027638778
20
-3.74706932756129
30
0
41
1
10
14.3429731639669
20
-3.73094973458834
30
0
41
1
10
14.3379610416178
20
-3.71445121855646
30
0
41
1
10
14.339915277741
20
-3.69719256350439
30
0
41
1
10
14.3438474788279
20
-3.6839624034051
30
0
41
1
10
14.3455784386638
20
-3.67949007057081
30
0
41
1
10
14.3497728283811
20
-3.6705795051848
30
0
41
1
10
14.3522372004021
20
-3.66612923669266
30
0
41
1
10
14.3662343855214
20
-3.643895075053
30
0
41
1
10
14.3827277852654
20
-3.62615905991899
30
0
41
1
10
14.4132767338735
20
-3.59953453161208
30
0
41
1
10
14.4243566774384
20
-3.59073222091959
30
0
41
1
10
14.4478235030408
20
-3.57336754314116
30
0
41
1
10
14.4602385789988
20
-3.56478179634678
30
0
41
1
10
14.4991904872239
20
-3.53925470956452
30
0
41
1
10
14.5274172954668
20
-3.52254048439045
30
0
41
1
10
14.5872056933546
20
-3.48951642008043
30
0
41
1
10
14.6188498288533
20
-3.47317667546605
30
0
41
1
10
14.6839886227582
20
-3.44114693710551
30
0
41
1
10
14.7175695167875
20
-3.42540915700366
30
0
41
1
10
14.7863052976463
20
-3.39434200446186
30
0
41
1
10
14.8214629499042
20
-3.37901358736627
30
0
41
1
10
14.9288535199238
20
-3.33350007307982
30
0
41
1
10
15.0031064955585
20
-3.30373403651367
30
0
41
1
10
15.1540405096205
20
-3.24542376995819
30
0
41
1
10
15.2308634180111
20
-3.21682777799216
30
0
41
1
10
15.3865160540063
20
-3.16040166297475
30
0
41
1
10
15.4653517371904
20
-3.13257473231008
30
0
41
1
10
15.7042304972558
20
-3.04993299409247
30
0
41
1
10
15.8667545753372
20
-2.99589645633523
30
0
41
1
10
16.1948024826079
20
-2.88949747976147
30
0
41
1
10
16.360491685228
20
-2.83709776367473
30
0
41
1
10
16.6943214365961
20
-2.73332831052531
30
0
41
1
10
16.8624356317479
20
-2.6819755756033
30
0
41
1
10
17.200135838316
20
-2.58011967519553
30
0
41
1
10
17.3697893879442
20
-2.52959909047985
30
0
41
1
10
17.5400979999627
20
-2.47937313447679
30
0
0
SPLINE
5
F0
100
AcDbEntity
8
1
62
256
6
ByLayer
370
18
48
1
60
0
100
AcDbSpline
70
4
71
3
72
8
73
4
40
0
40
0
40
0
40
0
40
1
40
1
40
1
40
1
41
1
10
17.7971206403095
20
-1.96093064935903
30
0
41
1
10
17.9881278447936
20
-2.05172001440707
30
0
41
1
10
18.1790322815441
20
-2.14046092399002
30
0
41
1
10
18.3699641665358
20
-2.2269525999989
30
0
0
SPLINE
5
F1
100
AcDbEntity
8
1
62
256
6
ByLayer
370
18
48
1
60
0
100
AcDbSpline
70
4
71
3
72
8
73
4
40
0
40
0
40
0
40
0
40
1
40
1
40
1
40
1
41
1
10
17.7971206411694
20
-1.96093064963176
30
0
41
1
10
17.7791590472303
20
-1.95239995449521
30
0
41
1
10
17.7611881662385
20
-1.94386643054705
30
0
41
1
10
17.7432081977232
20
-1.93533038107174
30
0
0
SPLINE
5
F2
100
AcDbEntity
8
1
62
256
6
ByLayer
370
18
48
1
60
0
100
AcDbSpline
70
4
71
3
72
26
73
22
40
0
40
0
40
0
40
0
40
0.250000000000013
40
0.250000000000013
40
0.312500000000012
40
0.312500000000012
40
0.375000000000012
40
0.375000000000012
40
0.500000000000007
40
0.500000000000007
40
0.562500000000006
40
0.562500000000006
40
0.625000000000005
40
0.625000000000005
40
0.750000000000003
40
0.750000000000003
40
0.875000000000002
40
0.875000000000002
40
0.937500000000001
40
0.937500000000001
40
1
40
1
40
1
40
1
41
1
10
17.7432081977248
20
-1.93533038107608
30
0
41
1
10
17.7105512784978
20
-1.88117508511809
30
0
41
1
10
17.6854674457822
20
-1.82407923133377
30
0
41
1
10
17.6654345893147
20
-1.74822778918031
30
0
41
1
10
17.6619955439031
20
-1.73280639978353
30
0
41
1
10
17.6563544143164
20
-1.70158590642518
30
0
41
1
10
17.6541782264486
20
-1.68594007693014
30
0
41
1
10
17.649566054607
20
-1.63889620762765
30
0
41
1
10
17.6490426180527
20
-1.60739175284101
30
0
41
1
10
17.6520856633266
20
-1.55992429681209
30
0
41
1
10
17.6537389882354
20
-1.5440666905829
30
0
41
1
10
17.6583353370549
20
-1.5122816816473
30
0
41
1
10
17.6612859722849
20
-1.49632109326157
30
0
41
1
10
17.6720526940112
20
-1.44855090723385
30
0
41
1
10
17.6816458501983
20
-1.41738288982356
30
0
41
1
10
17.7051919150745
20
-1.35628616640713
30
0
41
1
10
17.7191466974422
20
-1.32635800065626
30
0
41
1
10
17.7431157847836
20
-1.28234257346568
30
0
41
1
10
17.7516202436148
20
-1.26780915289757
30
0
41
1
10
17.7694677510807
20
-1.23924956657274
30
0
41
1
10
17.7788256600236
20
-1.22519424885402
30
0
41
1
10
17.7885939484843
20
-1.21135230142414
30
0
0
SPLINE
5
F3
100
AcDbEntity
8
1
62
256
6
ByLayer
370
18
48
1
60
0
100
AcDbSpline
70
4
71
3
72
8
73
4
40
0
40
0
40
0
40
0
40
1
40
1
40
1
40
1
41
1
10
17.8628383432962
20
-0.953471752817819
30
0
41
0.999776480261313
10
17.9915405838827
20
-1.00394366617951
30
0
41
0.999776480261313
10
18.1208676292947
20
-1.0566054224859
30
0
41
1
10
18.2507327580899
20
-1.11142170891094
30
0
0
SPLINE
5
F4
100
AcDbEntity
8
1
62
256
6
ByLayer
370
18
48
1
60
0
100
AcDbSpline
70
4
71
3
72
8
73
4
40
0
40
0
40
0
40
0
40
1
40
1
40
1
40
1
41
1
10
17.9033028821836
20
-0.303063340828828
30
0
41
1
10
18.1205570371979
20
-0.323118931734115
30
0
41
1
10
18.3402392241022
20
-0.350484144746872
30
0
41
1
10
18.5623780364901
20
-0.385245061257024
30
0
0
SPLINE
5
F5
100
AcDbEntity
8
1
62
256
6
ByLayer
370
18
48
1
60
0
100
AcDbSpline
70
4
71
3
72
16
73
12
40
0
40
0
40
0
40
0
40
0.250000000000001
40
0.250000000000001
40
0.500000000000002
40
0.500000000000002
40
0.625000000000001
40
0.625000000000001
40
0.750000000000001
40
0.750000000000001
40
1
40
1
40
1
40
1
41
1
10
17.8628383432962
20
-0.953471752817762
30
0
41
1
10
17.850352601983
20
-0.900099641956672
30
0
41
1
10
17.8417809320203
20
-0.846277998859705
30
0
41
1
10
17.832556574627
20
-0.737720264702688
30
0
41
1
10
17.8319029726465
20
-0.682984252389758
30
0
41
1
10
17.8370896821748
20
-0.600171275229542
30
0
41
1
10
17.8398683490031
20
-0.572334299692983
30
0
41
1
10
17.8474162249826
20
-0.517236208023775
30
0
41
1
10
17.8521790494919
20
-0.489925971071699
30
0
41
1
10
17.8693141815432
20
-0.408684197286192
30
0
41
1
10
17.8845263391966
20
-0.355439861248783
30
0
41
1
10
17.9033028821836
20
-0.303063340828999
30
0
0
SPLINE
5
F6
100
AcDbEntity
8
1
62
256
6
ByLayer
370
18
48
1
60
0
100
AcDbSpline
70
4
71
3
72
8
73
4
40
0
40
0
40
0
40
0
40
1
40
1
40
1
40
1
41
1
10
26.6851566696648
20
-3.12592923812855
30
0
41
1
10
26.7013121101869
20
-3.24797750232494
30
0
41
1
10
26.7178074965249
20
-3.36976103671316
30
0
41
1
10
26.7346650884619
20
-3.4912625130319
30
0
0
SPLINE
5
F7
100
AcDbEntity
8
1
62
256
6
ByLayer
370
13
48
1
60
0
100
AcDbSpline
70
4
71
3
72
11
73
7
40
0
40
0
40
0
40
0
40
0.348711027134749
40
0.60922661628085
40
0.7394844108539
40
1
40
1
40
1
40
1
41
1
10
26.6851566710138
20
-3.12592923738671
30
0
41
1
10
25.8151044473425
20
-2.95595635682187
30
0
41
1
10
24.2950522236714
20
-2.54734506841174
30
0
41
1
10
22.4500000000001
20
-1.85498970042454
30
0
41
1
10
20.8250000000001
20
-1.16809187515594
30
0
41
1
10
19.8500000000001
20
-0.722161421039516
30
0
41
1
10
19.2000000000001
20
-0.420148774481362
30
0
0
SPLINE
5
F8
100
AcDbEntity
8
1
62
256
6
ByLayer
370
18
48
1
60
0
100
AcDbSpline
70
4
71
3
72
8
73
4
40
0
40
0
40
0
40
0
40
1
40
1
40
1
40
1
41
1
10
26.8872611848302
20
-3.6366495671366
30
0
41
1
10
26.87362546535
20
-3.70607795732391
30
0
41
1
10
26.8588259443698
20
-3.77655985730371
30
0
41
1
10
26.8424969573501
20
-3.84841726334383
30
0
0
SPLINE
5
F9
100
AcDbEntity
8
1
62
256
6
ByLayer
370
18
48
1
60
0
100
AcDbSpline
70
4
71
3
72
8
73
4
40
0
40
0
40
0
40
0
40
1
40
1
40
1
40
1
41
1
10
26.8872611848205
20
-3.63664956713669
30
0
41
1
10
26.836188341341
20
-3.59064750081001
30
0
41
1
10
26.7853237923115
20
-3.54217546824859
30
0
41
1
10
26.7346650884612
20
-3.49126251303787
30
0
0
SPLINE
5
FA
100
AcDbEntity
8
1
62
256
6
ByLayer
370
18
48
1
60
0
100
AcDbSpline
70
4
71
3
72
35
73
31
40
0
40
0
40
0
40
0
40
0.125000000000003
40
0.125000000000003
40
0.187500000000004
40
0.187500000000004
40
0.218750000000004
40
0.218750000000004
40
0.250000000000004
40
0.250000000000004
40
0.375000000000006
40
0.375000000000006
40
0.437500000000005
40
0.437500000000005
40
0.500000000000005
40
0.562500000000004
40
0.562500000000004
40
0.625000000000003
40
0.625000000000003
40
0.687500000000003
40
0.687500000000003
40
0.750000000000002
40
0.750000000000002
40
0.812500000000002
40
0.812500000000002
40
0.875000000000001
40
0.875000000000001
40
0.937500000000001
40
0.937500000000001
40
1
40
1
40
1
40
1
41
1
10
26.7346650884447
20
-3.49126251303599
30
0
41
1
10
26.420587619185
20
-3.43314273851752
30
0
41
1
10
26.106452358389
20
-3.36601257634598
30
0
41
1
10
25.6347758202763
20
-3.25221239176773
30
0
41
1
10
25.4774723152326
20
-3.21208266984658
30
0
41
1
10
25.2413447168177
20
-3.14858471988032
30
0
41
1
10
25.162580887279
20
-3.12685934942073
30
0
41
1
10
25.0051774256172
20
-3.08236899369371
30
0
41
1
10
24.9265245803862
20
-3.0596014119887
30
0
41
1
10
24.533471051031
20
-2.94319528264231
30
0
41
1
10
24.2197006413672
20
-2.84188062232474
30
0
41
1
10
23.7494176917457
20
-2.67820700621476
30
0
41
1
10
23.5927138126727
20
-2.62170777424893
30
0
41
1
10
23.2792229026019
20
-2.50528984518942
30
0
41
1
10
22.9656589725605
20
-2.38541708343468
30
0
41
1
10
22.6517071171474
20
-2.25890311823329
30
0
41
1
10
22.3374321880712
20
-2.12920317359209
30
0
41
1
10
22.1800120514618
20
-2.06270634818628
30
0
41
1
10
21.865744651019
20
-1.92711646761231
30
0
41
1
10
21.7088082542877
20
-1.85799282397028
30
0
41
1
10
21.3952145010657
20
-1.71724645173703
30
0
41
1
10
21.2385730073998
20
-1.64557243304145
30
0
41
1
10
20.9253711033124
20
-1.50012979495855
30
0
41
1
10
20.7687852741456
20
-1.4264443087354
30
0
41
1
10
20.455490190555
20
-1.27749641270631
30
0
41
1
10
20.298785433168
20
-1.20222290108151
30
0
41
1
10
19.9852194501046
20
-1.05003533768058
30
0
41
1
10
19.8283634101865
20
-0.97310117794683
30
0
41
1
10
19.5144101603216
20
-0.817641633440672
30
0
41
1
10
19.3573164863594
20
-0.739093923475338
30
0
41
1
10
19.2000000000001
20
-0.660023900606319
30
0
0
SPLINE
5
FB
100
AcDbEntity
8
1
62
256
6
ByLayer
370
18
48
1
60
0
100
AcDbSpline
70
4
71
3
72
8
73
4
40
0
40
0
40
0
40
0
40
1
40
1
40
1
40
1
41
1
10
19.2000000000001
20
-0.660023900606319
30
0
41
1
10
18.9866642770414
20
-0.570612991415345
30
0
41
1
10
18.7740725708776
20
-0.479173385384598
30
0
41
1
10
18.5623934414767
20
-0.385245473164872
30
0
0
SPLINE
5
FC
100
AcDbEntity
8
1
62
256
6
ByLayer
370
18
48
1
60
0
100
AcDbSpline
70
4
71
3
72
23
73
19
40
0
40
0
40
0
40
0
40
0.062202603957779
40
0.124441377337388
40
0.18671710993394
40
0.249030577646973
40
0.311382542720182
40
0.373773753974892
40
0.436204947037259
40
0.49867684455944
40
0.561190156434724
40
0.623745580006871
40
0.686343800273617
40
0.748985490084598
40
0.811671310333766
40
0.874401910305757
40
0.937177930349737
40
1
40
1
40
1
40
1
41
1
10
18.5623934435523
20
-0.385245468469634
30
0
41
1
10
18.5556961739846
20
-0.400178913589912
30
0
41
1
10
18.5422977405368
20
-0.430054487294598
30
0
41
1
10
18.5223093325522
20
-0.474952419792771
30
0
41
1
10
18.5023935925881
20
-0.519926912952513
30
0
41
1
10
18.482558783327
20
-0.56498202711731
30
0
41
1
10
18.4628026866607
20
-0.610115165772157
30
0
41
1
10
18.4431258958281
20
-0.655325539610203
30
0
41
1
10
18.4235282502325
20
-0.700611896317952
30
0
41
1
10
18.4040097928413
20
-0.745973129743959
30
0
41
1
10
18.3845705087565
20
-0.79140811484757
30
0
41
1
10
18.3652104126639
20
-0.836915757681993
30
0
41
1
10
18.3459294605738
20
-0.882494960107437
30
0
41
1
10
18.3267278155435
20
-0.928144710472708
30
0
41
1
10
18.3076048720482
20
-0.973863755380648
30
0
41
1
10
18.2885628959704
20
-1.01965182342045
30
0
41
1
10
18.2695934260024
20
-1.06550505635107
30
0
41
1
10
18.2570211839001
20
-1.09611241740365
30
0
41
1
10
18.2507327580894
20
-1.11142170891068
30
0
0
SPLINE
5
FD
100
AcDbEntity
8
1
62
256
6
ByLayer
370
18
48
1
60
0
100
AcDbSpline
70
4
71
3
72
21
73
17
40
0
40
0
40
0
40
0
40
0.0056215190930775
40
0.106866923964845
40
0.157489626400728
40
0.208112328836612
40
0.258735031272495
40
0.309357733708379
40
0.359980436144263
40
0.410603138580146
40
0.613093948323681
40
0.663716650759564
40
0.714339353195448
40
0.815584758067215
40
0.916830162938982
40
1
40
1
40
1
40
1
41
1
10
18.2507327580894
20
-1.11142170891068
30
0
41
1
10
18.2667666184267
20
-1.11952687296952
30
0
41
1
10
18.571577522698
20
-1.27345769235015
30
0
41
1
10
19.0208297586382
20
-1.49598027417861
30
0
41
1
10
19.5985351584047
20
-1.77128625058595
30
0
41
1
10
20.0318422702851
20
-1.97150967616005
30
0
41
1
10
20.4651548242688
20
-2.16484286656652
30
0
41
1
10
20.8984612553812
20
-2.35073331891314
30
0
41
1
10
21.3317484672992
20
-2.52848737052386
30
0
41
1
10
22.1983702689442
20
-2.86608942791469
30
0
41
1
10
23.0655512070122
20
-3.15660731964704
30
0
41
1
10
23.9352001348402
20
-3.39057998027755
30
0
41
1
10
24.5157112402574
20
-3.53072734533902
30
0
41
1
10
25.2429761109397
20
-3.67535945953196
30
0
41
1
10
26.0668777337057
20
-3.79010085650307
30
0
41
1
10
26.601047135351
20
-3.83458018222697
30
0
41
1
10
26.8424969570682
20
-3.848417263399
30
0
0
SPLINE
5
FE
100
AcDbEntity
8
1
62
256
6
ByLayer
370
18
48
1
60
0
100
AcDbSpline
70
4
71
3
72
30
73
26
40
0
40
0
40
0
40
0
40
0.125000000000003
40
0.125000000000003
40
0.187500000000006
40
0.187500000000006
40
0.250000000000009
40
0.250000000000009
40
0.375000000000012
40
0.375000000000012
40
0.437500000000013
40
0.468750000000013
40
0.468750000000013
40
0.500000000000013
40
0.500000000000013
40
0.62500000000001
40
0.62500000000001
40
0.687500000000008
40
0.687500000000008
40
0.750000000000007
40
0.812500000000005
40
0.812500000000005
40
0.875000000000003
40
0.875000000000003
40
1
40
1
40
1
40
1
41
1
10
19.2000000000001
20
-1.89497758870451
30
0
41
1
10
19.5104506297627
20
-2.03926156898984
30
0
41
1
10
19.820538933133
20
-2.17825450545814
30
0
41
1
10
20.2859339998615
20
-2.37764038434946
30
0
41
1
10
20.4411948358736
20
-2.44262149049592
30
0
41
1
10
20.751347571513
20
-2.56908397137613
30
0
41
1
10
20.9062716187374
20
-2.6305759267824
30
0
41
1
10
21.3708066488527
20
-2.80949590494242
30
0
41
1
10
21.680186001149
20
-2.92136320962123
30
0
41
1
10
22.1446220419037
20
-3.0771261651015
30
0
41
1
10
22.3769297131738
20
-3.15200138629007
30
0
41
1
10
22.6095189854956
20
-3.22219156148566
30
0
41
1
10
22.7646576483882
20
-3.26792272611951
30
0
41
1
10
22.8422887310406
20
-3.29026334685102
30
0
41
1
10
23.2303362776319
20
-3.39916051934526
30
0
41
1
10
23.5404741172391
20
-3.4773080946255
30
0
41
1
10
24.0060003988584
20
-3.58030396658924
30
0
41
1
10
24.1612544787132
20
-3.61227437243608
30
0
41
1
10
24.4715244965407
20
-3.67129453484697
30
0
41
1
10
24.7816700130105
20
-3.72541666451747
30
0
41
1
10
25.091858227714
20
-3.76959023248577
30
0
41
1
10
25.4022198949509
20
-3.80870153698004
30
0
41
1
10
25.5572893865506
20
-3.82570061112037
30
0
41
1
10
26.0223096419276
20
-3.86895169874026
30
0
41
1
10
26.3321100620783
20
-3.8874636897441
30
0
41
1
10
26.6423272954319
20
-3.89545684209509
30
0
0
SPLINE
5
FF
100
AcDbEntity
8
1
62
256
6
ByLayer
370
18
48
1
60
0
100
AcDbSpline
70
4
71
3
72
21
73
17
40
0
40
0
40
0
40
0
40
0.019919919014384
40
0.121252081846128
40
0.171918163261999
40
0.222584244677871
40
0.273250326093743
40
0.323916407509615
40
0.374582488925487
40
0.425248570341358
40
0.627912896004846
40
0.678578977420717
40
0.729245058836589
40
0.830577221668333
40
0.931909384500076
40
1
40
1
40
1
40
1
41
1
10
18.1285770718238
20
-1.35038584773258
30
0
41
1
10
18.1853430214968
20
-1.37869782867566
30
0
41
1
10
18.5308845808276
20
-1.55029797600037
30
0
41
1
10
19.0208816488379
20
-1.78686864254072
30
0
41
1
10
19.5985794903995
20
-2.05282316046672
30
0
41
1
10
20.0318771697524
20
-2.24511108922903
30
0
41
1
10
20.4651887351535
20
-2.42961569155071
30
0
41
1
10
20.8985039738048
20
-2.60570064149743
30
0
41
1
10
21.3317953156403
20
-2.7726369714731
30
0
41
1
10
22.1984110499106
20
-3.08705420343716
30
0
41
1
10
23.0656100716021
20
-3.35058704823498
30
0
41
1
10
23.9352370281611
20
-3.55395615885777
30
0
41
1
10
24.5157464164248
20
-3.67298357263093
30
0
41
1
10
25.2430178335636
20
-3.78991558949639
30
0
41
1
10
26.023280446619
20
-3.86752225032939
30
0
41
1
10
26.5134178646728
20
-3.89037913110482
30
0
41
1
10
26.7107460413162
20
-3.89530976292113
30
0
0
SPLINE
5
100
100
AcDbEntity
8
1
62
256
6
ByLayer
370
18
48
1
60
0
100
AcDbSpline
70
4
71
2
72
6
73
3
40
0
40
0
40
0
40
1
40
1
40
1
41
0.500000015374793
10
19.1924145433269
20
-1.89748750916706
30
0
41
0.499999984625207
10
19.1962075192769
20
-1.89622321012093
30
0
41
0.500000015374793
10
19.2000000000001
20
-1.89495838891609
30
0
0
SPLINE
5
101
100
AcDbEntity
8
1
62
256
6
ByLayer
370
18
48
1
60
0
100
AcDbSpline
70
4
71
3
72
8
73
4
40
0
40
0
40
0
40
0
40
1
40
1
40
1
40
1
41
1
10
19.1382330864243
20
-1.9164516986732
30
0
41
1
10
19.1562510953582
20
-1.909844333156
30
0
41
1
10
19.174311406616
20
-1.90352176268658
30
0
41
1
10
19.1924145433269
20
-1.89748750916704
30
0
0
SPLINE
5
102
100
AcDbEntity
8
1
62
256
6
ByLayer
370
18
48
1
60
0
100
AcDbSpline
70
4
71
3
72
8
73
4
40
0
40
0
40
0
40
0
40
1
40
1
40
1
40
1
41
1
10
18.3699641665232
20
-2.22695259999293
30
0
41
1
10
18.3690221109319
20
-2.2253588014012
30
0
41
1
10
18.3680789028342
20
-2.22376560227229
30
0
41
1
10
18.3671345387971
20
-2.2221730054743
30
0
0
SPLINE
5
103
100
AcDbEntity
8
1
62
256
6
ByLayer
370
18
48
1
60
0
100
AcDbSpline
70
4
71
3
72
16
73
12
40
0
40
0
40
0
40
0
40
0.249999999999999
40
0.249999999999999
40
0.499999999999999
40
0.499999999999999
40
0.749999999999998
40
0.749999999999998
40
0.874999999999999
40
0.874999999999999
40
1
40
1
40
1
40
1
41
1
10
19.1382330864212
20
-1.91645169867098
30
0
41
1
10
19.1418969536837
20
-1.91275458284926
30
0
41
1
10
19.1456476196012
20
-1.9091260295084
30
0
41
1
10
19.1534634430963
20
-1.90215370146794
30
0
41
1
10
19.1575277248663
20
-1.89879165213404
30
0
41
1
10
19.1662650237589
20
-1.89280714113443
30
0
41
1
10
19.1709937532286
20
-1.89007780648856
30
0
41
1
10
19.1789995239474
20
-1.88795484400165
30
0
41
1
10
19.1817738816842
20
-1.8876320742082
30
0
41
1
10
19.1873044596974
20
-1.8880785406279
30
0
41
1
10
19.1899498336648
20
-1.88883796813855
30
0
41
1
10
19.1924145433224
20
-1.88998129922808
30
0
0
SPLINE
5
104
100
AcDbEntity
8
1
62
256
6
ByLayer
370
18
48
1
60
0
100
AcDbSpline
70
4
71
3
72
8
73
4
40
0
40
0
40
0
40
0
40
1
40
1
40
1
40
1
41
1
10
19.1924145433269
20
-1.88998129923019
30
0
41
1
10
19.1949430890872
20
-1.89115424265239
30
0
41
1
10
19.1974715746564
20
-1.89232695037938
30
0
41
1
10
19.1999999999995
20
-1.89349942132995
30
0
0
SPLINE
5
105
100
AcDbEntity
8
1
62
256
6
ByLayer
370
18
48
1
60
0
100
AcDbSpline
70
4
71
1
72
4
73
2
40
0
40
0
40
1
40
1
41
1
10
19.1999998672898
20
-1.89349942193311
30
0
41
1
10
19.2000001327102
20
-1.89497758808611
30
0
0
SPLINE
5
106
100
AcDbEntity
8
1
62
256
6
ByLayer
370
18
48
1
60
0
100
AcDbSpline
70
4
71
3
72
41
73
37
40
0
40
0
40
0
40
0
40
0.0441306342007689
40
0.0441306342007689
40
0.0882612684015379
40
0.0882612684015379
40
0.176522536803076
40
0.176522536803076
40
0.264783805204614
40
0.264783805204614
40
0.286849122304997
40
0.286849122304997
40
0.308914439405381
40
0.353045073606148
40
0.353045073606148
40
0.441306342007682
40
0.441306342007682
40
0.529567610409216
40
0.529567610409216
40
0.551632927509599
40
0.551632927509599
40
0.573698244609982
40
0.617828878810746
40
0.617828878810746
40
0.706090147212274
40
0.706090147212274
40
0.794351415613802
40
0.794351415613802
40
0.838482049814566
40
0.860547366914948
40
0.860547366914948
40
0.88261268401533
40
0.88261268401533
40
0.970873952416858
40
0.970873952416858
40
1
40
1
40
1
40
1
41
1
10
16.761914468843
20
2.49158536192115
30
0
41
1
10
16.7648706545272
20
2.53591102091926
30
0
41
1
10
16.7661841420412
20
2.57926324713756
30
0
41
1
10
16.7661576677378
20
2.66410436691495
30
0
41
1
10
16.7648146811643
20
2.70559296451216
30
0
41
1
10
16.75743807251
20
2.82734753378372
30
0
41
1
10
16.7480976046109
20
2.90490977524553
30
0
41
1
10
16.7225317731122
20
3.0530432716721
30
0
41
1
10
16.7062850448635
20
3.12361252677132
30
0
41
1
10
16.682168838507
20
3.20745267349866
30
0
41
1
10
16.6771501732959
20
3.22400904304607
30
0
41
1
10
16.6667863837897
20
3.25652498543897
30
0
41
1
10
16.6507339493292
20
3.30446409066087
30
0
41
1
10
16.6332120865548
20
3.34994314512557
30
0
41
1
10
16.5962922749461
20
3.43771246580565
30
0
41
1
10
16.5691901425369
20
3.49198009060169
30
0
41
1
10
16.5100897724053
20
3.59232384373413
30
0
41
1
10
16.4780892084365
20
3.63839814026662
30
0
41
1
10
16.4348383476419
20
3.69093835488056
30
0
41
1
10
16.4260148246685
20
3.70120422476941
30
0
41
1
10
16.4080893886231
20
3.72116837147877
30
0
41
1
10
16.3807902809509
20
3.75025907899243
30
0
41
1
10
16.3522447138639
20
3.77683165786993
30
0
41
1
10
16.2934332083201
20
3.82673116946089
30
0
41
1
10
16.2519388446202
20
3.85567360019471
30
0
41
1
10
16.1638865986086
20
3.90539344047613
30
0
41
1
10
16.1173289673563
20
3.92616877958241
30
0
41
1
10
16.0431527395393
20
3.95149770224913
30
0
41
1
10
16.0049769194628
20
3.96270284799212
30
0
41
1
10
15.9650415789274
20
3.97176943473011
30
0
41
1
10
15.9380108629654
20
3.9773441003754
30
0
41
1
10
15.9242852562645
20
3.9798972462591
30
0
41
1
10
15.854843314105
20
3.9914662624287
30
0
41
1
10
15.7965191144123
20
3.9969325873333
30
0
41
1
10
15.7147541932119
20
3.99970911378333
30
0
41
1
10
15.69412286705
20
4.00003002276119
30
0
41
1
10
15.673132013335
20
3.99999778005676
30
0
0
SPLINE
5
107
100
AcDbEntity
8
1
62
256
6
ByLayer
370
18
48
1
60
0
100
AcDbSpline
70
4
71
3
72
9
73
5
40
0
40
0
40
0
40
0
40
0.866556953625399
40
1
40
1
40
1
40
1
41
1
10
19.2
20
-2.52021904365572
30
0
41
1
10
19.5371407078146
20
-2.48675091577203
30
0
41
1
10
19.9265770760496
20
-2.44988630099678
30
0
41
1
10
20.3161959748617
20
-2.41484361136219
30
0
41
1
10
20.3681941557697
20
-2.41020227930502
30
0
0
SPLINE
5
108
100
AcDbEntity
8
1
62
256
6
ByLayer
370
18
48
1
60
0
100
AcDbSpline
70
4
71
3
72
17
73
13
40
0
40
0
40
0
40
0
40
0.0545480199848183
40
0.175462434824416
40
0.298809854885533
40
0.409559879337279
40
0.472816313531416
40
0.527970092700886
40
0.599198254794095
40
0.701568110166251
40
0.835173222230769
40
1
40
1
40
1
40
1
41
1
10
24.3723704967161
20
2.14100661228687
30
0
41
1
10
24.2893627155581
20
2.14258935558669
30
0
41
1
10
24.0161743414261
20
2.14945462898186
30
0
41
1
10
23.4910444511706
20
2.16625529762246
30
0
41
1
10
22.8736403434128
20
2.21335250650586
30
0
41
1
10
22.3582509387668
20
2.2511549752044
30
0
41
1
10
21.9599628056506
20
2.28071964655885
30
0
41
1
10
21.6300158226034
20
2.30550048525612
30
0
41
1
10
21.2314745758669
20
2.33642317047176
30
0
41
1
10
20.6978375757484
20
2.38059813528031
30
0
41
1
10
20.0026881296496
20
2.44263707937961
30
0
41
1
10
19.4854805341073
20
2.49194118123373
30
0
41
1
10
19.2
20
2.5202190436556
30
0
0
LINE
5
77
100
AcDbEntity
8
80
62
256
6
ByLayer
370
18
48
1
60
0
100
AcDbLine
10
0
20
0
30
0
11
-5
21
0
31
0
39
0
210
0
220
0
230
1
0
LINE
5
78
100
AcDbEntity
8
4
62
256
6
ByLayer
370
18
48
0.05
60
0
100
AcDbLine
10
0
20
0
30
0
11
27
21
0
31
0
39
0
210
0
220
0
230
1
0
LINE
5
7A
100
AcDbEntity
8
81
62
256
6
ByLayer
370
18
48
1
60
0
100
AcDbLine
10
27
20
0
30
0
11
32
21
0
31
0
39
0
210
0
220
0
230
1
0
LINE
5
7B
100
AcDbEntity
8
SK4
62
256
6
ByLayer
370
18
48
0.05
60
0
100
AcDbLine
10
-36
20
0
30
0
11
27
21
0
31
0
39
0
210
0
220
0
230
1
0
LINE
5
7D
100
AcDbEntity
8
1
62
256
6
ByLayer
370
18
48
1
60
0
100
AcDbLine
10
0
20
4
30
0
11
0
21
0
31
0
39
0
210
0
220
0
230
1
0
LINE
5
7E
100
AcDbEntity
8
1
62
256
6
ByLayer
370
18
48
1
60
0
100
AcDbLine
10
0
20
0
30
0
11
0
21
-4
31
0
39
0
210
0
220
0
230
1
0
LINE
5
7F
100
AcDbEntity
8
1
62
256
6
ByLayer
370
18
48
1
60
0
100
AcDbLine
10
26.879562
20
3.886749
30
0
11
26.996662
21
3.770281
31
0
39
0
210
0
220
0
230
1
0
LINE
5
80
100
AcDbEntity
8
1
62
256
6
ByLayer
370
13
48
1
60
0
100
AcDbLine
10
24.547499
20
2.241519
30
0
11
26.548761
21
-0.141338
31
0
39
0
210
0
220
0
230
1
0
LINE
5
81
100
AcDbEntity
8
1
62
256
6
ByLayer
370
18
48
1
60
0
100
AcDbLine
10
26.89461
20
-0.080967
30
0
11
26.7306
21
-0.080406
31
0
39
0
210
0
220
0
230
1
0
LINE
5
82
100
AcDbEntity
8
1
62
256
6
ByLayer
370
18
48
1
60
0
100
AcDbLine
10
26.89461
20
-0.080967
30
0
11
26.996662
21
3.770281
31
0
39
0
210
0
220
0
230
1
0
LINE
5
83
100
AcDbEntity
8
1
62
256
6
ByLayer
370
18
48
1
60
0
100
AcDbLine
10
26.921487
20
-0.933292
30
0
11
26.996662
21
-3.770281
31
0
39
0
210
0
220
0
230
1
0
LINE
5
84
100
AcDbEntity
8
1
62
256
6
ByLayer
370
18
48
1
60
0
100
AcDbLine
10
26.879562
20
-3.886749
30
0
11
26.996662
21
-3.770281
31
0
39
0
210
0
220
0
230
1
0
LINE
5
85
100
AcDbEntity
8
1
62
256
6
ByLayer
370
18
48
1
60
0
100
AcDbLine
10
26.996662
20
-3.770281
30
0
11
26.8983
21
-3.634178
31
0
39
0
210
0
220
0
230
1
0
LINE
5
86
100
AcDbEntity
8
1
62
256
6
ByLayer
370
18
48
1
60
0
100
AcDbLine
10
19.2
20
-2.52022
30
0
11
19.2
21
-1.894973
31
0
39
0
210
0
220
0
230
1
0
LINE
5
87
100
AcDbEntity
8
1
62
256
6
ByLayer
370
13
48
1
60
0
100
AcDbLine
10
14.571286
20
-3.843989
30
0
11
17.612641
21
-2.457928
31
0
39
0
210
0
220
0
230
1
0
LINE
5
88
100
AcDbEntity
8
1
62
256
6
ByLayer
370
18
48
1
60
0
100
AcDbLine
10
26.826181
20
-0.883295
30
0
11
26.921487
21
-0.933292
31
0
39
0
210
0
220
0
230
1
0
LINE
5
89
100
AcDbEntity
8
1
62
256
6
ByLayer
370
18
48
1
60
0
100
AcDbLine
10
26.921487
20
-0.933292
30
0
11
26.58953
21
-0.655144
31
0
39
0
210
0
220
0
230
1
0
LINE
5
8A
100
AcDbEntity
8
1
62
256
6
ByLayer
370
13
48
1
60
0
100
AcDbLine
10
26.537764
20
-0.66949
30
0
11
26.537764
21
-0.611142
31
0
39
0
210
0
220
0
230
1
0
LINE
5
8B
100
AcDbEntity
8
1
62
256
6
ByLayer
370
18
48
1
60
0
100
AcDbLine
10
26.454018
20
-0.269371
30
0
11
24.396322
21
2.180681
31
0
39
0
210
0
220
0
230
1
0
LINE
5
8C
100
AcDbEntity
8
1
62
256
6
ByLayer
370
18
48
1
60
0
100
AcDbLine
10
26.8983
20
-3.634178
30
0
11
26.887261
21
-3.63665
31
0
39
0
210
0
220
0
230
1
0
LINE
5
8D
100
AcDbEntity
8
1
62
256
6
ByLayer
370
18
48
1
60
0
100
AcDbLine
10
26.8983
20
-3.634178
30
0
11
26.826181
21
-0.883295
31
0
39
0
210
0
220
0
230
1
0
LINE
5
8E
100
AcDbEntity
8
1
62
256
6
ByLayer
370
18
48
1
60
0
100
AcDbLine
10
26.537764
20
-0.66949
30
0
11
26.826181
21
-0.883295
31
0
39
0
210
0
220
0
230
1
0
LINE
5
8F
100
AcDbEntity
8
1
62
256
6
ByLayer
370
18
48
1
60
0
100
AcDbLine
10
25.969896
20
-0.042922
30
0
11
26.430692
21
-0.441914
31
0
39
0
210
0
220
0
230
1
0
LINE
5
90
100
AcDbEntity
8
1
62
256
6
ByLayer
370
13
48
1
60
0
100
AcDbLine
10
14.519156
20
-3.83224
30
0
11
17.385807
21
-2.525798
31
0
39
0
210
0
220
0
230
1
0
LINE
5
91
100
AcDbEntity
8
1
62
256
6
ByLayer
370
18
48
1
60
0
100
AcDbLine
10
19.2
20
2.52022
30
0
11
19.2
21
1.380457
31
0
39
0
210
0
220
0
230
1
0
LINE
5
92
100
AcDbEntity
8
1
62
256
6
ByLayer
370
18
48
1
60
0
100
AcDbLine
10
19.2
20
-0.420149
30
0
11
19.2
21
-0.257833
31
0
39
0
210
0
220
0
230
1
0
LINE
5
93
100
AcDbEntity
8
1
62
256
6
ByLayer
370
13
48
1
60
0
100
AcDbLine
10
14.429558
20
1.916239
30
0
11
19.2
21
-0.257833
31
0
39
0
210
0
220
0
230
1
0
LINE
5
94
100
AcDbEntity
8
1
62
256
6
ByLayer
370
18
48
1
60
0
100
AcDbLine
10
19.2
20
-0.257833
30
0
11
19.2
21
1.380457
31
0
39
0
210
0
220
0
230
1
0
LINE
5
95
100
AcDbEntity
8
1
62
256
6
ByLayer
370
18
48
1
60
0
100
AcDbLine
10
16.761914
20
2.491585
30
0
11
19.2
21
1.380457
31
0
39
0
210
0
220
0
230
1
0
LINE
5
96
100
AcDbEntity
8
1
62
256
6
ByLayer
370
13
48
1
60
0
100
AcDbLine
10
14.356359
20
1.787283
30
0
11
19.2
21
-0.420149
31
0
39
0
210
0
220
0
230
1
0
LINE
5
97
100
AcDbEntity
8
1
62
256
6
ByLayer
370
18
48
1
60
0
100
AcDbLine
10
19.2
20
-0.420149
30
0
11
19.2
21
-0.660024
31
0
39
0
210
0
220
0
230
1
0
LINE
5
98
100
AcDbEntity
8
1
62
256
6
ByLayer
370
13
48
1
60
0
100
AcDbLine
10
19.192415
20
-1.889981
30
0
11
19.192415
21
-1.897488
31
0
39
0
210
0
220
0
230
1
0
LINE
5
99
100
AcDbEntity
8
SK1
62
256
6
ByLayer
370
18
48
1
60
0
100
AcDbLine
10
-36
20
-3.5
30
0
11
-36
21
3.5
31
0
39
0
210
0
220
0
230
1
0
LINE
5
9B
100
AcDbEntity
8
SK1
62
256
6
ByLayer
370
18
48
1
60
0
100
AcDbLine
10
0
20
4
30
0
11
0
21
0
31
0
39
0
210
0
220
0
230
1
0
LINE
5
9C
100
AcDbEntity
8
SK1
62
256
6
ByLayer
370
18
48
1
60
0
100
AcDbLine
10
0
20
0
30
0
11
0
21
-4
31
0
39
0
210
0
220
0
230
1
0
LINE
5
9D
100
AcDbEntity
8
SK1
62
256
6
ByLayer
370
18
48
1
60
0
100
AcDbLine
10
-35.5
20
4
30
0
11
-35.5
21
-4
31
0
39
0
210
0
220
0
230
1
0
LINE
5
9E
100
AcDbEntity
8
SK1
62
256
6
ByLayer
370
18
48
1
60
0
100
AcDbLine
10
-20.75
20
2.9
30
0
11
-21.85
21
4
31
0
39
0
210
0
220
0
230
1
0
LINE
5
9F
100
AcDbEntity
8
SK1
62
256
6
ByLayer
370
18
48
1
60
0
100
AcDbLine
10
-14.15
20
4
30
0
11
-15.25
21
2.9
31
0
39
0
210
0
220
0
230
1
0
LINE
5
A0
100
AcDbEntity
8
SK1
62
256
6
ByLayer
370
18
48
1
60
0
100
AcDbLine
10
-20.75
20
2.9
30
0
11
-15.25
21
2.9
31
0
39
0
210
0
220
0
230
1
0
LINE
5
A1
100
AcDbEntity
8
1
62
256
6
ByLayer
370
18
48
1
60
0
100
AcDbLine
10
15.667309
20
4
30
0
11
0
21
4
31
0
39
0
210
0
220
0
230
1
0
LINE
5
A2
100
AcDbEntity
8
1
62
256
6
ByLayer
370
18
48
1
60
0
100
AcDbLine
10
0
20
-4
30
0
11
15.667309
21
-4
31
0
39
0
210
0
220
0
230
1
0
LINE
5
A3
100
AcDbEntity
8
1
62
256
6
ByLayer
370
18
48
1
60
0
100
AcDbLine
10
16.144043
20
-3.912935
30
0
11
19.211022
21
-2.515196
31
0
39
0
210
0
220
0
230
1
0
LINE
5
A4
100
AcDbEntity
8
1
62
256
6
ByLayer
370
18
48
1
60
0
100
AcDbLine
10
19.211022
20
2.515196
30
0
11
16.144043
21
3.912935
31
0
39
0
210
0
220
0
230
1
0
LINE
5
A5
100
AcDbEntity
8
SK1
62
256
6
ByLayer
370
18
48
1
60
0
100
AcDbLine
10
-36
20
-3.5
30
0
11
-35.5
21
-4
31
0
39
0
210
0
220
0
230
1
0
LINE
5
A6
100
AcDbEntity
8
SK1
62
256
6
ByLayer
370
18
48
1
60
0
100
AcDbLine
10
-35.5
20
4
30
0
11
-36
21
3.5
31
0
39
0
210
0
220
0
230
1
0
LINE
5
A7
100
AcDbEntity
8
SK1
62
256
6
ByLayer
370
18
48
1
60
0
100
AcDbLine
10
0
20
4
30
0
11
-14.15
21
4
31
0
39
0
210
0
220
0
230
1
0
LINE
5
A8
100
AcDbEntity
8
SK1
62
256
6
ByLayer
370
18
48
1
60
0
100
AcDbLine
10
-21.85
20
4
30
0
11
-35.5
21
4
31
0
39
0
210
0
220
0
230
1
0
LINE
5
A9
100
AcDbEntity
8
SK1
62
256
6
ByLayer
370
18
48
1
60
0
100
AcDbLine
10
-35.5
20
-4
30
0
11
0
21
-4
31
0
39
0
210
0
220
0
230
1
0
LINE
5
AA
100
AcDbEntity
8
SK2
62
256
6
ByLayer
370
18
48
1
60
0
100
AcDbLine
10
-43.75
20
4
30
0
11
-43.75
21
-20.315466
31
0
39
0
210
0
220
0
230
1
0
LINE
5
AC
100
AcDbEntity
8
SK2
62
256
6
ByLayer
370
18
48
1
60
0
100
AcDbLine
10
-37.0875
20
4
30
0
11
-45.75
21
4
31
0
39
0
210
0
220
0
230
1
0
LINE
5
AD
100
AcDbEntity
8
SK2
62
256
6
ByLayer
370
18
48
1
60
0
100
AcDbLine
10
-37.0875
20
-4
30
0
11
-45.75
21
-4
31
0
39
0
210
0
220
0
230
1
0
LINE
5
AE
100
AcDbEntity
8
1
62
256
6
ByLayer
370
18
48
1
60
1
100
AcDbLine
10
-43.75
20
4
30
0
11
-43.289216
21
0.500002
31
0
39
0
210
0
220
0
230
1
0
LINE
5
AF
100
AcDbEntity
8
1
62
256
6
ByLayer
370
18
48
1
60
1
100
AcDbLine
10
-43.289216
20
0.500002
30
0
11
-44.210784
21
0.499998
31
0
39
0
210
0
220
0
230
1
0
LINE
5
B0
100
AcDbEntity
8
1
62
256
6
ByLayer
370
18
48
1
60
1
100
AcDbLine
10
-44.210784
20
0.499998
30
0
11
-43.75
21
4
31
0
39
0
210
0
220
0
230
1
0
LINE
5
B1
100
AcDbEntity
8
1
62
256
6
ByLayer
370
18
48
1
60
1
100
AcDbLine
10
-43.75
20
-4
30
0
11
-44.210784
21
-0.500002
31
0
39
0
210
0
220
0
230
1
0
LINE
5
B2
100
AcDbEntity
8
1
62
256
6
ByLayer
370
18
48
1
60
1
100
AcDbLine
10
-44.210784
20
-0.500002
30
0
11
-43.289216
21
-0.499998
31
0
39
0
210
0
220
0
230
1
0
LINE
5
B3
100
AcDbEntity
8
1
62
256
6
ByLayer
370
18
48
1
60
1
100
AcDbLine
10
-43.289216
20
-0.499998
30
0
11
-43.75
21
-4
31
0
39
0
210
0
220
0
230
1
0
LINE
5
B4
100
AcDbEntity
8
2
62
256
6
ByLayer
370
18
48
1
60
0
100
AcDbLine
10
39
20
-3.9001
30
0
11
39
21
24.249032
31
0
39
0
210
0
220
0
230
1
0
LINE
5
B6
100
AcDbEntity
8
2
62
256
6
ByLayer
370
18
48
1
60
0
100
AcDbLine
10
28.5875
20
3.9001
30
0
11
41
21
3.9001
31
0
39
0
210
0
220
0
230
1
0
LINE
5
B7
100
AcDbEntity
8
2
62
256
6
ByLayer
370
18
48
1
60
0
100
AcDbLine
10
28.5875
20
-3.9001
30
0
11
41
21
-3.9001
31
0
39
0
210
0
220
0
230
1
0
LINE
5
B8
100
AcDbEntity
8
1
62
256
6
ByLayer
370
18
48
1
60
1
100
AcDbLine
10
39
20
3.9001
30
0
11
39.460784
21
0.400102
31
0
39
0
210
0
220
0
230
1
0
LINE
5
B9
100
AcDbEntity
8
1
62
256
6
ByLayer
370
18
48
1
60
1
100
AcDbLine
10
39.460784
20
0.400102
30
0
11
38.539216
21
0.400098
31
0
39
0
210
0
220
0
230
1
0
LINE
5
BA
100
AcDbEntity
8
1
62
256
6
ByLayer
370
18
48
1
60
1
100
AcDbLine
10
38.539216
20
0.400098
30
0
11
39
21
3.9001
31
0
39
0
210
0
220
0
230
1
0
LINE
5
BB
100
AcDbEntity
8
1
62
256
6
ByLayer
370
18
48
1
60
1
100
AcDbLine
10
39
20
-3.9001
30
0
11
38.539216
21
-0.400102
31
0
39
0
210
0
220
0
230
1
0
LINE
5
BC
100
AcDbEntity
8
1
62
256
6
ByLayer
370
18
48
1
60
1
100
AcDbLine
10
38.539216
20
-0.400102
30
0
11
39.460784
21
-0.400098
31
0
39
0
210
0
220
0
230
1
0
LINE
5
BD
100
AcDbEntity
8
1
62
256
6
ByLayer
370
18
48
1
60
1
100
AcDbLine
10
39.460784
20
-0.400098
30
0
11
39
21
-3.9001
31
0
39
0
210
0
220
0
230
1
0
LINE
5
BE
100
AcDbEntity
8
SK2
62
256
6
ByLayer
370
18
48
1
60
0
100
AcDbLine
10
27
20
-34.208377
30
0
11
-36
21
-34.208377
31
0
39
0
210
0
220
0
230
1
0
LINE
5
BF
100
AcDbEntity
8
SK2
62
256
6
ByLayer
370
18
48
1
60
0
100
AcDbLine
10
-36
20
-5.0875
30
0
11
-36
21
-36.208377
31
0
39
0
210
0
220
0
230
1
0
LINE
5
C0
100
AcDbEntity
8
SK2
62
256
6
ByLayer
370
18
48
1
60
0
100
AcDbLine
10
27
20
-5.4876
30
0
11
27
21
-36.208377
31
0
39
0
210
0
220
0
230
1
0
LINE
5
C1
100
AcDbEntity
8
1
62
256
6
ByLayer
370
18
48
1
60
1
100
AcDbLine
10
-36
20
-34.208377
30
0
11
-32.500002
21
-33.747593
31
0
39
0
210
0
220
0
230
1
0
LINE
5
C2
100
AcDbEntity
8
1
62
256
6
ByLayer
370
18
48
1
60
1
100
AcDbLine
10
-32.500002
20
-33.747593
30
0
11
-32.499998
21
-34.669161
31
0
39
0
210
0
220
0
230
1
0
LINE
5
C3
100
AcDbEntity
8
1
62
256
6
ByLayer
370
18
48
1
60
1
100
AcDbLine
10
-32.499998
20
-34.669161
30
0
11
-36
21
-34.208377
31
0
39
0
210
0
220
0
230
1
0
LINE
5
C4
100
AcDbEntity
8
1
62
256
6
ByLayer
370
18
48
1
60
1
100
AcDbLine
10
27
20
-34.208377
30
0
11
23.500002
21
-34.669161
31
0
39
0
210
0
220
0
230
1
0
LINE
5
C5
100
AcDbEntity
8
1
62
256
6
ByLayer
370
18
48
1
60
1
100
AcDbLine
10
23.500002
20
-34.669161
30
0
11
23.499998
21
-33.747593
31
0
39
0
210
0
220
0
230
1
0
LINE
5
C6
100
AcDbEntity
8
1
62
256
6
ByLayer
370
18
48
1
60
1
100
AcDbLine
10
23.499998
20
-33.747593
30
0
11
27
21
-34.208377
31
0
39
0
210
0
220
0
230
1
0
LINE
5
10D
100
AcDbEntity
8
1
62
256
6
ByLayer
370
18
48
1
60
1
100
AcDbLine
10
-43.75
20
4
30
0
11
-43.289216
21
0.500002
31
0
39
0
210
0
220
0
230
1
0
LINE
5
10E
100
AcDbEntity
8
1
62
256
6
ByLayer
370
18
48
1
60
1
100
AcDbLine
10
-43.289216
20
0.500002
30
0
11
-44.210784
21
0.499998
31
0
39
0
210
0
220
0
230
1
0
LINE
5
10F
100
AcDbEntity
8
1
62
256
6
ByLayer
370
18
48
1
60
1
100
AcDbLine
10
-44.210784
20
0.499998
30
0
11
-43.75
21
4
31
0
39
0
210
0
220
0
230
1
0
LINE
5
111
100
AcDbEntity
8
1
62
256
6
ByLayer
370
18
48
1
60
1
100
AcDbLine
10
-43.75
20
-4
30
0
11
-44.210784
21
-0.500002
31
0
39
0
210
0
220
0
230
1
0
LINE
5
112
100
AcDbEntity
8
1
62
256
6
ByLayer
370
18
48
1
60
1
100
AcDbLine
10
-44.210784
20
-0.500002
30
0
11
-43.289216
21
-0.499998
31
0
39
0
210
0
220
0
230
1
0
LINE
5
113
100
AcDbEntity
8
1
62
256
6
ByLayer
370
18
48
1
60
1
100
AcDbLine
10
-43.289216
20
-0.499998
30
0
11
-43.75
21
-4
31
0
39
0
210
0
220
0
230
1
0
LINE
5
117
100
AcDbEntity
8
1
62
256
6
ByLayer
370
18
48
1
60
1
100
AcDbLine
10
39
20
3.9001
30
0
11
39.460784
21
0.400102
31
0
39
0
210
0
220
0
230
1
0
LINE
5
118
100
AcDbEntity
8
1
62
256
6
ByLayer
370
18
48
1
60
1
100
AcDbLine
10
39.460784
20
0.400102
30
0
11
38.539216
21
0.400098
31
0
39
0
210
0
220
0
230
1
0
LINE
5
119
100
AcDbEntity
8
1
62
256
6
ByLayer
370
18
48
1
60
1
100
AcDbLine
10
38.539216
20
0.400098
30
0
11
39
21
3.9001
31
0
39
0
210
0
220
0
230
1
0
LINE
5
11B
100
AcDbEntity
8
1
62
256
6
ByLayer
370
18
48
1
60
1
100
AcDbLine
10
39
20
-3.9001
30
0
11
38.539216
21
-0.400102
31
0
39
0
210
0
220
0
230
1
0
LINE
5
11C
100
AcDbEntity
8
1
62
256
6
ByLayer
370
18
48
1
60
1
100
AcDbLine
10
38.539216
20
-0.400102
30
0
11
39.460784
21
-0.400098
31
0
39
0
210
0
220
0
230
1
0
LINE
5
11D
100
AcDbEntity
8
1
62
256
6
ByLayer
370
18
48
1
60
1
100
AcDbLine
10
39.460784
20
-0.400098
30
0
11
39
21
-3.9001
31
0
39
0
210
0
220
0
230
1
0
LINE
5
120
100
AcDbEntity
8
1
62
256
6
ByLayer
370
18
48
1
60
1
100
AcDbLine
10
-36
20
-34.208377
30
0
11
-32.500002
21
-33.747593
31
0
39
0
210
0
220
0
230
1
0
LINE
5
121
100
AcDbEntity
8
1
62
256
6
ByLayer
370
18
48
1
60
1
100
AcDbLine
10
-32.500002
20
-33.747593
30
0
11
-32.499998
21
-34.669161
31
0
39
0
210
0
220
0
230
1
0
LINE
5
122
100
AcDbEntity
8
1
62
256
6
ByLayer
370
18
48
1
60
1
100
AcDbLine
10
-32.499998
20
-34.669161
30
0
11
-36
21
-34.208377
31
0
39
0
210
0
220
0
230
1
0
LINE
5
124
100
AcDbEntity
8
1
62
256
6
ByLayer
370
18
48
1
60
1
100
AcDbLine
10
27
20
-34.208377
30
0
11
23.500002
21
-34.669161
31
0
39
0
210
0
220
0
230
1
0
LINE
5
125
100
AcDbEntity
8
1
62
256
6
ByLayer
370
18
48
1
60
1
100
AcDbLine
10
23.500002
20
-34.669161
30
0
11
23.499998
21
-33.747593
31
0
39
0
210
0
220
0
230
1
0
LINE
5
126
100
AcDbEntity
8
1
62
256
6
ByLayer
370
18
48
1
60
1
100
AcDbLine
10
23.499998
20
-33.747593
30
0
11
27
21
-34.208377
31
0
39
0
210
0
220
0
230
1
0
MTEXT
5
109
100
AcDbEntity
8
SK2
62
256
6
ByLayer
370
18
48
1
60
0
100
AcDbMText
10
-45.314634
20
-18.380622
30
0
210
0
220
0
230
1
1
%%c
40
3.5
41
0
44
1.084337
50
90
71
7
72
5
7
iso_b_vert
0
MTEXT
5
10C
100
AcDbEntity
8
SK2
62
256
6
ByLayer
370
18
48
1
60
0
100
AcDbMText
10
-45.314634
20
-11.407966
30
0
210
0
220
0
230
1
1
\W0.5404;8
40
3.5
41
0
44
1.084337
50
90
71
7
72
5
7
iso_b_vert
0
MTEXT
5
115
100
AcDbEntity
8
2
62
256
6
ByLayer
370
18
48
1
60
0
100
AcDbMText
10
37.435366
20
11.834944
30
0
210
0
220
0
230
1
1
%%c
40
3.5
41
0
44
1.084337
50
90
71
7
72
5
7
iso_b_vert
0
MTEXT
5
116
100
AcDbEntity
8
2
62
256
6
ByLayer
370
18
48
1
60
0
100
AcDbMText
10
37.435366
20
18.8076
30
0
210
0
220
0
230
1
1
\W0.7121;7.8
40
3.5
41
0
44
1.084337
50
90
71
7
72
5
7
iso_b_vert
0
MTEXT
5
11F
100
AcDbEntity
8
SK2
62
256
6
ByLayer
370
18
48
1
60
0
100
AcDbMText
10
-6.404966
20
-33.175743
30
0
210
0
220
0
230
1
1
\W0.6740;63
40
3.5
41
0
44
1.084337
50
0
71
7
72
5
7
iso_b_vert
0
MTEXT
5
128
100
AcDbEntity
8
SK6
62
256
6
ByLayer
370
18
48
1
60
0
100
AcDbMText
10
-28.735546
20
-62.114886
30
0
210
0
220
0
230
1
1
\W0.6872;1K212-0780-XB       1730
40
3
41
0
44
1.084337
50
0
71
7
72
5
7
iso_b_vert
0
HATCH
5
110
100
AcDbEntity
8
SK2
62
256
6
ByLayer
370
13
48
1
60
0
100
AcDbHatch
10
0
20
0
30
0
210
0
220
0
230
1
2
ANSI31
70
0
71
0
91
1
92
5
93
3
72
1
10
-43.75
20
3.99999999999994
11
-43.2892162584472
21
0.500001692553127
72
1
10
-43.2892162584472
20
0.500001692553127
11
-44.2107837415528
21
0.499998307446759
72
1
10
-44.2107837415528
20
0.499998307446759
11
-43.75
21
3.99999999999994
97
0
75
0
76
1
52
0
41
0.0062
77
0
78
1
53
45
43
0
44
0
45
-0.0139193969876572
46
0.0139193969876572
79
0
47
0
98
1
10
0
20
0
0
HATCH
5
114
100
AcDbEntity
8
SK2
62
256
6
ByLayer
370
13
48
1
60
0
100
AcDbHatch
10
0
20
0
30
0
210
0
220
0
230
1
2
ANSI31
70
0
71
0
91
1
92
5
93
3
72
1
10
-43.75
20
-4.00000000000009
11
-44.2107837415528
21
-0.500001692553269
72
1
10
-44.2107837415528
20
-0.500001692553269
11
-43.2892162584472
21
-0.499998307446901
72
1
10
-43.2892162584472
20
-0.499998307446901
11
-43.75
21
-4.00000000000009
97
0
75
0
76
1
52
0
41
0.0062
77
0
78
1
53
45
43
0
44
0
45
-0.0139193969876572
46
0.0139193969876572
79
0
47
0
98
1
10
0
20
0
0
HATCH
5
11A
100
AcDbEntity
8
2
62
256
6
ByLayer
370
13
48
1
60
0
100
AcDbHatch
10
0
20
0
30
0
210
0
220
0
230
1
2
ANSI31
70
0
71
0
91
1
92
5
93
3
72
1
10
39
20
3.90009999999989
11
39.4607837415528
21
0.400101692553079
72
1
10
39.4607837415528
20
0.400101692553079
11
38.5392162584472
21
0.400098307446711
72
1
10
38.5392162584472
20
0.400098307446711
11
39
21
3.90009999999989
97
0
75
0
76
1
52
0
41
0.0062
77
0
78
1
53
45
43
0
44
0
45
-0.0139193969876572
46
0.0139193969876572
79
0
47
0
98
1
10
0
20
0
0
HATCH
5
11E
100
AcDbEntity
8
2
62
256
6
ByLayer
370
13
48
1
60
0
100
AcDbHatch
10
0
20
0
30
0
210
0
220
0
230
1
2
ANSI31
70
0
71
0
91
1
92
5
93
3
72
1
10
39
20
-3.90010000000009
11
38.5392162584472
21
-0.400101692553278
72
1
10
38.5392162584472
20
-0.400101692553278
11
39.4607837415528
21
-0.40009830744691
72
1
10
39.4607837415528
20
-0.40009830744691
11
39
21
-3.90010000000009
97
0
75
0
76
1
52
0
41
0.0062
77
0
78
1
53
45
43
0
44
0
45
-0.0139193969876572
46
0.0139193969876572
79
0
47
0
98
1
10
0
20
0
0
HATCH
5
123
100
AcDbEntity
8
SK2
62
256
6
ByLayer
370
13
48
1
60
0
100
AcDbHatch
10
0
20
0
30
0
210
0
220
0
230
1
2
ANSI31
70
0
71
0
91
1
92
5
93
3
72
1
10
-36
20
-34.2083769600571
11
-32.5000016925532
21
-33.7475932185043
72
1
10
-32.5000016925532
20
-33.7475932185043
11
-32.4999983074468
21
-34.6691607016098
72
1
10
-32.4999983074468
20
-34.6691607016098
11
-36
21
-34.2083769600571
97
0
75
0
76
1
52
0
41
0.0062
77
0
78
1
53
45
43
0
44
0
45
-0.0139193969876572
46
0.0139193969876572
79
0
47
0
98
1
10
0
20
0
0
HATCH
5
127
100
AcDbEntity
8
SK2
62
256
6
ByLayer
370
13
48
1
60
0
100
AcDbHatch
10
0
20
0
30
0
210
0
220
0
230
1
2
ANSI31
70
0
71
0
91
1
92
5
93
3
72
1
10
27
20
-34.2083769600571
11
23.5000016925532
21
-34.6691607016098
72
1
10
23.5000016925532
20
-34.6691607016098
11
23.4999983074468
21
-33.7475932185043
72
1
10
23.4999983074468
20
-33.7475932185043
11
27
21
-34.2083769600571
97
0
75
0
76
1
52
0
41
0.0062
77
0
78
1
53
45
43
0
44
0
45
-0.0139193969876572
46
0.0139193969876572
79
0
47
0
98
1
10
0
20
0
0
DIMENSION
5
12B
100
AcDbEntity
8
2
62
256
6
ByLayer
370
18
48
1
60
0
100
AcDbDimension
2
_U0
10
19.2
20
-18.208377
30
0
11
23.1
21
-18.208377
31
0
70
32
71
1
72
1
41
1
210
0
220
0
230
1
3
Standard
100
AcDbAlignedDimension
13
27
23
-3.9001
33
0
14
19.2
24
-3.9001
34
0
50
0
100
AcDbRotatedDimension
1001
ACAD
1000
DSTYLE
1002
{
1070
   371
1070
    13
1070
   372
1070
    13
1070
   170
1070
     0
1070
   144
1040
1.0
1070
   277
1070
     2
1070
   284
1070
     8
1070
   278
1070
    46
1070
   146
1040
1.0
1070
   345
1005
16
1070
   347
1005
16
1070
   346
1005
16
1070
   344
1005
0
1070
   343
1005
0
1070
   172
1070
     1
1070
    76
1070
     0
1070
    75
1070
     0
1070
   282
1070
     0
1070
   281
1070
     0
1070
    71
1070
     0
1070
    74
1070
     0
1070
   279
1070
     0
1070
   173
1070
     1
1070
   340
1005
10A
1070
   271
1070
     2
1070
   272
1070
     2
1070
    77
1070
     1
1070
    73
1070
     1
1070
   171
1070
     3
1070
   274
1070
     4
1070
   177
1070
     2
1070
   176
1070
     2
1070
   178
1070
     2
1070
    78
1070
     8
1070
    48
1040
-0.1
1070
    41
1040
3.5
1070
   147
1040
1.75
1070
    42
1040
1.5875
1070
    44
1040
2.0
1070
   140
1040
3.5
1002
}
1001
ACAD_DSTYLE_DIM_LINETYPE
1070
   380
1005
16
1001
ACAD_DSTYLE_DIM_EXT1_LINETYPE
1070
   381
1005
16
1001
ACAD_DSTYLE_DIM_EXT2_LINETYPE
1070
   382
1005
16
0
ENDSEC
0
SECTION
2
OBJECTS
0
DICTIONARY
5
1b5
330
0
100
AcDbDictionary
280
0
281
1
3
ACAD_GROUP
350
1b6
3
ACAD_MLINESTYLE
350
1b7
0
DICTIONARY
5
1b6
330
0
100
AcDbDictionary
280
0
281
1
0
DICTIONARY
5
1b7
330
0
100
AcDbDictionary
280
0
281
1
3
Standard
350
18
0
MLINESTYLE
5
18
330
1b7
100
AcDbMlineStyle
2
Standard
70
0
3

62
256
51
90
52
90
71
2
49
-0.5
62
256
6
ByLayer
49
0.5
62
256
6
ByLayer
0
RASTERVARIABLES
5
1a3
330

100
AcDbRasterVariables
90
0
70
1
71
1
72
1
0
ENDSEC
0
EOF
