0
SECTION
2
HEADER
9
$ACADVER
1
AC1015
9
$DWGCODEPAGE
3
ANSI_1252
9
$HANDSEED
5
1b9
9
$ANGBASE
50
0
9
$ANGDIR
70
0
9
$ATTMODE
70
1
9
$AUNITS
70
0
9
$AUPREC
70
0
9
$CECOLOR
62
256
9
$CELTSCALE
40
1
9
$CELTYPE
6
ByLayer
9
$CELWEIGHT
370
18
9
$CLAYER
8
0
9
$CMLJUST
70
0
9
$CMLSCALE
40
1
9
$CMLSTYLE
2
Standard
9
$DIMSTYLE
2
Standard
9
$TEXTSIZE
40
0.2
9
$TEXTSTYLE
7
Standard
9
$LUNITS
70
2
9
$LUPREC
70
4
9
$EXTNAMES
290
1
9
$INSUNITS
70
4
9
$LTSCALE
40
1
9
$LWDISPLAY
290
1
9
$PDMODE
70
0
9
$PDSIZE
40
0
9
$PLINEGEN
70
0
0
ENDSEC
0
SECTION
2
CLASSES
0
CLASS
1
RASTERVARIABLES
2
AcDbRasterVariables
3
ISM
90
0
280
0
281
0
0
ENDSEC
0
SECTION
2
TABLES
0
TABLE
2
VPORT
5
1af
100
AcDbSymbolTable
0
VPORT
5
1
100
AcDbSymbolTableRecord
100
AcDbViewportTableRecord
2
*Active
70
0
10
0
20
0
11
1
21
1
12
-1
22
1
13
0
23
0
14
0.5
24
0.5
15
10
25
10
16
0
26
0
36
1
17
0
27
0
37
0
0
ENDTAB
0
TABLE
2
LTYPE
5
1b0
100
AcDbSymbolTable
0
LTYPE
5
14
100
AcDbSymbolTableRecord
100
AcDbLinetypeTableRecord
70
0
2
ByBlock
3

72
65
73
0
40
0
0
LTYPE
5
15
100
AcDbSymbolTableRecord
100
AcDbLinetypeTableRecord
70
0
2
ByLayer
3

72
65
73
0
40
0
0
LTYPE
5
16
100
AcDbSymbolTableRecord
100
AcDbLinetypeTableRecord
70
0
2
Continuous
3
Solid line
72
65
73
0
40
0
0
LTYPE
5
6E
100
AcDbSymbolTableRecord
100
AcDbLinetypeTableRecord
70
0
2
CENTER
3
____ _ ____ _ ____ _ ____
72
65
73
4
40
47.5
49
22
74
0
49
-8.5
74
0
49
8.5
74
0
49
-8.5
74
0
0
LTYPE
5
6F
100
AcDbSymbolTableRecord
100
AcDbLinetypeTableRecord
70
0
2
DASHED
3
__ __ __ __ __ __ __ __ __
72
65
73
2
40
25.72
49
12.86
74
0
49
-12.86
74
0
0
ENDTAB
0
TABLE
2
LAYER
5
1b1
100
AcDbSymbolTable
0
LAYER
5
10
100
AcDbSymbolTableRecord
100
AcDbLayerTableRecord
2
0
70
0
62
7
6
Continuous
290
1
370
-3
390
0
0
LAYER
5
71
100
AcDbSymbolTableRecord
100
AcDbLayerTableRecord
2
81
70
0
62
-3
6
Continuous
290
1
370
-3
390
0
0
LAYER
5
73
100
AcDbSymbolTableRecord
100
AcDbLayerTableRecord
2
80
70
0
62
-6
6
Continuous
290
1
370
-3
390
0
0
LAYER
5
75
100
AcDbSymbolTableRecord
100
AcDbLayerTableRecord
2
1
70
0
62
4
6
Continuous
290
1
370
-3
390
0
0
LAYER
5
79
100
AcDbSymbolTableRecord
100
AcDbLayerTableRecord
2
4
70
0
62
-2
6
CENTER
290
1
370
-3
390
0
0
LAYER
5
B1
100
AcDbSymbolTableRecord
100
AcDbLayerTableRecord
2
2
70
0
62
7
6
Continuous
290
1
370
-3
390
0
0
LAYER
5
125
100
AcDbSymbolTableRecord
100
AcDbLayerTableRecord
2
Defpoints
70
0
62
7
6
Continuous
290
0
370
-3
390
0
0
LAYER
5
19b
100
AcDbSymbolTableRecord
100
AcDbLayerTableRecord
2
SK4
70
0
62
2
6
CENTER
290
1
370
-3
390
0
0
LAYER
5
19c
100
AcDbSymbolTableRecord
100
AcDbLayerTableRecord
2
SK1
70
0
62
4
6
Continuous
290
1
370
-3
390
0
0
LAYER
5
19d
100
AcDbSymbolTableRecord
100
AcDbLayerTableRecord
2
SK2
70
0
62
7
6
Continuous
290
1
370
-3
390
0
0
LAYER
5
19e
100
AcDbSymbolTableRecord
100
AcDbLayerTableRecord
2
SK6
70
0
62
5
6
Continuous
290
1
370
-3
390
0
0
ENDTAB
0
TABLE
2
STYLE
5
1b2
100
AcDbSymbolTable
0
STYLE
5
11
100
AcDbSymbolTableRecord
100
AcDbTextStyleTableRecord
2
Standard
3
txt
70
0
71
0
40
0
41
1
42
0
50
0
0
STYLE
5
101
100
AcDbSymbolTableRecord
100
AcDbTextStyleTableRecord
2
iso_b_vert
3
simplex.shx
70
0
71
0
40
0
41
1
42
0
50
0
0
STYLE
5
102
100
AcDbSymbolTableRecord
100
AcDbTextStyleTableRecord
2
DWGDirectTextStyle
3
simplex
70
0
71
0
40
0
41
1
42
0
50
0
0
ENDTAB
0
TABLE
2
DIMSTYLE
5
1b3
100
AcDbSymbolTable
100
AcDbDimStyleTable
0
DIMSTYLE
105
27
100
AcDbSymbolTableRecord
100
AcDbDimStyleTableRecord
2
Standard
70
0
3
<>
41
0.18
42
0.0625
44
0.18
140
0.18
147
0.09
73
0
74
0
77
1
271
2
275
0
278
52
280
0
340
11
0
ENDTAB
0
TABLE
2
VIEW
5
1b4
100
AcDbSymbolTable
0
ENDTAB
0
TABLE
2
UCS
5
1b5
100
AcDbSymbolTable
0
ENDTAB
0
TABLE
2
APPID
5
1b6
100
AcDbSymbolTable
0
APPID
5
12
100
AcDbSymbolTableRecord
100
AcDbRegAppTableRecord
2
ACAD
70
0
0
APPID
5
121
100
AcDbSymbolTableRecord
100
AcDbRegAppTableRecord
2
ACAD_DSTYLE_DIMBREAK
70
0
0
APPID
5
15A
100
AcDbSymbolTableRecord
100
AcDbRegAppTableRecord
2
ACAD_DSTYLE_DIM_LINETYPE
70
0
0
APPID
5
15B
100
AcDbSymbolTableRecord
100
AcDbRegAppTableRecord
2
ACAD_DSTYLE_DIM_EXT1_LINETYPE
70
0
0
APPID
5
15C
100
AcDbSymbolTableRecord
100
AcDbRegAppTableRecord
2
ACAD_DSTYLE_DIM_EXT2_LINETYPE
70
0
0
APPID
5
197
100
AcDbSymbolTableRecord
100
AcDbRegAppTableRecord
2
ACAD_MLEADERVER
70
0
0
ENDTAB
0
TABLE
2
BLOCK_RECORD
5
1b7
100
AcDbSymbolTable
0
BLOCK_RECORD
5
1F
100
AcDbSymbolTableRecord
100
AcDbBlockTableRecord
2
*Model_Space
340
0
70
0
0
BLOCK_RECORD
5
1B
100
AcDbSymbolTableRecord
100
AcDbBlockTableRecord
2
*Paper_Space
340
0
70
0
0
BLOCK_RECORD
5
23
100
AcDbSymbolTableRecord
100
AcDbBlockTableRecord
2
*Paper_Space0
340
0
70
0
0
BLOCK_RECORD
5
126
100
AcDbSymbolTableRecord
100
AcDbBlockTableRecord
2
*D1
340
0
70
0
0
BLOCK_RECORD
5
133
100
AcDbSymbolTableRecord
100
AcDbBlockTableRecord
2
_U0
340
0
70
0
0
ENDTAB
0
ENDSEC
0
SECTION
2
BLOCKS
0
BLOCK
5
20
100
AcDbEntity
8
0
100
AcDbBlockBegin
2
*Model_Space
70
0
10
0
20
0
30
0
3
*Model_Space
0
ENDBLK
5
21
100
AcDbEntity
8
0
100
AcDbBlockEnd
0
BLOCK
5
1C
100
AcDbEntity
8
0
100
AcDbBlockBegin
2
*Paper_Space
70
0
10
0
20
0
30
0
3
*Paper_Space
0
ENDBLK
5
1D
100
AcDbEntity
8
0
100
AcDbBlockEnd
0
BLOCK
5
24
100
AcDbEntity
8
0
100
AcDbBlockBegin
2
*Paper_Space0
70
0
10
0
20
0
30
0
3
*Paper_Space0
0
ENDBLK
5
25
100
AcDbEntity
8
0
100
AcDbBlockEnd
0
BLOCK
5
127
100
AcDbEntity
8
0
100
AcDbBlockBegin
2
*D1
70
1
10
0
20
0
30
0
3
*D1
0
LINE
5
129
100
AcDbEntity
8
0
62
256
6
ByLayer
370
-2
48
1
60
0
100
AcDbLine
10
21
20
-4.4876
30
0
11
21
21
-19.157094
31
0
39
0
210
0
220
0
230
1
0
LINE
5
12A
100
AcDbEntity
8
0
62
256
6
ByLayer
370
-2
48
1
60
0
100
AcDbLine
10
15.2
20
-4.4876
30
0
11
15.2
21
-19.157094
31
0
39
0
210
0
220
0
230
1
0
LINE
5
12B
100
AcDbEntity
8
0
62
256
6
ByLayer
370
-2
48
1
60
0
100
AcDbLine
10
24.5
20
-17.157094
30
0
11
28
21
-17.157094
31
0
39
0
210
0
220
0
230
1
0
LINE
5
12C
100
AcDbEntity
8
0
62
256
6
ByLayer
370
-2
48
1
60
0
100
AcDbLine
10
11.7
20
-17.157094
30
0
11
8.2
21
-17.157094
31
0
39
0
210
0
220
0
230
1
0
SOLID
5
12D
100
AcDbEntity
8
0
62
256
6
ByLayer
370
-1
48
1
60
0
100
AcDbTrace
10
24.5
20
-16.57376
30
0
11
24.5
21
-17.740427
31
0
12
21
22
-17.157094
32
0
13
21
23
-17.157094
33
0
39
0
210
0
220
0
230
1
0
SOLID
5
12E
100
AcDbEntity
8
0
62
256
6
ByLayer
370
-1
48
1
60
0
100
AcDbTrace
10
11.7
20
-17.740427
30
0
11
11.7
21
-16.57376
31
0
12
15.2
22
-17.157094
32
0
13
15.2
23
-17.157094
33
0
39
0
210
0
220
0
230
1
0
MTEXT
5
12F
100
AcDbEntity
8
0
62
256
6
ByLayer
370
18
48
1
60
0
100
AcDbMText
10
18.1
20
-10.157094
30
0
210
0
220
0
230
1
1
\A1;5.8
40
3.5
41
0
44
1
50
0
71
5
72
5
7
iso_b_vert
0
POINT
5
130
100
AcDbEntity
8
Defpoints
62
0
6
ByLayer
370
-1
48
1
60
0
100
AcDbPoint
10
21
20
-2.9001
30
0
39
0
210
0
220
0
230
1
50
360
0
POINT
5
131
100
AcDbEntity
8
Defpoints
62
0
6
ByLayer
370
-1
48
1
60
0
100
AcDbPoint
10
15.2
20
-2.9001
30
0
39
0
210
0
220
0
230
1
50
360
0
POINT
5
132
100
AcDbEntity
8
Defpoints
62
0
6
ByLayer
370
-1
48
1
60
0
100
AcDbPoint
10
15.2
20
-17.157094
30
0
39
0
210
0
220
0
230
1
50
360
0
ENDBLK
5
128
100
AcDbEntity
8
0
100
AcDbBlockEnd
0
BLOCK
5
13A
100
AcDbEntity
8
0
100
AcDbBlockBegin
2
_U0
70
0
10
0
20
0
30
0
3
_U0
0
MTEXT
5
134
100
AcDbEntity
8
2
62
256
6
ByLayer
370
18
48
1
60
0
100
AcDbMText
10
15.486034
20
-16.12446
30
0
210
0
220
0
230
1
1
\W0.7121;5.8
40
3.5
41
0
44
1.084337
50
0
71
7
72
5
7
iso_b_vert
0
LINE
5
135
100
AcDbEntity
8
2
62
256
6
ByLayer
370
13
48
1
60
0
100
AcDbLine
10
21
20
-4.4876
30
0
11
21
21
-19.157094
31
0
39
0
210
0
220
0
230
1
0
LINE
5
136
100
AcDbEntity
8
2
62
256
6
ByLayer
370
13
48
1
60
0
100
AcDbLine
10
15.2
20
-4.4876
30
0
11
15.2
21
-19.157094
31
0
39
0
210
0
220
0
230
1
0
LINE
5
137
100
AcDbEntity
8
2
62
256
6
ByLayer
370
13
48
1
60
0
100
AcDbLine
10
29.75
20
-17.157094
30
0
11
6.45
21
-17.157094
31
0
39
0
210
0
220
0
230
1
0
SOLID
5
138
100
AcDbEntity
8
2
62
256
6
ByLayer
370
18
48
1
60
0
100
AcDbTrace
10
21
20
-17.157094
30
0
11
24.499998
21
-16.69631
31
0
12
24.500002
22
-17.617877
32
0
13
24.500002
23
-17.617877
33
0
39
0
210
0
220
0
230
1
0
SOLID
5
139
100
AcDbEntity
8
2
62
256
6
ByLayer
370
18
48
1
60
0
100
AcDbTrace
10
15.2
20
-17.157094
30
0
11
11.700002
21
-17.617877
31
0
12
11.699998
22
-16.69631
32
0
13
11.699998
23
-16.69631
33
0
39
0
210
0
220
0
230
1
0
ENDBLK
5
13B
100
AcDbEntity
8
0
100
AcDbBlockEnd
0
ENDSEC
0
SECTION
2
ENTITIES
0
ELLIPSE
5
C3
100
AcDbEntity
8
1
62
256
6
ByLayer
370
18
48
1
60
0
100
AcDbEllipse
10
20.8266
20
-0.393901
30
0
11
0.126427798202997
21
-0.365118534393652
31
0
210
0
220
0
230
1
40
0.590701
41
-1.95596593006135
42
-1.66809549278203
0
ELLIPSE
5
C4
100
AcDbEntity
8
1
62
256
6
ByLayer
370
18
48
1
60
0
100
AcDbEllipse
10
20.8266
20
-0.331257
30
0
11
0.108321458291335
21
-0.226179305163424
31
0
210
0
220
0
230
1
40
0.996175
41
2.69345722265701
42
-2.8082880563997
0
ELLIPSE
5
C5
100
AcDbEntity
8
1
62
256
6
ByLayer
370
18
48
1
60
0
100
AcDbEllipse
10
20.826608
20
-0.330225
30
0
11
0.108696989520864
21
0.226012650580497
31
0
210
0
220
0
230
1
40
0.996153
41
2.87085390165746
42
2.89323361600541
0
ELLIPSE
5
C6
100
AcDbEntity
8
1
62
256
6
ByLayer
370
18
48
1
60
0
100
AcDbEllipse
10
20.8266
20
-0.257957
30
0
11
0.126427798573375
21
0.365118534790365
31
0
210
0
220
0
230
1
40
0.590701
41
1.73637749105385
42
2.07221904440124
0
ELLIPSE
5
C7
100
AcDbEntity
8
1
62
256
6
ByLayer
370
18
48
1
60
0
100
AcDbEllipse
10
20.8266
20
-0.352803
30
0
11
0.176037704549253
21
0.194135247713058
31
0
210
0
220
0
230
1
40
0.914376
41
2.32323938916503
42
-3.05849786462289
0
ELLIPSE
5
C8
100
AcDbEntity
8
1
62
256
6
ByLayer
370
18
48
1
60
0
100
AcDbEllipse
10
19.184044
20
0
30
0
11
8.22576503071872
21
-2.36667241783187
31
0
210
0
220
0
230
1
40
0.224125
41
-2.70964411356698
42
-2.1550374915518
0
ELLIPSE
5
C9
100
AcDbEntity
8
1
62
256
6
ByLayer
370
18
48
1
60
0
100
AcDbEllipse
10
13.860097
20
0
30
0
11
7.96448358080795
21
2.45007457813749
31
0
210
0
220
0
230
1
40
0.217368
41
-1.6368711613484
42
-1.54587206894356
0
POINT
5
70
100
AcDbEntity
8
81
62
256
6
ByLayer
370
18
48
1
60
0
100
AcDbPoint
10
21
20
0
30
0
39
0
210
0
220
0
230
1
50
360
0
POINT
5
72
100
AcDbEntity
8
80
62
256
6
ByLayer
370
18
48
1
60
0
100
AcDbPoint
10
0
20
0
30
0
39
0
210
0
220
0
230
1
50
360
0
POINT
5
74
100
AcDbEntity
8
1
62
256
6
ByLayer
370
18
48
1
60
1
100
AcDbPoint
10
21
20
-2.9001
30
0
39
0
210
0
220
0
230
1
50
360
0
POINT
5
76
100
AcDbEntity
8
1
62
256
6
ByLayer
370
18
48
1
60
1
100
AcDbPoint
10
15.2
20
-2.9001
30
0
39
0
210
0
220
0
230
1
50
360
0
SPLINE
5
CA
100
AcDbEntity
8
1
62
256
6
ByLayer
370
18
48
1
60
0
100
AcDbSpline
70
4
71
3
72
22
73
18
40
0
40
0
40
0
40
0
40
0.0359300939220944
40
0.0359300939220944
40
0.110089317466546
40
0.258407764555449
40
0.258407764555449
40
0.332566988099902
40
0.332566988099902
40
0.406726211644356
40
0.406726211644356
40
0.703363105822176
40
0.703363105822176
40
0.777522329366632
40
0.777522329366632
40
0.851681552911088
40
1
40
1
40
1
40
1
41
1
10
16.0687617641747
20
1.79336310361123
30
0
41
1
10
16.1245549689229
20
1.81667637228031
30
0
41
1
10
16.1803439423342
20
1.8397065476789
30
0
41
1
10
16.3511879145592
20
1.90933896606572
30
0
41
1
10
16.6961015021092
20
2.04619323010206
30
0
41
1
10
17.0404623598589
20
2.17088161798051
30
0
41
1
10
17.3850700437039
20
2.28666384895885
30
0
41
1
10
17.4999802193983
20
2.32377329554802
30
0
41
1
10
17.7299827757162
20
2.39488554298794
30
0
41
1
10
17.8451149198155
20
2.42889710678887
30
0
41
1
10
18.4210452319722
20
2.59076084410219
30
0
41
1
10
18.8800204974496
20
2.69333091464617
30
0
41
1
10
19.4555866559727
20
2.78504637161794
30
0
41
1
10
19.5707872562839
20
2.80156114615247
30
0
41
1
10
19.8008828742547
20
2.83079827510861
30
0
41
1
10
20.1457913299059
20
2.86900285369333
30
0
41
1
10
20.490466602707
20
2.89006049028868
30
0
41
1
10
20.7205514601477
20
2.89628926106352
30
0
0
SPLINE
5
CB
100
AcDbEntity
8
1
62
256
6
ByLayer
370
18
48
1
60
0
100
AcDbSpline
70
4
71
3
72
8
73
4
40
0
40
0
40
0
40
0
40
1
40
1
40
1
40
1
41
1
10
20.7883034517256
20
2.89618777316912
30
0
41
1
10
20.8190163079612
20
2.89280977932094
30
0
41
1
10
20.8497405361811
20
2.88953898968774
30
0
41
1
10
20.880475941411
20
2.88637356516688
30
0
0
SPLINE
5
CC
100
AcDbEntity
8
1
62
256
6
ByLayer
370
18
48
1
60
0
100
AcDbSpline
70
4
71
3
72
8
73
4
40
0
40
0
40
0
40
0
40
1
40
1
40
1
40
1
41
1
10
20.7205514601486
20
2.89628926106275
30
0
41
1
10
20.7431344203224
20
2.89620487977154
30
0
41
1
10
20.7657184165753
20
2.89617100555736
30
0
41
1
10
20.788303451672
20
2.89618777320675
30
0
0
SPLINE
5
CD
100
AcDbEntity
8
1
62
256
6
ByLayer
370
18
48
1
60
0
100
AcDbSpline
70
4
71
3
72
8
73
4
40
0
40
0
40
0
40
0
40
1
40
1
40
1
40
1
41
1
10
20.7205514601263
20
2.8962892610528
30
0
41
1
10
20.7476505721305
20
2.82897522913632
30
0
41
1
10
20.7766945293495
20
2.76252645701251
30
0
41
1
10
20.8080608138584
20
2.69711088581693
30
0
0
SPLINE
5
CE
100
AcDbEntity
8
1
62
256
6
ByLayer
370
18
48
1
60
0
100
AcDbSpline
70
4
71
3
72
47
73
43
40
0
40
0
40
0
40
0
40
0.0312499999999967
40
0.0312499999999967
40
0.0624999999999935
40
0.0624999999999935
40
0.0781249999999919
40
0.0781249999999919
40
0.0937499999999902
40
0.0937499999999902
40
0.124999999999987
40
0.124999999999987
40
0.140624999999985
40
0.140624999999985
40
0.156249999999984
40
0.187499999999984
40
0.187499999999984
40
0.203124999999981
40
0.203124999999981
40
0.218749999999979
40
0.218749999999979
40
0.249999999999975
40
0.249999999999975
40
0.281249999999971
40
0.281249999999971
40
0.312499999999967
40
0.312499999999967
40
0.374999999999966
40
0.374999999999966
40
0.406249999999966
40
0.406249999999966
40
0.437499999999965
40
0.437499999999965
40
0.499999999999973
40
0.499999999999973
40
0.62499999999998
40
0.62499999999998
40
0.749999999999986
40
0.749999999999986
40
0.874999999999993
40
0.874999999999993
40
1
40
1
40
1
40
1
41
1
10
20.8080608172525
20
2.697110887273
30
0
41
1
10
20.81850091723
20
2.67534758039753
30
0
41
1
10
20.8278036100493
20
2.65319987829929
30
0
41
1
10
20.8437042818318
20
2.60799039619809
30
0
41
1
10
20.8503055116578
20
2.58492971478131
30
0
41
1
10
20.8577129296589
20
2.5494956827034
30
0
41
1
10
20.8597635067022
20
2.53751836567625
30
0
41
1
10
20.8628849420425
20
2.51366199519711
30
0
41
1
10
20.8639673554725
20
2.50173724355219
30
0
41
1
10
20.8657099529816
20
2.46597378997114
30
0
41
1
10
20.8648690746944
20
2.44214586368616
30
0
41
1
10
20.8602662822806
20
2.40642796164914
30
0
41
1
10
20.8581662729185
20
2.39449144271961
30
0
41
1
10
20.8528174129026
20
2.37077625456214
30
0
41
1
10
20.8431764177872
20
2.33586598549496
30
0
41
1
10
20.828914028007
20
2.30284835732994
30
0
41
1
10
20.8118308317697
20
2.27098595914751
30
0
41
1
10
20.8056401438416
20
2.26051915338383
30
0
41
1
10
20.7924798823289
20
2.24014396650631
30
0
41
1
10
20.7855425620797
20
2.23027649529766
30
0
41
1
10
20.7637771876161
20
2.20152855508482
30
0
41
1
10
20.7480005272416
20
2.18349825084073
30
0
41
1
10
20.7143936872226
20
2.14927805810223
30
0
41
1
10
20.6965222899471
20
2.13305798166087
30
0
41
1
10
20.659235682452
20
2.10228837488251
30
0
41
1
10
20.6400146784494
20
2.08788884803394
30
0
41
1
10
20.5809915359703
20
2.04700999062109
30
0
41
1
10
20.539848270707
20
2.02281797211779
30
0
41
1
10
20.4763251802305
20
1.98961384421537
30
0
41
1
10
20.4548433217945
20
1.9790702388683
30
0
41
1
10
20.4113585001805
20
1.95887178020959
30
0
41
1
10
20.3893197410712
20
1.9492038694487
30
0
41
1
10
20.3230253002068
20
1.92154693731212
30
0
41
1
10
20.2784584762745
20
1.90482022078774
30
0
41
1
10
20.1439528896149
20
1.85835837540051
30
0
41
1
10
20.0532240023964
20
1.83227231990622
30
0
41
1
10
19.8704865912713
20
1.78601002213412
30
0
41
1
10
19.7784644406177
20
1.7658967129758
30
0
41
1
10
19.5935249508136
20
1.7298043906336
30
0
41
1
10
19.5006031684674
20
1.71384589769443
30
0
41
1
10
19.314088999336
20
1.68502599945936
30
0
41
1
10
19.2204947992985
20
1.67217296840283
30
0
41
1
10
19.1266353183886
20
1.66054509790891
30
0
0
SPLINE
5
CF
100
AcDbEntity
8
1
62
256
6
ByLayer
370
13
48
1
60
0
100
AcDbSpline
70
4
71
3
72
10
73
6
40
0
40
0
40
0
40
0
40
0.613409205043919
40
0.941852104759193
40
1
40
1
40
1
40
1
41
1
10
20.8080608169175
20
2.69711088730952
30
0
41
1
10
19.905373877945
20
2.67514443439938
30
0
41
1
10
18.5193536056391
20
2.4690066693139
30
0
41
1
10
17.0477634639362
20
2.00685090764347
30
0
41
1
10
16.4788602612057
20
1.79819823931854
30
0
41
1
10
16.3932903918086
20
1.76616969838287
30
0
0
SPLINE
5
D0
100
AcDbEntity
8
1
62
256
6
ByLayer
370
18
48
1
60
0
100
AcDbSpline
70
4
71
3
72
8
73
4
40
0
40
0
40
0
40
0
40
1
40
1
40
1
40
1
41
1
10
18.7800897710846
20
1.59495706792109
30
0
41
1
10
18.8628803734993
20
1.59495942467788
30
0
41
1
10
18.945670975914
20
1.59441374878773
30
0
41
1
10
19.0284615783287
20
1.59332163473039
30
0
0
SPLINE
5
D1
100
AcDbEntity
8
1
62
256
6
ByLayer
370
18
48
1
60
0
100
AcDbSpline
70
4
71
3
72
22
73
18
40
0
40
0
40
0
40
0
40
0.125
40
0.125
40
0.25
40
0.25
40
0.375
40
0.375
40
0.5
40
0.5
40
0.625
40
0.625
40
0.75
40
0.75
40
0.875
40
0.875
40
1
40
1
40
1
40
1
41
1
10
19.0251461761746
20
1.62125422625084
30
0
41
1
10
19.0245551055822
20
1.62271783948205
30
0
41
1
10
19.0246737009002
20
1.62428580270736
30
0
41
1
10
19.0263969427034
20
1.62766692800557
30
0
41
1
10
19.0280383657697
20
1.62949888645915
30
0
41
1
10
19.0327492750108
20
1.63324912050973
30
0
41
1
10
19.0358389470034
20
1.63519771725737
30
0
41
1
10
19.0434342183895
20
1.63916746722239
30
0
41
1
10
19.0478194245447
20
1.64112940336275
30
0
41
1
10
19.0576994054988
20
1.64498607324617
30
0
41
1
10
19.0632031155844
20
1.6468759845535
30
0
41
1
10
19.0747599356895
20
1.65038421401431
30
0
41
1
10
19.0809339835908
20
1.65204071644993
30
0
41
1
10
19.0936088034221
20
1.65503295668407
30
0
41
1
10
19.100078145492
20
1.65636558194714
30
0
41
1
10
19.1132558146514
20
1.65870991257083
30
0
41
1
10
19.1199583911371
20
1.65971792046636
30
0
41
1
10
19.1266353183886
20
1.66054509790891
30
0
0
SPLINE
5
D2
100
AcDbEntity
8
1
62
256
6
ByLayer
370
18
48
1
60
0
100
AcDbSpline
70
4
71
3
72
22
73
18
40
0
40
0
40
0
40
0
40
0.125
40
0.125
40
0.25
40
0.25
40
0.375
40
0.375
40
0.5
40
0.5
40
0.625
40
0.625
40
0.75
40
0.75
40
0.875
40
0.875
40
1
40
1
40
1
40
1
41
1
10
20.5930356104311
20
-0.244478563664472
30
0
41
1
10
20.5931815886864
20
-0.243868721474968
30
0
41
1
10
20.5935861254611
20
-0.24258361440161
30
0
41
1
10
20.5949010290491
20
-0.238841440817197
30
0
41
1
10
20.5958256543223
20
-0.236349919244532
30
0
41
1
10
20.5981990893556
20
-0.230442481322882
30
0
41
1
10
20.5996394136158
20
-0.227045524583275
30
0
41
1
10
20.6031101504787
20
-0.219485629043106
30
0
41
1
10
20.6051532368164
20
-0.215303389088547
30
0
41
1
10
20.6097968008581
20
-0.206546864921336
30
0
41
1
10
20.6124103090533
20
-0.201939563907928
30
0
41
1
10
20.6183517978875
20
-0.192314005282128
30
0
41
1
10
20.6216714591659
20
-0.187320505962361
30
0
41
1
10
20.6288514583145
20
-0.177397968740024
30
0
41
1
10
20.6327411975571
20
-0.172418020399135
30
0
41
1
10
20.6412285931187
20
-0.162453626472399
30
0
41
1
10
20.6457728996172
20
-0.157539949832454
30
0
41
1
10
20.6505243937138
20
-0.152828826239244
30
0
0
SPLINE
5
D3
100
AcDbEntity
8
1
62
256
6
ByLayer
370
18
48
1
60
0
100
AcDbSpline
70
4
71
3
72
22
73
18
40
0
40
0
40
0
40
0
40
0.125
40
0.125
40
0.25
40
0.25
40
0.375
40
0.375
40
0.5
40
0.5
40
0.625
40
0.625
40
0.75
40
0.75
40
0.875
40
0.875
40
1
40
1
40
1
40
1
41
1
10
20.5996624809073
20
-0.432758836687725
30
0
41
1
10
20.5998266273136
20
-0.433338942947415
30
0
41
1
10
20.6002793188345
20
-0.434540846579523
30
0
41
1
10
20.6017470306383
20
-0.438040547213348
30
0
41
1
10
20.6027768125604
20
-0.440368943456093
30
0
41
1
10
20.6054157201391
20
-0.445918999108926
30
0
41
1
10
20.6070124862225
20
-0.449116273779822
30
0
41
1
10
20.6108383383216
20
-0.456244243537924
30
0
41
1
10
20.6130881620681
20
-0.460205919295134
30
0
41
1
10
20.6181731052238
20
-0.468505202734946
30
0
41
1
10
20.6210202416203
20
-0.472870076660826
30
0
41
1
10
20.6274499500126
20
-0.481974190659628
30
0
41
1
10
20.6310418526051
20
-0.486714733170061
30
0
41
1
10
20.6387489036169
20
-0.496087611124267
30
0
41
1
10
20.6428989997561
20
-0.500773312055969
30
0
41
1
10
20.6518904200178
20
-0.510100314254089
30
0
41
1
10
20.6566817601063
20
-0.514681886625482
30
0
41
1
10
20.6616576262531
20
-0.519046163167019
30
0
0
SPLINE
5
D4
100
AcDbEntity
8
1
62
256
6
ByLayer
370
18
48
1
60
0
100
AcDbSpline
70
4
71
3
72
10
73
6
40
0
40
0
40
0
40
0
40
0.5
40
0.5
40
1
40
1
40
1
40
1
41
1
10
19.0251461761747
20
1.62125422625084
30
0
41
1
10
19.0281444672449
20
1.61382983644498
30
0
41
1
10
19.0300428094782
20
1.60763881925769
30
0
41
1
10
19.031270998801
20
1.59813683845979
30
0
41
1
10
19.0305904901588
20
1.59488638525147
30
0
41
1
10
19.0284615877228
20
1.5933216347855
30
0
0
SPLINE
5
D5
100
AcDbEntity
8
1
62
256
6
ByLayer
370
18
48
1
60
0
100
AcDbSpline
70
4
71
3
72
8
73
4
40
0
40
0
40
0
40
0
40
1
40
1
40
1
40
1
41
1
10
19.0284615785567
20
1.59332163793033
30
0
41
1
10
19.0276507893919
20
1.592721144655
30
0
41
1
10
19.0262994052522
20
1.59275564105897
30
0
41
1
10
19.024381934677
20
1.59346653859927
30
0
0
SPLINE
5
D6
100
AcDbEntity
8
1
62
256
6
ByLayer
370
18
48
1
60
0
100
AcDbSpline
70
4
71
3
72
18
73
14
40
0
40
0
40
0
40
0
40
0.125
40
0.125
40
0.25
40
0.25
40
0.5
40
0.75
40
0.75
40
0.812499999999999
40
0.812499999999999
40
0.874999999999999
40
1
40
1
40
1
40
1
41
1
10
20.2296009425774
20
-0.0632300351919923
30
0
41
1
10
20.227013803972
20
-0.109690976112716
30
0
41
1
10
20.2250514391809
20
-0.156738003699814
30
0
41
1
10
20.222413512977
20
-0.252039181011497
30
0
41
1
10
20.221741942665
20
-0.300474638976993
30
0
41
1
10
20.2217188587205
20
-0.445225927548364
30
0
41
1
10
20.2269095656743
20
-0.637912754691854
30
0
41
1
10
20.2421931514125
20
-0.82999091287067
30
0
41
1
10
20.2549608643518
20
-0.949845846996311
30
0
41
1
10
20.2576738030697
20
-0.973782993444701
30
0
41
1
10
20.2633907666031
20
-1.02136488623492
30
0
41
1
10
20.2724131256585
20
-1.09239535571643
30
0
41
1
10
20.2827616609832
20
-1.16240987396898
30
0
41
1
10
20.2902446569875
20
-1.20863885244802
30
0
0
SPLINE
5
D7
100
AcDbEntity
8
1
62
256
6
ByLayer
370
18
48
1
60
0
100
AcDbSpline
70
4
71
3
72
41
73
37
40
0
40
0
40
0
40
0
40
0.0625000000000001
40
0.125
40
0.125
40
0.15625
40
0.15625
40
0.171875
40
0.171875
40
0.1875
40
0.25
40
0.3125
40
0.3125
40
0.343749999999999
40
0.343749999999999
40
0.374999999999999
40
0.374999999999999
40
0.437499999999997
40
0.437499999999997
40
0.468749999999994
40
0.468749999999994
40
0.499999999999992
40
0.499999999999992
40
0.56249999999999
40
0.56249999999999
40
0.624999999999989
40
0.624999999999989
40
0.687499999999987
40
0.687499999999987
40
0.718749999999986
40
0.718749999999986
40
0.749999999999985
40
0.749999999999985
40
0.874999999999992
40
0.874999999999992
40
1
40
1
40
1
40
1
41
1
10
19.0243819253327
20
1.59346654213931
30
0
41
1
10
19.0144439153044
20
1.59715716382345
30
0
41
1
10
19.0000275994938
20
1.59816834170499
30
0
41
1
10
18.9966892774713
20
1.58625433788882
30
0
41
1
10
18.9985098009212
20
1.57227352816176
30
0
41
1
10
18.9998385461109
20
1.56677098160321
30
0
41
1
10
19.0029478044014
20
1.55721491238896
30
0
41
1
10
19.0041732863636
20
1.55380529838294
30
0
41
1
10
19.0069840730922
20
1.54659117274818
30
0
41
1
10
19.014911214831
20
1.52756215388237
30
0
41
1
10
19.0371305428322
20
1.48453337801834
30
0
41
1
10
19.0677253508491
20
1.43431454051321
30
0
41
1
10
19.0946761832225
20
1.39222958744787
30
0
41
1
10
19.1043630460213
20
1.37741188597624
30
0
41
1
10
19.1248497539663
20
1.34663521840144
30
0
41
1
10
19.1356531422389
20
1.33066840257069
30
0
41
1
10
19.1696628499405
20
1.28111572264177
30
0
41
1
10
19.1944645199066
20
1.24588195655124
30
0
41
1
10
19.2346267479647
20
1.18997408989904
30
0
41
1
10
19.2485085653489
20
1.17082744032808
30
0
41
1
10
19.2772341043461
20
1.13154055146464
30
0
41
1
10
19.2921060783665
20
1.11136231881795
30
0
41
1
10
19.3379414545891
20
1.04962834856596
30
0
41
1
10
19.3698812286985
20
1.00719652534346
30
0
41
1
10
19.4362248313533
20
0.920059507476452
30
0
41
1
10
19.4706299009312
20
0.875353167837829
30
0
41
1
10
19.541702450205
20
0.783853157034088
30
0
41
1
10
19.5783706314336
20
0.737058838625046
30
0
41
1
10
19.634969442727
20
0.665394371166826
30
0
41
1
10
19.6541022749654
20
0.641260281659441
30
0
41
1
10
19.6928892885605
20
0.592511098585192
30
0
41
1
10
19.7125587374448
20
0.567877319313453
30
0
41
1
10
19.8113742326364
20
0.444537455516979
30
0
41
1
10
19.8925267785803
20
0.344547933752239
30
0
41
1
10
20.0584254342604
20
0.142314293866235
30
0
41
1
10
20.1431773393881
20
0.0400665397252737
30
0
41
1
10
20.2296009425777
20
-0.0632300351920776
30
0
0
SPLINE
5
D8
100
AcDbEntity
8
1
62
256
6
ByLayer
370
18
48
1
60
0
100
AcDbSpline
70
4
71
3
72
14
73
10
40
0
40
0
40
0
40
0
40
0.25
40
0.25
40
0.5
40
0.5
40
0.75
40
0.75
40
1
40
1
40
1
40
1
41
1
10
20.7263956606105
20
-2.21216230550689
30
0
41
1
10
20.7308879183469
20
-2.21783696575579
30
0
41
1
10
20.7351922707052
20
-2.22440847683171
30
0
41
1
10
20.7434068060423
20
-2.23943289384587
30
0
41
1
10
20.7473334847123
20
-2.24792005862878
30
0
41
1
10
20.7546429683198
20
-2.26700830597653
30
0
41
1
10
20.7579639733719
20
-2.27744604671528
30
0
41
1
10
20.7637073371977
20
-2.30017977408915
30
0
41
1
10
20.7660687470549
20
-2.31220231375104
30
0
41
1
10
20.7678001804876
20
-2.32503434109751
30
0
0
SPLINE
5
D9
100
AcDbEntity
8
1
62
256
6
ByLayer
370
18
48
1
60
0
100
AcDbSpline
70
4
71
3
72
20
73
16
40
0
40
0
40
0
40
0
40
0.249999999999993
40
0.249999999999993
40
0.312499999999993
40
0.312499999999993
40
0.374999999999993
40
0.499999999999994
40
0.499999999999994
40
0.562499999999996
40
0.562499999999996
40
0.624999999999999
40
0.749999999999999
40
0.749999999999999
40
1
40
1
40
1
40
1
41
1
10
20.2902446569891
20
-1.20863885244915
30
0
41
1
10
20.317571887687
20
-1.31819809137616
30
0
41
1
10
20.3476274530881
20
-1.42191040707007
30
0
41
1
10
20.3884782227809
20
-1.54451882542961
30
0
41
1
10
20.3968109955014
20
-1.56867738024545
30
0
41
1
10
20.413733688233
20
-1.61609054816717
30
0
41
1
10
20.4395290922265
20
-1.68593079444972
30
0
41
1
10
20.4665409318637
20
-1.7519874504641
30
0
41
1
10
20.4943539921029
20
-1.81555199726677
30
0
41
1
10
20.503770440303
20
-1.83634835561068
30
0
41
1
10
20.5227805415335
20
-1.87692033649481
30
0
41
1
10
20.5515802811485
20
-1.93629414487589
30
0
41
1
10
20.5812163975723
20
-1.99130613731975
30
0
41
1
10
20.6415767949485
20
-2.09565519993035
30
0
41
1
10
20.6832619575901
20
-2.15768590819707
30
0
41
1
10
20.7263956568207
20
-2.21216230640658
30
0
0
SPLINE
5
DA
100
AcDbEntity
8
1
62
256
6
ByLayer
370
18
48
1
60
0
100
AcDbSpline
70
4
71
3
72
10
73
6
40
0
40
0
40
0
40
0
40
0.430282786895953
40
0.715141393447976
40
1
40
1
40
1
40
1
41
1
10
20.2902446569933
20
-1.20863885245035
30
0
41
1
10
19.5601631046622
20
-0.917807330258967
30
0
41
1
10
18.3467482189978
20
-0.38016762900088
30
0
41
1
10
16.65
20
0.399358737785718
30
0
41
1
10
15.6833333333333
20
0.82483558353465
30
0
41
1
10
15.2
20
1.02649372330211
30
0
0
SPLINE
5
DB
100
AcDbEntity
8
1
62
256
6
ByLayer
370
13
48
1
60
0
100
AcDbSpline
70
4
71
3
72
10
73
6
40
0
40
0
40
0
40
0
40
0.475245679551229
40
0.737622839775615
40
1
40
1
40
1
40
1
41
1
10
20.7263956617258
20
-2.2121623048146
30
0
41
1
10
19.8509304411505
20
-2.02672797375337
30
0
41
1
10
18.4921318872419
20
-1.60654527708237
30
0
41
1
10
16.65
20
-0.84850046009953
30
0
41
1
10
15.6833333333333
20
-0.411984069116329
30
0
41
1
10
15.2
20
-0.191721844472056
30
0
0
SPLINE
5
DC
100
AcDbEntity
8
1
62
256
6
ByLayer
370
18
48
1
60
0
100
AcDbSpline
70
4
71
3
72
8
73
4
40
0
40
0
40
0
40
0
40
1
40
1
40
1
40
1
41
1
10
14.59098752779
20
-1.66962573050063
30
0
41
1
10
14.5876306273613
20
-1.66388150641123
30
0
41
1
10
14.5842539968312
20
-1.65814749002763
30
0
41
1
10
14.5808573487218
20
-1.65242391983293
30
0
0
SPLINE
5
DD
100
AcDbEntity
8
1
62
256
6
ByLayer
370
18
48
1
60
0
100
AcDbSpline
70
4
71
3
72
8
73
4
40
0
40
0
40
0
40
0
40
1
40
1
40
1
40
1
41
1
10
14.1623692835907
20
-1.46880508317165
30
0
41
1
10
14.1600646524372
20
-1.46430134451441
30
0
41
1
10
14.1577600212837
20
-1.45979760585715
30
0
41
1
10
14.1554553901302
20
-1.45529386719991
30
0
0
SPLINE
5
DE
100
AcDbEntity
8
1
62
256
6
ByLayer
370
18
48
1
60
0
100
AcDbSpline
70
4
71
3
72
8
73
4
40
0
40
0
40
0
40
0
40
1
40
1
40
1
40
1
41
1
10
20.7205514601412
20
-2.89628926106292
30
0
41
1
10
20.7431344203174
20
-2.89620487977169
30
0
41
1
10
20.7657184165728
20
-2.89617100555751
30
0
41
1
10
20.788303451672
20
-2.89618777320689
30
0
0
SPLINE
5
DF
100
AcDbEntity
8
1
62
256
6
ByLayer
370
18
48
1
60
0
100
AcDbSpline
70
4
71
3
72
9
73
5
40
0
40
0
40
0
40
0
40
0.851403118104035
40
1
40
1
40
1
40
1
41
1
10
14.1554553905405
20
-1.4552938673728
30
0
41
1
10
14.2761873389677
20
-1.51253117173607
30
0
41
1
10
14.4179873660527
20
-1.57851652335296
30
0
41
1
10
14.5597864423381
20
-1.64289392339847
30
0
41
1
10
14.580857350034
20
-1.65242392024229
30
0
0
SPLINE
5
E0
100
AcDbEntity
8
1
62
256
6
ByLayer
370
18
48
1
60
0
100
AcDbSpline
70
4
71
3
72
10
73
6
40
0
40
0
40
0
40
0
40
0.5
40
0.5
40
1
40
1
40
1
40
1
41
1
10
14.5808573500519
20
-1.65242391982554
30
0
41
1
10
14.6713820680128
20
-1.61231331513721
30
0
41
1
10
14.7624585859575
20
-1.57402703300562
30
0
41
1
10
14.9456921482785
20
-1.50102683120892
30
0
41
1
10
15.0377353317492
20
-1.46636096107125
30
0
41
1
10
15.1300668186253
20
-1.4335627703619
30
0
0
SPLINE
5
E1
100
AcDbEntity
8
1
62
256
6
ByLayer
370
18
48
1
60
0
100
AcDbSpline
70
4
71
3
72
8
73
4
40
0
40
0
40
0
40
0
40
1
40
1
40
1
40
1
41
1
10
13.9852210679879
20
-1.38452641882961
30
0
41
0.999958640686825
10
14.0418644995701
20
-1.407709892615
30
0
41
0.999958640686825
10
14.0986116207079
20
-1.43130001777199
30
0
41
1
10
14.1554553903353
20
-1.45529386728646
30
0
0
SPLINE
5
E2
100
AcDbEntity
8
1
62
256
6
ByLayer
370
18
48
1
60
0
100
AcDbSpline
70
4
71
3
72
21
73
17
40
0
40
0
40
0
40
0
40
0.0723960344208836
40
0.144638712402826
40
0.216729243568581
40
0.288668807374363
40
0.360458553543445
40
0.432099602492995
40
0.503593045754155
40
0.574939946385796
40
0.64614133938159
40
0.71719823207066
40
0.788111604512112
40
0.858882409883172
40
0.929511574861228
40
1
40
1
40
1
40
1
41
1
10
14.4065377374469
20
-0.998476475957887
30
0
41
1
10
14.4003520372057
20
-1.00926360923165
30
0
41
1
10
14.3879937398851
20
-1.03081502540681
30
0
41
1
10
14.3695451520047
20
-1.0632537596214
30
0
41
1
10
14.3511867399348
20
-1.09572783462747
30
0
41
1
10
14.3329234123329
20
-1.12824571091886
30
0
41
1
10
14.3147538394577
20
-1.16080245855446
30
0
41
1
10
14.296678357604
20
-1.19339676180209
30
0
41
1
10
14.2786968547606
20
-1.22602637252723
30
0
41
1
10
14.2608093468528
20
-1.25868934083607
30
0
41
1
10
14.2430157813625
20
-1.29138362531975
30
0
41
1
10
14.2253162479975
20
-1.3241074234449
30
0
41
1
10
14.2077103339947
20
-1.35685824056947
30
0
41
1
10
14.1901994859492
20
-1.38963627340661
30
0
41
1
10
14.1727782319811
20
-1.4224318414509
30
0
41
1
10
14.1612258305282
20
-1.44434714427842
30
0
41
1
10
14.1554553905405
20
-1.4552938673728
30
0
0
SPLINE
5
E3
100
AcDbEntity
8
1
62
256
6
ByLayer
370
18
48
1
60
0
100
AcDbSpline
70
4
71
3
72
22
73
18
40
0
40
0
40
0
40
0
40
0.249999999999999
40
0.249999999999999
40
0.312499999999999
40
0.312499999999999
40
0.375
40
0.375
40
0.5
40
0.625
40
0.625
40
0.6875
40
0.6875
40
0.75
40
0.875
40
0.875
40
1
40
1
40
1
40
1
41
1
10
13.9852210679882
20
-1.38452641882944
30
0
41
1
10
13.9672820849201
20
-1.34283710884429
30
0
41
1
10
13.9548852148904
20
-1.29962325203064
30
0
41
1
10
13.9474727463166
20
-1.24337954386874
30
0
41
1
10
13.9463975325737
20
-1.23201876731827
30
0
41
1
10
13.9451049450657
20
-1.20906179684451
30
0
41
1
10
13.9448945680573
20
-1.19754864476218
30
0
41
1
10
13.945564291216
20
-1.16316201377086
30
0
41
1
10
13.9499091724197
20
-1.11750640327446
30
0
41
1
10
13.9610110866098
20
-1.07224490020127
30
0
41
1
10
13.9718599382239
20
-1.03845426438986
30
0
41
1
10
13.9758931952984
20
-1.02723955482
30
0
41
1
10
13.9846576793988
20
-1.00518057656558
30
0
41
1
10
13.9988893479309
20
-0.972528137451349
30
0
41
1
10
14.0161900919902
20
-0.941115554772324
30
0
41
1
10
14.0417368393538
20
-0.900245338537076
30
0
41
1
10
14.0557895226146
20
-0.880274274257005
30
0
41
1
10
14.0708292234529
20
-0.860973092482965
30
0
0
SPLINE
5
E4
100
AcDbEntity
8
1
62
256
6
ByLayer
370
18
48
1
60
0
100
AcDbSpline
70
4
71
3
72
28
73
24
40
0
40
0
40
0
40
0
40
0.124999999999963
40
0.124999999999963
40
0.249999999999925
40
0.249999999999925
40
0.312499999999931
40
0.312499999999931
40
0.374999999999937
40
0.374999999999937
40
0.437499999999943
40
0.437499999999943
40
0.499999999999949
40
0.499999999999949
40
0.562499999999955
40
0.562499999999955
40
0.624999999999961
40
0.624999999999961
40
0.749999999999974
40
0.749999999999974
40
0.874999999999987
40
0.874999999999987
40
1
40
1
40
1
40
1
41
1
10
11.4917410160728
20
1.37749072883855
30
0
41
1
10
11.4861160794624
20
1.38255187297662
30
0
41
1
10
11.4807299991413
20
1.38777568152128
30
0
41
1
10
11.4707274803279
20
1.39875205044945
30
0
41
1
10
11.4660610945578
20
1.40453085926734
30
0
41
1
10
11.46029496475
20
1.41385131651799
30
0
41
1
10
11.4586026584315
20
1.41703707109667
30
0
41
1
10
11.455918567247
20
1.42365102553663
30
0
41
1
10
11.4549141694646
20
1.42713619432399
30
0
41
1
10
11.454162183118
20
1.43417629855685
30
0
41
1
10
11.4544408215077
20
1.43779698028914
30
0
41
1
10
11.4566700147113
20
1.44453216913138
30
0
41
1
10
11.458660344481
20
1.44771571138972
30
0
41
1
10
11.4638102131214
20
1.45313541824001
30
0
41
1
10
11.4669574115815
20
1.45542241877288
30
0
41
1
10
11.4736802710764
20
1.45923994569975
30
0
41
1
10
11.4773317747975
20
1.46081991356508
30
0
41
1
10
11.4884608188002
20
1.4647766029492
30
0
41
1
10
11.4962395743091
20
1.46647661882133
30
0
41
1
10
11.5120552546334
20
1.4689614373344
30
0
41
1
10
11.5200062436649
20
1.46970850490976
30
0
41
1
10
11.5359588073259
20
1.47062272221652
30
0
41
1
10
11.543961101615
20
1.47078157103218
30
0
41
1
10
11.5519813362374
20
1.47073478950901
30
0
0
SPLINE
5
E5
100
AcDbEntity
8
1
62
256
6
ByLayer
370
18
48
1
60
0
100
AcDbSpline
70
4
71
3
72
30
73
26
40
0
40
0
40
0
40
0
40
0.125000000000015
40
0.125000000000015
40
0.250000000000031
40
0.250000000000031
40
0.375000000000047
40
0.375000000000047
40
0.500000000000062
40
0.500000000000062
40
0.562500000000075
40
0.562500000000075
40
0.593750000000077
40
0.593750000000077
40
0.625000000000078
40
0.625000000000078
40
0.750000000000062
40
0.750000000000062
40
0.812500000000049
40
0.812500000000049
40
0.843750000000038
40
0.843750000000038
40
0.875000000000027
40
0.875000000000027
40
1
40
1
40
1
40
1
41
1
10
11.5519813362374
20
1.47073478950904
30
0
41
1
10
11.6300921002005
20
1.47027917434497
30
0
41
1
10
11.7080447251351
20
1.47104743238953
30
0
41
1
10
11.8635644416212
20
1.47556261662425
30
0
41
1
10
11.9411318297625
20
1.47930771856056
30
0
41
1
10
12.0957881684531
20
1.49046897204951
30
0
41
1
10
12.1728775887838
20
1.49788238883679
30
0
41
1
10
12.3264498754343
20
1.51730351155467
30
0
41
1
10
12.4029335164951
20
1.52930700802725
30
0
41
1
10
12.517068021625
20
1.55169976280652
30
0
41
1
10
12.555013878379
20
1.55989824803601
30
0
41
1
10
12.6117615252269
20
1.57344850763135
30
0
41
1
10
12.6306515093558
20
1.57817580204093
30
0
41
1
10
12.6681567238493
20
1.5880177727916
30
0
41
1
10
12.6867978699164
20
1.59313842325616
30
0
41
1
10
12.779418200832
20
1.61977988447066
30
0
41
1
10
12.8516464748895
20
1.6444152257973
30
0
41
1
10
12.9565839242571
20
1.68712905417396
30
0
41
1
10
12.9909945104471
20
1.70232723034738
30
0
41
1
10
13.04167295863
20
1.72665793362896
30
0
41
1
10
13.0584094745959
20
1.73502368523304
30
0
41
1
10
13.0915551039606
20
1.7522807860737
30
0
41
1
10
13.107990646213
20
1.7611878104405
30
0
41
1
10
13.1887952522361
20
1.80677211303177
30
0
41
1
10
13.2492899411051
20
1.84673148551317
30
0
41
1
10
13.3054875718548
20
1.88985135510794
30
0
0
SPLINE
5
E6
100
AcDbEntity
8
1
62
256
6
ByLayer
370
18
48
1
60
0
100
AcDbSpline
70
4
71
3
72
26
73
22
40
0
40
0
40
0
40
0
40
0.074441515266492
40
0.074441515266492
40
0.140552835604595
40
0.140552835604595
40
0.206664155942698
40
0.206664155942698
40
0.338886796618909
40
0.338886796618909
40
0.404998116957018
40
0.404998116957018
40
0.471109437295126
40
0.471109437295126
40
0.60333207797135
40
0.60333207797135
40
0.669443398309459
40
0.669443398309459
40
0.735554718647567
40
0.735554718647567
40
1
40
1
40
1
40
1
41
1
10
12.8720693414097
20
-2.9348833466224
30
0
41
1
10
12.8527273317068
20
-2.94368851465569
30
0
41
1
10
12.832727187384
20
-2.95156197904461
30
0
41
1
10
12.7936310388465
20
-2.964714840418
30
0
41
1
10
12.7746828596253
20
-2.97018555050281
30
0
41
1
10
12.735583216518
20
-2.979726517719
30
0
41
1
10
12.715438656348
20
-2.98379140367933
30
0
41
1
10
12.6535102385623
20
-2.99388271653137
30
0
41
1
10
12.6101009471049
20
-2.99784159505794
30
0
41
1
10
12.5413721725031
20
-3.00006682247297
30
0
41
1
10
12.5178592203933
20
-3.00018964075022
30
0
41
1
10
12.4695446388205
20
-2.99927165681831
30
0
41
1
10
12.4448047640832
20
-2.99823150261412
30
0
41
1
10
12.3688720617483
20
-2.99352102245587
30
0
41
1
10
12.3159148333475
20
-2.98825952356921
30
0
41
1
10
12.2326071100021
20
-2.977789555676
30
0
41
1
10
12.2041496710741
20
-2.97386351640708
30
0
41
1
10
12.1461025387221
20
-2.96528743428738
30
0
41
1
10
12.1165402037959
20
-2.96064265988767
30
0
41
1
10
11.9659685844982
20
-2.93593439560368
30
0
41
1
10
11.8366400371
20
-2.9114701509439
30
0
41
1
10
11.6978799800528
20
-2.88573078151191
30
0
0
SPLINE
5
E7
100
AcDbEntity
8
1
62
256
6
ByLayer
370
18
48
1
60
0
100
AcDbSpline
70
4
71
3
72
8
73
4
40
0
40
0
40
0
40
0
40
1
40
1
40
1
40
1
41
1
10
11.6978799800528
20
-2.88573078151191
30
0
41
1
10
11.6840997285785
20
-2.8831746065498
30
0
41
1
10
11.6710054785979
20
-2.88034189325271
30
0
41
1
10
11.6588672826104
20
-2.87710723411951
30
0
0
SPLINE
5
E8
100
AcDbEntity
8
1
62
256
6
ByLayer
370
18
48
1
60
0
100
AcDbSpline
70
4
71
3
72
8
73
4
40
0
40
0
40
0
40
0
40
1
40
1
40
1
40
1
41
1
10
14.1623692835907
20
-1.46880508317165
30
0
41
1
10
14.305273355152
20
-1.53734150509322
30
0
41
1
10
14.448113309696
20
-1.60433229102628
30
0
41
1
10
14.5909875278036
20
-1.66962573050682
30
0
0
SPLINE
5
E9
100
AcDbEntity
8
1
62
256
6
ByLayer
370
18
48
1
60
0
100
AcDbSpline
70
4
71
3
72
8
73
4
40
0
40
0
40
0
40
0
40
1
40
1
40
1
40
1
41
1
10
14.1623692932865
20
-1.46880508573616
30
0
41
1
10
14.1034242740891
20
-1.44078645662009
30
0
41
1
10
14.0443753645475
20
-1.41268981709243
30
0
41
1
10
13.9852210679882
20
-1.38452641882972
30
0
0
SPLINE
5
EA
100
AcDbEntity
8
1
62
256
6
ByLayer
370
18
48
1
60
0
100
AcDbSpline
70
4
71
3
72
8
73
4
40
0
40
0
40
0
40
0
40
1
40
1
40
1
40
1
41
1
10
20.7546726852546
20
-2.62512270635037
30
0
41
1
10
20.7707655188115
20
-2.61019598542785
30
0
41
1
10
20.7868463816856
20
-2.5952103968022
30
0
41
1
10
20.8029151216098
20
-2.5801651916762
30
0
0
SPLINE
5
EB
100
AcDbEntity
8
1
62
256
6
ByLayer
370
18
48
1
60
0
100
AcDbSpline
70
4
71
3
72
8
73
4
40
0
40
0
40
0
40
0
40
1
40
1
40
1
40
1
41
1
10
20.7678001867291
20
-2.32503433677957
30
0
41
1
10
20.779274426036
20
-2.41026030906548
30
0
41
1
10
20.7909748123559
20
-2.49530755440512
30
0
41
1
10
20.8029151216098
20
-2.5801651916762
30
0
0
SPLINE
5
EC
100
AcDbEntity
8
1
62
256
6
ByLayer
370
13
48
1
60
0
100
AcDbSpline
70
4
71
3
72
10
73
6
40
0
40
0
40
0
40
0
40
0.479147975490006
40
0.739573987745003
40
1
40
1
40
1
40
1
41
1
10
20.7678001880252
20
-2.32503433606169
30
0
41
1
10
19.8785334586835
20
-2.15212310325288
30
0
41
1
10
18.5059333960084
20
-1.7420283564559
30
0
41
1
10
16.6500000000001
20
-0.979148842056674
30
0
41
1
10
15.6833333333334
20
-0.536979181420577
30
0
41
1
10
15.2000000000001
20
-0.312418319486113
30
0
0
SPLINE
5
ED
100
AcDbEntity
8
1
62
256
6
ByLayer
370
18
48
1
60
0
100
AcDbSpline
70
4
71
3
72
10
73
6
40
0
40
0
40
0
40
0
40
0.5
40
0.5
40
1
40
1
40
1
40
1
41
1
10
20.7546726852542
20
-2.62512270635025
30
0
41
1
10
20.7722803303477
20
-2.67197460863028
30
0
41
1
10
20.7913009600881
20
-2.71744237767041
30
0
41
1
10
20.8329457900492
20
-2.80484792574225
30
0
41
1
10
20.8555567426063
20
-2.8467671916876
30
0
41
1
10
20.8804759414112
20
-2.88637356516699
30
0
0
SPLINE
5
EE
100
AcDbEntity
8
1
62
256
6
ByLayer
370
18
48
1
60
0
100
AcDbSpline
70
4
71
3
72
28
73
24
40
0
40
0
40
0
40
0
40
0.125
40
0.125
40
0.187499999999999
40
0.187499999999999
40
0.249999999999999
40
0.249999999999999
40
0.374999999999999
40
0.374999999999999
40
0.499999999999998
40
0.499999999999998
40
0.562499999999998
40
0.562499999999998
40
0.624999999999998
40
0.624999999999998
40
0.749999999999998
40
0.749999999999998
40
0.874999999999997
40
0.874999999999997
40
0.937499999999999
40
0.937499999999999
40
1
40
1
40
1
40
1
41
1
10
20.7546726852545
20
-2.62512270635031
30
0
41
1
10
20.5231411482836
20
-2.58160660692161
30
0
41
1
10
20.2915806324215
20
-2.53128900786783
30
0
41
1
10
19.943857511228
20
-2.44612323499618
30
0
41
1
10
19.8278859435532
20
-2.41611571082339
30
0
41
1
10
19.5957527354853
20
-2.35290695446585
30
0
41
1
10
19.4796735295443
20
-2.3197259663649
30
0
41
1
10
19.131988735899
20
-2.21574763320078
30
0
41
1
10
18.9006889308321
20
-2.14037208033275
30
0
41
1
10
18.4384118661718
20
-1.97813553628873
30
0
41
1
10
18.2073990049448
20
-1.8914220688342
30
0
41
1
10
17.8605157370093
20
-1.75345155227635
30
0
41
1
10
17.7448164842112
20
-1.70619091433278
30
0
41
1
10
17.5131447391078
20
-1.60942652022729
30
0
41
1
10
17.3971025772461
20
-1.55987272232369
30
0
41
1
10
17.0495978638217
20
-1.40849323464644
30
0
41
1
10
16.8184357903141
20
-1.30382023783864
30
0
41
1
10
16.3563713829266
20
-1.08821045802105
30
0
41
1
10
16.1254679494997
20
-0.977285556886841
30
0
41
1
10
15.7788104433365
20
-0.806940750062921
30
0
41
1
10
15.663215257481
20
-0.749467842597568
30
0
41
1
10
15.4318117693595
20
-0.633420861351766
30
0
41
1
10
15.315993155475
20
-0.574886420585443
30
0
41
1
10
15.2000000000001
20
-0.516001905990606
30
0
0
SPLINE
5
EF
100
AcDbEntity
8
1
62
256
6
ByLayer
370
18
48
1
60
0
100
AcDbSpline
70
4
71
3
72
8
73
4
40
0
40
0
40
0
40
0
40
1
40
1
40
1
40
1
41
1
10
15.2000000000001
20
-0.516001905990606
30
0
41
1
10
15.0418142485373
20
-0.449253902008934
30
0
41
1
10
14.8841428533582
20
-0.381137766148328
30
0
41
1
10
14.7271108988191
20
-0.311320787599357
30
0
0
SPLINE
5
F0
100
AcDbEntity
8
1
62
256
6
ByLayer
370
18
48
1
60
0
100
AcDbSpline
70
4
71
3
72
8
73
4
40
0
40
0
40
0
40
0
40
1
40
1
40
1
40
1
41
1
10
20.7883034517256
20
-2.89618777316926
30
0
41
1
10
20.8190163079612
20
-2.89280977932111
30
0
41
1
10
20.8497405361811
20
-2.88953898968791
30
0
41
1
10
20.8804759414109
20
-2.88637356516702
30
0
0
SPLINE
5
F1
100
AcDbEntity
8
1
62
256
6
ByLayer
370
18
48
1
60
0
100
AcDbSpline
70
4
71
3
72
8
73
4
40
0
40
0
40
0
40
0
40
1
40
1
40
1
40
1
41
1
10
14.0708292111553
20
-0.860973087600939
30
0
41
0.999842288113802
10
14.182310929641
20
-0.905230101632045
30
0
41
0.999842288113802
10
14.2942314224439
20
-0.951071793992172
30
0
41
1
10
14.4065377359878
20
-0.998476475341988
30
0
0
SPLINE
5
F2
100
AcDbEntity
8
1
62
256
6
ByLayer
370
18
48
1
60
0
100
AcDbSpline
70
4
71
3
72
25
73
21
40
0
40
0
40
0
40
0
40
0.0555291488554113
40
0.111056145534979
40
0.166582046354277
40
0.222107887180255
40
0.277634684113648
40
0.333163434141291
40
0.388695115759258
40
0.444230689567306
40
0.499771098835538
40
0.555317270043733
40
0.610870113394201
40
0.66643052337432
40
0.721999381470555
40
0.777577553975863
40
0.833165886754043
40
0.888765205197986
40
0.94437631451344
40
1
40
1
40
1
40
1
41
1
10
14.7271108995903
20
-0.311320785889137
30
0
41
1
10
14.7209298530377
20
-0.323823883799435
30
0
41
1
10
14.708567999495
20
-0.348829595030082
30
0
41
1
10
14.6901311638341
20
-0.386448137129378
30
0
41
1
10
14.6717725538375
20
-0.424143624586719
30
0
41
1
10
14.6534997476976
20
-0.461922415332197
30
0
41
1
10
14.6353107345925
20
-0.499780609936408
30
0
41
1
10
14.6172060699799
20
-0.537717093461026
30
0
41
1
10
14.5991856186949
20
-0.575730040642156
30
0
41
1
10
14.5812494278283
20
-0.613817852107815
30
0
41
1
10
14.5633974926021
20
-0.651978903054129
30
0
41
1
10
14.5456298203804
20
-0.690211610965804
30
0
41
1
10
14.5279464091818
20
-0.728514414779426
30
0
41
1
10
14.5103472697552
20
-0.766885789803979
30
0
41
1
10
14.4928323582343
20
-0.805324209733101
30
0
41
1
10
14.4754018245723
20
-0.843828282802775
30
0
41
1
10
14.4580550861934
20
-0.882396232004794
30
0
41
1
10
14.4407942878344
20
-0.921027822043158
30
0
41
1
10
14.4236113883738
20
-0.959717161503818
30
0
41
1
10
14.4122293813174
20
-0.985555729681437
30
0
41
1
10
14.4065377343662
20
-0.998476474420471
30
0
0
SPLINE
5
F3
100
AcDbEntity
8
1
62
256
6
ByLayer
370
18
48
1
60
0
100
AcDbSpline
70
4
71
3
72
8
73
4
40
0
40
0
40
0
40
0
40
1
40
1
40
1
40
1
41
1
10
14.2045383036656
20
-0.23242644384564
30
0
41
1
10
14.3775072776389
20
-0.25428082523041
30
0
41
1
10
14.5516965642919
20
-0.280573436661399
30
0
41
1
10
14.7271106967174
20
-0.311320764821801
30
0
0
SPLINE
5
F4
100
AcDbEntity
8
1
62
256
6
ByLayer
370
18
48
1
60
0
100
AcDbSpline
70
4
71
3
72
21
73
17
40
0
40
0
40
0
40
0
40
0.249999999999994
40
0.249999999999994
40
0.374999999999991
40
0.374999999999991
40
0.437499999999988
40
0.437499999999988
40
0.499999999999985
40
0.499999999999985
40
0.749999999999984
40
0.749999999999984
40
0.812499999999985
40
0.812499999999985
40
0.874999999999985
40
1
40
1
40
1
40
1
41
1
10
14.0708292210947
20
-0.860973091305254
30
0
41
1
10
14.0589178103255
20
-0.807930200279145
30
0
41
1
10
14.0527351963964
20
-0.754230764763207
30
0
41
1
10
14.0524820918182
20
-0.672658766132685
30
0
41
1
10
14.0539054434846
20
-0.645297350415063
30
0
41
1
10
14.0583995307052
20
-0.60399148940698
30
0
41
1
10
14.0602869736817
20
-0.590235626328052
30
0
41
1
10
14.0647935276482
20
-0.562966156217811
30
0
41
1
10
14.0674160738299
20
-0.549419204857401
30
0
41
1
10
14.0823227449643
20
-0.482112236734452
30
0
41
1
10
14.0999646699864
20
-0.429629518907944
30
0
41
1
10
14.1285884350654
20
-0.365618002131072
30
0
41
1
10
14.1346444962819
20
-0.352898421375272
30
0
41
1
10
14.1472594339263
20
-0.327889746396124
30
0
41
1
10
14.1669837757311
20
-0.290913806819418
30
0
41
1
10
14.1889722224369
20
-0.25545572388566
30
0
41
1
10
14.2045383036575
20
-0.232426443857662
30
0
0
SPLINE
5
F5
100
AcDbEntity
8
1
62
256
6
ByLayer
370
18
48
1
60
0
100
AcDbSpline
70
4
71
3
72
24
73
20
40
0
40
0
40
0
40
0
40
0.125000000000001
40
0.125000000000001
40
0.187500000000001
40
0.187500000000001
40
0.250000000000002
40
0.374999999999999
40
0.374999999999999
40
0.437499999999998
40
0.437499999999998
40
0.499999999999997
40
0.499999999999997
40
0.749999999999996
40
0.749999999999996
40
0.812499999999996
40
0.812499999999996
40
0.874999999999996
40
1
40
1
40
1
40
1
41
1
10
15.2000000000001
20
-1.40909735695786
30
0
41
1
10
15.4303688851244
20
-1.51619539845228
30
0
41
1
10
15.6604606924866
20
-1.61938678023086
30
0
41
1
10
16.0058033127926
20
-1.76732453839375
30
0
41
1
10
16.1210174199265
20
-1.81552630194994
30
0
41
1
10
16.3511879145577
20
-1.90933896606521
30
0
41
1
10
16.6961015021072
20
-2.04619323010144
30
0
41
1
10
17.0404623598564
20
-2.17088161797977
30
0
41
1
10
17.3850700437011
20
-2.28666384895803
30
0
41
1
10
17.4999802193953
20
-2.3237732955472
30
0
41
1
10
17.7299827757129
20
-2.39488554298705
30
0
41
1
10
17.845114919812
20
-2.42889710678799
30
0
41
1
10
18.421045231968
20
-2.59076084410128
30
0
41
1
10
18.8800204974448
20
-2.69333091464529
30
0
41
1
10
19.4555866559671
20
-2.78504637161726
30
0
41
1
10
19.5707872562782
20
-2.80156114615181
30
0
41
1
10
19.8008828742487
20
-2.83079827510804
30
0
41
1
10
20.1457913298994
20
-2.86900285369293
30
0
41
1
10
20.4904666027
20
-2.89006049028848
30
0
41
1
10
20.7205514601405
20
-2.89628926106346
30
0
0
SPLINE
5
F6
100
AcDbEntity
8
1
62
256
6
ByLayer
370
18
48
1
60
0
100
AcDbSpline
70
4
71
2
72
6
73
3
40
0
40
0
40
0
40
1
40
1
40
1
41
0.50000002988113
10
15.192414543327
20
-1.41160085448744
30
0
41
0.499999970118869
10
15.1962076044477
20
-1.41033658977655
30
0
41
0.50000002988113
10
15.2000000000001
20
-1.40907162252735
30
0
0
SPLINE
5
F7
100
AcDbEntity
8
1
62
256
6
ByLayer
370
18
48
1
60
0
100
AcDbSpline
70
4
71
3
72
8
73
4
40
0
40
0
40
0
40
0
40
1
40
1
40
1
40
1
41
1
10
15.1300668186254
20
-1.43356277036227
30
0
41
1
10
15.150697679814
20
-1.42590458355053
30
0
41
1
10
15.1714781104779
20
-1.41857917420879
30
0
41
1
10
15.1924145433269
20
-1.41160085448746
30
0
0
SPLINE
5
F8
100
AcDbEntity
8
1
62
256
6
ByLayer
370
18
48
1
60
0
100
AcDbSpline
70
4
71
3
72
18
73
14
40
0
40
0
40
0
40
0
40
0.249999999999998
40
0.249999999999998
40
0.499999999999995
40
0.499999999999995
40
0.624999999999996
40
0.624999999999996
40
0.749999999999998
40
0.749999999999998
40
0.874999999999999
40
0.874999999999999
40
1
40
1
40
1
40
1
41
1
10
15.1300668186342
20
-1.43356277036983
30
0
41
1
10
15.1344879637302
20
-1.42959560073339
30
0
41
1
10
15.1389791247528
20
-1.42569128204633
30
0
41
1
10
15.1482166585655
20
-1.41814620811644
30
0
41
1
10
15.1529660157294
20
-1.41448437956816
30
0
41
1
10
15.1604850821677
20
-1.40950144847321
30
0
41
1
10
15.1630558631818
20
-1.4079289699269
30
0
41
1
10
15.1684319125974
20
-1.40510344845748
30
0
41
1
10
15.1712628103744
20
-1.40383680934721
30
0
41
1
10
15.1771749016098
20
-1.40202356427631
30
0
41
1
10
15.1803146304635
20
-1.40148401913211
30
0
41
1
10
15.186549749294
20
-1.40170051138543
30
0
41
1
10
15.1896137098963
20
-1.40247466867447
30
0
41
1
10
15.1924145433261
20
-1.40374347999241
30
0
0
SPLINE
5
F9
100
AcDbEntity
8
1
62
256
6
ByLayer
370
18
48
1
60
0
100
AcDbSpline
70
4
71
3
72
8
73
4
40
0
40
0
40
0
40
0
40
1
40
1
40
1
40
1
41
1
10
15.1924145433269
20
-1.40374347999281
30
0
41
1
10
15.1949430527196
20
-1.40488892523823
30
0
41
1
10
15.1974715402939
20
-1.40603397861054
30
0
41
1
10
15.2
20
-1.40717864865528
30
0
0
SPLINE
5
FA
100
AcDbEntity
8
1
62
256
6
ByLayer
370
18
48
1
60
0
100
AcDbSpline
70
4
71
3
72
8
73
4
40
0
40
0
40
0
40
0
40
1
40
1
40
1
40
1
41
1
10
15.2
20
-1.40717864865505
30
0
41
1
10
15.2
20
-1.40781821804484
30
0
41
1
10
15.2
20
-1.40845778747911
30
0
41
1
10
15.2
20
-1.40909735695786
30
0
0
SPLINE
5
FB
100
AcDbEntity
8
1
62
256
6
ByLayer
370
18
48
1
60
0
100
AcDbSpline
70
4
71
3
72
32
73
28
40
0
40
0
40
0
40
0
40
0.0883841079266471
40
0.0883841079266471
40
0.176768215853294
40
0.176768215853294
40
0.265152323779941
40
0.265152323779941
40
0.353536431706588
40
0.353536431706588
40
0.441920539633235
40
0.441920539633235
40
0.530304647559882
40
0.530304647559882
40
0.618688755486529
40
0.618688755486529
40
0.707072863413176
40
0.707072863413176
40
0.795456971339823
40
0.795456971339823
40
0.839649025303145
40
0.839649025303145
40
0.883841079266466
40
0.883841079266466
40
0.972225187193106
40
0.972225187193106
40
1
40
1
40
1
40
1
41
1
10
13.3054875718548
20
1.88985135510794
30
0
41
1
10
13.3123528438679
20
1.95507530998432
30
0
41
1
10
13.3140136471498
20
2.01751162119933
30
0
41
1
10
13.3103218405231
20
2.13714632259467
30
0
41
1
10
13.304922902895
20
2.19434143702148
30
0
41
1
10
13.2886236565748
20
2.30361322548129
30
0
41
1
10
13.2777062482962
20
2.35568881095125
30
0
41
1
10
13.2510395573927
20
2.45469551327068
30
0
41
1
10
13.2354685647864
20
2.50093804759894
30
0
41
1
10
13.2004109968706
20
2.58712348827618
30
0
41
1
10
13.18091060764
20
2.62709412615865
30
0
41
1
10
13.1380638749135
20
2.70100147343894
30
0
41
1
10
13.1147156024308
20
2.73493685915744
30
0
41
1
10
13.0639624588519
20
2.79684251069534
30
0
41
1
10
13.0368789586633
20
2.82441617857563
30
0
41
1
10
12.9791682945187
20
2.87321684721346
30
0
41
1
10
12.9485341507951
20
2.89444946838484
30
0
41
1
10
12.8833497055981
20
2.93091922033136
30
0
41
1
10
12.8487995736292
20
2.94615485133175
30
0
41
1
10
12.7936310388466
20
2.96471484041791
30
0
41
1
10
12.7746828596254
20
2.97018555050272
30
0
41
1
10
12.735583216518
20
2.97972651771892
30
0
41
1
10
12.7154386563481
20
2.98379140367925
30
0
41
1
10
12.6535102385624
20
2.99388271653129
30
0
41
1
10
12.610100947105
20
2.99784159505785
30
0
41
1
10
12.5498830303448
20
2.99979126693876
30
0
41
1
10
12.5352459599993
20
3.00001296935596
30
0
41
1
10
12.5203603794469
20
2.99999940146159
30
0
0
SPLINE
5
FC
100
AcDbEntity
8
1
62
256
6
ByLayer
370
18
48
1
60
0
100
AcDbSpline
70
4
71
3
72
48
73
44
40
0
40
0
40
0
40
0
40
0.0312500000000001
40
0.0312500000000001
40
0.0390624999999983
40
0.0390624999999983
40
0.0468749999999965
40
0.0468749999999965
40
0.0624999999999957
40
0.078124999999995
40
0.078124999999995
40
0.0859374999999947
40
0.0859374999999947
40
0.0937499999999945
40
0.109374999999994
40
0.109374999999994
40
0.124999999999993
40
0.124999999999993
40
0.156249999999994
40
0.156249999999994
40
0.171874999999992
40
0.171874999999992
40
0.187499999999991
40
0.187499999999991
40
0.218749999999988
40
0.218749999999988
40
0.249999999999986
40
0.249999999999986
40
0.312499999999985
40
0.312499999999985
40
0.374999999999985
40
0.374999999999985
40
0.437499999999984
40
0.437499999999984
40
0.499999999999983
40
0.499999999999983
40
0.624999999999987
40
0.624999999999987
40
0.749999999999992
40
0.749999999999992
40
0.874999999999996
40
0.874999999999996
40
1
40
1
40
1
40
1
41
1
10
11.6588672826103
20
-2.87710723411951
30
0
41
1
10
11.6342402607359
20
-2.87054447789845
30
0
41
1
10
11.6117565214285
20
-2.86323966365958
30
0
41
1
10
11.5872887941839
20
-2.85276747168757
30
0
41
1
10
11.5825793700822
20
-2.85060499911509
30
0
41
1
10
11.5735637041999
20
-2.84612892243206
30
0
41
1
10
11.5692444469123
20
-2.84380702625359
30
0
41
1
10
11.5570917933973
20
-2.83667319338179
30
0
41
1
10
11.5429797071756
20
-2.82669754976729
30
0
41
1
10
11.533401141132
20
-2.81567861311262
30
0
41
1
10
11.5280807222988
20
-2.80697055669151
30
0
41
1
10
11.5266289223208
20
-2.80400602231595
30
0
41
1
10
11.5243962259775
20
-2.79803004552355
30
0
41
1
10
11.5220322144346
20
-2.7889621057181
30
0
41
1
10
11.5225314278757
20
-2.77958163214828
30
0
41
1
10
11.52560396759
20
-2.76679521436088
30
0
41
1
10
11.5283719919825
20
-2.76024320120325
30
0
41
1
10
11.5396638703338
20
-2.74076558246162
30
0
41
1
10
11.551153581381
20
-2.72781611800684
30
0
41
1
10
11.5727319981671
20
-2.7083745595956
30
0
41
1
10
11.5806518791311
20
-2.70190317277144
30
0
41
1
10
11.5974579128948
20
-2.68916627710095
30
0
41
1
10
11.6063776324143
20
-2.68287017439735
30
0
41
1
10
11.6344277611845
20
-2.66415396695538
30
0
41
1
10
11.654836311668
20
-2.65190366728885
30
0
41
1
10
11.6981681288785
20
-2.627704902148
30
0
41
1
10
11.7211702982747
20
-2.61572451922436
30
0
41
1
10
11.7923750899239
20
-2.58046962805298
30
0
41
1
10
11.8428507007952
20
-2.5577786305677
30
0
41
1
10
11.9475481969655
20
-2.51330253598675
30
0
41
1
10
12.0019151604291
20
-2.49149038095098
30
0
41
1
10
12.1125387945173
20
-2.44876090083895
30
0
41
1
10
12.1688738366962
20
-2.42781558765066
30
0
41
1
10
12.2830552373609
20
-2.38650025662639
30
0
41
1
10
12.3409061736891
20
-2.36613265804456
30
0
41
1
10
12.5162432101854
20
-2.305662370362
30
0
41
1
10
12.6356019614611
20
-2.26614453358386
30
0
41
1
10
12.8766084067996
20
-2.18837148379802
30
0
41
1
10
12.998366381309
20
-2.15009289745882
30
0
41
1
10
13.2437307840434
20
-2.07433354457567
30
0
41
1
10
13.3673219308139
20
-2.03686412771137
30
0
41
1
10
13.6156196333844
20
-1.96259623312767
30
0
41
1
10
13.7403772681444
20
-1.92578462166728
30
0
41
1
10
13.8656334155057
20
-1.88921612019135
30
0
0
SPLINE
5
FD
100
AcDbEntity
8
1
62
256
6
ByLayer
370
18
48
1
60
0
100
AcDbSpline
70
4
71
3
72
20
73
16
40
0
40
0
40
0
40
0
40
0.0175292309370914
40
0.0809531580681579
40
0.144377085199224
40
0.207801012330291
40
0.271224939461358
40
0.39807279372349
40
0.524920647985623
40
0.58834457511669
40
0.651768502247757
40
0.715192429378823
40
0.778616356509889
40
0.905464210772022
40
1
40
1
40
1
40
1
41
1
10
14.4065377343662
20
-0.998476474420471
30
0
41
1
10
14.4434987714376
20
-1.01692154236386
30
0
41
1
10
14.6141923549616
20
-1.10178857068388
30
0
41
1
10
14.9186224253234
20
-1.25041000796628
30
0
41
1
10
15.3198043631388
20
-1.4395804363667
30
0
41
1
10
15.7208940614081
20
-1.62087419094721
30
0
41
1
10
16.2556456622762
20
-1.85077590961259
30
0
41
1
10
16.9245159808836
20
-2.11412028303062
30
0
41
1
10
17.5951788294968
20
-2.34014673545744
30
0
41
1
10
18.1335239952518
20
-2.49545608054825
30
0
41
1
10
18.5383563589368
20
-2.59846530537234
30
0
41
1
10
18.944429264991
20
-2.68739181779338
30
0
41
1
10
19.4877424371161
20
-2.78642756301701
30
0
41
1
10
20.1012643782405
20
-2.86362704486274
30
0
41
1
10
20.5821352062148
20
-2.890830467206
30
0
41
1
10
20.7883034517794
20
-2.89618777313658
30
0
0
SPLINE
5
FE
100
AcDbEntity
8
1
62
256
6
ByLayer
370
18
48
1
60
0
100
AcDbSpline
70
4
71
3
72
8
73
4
40
0
40
0
40
0
40
0
40
1
40
1
40
1
40
1
41
1
10
15.2
20
-1.87400903246393
30
0
41
1
10
15.4892460537178
20
-1.84526256295263
30
0
41
1
10
15.7788227837509
20
-1.81804947568028
30
0
41
1
10
16.0686869535396
20
-1.79224796559748
30
0
0
SPLINE
5
FF
100
AcDbEntity
8
1
62
256
6
ByLayer
370
18
48
1
60
0
100
AcDbSpline
70
4
71
3
72
14
73
10
40
0
40
0
40
0
40
0
40
0.0926307245934583
40
0.231037742222423
40
0.342898667543739
40
0.432862965662331
40
0.57803410213166
40
0.767002285462066
40
1
40
1
40
1
40
1
41
1
10
19.0198647115718
20
1.5966556884475
30
0
41
1
10
18.9043863393232
20
1.60066173237121
30
0
41
1
10
18.6151924435698
20
1.61188611393092
30
0
41
1
10
18.1818060008264
20
1.63297156212821
30
0
41
1
10
17.7468532914694
20
1.65904146323518
30
0
41
1
10
17.3026466274881
20
1.69180648288312
30
0
41
1
10
16.7595852030719
20
1.73267737421014
30
0
41
1
10
16.0349530915053
20
1.79401586520407
30
0
41
1
10
15.4968020196194
20
1.8445114964845
30
0
41
1
10
15.2
20
1.87400903246385
30
0
0
LINE
5
77
100
AcDbEntity
8
80
62
256
6
ByLayer
370
18
48
1
60
0
100
AcDbLine
10
0
20
0
30
0
11
-5
21
0
31
0
39
0
210
0
220
0
230
1
0
LINE
5
78
100
AcDbEntity
8
4
62
256
6
ByLayer
370
18
48
0.05
60
0
100
AcDbLine
10
0
20
0
30
0
11
21
21
0
31
0
39
0
210
0
220
0
230
1
0
LINE
5
7A
100
AcDbEntity
8
SK4
62
256
6
ByLayer
370
18
48
0.05
60
0
100
AcDbLine
10
-36
20
0
30
0
11
21
21
0
31
0
39
0
210
0
220
0
230
1
0
LINE
5
7C
100
AcDbEntity
8
81
62
256
6
ByLayer
370
18
48
1
60
0
100
AcDbLine
10
21
20
0
30
0
11
26
21
0
31
0
39
0
210
0
220
0
230
1
0
LINE
5
7D
100
AcDbEntity
8
1
62
256
6
ByLayer
370
18
48
1
60
0
100
AcDbLine
10
0
20
3
30
0
11
0
21
0
31
0
39
0
210
0
220
0
230
1
0
LINE
5
7E
100
AcDbEntity
8
1
62
256
6
ByLayer
370
18
48
1
60
0
100
AcDbLine
10
0
20
0
30
0
11
0
21
-3
31
0
39
0
210
0
220
0
230
1
0
LINE
5
7F
100
AcDbEntity
8
1
62
256
6
ByLayer
370
18
48
1
60
0
100
AcDbLine
10
20.880476
20
2.886374
30
0
11
20.996663
21
2.770891
31
0
39
0
210
0
220
0
230
1
0
LINE
5
80
100
AcDbEntity
8
1
62
256
6
ByLayer
370
13
48
1
60
0
100
AcDbLine
10
19.126635
20
1.660545
30
0
11
20.650524
21
-0.152829
31
0
39
0
210
0
220
0
230
1
0
LINE
5
81
100
AcDbEntity
8
1
62
256
6
ByLayer
370
18
48
1
60
0
100
AcDbLine
10
20.921076
20
-0.08094
30
0
11
20.8266
21
-0.080657
31
0
39
0
210
0
220
0
230
1
0
LINE
5
82
100
AcDbEntity
8
1
62
256
6
ByLayer
370
18
48
1
60
0
100
AcDbLine
10
20.921076
20
-0.08094
30
0
11
20.996663
21
2.770891
31
0
39
0
210
0
220
0
230
1
0
LINE
5
83
100
AcDbEntity
8
1
62
256
6
ByLayer
370
18
48
1
60
0
100
AcDbLine
10
20.943236
20
-0.755124
30
0
11
20.996663
21
-2.770891
31
0
39
0
210
0
220
0
230
1
0
LINE
5
84
100
AcDbEntity
8
1
62
256
6
ByLayer
370
18
48
1
60
0
100
AcDbLine
10
15.2
20
-1.87401
30
0
11
15.2
21
-1.409082
31
0
39
0
210
0
220
0
230
1
0
LINE
5
85
100
AcDbEntity
8
1
62
256
6
ByLayer
370
13
48
1
60
0
100
AcDbLine
10
11.69788
20
-2.885731
30
0
11
13.918607
21
-1.873712
31
0
39
0
210
0
220
0
230
1
0
LINE
5
86
100
AcDbEntity
8
1
62
256
6
ByLayer
370
18
48
1
60
0
100
AcDbLine
10
20.880476
20
-2.886374
30
0
11
20.996663
21
-2.770891
31
0
39
0
210
0
220
0
230
1
0
LINE
5
87
100
AcDbEntity
8
1
62
256
6
ByLayer
370
18
48
1
60
0
100
AcDbLine
10
20.996663
20
-2.770891
30
0
11
20.921603
21
-2.593562
31
0
39
0
210
0
220
0
230
1
0
LINE
5
88
100
AcDbEntity
8
1
62
256
6
ByLayer
370
18
48
1
60
0
100
AcDbLine
10
20.872346
20
-0.715175
30
0
11
20.943236
21
-0.755124
31
0
39
0
210
0
220
0
230
1
0
LINE
5
89
100
AcDbEntity
8
1
62
256
6
ByLayer
370
18
48
1
60
0
100
AcDbLine
10
20.943236
20
-0.755124
30
0
11
20.665903
21
-0.522686
31
0
39
0
210
0
220
0
230
1
0
LINE
5
8A
100
AcDbEntity
8
1
62
256
6
ByLayer
370
13
48
1
60
0
100
AcDbLine
10
20.665903
20
-0.559629
30
0
11
20.665903
21
-0.522686
31
0
39
0
210
0
220
0
230
1
0
LINE
5
8B
100
AcDbEntity
8
1
62
256
6
ByLayer
370
18
48
1
60
0
100
AcDbLine
10
20.593036
20
-0.244479
30
0
11
19.025146
21
1.621254
31
0
39
0
210
0
220
0
230
1
0
LINE
5
8C
100
AcDbEntity
8
1
62
256
6
ByLayer
370
18
48
1
60
0
100
AcDbLine
10
20.921603
20
-2.593562
30
0
11
20.802915
21
-2.580165
31
0
39
0
210
0
220
0
230
1
0
LINE
5
8D
100
AcDbEntity
8
1
62
256
6
ByLayer
370
18
48
1
60
0
100
AcDbLine
10
20.921603
20
-2.593562
30
0
11
20.872346
21
-0.715175
31
0
39
0
210
0
220
0
230
1
0
LINE
5
8E
100
AcDbEntity
8
1
62
256
6
ByLayer
370
18
48
1
60
0
100
AcDbLine
10
20.665903
20
-0.559629
30
0
11
20.872346
21
-0.715175
31
0
39
0
210
0
220
0
230
1
0
LINE
5
8F
100
AcDbEntity
8
1
62
256
6
ByLayer
370
18
48
1
60
0
100
AcDbLine
10
20.229601
20
-0.06323
30
0
11
20.576704
21
-0.367972
31
0
39
0
210
0
220
0
230
1
0
LINE
5
90
100
AcDbEntity
8
1
62
256
6
ByLayer
370
18
48
1
60
0
100
AcDbLine
10
15.2
20
1.87401
30
0
11
15.2
21
1.026494
31
0
39
0
210
0
220
0
230
1
0
LINE
5
91
100
AcDbEntity
8
1
62
256
6
ByLayer
370
18
48
1
60
0
100
AcDbLine
10
15.2
20
-0.312418
30
0
11
15.2
21
-0.191722
31
0
39
0
210
0
220
0
230
1
0
LINE
5
92
100
AcDbEntity
8
1
62
256
6
ByLayer
370
13
48
1
60
0
100
AcDbLine
10
11.551981
20
1.470735
30
0
11
15.2
21
-0.191722
31
0
39
0
210
0
220
0
230
1
0
LINE
5
93
100
AcDbEntity
8
1
62
256
6
ByLayer
370
18
48
1
60
0
100
AcDbLine
10
15.2
20
-0.191722
30
0
11
15.2
21
1.026494
31
0
39
0
210
0
220
0
230
1
0
LINE
5
94
100
AcDbEntity
8
1
62
256
6
ByLayer
370
18
48
1
60
0
100
AcDbLine
10
13.305488
20
1.889851
30
0
11
15.2
21
1.026494
31
0
39
0
210
0
220
0
230
1
0
LINE
5
95
100
AcDbEntity
8
1
62
256
6
ByLayer
370
13
48
1
60
0
100
AcDbLine
10
11.491741
20
1.377491
30
0
11
15.2
21
-0.312418
31
0
39
0
210
0
220
0
230
1
0
LINE
5
96
100
AcDbEntity
8
1
62
256
6
ByLayer
370
18
48
1
60
0
100
AcDbLine
10
15.2
20
-0.312418
30
0
11
15.2
21
-0.516002
31
0
39
0
210
0
220
0
230
1
0
LINE
5
97
100
AcDbEntity
8
1
62
256
6
ByLayer
370
13
48
1
60
0
100
AcDbLine
10
11.658867
20
-2.877107
30
0
11
13.752783
21
-1.922878
31
0
39
0
210
0
220
0
230
1
0
LINE
5
98
100
AcDbEntity
8
1
62
256
6
ByLayer
370
13
48
1
60
0
100
AcDbLine
10
15.192415
20
-1.403743
30
0
11
15.192415
21
-1.411601
31
0
39
0
210
0
220
0
230
1
0
LINE
5
99
100
AcDbEntity
8
SK1
62
256
6
ByLayer
370
18
48
1
60
0
100
AcDbLine
10
-36
20
-2.6
30
0
11
-36
21
2.6
31
0
39
0
210
0
220
0
230
1
0
LINE
5
9B
100
AcDbEntity
8
SK1
62
256
6
ByLayer
370
18
48
1
60
0
100
AcDbLine
10
0
20
3
30
0
11
0
21
0
31
0
39
0
210
0
220
0
230
1
0
LINE
5
9C
100
AcDbEntity
8
SK1
62
256
6
ByLayer
370
18
48
1
60
0
100
AcDbLine
10
0
20
0
30
0
11
0
21
-3
31
0
39
0
210
0
220
0
230
1
0
LINE
5
9D
100
AcDbEntity
8
SK1
62
256
6
ByLayer
370
18
48
1
60
0
100
AcDbLine
10
-35.6
20
3
30
0
11
-35.6
21
-3
31
0
39
0
210
0
220
0
230
1
0
LINE
5
9E
100
AcDbEntity
8
1
62
256
6
ByLayer
370
18
48
1
60
0
100
AcDbLine
10
12.517801
20
3
30
0
11
0
21
3
31
0
39
0
210
0
220
0
230
1
0
LINE
5
9F
100
AcDbEntity
8
1
62
256
6
ByLayer
370
18
48
1
60
0
100
AcDbLine
10
0
20
-3
30
0
11
12.517801
21
-3
31
0
39
0
210
0
220
0
230
1
0
LINE
5
A0
100
AcDbEntity
8
1
62
256
6
ByLayer
370
18
48
1
60
0
100
AcDbLine
10
12.870717
20
-2.935499
30
0
11
15.208393
21
-1.870185
31
0
39
0
210
0
220
0
230
1
0
LINE
5
A1
100
AcDbEntity
8
1
62
256
6
ByLayer
370
18
48
1
60
0
100
AcDbLine
10
15.208393
20
1.870185
30
0
11
12.870717
21
2.935499
31
0
39
0
210
0
220
0
230
1
0
LINE
5
A2
100
AcDbEntity
8
SK1
62
256
6
ByLayer
370
18
48
1
60
0
100
AcDbLine
10
-36
20
-2.6
30
0
11
-35.6
21
-3
31
0
39
0
210
0
220
0
230
1
0
LINE
5
A3
100
AcDbEntity
8
SK1
62
256
6
ByLayer
370
18
48
1
60
0
100
AcDbLine
10
-35.6
20
3
30
0
11
-36
21
2.6
31
0
39
0
210
0
220
0
230
1
0
LINE
5
A4
100
AcDbEntity
8
SK1
62
256
6
ByLayer
370
18
48
1
60
0
100
AcDbLine
10
0
20
3
30
0
11
-35.6
21
3
31
0
39
0
210
0
220
0
230
1
0
LINE
5
A5
100
AcDbEntity
8
SK1
62
256
6
ByLayer
370
18
48
1
60
0
100
AcDbLine
10
-35.6
20
-3
30
0
11
0
21
-3
31
0
39
0
210
0
220
0
230
1
0
LINE
5
A6
100
AcDbEntity
8
SK2
62
256
6
ByLayer
370
18
48
1
60
0
100
AcDbLine
10
-43.85
20
11.75
30
0
11
-43.85
21
-19.315466
31
0
39
0
210
0
220
0
230
1
0
LINE
5
A8
100
AcDbEntity
8
SK2
62
256
6
ByLayer
370
18
48
1
60
0
100
AcDbLine
10
-37.1875
20
3
30
0
11
-45.85
21
3
31
0
39
0
210
0
220
0
230
1
0
LINE
5
A9
100
AcDbEntity
8
SK2
62
256
6
ByLayer
370
18
48
1
60
0
100
AcDbLine
10
-37.1875
20
-3
30
0
11
-45.85
21
-3
31
0
39
0
210
0
220
0
230
1
0
LINE
5
AA
100
AcDbEntity
8
1
62
256
6
ByLayer
370
18
48
1
60
1
100
AcDbLine
10
-43.85
20
3
30
0
11
-44.310784
21
6.499998
31
0
39
0
210
0
220
0
230
1
0
LINE
5
AB
100
AcDbEntity
8
1
62
256
6
ByLayer
370
18
48
1
60
1
100
AcDbLine
10
-44.310784
20
6.499998
30
0
11
-43.389216
21
6.500002
31
0
39
0
210
0
220
0
230
1
0
LINE
5
AC
100
AcDbEntity
8
1
62
256
6
ByLayer
370
18
48
1
60
1
100
AcDbLine
10
-43.389216
20
6.500002
30
0
11
-43.85
21
3
31
0
39
0
210
0
220
0
230
1
0
LINE
5
AD
100
AcDbEntity
8
1
62
256
6
ByLayer
370
18
48
1
60
1
100
AcDbLine
10
-43.85
20
-3
30
0
11
-43.389216
21
-6.499998
31
0
39
0
210
0
220
0
230
1
0
LINE
5
AE
100
AcDbEntity
8
1
62
256
6
ByLayer
370
18
48
1
60
1
100
AcDbLine
10
-43.389216
20
-6.499998
30
0
11
-44.310784
21
-6.500002
31
0
39
0
210
0
220
0
230
1
0
LINE
5
AF
100
AcDbEntity
8
1
62
256
6
ByLayer
370
18
48
1
60
1
100
AcDbLine
10
-44.310784
20
-6.500002
30
0
11
-43.85
21
-3
31
0
39
0
210
0
220
0
230
1
0
LINE
5
B0
100
AcDbEntity
8
2
62
256
6
ByLayer
370
18
48
1
60
0
100
AcDbLine
10
33
20
23.249032
30
0
11
33
21
-11.6501
31
0
39
0
210
0
220
0
230
1
0
LINE
5
B2
100
AcDbEntity
8
2
62
256
6
ByLayer
370
18
48
1
60
0
100
AcDbLine
10
22.5875
20
2.9001
30
0
11
35
21
2.9001
31
0
39
0
210
0
220
0
230
1
0
LINE
5
B3
100
AcDbEntity
8
2
62
256
6
ByLayer
370
18
48
1
60
0
100
AcDbLine
10
22.5875
20
-2.9001
30
0
11
35
21
-2.9001
31
0
39
0
210
0
220
0
230
1
0
LINE
5
B4
100
AcDbEntity
8
1
62
256
6
ByLayer
370
18
48
1
60
1
100
AcDbLine
10
33
20
2.9001
30
0
11
32.539216
21
6.400098
31
0
39
0
210
0
220
0
230
1
0
LINE
5
B5
100
AcDbEntity
8
1
62
256
6
ByLayer
370
18
48
1
60
1
100
AcDbLine
10
32.539216
20
6.400098
30
0
11
33.460784
21
6.400102
31
0
39
0
210
0
220
0
230
1
0
LINE
5
B6
100
AcDbEntity
8
1
62
256
6
ByLayer
370
18
48
1
60
1
100
AcDbLine
10
33.460784
20
6.400102
30
0
11
33
21
2.9001
31
0
39
0
210
0
220
0
230
1
0
LINE
5
B7
100
AcDbEntity
8
1
62
256
6
ByLayer
370
18
48
1
60
1
100
AcDbLine
10
33
20
-2.9001
30
0
11
33.460784
21
-6.400098
31
0
39
0
210
0
220
0
230
1
0
LINE
5
B8
100
AcDbEntity
8
1
62
256
6
ByLayer
370
18
48
1
60
1
100
AcDbLine
10
33.460784
20
-6.400098
30
0
11
32.539216
21
-6.400102
31
0
39
0
210
0
220
0
230
1
0
LINE
5
B9
100
AcDbEntity
8
1
62
256
6
ByLayer
370
18
48
1
60
1
100
AcDbLine
10
32.539216
20
-6.400102
30
0
11
33
21
-2.9001
31
0
39
0
210
0
220
0
230
1
0
LINE
5
BA
100
AcDbEntity
8
SK2
62
256
6
ByLayer
370
18
48
1
60
0
100
AcDbLine
10
21
20
-33.157094
30
0
11
-36
21
-33.157094
31
0
39
0
210
0
220
0
230
1
0
LINE
5
BB
100
AcDbEntity
8
SK2
62
256
6
ByLayer
370
18
48
1
60
0
100
AcDbLine
10
-36
20
-4.1875
30
0
11
-36
21
-35.157094
31
0
39
0
210
0
220
0
230
1
0
LINE
5
BC
100
AcDbEntity
8
SK2
62
256
6
ByLayer
370
18
48
1
60
0
100
AcDbLine
10
21
20
-4.4876
30
0
11
21
21
-35.157094
31
0
39
0
210
0
220
0
230
1
0
LINE
5
BD
100
AcDbEntity
8
1
62
256
6
ByLayer
370
18
48
1
60
1
100
AcDbLine
10
-36
20
-33.157094
30
0
11
-32.500002
21
-32.69631
31
0
39
0
210
0
220
0
230
1
0
LINE
5
BE
100
AcDbEntity
8
1
62
256
6
ByLayer
370
18
48
1
60
1
100
AcDbLine
10
-32.500002
20
-32.69631
30
0
11
-32.499998
21
-33.617877
31
0
39
0
210
0
220
0
230
1
0
LINE
5
BF
100
AcDbEntity
8
1
62
256
6
ByLayer
370
18
48
1
60
1
100
AcDbLine
10
-32.499998
20
-33.617877
30
0
11
-36
21
-33.157094
31
0
39
0
210
0
220
0
230
1
0
LINE
5
C0
100
AcDbEntity
8
1
62
256
6
ByLayer
370
18
48
1
60
1
100
AcDbLine
10
21
20
-33.157094
30
0
11
17.500002
21
-33.617877
31
0
39
0
210
0
220
0
230
1
0
LINE
5
C1
100
AcDbEntity
8
1
62
256
6
ByLayer
370
18
48
1
60
1
100
AcDbLine
10
17.500002
20
-33.617877
30
0
11
17.499998
21
-32.69631
31
0
39
0
210
0
220
0
230
1
0
LINE
5
C2
100
AcDbEntity
8
1
62
256
6
ByLayer
370
18
48
1
60
1
100
AcDbLine
10
17.499998
20
-32.69631
30
0
11
21
21
-33.157094
31
0
39
0
210
0
220
0
230
1
0
LINE
5
104
100
AcDbEntity
8
1
62
256
6
ByLayer
370
18
48
1
60
1
100
AcDbLine
10
-43.85
20
3
30
0
11
-44.310784
21
6.499998
31
0
39
0
210
0
220
0
230
1
0
LINE
5
105
100
AcDbEntity
8
1
62
256
6
ByLayer
370
18
48
1
60
1
100
AcDbLine
10
-44.310784
20
6.499998
30
0
11
-43.389216
21
6.500002
31
0
39
0
210
0
220
0
230
1
0
LINE
5
106
100
AcDbEntity
8
1
62
256
6
ByLayer
370
18
48
1
60
1
100
AcDbLine
10
-43.389216
20
6.500002
30
0
11
-43.85
21
3
31
0
39
0
210
0
220
0
230
1
0
LINE
5
108
100
AcDbEntity
8
1
62
256
6
ByLayer
370
18
48
1
60
1
100
AcDbLine
10
-43.85
20
-3
30
0
11
-43.389216
21
-6.499998
31
0
39
0
210
0
220
0
230
1
0
LINE
5
109
100
AcDbEntity
8
1
62
256
6
ByLayer
370
18
48
1
60
1
100
AcDbLine
10
-43.389216
20
-6.499998
30
0
11
-44.310784
21
-6.500002
31
0
39
0
210
0
220
0
230
1
0
LINE
5
10A
100
AcDbEntity
8
1
62
256
6
ByLayer
370
18
48
1
60
1
100
AcDbLine
10
-44.310784
20
-6.500002
30
0
11
-43.85
21
-3
31
0
39
0
210
0
220
0
230
1
0
LINE
5
10E
100
AcDbEntity
8
1
62
256
6
ByLayer
370
18
48
1
60
1
100
AcDbLine
10
33
20
2.9001
30
0
11
32.539216
21
6.400098
31
0
39
0
210
0
220
0
230
1
0
LINE
5
10F
100
AcDbEntity
8
1
62
256
6
ByLayer
370
18
48
1
60
1
100
AcDbLine
10
32.539216
20
6.400098
30
0
11
33.460784
21
6.400102
31
0
39
0
210
0
220
0
230
1
0
LINE
5
110
100
AcDbEntity
8
1
62
256
6
ByLayer
370
18
48
1
60
1
100
AcDbLine
10
33.460784
20
6.400102
30
0
11
33
21
2.9001
31
0
39
0
210
0
220
0
230
1
0
LINE
5
112
100
AcDbEntity
8
1
62
256
6
ByLayer
370
18
48
1
60
1
100
AcDbLine
10
33
20
-2.9001
30
0
11
33.460784
21
-6.400098
31
0
39
0
210
0
220
0
230
1
0
LINE
5
113
100
AcDbEntity
8
1
62
256
6
ByLayer
370
18
48
1
60
1
100
AcDbLine
10
33.460784
20
-6.400098
30
0
11
32.539216
21
-6.400102
31
0
39
0
210
0
220
0
230
1
0
LINE
5
114
100
AcDbEntity
8
1
62
256
6
ByLayer
370
18
48
1
60
1
100
AcDbLine
10
32.539216
20
-6.400102
30
0
11
33
21
-2.9001
31
0
39
0
210
0
220
0
230
1
0
LINE
5
117
100
AcDbEntity
8
1
62
256
6
ByLayer
370
18
48
1
60
1
100
AcDbLine
10
-36
20
-33.157094
30
0
11
-32.500002
21
-32.69631
31
0
39
0
210
0
220
0
230
1
0
LINE
5
118
100
AcDbEntity
8
1
62
256
6
ByLayer
370
18
48
1
60
1
100
AcDbLine
10
-32.500002
20
-32.69631
30
0
11
-32.499998
21
-33.617877
31
0
39
0
210
0
220
0
230
1
0
LINE
5
119
100
AcDbEntity
8
1
62
256
6
ByLayer
370
18
48
1
60
1
100
AcDbLine
10
-32.499998
20
-33.617877
30
0
11
-36
21
-33.157094
31
0
39
0
210
0
220
0
230
1
0
LINE
5
11B
100
AcDbEntity
8
1
62
256
6
ByLayer
370
18
48
1
60
1
100
AcDbLine
10
21
20
-33.157094
30
0
11
17.500002
21
-33.617877
31
0
39
0
210
0
220
0
230
1
0
LINE
5
11C
100
AcDbEntity
8
1
62
256
6
ByLayer
370
18
48
1
60
1
100
AcDbLine
10
17.500002
20
-33.617877
30
0
11
17.499998
21
-32.69631
31
0
39
0
210
0
220
0
230
1
0
LINE
5
11D
100
AcDbEntity
8
1
62
256
6
ByLayer
370
18
48
1
60
1
100
AcDbLine
10
17.499998
20
-32.69631
30
0
11
21
21
-33.157094
31
0
39
0
210
0
220
0
230
1
0
MTEXT
5
100
100
AcDbEntity
8
SK2
62
256
6
ByLayer
370
18
48
1
60
0
100
AcDbMText
10
-45.414634
20
-17.380622
30
0
210
0
220
0
230
1
1
%%c
40
3.5
41
0
44
1.084337
50
90
71
7
72
5
7
iso_b_vert
0
MTEXT
5
103
100
AcDbEntity
8
SK2
62
256
6
ByLayer
370
18
48
1
60
0
100
AcDbMText
10
-45.414634
20
-10.407966
30
0
210
0
220
0
230
1
1
\W0.5404;6
40
3.5
41
0
44
1.084337
50
90
71
7
72
5
7
iso_b_vert
0
MTEXT
5
10C
100
AcDbEntity
8
2
62
256
6
ByLayer
370
18
48
1
60
0
100
AcDbMText
10
31.435366
20
10.834944
30
0
210
0
220
0
230
1
1
%%c
40
3.5
41
0
44
1.084337
50
90
71
7
72
5
7
iso_b_vert
0
MTEXT
5
10D
100
AcDbEntity
8
2
62
256
6
ByLayer
370
18
48
1
60
0
100
AcDbMText
10
31.435366
20
17.8076
30
0
210
0
220
0
230
1
1
\W0.7121;5.8
40
3.5
41
0
44
1.084337
50
90
71
7
72
5
7
iso_b_vert
0
MTEXT
5
116
100
AcDbEntity
8
SK2
62
256
6
ByLayer
370
18
48
1
60
0
100
AcDbMText
10
-9.404966
20
-32.12446
30
0
210
0
220
0
230
1
1
\W0.6740;57
40
3.5
41
0
44
1.084337
50
0
71
7
72
5
7
iso_b_vert
0
MTEXT
5
11F
100
AcDbEntity
8
SK6
62
256
6
ByLayer
370
18
48
1
60
0
100
AcDbMText
10
-31.927324
20
-62.114886
30
0
210
0
220
0
230
1
1
\W0.6967;1K212-0580-XA       1730
40
3
41
0
44
1.084337
50
0
71
7
72
5
7
iso_b_vert
0
HATCH
5
107
100
AcDbEntity
8
SK2
62
256
6
ByLayer
370
13
48
1
60
0
100
AcDbHatch
10
0
20
0
30
0
210
0
220
0
230
1
2
ANSI31
70
0
71
0
91
1
92
5
93
3
72
1
10
-43.85
20
2.99999999999997
11
-44.3107837415528
21
6.49999830744679
72
1
10
-44.3107837415528
20
6.49999830744679
11
-43.3892162584472
21
6.50000169255316
72
1
10
-43.3892162584472
20
6.50000169255316
11
-43.85
21
2.99999999999997
97
0
75
0
76
1
52
0
41
0.0062
77
0
78
1
53
45
43
0
44
0
45
-0.0139193969876572
46
0.0139193969876572
79
0
47
0
98
1
10
0
20
0
0
HATCH
5
10B
100
AcDbEntity
8
SK2
62
256
6
ByLayer
370
13
48
1
60
0
100
AcDbHatch
10
0
20
0
30
0
210
0
220
0
230
1
2
ANSI31
70
0
71
0
91
1
92
5
93
3
72
1
10
-43.85
20
-3.00000000000006
11
-43.3892162584472
21
-6.49999830744687
72
1
10
-43.3892162584472
20
-6.49999830744687
11
-44.3107837415528
21
-6.50000169255324
72
1
10
-44.3107837415528
20
-6.50000169255324
11
-43.85
21
-3.00000000000006
97
0
75
0
76
1
52
0
41
0.0062
77
0
78
1
53
45
43
0
44
0
45
-0.0139193969876572
46
0.0139193969876572
79
0
47
0
98
1
10
0
20
0
0
HATCH
5
111
100
AcDbEntity
8
2
62
256
6
ByLayer
370
13
48
1
60
0
100
AcDbHatch
10
0
20
0
30
0
210
0
220
0
230
1
2
ANSI31
70
0
71
0
91
1
92
5
93
3
72
1
10
33
20
2.90009999999992
11
32.5392162584472
21
6.40009830744674
72
1
10
32.5392162584472
20
6.40009830744674
11
33.4607837415528
21
6.40010169255311
72
1
10
33.4607837415528
20
6.40010169255311
11
33
21
2.90009999999992
97
0
75
0
76
1
52
0
41
0.0062
77
0
78
1
53
45
43
0
44
0
45
-0.0139193969876572
46
0.0139193969876572
79
0
47
0
98
1
10
0
20
0
0
HATCH
5
115
100
AcDbEntity
8
2
62
256
6
ByLayer
370
13
48
1
60
0
100
AcDbHatch
10
0
20
0
30
0
210
0
220
0
230
1
2
ANSI31
70
0
71
0
91
1
92
5
93
3
72
1
10
33
20
-2.90010000000007
11
33.4607837415528
21
-6.40009830744688
72
1
10
33.4607837415528
20
-6.40009830744688
11
32.5392162584472
21
-6.40010169255325
72
1
10
32.5392162584472
20
-6.40010169255325
11
33
21
-2.90010000000007
97
0
75
0
76
1
52
0
41
0.0062
77
0
78
1
53
45
43
0
44
0
45
-0.0139193969876572
46
0.0139193969876572
79
0
47
0
98
1
10
0
20
0
0
HATCH
5
11A
100
AcDbEntity
8
SK2
62
256
6
ByLayer
370
13
48
1
60
0
100
AcDbHatch
10
0
20
0
30
0
210
0
220
0
230
1
2
ANSI31
70
0
71
0
91
1
92
5
93
3
72
1
10
-36
20
-33.1570935150718
11
-32.5000016925532
21
-32.696309773519
72
1
10
-32.5000016925532
20
-32.696309773519
11
-32.4999983074468
21
-33.6178772566246
72
1
10
-32.4999983074468
20
-33.6178772566246
11
-36
21
-33.1570935150718
97
0
75
0
76
1
52
0
41
0.0062
77
0
78
1
53
45
43
0
44
0
45
-0.0139193969876572
46
0.0139193969876572
79
0
47
0
98
1
10
0
20
0
0
HATCH
5
11E
100
AcDbEntity
8
SK2
62
256
6
ByLayer
370
13
48
1
60
0
100
AcDbHatch
10
0
20
0
30
0
210
0
220
0
230
1
2
ANSI31
70
0
71
0
91
1
92
5
93
3
72
1
10
21
20
-33.1570935150718
11
17.5000016925532
21
-33.6178772566246
72
1
10
17.5000016925532
20
-33.6178772566246
11
17.4999983074468
21
-32.696309773519
72
1
10
17.4999983074468
20
-32.696309773519
11
21
21
-33.1570935150718
97
0
75
0
76
1
52
0
41
0.0062
77
0
78
1
53
45
43
0
44
0
45
-0.0139193969876572
46
0.0139193969876572
79
0
47
0
98
1
10
0
20
0
0
DIMENSION
5
122
100
AcDbEntity
8
2
62
256
6
ByLayer
370
18
48
1
60
0
100
AcDbDimension
2
_U0
10
15.2
20
-17.157094
30
0
11
18.1
21
-17.157094
31
0
70
32
71
1
72
1
41
1
210
0
220
0
230
1
3
Standard
100
AcDbAlignedDimension
13
21
23
-2.9001
33
0
14
15.2
24
-2.9001
34
0
50
0
100
AcDbRotatedDimension
1001
ACAD
1000
DSTYLE
1002
{
1070
   371
1070
    13
1070
   372
1070
    13
1070
   170
1070
     0
1070
   144
1040
1.0
1070
   277
1070
     2
1070
   284
1070
     8
1070
   278
1070
    46
1070
   146
1040
1.0
1070
   345
1005
16
1070
   347
1005
16
1070
   346
1005
16
1070
   344
1005
0
1070
   343
1005
0
1070
   172
1070
     1
1070
    76
1070
     0
1070
    75
1070
     0
1070
   282
1070
     0
1070
   281
1070
     0
1070
    71
1070
     0
1070
    74
1070
     0
1070
   279
1070
     0
1070
   173
1070
     1
1070
   340
1005
101
1070
   271
1070
     2
1070
   272
1070
     2
1070
    77
1070
     1
1070
    73
1070
     1
1070
   171
1070
     3
1070
   274
1070
     4
1070
   177
1070
     2
1070
   176
1070
     2
1070
   178
1070
     2
1070
    78
1070
     8
1070
    48
1040
-0.1
1070
    41
1040
3.5
1070
   147
1040
1.75
1070
    42
1040
1.5875
1070
    44
1040
2.0
1070
   140
1040
3.5
1002
}
1001
ACAD_DSTYLE_DIM_LINETYPE
1070
   380
1005
16
1001
ACAD_DSTYLE_DIM_EXT1_LINETYPE
1070
   381
1005
16
1001
ACAD_DSTYLE_DIM_EXT2_LINETYPE
1070
   382
1005
16
0
ENDSEC
0
SECTION
2
OBJECTS
0
DICTIONARY
5
1ac
330
0
100
AcDbDictionary
280
0
281
1
3
ACAD_GROUP
350
1ad
3
ACAD_MLINESTYLE
350
1ae
0
DICTIONARY
5
1ad
330
0
100
AcDbDictionary
280
0
281
1
0
DICTIONARY
5
1ae
330
0
100
AcDbDictionary
280
0
281
1
3
Standard
350
18
0
MLINESTYLE
5
18
330
1ae
100
AcDbMlineStyle
2
Standard
70
0
3

62
256
51
90
52
90
71
2
49
-0.5
62
256
6
ByLayer
49
0.5
62
256
6
ByLayer
0
RASTERVARIABLES
5
19a
330

100
AcDbRasterVariables
90
0
70
1
71
1
72
1
0
ENDSEC
0
EOF
