0
SECTION
2
HEADER
9
$ACADVER
1
AC1015
9
$DWGCODEPAGE
3
ANSI_1252
9
$HANDSEED
5
1bf
9
$ANGBASE
50
0
9
$ANGDIR
70
0
9
$ATTMODE
70
1
9
$AUNITS
70
0
9
$AUPREC
70
0
9
$CECOLOR
62
256
9
$CELTSCALE
40
1
9
$CELTYPE
6
ByLayer
9
$CELWEIGHT
370
18
9
$CLAYER
8
0
9
$CMLJUST
70
0
9
$CMLSCALE
40
1
9
$CMLSTYLE
2
Standard
9
$DIMSTYLE
2
Standard
9
$TEXTSIZE
40
0.2
9
$TEXTSTYLE
7
Standard
9
$LUNITS
70
2
9
$LUPREC
70
4
9
$EXTNAMES
290
1
9
$INSUNITS
70
4
9
$LTSCALE
40
1
9
$LWDISPLAY
290
1
9
$PDMODE
70
0
9
$PDSIZE
40
0
9
$PLINEGEN
70
0
0
ENDSEC
0
SECTION
2
CLASSES
0
CLASS
1
RASTERVARIABLES
2
AcDbRasterVariables
3
ISM
90
0
280
0
281
0
0
ENDSEC
0
SECTION
2
TABLES
0
TABLE
2
VPORT
5
1b5
100
AcDbSymbolTable
0
VPORT
5
1
100
AcDbSymbolTableRecord
100
AcDbViewportTableRecord
2
*Active
70
0
10
0
20
0
11
1
21
1
12
-1
22
1
13
0
23
0
14
0.5
24
0.5
15
10
25
10
16
0
26
0
36
1
17
0
27
0
37
0
0
ENDTAB
0
TABLE
2
LTYPE
5
1b6
100
AcDbSymbolTable
0
LTYPE
5
14
100
AcDbSymbolTableRecord
100
AcDbLinetypeTableRecord
70
0
2
ByBlock
3

72
65
73
0
40
0
0
LTYPE
5
15
100
AcDbSymbolTableRecord
100
AcDbLinetypeTableRecord
70
0
2
ByLayer
3

72
65
73
0
40
0
0
LTYPE
5
16
100
AcDbSymbolTableRecord
100
AcDbLinetypeTableRecord
70
0
2
Continuous
3
Solid line
72
65
73
0
40
0
0
LTYPE
5
6E
100
AcDbSymbolTableRecord
100
AcDbLinetypeTableRecord
70
0
2
CENTER
3
____ _ ____ _ ____ _ ____
72
65
73
4
40
47.5
49
22
74
0
49
-8.5
74
0
49
8.5
74
0
49
-8.5
74
0
0
LTYPE
5
6F
100
AcDbSymbolTableRecord
100
AcDbLinetypeTableRecord
70
0
2
DASHED
3
__ __ __ __ __ __ __ __ __
72
65
73
2
40
25.72
49
12.86
74
0
49
-12.86
74
0
0
ENDTAB
0
TABLE
2
LAYER
5
1b7
100
AcDbSymbolTable
0
LAYER
5
10
100
AcDbSymbolTableRecord
100
AcDbLayerTableRecord
2
0
70
0
62
7
6
Continuous
290
1
370
-3
390
0
0
LAYER
5
71
100
AcDbSymbolTableRecord
100
AcDbLayerTableRecord
2
81
70
0
62
-3
6
Continuous
290
1
370
-3
390
0
0
LAYER
5
73
100
AcDbSymbolTableRecord
100
AcDbLayerTableRecord
2
80
70
0
62
-6
6
Continuous
290
1
370
-3
390
0
0
LAYER
5
75
100
AcDbSymbolTableRecord
100
AcDbLayerTableRecord
2
1
70
0
62
4
6
Continuous
290
1
370
-3
390
0
0
LAYER
5
7C
100
AcDbSymbolTableRecord
100
AcDbLayerTableRecord
2
4
70
0
62
-2
6
CENTER
290
1
370
-3
390
0
0
LAYER
5
BD
100
AcDbSymbolTableRecord
100
AcDbLayerTableRecord
2
2
70
0
62
7
6
Continuous
290
1
370
-3
390
0
0
LAYER
5
12B
100
AcDbSymbolTableRecord
100
AcDbLayerTableRecord
2
Defpoints
70
0
62
7
6
Continuous
290
0
370
-3
390
0
0
LAYER
5
1a1
100
AcDbSymbolTableRecord
100
AcDbLayerTableRecord
2
SK4
70
0
62
2
6
CENTER
290
1
370
-3
390
0
0
LAYER
5
1a2
100
AcDbSymbolTableRecord
100
AcDbLayerTableRecord
2
SK1
70
0
62
4
6
Continuous
290
1
370
-3
390
0
0
LAYER
5
1a3
100
AcDbSymbolTableRecord
100
AcDbLayerTableRecord
2
SK2
70
0
62
7
6
Continuous
290
1
370
-3
390
0
0
LAYER
5
1a4
100
AcDbSymbolTableRecord
100
AcDbLayerTableRecord
2
SK6
70
0
62
5
6
Continuous
290
1
370
-3
390
0
0
ENDTAB
0
TABLE
2
STYLE
5
1b8
100
AcDbSymbolTable
0
STYLE
5
11
100
AcDbSymbolTableRecord
100
AcDbTextStyleTableRecord
2
Standard
3
txt
70
0
71
0
40
0
41
1
42
0
50
0
0
STYLE
5
107
100
AcDbSymbolTableRecord
100
AcDbTextStyleTableRecord
2
iso_b_vert
3
simplex.shx
70
0
71
0
40
0
41
1
42
0
50
0
0
STYLE
5
108
100
AcDbSymbolTableRecord
100
AcDbTextStyleTableRecord
2
DWGDirectTextStyle
3
simplex
70
0
71
0
40
0
41
1
42
0
50
0
0
ENDTAB
0
TABLE
2
DIMSTYLE
5
1b9
100
AcDbSymbolTable
100
AcDbDimStyleTable
0
DIMSTYLE
105
27
100
AcDbSymbolTableRecord
100
AcDbDimStyleTableRecord
2
Standard
70
0
3
<>
41
0.18
42
0.0625
44
0.18
140
0.18
147
0.09
73
0
74
0
77
1
271
2
275
0
278
52
280
0
340
11
0
ENDTAB
0
TABLE
2
VIEW
5
1ba
100
AcDbSymbolTable
0
ENDTAB
0
TABLE
2
UCS
5
1bb
100
AcDbSymbolTable
0
ENDTAB
0
TABLE
2
APPID
5
1bc
100
AcDbSymbolTable
0
APPID
5
12
100
AcDbSymbolTableRecord
100
AcDbRegAppTableRecord
2
ACAD
70
0
0
APPID
5
127
100
AcDbSymbolTableRecord
100
AcDbRegAppTableRecord
2
ACAD_DSTYLE_DIMBREAK
70
0
0
APPID
5
160
100
AcDbSymbolTableRecord
100
AcDbRegAppTableRecord
2
ACAD_DSTYLE_DIM_LINETYPE
70
0
0
APPID
5
161
100
AcDbSymbolTableRecord
100
AcDbRegAppTableRecord
2
ACAD_DSTYLE_DIM_EXT1_LINETYPE
70
0
0
APPID
5
162
100
AcDbSymbolTableRecord
100
AcDbRegAppTableRecord
2
ACAD_DSTYLE_DIM_EXT2_LINETYPE
70
0
0
APPID
5
19D
100
AcDbSymbolTableRecord
100
AcDbRegAppTableRecord
2
ACAD_MLEADERVER
70
0
0
ENDTAB
0
TABLE
2
BLOCK_RECORD
5
1bd
100
AcDbSymbolTable
0
BLOCK_RECORD
5
1F
100
AcDbSymbolTableRecord
100
AcDbBlockTableRecord
2
*Model_Space
340
0
70
0
0
BLOCK_RECORD
5
1B
100
AcDbSymbolTableRecord
100
AcDbBlockTableRecord
2
*Paper_Space
340
0
70
0
0
BLOCK_RECORD
5
23
100
AcDbSymbolTableRecord
100
AcDbBlockTableRecord
2
*Paper_Space0
340
0
70
0
0
BLOCK_RECORD
5
12C
100
AcDbSymbolTableRecord
100
AcDbBlockTableRecord
2
*D1
340
0
70
0
0
BLOCK_RECORD
5
139
100
AcDbSymbolTableRecord
100
AcDbBlockTableRecord
2
_U0
340
0
70
0
0
ENDTAB
0
ENDSEC
0
SECTION
2
BLOCKS
0
BLOCK
5
20
100
AcDbEntity
8
0
100
AcDbBlockBegin
2
*Model_Space
70
0
10
0
20
0
30
0
3
*Model_Space
0
ENDBLK
5
21
100
AcDbEntity
8
0
100
AcDbBlockEnd
0
BLOCK
5
1C
100
AcDbEntity
8
0
100
AcDbBlockBegin
2
*Paper_Space
70
0
10
0
20
0
30
0
3
*Paper_Space
0
ENDBLK
5
1D
100
AcDbEntity
8
0
100
AcDbBlockEnd
0
BLOCK
5
24
100
AcDbEntity
8
0
100
AcDbBlockBegin
2
*Paper_Space0
70
0
10
0
20
0
30
0
3
*Paper_Space0
0
ENDBLK
5
25
100
AcDbEntity
8
0
100
AcDbBlockEnd
0
BLOCK
5
12D
100
AcDbEntity
8
0
100
AcDbBlockBegin
2
*D1
70
1
10
0
20
0
30
0
3
*D1
0
LINE
5
12F
100
AcDbEntity
8
0
62
256
6
ByLayer
370
-2
48
1
60
0
100
AcDbLine
10
18
20
-3.4876
30
0
11
18
21
-19.1
31
0
39
0
210
0
220
0
230
1
0
LINE
5
130
100
AcDbEntity
8
0
62
256
6
ByLayer
370
-2
48
1
60
0
100
AcDbLine
10
14.2
20
-3.4876
30
0
11
14.2
21
-19.1
31
0
39
0
210
0
220
0
230
1
0
LINE
5
131
100
AcDbEntity
8
0
62
256
6
ByLayer
370
-2
48
1
60
0
100
AcDbLine
10
21.5
20
-17.1
30
0
11
25
21
-17.1
31
0
39
0
210
0
220
0
230
1
0
LINE
5
132
100
AcDbEntity
8
0
62
256
6
ByLayer
370
-2
48
1
60
0
100
AcDbLine
10
10.7
20
-17.1
30
0
11
7.2
21
-17.1
31
0
39
0
210
0
220
0
230
1
0
SOLID
5
133
100
AcDbEntity
8
0
62
256
6
ByLayer
370
-1
48
1
60
0
100
AcDbTrace
10
21.5
20
-16.516667
30
0
11
21.5
21
-17.683333
31
0
12
18
22
-17.1
32
0
13
18
23
-17.1
33
0
39
0
210
0
220
0
230
1
0
SOLID
5
134
100
AcDbEntity
8
0
62
256
6
ByLayer
370
-1
48
1
60
0
100
AcDbTrace
10
10.7
20
-17.683333
30
0
11
10.7
21
-16.516667
31
0
12
14.2
22
-17.1
32
0
13
14.2
23
-17.1
33
0
39
0
210
0
220
0
230
1
0
MTEXT
5
135
100
AcDbEntity
8
0
62
256
6
ByLayer
370
18
48
1
60
0
100
AcDbMText
10
16.1
20
-10.1
30
0
210
0
220
0
230
1
1
\A1;3.8
40
3.5
41
0
44
1
50
0
71
5
72
5
7
iso_b_vert
0
POINT
5
136
100
AcDbEntity
8
Defpoints
62
0
6
ByLayer
370
-1
48
1
60
0
100
AcDbPoint
10
18
20
-1.9001
30
0
39
0
210
0
220
0
230
1
50
360
0
POINT
5
137
100
AcDbEntity
8
Defpoints
62
0
6
ByLayer
370
-1
48
1
60
0
100
AcDbPoint
10
14.2
20
-1.9001
30
0
39
0
210
0
220
0
230
1
50
360
0
POINT
5
138
100
AcDbEntity
8
Defpoints
62
0
6
ByLayer
370
-1
48
1
60
0
100
AcDbPoint
10
14.2
20
-17.1
30
0
39
0
210
0
220
0
230
1
50
360
0
ENDBLK
5
12E
100
AcDbEntity
8
0
100
AcDbBlockEnd
0
BLOCK
5
140
100
AcDbEntity
8
0
100
AcDbBlockBegin
2
_U0
70
0
10
0
20
0
30
0
3
_U0
0
MTEXT
5
13A
100
AcDbEntity
8
2
62
256
6
ByLayer
370
18
48
1
60
0
100
AcDbMText
10
13.486034
20
-16.067366
30
0
210
0
220
0
230
1
1
\W0.7121;3.8
40
3.5
41
0
44
1.084337
50
0
71
7
72
5
7
iso_b_vert
0
LINE
5
13B
100
AcDbEntity
8
2
62
256
6
ByLayer
370
13
48
1
60
0
100
AcDbLine
10
18
20
-3.4876
30
0
11
18
21
-19.1
31
0
39
0
210
0
220
0
230
1
0
LINE
5
13C
100
AcDbEntity
8
2
62
256
6
ByLayer
370
13
48
1
60
0
100
AcDbLine
10
14.2
20
-3.4876
30
0
11
14.2
21
-19.1
31
0
39
0
210
0
220
0
230
1
0
LINE
5
13D
100
AcDbEntity
8
2
62
256
6
ByLayer
370
13
48
1
60
0
100
AcDbLine
10
26.75
20
-17.1
30
0
11
5.45
21
-17.1
31
0
39
0
210
0
220
0
230
1
0
SOLID
5
13E
100
AcDbEntity
8
2
62
256
6
ByLayer
370
18
48
1
60
0
100
AcDbTrace
10
18
20
-17.1
30
0
11
21.499998
21
-16.639216
31
0
12
21.500002
22
-17.560784
32
0
13
21.500002
23
-17.560784
33
0
39
0
210
0
220
0
230
1
0
SOLID
5
13F
100
AcDbEntity
8
2
62
256
6
ByLayer
370
18
48
1
60
0
100
AcDbTrace
10
14.2
20
-17.1
30
0
11
10.700002
21
-17.560784
31
0
12
10.699998
22
-16.639216
32
0
13
10.699998
23
-16.639216
33
0
39
0
210
0
220
0
230
1
0
ENDBLK
5
141
100
AcDbEntity
8
0
100
AcDbBlockEnd
0
ENDSEC
0
SECTION
2
ENTITIES
0
ARC
5
CF
100
AcDbEntity
8
1
62
256
6
ByLayer
370
18
48
1
60
0
100
AcDbCircle
39
0
10
5.297679
20
2.9
30
0
40
1
210
0
220
0
230
1
100
AcDbArc
50
240
51
270
0
ARC
5
D0
100
AcDbEntity
8
1
62
256
6
ByLayer
370
18
48
1
60
0
100
AcDbCircle
39
0
10
5.297679
20
-2.9
30
0
40
1
210
0
220
0
230
1
100
AcDbArc
50
90
51
120
0
ELLIPSE
5
D1
100
AcDbEntity
8
1
62
256
6
ByLayer
370
18
48
1
60
0
100
AcDbEllipse
10
18.262437
20
-0.684976
30
0
11
0.44920415085664
21
-0.3786861641019
31
0
210
0
220
0
230
1
40
0.003459
41
2.33984266356886
42
3.09030707453284
0
ELLIPSE
5
D2
100
AcDbEntity
8
1
62
256
6
ByLayer
370
18
48
1
60
0
100
AcDbEllipse
10
17.840139
20
-0.322782
30
0
11
0.0765936407567268
21
-0.0642917225149533
31
0
210
0
220
0
230
1
40
0.020362
41
-3.0703010866212
42
-1.54313799103871
0
ELLIPSE
5
D3
100
AcDbEntity
8
1
62
256
6
ByLayer
370
18
48
1
60
0
100
AcDbEllipse
10
17.8226
20
-0.173833
30
0
11
0.0489305841436447
21
-0.133177689461556
31
0
210
0
220
0
230
1
40
0.654849
41
-1.50266430700147
42
-1.20942532443267
0
ELLIPSE
5
D4
100
AcDbEntity
8
1
62
256
6
ByLayer
370
18
48
1
60
0
100
AcDbEllipse
10
17.8226
20
-0.165711
30
0
11
0.0700045172104262
21
-0.0765366427328361
31
0
210
0
220
0
230
1
40
0.933015
41
-2.34628684185971
42
-1.76683143613579
0
ELLIPSE
5
D5
100
AcDbEntity
8
1
62
256
6
ByLayer
370
18
48
1
60
0
100
AcDbEllipse
10
17.8226
20
-0.180711
30
0
11
0.0421319149859372
21
-0.0909666049884303
31
0
210
0
220
0
230
1
40
0.996973
41
2.70669327359629
42
-3.02319111136426
0
ELLIPSE
5
D6
100
AcDbEntity
8
1
62
256
6
ByLayer
370
18
48
1
60
0
100
AcDbEllipse
10
17.939284
20
-0.300822
30
0
11
0.00497088885201036
21
-0.16056118582082
31
0
210
0
220
0
230
1
40
0.07477
41
-0.0230890584396342
42
0.727375351975607
0
ELLIPSE
5
D7
100
AcDbEntity
8
1
62
256
6
ByLayer
370
18
48
1
60
0
100
AcDbEllipse
10
17.8226
20
-0.141015
30
0
11
0.0489305841994558
21
0.133177689135445
31
0
210
0
220
0
230
1
40
0.654849
41
2.25109197538378
42
2.95475457742479
0
ELLIPSE
5
D8
100
AcDbEntity
8
1
62
256
6
ByLayer
370
18
48
1
60
0
100
AcDbEllipse
10
16.821415
20
0
30
0
11
5.23214265011612
21
-1.49826905712558
31
0
210
0
220
0
230
1
40
0.223315
41
-2.6566603472182
42
-2.13851472929104
0
ELLIPSE
5
D9
100
AcDbEntity
8
1
62
256
6
ByLayer
370
18
48
1
60
0
100
AcDbEllipse
10
13.318652
20
0
30
0
11
5.06434400914498
21
1.55115932834918
31
0
210
0
220
0
230
1
40
0.216657
41
-1.58319381551722
42
-1.46252620360397
0
POINT
5
70
100
AcDbEntity
8
81
62
256
6
ByLayer
370
18
48
1
60
0
100
AcDbPoint
10
18
20
0
30
0
39
0
210
0
220
0
230
1
50
360
0
POINT
5
72
100
AcDbEntity
8
80
62
256
6
ByLayer
370
18
48
1
60
0
100
AcDbPoint
10
0
20
0
30
0
39
0
210
0
220
0
230
1
50
360
0
POINT
5
74
100
AcDbEntity
8
1
62
256
6
ByLayer
370
18
48
1
60
1
100
AcDbPoint
10
18
20
-1.9001
30
0
39
0
210
0
220
0
230
1
50
360
0
POINT
5
76
100
AcDbEntity
8
1
62
256
6
ByLayer
370
18
48
1
60
1
100
AcDbPoint
10
14.2
20
-1.9001
30
0
39
0
210
0
220
0
230
1
50
360
0
SPLINE
5
DA
100
AcDbEntity
8
1
62
256
6
ByLayer
370
18
48
1
60
0
100
AcDbSpline
70
4
71
3
72
21
73
17
40
0
40
0
40
0
40
0
40
0.0352326524298451
40
0.0352326524298451
40
0.109445525319856
40
0.109445525319856
40
0.406297016879899
40
0.406297016879899
40
0.554722762659923
40
0.554722762659923
40
0.703148508439947
40
0.703148508439947
40
0.777361381329959
40
0.777361381329959
40
0.851574254219971
40
1
40
1
40
1
40
1
41
1
10
14.7698893855329
20
1.17526671492433
30
0
41
1
10
14.8056130434319
20
1.19020266737576
30
0
41
1
10
14.8413349159774
20
1.20496174784114
30
0
41
1
10
14.9522488550373
20
1.25021688125304
30
0
41
1
10
15.0273788580951
20
1.28005546554539
30
0
41
1
10
15.4028109852993
20
1.42478952349924
30
0
41
1
10
15.7024902245042
20
1.52626601875491
30
0
41
1
10
16.1540792332878
20
1.65350063803712
30
0
41
1
10
16.3044084173697
20
1.691596149004
30
0
41
1
10
16.604870469056
20
1.75856373860552
30
0
41
1
10
16.7550564798557
20
1.78745184032749
30
0
41
1
10
16.9806769307569
20
1.82361791427152
30
0
41
1
10
17.055965018821
20
1.83448123033966
30
0
41
1
10
17.2063472688472
20
1.85373466735169
30
0
41
1
10
17.4317608728765
20
1.87892897955518
30
0
41
1
10
17.6570011880172
20
1.89296900478041
30
0
41
1
10
17.8073435699249
20
1.89726882514236
30
0
0
SPLINE
5
DB
100
AcDbEntity
8
1
62
256
6
ByLayer
370
18
48
1
60
0
100
AcDbSpline
70
4
71
3
72
8
73
4
40
0
40
0
40
0
40
0
40
1
40
1
40
1
40
1
41
1
10
17.874974485201
20
1.89727921455599
30
0
41
1
10
17.8918874681401
20
1.89547318876191
30
0
41
1
10
17.9088055424157
20
1.89371585486447
30
0
41
1
10
17.9257286288546
20
1.89200645306423
30
0
0
SPLINE
5
DC
100
AcDbEntity
8
1
62
256
6
ByLayer
370
18
48
1
60
0
100
AcDbSpline
70
4
71
3
72
8
73
4
40
0
40
0
40
0
40
0
40
1
40
1
40
1
40
1
41
1
10
17.8073435699256
20
1.89726882514179
30
0
41
1
10
17.82988668729
20
1.8971960452435
30
0
41
1
10
17.8524305824113
20
1.89719945487164
30
0
41
1
10
17.8749744850725
20
1.89727921462153
30
0
0
SPLINE
5
DD
100
AcDbEntity
8
1
62
256
6
ByLayer
370
18
48
1
60
0
100
AcDbSpline
70
4
71
3
72
8
73
4
40
0
40
0
40
0
40
0
40
1
40
1
40
1
40
1
41
1
10
17.8073435699096
20
1.89726882513443
30
0
41
1
10
17.8256078268055
20
1.8531721005366
30
0
41
1
10
17.8451717296121
20
1.80967011404567
30
0
41
1
10
17.8662807403103
20
1.76687519192853
30
0
0
SPLINE
5
DE
100
AcDbEntity
8
1
62
256
6
ByLayer
370
18
48
1
60
0
100
AcDbSpline
70
4
71
3
72
24
73
20
40
0
40
0
40
0
40
0
40
0.125
40
0.125
40
0.25
40
0.25
40
0.375
40
0.375
40
0.5
40
0.5
40
0.625
40
0.625
40
0.75
40
0.75
40
0.8125
40
0.8125
40
0.875
40
0.875
40
1
40
1
40
1
40
1
41
1
10
17.7240246883979
20
-0.199878080664945
30
0
41
1
10
17.7239002862813
20
-0.198963282971022
30
0
41
1
10
17.7235544000272
20
-0.196762218905405
30
0
41
1
10
17.7229228961843
20
-0.190865369927337
30
0
41
1
10
17.7226486373497
20
-0.187179182776731
30
0
41
1
10
17.7225634274959
20
-0.179120663680067
30
0
41
1
10
17.7227427487055
20
-0.174704971421363
30
0
41
1
10
17.7238138973175
20
-0.165281488298149
30
0
41
1
10
17.7247089265055
20
-0.160285843227626
30
0
41
1
10
17.7273908880837
20
-0.150101466309223
30
0
41
1
10
17.7291764180561
20
-0.144874388117756
30
0
41
1
10
17.733943579617
20
-0.134182204212891
30
0
41
1
10
17.7369632617127
20
-0.128681485952086
30
0
41
1
10
17.7424286810324
20
-0.120743033897782
30
0
41
1
10
17.7444134146941
20
-0.118131697342363
30
0
41
1
10
17.748755448174
20
-0.112995232013873
30
0
41
1
10
17.7511029692454
20
-0.110487158986928
30
0
41
1
10
17.7585038106692
20
-0.103371912030298
30
0
41
1
10
17.7640278403652
20
-0.099056465201329
30
0
41
1
10
17.7700501506716
20
-0.0953434100062793
30
0
0
SPLINE
5
DF
100
AcDbEntity
8
1
62
256
6
ByLayer
370
18
48
1
60
0
100
AcDbSpline
70
4
71
3
72
41
73
37
40
0
40
0
40
0
40
0
40
0.0625000000000148
40
0.0625000000000148
40
0.0781250000000171
40
0.0781250000000171
40
0.0937500000000194
40
0.125000000000023
40
0.125000000000023
40
0.156250000000026
40
0.156250000000026
40
0.187500000000029
40
0.187500000000029
40
0.218750000000032
40
0.218750000000032
40
0.250000000000035
40
0.250000000000035
40
0.281250000000038
40
0.281250000000038
40
0.312500000000042
40
0.312500000000042
40
0.375000000000048
40
0.375000000000048
40
0.406250000000051
40
0.406250000000051
40
0.437500000000055
40
0.437500000000055
40
0.500000000000049
40
0.500000000000049
40
0.625000000000036
40
0.625000000000036
40
0.750000000000024
40
0.750000000000024
40
0.875000000000012
40
0.875000000000012
40
1
40
1
40
1
40
1
41
1
10
17.8662807513564
20
1.7668751968227
30
0
41
1
10
17.8801913361937
20
1.73868569277957
30
0
41
1
10
17.8912958373811
20
1.70950410632622
30
0
41
1
10
17.9000064835622
20
1.67119929307239
30
0
41
1
10
17.9014853628049
20
1.66342608236232
30
0
41
1
10
17.9038184012254
20
1.64792656208596
30
0
41
1
10
17.9064021811726
20
1.62466649180575
30
0
41
1
10
17.9061028584839
20
1.60137245227426
30
0
41
1
10
17.9028278870193
20
1.57027984880483
30
0
41
1
10
17.8996840847121
20
1.55459168058542
30
0
41
1
10
17.8906685126893
20
1.524594174432
30
0
41
1
10
17.8848045767841
20
1.51012504833869
30
0
41
1
10
17.8705719156699
20
1.48216500955547
30
0
41
1
10
17.8621393610456
20
1.46862010662483
30
0
41
1
10
17.8436633894543
20
1.44329024412005
30
0
41
1
10
17.8335683177838
20
1.4313750931793
30
0
41
1
10
17.8119867215569
20
1.40876203686102
30
0
41
1
10
17.8004751536227
20
1.39804550980344
30
0
41
1
10
17.7763918244793
20
1.37771181360171
30
0
41
1
10
17.7639555319851
20
1.368202200859
30
0
41
1
10
17.7257193376294
20
1.34121776788589
30
0
41
1
10
17.6990051886964
20
1.32526558573576
30
0
41
1
10
17.657704471722
20
1.30338497969987
30
0
41
1
10
17.643728422631
20
1.29643976349351
30
0
41
1
10
17.6154222065822
20
1.28313909873643
30
0
41
1
10
17.6010845440082
20
1.27678227888077
30
0
41
1
10
17.5579505562592
20
1.25860638677256
30
0
41
1
10
17.528916354646
20
1.24761437451909
30
0
41
1
10
17.4412082726714
20
1.21708725463702
30
0
41
1
10
17.3819401502514
20
1.19995562243312
30
0
41
1
10
17.2624398034926
20
1.1695917711327
30
0
41
1
10
17.2021974216589
20
1.1564006351052
30
0
41
1
10
17.0810377981629
20
1.13274790564881
30
0
41
1
10
17.0201172315506
20
1.1222997603351
30
0
41
1
10
16.8977703850965
20
1.10344888083432
30
0
41
1
10
16.836404291673
20
1.09506209372171
30
0
41
1
10
16.7750302637923
20
1.08750247284306
30
0
0
SPLINE
5
E0
100
AcDbEntity
8
1
62
256
6
ByLayer
370
13
48
1
60
0
100
AcDbSpline
70
4
71
3
72
9
73
5
40
0
40
0
40
0
40
0
40
0.612334311876889
40
1
40
1
40
1
40
1
41
1
10
17.866280750254
20
1.76687519696227
30
0
41
1
10
17.2775205001693
20
1.75189338424073
30
0
41
1
10
16.3160191786444
20
1.60841438385159
30
0
41
1
10
15.3545178571195
20
1.29665812388808
30
0
41
1
10
14.9817767856793
20
1.15712721396375
30
0
0
SPLINE
5
E1
100
AcDbEntity
8
1
62
256
6
ByLayer
370
18
48
1
60
0
100
AcDbSpline
70
4
71
3
72
8
73
4
40
0
40
0
40
0
40
0
40
1
40
1
40
1
40
1
41
1
10
16.5398024263076
20
1.04498093707329
30
0
41
1
10
16.582882072067
20
1.0450022309258
30
0
41
1
10
16.6259617178263
20
1.04479674445318
30
0
41
1
10
16.6690413635857
20
1.0443650707316
30
0
0
SPLINE
5
E2
100
AcDbEntity
8
1
62
256
6
ByLayer
370
18
48
1
60
0
100
AcDbSpline
70
4
71
3
72
22
73
18
40
0
40
0
40
0
40
0
40
0.125
40
0.125
40
0.25
40
0.25
40
0.375
40
0.375
40
0.5
40
0.5
40
0.625
40
0.625
40
0.75
40
0.75
40
0.875
40
0.875
40
1
40
1
40
1
40
1
41
1
10
16.6700507658834
20
1.05305035957653
30
0
41
1
10
16.6697850802264
20
1.05409205191052
30
0
41
1
10
16.6702510969008
20
1.05525088163032
30
0
41
1
10
16.6726584761346
20
1.05784713554314
30
0
41
1
10
16.6746386503779
20
1.05930092711637
30
0
41
1
10
16.6799415822116
20
1.06237047832073
30
0
41
1
10
16.6832855060019
20
1.06400745683157
30
0
41
1
10
16.6912924076013
20
1.06742745282827
30
0
41
1
10
16.6958324065745
20
1.06915948953071
30
0
41
1
10
16.7059238055008
20
1.07262651019565
30
0
41
1
10
16.7115015396738
20
1.07436431028441
30
0
41
1
10
16.7231457948607
20
1.07763842082977
30
0
41
1
10
16.7293096570412
20
1.07920453515899
30
0
41
1
10
16.7420398548886
20
1.08208795552744
30
0
41
1
10
16.7485132026784
20
1.08338619070187
30
0
41
1
10
16.7616588453284
20
1.08568154688837
30
0
41
1
10
16.7683558053627
20
1.08668036002041
30
0
41
1
10
16.7750302637923
20
1.08750247284306
30
0
0
SPLINE
5
E3
100
AcDbEntity
8
1
62
256
6
ByLayer
370
18
48
1
60
0
100
AcDbSpline
70
4
71
3
72
10
73
6
40
0
40
0
40
0
40
0
40
0.5
40
0.5
40
1
40
1
40
1
40
1
41
1
10
16.6700507658834
20
1.05305035957653
30
0
41
1
10
16.6706422893901
20
1.05073113199987
30
0
41
1
10
16.6708770676395
20
1.04880947444585
30
0
41
1
10
16.6705602858343
20
1.04588792703501
30
0
41
1
10
16.6700116798376
20
1.04488117241462
30
0
41
1
10
16.6690413729721
20
1.04436507077244
30
0
0
SPLINE
5
E4
100
AcDbEntity
8
1
62
256
6
ByLayer
370
18
48
1
60
0
100
AcDbSpline
70
4
71
3
72
8
73
4
40
0
40
0
40
0
40
0
40
1
40
1
40
1
40
1
41
1
10
16.6690413638105
20
1.0443650739218
30
0
41
1
10
16.6684864859768
20
1.04406679258344
30
0
41
1
10
16.667577446516
20
1.04418468801129
30
0
41
1
10
16.6662980432657
20
1.04474485473483
30
0
0
SPLINE
5
E5
100
AcDbEntity
8
1
62
256
6
ByLayer
370
18
48
1
60
0
100
AcDbSpline
70
4
71
3
72
14
73
10
40
0
40
0
40
0
40
0
40
0.25
40
0.25
40
0.5
40
0.5
40
0.75
40
0.75
40
1
40
1
40
1
40
1
41
1
10
17.821441853246
20
-1.44949760513526
30
0
41
1
10
17.8243967910669
20
-1.45321822951851
30
0
41
1
10
17.8272302132883
20
-1.45752689306983
30
0
41
1
10
17.8326424688065
20
-1.46737625325682
30
0
41
1
10
17.8352317435019
20
-1.47293830608243
30
0
41
1
10
17.8400604366913
20
-1.4854497989063
30
0
41
1
10
17.8422580370778
20
-1.49228966799913
30
0
41
1
10
17.8460707545905
20
-1.50718955959408
30
0
41
1
10
17.8476451514041
20
-1.51507005270346
30
0
41
1
10
17.8488095249781
20
-1.52348233487584
30
0
0
SPLINE
5
E6
100
AcDbEntity
8
1
62
256
6
ByLayer
370
18
48
1
60
0
100
AcDbSpline
70
4
71
3
72
18
73
14
40
0
40
0
40
0
40
0
40
0.125
40
0.125
40
0.25
40
0.25
40
0.500000000000001
40
0.500000000000001
40
0.625000000000001
40
0.625000000000001
40
0.75
40
0.75
40
1
40
1
40
1
40
1
41
1
10
17.4903402507997
20
-0.0716890839996722
30
0
41
1
10
17.4890675262398
20
-0.101159854616981
30
0
41
1
10
17.4881750037632
20
-0.131014288863696
30
0
41
1
10
17.4871792330752
20
-0.191467449543722
30
0
41
1
10
17.4870820086713
20
-0.221688342151253
30
0
41
1
10
17.4879579502792
20
-0.31233444466028
30
0
41
1
10
17.490094107615
20
-0.372743144882691
30
0
41
1
10
17.4955795379908
20
-0.463323811667038
30
0
41
1
10
17.4977893949862
20
-0.493511953236293
30
0
41
1
10
17.5029780892878
20
-0.553877320026658
30
0
41
1
10
17.5059656001154
20
-0.584129750459823
30
0
41
1
10
17.5160419297256
20
-0.674317379835998
30
0
41
1
10
17.5241961252065
20
-0.733373261155322
30
0
41
1
10
17.5337496192334
20
-0.791387730295696
30
0
0
SPLINE
5
E7
100
AcDbEntity
8
1
62
256
6
ByLayer
370
18
48
1
60
0
100
AcDbSpline
70
4
71
3
72
37
73
33
40
0
40
0
40
0
40
0
40
0.125000000000009
40
0.125000000000009
40
0.156250000000011
40
0.156250000000011
40
0.187500000000013
40
0.187500000000013
40
0.250000000000017
40
0.31250000000002
40
0.31250000000002
40
0.343750000000022
40
0.343750000000022
40
0.375000000000023
40
0.375000000000023
40
0.437500000000027
40
0.437500000000027
40
0.468750000000029
40
0.468750000000029
40
0.500000000000031
40
0.500000000000031
40
0.625000000000029
40
0.625000000000029
40
0.687500000000031
40
0.687500000000031
40
0.718750000000029
40
0.718750000000029
40
0.750000000000027
40
0.750000000000027
40
0.875000000000013
40
0.875000000000013
40
1
40
1
40
1
40
1
41
1
10
16.6662980339368
20
1.04474485825796
30
0
41
1
10
16.6526553666467
20
1.05072738122914
30
0
41
1
10
16.6465001529503
20
1.0479657165271
30
0
41
1
10
16.6487401163901
20
1.03291226364658
30
0
41
1
10
16.6496890775378
20
1.0293165188971
30
0
41
1
10
16.6526220120493
20
1.02091629418788
30
0
41
1
10
16.6546016890672
20
1.01612973893654
30
0
41
1
10
16.6619951931403
20
1.000179020784
30
0
41
1
10
16.6757557685242
20
0.974582653442923
30
0
41
1
10
16.6970204359387
20
0.940662723098171
30
0
41
1
10
16.7157504908818
20
0.912137466277045
30
0
41
1
10
16.72246111076
20
0.902111233712361
30
0
41
1
10
16.7366083949865
20
0.881321907793023
30
0
41
1
10
16.7440655625454
20
0.870527189504287
30
0
41
1
10
16.7675340164537
20
0.83699880499006
30
0
41
1
10
16.7846393377757
20
0.813123951065421
30
0
41
1
10
16.8123341215485
20
0.775187082568181
30
0
41
1
10
16.8219059611822
20
0.762186550187948
30
0
41
1
10
16.8417130017357
20
0.735493533379668
30
0
41
1
10
16.8519616429659
20
0.721783715772688
30
0
41
1
10
16.9042526094427
20
0.652302100834675
30
0
41
1
10
16.9498021954522
20
0.593220118617523
30
0
41
1
10
17.0227225077662
20
0.500273399120488
30
0
41
1
10
17.0478037069029
20
0.468562595259527
30
0
41
1
10
17.0865235608511
20
0.419963364869204
30
0
41
1
10
17.099640716697
20
0.403557283517301
30
0
41
1
10
17.1260895038987
20
0.370587518704383
30
0
41
1
10
17.1394085006195
20
0.35403929578132
30
0
41
1
10
17.2064528605777
20
0.270997305989738
30
0
41
1
10
17.2615143388384
20
0.203608957464581
30
0
41
1
10
17.3741069672275
20
0.0671787177834915
30
0
41
1
10
17.4316417142891
20
-0.001865581660951
30
0
41
1
10
17.4903402507998
20
-0.0716890839997006
30
0
0
SPLINE
5
E8
100
AcDbEntity
8
1
62
256
6
ByLayer
370
18
48
1
60
0
100
AcDbSpline
70
4
71
3
72
8
73
4
40
0
40
0
40
0
40
0
40
1
40
1
40
1
40
1
41
1
10
16.6662980336924
20
1.04474485504332
30
0
41
1
10
16.6217890284275
20
1.04551271636166
30
0
41
1
10
16.5772800231626
20
1.04603908065042
30
0
41
1
10
16.5327710178976
20
1.04632310507429
30
0
0
SPLINE
5
E9
100
AcDbEntity
8
1
62
256
6
ByLayer
370
18
48
1
60
0
100
AcDbSpline
70
4
71
3
72
19
73
15
40
0
40
0
40
0
40
0
40
0.250000000000007
40
0.250000000000007
40
0.37500000000001
40
0.37500000000001
40
0.500000000000013
40
0.500000000000013
40
0.562500000000014
40
0.562500000000014
40
0.625000000000016
40
0.750000000000013
40
0.750000000000013
40
1
40
1
40
1
40
1
41
1
10
17.5337496192356
20
-0.791387730297288
30
0
41
1
10
17.5518596069353
20
-0.863244138073611
30
0
41
1
10
17.5717470728856
20
-0.93126347708278
30
0
41
1
10
17.6041432637261
20
-1.0277553993651
30
0
41
1
10
17.6153390816857
20
-1.05888867544183
30
0
41
1
10
17.6384020084694
20
-1.11885559620566
30
0
41
1
10
17.6502846418963
20
-1.1477357890906
30
0
41
1
10
17.6686290872809
20
-1.18942084355254
30
0
41
1
10
17.6748385868589
20
-1.20305898340348
30
0
41
1
10
17.6873724104566
20
-1.22966667537554
30
0
41
1
10
17.7063569952872
20
-1.26860443038785
30
0
41
1
10
17.7258819127252
20
-1.30468024198095
30
0
41
1
10
17.7656348047887
20
-1.37310802939675
30
0
41
1
10
17.7930702648981
20
-1.41378197765982
30
0
41
1
10
17.82144185193
20
-1.44949760544617
30
0
0
SPLINE
5
EA
100
AcDbEntity
8
1
62
256
6
ByLayer
370
18
48
1
60
0
100
AcDbSpline
70
4
71
3
72
9
73
5
40
0
40
0
40
0
40
0
40
0.430071176001395
40
1
40
1
40
1
40
1
41
1
10
17.5337496192413
20
-0.791387730298851
30
0
41
1
10
17.0558330794942
20
-0.600966248455478
30
0
41
1
10
15.9445832064138
20
-0.108472780127016
30
0
41
1
10
14.8333333333333
20
0.408942939684266
30
0
41
1
10
14.2
20
0.672530407802952
30
0
0
SPLINE
5
EB
100
AcDbEntity
8
1
62
256
6
ByLayer
370
13
48
1
60
0
100
AcDbSpline
70
4
71
3
72
9
73
5
40
0
40
0
40
0
40
0
40
0.475347091906721
40
1
40
1
40
1
40
1
41
1
10
17.8214418536344
20
-1.44949760489092
30
0
41
1
10
17.2476279024229
20
-1.32800578018663
30
0
41
1
10
16.0404806178781
20
-0.954724145883972
30
0
41
1
10
14.8333333333333
20
-0.414124918144495
30
0
41
1
10
14.2
20
-0.125610822565989
30
0
0
SPLINE
5
EC
100
AcDbEntity
8
1
62
256
6
ByLayer
370
18
48
1
60
0
100
AcDbSpline
70
4
71
3
72
8
73
4
40
0
40
0
40
0
40
0
40
1
40
1
40
1
40
1
41
1
10
17.8073433450771
20
-1.897269367966
30
0
41
1
10
17.8299116212559
20
-1.89719704117329
30
0
41
1
10
17.8524803020979
20
-1.89720099750681
30
0
41
1
10
17.8750493877477
20
-1.89728126418646
30
0
0
SPLINE
5
ED
100
AcDbEntity
8
1
62
256
6
ByLayer
370
13
48
1
60
0
100
AcDbSpline
70
4
71
3
72
8
73
4
40
0
40
0
40
0
40
0
40
1
40
1
40
1
40
1
41
1
10
13.6712635823566
20
-0.669664831598453
30
0
41
1
10
13.6752597897678
20
-0.661830384262629
30
0
41
1
10
13.679255997179
20
-0.65397643525705
30
0
41
1
10
13.6832522045903
20
-0.646103670711113
30
0
0
SPLINE
5
EE
100
AcDbEntity
8
1
62
256
6
ByLayer
370
18
48
1
60
0
100
AcDbSpline
70
4
71
3
72
26
73
22
40
0
40
0
40
0
40
0
40
0.12499999999995
40
0.12499999999995
40
0.249999999999901
40
0.249999999999901
40
0.374999999999852
40
0.374999999999852
40
0.437499999999826
40
0.437499999999826
40
0.4999999999998
40
0.4999999999998
40
0.562499999999774
40
0.562499999999774
40
0.624999999999749
40
0.624999999999749
40
0.749999999999832
40
0.749999999999832
40
0.874999999999916
40
0.874999999999916
40
1
40
1
40
1
40
1
41
1
10
12.0365378488058
20
0.780874270837415
30
0
41
1
10
12.0323817765725
20
0.784233577175371
30
0
41
1
10
12.0283384152635
20
0.787685762406255
30
0
41
1
10
12.0205915859755
20
0.794872561087828
30
0
41
1
10
12.0168820702076
20
0.798602044424229
30
0
41
1
10
12.0100588578696
20
0.806559986288619
30
0
41
1
10
12.0069423190454
20
0.810753037408062
30
0
41
1
10
12.0034907446515
20
0.817587047136783
30
0
41
1
10
12.0025379203645
20
0.819996893399576
30
0
41
1
10
12.0014700093075
20
0.824940051649946
30
0
41
1
10
12.0013652900272
20
0.827508565447914
30
0
41
1
10
12.0024984161852
20
0.832412239032521
30
0
41
1
10
12.0037605129156
20
0.834726213557587
30
0
41
1
10
12.0073479502267
20
0.838637386105148
30
0
41
1
10
12.0095593678376
20
0.840190562160643
30
0
41
1
10
12.0167738503673
20
0.844052248182521
30
0
41
1
10
12.022161814559
20
0.845541766680128
30
0
41
1
10
12.032997802113
20
0.84766371951747
30
0
41
1
10
12.0384688841377
20
0.848257503659937
30
0
41
1
10
12.0494652176851
20
0.848969100468082
30
0
41
1
10
12.0549918595465
20
0.849074631588792
30
0
41
1
10
12.0605368973049
20
0.849018538641502
30
0
0
SPLINE
5
EF
100
AcDbEntity
8
1
62
256
6
ByLayer
370
18
48
1
60
0
100
AcDbSpline
70
4
71
3
72
24
73
20
40
0
40
0
40
0
40
0
40
0.25
40
0.25
40
0.375
40
0.375
40
0.5
40
0.5
40
0.5625
40
0.5625
40
0.625
40
0.625
40
0.75
40
0.75
40
0.8125
40
0.8125
40
0.875
40
0.875
40
1
40
1
40
1
40
1
41
1
10
12.060536897305
20
0.849018538640848
30
0
41
1
10
12.1602715429094
20
0.84800963474143
30
0
41
1
10
12.2596249391572
20
0.850237734851191
30
0
41
1
10
12.4077484984584
20
0.861217291130146
30
0
41
1
10
12.4569700132989
20
0.866165053387704
30
0
41
1
10
12.5550146856928
20
0.879373083428305
30
0
41
1
10
12.6038385153989
20
0.887629073906794
30
0
41
1
10
12.676675122367
20
0.903271207761179
30
0
41
1
10
12.700957855515
20
0.909051191681726
30
0
41
1
10
12.7489231997602
20
0.921750619294897
30
0
41
1
10
12.7726121467767
20
0.928667528585294
30
0
41
1
10
12.8426968550796
20
0.951280619255414
30
0
41
1
10
12.8881138069033
20
0.968839136501487
30
0
41
1
10
12.9538150535746
20
0.999569557956477
30
0
41
1
10
12.9753657540685
20
1.01057656773116
30
0
41
1
10
13.0173258889699
20
1.03402420925997
30
0
41
1
10
13.0375760105947
20
1.04637118265592
30
0
41
1
10
13.0961018545439
20
1.08521425138053
30
0
41
1
10
13.1321450650322
20
1.11352425437491
30
0
41
1
10
13.1652185370413
20
1.1439236255508
30
0
0
SPLINE
5
F0
100
AcDbEntity
8
1
62
256
6
ByLayer
370
18
48
1
60
0
100
AcDbSpline
70
4
71
3
72
22
73
18
40
0
40
0
40
0
40
0
40
0.196921925161308
40
0.196921925161308
40
0.263845098064534
40
0.263845098064534
40
0.33076827096776
40
0.33076827096776
40
0.464614616774213
40
0.464614616774213
40
0.531537789677438
40
0.531537789677438
40
0.598460962580664
40
0.598460962580664
40
0.732307308387106
40
0.732307308387106
40
1
40
1
40
1
40
1
41
1
10
12.8173870091561
20
-1.85765201562216
30
0
41
1
10
12.783621941064
20
-1.87300228931193
30
0
41
1
10
12.7473474582899
20
-1.88394589884348
30
0
41
1
10
12.6945609758131
20
-1.89321229661735
30
0
41
1
10
12.6808073022488
20
-1.89509672140775
30
0
41
1
10
12.6525059620724
20
-1.89796220357073
30
0
41
1
10
12.6379310559327
20
-1.89894343211779
30
0
41
1
10
12.5931879286136
20
-1.90057126439993
30
0
41
1
10
12.5619725792278
20
-1.89991263771321
30
0
41
1
10
12.512762798269
20
-1.89666553879877
30
0
41
1
10
12.4959613584564
20
-1.89520669711291
30
0
41
1
10
12.4615066897873
20
-1.89159713498947
30
0
41
1
10
12.4438344013442
20
-1.88944294941615
30
0
41
1
10
12.3898435105959
20
-1.882095355622
30
0
41
1
10
12.3524417131721
20
-1.87600901867916
30
0
41
1
10
12.2356706818892
20
-1.85515990276613
30
0
41
1
10
12.1517105090303
20
-1.83782601015963
30
0
41
1
10
12.0609526727537
20
-1.81945666210842
30
0
0
SPLINE
5
F1
100
AcDbEntity
8
1
62
256
6
ByLayer
370
18
48
1
60
0
100
AcDbSpline
70
4
71
3
72
8
73
4
40
0
40
0
40
0
40
0
40
1
40
1
40
1
40
1
41
1
10
12.0609526727537
20
-1.81945666210842
30
0
41
1
10
12.0521559785545
20
-1.81767621488672
30
0
41
1
10
12.0438300460806
20
-1.81570384913582
30
0
41
1
10
12.0361619244398
20
-1.81345204694492
30
0
0
SPLINE
5
F2
100
AcDbEntity
8
1
62
256
6
ByLayer
370
18
48
1
60
0
100
AcDbSpline
70
4
71
3
72
10
73
6
40
0
40
0
40
0
40
0
40
0.5
40
0.5
40
1
40
1
40
1
40
1
41
1
10
14.2000000000001
20
-0.922201502684345
30
0
41
1
10
14.1117873377873
20
-0.881634027175551
30
0
41
1
10
14.0235338052087
20
-0.840409351676726
30
0
41
1
10
13.8472482494823
20
-0.756303732968206
30
0
41
1
10
13.7592021760937
20
-0.713418730239454
30
0
41
1
10
13.6712626399025
20
-0.669666600690761
30
0
0
SPLINE
5
F3
100
AcDbEntity
8
1
62
256
6
ByLayer
370
18
48
1
60
0
100
AcDbSpline
70
4
71
3
72
8
73
4
40
0
40
0
40
0
40
0
40
1
40
1
40
1
40
1
41
1
10
13.7259418394808
20
-0.179490476983546
30
0
41
1
10
13.7805399076469
20
-0.18813642520692
30
0
41
1
10
13.8352465153141
20
-0.197223158137774
30
0
41
1
10
13.890061577126
20
-0.206750329139737
30
0
0
SPLINE
5
F4
100
AcDbEntity
8
1
62
256
6
ByLayer
370
18
48
1
60
0
100
AcDbSpline
70
4
71
3
72
20
73
16
40
0
40
0
40
0
40
0
40
0.250000000000007
40
0.250000000000007
40
0.375000000000011
40
0.375000000000011
40
0.500000000000015
40
0.625000000000018
40
0.625000000000018
40
0.68750000000002
40
0.68750000000002
40
0.750000000000022
40
0.875000000000011
40
0.875000000000011
40
1
40
1
40
1
40
1
41
1
10
13.6832522134186
20
-0.646103675111846
30
0
41
1
10
13.66589823795
20
-0.609710411444922
30
0
41
1
10
13.6526909886051
20
-0.57184949364688
30
0
41
1
10
13.6406588330108
20
-0.512320872445912
30
0
41
1
10
13.6379594811491
20
-0.491863145443091
30
0
41
1
10
13.6355949130845
20
-0.451153931271591
30
0
41
1
10
13.6361855872072
20
-0.410469717961092
30
0
41
1
10
13.6427569902386
20
-0.36984827657443
30
0
41
1
10
13.6499883241507
20
-0.339412276729036
30
0
41
1
10
13.6527796388567
20
-0.329300457642461
30
0
41
1
10
13.6590196168303
20
-0.309415926577628
30
0
41
1
10
13.6693938175021
20
-0.279977613658161
30
0
41
1
10
13.6826501929431
20
-0.251646569045676
30
0
41
1
10
13.7026674227882
20
-0.214777458211245
30
0
41
1
10
13.7138816864936
20
-0.19676604747275
30
0
41
1
10
13.7259418394808
20
-0.179490476983574
30
0
0
SPLINE
5
F5
100
AcDbEntity
8
1
62
256
6
ByLayer
370
18
48
1
60
0
100
AcDbSpline
70
4
71
3
72
8
73
4
40
0
40
0
40
0
40
0
40
1
40
1
40
1
40
1
41
1
10
17.8788604650212
20
-1.8120338892418
30
0
41
1
10
17.8931807801194
20
-1.84000239042788
30
0
41
1
10
17.9086912147073
20
-1.86677427991469
30
0
41
1
10
17.9257204689819
20
-1.89201455436185
30
0
0
SPLINE
5
F6
100
AcDbEntity
8
1
62
256
6
ByLayer
370
18
48
1
60
0
100
AcDbSpline
70
4
71
3
72
8
73
4
40
0
40
0
40
0
40
0
40
1
40
1
40
1
40
1
41
1
10
17.8440327179194
20
-1.72386584132403
30
0
41
1
10
17.8565870148085
20
-1.75414918184563
30
0
41
1
10
17.8681283974785
20
-1.78347433129912
30
0
41
1
10
17.8788604650193
20
-1.81203388924158
30
0
0
SPLINE
5
F7
100
AcDbEntity
8
1
62
256
6
ByLayer
370
18
48
1
60
0
100
AcDbSpline
70
4
71
3
72
8
73
4
40
0
40
0
40
0
40
0
40
1
40
1
40
1
40
1
41
1
10
14.2000000000001
20
-0.340362053495312
30
0
41
1
10
14.0963155805272
20
-0.296818766620959
30
0
41
1
10
13.9929824122114
20
-0.252336202731215
30
0
41
1
10
13.8900618452695
20
-0.206750305858634
30
0
0
SPLINE
5
F8
100
AcDbEntity
8
1
62
256
6
ByLayer
370
18
48
1
60
0
100
AcDbSpline
70
4
71
3
72
22
73
18
40
0
40
0
40
0
40
0
40
0.0666783849117821
40
0.133347904088821
40
0.200010350630857
40
0.266667471443525
40
0.333320968035492
40
0.399972497301161
40
0.466623672289163
40
0.533276062956909
40
0.599931196911281
40
0.66659056013598
40
0.733255597705495
40
0.799927714486074
40
0.866608275824021
40
0.933298608221486
40
1
40
1
40
1
40
1
41
1
10
13.8900618456908
20
-0.206750304920178
30
0
41
1
10
13.8853073142175
20
-0.216364079919117
30
0
41
1
10
13.875798883446
20
-0.235590351643992
30
0
41
1
10
13.8616331075592
20
-0.264528342536096
30
0
41
1
10
13.847539598278
20
-0.293533205785394
30
0
41
1
10
13.8335251802962
20
-0.322610435200858
30
0
41
1
10
13.8195879716162
20
-0.351756186379447
30
0
41
1
10
13.805728424738
20
-0.380969160501877
30
0
41
1
10
13.7919463695922
20
-0.410247420783463
30
0
41
1
10
13.7782418017644
20
-0.439589242839787
30
0
41
1
10
13.7646146861852
20
-0.468992894993249
30
0
41
1
10
13.7510649539703
20
-0.498456665224495
30
0
41
1
10
13.7375927111738
20
-0.527978971570633
30
0
41
1
10
13.7241974066183
20
-0.557557892023453
30
0
41
1
10
13.7108809521035
20
-0.587192933322882
30
0
41
1
10
13.6976360713802
20
-0.616878423168401
30
0
41
1
10
13.6888726671996
20
-0.636709823770957
30
0
41
1
10
13.6844906018266
20
-0.64662634617352
30
0
0
SPLINE
5
F9
100
AcDbEntity
8
1
62
256
6
ByLayer
370
18
48
1
60
0
100
AcDbSpline
70
4
71
3
72
8
73
4
40
0
40
0
40
0
40
0
40
1
40
1
40
1
40
1
41
1
10
17.875049388015
20
-1.89728126405092
30
0
41
1
10
17.8919347210979
20
-1.8954776504128
30
0
41
1
10
17.9088251100861
20
-1.89372235622565
30
0
41
1
10
17.9257204690005
20
-1.89201455435989
30
0
0
SPLINE
5
FA
100
AcDbEntity
8
1
62
256
6
ByLayer
370
18
48
1
60
0
100
AcDbSpline
70
4
71
3
72
8
73
4
40
0
40
0
40
0
40
0
40
1
40
1
40
1
40
1
41
1
10
17.844032717926
20
-1.72386584133005
30
0
41
1
10
17.8430299924923
20
-1.72271999710867
30
0
41
1
10
17.8420269692319
20
-1.72157399767224
30
0
41
1
10
17.8410236481047
20
-1.72042784299975
30
0
0
SPLINE
5
FB
100
AcDbEntity
8
1
62
256
6
ByLayer
370
18
48
1
60
0
100
AcDbSpline
70
4
71
3
72
8
73
4
40
0
40
0
40
0
40
0
40
1
40
1
40
1
40
1
41
1
10
17.8410236481048
20
-1.72042784300024
30
0
41
1
10
17.8515137467593
20
-1.71068461407882
30
0
41
1
10
17.8619955795372
20
-1.70090251900038
30
0
41
1
10
17.8724690386038
20
-1.69108105072573
30
0
0
SPLINE
5
FC
100
AcDbEntity
8
1
62
256
6
ByLayer
370
18
48
1
60
0
100
AcDbSpline
70
4
71
3
72
8
73
4
40
0
40
0
40
0
40
0
40
1
40
1
40
1
40
1
41
1
10
17.8488095293955
20
-1.52348233180425
30
0
41
1
10
17.8565407520412
20
-1.57947306919462
30
0
41
1
10
17.8644241615411
20
-1.63534178769038
30
0
41
1
10
17.8724690386038
20
-1.69108105072573
30
0
0
SPLINE
5
FD
100
AcDbEntity
8
1
62
256
6
ByLayer
370
18
48
1
60
0
100
AcDbSpline
70
4
71
3
72
9
73
5
40
0
40
0
40
0
40
0
40
0.479282219527252
40
1
40
1
40
1
40
1
41
1
10
17.8488095303277
20
-1.52348233128862
30
0
41
1
10
17.2658730202185
20
-1.41020340475009
30
0
41
1
10
16.049603176776
20
-1.04684194874835
30
0
41
1
10
14.8333333333334
20
-0.498857714706617
30
0
41
1
10
14.2000000000001
20
-0.204687822641773
30
0
0
SPLINE
5
FE
100
AcDbEntity
8
1
62
256
6
ByLayer
370
18
48
1
60
0
100
AcDbSpline
70
4
71
3
72
26
73
22
40
0
40
0
40
0
40
0
40
0.125000000000004
40
0.125000000000004
40
0.187500000000003
40
0.187500000000003
40
0.250000000000003
40
0.250000000000003
40
0.375000000000003
40
0.375000000000003
40
0.500000000000002
40
0.500000000000002
40
0.562500000000002
40
0.562500000000002
40
0.625000000000001
40
0.625000000000001
40
0.750000000000001
40
0.750000000000001
40
0.875
40
0.875
40
1
40
1
40
1
40
1
41
1
10
17.8440327179319
20
-1.72386584132406
30
0
41
1
10
17.6920956965041
20
-1.69565620252962
30
0
41
1
10
17.540183665269
20
-1.66283889217723
30
0
41
1
10
17.3120914756989
20
-1.6071031917694
30
0
41
1
10
17.2360227812489
20
-1.587439894889
30
0
41
1
10
17.0837612716488
20
-1.54600084859607
30
0
41
1
10
17.0076081588892
20
-1.52423130324661
30
0
41
1
10
16.7795371004963
20
-1.45596740793195
30
0
41
1
10
16.6278225260576
20
-1.40642374113978
30
0
41
1
10
16.3245447840152
20
-1.30002234544506
30
0
41
1
10
16.1729770303866
20
-1.24318955938446
30
0
41
1
10
15.9453679901098
20
-1.15288405863077
30
0
41
1
10
15.8694543553087
20
-1.12194211631836
30
0
41
1
10
15.7174656963421
20
-1.05849449124904
30
0
41
1
10
15.6413378889375
20
-1.02596621459818
30
0
41
1
10
15.4133727499052
20
-0.926543381422846
30
0
41
1
10
15.2617525298748
20
-0.857727205318241
30
0
41
1
10
14.958681383351
20
-0.715976393992634
30
0
41
1
10
14.8072285847448
20
-0.643048677114422
30
0
41
1
10
14.5039918472887
20
-0.493918365744122
30
0
41
1
10
14.3522138545793
20
-0.417679473548503
30
0
41
1
10
14.2000000000001
20
-0.340362053495312
30
0
0
SPLINE
5
FF
100
AcDbEntity
8
1
62
256
6
ByLayer
370
18
48
1
60
0
100
AcDbSpline
70
4
71
3
72
23
73
19
40
0
40
0
40
0
40
0
40
0.124999999999999
40
0.124999999999999
40
0.187500000000001
40
0.187500000000001
40
0.250000000000003
40
0.250000000000003
40
0.500000000000007
40
0.500000000000007
40
0.625000000000008
40
0.625000000000008
40
0.75000000000001
40
0.75000000000001
40
0.812500000000009
40
0.812500000000009
40
0.875000000000007
40
1
40
1
40
1
40
1
41
1
10
14.2000000000001
20
-0.923197625722764
30
0
41
1
10
14.3505353019574
20
-0.993166104565006
30
0
41
1
10
14.5008873915169
20
-1.06059686805213
30
0
41
1
10
14.7265376632886
20
-1.15731013160578
30
0
41
1
10
14.8018193008925
20
-1.18882717572981
30
0
41
1
10
14.9522367007546
20
-1.25017757108847
30
0
41
1
10
15.0273671851494
20
-1.28000956721735
30
0
41
1
10
15.4028004990145
20
-1.42474202668299
30
0
41
1
10
15.702466577134
20
-1.52632875567284
30
0
41
1
10
16.1540620910934
20
-1.65351556135749
30
0
41
1
10
16.3043956438062
20
-1.69157660452919
30
0
41
1
10
16.6048652687784
20
-1.7585207737857
30
0
41
1
10
16.7550537464581
20
-1.78741863384167
30
0
41
1
10
16.9806751569616
20
-1.82360714409111
30
0
41
1
10
17.0559632590175
20
-1.83447876221498
30
0
41
1
10
17.2063453736636
20
-1.85374461450485
30
0
41
1
10
17.4317582821952
20
-1.87895166552892
30
0
41
1
10
17.656999957828
20
-1.89297533700957
30
0
41
1
10
17.8073433450771
20
-1.897269367966
30
0
0
SPLINE
5
100
100
AcDbEntity
8
1
62
256
6
ByLayer
370
18
48
1
60
0
100
AcDbSpline
70
4
71
3
72
16
73
12
40
0
40
0
40
0
40
0
40
0.125275869954104
40
0.215547692554334
40
0.305819515154565
40
0.486363160355027
40
0.576634982955258
40
0.666906805555488
40
0.757178628155719
40
0.84745045075595
40
1
40
1
40
1
40
1
41
1
10
13.6844906018266
20
-0.64662634617352
30
0
41
1
10
13.8540250828655
20
-0.731373159806054
30
0
41
1
10
14.1458173694054
20
-0.873487720770839
30
0
41
1
10
14.5610003477095
20
-1.06294621525856
30
0
41
1
10
15.0530689481628
20
-1.27239293252165
30
0
41
1
10
15.548952333808
20
-1.45729022956334
30
0
41
1
10
16.0508387223558
20
-1.61128123609316
30
0
41
1
10
16.4308214223071
20
-1.70975802930434
30
0
41
1
10
16.8149683799934
20
-1.78969394867352
30
0
41
1
10
17.2933369710985
20
-1.86336558938535
30
0
41
1
10
17.6486671834707
20
-1.89119063227759
30
0
41
1
10
17.8750493882819
20
-1.89728126386529
30
0
0
SPLINE
5
101
100
AcDbEntity
8
1
62
256
6
ByLayer
370
18
48
1
60
0
100
AcDbSpline
70
4
71
3
72
8
73
4
40
0
40
0
40
0
40
0
40
1
40
1
40
1
40
1
41
1
10
14.2
20
-0.922201502677552
30
0
41
1
10
14.2
20
-0.922533543663178
30
0
41
1
10
14.2
20
-0.922865584678249
30
0
41
1
10
14.2
20
-0.923197625722764
30
0
0
SPLINE
5
102
100
AcDbEntity
8
1
62
256
6
ByLayer
370
18
48
1
60
0
100
AcDbSpline
70
4
71
3
72
30
73
26
40
0
40
0
40
0
40
0
40
0.088230133183965
40
0.088230133183965
40
0.17646026636793
40
0.17646026636793
40
0.264690399551895
40
0.264690399551895
40
0.308805466143878
40
0.308805466143878
40
0.35292053273586
40
0.35292053273586
40
0.52938079910379
40
0.52938079910379
40
0.617610932287756
40
0.617610932287756
40
0.705841065471721
40
0.705841065471721
40
0.882301331839647
40
0.882301331839647
40
0.926416398431626
40
0.926416398431626
40
0.970531465023605
40
0.970531465023605
40
1
40
1
40
1
40
1
41
1
10
13.1652185370413
20
1.1439236255508
30
0
41
1
10
13.1633159436293
20
1.18832552832035
30
0
41
1
10
13.1590661033204
20
1.23067300270068
30
0
41
1
10
13.1473557641344
20
1.31164495886648
30
0
41
1
10
13.1398737983518
20
1.35026522450619
30
0
41
1
10
13.1223169812985
20
1.42394831747333
30
0
41
1
10
13.112234359977
20
1.45900958915522
30
0
41
1
10
13.0953393308722
20
1.50896359101694
30
0
41
1
10
13.0894099780618
20
1.52517440230974
30
0
41
1
10
13.0769610719354
20
1.55671072677697
30
0
41
1
10
13.0704397357381
20
1.5720327309534
30
0
41
1
10
13.0366920115311
20
1.64569698672435
30
0
41
1
10
13.0058908898603
20
1.69591609054882
30
0
41
1
10
12.9534166050884
20
1.75906995654341
30
0
41
1
10
12.9348541235612
20
1.77808619476107
30
0
41
1
10
12.895332820074
20
1.81203699871179
30
0
41
1
10
12.8746248905671
20
1.82675740414473
30
0
41
1
10
12.8092915932246
20
1.8646161593166
30
0
41
1
10
12.7615062956173
20
1.88146038716434
30
0
41
1
10
12.694560975813
20
1.89321229661729
30
0
41
1
10
12.6808073022487
20
1.89509672140767
30
0
41
1
10
12.6525059620723
20
1.89796220357064
30
0
41
1
10
12.6379310559326
20
1.8989434321177
30
0
41
1
10
12.6130539885426
20
1.89984850281368
30
0
41
1
10
12.6029366170762
20
1.90001643036865
30
0
41
1
10
12.5926569436712
20
1.89999868345336
30
0
0
SPLINE
5
103
100
AcDbEntity
8
1
62
256
6
ByLayer
370
18
48
1
60
0
100
AcDbSpline
70
4
71
3
72
48
73
44
40
0
40
0
40
0
40
0
40
0.031250000000002
40
0.031250000000002
40
0.0468750000000029
40
0.0468750000000029
40
0.0625000000000038
40
0.0625000000000038
40
0.070312500000003
40
0.070312500000003
40
0.0781250000000022
40
0.0781250000000022
40
0.0937500000000018
40
0.0937500000000018
40
0.109375000000001
40
0.109375000000001
40
0.125000000000001
40
0.125000000000001
40
0.140625
40
0.140625
40
0.15625
40
0.15625
40
0.187499999999999
40
0.187499999999999
40
0.218749999999998
40
0.218749999999998
40
0.249999999999997
40
0.249999999999997
40
0.312499999999994
40
0.312499999999994
40
0.374999999999992
40
0.374999999999992
40
0.437499999999989
40
0.437499999999989
40
0.499999999999987
40
0.499999999999987
40
0.62499999999999
40
0.62499999999999
40
0.749999999999994
40
0.749999999999994
40
0.874999999999997
40
0.874999999999997
40
1
40
1
40
1
40
1
41
1
10
12.0361619244398
20
-1.81345204694492
30
0
41
1
10
12.0196350719531
20
-1.80859881112241
30
0
41
1
10
12.0047687702038
20
-1.80316942876391
30
0
41
1
10
11.9859225020619
20
-1.79374549468577
30
0
41
1
10
11.980195245422
20
-1.79036226715198
30
0
41
1
10
11.9704155937625
20
-1.78326269593168
30
0
41
1
10
11.9663271693862
20
-1.77953511125091
30
0
41
1
10
11.9614976437604
20
-1.77364316835374
30
0
41
1
10
11.9601052075854
20
-1.77162902963423
30
0
41
1
10
11.9577749657819
20
-1.76749392581161
30
0
41
1
10
11.9568394150318
20
-1.76537070050065
30
0
41
1
10
11.9547714510863
20
-1.75895887387631
30
0
41
1
10
11.9543506363974
20
-1.75458860335507
30
0
41
1
10
11.9552901904347
20
-1.74565669502476
30
0
41
1
10
11.9566653216196
20
-1.74106650518101
30
0
41
1
10
11.9610189380579
20
-1.73182832718433
30
0
41
1
10
11.9639622149315
20
-1.72722563350121
30
0
41
1
10
11.9711168181821
20
-1.71803819506201
30
0
41
1
10
11.9753292155344
20
-1.71345352385811
30
0
41
1
10
11.9848311277752
20
-1.70429204138293
30
0
41
1
10
11.9901479078155
20
-1.69969573625917
30
0
41
1
10
12.0072213000263
20
-1.68611685379202
30
0
41
1
10
12.0201051971207
20
-1.67729961684717
30
0
41
1
10
12.0479305442541
20
-1.65995647044434
30
0
41
1
10
12.0628831566764
20
-1.651432824441
30
0
41
1
10
12.0943370770479
20
-1.63458394628603
30
0
41
1
10
12.1107896495138
20
-1.62628945276913
30
0
41
1
10
12.1613998057053
20
-1.60187284503712
30
0
41
1
10
12.1969614919451
20
-1.58611413820182
30
0
41
1
10
12.2703987311183
20
-1.55518194978663
30
0
41
1
10
12.3083106560861
20
-1.54001236966687
30
0
41
1
10
12.3852073067195
20
-1.51027729315453
30
0
41
1
10
12.4242848356264
20
-1.49567779056133
30
0
41
1
10
12.503376854867
20
-1.46684481832719
30
0
41
1
10
12.5433939595865
20
-1.45261282690706
30
0
41
1
10
12.664556090339
20
-1.41031399630251
30
0
41
1
10
12.7468484945757
20
-1.38262040153819
30
0
41
1
10
12.9127942430533
20
-1.32801677423689
30
0
41
1
10
12.9965438680508
20
-1.30108301293734
30
0
41
1
10
13.1651836733276
20
-1.24766060058218
30
0
41
1
10
13.2500535781199
20
-1.22118253312218
30
0
41
1
10
13.4204671763336
20
-1.16856659371081
30
0
41
1
10
13.5060418463718
20
-1.14242069561732
30
0
41
1
10
13.5919119753258
20
-1.1163716009477
30
0
0
SPLINE
5
104
100
AcDbEntity
8
1
62
256
6
ByLayer
370
18
48
1
60
0
100
AcDbSpline
70
4
71
3
72
8
73
4
40
0
40
0
40
0
40
0
40
1
40
1
40
1
40
1
41
1
10
14.2
20
-1.22779902739578
30
0
41
1
10
14.3897431365809
20
-1.20901961164392
30
0
41
1
10
14.579688269628
20
-1.19121147943591
30
0
41
1
10
14.7698432560499
20
-1.17427202010674
30
0
0
SPLINE
5
105
100
AcDbEntity
8
1
62
256
6
ByLayer
370
18
48
1
60
0
100
AcDbSpline
70
4
71
3
72
13
73
9
40
0
40
0
40
0
40
0
40
0.127739532008124
40
0.29728997093122
40
0.423634122177503
40
0.57116585552606
40
0.76322638494729
40
1
40
1
40
1
40
1
41
1
10
16.6623543929946
20
1.04798381230685
30
0
41
1
10
16.5597500552663
20
1.051477204787
30
0
41
1
10
16.3196493194878
20
1.06123300282917
30
0
41
1
10
15.9722412588391
20
1.07972667509006
30
0
41
1
10
15.6057795165713
20
1.10616081081531
30
0
41
1
10
15.2214738284203
20
1.13522493746459
30
0
41
1
10
14.7468220192635
20
1.17556146937528
30
0
41
1
10
14.3943796950684
20
1.20856120189202
30
0
41
1
10
14.2
20
1.22779902739569
30
0
0
LINE
5
77
100
AcDbEntity
8
80
62
256
6
ByLayer
370
18
48
1
60
0
100
AcDbLine
10
0
20
0
30
0
11
-5
21
0
31
0
39
0
210
0
220
0
230
1
0
LINE
5
78
100
AcDbEntity
8
SK4
62
256
6
ByLayer
370
18
48
0.05
60
0
100
AcDbLine
10
-36
20
0
30
0
11
18
21
0
31
0
39
0
210
0
220
0
230
1
0
LINE
5
7A
100
AcDbEntity
8
81
62
256
6
ByLayer
370
18
48
1
60
0
100
AcDbLine
10
18
20
0
30
0
11
23
21
0
31
0
39
0
210
0
220
0
230
1
0
LINE
5
7B
100
AcDbEntity
8
4
62
256
6
ByLayer
370
18
48
0.05
60
0
100
AcDbLine
10
0
20
0
30
0
11
18
21
0
31
0
39
0
210
0
220
0
230
1
0
LINE
5
7D
100
AcDbEntity
8
1
62
256
6
ByLayer
370
18
48
1
60
0
100
AcDbLine
10
0
20
3
30
0
11
0
21
0
31
0
39
0
210
0
220
0
230
1
0
LINE
5
7E
100
AcDbEntity
8
1
62
256
6
ByLayer
370
18
48
1
60
0
100
AcDbLine
10
0
20
0
30
0
11
0
21
-3
31
0
39
0
210
0
220
0
230
1
0
LINE
5
7F
100
AcDbEntity
8
1
62
256
6
ByLayer
370
18
48
1
60
0
100
AcDbLine
10
17.925729
20
1.892006
30
0
11
17.997952
21
1.820301
31
0
39
0
210
0
220
0
230
1
0
LINE
5
80
100
AcDbEntity
8
1
62
256
6
ByLayer
370
18
48
1
60
0
100
AcDbLine
10
17.947543
20
-0.080805
30
0
11
17.8226
21
-0.080515
31
0
39
0
210
0
220
0
230
1
0
LINE
5
81
100
AcDbEntity
8
1
62
256
6
ByLayer
370
18
48
1
60
0
100
AcDbLine
10
17.947543
20
-0.080805
30
0
11
17.997952
21
1.820301
31
0
39
0
210
0
220
0
230
1
0
LINE
5
82
100
AcDbEntity
8
1
62
256
6
ByLayer
370
13
48
1
60
0
100
AcDbLine
10
16.77503
20
1.087502
30
0
11
17.77005
21
-0.095343
31
0
39
0
210
0
220
0
230
1
0
LINE
5
83
100
AcDbEntity
8
1
62
256
6
ByLayer
370
18
48
1
60
0
100
AcDbLine
10
17.961002
20
-0.426775
30
0
11
17.840949
21
-0.326119
31
0
39
0
210
0
220
0
230
1
0
LINE
5
84
100
AcDbEntity
8
1
62
256
6
ByLayer
370
18
48
1
60
0
100
AcDbLine
10
17.763647
20
-0.258765
30
0
11
17.758321
21
-0.250892
31
0
39
0
210
0
220
0
230
1
0
LINE
5
85
100
AcDbEntity
8
1
62
256
6
ByLayer
370
13
48
1
60
0
100
AcDbLine
10
17.758321
20
-0.265923
30
0
11
17.758321
21
-0.250892
31
0
39
0
210
0
220
0
230
1
0
LINE
5
86
100
AcDbEntity
8
1
62
256
6
ByLayer
370
18
48
1
60
0
100
AcDbLine
10
17.961002
20
-0.426775
30
0
11
17.997952
21
-1.820301
31
0
39
0
210
0
220
0
230
1
0
LINE
5
87
100
AcDbEntity
8
1
62
256
6
ByLayer
370
18
48
1
60
0
100
AcDbLine
10
17.950979
20
-0.420502
30
0
11
17.961002
21
-0.426775
31
0
39
0
210
0
220
0
230
1
0
LINE
5
88
100
AcDbEntity
8
1
62
256
6
ByLayer
370
18
48
1
60
0
100
AcDbLine
10
14.2
20
-1.227799
30
0
11
14.2
21
-0.923192
31
0
39
0
210
0
220
0
230
1
0
LINE
5
89
100
AcDbEntity
8
1
62
256
6
ByLayer
370
13
48
1
60
0
100
AcDbLine
10
12.060953
20
-1.819457
30
0
11
13.629275
21
-1.105009
31
0
39
0
210
0
220
0
230
1
0
LINE
5
8A
100
AcDbEntity
8
1
62
256
6
ByLayer
370
18
48
1
60
0
100
AcDbLine
10
17.92572
20
-1.892015
30
0
11
17.997952
21
-1.820301
31
0
39
0
210
0
220
0
230
1
0
LINE
5
8B
100
AcDbEntity
8
1
62
256
6
ByLayer
370
18
48
1
60
0
100
AcDbLine
10
17.997952
20
-1.820301
30
0
11
17.948768
21
-1.701224
31
0
39
0
210
0
220
0
230
1
0
LINE
5
8C
100
AcDbEntity
8
1
62
256
6
ByLayer
370
18
48
1
60
0
100
AcDbLine
10
17.948768
20
-1.701224
30
0
11
17.872469
21
-1.691081
31
0
39
0
210
0
220
0
230
1
0
LINE
5
8D
100
AcDbEntity
8
1
62
256
6
ByLayer
370
18
48
1
60
0
100
AcDbLine
10
17.948768
20
-1.701224
30
0
11
17.916039
21
-0.453659
31
0
39
0
210
0
220
0
230
1
0
LINE
5
8E
100
AcDbEntity
8
1
62
256
6
ByLayer
370
18
48
1
60
0
100
AcDbLine
10
17.49034
20
-0.071689
30
0
11
17.916039
21
-0.453659
31
0
39
0
210
0
220
0
230
1
0
LINE
5
8F
100
AcDbEntity
8
1
62
256
6
ByLayer
370
18
48
1
60
0
100
AcDbLine
10
17.916039
20
-0.453659
30
0
11
17.943976
21
-0.461349
31
0
39
0
210
0
220
0
230
1
0
LINE
5
90
100
AcDbEntity
8
1
62
256
6
ByLayer
370
13
48
1
60
0
100
AcDbLine
10
17.943976
20
-0.461349
30
0
11
17.813891
21
-0.306708
31
0
39
0
210
0
220
0
230
1
0
LINE
5
91
100
AcDbEntity
8
1
62
256
6
ByLayer
370
18
48
1
60
0
100
AcDbLine
10
17.758321
20
-0.265923
30
0
11
17.813891
21
-0.306708
31
0
39
0
210
0
220
0
230
1
0
LINE
5
92
100
AcDbEntity
8
1
62
256
6
ByLayer
370
18
48
1
60
0
100
AcDbLine
10
17.724025
20
-0.199878
30
0
11
16.670051
21
1.05305
31
0
39
0
210
0
220
0
230
1
0
LINE
5
93
100
AcDbEntity
8
1
62
256
6
ByLayer
370
18
48
1
60
0
100
AcDbLine
10
14.2
20
1.227799
30
0
11
14.2
21
0.67253
31
0
39
0
210
0
220
0
230
1
0
LINE
5
94
100
AcDbEntity
8
1
62
256
6
ByLayer
370
18
48
1
60
0
100
AcDbLine
10
14.2
20
-0.204688
30
0
11
14.2
21
-0.125611
31
0
39
0
210
0
220
0
230
1
0
LINE
5
95
100
AcDbEntity
8
1
62
256
6
ByLayer
370
13
48
1
60
0
100
AcDbLine
10
12.060537
20
0.849019
30
0
11
14.2
21
-0.125611
31
0
39
0
210
0
220
0
230
1
0
LINE
5
96
100
AcDbEntity
8
1
62
256
6
ByLayer
370
18
48
1
60
0
100
AcDbLine
10
14.2
20
-0.125611
30
0
11
14.2
21
0.67253
31
0
39
0
210
0
220
0
230
1
0
LINE
5
97
100
AcDbEntity
8
1
62
256
6
ByLayer
370
18
48
1
60
0
100
AcDbLine
10
13.165219
20
1.143924
30
0
11
14.2
21
0.67253
31
0
39
0
210
0
220
0
230
1
0
LINE
5
98
100
AcDbEntity
8
1
62
256
6
ByLayer
370
13
48
1
60
0
100
AcDbLine
10
12.036538
20
0.780874
30
0
11
14.2
21
-0.204688
31
0
39
0
210
0
220
0
230
1
0
LINE
5
99
100
AcDbEntity
8
1
62
256
6
ByLayer
370
18
48
1
60
0
100
AcDbLine
10
14.2
20
-0.204688
30
0
11
14.2
21
-0.340362
31
0
39
0
210
0
220
0
230
1
0
LINE
5
9A
100
AcDbEntity
8
1
62
256
6
ByLayer
370
13
48
1
60
0
100
AcDbLine
10
12.036162
20
-1.813452
30
0
11
13.512846
21
-1.140751
31
0
39
0
210
0
220
0
230
1
0
LINE
5
9B
100
AcDbEntity
8
1
62
256
6
ByLayer
370
13
48
1
60
0
100
AcDbLine
10
5.297679
20
-1.9
30
0
11
5.297679
21
0
31
0
39
0
210
0
220
0
230
1
0
LINE
5
9C
100
AcDbEntity
8
1
62
256
6
ByLayer
370
13
48
1
60
0
100
AcDbLine
10
5.297679
20
0
30
0
11
5.297679
21
1.9
31
0
39
0
210
0
220
0
230
1
0
LINE
5
9D
100
AcDbEntity
8
1
62
256
6
ByLayer
370
13
48
1
60
0
100
AcDbLine
10
4.797679
20
2.033975
30
0
11
4.797679
21
0
31
0
39
0
210
0
220
0
230
1
0
LINE
5
9E
100
AcDbEntity
8
1
62
256
6
ByLayer
370
13
48
1
60
0
100
AcDbLine
10
4.797679
20
0
30
0
11
4.797679
21
-2.033975
31
0
39
0
210
0
220
0
230
1
0
LINE
5
9F
100
AcDbEntity
8
1
62
256
6
ByLayer
370
18
48
1
60
0
100
AcDbLine
10
3.124474
20
3
30
0
11
3.124474
21
0
31
0
39
0
210
0
220
0
230
1
0
LINE
5
A0
100
AcDbEntity
8
1
62
256
6
ByLayer
370
18
48
1
60
0
100
AcDbLine
10
3.124474
20
0
30
0
11
3.124474
21
-3
31
0
39
0
210
0
220
0
230
1
0
LINE
5
A1
100
AcDbEntity
8
SK1
62
256
6
ByLayer
370
18
48
1
60
0
100
AcDbLine
10
0
20
3
30
0
11
0
21
0
31
0
39
0
210
0
220
0
230
1
0
LINE
5
A3
100
AcDbEntity
8
SK1
62
256
6
ByLayer
370
18
48
1
60
0
100
AcDbLine
10
0
20
0
30
0
11
0
21
-3
31
0
39
0
210
0
220
0
230
1
0
LINE
5
A4
100
AcDbEntity
8
SK1
62
256
6
ByLayer
370
18
48
1
60
0
100
AcDbLine
10
-35.6
20
3
30
0
11
-35.6
21
-3
31
0
39
0
210
0
220
0
230
1
0
LINE
5
A5
100
AcDbEntity
8
SK1
62
256
6
ByLayer
370
18
48
1
60
0
100
AcDbLine
10
-36
20
-2.6
30
0
11
-36
21
2.6
31
0
39
0
210
0
220
0
230
1
0
LINE
5
A6
100
AcDbEntity
8
1
62
256
6
ByLayer
370
18
48
1
60
0
100
AcDbLine
10
3.124474
20
3
30
0
11
0
21
3
31
0
39
0
210
0
220
0
230
1
0
LINE
5
A7
100
AcDbEntity
8
1
62
256
6
ByLayer
370
18
48
1
60
0
100
AcDbLine
10
0
20
-3
30
0
11
3.124474
21
-3
31
0
39
0
210
0
220
0
230
1
0
LINE
5
A8
100
AcDbEntity
8
1
62
256
6
ByLayer
370
18
48
1
60
0
100
AcDbLine
10
12.814415
20
-1.859001
30
0
11
14.20469
21
-1.225663
31
0
39
0
210
0
220
0
230
1
0
LINE
5
A9
100
AcDbEntity
8
1
62
256
6
ByLayer
370
18
48
1
60
0
100
AcDbLine
10
14.20469
20
1.225663
30
0
11
12.814415
21
1.859001
31
0
39
0
210
0
220
0
230
1
0
LINE
5
AA
100
AcDbEntity
8
1
62
256
6
ByLayer
370
18
48
1
60
0
100
AcDbLine
10
12.589158
20
1.9
30
0
11
5.297679
21
1.9
31
0
39
0
210
0
220
0
230
1
0
LINE
5
AB
100
AcDbEntity
8
1
62
256
6
ByLayer
370
18
48
1
60
0
100
AcDbLine
10
5.297679
20
-1.9
30
0
11
12.589158
21
-1.9
31
0
39
0
210
0
220
0
230
1
0
LINE
5
AC
100
AcDbEntity
8
1
62
256
6
ByLayer
370
18
48
1
60
0
100
AcDbLine
10
4.797679
20
2.033975
30
0
11
3.124474
21
3
31
0
39
0
210
0
220
0
230
1
0
LINE
5
AD
100
AcDbEntity
8
1
62
256
6
ByLayer
370
18
48
1
60
0
100
AcDbLine
10
3.124474
20
-3
30
0
11
4.797679
21
-2.033975
31
0
39
0
210
0
220
0
230
1
0
LINE
5
AE
100
AcDbEntity
8
SK1
62
256
6
ByLayer
370
18
48
1
60
0
100
AcDbLine
10
0
20
3
30
0
11
-35.6
21
3
31
0
39
0
210
0
220
0
230
1
0
LINE
5
AF
100
AcDbEntity
8
SK1
62
256
6
ByLayer
370
18
48
1
60
0
100
AcDbLine
10
-35.6
20
-3
30
0
11
0
21
-3
31
0
39
0
210
0
220
0
230
1
0
LINE
5
B0
100
AcDbEntity
8
SK1
62
256
6
ByLayer
370
18
48
1
60
0
100
AcDbLine
10
-36
20
-2.6
30
0
11
-35.6
21
-3
31
0
39
0
210
0
220
0
230
1
0
LINE
5
B1
100
AcDbEntity
8
SK1
62
256
6
ByLayer
370
18
48
1
60
0
100
AcDbLine
10
-35.6
20
3
30
0
11
-36
21
2.6
31
0
39
0
210
0
220
0
230
1
0
LINE
5
B2
100
AcDbEntity
8
SK2
62
256
6
ByLayer
370
18
48
1
60
0
100
AcDbLine
10
-43.85
20
11.75
30
0
11
-43.85
21
-19.315466
31
0
39
0
210
0
220
0
230
1
0
LINE
5
B4
100
AcDbEntity
8
SK2
62
256
6
ByLayer
370
18
48
1
60
0
100
AcDbLine
10
-37.1875
20
3
30
0
11
-45.85
21
3
31
0
39
0
210
0
220
0
230
1
0
LINE
5
B5
100
AcDbEntity
8
SK2
62
256
6
ByLayer
370
18
48
1
60
0
100
AcDbLine
10
-37.1875
20
-3
30
0
11
-45.85
21
-3
31
0
39
0
210
0
220
0
230
1
0
LINE
5
B6
100
AcDbEntity
8
1
62
256
6
ByLayer
370
18
48
1
60
1
100
AcDbLine
10
-43.85
20
3
30
0
11
-44.310784
21
6.499998
31
0
39
0
210
0
220
0
230
1
0
LINE
5
B7
100
AcDbEntity
8
1
62
256
6
ByLayer
370
18
48
1
60
1
100
AcDbLine
10
-44.310784
20
6.499998
30
0
11
-43.389216
21
6.500002
31
0
39
0
210
0
220
0
230
1
0
LINE
5
B8
100
AcDbEntity
8
1
62
256
6
ByLayer
370
18
48
1
60
1
100
AcDbLine
10
-43.389216
20
6.500002
30
0
11
-43.85
21
3
31
0
39
0
210
0
220
0
230
1
0
LINE
5
B9
100
AcDbEntity
8
1
62
256
6
ByLayer
370
18
48
1
60
1
100
AcDbLine
10
-43.85
20
-3
30
0
11
-43.389216
21
-6.499998
31
0
39
0
210
0
220
0
230
1
0
LINE
5
BA
100
AcDbEntity
8
1
62
256
6
ByLayer
370
18
48
1
60
1
100
AcDbLine
10
-43.389216
20
-6.499998
30
0
11
-44.310784
21
-6.500002
31
0
39
0
210
0
220
0
230
1
0
LINE
5
BB
100
AcDbEntity
8
1
62
256
6
ByLayer
370
18
48
1
60
1
100
AcDbLine
10
-44.310784
20
-6.500002
30
0
11
-43.85
21
-3
31
0
39
0
210
0
220
0
230
1
0
LINE
5
BC
100
AcDbEntity
8
2
62
256
6
ByLayer
370
18
48
1
60
0
100
AcDbLine
10
30
20
22.249032
30
0
11
30
21
-10.6501
31
0
39
0
210
0
220
0
230
1
0
LINE
5
BE
100
AcDbEntity
8
2
62
256
6
ByLayer
370
18
48
1
60
0
100
AcDbLine
10
19.5875
20
1.9001
30
0
11
32
21
1.9001
31
0
39
0
210
0
220
0
230
1
0
LINE
5
BF
100
AcDbEntity
8
2
62
256
6
ByLayer
370
18
48
1
60
0
100
AcDbLine
10
19.5875
20
-1.9001
30
0
11
32
21
-1.9001
31
0
39
0
210
0
220
0
230
1
0
LINE
5
C0
100
AcDbEntity
8
1
62
256
6
ByLayer
370
18
48
1
60
1
100
AcDbLine
10
30
20
1.9001
30
0
11
29.539216
21
5.400098
31
0
39
0
210
0
220
0
230
1
0
LINE
5
C1
100
AcDbEntity
8
1
62
256
6
ByLayer
370
18
48
1
60
1
100
AcDbLine
10
29.539216
20
5.400098
30
0
11
30.460784
21
5.400102
31
0
39
0
210
0
220
0
230
1
0
LINE
5
C2
100
AcDbEntity
8
1
62
256
6
ByLayer
370
18
48
1
60
1
100
AcDbLine
10
30.460784
20
5.400102
30
0
11
30
21
1.9001
31
0
39
0
210
0
220
0
230
1
0
LINE
5
C3
100
AcDbEntity
8
1
62
256
6
ByLayer
370
18
48
1
60
1
100
AcDbLine
10
30
20
-1.9001
30
0
11
30.460784
21
-5.400098
31
0
39
0
210
0
220
0
230
1
0
LINE
5
C4
100
AcDbEntity
8
1
62
256
6
ByLayer
370
18
48
1
60
1
100
AcDbLine
10
30.460784
20
-5.400098
30
0
11
29.539216
21
-5.400102
31
0
39
0
210
0
220
0
230
1
0
LINE
5
C5
100
AcDbEntity
8
1
62
256
6
ByLayer
370
18
48
1
60
1
100
AcDbLine
10
29.539216
20
-5.400102
30
0
11
30
21
-1.9001
31
0
39
0
210
0
220
0
230
1
0
LINE
5
C6
100
AcDbEntity
8
SK2
62
256
6
ByLayer
370
18
48
1
60
0
100
AcDbLine
10
18
20
-33.1
30
0
11
-36
21
-33.1
31
0
39
0
210
0
220
0
230
1
0
LINE
5
C7
100
AcDbEntity
8
SK2
62
256
6
ByLayer
370
18
48
1
60
0
100
AcDbLine
10
-36
20
-4.1875
30
0
11
-36
21
-35.1
31
0
39
0
210
0
220
0
230
1
0
LINE
5
C8
100
AcDbEntity
8
SK2
62
256
6
ByLayer
370
18
48
1
60
0
100
AcDbLine
10
18
20
-3.4876
30
0
11
18
21
-35.1
31
0
39
0
210
0
220
0
230
1
0
LINE
5
C9
100
AcDbEntity
8
1
62
256
6
ByLayer
370
18
48
1
60
1
100
AcDbLine
10
-36
20
-33.1
30
0
11
-32.500002
21
-32.639216
31
0
39
0
210
0
220
0
230
1
0
LINE
5
CA
100
AcDbEntity
8
1
62
256
6
ByLayer
370
18
48
1
60
1
100
AcDbLine
10
-32.500002
20
-32.639216
30
0
11
-32.499998
21
-33.560784
31
0
39
0
210
0
220
0
230
1
0
LINE
5
CB
100
AcDbEntity
8
1
62
256
6
ByLayer
370
18
48
1
60
1
100
AcDbLine
10
-32.499998
20
-33.560784
30
0
11
-36
21
-33.1
31
0
39
0
210
0
220
0
230
1
0
LINE
5
CC
100
AcDbEntity
8
1
62
256
6
ByLayer
370
18
48
1
60
1
100
AcDbLine
10
18
20
-33.1
30
0
11
14.500002
21
-33.560784
31
0
39
0
210
0
220
0
230
1
0
LINE
5
CD
100
AcDbEntity
8
1
62
256
6
ByLayer
370
18
48
1
60
1
100
AcDbLine
10
14.500002
20
-33.560784
30
0
11
14.499998
21
-32.639216
31
0
39
0
210
0
220
0
230
1
0
LINE
5
CE
100
AcDbEntity
8
1
62
256
6
ByLayer
370
18
48
1
60
1
100
AcDbLine
10
14.499998
20
-32.639216
30
0
11
18
21
-33.1
31
0
39
0
210
0
220
0
230
1
0
LINE
5
10A
100
AcDbEntity
8
1
62
256
6
ByLayer
370
18
48
1
60
1
100
AcDbLine
10
-43.85
20
3
30
0
11
-44.310784
21
6.499998
31
0
39
0
210
0
220
0
230
1
0
LINE
5
10B
100
AcDbEntity
8
1
62
256
6
ByLayer
370
18
48
1
60
1
100
AcDbLine
10
-44.310784
20
6.499998
30
0
11
-43.389216
21
6.500002
31
0
39
0
210
0
220
0
230
1
0
LINE
5
10C
100
AcDbEntity
8
1
62
256
6
ByLayer
370
18
48
1
60
1
100
AcDbLine
10
-43.389216
20
6.500002
30
0
11
-43.85
21
3
31
0
39
0
210
0
220
0
230
1
0
LINE
5
10E
100
AcDbEntity
8
1
62
256
6
ByLayer
370
18
48
1
60
1
100
AcDbLine
10
-43.85
20
-3
30
0
11
-43.389216
21
-6.499998
31
0
39
0
210
0
220
0
230
1
0
LINE
5
10F
100
AcDbEntity
8
1
62
256
6
ByLayer
370
18
48
1
60
1
100
AcDbLine
10
-43.389216
20
-6.499998
30
0
11
-44.310784
21
-6.500002
31
0
39
0
210
0
220
0
230
1
0
LINE
5
110
100
AcDbEntity
8
1
62
256
6
ByLayer
370
18
48
1
60
1
100
AcDbLine
10
-44.310784
20
-6.500002
30
0
11
-43.85
21
-3
31
0
39
0
210
0
220
0
230
1
0
LINE
5
114
100
AcDbEntity
8
1
62
256
6
ByLayer
370
18
48
1
60
1
100
AcDbLine
10
30
20
1.9001
30
0
11
29.539216
21
5.400098
31
0
39
0
210
0
220
0
230
1
0
LINE
5
115
100
AcDbEntity
8
1
62
256
6
ByLayer
370
18
48
1
60
1
100
AcDbLine
10
29.539216
20
5.400098
30
0
11
30.460784
21
5.400102
31
0
39
0
210
0
220
0
230
1
0
LINE
5
116
100
AcDbEntity
8
1
62
256
6
ByLayer
370
18
48
1
60
1
100
AcDbLine
10
30.460784
20
5.400102
30
0
11
30
21
1.9001
31
0
39
0
210
0
220
0
230
1
0
LINE
5
118
100
AcDbEntity
8
1
62
256
6
ByLayer
370
18
48
1
60
1
100
AcDbLine
10
30
20
-1.9001
30
0
11
30.460784
21
-5.400098
31
0
39
0
210
0
220
0
230
1
0
LINE
5
119
100
AcDbEntity
8
1
62
256
6
ByLayer
370
18
48
1
60
1
100
AcDbLine
10
30.460784
20
-5.400098
30
0
11
29.539216
21
-5.400102
31
0
39
0
210
0
220
0
230
1
0
LINE
5
11A
100
AcDbEntity
8
1
62
256
6
ByLayer
370
18
48
1
60
1
100
AcDbLine
10
29.539216
20
-5.400102
30
0
11
30
21
-1.9001
31
0
39
0
210
0
220
0
230
1
0
LINE
5
11D
100
AcDbEntity
8
1
62
256
6
ByLayer
370
18
48
1
60
1
100
AcDbLine
10
-36
20
-33.1
30
0
11
-32.500002
21
-32.639216
31
0
39
0
210
0
220
0
230
1
0
LINE
5
11E
100
AcDbEntity
8
1
62
256
6
ByLayer
370
18
48
1
60
1
100
AcDbLine
10
-32.500002
20
-32.639216
30
0
11
-32.499998
21
-33.560784
31
0
39
0
210
0
220
0
230
1
0
LINE
5
11F
100
AcDbEntity
8
1
62
256
6
ByLayer
370
18
48
1
60
1
100
AcDbLine
10
-32.499998
20
-33.560784
30
0
11
-36
21
-33.1
31
0
39
0
210
0
220
0
230
1
0
LINE
5
121
100
AcDbEntity
8
1
62
256
6
ByLayer
370
18
48
1
60
1
100
AcDbLine
10
18
20
-33.1
30
0
11
14.500002
21
-33.560784
31
0
39
0
210
0
220
0
230
1
0
LINE
5
122
100
AcDbEntity
8
1
62
256
6
ByLayer
370
18
48
1
60
1
100
AcDbLine
10
14.500002
20
-33.560784
30
0
11
14.499998
21
-32.639216
31
0
39
0
210
0
220
0
230
1
0
LINE
5
123
100
AcDbEntity
8
1
62
256
6
ByLayer
370
18
48
1
60
1
100
AcDbLine
10
14.499998
20
-32.639216
30
0
11
18
21
-33.1
31
0
39
0
210
0
220
0
230
1
0
MTEXT
5
106
100
AcDbEntity
8
SK2
62
256
6
ByLayer
370
18
48
1
60
0
100
AcDbMText
10
-45.414634
20
-17.380622
30
0
210
0
220
0
230
1
1
%%c
40
3.5
41
0
44
1.084337
50
90
71
7
72
5
7
iso_b_vert
0
MTEXT
5
109
100
AcDbEntity
8
SK2
62
256
6
ByLayer
370
18
48
1
60
0
100
AcDbMText
10
-45.414634
20
-10.407966
30
0
210
0
220
0
230
1
1
\W0.5404;6
40
3.5
41
0
44
1.084337
50
90
71
7
72
5
7
iso_b_vert
0
MTEXT
5
112
100
AcDbEntity
8
2
62
256
6
ByLayer
370
18
48
1
60
0
100
AcDbMText
10
28.435366
20
9.834944
30
0
210
0
220
0
230
1
1
%%c
40
3.5
41
0
44
1.084337
50
90
71
7
72
5
7
iso_b_vert
0
MTEXT
5
113
100
AcDbEntity
8
2
62
256
6
ByLayer
370
18
48
1
60
0
100
AcDbMText
10
28.435366
20
16.8076
30
0
210
0
220
0
230
1
1
\W0.7121;3.8
40
3.5
41
0
44
1.084337
50
90
71
7
72
5
7
iso_b_vert
0
MTEXT
5
11C
100
AcDbEntity
8
SK2
62
256
6
ByLayer
370
18
48
1
60
0
100
AcDbMText
10
-11.089233
20
-32.067366
30
0
210
0
220
0
230
1
1
\W0.7167;54
40
3.5
41
0
44
1.084337
50
0
71
7
72
5
7
iso_b_vert
0
MTEXT
5
125
100
AcDbEntity
8
SK6
62
256
6
ByLayer
370
18
48
1
60
0
100
AcDbMText
10
-33.465493
20
-62.114886
30
0
210
0
220
0
230
1
1
\W0.6967;1K212-0380-XA       1730
40
3
41
0
44
1.084337
50
0
71
7
72
5
7
iso_b_vert
0
HATCH
5
10D
100
AcDbEntity
8
SK2
62
256
6
ByLayer
370
13
48
1
60
0
100
AcDbHatch
10
0
20
0
30
0
210
0
220
0
230
1
2
ANSI31
70
0
71
0
91
1
92
5
93
3
72
1
10
-43.85
20
2.99999999999997
11
-44.3107837415528
21
6.49999830744679
72
1
10
-44.3107837415528
20
6.49999830744679
11
-43.3892162584472
21
6.50000169255316
72
1
10
-43.3892162584472
20
6.50000169255316
11
-43.85
21
2.99999999999997
97
0
75
0
76
1
52
0
41
0.0062
77
0
78
1
53
45
43
0
44
0
45
-0.0139193969876572
46
0.0139193969876572
79
0
47
0
98
1
10
0
20
0
0
HATCH
5
111
100
AcDbEntity
8
SK2
62
256
6
ByLayer
370
13
48
1
60
0
100
AcDbHatch
10
0
20
0
30
0
210
0
220
0
230
1
2
ANSI31
70
0
71
0
91
1
92
5
93
3
72
1
10
-43.85
20
-3.00000000000003
11
-43.3892162584472
21
-6.49999830744684
72
1
10
-43.3892162584472
20
-6.49999830744684
11
-44.3107837415528
21
-6.50000169255321
72
1
10
-44.3107837415528
20
-6.50000169255321
11
-43.85
21
-3.00000000000003
97
0
75
0
76
1
52
0
41
0.0062
77
0
78
1
53
45
43
0
44
0
45
-0.0139193969876572
46
0.0139193969876572
79
0
47
0
98
1
10
0
20
0
0
HATCH
5
117
100
AcDbEntity
8
2
62
256
6
ByLayer
370
13
48
1
60
0
100
AcDbHatch
10
0
20
0
30
0
210
0
220
0
230
1
2
ANSI31
70
0
71
0
91
1
92
5
93
3
72
1
10
30
20
1.90009999999992
11
29.5392162584472
21
5.40009830744674
72
1
10
29.5392162584472
20
5.40009830744674
11
30.4607837415528
21
5.40010169255311
72
1
10
30.4607837415528
20
5.40010169255311
11
30
21
1.90009999999992
97
0
75
0
76
1
52
0
41
0.0062
77
0
78
1
53
45
43
0
44
0
45
-0.0139193969876572
46
0.0139193969876572
79
0
47
0
98
1
10
0
20
0
0
HATCH
5
11B
100
AcDbEntity
8
2
62
256
6
ByLayer
370
13
48
1
60
0
100
AcDbHatch
10
0
20
0
30
0
210
0
220
0
230
1
2
ANSI31
70
0
71
0
91
1
92
5
93
3
72
1
10
30
20
-1.90010000000007
11
30.4607837415528
21
-5.40009830744688
72
1
10
30.4607837415528
20
-5.40009830744688
11
29.5392162584472
21
-5.40010169255325
72
1
10
29.5392162584472
20
-5.40010169255325
11
30
21
-1.90010000000007
97
0
75
0
76
1
52
0
41
0.0062
77
0
78
1
53
45
43
0
44
0
45
-0.0139193969876572
46
0.0139193969876572
79
0
47
0
98
1
10
0
20
0
0
HATCH
5
120
100
AcDbEntity
8
SK2
62
256
6
ByLayer
370
13
48
1
60
0
100
AcDbHatch
10
0
20
0
30
0
210
0
220
0
230
1
2
ANSI31
70
0
71
0
91
1
92
5
93
3
72
1
10
-36
20
-33.1000000000001
11
-32.5000016925532
21
-32.6392162584473
72
1
10
-32.5000016925532
20
-32.6392162584473
11
-32.4999983074468
21
-33.5607837415528
72
1
10
-32.4999983074468
20
-33.5607837415528
11
-36
21
-33.1000000000001
97
0
75
0
76
1
52
0
41
0.0062
77
0
78
1
53
45
43
0
44
0
45
-0.0139193969876572
46
0.0139193969876572
79
0
47
0
98
1
10
0
20
0
0
HATCH
5
124
100
AcDbEntity
8
SK2
62
256
6
ByLayer
370
13
48
1
60
0
100
AcDbHatch
10
0
20
0
30
0
210
0
220
0
230
1
2
ANSI31
70
0
71
0
91
1
92
5
93
3
72
1
10
18
20
-33.1000000000001
11
14.5000016925532
21
-33.5607837415528
72
1
10
14.5000016925532
20
-33.5607837415528
11
14.4999983074468
21
-32.6392162584473
72
1
10
14.4999983074468
20
-32.6392162584473
11
18
21
-33.1000000000001
97
0
75
0
76
1
52
0
41
0.0062
77
0
78
1
53
45
43
0
44
0
45
-0.0139193969876572
46
0.0139193969876572
79
0
47
0
98
1
10
0
20
0
0
DIMENSION
5
128
100
AcDbEntity
8
2
62
256
6
ByLayer
370
18
48
1
60
0
100
AcDbDimension
2
_U0
10
14.2
20
-17.1
30
0
11
16.1
21
-17.1
31
0
70
32
71
1
72
1
41
1
210
0
220
0
230
1
3
Standard
100
AcDbAlignedDimension
13
18
23
-1.9001
33
0
14
14.2
24
-1.9001
34
0
50
0
100
AcDbRotatedDimension
1001
ACAD
1000
DSTYLE
1002
{
1070
   371
1070
    13
1070
   372
1070
    13
1070
   170
1070
     0
1070
   144
1040
1.0
1070
   277
1070
     2
1070
   284
1070
     8
1070
   278
1070
    46
1070
   146
1040
1.0
1070
   345
1005
16
1070
   347
1005
16
1070
   346
1005
16
1070
   344
1005
0
1070
   343
1005
0
1070
   172
1070
     1
1070
    76
1070
     0
1070
    75
1070
     0
1070
   282
1070
     0
1070
   281
1070
     0
1070
    71
1070
     0
1070
    74
1070
     0
1070
   279
1070
     0
1070
   173
1070
     1
1070
   340
1005
107
1070
   271
1070
     2
1070
   272
1070
     2
1070
    77
1070
     1
1070
    73
1070
     1
1070
   171
1070
     3
1070
   274
1070
     4
1070
   177
1070
     2
1070
   176
1070
     2
1070
   178
1070
     2
1070
    78
1070
     8
1070
    48
1040
-0.1
1070
    41
1040
3.5
1070
   147
1040
1.75
1070
    42
1040
1.5875
1070
    44
1040
2.0
1070
   140
1040
3.5
1002
}
1001
ACAD_DSTYLE_DIM_LINETYPE
1070
   380
1005
16
1001
ACAD_DSTYLE_DIM_EXT1_LINETYPE
1070
   381
1005
16
1001
ACAD_DSTYLE_DIM_EXT2_LINETYPE
1070
   382
1005
16
0
ENDSEC
0
SECTION
2
OBJECTS
0
DICTIONARY
5
1b2
330
0
100
AcDbDictionary
280
0
281
1
3
ACAD_GROUP
350
1b3
3
ACAD_MLINESTYLE
350
1b4
0
DICTIONARY
5
1b3
330
0
100
AcDbDictionary
280
0
281
1
0
DICTIONARY
5
1b4
330
0
100
AcDbDictionary
280
0
281
1
3
Standard
350
18
0
MLINESTYLE
5
18
330
1b4
100
AcDbMlineStyle
2
Standard
70
0
3

62
256
51
90
52
90
71
2
49
-0.5
62
256
6
ByLayer
49
0.5
62
256
6
ByLayer
0
RASTERVARIABLES
5
1a0
330

100
AcDbRasterVariables
90
0
70
1
71
1
72
1
0
ENDSEC
0
EOF
