0
SECTION
2
HEADER
9
$ACADVER
1
AC1015
9
$DWGCODEPAGE
3
ANSI_1252
9
$HANDSEED
5
1bb
9
$ANGBASE
50
0
9
$ANGDIR
70
0
9
$ATTMODE
70
1
9
$AUNITS
70
0
9
$AUPREC
70
0
9
$CECOLOR
62
256
9
$CELTSCALE
40
1
9
$CELTYPE
6
ByLayer
9
$CELWEIGHT
370
18
9
$CLAYER
8
0
9
$CMLJUST
70
0
9
$CMLSCALE
40
1
9
$CMLSTYLE
2
Standard
9
$DIMSTYLE
2
Standard
9
$TEXTSIZE
40
0.2
9
$TEXTSTYLE
7
Standard
9
$LUNITS
70
2
9
$LUPREC
70
4
9
$EXTNAMES
290
1
9
$INSUNITS
70
4
9
$LTSCALE
40
1
9
$LWDISPLAY
290
1
9
$PDMODE
70
0
9
$PDSIZE
40
0
9
$PLINEGEN
70
0
0
ENDSEC
0
SECTION
2
CLASSES
0
CLASS
1
RASTERVARIABLES
2
AcDbRasterVariables
3
ISM
90
0
280
0
281
0
0
ENDSEC
0
SECTION
2
TABLES
0
TABLE
2
VPORT
5
1b1
100
AcDbSymbolTable
0
VPORT
5
1
100
AcDbSymbolTableRecord
100
AcDbViewportTableRecord
2
*Active
70
0
10
0
20
0
11
1
21
1
12
-1
22
1
13
0
23
0
14
0.5
24
0.5
15
10
25
10
16
0
26
0
36
1
17
0
27
0
37
0
0
ENDTAB
0
TABLE
2
LTYPE
5
1b2
100
AcDbSymbolTable
0
LTYPE
5
14
100
AcDbSymbolTableRecord
100
AcDbLinetypeTableRecord
70
0
2
ByBlock
3

72
65
73
0
40
0
0
LTYPE
5
15
100
AcDbSymbolTableRecord
100
AcDbLinetypeTableRecord
70
0
2
ByLayer
3

72
65
73
0
40
0
0
LTYPE
5
16
100
AcDbSymbolTableRecord
100
AcDbLinetypeTableRecord
70
0
2
Continuous
3
Solid line
72
65
73
0
40
0
0
LTYPE
5
6E
100
AcDbSymbolTableRecord
100
AcDbLinetypeTableRecord
70
0
2
CENTER
3
____ _ ____ _ ____ _ ____
72
65
73
4
40
47.5
49
22
74
0
49
-8.5
74
0
49
8.5
74
0
49
-8.5
74
0
0
LTYPE
5
6F
100
AcDbSymbolTableRecord
100
AcDbLinetypeTableRecord
70
0
2
DASHED
3
__ __ __ __ __ __ __ __ __
72
65
73
2
40
25.72
49
12.86
74
0
49
-12.86
74
0
0
ENDTAB
0
TABLE
2
LAYER
5
1b3
100
AcDbSymbolTable
0
LAYER
5
10
100
AcDbSymbolTableRecord
100
AcDbLayerTableRecord
2
0
70
0
62
7
6
Continuous
290
1
370
-3
390
0
0
LAYER
5
71
100
AcDbSymbolTableRecord
100
AcDbLayerTableRecord
2
81
70
0
62
-3
6
Continuous
290
1
370
-3
390
0
0
LAYER
5
73
100
AcDbSymbolTableRecord
100
AcDbLayerTableRecord
2
80
70
0
62
-6
6
Continuous
290
1
370
-3
390
0
0
LAYER
5
75
100
AcDbSymbolTableRecord
100
AcDbLayerTableRecord
2
1
70
0
62
4
6
Continuous
290
1
370
-3
390
0
0
LAYER
5
79
100
AcDbSymbolTableRecord
100
AcDbLayerTableRecord
2
4
70
0
62
-2
6
CENTER
290
1
370
-3
390
0
0
LAYER
5
BA
100
AcDbSymbolTableRecord
100
AcDbLayerTableRecord
2
2
70
0
62
7
6
Continuous
290
1
370
-3
390
0
0
LAYER
5
127
100
AcDbSymbolTableRecord
100
AcDbLayerTableRecord
2
Defpoints
70
0
62
7
6
Continuous
290
0
370
-3
390
0
0
LAYER
5
19d
100
AcDbSymbolTableRecord
100
AcDbLayerTableRecord
2
SK4
70
0
62
2
6
CENTER
290
1
370
-3
390
0
0
LAYER
5
19e
100
AcDbSymbolTableRecord
100
AcDbLayerTableRecord
2
SK1
70
0
62
4
6
Continuous
290
1
370
-3
390
0
0
LAYER
5
19f
100
AcDbSymbolTableRecord
100
AcDbLayerTableRecord
2
SK2
70
0
62
7
6
Continuous
290
1
370
-3
390
0
0
LAYER
5
1a0
100
AcDbSymbolTableRecord
100
AcDbLayerTableRecord
2
SK6
70
0
62
5
6
Continuous
290
1
370
-3
390
0
0
ENDTAB
0
TABLE
2
STYLE
5
1b4
100
AcDbSymbolTable
0
STYLE
5
11
100
AcDbSymbolTableRecord
100
AcDbTextStyleTableRecord
2
Standard
3
txt
70
0
71
0
40
0
41
1
42
0
50
0
0
STYLE
5
103
100
AcDbSymbolTableRecord
100
AcDbTextStyleTableRecord
2
iso_b_vert
3
simplex.shx
70
0
71
0
40
0
41
1
42
0
50
0
0
STYLE
5
104
100
AcDbSymbolTableRecord
100
AcDbTextStyleTableRecord
2
DWGDirectTextStyle
3
simplex
70
0
71
0
40
0
41
1
42
0
50
0
0
ENDTAB
0
TABLE
2
DIMSTYLE
5
1b5
100
AcDbSymbolTable
100
AcDbDimStyleTable
0
DIMSTYLE
105
27
100
AcDbSymbolTableRecord
100
AcDbDimStyleTableRecord
2
Standard
70
0
3
<>
41
0.18
42
0.0625
44
0.18
140
0.18
147
0.09
73
0
74
0
77
1
271
2
275
0
278
52
280
0
340
11
0
ENDTAB
0
TABLE
2
VIEW
5
1b6
100
AcDbSymbolTable
0
ENDTAB
0
TABLE
2
UCS
5
1b7
100
AcDbSymbolTable
0
ENDTAB
0
TABLE
2
APPID
5
1b8
100
AcDbSymbolTable
0
APPID
5
12
100
AcDbSymbolTableRecord
100
AcDbRegAppTableRecord
2
ACAD
70
0
0
APPID
5
123
100
AcDbSymbolTableRecord
100
AcDbRegAppTableRecord
2
ACAD_DSTYLE_DIMBREAK
70
0
0
APPID
5
15C
100
AcDbSymbolTableRecord
100
AcDbRegAppTableRecord
2
ACAD_DSTYLE_DIM_LINETYPE
70
0
0
APPID
5
15D
100
AcDbSymbolTableRecord
100
AcDbRegAppTableRecord
2
ACAD_DSTYLE_DIM_EXT1_LINETYPE
70
0
0
APPID
5
15E
100
AcDbSymbolTableRecord
100
AcDbRegAppTableRecord
2
ACAD_DSTYLE_DIM_EXT2_LINETYPE
70
0
0
APPID
5
199
100
AcDbSymbolTableRecord
100
AcDbRegAppTableRecord
2
ACAD_MLEADERVER
70
0
0
ENDTAB
0
TABLE
2
BLOCK_RECORD
5
1b9
100
AcDbSymbolTable
0
BLOCK_RECORD
5
1F
100
AcDbSymbolTableRecord
100
AcDbBlockTableRecord
2
*Model_Space
340
0
70
0
0
BLOCK_RECORD
5
1B
100
AcDbSymbolTableRecord
100
AcDbBlockTableRecord
2
*Paper_Space
340
0
70
0
0
BLOCK_RECORD
5
23
100
AcDbSymbolTableRecord
100
AcDbBlockTableRecord
2
*Paper_Space0
340
0
70
0
0
BLOCK_RECORD
5
128
100
AcDbSymbolTableRecord
100
AcDbBlockTableRecord
2
*D1
340
0
70
0
0
BLOCK_RECORD
5
135
100
AcDbSymbolTableRecord
100
AcDbBlockTableRecord
2
_U0
340
0
70
0
0
ENDTAB
0
ENDSEC
0
SECTION
2
BLOCKS
0
BLOCK
5
20
100
AcDbEntity
8
0
100
AcDbBlockBegin
2
*Model_Space
70
0
10
0
20
0
30
0
3
*Model_Space
0
ENDBLK
5
21
100
AcDbEntity
8
0
100
AcDbBlockEnd
0
BLOCK
5
1C
100
AcDbEntity
8
0
100
AcDbBlockBegin
2
*Paper_Space
70
0
10
0
20
0
30
0
3
*Paper_Space
0
ENDBLK
5
1D
100
AcDbEntity
8
0
100
AcDbBlockEnd
0
BLOCK
5
24
100
AcDbEntity
8
0
100
AcDbBlockBegin
2
*Paper_Space0
70
0
10
0
20
0
30
0
3
*Paper_Space0
0
ENDBLK
5
25
100
AcDbEntity
8
0
100
AcDbBlockEnd
0
BLOCK
5
129
100
AcDbEntity
8
0
100
AcDbBlockBegin
2
*D1
70
1
10
0
20
0
30
0
3
*D1
0
LINE
5
12B
100
AcDbEntity
8
0
62
256
6
ByLayer
370
-2
48
1
60
0
100
AcDbLine
10
14
20
-3.0876
30
0
11
14
21
-19.1
31
0
39
0
210
0
220
0
230
1
0
LINE
5
12C
100
AcDbEntity
8
0
62
256
6
ByLayer
370
-2
48
1
60
0
100
AcDbLine
10
11
20
-3.0876
30
0
11
11
21
-19.1
31
0
39
0
210
0
220
0
230
1
0
LINE
5
12D
100
AcDbEntity
8
0
62
256
6
ByLayer
370
-2
48
1
60
0
100
AcDbLine
10
17.5
20
-17.1
30
0
11
21
21
-17.1
31
0
39
0
210
0
220
0
230
1
0
LINE
5
12E
100
AcDbEntity
8
0
62
256
6
ByLayer
370
-2
48
1
60
0
100
AcDbLine
10
7.5
20
-17.1
30
0
11
4
21
-17.1
31
0
39
0
210
0
220
0
230
1
0
SOLID
5
12F
100
AcDbEntity
8
0
62
256
6
ByLayer
370
-1
48
1
60
0
100
AcDbTrace
10
17.5
20
-16.516667
30
0
11
17.5
21
-17.683333
31
0
12
14
22
-17.1
32
0
13
14
23
-17.1
33
0
39
0
210
0
220
0
230
1
0
SOLID
5
130
100
AcDbEntity
8
0
62
256
6
ByLayer
370
-1
48
1
60
0
100
AcDbTrace
10
7.5
20
-17.683333
30
0
11
7.5
21
-16.516667
31
0
12
11
22
-17.1
32
0
13
11
23
-17.1
33
0
39
0
210
0
220
0
230
1
0
MTEXT
5
131
100
AcDbEntity
8
0
62
256
6
ByLayer
370
18
48
1
60
0
100
AcDbMText
10
12.5
20
-10.1
30
0
210
0
220
0
230
1
1
\A1;3
40
3.5
41
0
44
1
50
0
71
5
72
5
7
iso_b_vert
0
POINT
5
132
100
AcDbEntity
8
Defpoints
62
0
6
ByLayer
370
-1
48
1
60
0
100
AcDbPoint
10
14
20
-1.5001
30
0
39
0
210
0
220
0
230
1
50
360
0
POINT
5
133
100
AcDbEntity
8
Defpoints
62
0
6
ByLayer
370
-1
48
1
60
0
100
AcDbPoint
10
11
20
-1.5001
30
0
39
0
210
0
220
0
230
1
50
360
0
POINT
5
134
100
AcDbEntity
8
Defpoints
62
0
6
ByLayer
370
-1
48
1
60
0
100
AcDbPoint
10
11
20
-17.1
30
0
39
0
210
0
220
0
230
1
50
360
0
ENDBLK
5
12A
100
AcDbEntity
8
0
100
AcDbBlockEnd
0
BLOCK
5
13C
100
AcDbEntity
8
0
100
AcDbBlockBegin
2
_U0
70
0
10
0
20
0
30
0
3
_U0
0
MTEXT
5
136
100
AcDbEntity
8
2
62
256
6
ByLayer
370
18
48
1
60
0
100
AcDbMText
10
11.902767
20
-16.067366
30
0
210
0
220
0
230
1
1
\W0.5404;3
40
3.5
41
0
44
1.084337
50
0
71
7
72
5
7
iso_b_vert
0
LINE
5
137
100
AcDbEntity
8
2
62
256
6
ByLayer
370
13
48
1
60
0
100
AcDbLine
10
14
20
-3.0876
30
0
11
14
21
-19.1
31
0
39
0
210
0
220
0
230
1
0
LINE
5
138
100
AcDbEntity
8
2
62
256
6
ByLayer
370
13
48
1
60
0
100
AcDbLine
10
11
20
-3.0876
30
0
11
11
21
-19.1
31
0
39
0
210
0
220
0
230
1
0
LINE
5
139
100
AcDbEntity
8
2
62
256
6
ByLayer
370
13
48
1
60
0
100
AcDbLine
10
22.75
20
-17.1
30
0
11
2.25
21
-17.1
31
0
39
0
210
0
220
0
230
1
0
SOLID
5
13A
100
AcDbEntity
8
2
62
256
6
ByLayer
370
18
48
1
60
0
100
AcDbTrace
10
14
20
-17.1
30
0
11
17.499998
21
-16.639216
31
0
12
17.500002
22
-17.560784
32
0
13
17.500002
23
-17.560784
33
0
39
0
210
0
220
0
230
1
0
SOLID
5
13B
100
AcDbEntity
8
2
62
256
6
ByLayer
370
18
48
1
60
0
100
AcDbTrace
10
11
20
-17.1
30
0
11
7.500002
21
-17.560784
31
0
12
7.499998
22
-16.639216
32
0
13
7.499998
23
-16.639216
33
0
39
0
210
0
220
0
230
1
0
ENDBLK
5
13D
100
AcDbEntity
8
0
100
AcDbBlockEnd
0
ENDSEC
0
SECTION
2
ENTITIES
0
ARC
5
CC
100
AcDbEntity
8
1
62
256
6
ByLayer
370
18
48
1
60
0
100
AcDbCircle
39
0
10
3.997679
20
2.5
30
0
40
1
210
0
220
0
230
1
100
AcDbArc
50
240
51
270
0
ARC
5
CD
100
AcDbEntity
8
1
62
256
6
ByLayer
370
18
48
1
60
0
100
AcDbCircle
39
0
10
3.997679
20
-2.5
30
0
40
1
210
0
220
0
230
1
100
AcDbArc
50
90
51
120
0
ELLIPSE
5
CE
100
AcDbEntity
8
1
62
256
6
ByLayer
370
18
48
1
60
0
100
AcDbEllipse
10
14.15744
20
-0.545421
30
0
11
0.224602394990786
21
-0.189193047879596
31
0
210
0
220
0
230
1
40
0.002834
41
2.67239944623884
42
3.08977807201905
0
ELLIPSE
5
CF
100
AcDbEntity
8
1
62
256
6
ByLayer
370
18
48
1
60
0
100
AcDbEllipse
10
13.831397
20
-0.267924
30
0
11
0.0382986674221869
21
-0.032143702174828
31
0
210
0
220
0
230
1
40
0.01667
41
-1.95001086047538
42
-1.54623761842422
0
ELLIPSE
5
D0
100
AcDbEntity
8
1
62
256
6
ByLayer
370
18
48
1
60
0
100
AcDbEllipse
10
13.881
20
-0.180707
30
0
11
0.0414106957613801
21
-0.0912521278623328
31
0
210
0
220
0
230
1
40
0.997487
41
2.71463118903264
42
-2.64382807892527
0
ELLIPSE
5
D1
100
AcDbEntity
8
1
62
256
6
ByLayer
370
18
48
1
60
0
100
AcDbEllipse
10
13.881
20
-0.191033
30
0
11
0.0478233163644362
21
-0.125282589689776
31
0
210
0
220
0
230
1
40
0.701002
41
-2.0694253760285
42
-1.5093787377114
0
ELLIPSE
5
D2
100
AcDbEntity
8
1
62
256
6
ByLayer
370
18
48
1
60
0
100
AcDbEllipse
10
13.951956
20
-0.301309
30
0
11
0.00283589680332019
21
-0.0804352213494077
31
0
210
0
220
0
230
1
40
0.095924
41
-0.0536447552661689
42
0.36373387515227
0
ELLIPSE
5
D3
100
AcDbEntity
8
1
62
256
6
ByLayer
370
18
48
1
60
0
100
AcDbEllipse
10
13.881
20
-0.152606
30
0
11
0.0478233163662842
21
0.125282589690491
31
0
210
0
220
0
230
1
40
0.701002
41
2.01260854070107
42
2.94210275225544
0
ELLIPSE
5
D4
100
AcDbEntity
8
1
62
256
6
ByLayer
370
18
48
1
60
0
100
AcDbEllipse
10
13.069538
20
0
30
0
11
4.13063893437023
21
-1.18284399247588
31
0
210
0
220
0
230
1
40
0.223315
41
-2.65666034722115
42
-2.13720446742174
0
ELLIPSE
5
D5
100
AcDbEntity
8
1
62
256
6
ByLayer
370
18
48
1
60
0
100
AcDbEllipse
10
10.304199
20
0
30
0
11
3.9981663162434
21
1.22459946782999
31
0
210
0
220
0
230
1
40
0.216657
41
-1.5831938156996
42
-1.46252620358363
0
POINT
5
70
100
AcDbEntity
8
81
62
256
6
ByLayer
370
18
48
1
60
0
100
AcDbPoint
10
14
20
0
30
0
39
0
210
0
220
0
230
1
50
360
0
POINT
5
72
100
AcDbEntity
8
80
62
256
6
ByLayer
370
18
48
1
60
0
100
AcDbPoint
10
0
20
0
30
0
39
0
210
0
220
0
230
1
50
360
0
POINT
5
74
100
AcDbEntity
8
1
62
256
6
ByLayer
370
18
48
1
60
1
100
AcDbPoint
10
14
20
-1.5001
30
0
39
0
210
0
220
0
230
1
50
360
0
POINT
5
76
100
AcDbEntity
8
1
62
256
6
ByLayer
370
18
48
1
60
1
100
AcDbPoint
10
11
20
-1.5001
30
0
39
0
210
0
220
0
230
1
50
360
0
SPLINE
5
D6
100
AcDbEntity
8
1
62
256
6
ByLayer
370
18
48
1
60
0
100
AcDbSpline
70
4
71
3
72
23
73
19
40
0
40
0
40
0
40
0
40
0.0322881360590892
40
0.0322881360590892
40
0.106727510208392
40
0.106727510208392
40
0.404485006805588
40
0.404485006805588
40
0.47892438095489
40
0.47892438095489
40
0.553363755104192
40
0.702242503402797
40
0.702242503402797
40
0.7766818775521
40
0.7766818775521
40
0.851121251701402
40
0.851121251701402
40
1
40
1
40
1
40
1
41
1
10
11.4569696541169
20
0.930587277019811
30
0
41
1
10
11.4827225344839
20
0.941322820602068
30
0
41
1
10
11.5084733924781
20
0.951943309538052
30
0
41
1
10
11.5935578217431
20
0.986644931665126
30
0
41
1
10
11.6528317025106
20
1.01019315978817
30
0
41
1
10
11.9489769933037
20
1.1244834227096
30
0
41
1
10
12.1851567032707
20
1.20487908277519
30
0
41
1
10
12.4817262806816
20
1.28869943303019
30
0
41
1
10
12.5410744526488
20
1.30461853482788
30
0
41
1
10
12.65963513673
20
1.33465168019296
30
0
41
1
10
12.8373847250017
20
1.37702749234927
30
0
41
1
10
13.0151205228858
20
1.41120174788037
30
0
41
1
10
13.1931637514508
20
1.43971615108879
30
0
41
1
10
13.2525911565541
20
1.44828056255815
30
0
41
1
10
13.371318705909
20
1.46345750486347
30
0
41
1
10
13.4306459402987
20
1.47007520527924
30
0
41
1
10
13.6085843569107
20
1.48699763238022
30
0
41
1
10
13.7271549118426
20
1.49437175690812
30
0
41
1
10
13.8458180510914
20
1.49778995456191
30
0
0
SPLINE
5
D7
100
AcDbEntity
8
1
62
256
6
ByLayer
370
18
48
1
60
0
100
AcDbSpline
70
4
71
3
72
8
73
4
40
0
40
0
40
0
40
0
40
1
40
1
40
1
40
1
41
1
10
13.9137981445798
20
1.49786766333352
30
0
41
1
10
13.916170194849
20
1.49761909651602
30
0
41
1
10
13.9185423691172
20
1.49737172356362
30
0
41
1
10
13.9209146671563
20
1.49712553788942
30
0
0
SPLINE
5
D8
100
AcDbEntity
8
1
62
256
6
ByLayer
370
18
48
1
60
0
100
AcDbSpline
70
4
71
3
72
8
73
4
40
0
40
0
40
0
40
0
40
1
40
1
40
1
40
1
41
1
10
13.845818051092
20
1.4977899545614
30
0
41
1
10
13.8684776191069
20
1.49771845090868
30
0
41
1
10
13.8911376503754
20
1.49774439111516
30
0
41
1
10
13.9137981443669
20
1.49786766340685
30
0
0
SPLINE
5
D9
100
AcDbEntity
8
1
62
256
6
ByLayer
370
18
48
1
60
0
100
AcDbSpline
70
4
71
3
72
8
73
4
40
0
40
0
40
0
40
0
40
1
40
1
40
1
40
1
41
1
10
13.8458180510785
20
1.49778995455509
30
0
41
1
10
13.8606249009685
20
1.46294912370843
30
0
41
1
10
13.8764744405619
20
1.4285958652423
30
0
41
1
10
13.8935551951537
20
1.39481833624319
30
0
0
SPLINE
5
DA
100
AcDbEntity
8
1
62
256
6
ByLayer
370
18
48
1
60
0
100
AcDbSpline
70
4
71
3
72
42
73
38
40
0
40
0
40
0
40
0
40
0.0625000000000077
40
0.0625000000000077
40
0.0937500000000115
40
0.0937500000000115
40
0.125000000000015
40
0.125000000000015
40
0.140625000000019
40
0.140625000000019
40
0.156250000000022
40
0.187500000000033
40
0.187500000000033
40
0.203125000000039
40
0.203125000000039
40
0.218750000000045
40
0.250000000000046
40
0.250000000000046
40
0.281250000000048
40
0.281250000000048
40
0.312500000000049
40
0.312500000000049
40
0.375000000000052
40
0.375000000000052
40
0.406250000000053
40
0.406250000000053
40
0.437500000000054
40
0.437500000000054
40
0.500000000000041
40
0.500000000000041
40
0.625000000000031
40
0.625000000000031
40
0.75000000000002
40
0.75000000000002
40
0.87500000000001
40
0.87500000000001
40
1
40
1
40
1
40
1
41
1
10
13.8935551870492
20
1.39481833257835
30
0
41
1
10
13.905241719477
20
1.37167949429053
30
0
41
1
10
13.9145668000608
20
1.34767471391416
30
0
41
1
10
13.9232031672015
20
1.30970524310086
30
0
41
1
10
13.9251209224702
20
1.29688491057723
30
0
41
1
10
13.9267029025496
20
1.27130292930337
30
0
41
1
10
13.9263824594057
20
1.25848024501994
30
0
41
1
10
13.9239972729706
20
1.23919190922282
30
0
41
1
10
13.9228733593911
20
1.23271751567486
30
0
41
1
10
13.9200176700204
20
1.22004506160076
30
0
41
1
10
13.9148239431903
20
1.20137618012632
30
0
41
1
10
13.907007989456
20
1.1836862470405
30
0
41
1
10
13.8975676406087
20
1.16660274468566
30
0
41
1
10
13.8941455020708
20
1.16100880547566
30
0
41
1
10
13.886932235211
20
1.1502231013383
30
0
41
1
10
13.8755111825882
20
1.13455887729282
30
0
41
1
10
13.8624914679258
20
1.12026243185414
30
0
41
1
10
13.8439774375444
20
1.1021881920561
30
0
41
1
10
13.8341015451864
20
1.09362027234596
30
0
41
1
10
13.8137996779925
20
1.07760844465972
30
0
41
1
10
13.8033320781085
20
1.07011841901445
30
0
41
1
10
13.7711823238446
20
1.04886522269314
30
0
41
1
10
13.7487635817055
20
1.03630204376242
30
0
41
1
10
13.7141407430213
20
1.0190778050947
30
0
41
1
10
13.7024053216566
20
1.01360124475878
30
0
41
1
10
13.678813859688
20
1.0031863155757
30
0
41
1
10
13.6669505484302
20
0.998242846384073
30
0
41
1
10
13.6311918627464
20
0.984071650821221
30
0
41
1
10
13.6071294122594
20
0.975496589928156
30
0
41
1
10
13.5344530165242
20
0.951681808494698
30
0
41
1
10
13.4853590211892
20
0.938317354330707
30
0
41
1
10
13.3863843102257
20
0.914661688054963
30
0
41
1
10
13.3364956200857
20
0.904401627554336
30
0
41
1
10
13.236161817558
20
0.886055112933775
30
0
41
1
10
13.1856616408783
20
0.877972087250214
30
0
41
1
10
13.0845483816871
20
0.863499378499654
30
0
41
1
10
13.0339312509703
20
0.857110551859364
30
0
41
1
10
12.9832664344292
20
0.851389730334262
30
0
0
SPLINE
5
DB
100
AcDbEntity
8
1
62
256
6
ByLayer
370
18
48
1
60
0
100
AcDbSpline
70
4
71
3
72
9
73
5
40
0
40
0
40
0
40
0
40
0.614772003854568
40
1
40
1
40
1
40
1
41
1
10
13.8935551878669
20
1.39481833246677
30
0
41
1
10
13.4290367919113
20
1.38240634605205
30
0
41
1
10
12.6734422088086
20
1.26362718488716
30
0
41
1
10
11.917847625706
20
1.02296793182191
30
0
41
1
10
11.6267714385591
20
0.915527873642134
30
0
0
SPLINE
5
DC
100
AcDbEntity
8
1
62
256
6
ByLayer
370
18
48
1
60
0
100
AcDbSpline
70
4
71
3
72
8
73
4
40
0
40
0
40
0
40
0
40
1
40
1
40
1
40
1
41
1
10
12.8426908942734
20
0.82489909927591
30
0
41
1
10
12.8720969880446
20
0.824943368214406
30
0
41
1
10
12.9015030818159
20
0.824853384574794
30
0
41
1
10
12.9309091755871
20
0.824629298376834
30
0
0
SPLINE
5
DD
100
AcDbEntity
8
1
62
256
6
ByLayer
370
18
48
1
60
0
100
AcDbSpline
70
4
71
3
72
18
73
14
40
0
40
0
40
0
40
0
40
0.125
40
0.125
40
0.25
40
0.25
40
0.375
40
0.375
40
0.5
40
0.5
40
0.75
40
0.75
40
1
40
1
40
1
40
1
41
1
10
12.9308007400812
20
0.834348379429656
30
0
41
1
10
12.9305804758365
20
0.834954892222214
30
0
41
1
10
12.9307295743332
20
0.835610802775079
30
0
41
1
10
12.9317940068916
20
0.837038513935084
30
0
41
1
10
12.9327282396742
20
0.837817432830093
30
0
41
1
10
12.9353097979001
20
0.839421144117779
30
0
41
1
10
12.9369769400241
20
0.840262251238926
30
0
41
1
10
12.9409806487192
20
0.841971046802769
30
0
41
1
10
12.9432691690122
20
0.842820562293042
30
0
41
1
10
12.9509430674929
20
0.845337223346775
30
0
41
1
10
12.9570292718844
20
0.846924455286938
30
0
41
1
10
12.969840894775
20
0.849569562528046
30
0
41
1
10
12.9765545767817
20
0.850631860429303
30
0
41
1
10
12.9832664344291
20
0.851389730334404
30
0
0
SPLINE
5
DE
100
AcDbEntity
8
1
62
256
6
ByLayer
370
18
48
1
60
0
100
AcDbSpline
70
4
71
3
72
20
73
16
40
0
40
0
40
0
40
0
40
0.125000000000012
40
0.125000000000012
40
0.250000000000024
40
0.250000000000024
40
0.375000000000036
40
0.375000000000036
40
0.500000000000048
40
0.500000000000048
40
0.625000000000061
40
0.625000000000061
40
0.750000000000073
40
0.750000000000073
40
1
40
1
40
1
40
1
41
1
10
13.7811614366348
20
-0.175868607018771
30
0
41
1
10
13.7811771248613
20
-0.17551620411038
30
0
41
1
10
13.7812206933584
20
-0.174654408835778
30
0
41
1
10
13.7814076454231
20
-0.172159746704864
30
0
41
1
10
13.7815553474302
20
-0.170504137011307
30
0
41
1
10
13.7820154111451
20
-0.166726964454313
30
0
41
1
10
13.7823276691009
20
-0.164595559347163
30
0
41
1
10
13.7831901281431
20
-0.159944928923096
30
0
41
1
10
13.7837441249996
20
-0.157415506638017
30
0
41
1
10
13.7851303444443
20
-0.152168855711636
30
0
41
1
10
13.7859645442338
20
-0.149433377980813
30
0
41
1
10
13.7879936174305
20
-0.143752818009688
30
0
41
1
10
13.7891925513521
20
-0.14080665887343
30
0
41
1
10
13.7933166415105
20
-0.131982522711183
30
0
41
1
10
13.7968807144114
20
-0.125919261658765
30
0
41
1
10
13.8011544145832
20
-0.120250108987364
30
0
0
SPLINE
5
DF
100
AcDbEntity
8
1
62
256
6
ByLayer
370
18
48
1
60
0
100
AcDbSpline
70
4
71
3
72
14
73
10
40
0
40
0
40
0
40
0
40
0.25
40
0.25
40
0.5
40
0.5
40
0.75
40
0.75
40
1
40
1
40
1
40
1
41
1
10
13.7962776436848
20
-0.232183931455296
30
0
41
1
10
13.7964214735428
20
-0.232516917714264
30
0
41
1
10
13.79692769118
20
-0.233433866629127
30
0
41
1
10
13.7986972496691
20
-0.236279727406668
30
0
41
1
10
13.7999610100659
20
-0.238201637287062
30
0
41
1
10
13.8032780995123
20
-0.242697946720256
30
0
41
1
10
13.805373328809
20
-0.245320729542612
30
0
41
1
10
13.8103618262402
20
-0.250797994441655
30
0
41
1
10
13.8133201385428
20
-0.253724774167949
30
0
41
1
10
13.8167212390314
20
-0.256618010515382
30
0
0
SPLINE
5
E0
100
AcDbEntity
8
1
62
256
6
ByLayer
370
18
48
1
60
0
100
AcDbSpline
70
4
71
3
72
10
73
6
40
0
40
0
40
0
40
0
40
0.5
40
0.5
40
1
40
1
40
1
40
1
41
1
10
12.9308007400813
20
0.834348379429684
30
0
41
1
10
12.9317925241052
20
0.831617433702775
30
0
41
1
10
12.9323401923712
20
0.829381951914542
30
0
41
1
10
12.9324133523884
20
0.826087475861328
30
0
41
1
10
12.9319417575188
20
0.82503184668974
30
0
41
1
10
12.9309091849741
20
0.82462929840915
30
0
0
SPLINE
5
E1
100
AcDbEntity
8
1
62
256
6
ByLayer
370
18
48
1
60
0
100
AcDbSpline
70
4
71
3
72
8
73
4
40
0
40
0
40
0
40
0
40
1
40
1
40
1
40
1
41
1
10
12.9309091758147
20
0.82462930155981
30
0
41
1
10
12.9304542415098
20
0.8244500126047
30
0
41
1
10
12.9297221662877
20
0.824596542449285
30
0
41
1
10
12.9287004608387
20
0.825088824393305
30
0
0
SPLINE
5
E2
100
AcDbEntity
8
1
62
256
6
ByLayer
370
18
48
1
60
0
100
AcDbSpline
70
4
71
3
72
14
73
10
40
0
40
0
40
0
40
0
40
0.25
40
0.25
40
0.5
40
0.5
40
0.75
40
0.75
40
1
40
1
40
1
40
1
41
1
10
13.9080327416052
20
-1.15454184454612
30
0
41
1
10
13.908993817239
20
-1.15724342610986
30
0
41
1
10
13.9099151950081
20
-1.16046833936184
30
0
41
1
10
13.9116799089919
20
-1.16794672922609
30
0
41
1
10
13.912533519999
20
-1.17226683791273
30
0
41
1
10
13.9140912931709
20
-1.18169854019442
30
0
41
1
10
13.9147965207011
20
-1.18678848529069
30
0
41
1
10
13.9160497960549
20
-1.19776664770603
30
0
41
1
10
13.9165941294925
20
-1.20365167907056
30
0
41
1
10
13.917024367288
20
-1.20971935741792
30
0
0
SPLINE
5
E3
100
AcDbEntity
8
1
62
256
6
ByLayer
370
18
48
1
60
0
100
AcDbSpline
70
4
71
3
72
10
73
6
40
0
40
0
40
0
40
0
40
0.5
40
0.5
40
1
40
1
40
1
40
1
41
1
10
13.7870970144956
20
-0.295600550501717
30
0
41
1
10
13.7893820106099
20
-0.363100956867584
30
0
41
1
10
13.7926248491281
20
-0.430562146585174
30
0
41
1
10
13.8010915207663
20
-0.565403418764902
30
0
41
1
10
13.8062149668252
20
-0.63117696386459
30
0
41
1
10
13.8122142552768
20
-0.695282556259087
30
0
0
SPLINE
5
E4
100
AcDbEntity
8
1
62
256
6
ByLayer
370
18
48
1
60
0
100
AcDbSpline
70
4
71
3
72
44
73
40
40
0
40
0
40
0
40
0
40
0.062499999999994
40
0.062499999999994
40
0.124999999999988
40
0.124999999999988
40
0.156249999999985
40
0.156249999999985
40
0.187499999999982
40
0.187499999999982
40
0.249999999999976
40
0.249999999999976
40
0.281249999999973
40
0.281249999999973
40
0.31249999999997
40
0.31249999999997
40
0.374999999999964
40
0.374999999999964
40
0.406249999999961
40
0.406249999999961
40
0.437499999999958
40
0.437499999999958
40
0.499999999999957
40
0.499999999999957
40
0.562499999999956
40
0.562499999999956
40
0.593749999999958
40
0.593749999999958
40
0.62499999999996
40
0.62499999999996
40
0.749999999999969
40
0.749999999999969
40
0.81249999999997
40
0.81249999999997
40
0.843749999999974
40
0.843749999999974
40
0.874999999999978
40
0.874999999999978
40
1
40
1
40
1
40
1
41
1
10
12.9287004515191
20
0.825088827904636
30
0
41
1
10
12.9221856163113
20
0.828239164018868
30
0
41
1
10
12.9177649493694
20
0.828942049248894
30
0
41
1
10
12.913210896062
20
0.82533725195367
30
0
41
1
10
12.9130762953074
20
0.821030996161426
30
0
41
1
10
12.9162934327846
20
0.810575775673357
30
0
41
1
10
12.9179446566389
20
0.806413824431246
30
0
41
1
10
12.9223334339122
20
0.796902629687054
30
0
41
1
10
12.925074210485
20
0.791539076744925
30
0
41
1
10
12.9348920207611
20
0.773673156739648
30
0
41
1
10
12.9435594658633
20
0.759401168854794
30
0
41
1
10
12.959667811536
20
0.734535888542638
30
0
41
1
10
12.9655830864112
20
0.725630933904739
30
0
41
1
10
12.9783035733669
20
0.706883593775757
30
0
41
1
10
12.9851001653331
20
0.69705191124774
30
0
41
1
10
13.0067244341062
20
0.666261080275774
30
0
41
1
10
13.0227820959279
20
0.644010880111153
30
0
41
1
10
13.0491314807829
20
0.608260338919933
30
0
41
1
10
13.0582989580624
20
0.595938369655528
30
0
41
1
10
13.0773457180682
20
0.570554227813972
30
0
41
1
10
13.0871426657234
20
0.557601585087212
30
0
41
1
10
13.1172945578189
20
0.518018761457853
30
0
41
1
10
13.1384074630919
20
0.490666626692189
30
0
41
1
10
13.1824332392966
20
0.434247898972302
30
0
41
1
10
13.2053472576783
20
0.405180213077784
30
0
41
1
10
13.2409679790631
20
0.360388357195035
30
0
41
1
10
13.2530504073667
20
0.345258805703679
30
0
41
1
10
13.2776220306226
20
0.314612259544219
30
0
41
1
10
13.2900546573582
20
0.299165970487223
30
0
41
1
10
13.3526451786163
20
0.221683573160618
30
0
41
1
10
13.4043397774484
20
0.158566549601574
30
0
41
1
10
13.4839392803966
20
0.0624562993870938
30
0
41
1
10
13.5108191070385
20
0.0301778329099704
30
0
41
1
10
13.5516384700762
20
-0.0185882411365128
30
0
41
1
10
13.5653283451066
20
-0.0349017662513802
30
0
41
1
10
13.5928732241415
20
-0.0676439566709917
30
0
41
1
10
13.6067319626615
20
-0.0840768666176928
30
0
41
1
10
13.6759474667066
20
-0.165951000393591
30
0
41
1
10
13.7314583200169
20
-0.230988832408002
30
0
41
1
10
13.7870970144957
20
-0.295600550501746
30
0
0
SPLINE
5
E5
100
AcDbEntity
8
1
62
256
6
ByLayer
370
18
48
1
60
0
100
AcDbSpline
70
4
71
3
72
8
73
4
40
0
40
0
40
0
40
0
40
1
40
1
40
1
40
1
41
1
10
12.9287004512695
20
0.825088824697218
30
0
41
1
10
12.8981927951978
20
0.825542214254369
30
0
41
1
10
12.867685139126
20
0.825851130072579
30
0
41
1
10
12.8371774830544
20
0.826015290929377
30
0
0
SPLINE
5
E6
100
AcDbEntity
8
1
62
256
6
ByLayer
370
18
48
1
60
0
100
AcDbSpline
70
4
71
3
72
14
73
10
40
0
40
0
40
0
40
0
40
0.25
40
0.25
40
0.5
40
0.5
40
0.75
40
0.75
40
1
40
1
40
1
40
1
41
1
10
13.8122142592369
20
-0.695282555804084
30
0
41
1
10
13.8187774585802
20
-0.744791698196877
30
0
41
1
10
13.8257762377271
20
-0.791877095339231
30
0
41
1
10
13.8406167435174
20
-0.881095185461419
30
0
41
1
10
13.8483557348925
20
-0.922615800781131
30
0
41
1
10
13.8644496036985
20
-0.999689377899074
30
0
41
1
10
13.872810251333
20
-1.03526352080007
30
0
41
1
10
13.8901400537413
20
-1.1002017390812
30
0
41
1
10
13.8989927578822
20
-1.1291348892575
30
0
41
1
10
13.9080327463823
20
-1.15454184411291
30
0
0
SPLINE
5
E7
100
AcDbEntity
8
1
62
256
6
ByLayer
370
18
48
1
60
0
100
AcDbSpline
70
4
71
3
72
9
73
5
40
0
40
0
40
0
40
0
40
0.466612476397462
40
1
40
1
40
1
40
1
41
1
10
13.8122142600354
20
-0.695282554560663
30
0
41
1
10
13.3748095066902
20
-0.527627954642696
30
0
41
1
10
12.4374047533451
20
-0.113620961487158
30
0
41
1
10
11.5
20
0.322849689224455
30
0
41
1
10
11
20
0.530945058791843
30
0
0
SPLINE
5
E8
100
AcDbEntity
8
1
62
256
6
ByLayer
370
13
48
1
60
0
100
AcDbSpline
70
4
71
3
72
9
73
5
40
0
40
0
40
0
40
0
40
0.484187375503037
40
1
40
1
40
1
40
1
41
1
10
13.9080327404992
20
-1.15454184546761
30
0
41
1
10
13.4386884936661
20
-1.05848814507257
30
0
41
1
10
12.469344246833
20
-0.761044133739631
30
0
41
1
10
11.5
20
-0.326940724850885
30
0
41
1
10
11
20
-0.0991664388678544
30
0
0
SPLINE
5
E9
100
AcDbEntity
8
1
62
256
6
ByLayer
370
18
48
1
60
0
100
AcDbSpline
70
4
71
3
72
8
73
4
40
0
40
0
40
0
40
0
40
1
40
1
40
1
40
1
41
1
10
13.8458180510758
20
-1.49778995456154
30
0
41
1
10
13.8684776190961
20
-1.49771845090873
30
0
41
1
10
13.89113765037
20
-1.49774439111522
30
0
41
1
10
13.9137981443669
20
-1.49786766340694
30
0
0
SPLINE
5
EA
100
AcDbEntity
8
1
62
256
6
ByLayer
370
13
48
1
60
0
100
AcDbSpline
70
4
71
3
72
8
73
4
40
0
40
0
40
0
40
0
40
1
40
1
40
1
40
1
41
1
10
10.5843411338931
20
-0.525656629873566
30
0
41
1
10
10.5879007104162
20
-0.519000284283578
30
0
41
1
10
10.5914602869393
20
-0.512326237829541
30
0
41
1
10
10.5950198634624
20
-0.505635164701715
30
0
0
SPLINE
5
EB
100
AcDbEntity
8
1
62
256
6
ByLayer
370
18
48
1
60
0
100
AcDbSpline
70
4
71
3
72
24
73
20
40
0
40
0
40
0
40
0
40
0.249999999999963
40
0.249999999999963
40
0.374999999999885
40
0.374999999999885
40
0.437499999999846
40
0.437499999999846
40
0.499999999999807
40
0.499999999999807
40
0.562499999999768
40
0.562499999999768
40
0.624999999999729
40
0.624999999999729
40
0.749999999999819
40
0.749999999999819
40
0.87499999999991
40
0.87499999999991
40
1
40
1
40
1
40
1
41
1
10
9.29200356484662
20
0.616479687503272
30
0
41
1
10
9.28544134553093
20
0.621783855405312
30
0
41
1
10
9.27917921819198
20
0.627334005388519
30
0
41
1
10
9.27109909831805
20
0.636757883912139
30
0
41
1
10
9.26863867293048
20
0.640068187427516
30
0
41
1
10
9.2659137457774
20
0.645463458265965
30
0
41
1
10
9.26516151607714
20
0.647365968473423
30
0
41
1
10
9.26431842840057
20
0.651268461828977
30
0
41
1
10
9.26423575528457
20
0.653296235879992
30
0
41
1
10
9.26513032856718
20
0.657167557131004
30
0
41
1
10
9.26612672072275
20
0.658994379124493
30
0
41
1
10
9.2689589080737
20
0.662082146925172
30
0
41
1
10
9.27070476408224
20
0.663308338547949
30
0
41
1
10
9.27640040818463
20
0.666357038038882
30
0
41
1
10
9.28065406412549
20
0.667532973694875
30
0
41
1
10
9.28920879114176
20
0.669208199619106
30
0
41
1
10
9.29352806642441
20
0.669676976573697
30
0
41
1
10
9.30220938238293
20
0.670238763527493
30
0
41
1
10
9.30657252069454
20
0.670322077570148
30
0
41
1
10
9.31095018208273
20
0.670277793664383
30
0
0
SPLINE
5
EC
100
AcDbEntity
8
1
62
256
6
ByLayer
370
18
48
1
60
0
100
AcDbSpline
70
4
71
3
72
24
73
20
40
0
40
0
40
0
40
0
40
0.25000000000001
40
0.25000000000001
40
0.375000000000015
40
0.375000000000015
40
0.50000000000002
40
0.50000000000002
40
0.562500000000022
40
0.562500000000022
40
0.625000000000025
40
0.625000000000025
40
0.75000000000003
40
0.75000000000003
40
0.812500000000022
40
0.812500000000022
40
0.875000000000015
40
0.875000000000015
40
1
40
1
40
1
40
1
41
1
10
9.31095018208282
20
0.6702777936639
30
0
41
1
10
9.38968806019162
20
0.669481290585395
30
0
41
1
10
9.4681249519661
20
0.671240316987848
30
0
41
1
10
9.58506460404604
20
0.679908387734372
30
0
41
1
10
9.62392369470959
20
0.683814515832438
30
0
41
1
10
9.70132738344162
20
0.694241907969769
30
0
41
1
10
9.73987251215698
20
0.700759795189612
30
0
41
1
10
9.79737509660552
20
0.713108848232565
30
0
41
1
10
9.81654567540653
20
0.717671993432987
30
0
41
1
10
9.8544130524422
20
0.727697857338114
30
0
41
1
10
9.87311485271891
20
0.733158575197024
30
0
41
1
10
9.92844488558961
20
0.75101101519968
30
0
41
1
10
9.96430037387103
20
0.764873002501218
30
0
41
1
10
10.0161697791378
20
0.789133861544627
30
0
41
1
10
10.0331834900541
20
0.797823606103577
30
0
41
1
10
10.0663099123446
20
0.816334902047402
30
0
41
1
10
10.0822968504694
20
0.826082512623117
30
0
41
1
10
10.1285014641135
20
0.856748093195193
30
0
41
1
10
10.1569566302885
20
0.879098095559158
30
0
41
1
10
10.1830672660852
20
0.903097599119064
30
0
0
SPLINE
5
ED
100
AcDbEntity
8
1
62
256
6
ByLayer
370
18
48
1
60
0
100
AcDbSpline
70
4
71
3
72
22
73
18
40
0
40
0
40
0
40
0
40
0.196921735675624
40
0.196921735675624
40
0.263844924369311
40
0.263844924369311
40
0.330768113062998
40
0.330768113062998
40
0.464614490450383
40
0.464614490450383
40
0.531537679144082
40
0.531537679144082
40
0.598460867837781
40
0.598460867837781
40
0.732307245225192
40
0.732307245225192
40
1
40
1
40
1
40
1
41
1
10
9.90846333246222
20
-1.46656742431548
30
0
41
1
10
9.88180672695003
20
-1.47868603858174
30
0
41
1
10
9.8531690087508
20
-1.48732571615537
30
0
41
1
10
9.81149550722077
20
-1.49464128680319
30
0
41
1
10
9.80063734388054
20
-1.49612899058508
30
0
41
1
10
9.7782941805834
20
-1.49839121334532
30
0
41
1
10
9.76678767573623
20
-1.49916586746141
30
0
41
1
10
9.73146415416855
20
-1.50045099821045
30
0
41
1
10
9.70682045728506
20
-1.49993102977359
30
0
41
1
10
9.66797063021227
20
-1.49736753063061
30
0
41
1
10
9.65470633562339
20
-1.49621581351019
30
0
41
1
10
9.627505281411
20
-1.4933661592022
30
0
41
1
10
9.61355347474537
20
-1.49166548638118
30
0
41
1
10
9.57092908731246
20
-1.48586475443841
30
0
41
1
10
9.54140135250418
20
-1.48105975158879
30
0
41
1
10
9.44921369622821
20
-1.46459992323642
30
0
41
1
10
9.38292934923436
20
-1.45091527117867
30
0
41
1
10
9.31127842585809
20
-1.4364131542961
30
0
0
SPLINE
5
EE
100
AcDbEntity
8
1
62
256
6
ByLayer
370
18
48
1
60
0
100
AcDbSpline
70
4
71
3
72
8
73
4
40
0
40
0
40
0
40
0
40
1
40
1
40
1
40
1
41
1
10
9.31127842585809
20
-1.4364131542961
30
0
41
1
10
9.30433366728172
20
-1.43500753806887
30
0
41
1
10
9.29776056264197
20
-1.43345040732066
30
0
41
1
10
9.29170678239424
20
-1.43167266874968
30
0
0
SPLINE
5
EF
100
AcDbEntity
8
1
62
256
6
ByLayer
370
18
48
1
60
0
100
AcDbSpline
70
4
71
3
72
10
73
6
40
0
40
0
40
0
40
0
40
0.5
40
0.5
40
1
40
1
40
1
40
1
41
1
10
10.9999999999406
20
-0.728480255830618
30
0
41
1
10
10.9307545049447
20
-0.695824532420374
30
0
41
1
10
10.8615854349622
20
-0.66242172072873
30
0
41
1
10
10.7231271203514
20
-0.594572456174348
30
0
41
1
10
10.6538232990323
20
-0.560177829039986
30
0
41
1
10
10.5843397644504
20
-0.525659162904759
30
0
0
SPLINE
5
F0
100
AcDbEntity
8
1
62
256
6
ByLayer
370
18
48
1
60
0
100
AcDbSpline
70
4
71
3
72
8
73
4
40
0
40
0
40
0
40
0
40
1
40
1
40
1
40
1
41
1
10
10.6301227562363
20
-0.143659489206243
30
0
41
1
10
10.6718149349893
20
-0.150409261596678
30
0
41
1
10
10.7135688394765
20
-0.157421002605275
30
0
41
1
10
10.7553843418345
20
-0.164694169570879
30
0
0
SPLINE
5
F1
100
AcDbEntity
8
1
62
256
6
ByLayer
370
18
48
1
60
0
100
AcDbSpline
70
4
71
3
72
20
73
16
40
0
40
0
40
0
40
0
40
0.249999999999993
40
0.249999999999993
40
0.374999999999994
40
0.374999999999994
40
0.499999999999996
40
0.624999999999997
40
0.624999999999997
40
0.687500000000004
40
0.687500000000004
40
0.750000000000011
40
0.875000000000006
40
0.875000000000006
40
1
40
1
40
1
40
1
41
1
10
10.5950198634575
20
-0.505635164699271
30
0
41
1
10
10.5818997102195
20
-0.477249197007666
30
0
41
1
10
10.5719383067292
20
-0.447778099631705
30
0
41
1
10
10.5629612975641
20
-0.401543056445973
30
0
41
1
10
10.5609731577704
20
-0.385664191770417
30
0
41
1
10
10.5593251919003
20
-0.354059954294144
30
0
41
1
10
10.5599490368797
20
-0.322502666599263
30
0
41
1
10
10.5651730507131
20
-0.291050847013025
30
0
41
1
10
10.5708596736506
20
-0.267507270050487
30
0
41
1
10
10.5730549520406
20
-0.259661594201617
30
0
41
1
10
10.5779518043172
20
-0.244244294043085
30
0
41
1
10
10.5860786161724
20
-0.221429515768392
30
0
41
1
10
10.5964228089636
20
-0.199500152925737
30
0
41
1
10
10.6120091186597
20
-0.170981759375763
30
0
41
1
10
10.6207366105898
20
-0.157040916234592
30
0
41
1
10
10.6301227562408
20
-0.143659489199678
30
0
0
SPLINE
5
F2
100
AcDbEntity
8
1
62
256
6
ByLayer
370
18
48
1
60
0
100
AcDbSpline
70
4
71
3
72
8
73
4
40
0
40
0
40
0
40
0
40
1
40
1
40
1
40
1
41
1
10
13.841966501562
20
-1.35615284832505
30
0
41
1
10
13.8406056239395
20
-1.35464789828188
30
0
41
1
10
13.8392441135589
20
-1.35314259160961
30
0
41
1
10
13.8378819703065
20
-1.3516369282365
30
0
0
SPLINE
5
F3
100
AcDbEntity
8
1
62
256
6
ByLayer
370
18
48
1
60
0
100
AcDbSpline
70
4
71
3
72
8
73
4
40
0
40
0
40
0
40
0
40
1
40
1
40
1
40
1
41
1
10
13.83788197031
20
-1.35163692824167
30
0
41
1
10
13.8658743013743
20
-1.32595276042196
30
0
41
1
10
13.893767339212
20
-1.29990364532509
30
0
41
1
10
13.9215567062703
20
-1.27347349347491
30
0
0
SPLINE
5
F4
100
AcDbEntity
8
1
62
256
6
ByLayer
370
18
48
1
60
0
100
AcDbSpline
70
4
71
3
72
8
73
4
40
0
40
0
40
0
40
0
40
1
40
1
40
1
40
1
41
1
10
13.9170243617894
20
-1.20971935975331
30
0
41
1
10
13.9185297713442
20
-1.23097925660332
30
0
41
1
10
13.9200405366394
20
-1.25223066514965
30
0
41
1
10
13.9215567062703
20
-1.27347349347491
30
0
0
SPLINE
5
F5
100
AcDbEntity
8
1
62
256
6
ByLayer
370
18
48
1
60
0
100
AcDbSpline
70
4
71
3
72
9
73
5
40
0
40
0
40
0
40
0
40
0.485777348916896
40
1
40
1
40
1
40
1
41
1
10
13.9170243606356
20
-1.20971936061369
30
0
41
1
10
13.4446829070904
20
-1.12054197077472
30
0
41
1
10
12.4723414535452
20
-0.831918568090799
30
0
41
1
10
11.5000000000001
20
-0.393835037926237
30
0
41
1
10
11.0000000000001
20
-0.161595649454
30
0
0
SPLINE
5
F6
100
AcDbEntity
8
1
62
256
6
ByLayer
370
18
48
1
60
0
100
AcDbSpline
70
4
71
3
72
8
73
4
40
0
40
0
40
0
40
0
40
1
40
1
40
1
40
1
41
1
10
13.8965571965253
20
-1.46471610917817
30
0
41
1
10
13.9043176569429
20
-1.47588584678678
30
0
41
1
10
13.912421716785
20
-1.48670441915254
30
0
41
1
10
13.9209146671572
20
-1.49712553788973
30
0
0
SPLINE
5
F7
100
AcDbEntity
8
1
62
256
6
ByLayer
370
18
48
1
60
0
100
AcDbSpline
70
4
71
3
72
8
73
4
40
0
40
0
40
0
40
0
40
1
40
1
40
1
40
1
41
1
10
13.8419665015592
20
-1.3561528483275
30
0
41
1
10
13.8624001464578
20
-1.39443662087331
30
0
41
1
10
13.8803727028572
20
-1.43042040136623
30
0
41
1
10
13.8965571965242
20
-1.46471610917831
30
0
0
SPLINE
5
F8
100
AcDbEntity
8
1
62
256
6
ByLayer
370
18
48
1
60
0
100
AcDbSpline
70
4
71
3
72
22
73
18
40
0
40
0
40
0
40
0
40
0.125000000000002
40
0.125000000000002
40
0.250000000000004
40
0.250000000000004
40
0.375000000000006
40
0.375000000000006
40
0.500000000000009
40
0.500000000000009
40
0.562500000000007
40
0.562500000000007
40
0.625000000000005
40
0.625000000000005
40
0.750000000000001
40
0.750000000000001
40
1
40
1
40
1
40
1
41
1
10
13.8419665015596
20
-1.35615284832744
30
0
41
1
10
13.7234696687338
20
-1.33350666408086
30
0
41
1
10
13.604993606612
20
-1.30727516935559
30
0
41
1
10
13.3677864452796
20
-1.24812479262528
30
0
41
1
10
13.2489150119819
20
-1.21515372663245
30
0
41
1
10
13.0118163830666
20
-1.14326908324273
30
0
41
1
10
12.8934902137605
20
-1.1043130452787
30
0
41
1
10
12.6569716679731
20
-1.02063866115762
30
0
41
1
10
12.5387705773182
20
-0.975944268293546
30
0
41
1
10
12.3612335160736
20
-0.905116626511557
30
0
41
1
10
12.3020159749017
20
-0.880873790477438
30
0
41
1
10
12.1834541972689
20
-0.831176411326766
30
0
41
1
10
12.1240841848445
20
-0.805709396091629
30
0
41
1
10
11.9463382138741
20
-0.727864362424953
30
0
41
1
10
11.8281239487848
20
-0.673971923659394
30
0
41
1
10
11.4736081474737
20
-0.507697943267374
30
0
41
1
10
11.2374450949066
20
-0.390662445872067
30
0
41
1
10
11.0000000000001
20
-0.270046799366867
30
0
0
SPLINE
5
F9
100
AcDbEntity
8
1
62
256
6
ByLayer
370
18
48
1
60
0
100
AcDbSpline
70
4
71
3
72
8
73
4
40
0
40
0
40
0
40
0
40
1
40
1
40
1
40
1
41
1
10
11.0000000000001
20
-0.270046799366867
30
0
41
1
10
10.9181595806312
20
-0.235737895498971
30
0
41
1
10
10.8366037381233
20
-0.20066684576318
30
0
41
1
10
10.7553845600596
20
-0.164694150636876
30
0
0
SPLINE
5
FA
100
AcDbEntity
8
1
62
256
6
ByLayer
370
18
48
1
60
0
100
AcDbSpline
70
4
71
3
72
20
73
16
40
0
40
0
40
0
40
0
40
0.0770951416281789
40
0.154152636567983
40
0.231175122142083
40
0.308165156434533
40
0.385125219888684
40
0.462057716871164
40
0.538964977202725
40
0.615849257656399
40
0.692712742711297
40
0.769557541784944
40
0.846385701093074
40
0.923199209934244
40
1
40
1
40
1
40
1
41
1
10
10.7553845617285
20
-0.164694146917753
30
0
41
1
10
10.7511175238179
20
-0.173319000334175
30
0
41
1
10
10.742585531654
20
-0.190564495524569
30
0
41
1
10
10.7298886537604
20
-0.216529043825005
30
0
41
1
10
10.7172699062052
20
-0.242552708494685
30
0
41
1
10
10.7047362194329
20
-0.268640808782266
30
0
41
1
10
10.6922856420561
20
-0.294789115300603
30
0
41
1
10
10.6799186009781
20
-0.320996013177421
30
0
41
1
10
10.6676349014018
20
-0.347259253354338
30
0
41
1
10
10.6554344730958
20
-0.373576789396395
30
0
41
1
10
10.6433173835389
20
-0.399946674088909
30
0
41
1
10
10.6312830399261
20
-0.426366634014073
30
0
41
1
10
10.6193333631121
20
-0.452835881371442
30
0
41
1
10
10.6074608910043
20
-0.47934828750536
30
0
41
1
10
10.5996151619116
20
-0.497062665624952
30
0
41
1
10
10.5956926221659
20
-0.505919121337655
30
0
0
SPLINE
5
FB
100
AcDbEntity
8
1
62
256
6
ByLayer
370
18
48
1
60
0
100
AcDbSpline
70
4
71
3
72
8
73
4
40
0
40
0
40
0
40
0
40
1
40
1
40
1
40
1
41
1
10
13.9137981445798
20
-1.49786766333361
30
0
41
1
10
13.916170194855
20
-1.49761909651548
30
0
41
1
10
13.9185423691293
20
-1.49737172356245
30
0
41
1
10
13.9209146671745
20
-1.49712553788763
30
0
0
SPLINE
5
FC
100
AcDbEntity
8
1
62
256
6
ByLayer
370
18
48
1
60
0
100
AcDbSpline
70
4
71
3
72
25
73
21
40
0
40
0
40
0
40
0
40
0.125
40
0.125
40
0.1875
40
0.1875
40
0.25
40
0.25
40
0.500000000000006
40
0.500000000000006
40
0.562500000000009
40
0.562500000000009
40
0.625000000000011
40
0.750000000000011
40
0.750000000000011
40
0.812500000000009
40
0.812500000000009
40
0.875000000000006
40
0.875000000000006
40
1
40
1
40
1
40
1
41
1
10
11.0000000000001
20
-0.728834591660529
30
0
41
1
10
11.1187609455379
20
-0.784016437899794
30
0
41
1
10
11.2374151860784
20
-0.837140655459905
30
0
41
1
10
11.4154708351809
20
-0.913384983002487
30
0
41
1
10
11.4748699285821
20
-0.938238161412272
30
0
41
1
10
11.5935578217399
20
-0.986644931663903
30
0
41
1
10
11.652831702507
20
-1.01019315978684
30
0
41
1
10
11.9489769932985
20
-1.12448342270778
30
0
41
1
10
12.1851567032642
20
-1.20487908277315
30
0
41
1
10
12.4817262806735
20
-1.28869943302803
30
0
41
1
10
12.5410744526404
20
-1.30461853482575
30
0
41
1
10
12.6596351367209
20
-1.33465168019083
30
0
41
1
10
12.8373847249917
20
-1.3770274923472
30
0
41
1
10
13.0151205228747
20
-1.41120174787844
30
0
41
1
10
13.1931637514387
20
-1.43971615108706
30
0
41
1
10
13.2525911565417
20
-1.4482805625565
30
0
41
1
10
13.371318705896
20
-1.46345750486205
30
0
41
1
10
13.4306459402854
20
-1.47007520527791
30
0
41
1
10
13.6085843568964
20
-1.48699763237923
30
0
41
1
10
13.7271549118277
20
-1.49437175690744
30
0
41
1
10
13.8458180510758
20
-1.49778995456154
30
0
0
SPLINE
5
FD
100
AcDbEntity
8
1
62
256
6
ByLayer
370
18
48
1
60
0
100
AcDbSpline
70
4
71
3
72
30
73
26
40
0
40
0
40
0
40
0
40
0.0882301331840055
40
0.0882301331840055
40
0.176460266368011
40
0.176460266368011
40
0.264690399552016
40
0.264690399552016
40
0.308805466144018
40
0.308805466144018
40
0.352920532736019
40
0.352920532736019
40
0.529380799104024
40
0.529380799104024
40
0.617610932288024
40
0.617610932288024
40
0.705841065472025
40
0.705841065472025
40
0.882301331840019
40
0.882301331840019
40
0.926416398432018
40
0.926416398432018
40
0.970531465024017
40
0.970531465024017
40
1
40
1
40
1
40
1
41
1
10
10.1830672660852
20
0.903097599119064
30
0
41
1
10
10.1815652186547
20
0.938151732884506
30
0
41
1
10
10.1782100815687
20
0.97158394950057
30
0
41
1
10
10.1689650769482
20
1.03550917805251
30
0
41
1
10
10.1630582618567
20
1.06599886145227
30
0
41
1
10
10.1491976168146
20
1.12416972432106
30
0
41
1
10
10.1412376526134
20
1.15184967564889
30
0
41
1
10
10.1278994717412
20
1.1912870455397
30
0
41
1
10
10.123218403733
20
1.20408505445508
30
0
41
1
10
10.113390319949
20
1.22898215271869
30
0
41
1
10
10.1082418966354
20
1.24107847180534
30
0
41
1
10
10.0815989564719
20
1.29923446320345
30
0
41
1
10
10.0572822814687
20
1.33888112411751
30
0
41
1
10
10.0158552145434
20
1.38873943937639
30
0
41
1
10
10.0012006238641
20
1.4037522590219
30
0
41
1
10
9.9699995947953
20
1.43055552529879
30
0
41
1
10
9.95365122939506
20
1.44217689800902
30
0
41
1
10
9.90207231044045
20
1.47206538893417
30
0
41
1
10
9.86434707548739
20
1.48536346355081
30
0
41
1
10
9.81149550722083
20
1.49464128680313
30
0
41
1
10
9.80063734388054
20
1.49612899058502
30
0
41
1
10
9.7782941805834
20
1.49839121334523
30
0
41
1
10
9.76678767573625
20
1.49916586746136
30
0
41
1
10
9.74714788569162
20
1.49988039695816
30
0
41
1
10
9.73916048716561
20
1.50001297134366
30
0
41
1
10
9.73104495553017
20
1.49999896062104
30
0
0
SPLINE
5
FE
100
AcDbEntity
8
1
62
256
6
ByLayer
370
18
48
1
60
0
100
AcDbSpline
70
4
71
3
72
44
73
40
40
0
40
0
40
0
40
0
40
0.0312499999999952
40
0.0312499999999952
40
0.0468749999999928
40
0.0468749999999928
40
0.0624999999999905
40
0.0624999999999905
40
0.0781249999999881
40
0.0781249999999881
40
0.0937499999999858
40
0.0937499999999858
40
0.109374999999983
40
0.109374999999983
40
0.124999999999981
40
0.124999999999981
40
0.140624999999979
40
0.140624999999979
40
0.156249999999976
40
0.156249999999976
40
0.187499999999972
40
0.187499999999972
40
0.218749999999967
40
0.218749999999967
40
0.249999999999962
40
0.249999999999962
40
0.312499999999961
40
0.312499999999961
40
0.37499999999996
40
0.37499999999996
40
0.499999999999968
40
0.499999999999968
40
0.624999999999976
40
0.624999999999976
40
0.749999999999984
40
0.749999999999984
40
0.874999999999992
40
0.874999999999992
40
1
40
1
40
1
40
1
41
1
10
9.29170678245237
20
-1.43167266864072
30
0
41
1
10
9.27865926733128
20
-1.42784116667556
30
0
41
1
10
9.26692271331873
20
-1.42355481218203
30
0
41
1
10
9.25204408057513
20
-1.41611486422559
30
0
41
1
10
9.24752256217516
20
-1.41344389511997
30
0
41
1
10
9.23980178454926
20
-1.40783897047237
30
0
41
1
10
9.23657408109432
20
-1.40489614046123
30
0
41
1
10
9.23149036990918
20
-1.39869409530632
30
0
41
1
10
9.22962794974757
20
-1.39540103371746
30
0
41
1
10
9.2274511455943
20
-1.38865174253391
30
0
41
1
10
9.22711892347149
20
-1.38520152896453
30
0
41
1
10
9.22786067665888
20
-1.37815002238796
30
0
41
1
10
9.22894630654173
20
-1.37452618830076
30
0
41
1
10
9.23238337215085
20
-1.36723288988236
30
0
41
1
10
9.23470701178795
20
-1.36359918434306
30
0
41
1
10
9.24035538277528
20
-1.35634594346999
30
0
41
1
10
9.24368095963234
20
-1.35272646620376
30
0
41
1
10
9.25118246929614
20
-1.34549371688124
30
0
41
1
10
9.25537992722272
20
-1.34186505494142
30
0
41
1
10
9.26885892107336
20
-1.33114488457264
30
0
41
1
10
9.2790304187794
20
-1.32418390803721
30
0
41
1
10
9.30099779809527
20
-1.31049195035078
30
0
41
1
10
9.31280249211289
20
-1.30376275613762
30
0
41
1
10
9.33763453451144
20
-1.29046101022578
30
0
41
1
10
9.35062340751088
20
-1.28391272587035
30
0
41
1
10
9.39057879397777
20
-1.26463645660823
30
0
41
1
10
9.41865380943025
20
-1.2521953722646
30
0
41
1
10
9.47663057719856
20
-1.22777522351575
30
0
41
1
10
9.50656104427839
20
-1.21579923921067
30
0
41
1
10
9.59762286739695
20
-1.18058664860396
30
0
41
1
10
9.66026835473863
20
-1.1579308714015
30
0
41
1
10
9.78780743974127
20
-1.11340578655458
30
0
41
1
10
9.85277512729655
20
-1.09154242226697
30
0
41
1
10
9.98378492872627
20
-1.04843429545016
30
0
41
1
10
10.0499030537243
20
-1.02717079968735
30
0
41
1
10
10.1830397421007
20
-0.984995210985915
30
0
41
1
10
10.2500422985157
20
-0.964091473517499
30
0
41
1
10
10.384579349737
20
-0.922552573982188
30
0
41
1
10
10.4521382997672
20
-0.901911075487334
30
0
41
1
10
10.5199305068362
20
-0.881346000748181
30
0
0
SPLINE
5
FF
100
AcDbEntity
8
1
62
256
6
ByLayer
370
18
48
1
60
0
100
AcDbSpline
70
4
71
3
72
17
73
13
40
0
40
0
40
0
40
0
40
0.0177909462172964
40
0.129579530265394
40
0.241368114313491
40
0.353156698361587
40
0.464945282409685
40
0.576733866457782
40
0.688522450505879
40
0.800311034553976
40
0.912099618602073
40
1
40
1
40
1
40
1
41
1
10
10.5956926221659
20
-0.505919121337655
30
0
41
1
10
10.6143862020437
20
-0.515274800221789
30
0
41
1
10
10.7505895076128
20
-0.583197992576174
30
0
41
1
10
11.0050195443169
20
-0.706590604031618
30
0
41
1
10
11.3610479748535
20
-0.868076415989862
30
0
41
1
10
11.720407957181
20
-1.01709755935497
30
0
41
1
10
12.0839817593484
20
-1.15112657429955
30
0
41
1
10
12.4526488485961
20
-1.26754586990106
30
0
41
1
10
12.8273459851212
20
-1.36376265787888
30
0
41
1
10
13.2090672221189
20
-1.43709140875492
30
0
41
1
10
13.5712157683497
20
-1.48153048122083
30
0
41
1
10
13.8083562995558
20
-1.49504108625456
30
0
41
1
10
13.9137981447919
20
-1.4978676631745
30
0
0
SPLINE
5
100
100
AcDbEntity
8
1
62
256
6
ByLayer
370
18
48
1
60
0
100
AcDbSpline
70
4
71
2
72
6
73
3
40
0
40
0
40
0
40
1
40
1
40
1
41
1
10
11
20
-0.969315021804363
30
0
41
1
10
11.2284558206062
20
-0.945890198365305
30
0
41
1
10
11.4568459916108
20
-0.92564589797081
30
0
0
SPLINE
5
101
100
AcDbEntity
8
1
62
256
6
ByLayer
370
18
48
1
60
0
100
AcDbSpline
70
4
71
2
72
6
73
3
40
0
40
0
40
0
40
1
40
1
40
1
41
1
10
12.9259668216312
20
0.83086441743589
30
0
41
1
10
11.9636264313454
20
0.868937335376984
30
0
41
1
10
11
20
0.969315021804306
30
0
0
LINE
5
77
100
AcDbEntity
8
80
62
256
6
ByLayer
370
18
48
1
60
0
100
AcDbLine
10
0
20
0
30
0
11
-5
21
0
31
0
39
0
210
0
220
0
230
1
0
LINE
5
78
100
AcDbEntity
8
4
62
256
6
ByLayer
370
18
48
0.05
60
0
100
AcDbLine
10
0
20
0
30
0
11
14
21
0
31
0
39
0
210
0
220
0
230
1
0
LINE
5
7A
100
AcDbEntity
8
81
62
256
6
ByLayer
370
18
48
1
60
0
100
AcDbLine
10
14
20
0
30
0
11
19
21
0
31
0
39
0
210
0
220
0
230
1
0
LINE
5
7B
100
AcDbEntity
8
SK4
62
256
6
ByLayer
370
18
48
0.05
60
0
100
AcDbLine
10
-36
20
0
30
0
11
14
21
0
31
0
39
0
210
0
220
0
230
1
0
LINE
5
7D
100
AcDbEntity
8
1
62
256
6
ByLayer
370
18
48
1
60
0
100
AcDbLine
10
0
20
3
30
0
11
0
21
0
31
0
39
0
210
0
220
0
230
1
0
LINE
5
7E
100
AcDbEntity
8
1
62
256
6
ByLayer
370
18
48
1
60
0
100
AcDbLine
10
0
20
0
30
0
11
0
21
-3
31
0
39
0
210
0
220
0
230
1
0
LINE
5
7F
100
AcDbEntity
8
1
62
256
6
ByLayer
370
18
48
1
60
0
100
AcDbLine
10
13.920915
20
1.497126
30
0
11
13.99795
21
1.420699
31
0
39
0
210
0
220
0
230
1
0
LINE
5
80
100
AcDbEntity
8
1
62
256
6
ByLayer
370
18
48
1
60
0
100
AcDbLine
10
13.958002
20
-0.080687
30
0
11
13.881
21
-0.080541
31
0
39
0
210
0
220
0
230
1
0
LINE
5
81
100
AcDbEntity
8
1
62
256
6
ByLayer
370
18
48
1
60
0
100
AcDbLine
10
13.958002
20
-0.080687
30
0
11
13.99795
21
1.420699
31
0
39
0
210
0
220
0
230
1
0
LINE
5
82
100
AcDbEntity
8
1
62
256
6
ByLayer
370
13
48
1
60
0
100
AcDbLine
10
12.983266
20
0.85139
30
0
11
13.801154
21
-0.12025
31
0
39
0
210
0
220
0
230
1
0
LINE
5
83
100
AcDbEntity
8
1
62
256
6
ByLayer
370
18
48
1
60
0
100
AcDbLine
10
11
20
-0.969315
30
0
11
11
21
-0.667118
31
0
39
0
210
0
220
0
230
1
0
LINE
5
84
100
AcDbEntity
8
1
62
256
6
ByLayer
370
13
48
1
60
0
100
AcDbLine
10
9.311278
20
-1.436413
30
0
11
10.549428
21
-0.872376
31
0
39
0
210
0
220
0
230
1
0
LINE
5
85
100
AcDbEntity
8
1
62
256
6
ByLayer
370
18
48
1
60
0
100
AcDbLine
10
13.920915
20
-1.497126
30
0
11
13.99795
21
-1.420699
31
0
39
0
210
0
220
0
230
1
0
LINE
5
86
100
AcDbEntity
8
1
62
256
6
ByLayer
370
18
48
1
60
0
100
AcDbLine
10
13.970408
20
-0.385586
30
0
11
13.831802
21
-0.269352
31
0
39
0
210
0
220
0
230
1
0
LINE
5
87
100
AcDbEntity
8
1
62
256
6
ByLayer
370
13
48
1
60
0
100
AcDbLine
10
13.816721
20
-0.26876
30
0
11
13.816721
21
-0.256618
31
0
39
0
210
0
220
0
230
1
0
LINE
5
88
100
AcDbEntity
8
1
62
256
6
ByLayer
370
18
48
1
60
0
100
AcDbLine
10
13.99795
20
-1.420699
30
0
11
13.921557
21
-1.273473
31
0
39
0
210
0
220
0
230
1
0
LINE
5
89
100
AcDbEntity
8
1
62
256
6
ByLayer
370
18
48
1
60
0
100
AcDbLine
10
13.970408
20
-0.385586
30
0
11
13.99795
21
-1.420699
31
0
39
0
210
0
220
0
230
1
0
LINE
5
8A
100
AcDbEntity
8
1
62
256
6
ByLayer
370
18
48
1
60
0
100
AcDbLine
10
13.957352
20
-0.376385
30
0
11
13.970408
21
-0.385586
31
0
39
0
210
0
220
0
230
1
0
LINE
5
8B
100
AcDbEntity
8
1
62
256
6
ByLayer
370
18
48
1
60
0
100
AcDbLine
10
13.787097
20
-0.295601
30
0
11
13.954375
21
-0.381643
31
0
39
0
210
0
220
0
230
1
0
LINE
5
8C
100
AcDbEntity
8
1
62
256
6
ByLayer
370
13
48
1
60
0
100
AcDbLine
10
13.954375
20
-0.381643
30
0
11
13.933166
21
-0.356449
31
0
39
0
210
0
220
0
230
1
0
LINE
5
8D
100
AcDbEntity
8
1
62
256
6
ByLayer
370
18
48
1
60
0
100
AcDbLine
10
13.816721
20
-0.26876
30
0
11
13.933166
21
-0.356449
31
0
39
0
210
0
220
0
230
1
0
LINE
5
8E
100
AcDbEntity
8
1
62
256
6
ByLayer
370
18
48
1
60
0
100
AcDbLine
10
13.781161
20
-0.175869
30
0
11
12.930801
21
0.834348
31
0
39
0
210
0
220
0
230
1
0
LINE
5
8F
100
AcDbEntity
8
1
62
256
6
ByLayer
370
18
48
1
60
0
100
AcDbLine
10
11
20
0.969315
30
0
11
11
21
0.530945
31
0
39
0
210
0
220
0
230
1
0
LINE
5
90
100
AcDbEntity
8
1
62
256
6
ByLayer
370
18
48
1
60
0
100
AcDbLine
10
11
20
-0.161596
30
0
11
11
21
-0.099166
31
0
39
0
210
0
220
0
230
1
0
LINE
5
91
100
AcDbEntity
8
1
62
256
6
ByLayer
370
13
48
1
60
0
100
AcDbLine
10
9.31095
20
0.670278
30
0
11
11
21
-0.099166
31
0
39
0
210
0
220
0
230
1
0
LINE
5
92
100
AcDbEntity
8
1
62
256
6
ByLayer
370
18
48
1
60
0
100
AcDbLine
10
11
20
-0.099166
30
0
11
11
21
0.530945
31
0
39
0
210
0
220
0
230
1
0
LINE
5
93
100
AcDbEntity
8
1
62
256
6
ByLayer
370
18
48
1
60
0
100
AcDbLine
10
10.183067
20
0.903098
30
0
11
11
21
0.530945
31
0
39
0
210
0
220
0
230
1
0
LINE
5
94
100
AcDbEntity
8
1
62
256
6
ByLayer
370
13
48
1
60
0
100
AcDbLine
10
9.292004
20
0.61648
30
0
11
11
21
-0.161596
31
0
39
0
210
0
220
0
230
1
0
LINE
5
95
100
AcDbEntity
8
1
62
256
6
ByLayer
370
18
48
1
60
0
100
AcDbLine
10
11
20
-0.161596
30
0
11
11
21
-0.270047
31
0
39
0
210
0
220
0
230
1
0
LINE
5
96
100
AcDbEntity
8
1
62
256
6
ByLayer
370
13
48
1
60
0
100
AcDbLine
10
9.291707
20
-1.431673
30
0
11
10.45751
21
-0.900593
31
0
39
0
210
0
220
0
230
1
0
LINE
5
97
100
AcDbEntity
8
1
62
256
6
ByLayer
370
18
48
1
60
0
100
AcDbLine
10
11
20
-0.72883
30
0
11
11
21
-0.72848
31
0
39
0
210
0
220
0
230
1
0
LINE
5
98
100
AcDbEntity
8
1
62
256
6
ByLayer
370
13
48
1
60
0
100
AcDbLine
10
3.997679
20
-1.5
30
0
11
3.997679
21
0
31
0
39
0
210
0
220
0
230
1
0
LINE
5
99
100
AcDbEntity
8
1
62
256
6
ByLayer
370
13
48
1
60
0
100
AcDbLine
10
3.997679
20
0
30
0
11
3.997679
21
1.5
31
0
39
0
210
0
220
0
230
1
0
LINE
5
9A
100
AcDbEntity
8
1
62
256
6
ByLayer
370
13
48
1
60
0
100
AcDbLine
10
3.497679
20
1.633975
30
0
11
3.497679
21
0
31
0
39
0
210
0
220
0
230
1
0
LINE
5
9B
100
AcDbEntity
8
1
62
256
6
ByLayer
370
13
48
1
60
0
100
AcDbLine
10
3.497679
20
0
30
0
11
3.497679
21
-1.633975
31
0
39
0
210
0
220
0
230
1
0
LINE
5
9C
100
AcDbEntity
8
1
62
256
6
ByLayer
370
18
48
1
60
0
100
AcDbLine
10
1.131654
20
3
30
0
11
1.131654
21
0
31
0
39
0
210
0
220
0
230
1
0
LINE
5
9D
100
AcDbEntity
8
1
62
256
6
ByLayer
370
18
48
1
60
0
100
AcDbLine
10
1.131654
20
0
30
0
11
1.131654
21
-3
31
0
39
0
210
0
220
0
230
1
0
LINE
5
9E
100
AcDbEntity
8
SK1
62
256
6
ByLayer
370
18
48
1
60
0
100
AcDbLine
10
0
20
3
30
0
11
0
21
0
31
0
39
0
210
0
220
0
230
1
0
LINE
5
A0
100
AcDbEntity
8
SK1
62
256
6
ByLayer
370
18
48
1
60
0
100
AcDbLine
10
0
20
0
30
0
11
0
21
-3
31
0
39
0
210
0
220
0
230
1
0
LINE
5
A1
100
AcDbEntity
8
SK1
62
256
6
ByLayer
370
18
48
1
60
0
100
AcDbLine
10
-35.6
20
3
30
0
11
-35.6
21
-3
31
0
39
0
210
0
220
0
230
1
0
LINE
5
A2
100
AcDbEntity
8
SK1
62
256
6
ByLayer
370
18
48
1
60
0
100
AcDbLine
10
-36
20
-2.6
30
0
11
-36
21
2.6
31
0
39
0
210
0
220
0
230
1
0
LINE
5
A3
100
AcDbEntity
8
1
62
256
6
ByLayer
370
18
48
1
60
0
100
AcDbLine
10
1.131654
20
3
30
0
11
0
21
3
31
0
39
0
210
0
220
0
230
1
0
LINE
5
A4
100
AcDbEntity
8
1
62
256
6
ByLayer
370
18
48
1
60
0
100
AcDbLine
10
0
20
-3
30
0
11
1.131654
21
-3
31
0
39
0
210
0
220
0
230
1
0
LINE
5
A5
100
AcDbEntity
8
1
62
256
6
ByLayer
370
18
48
1
60
0
100
AcDbLine
10
9.906117
20
-1.467632
30
0
11
11.003703
21
-0.967628
31
0
39
0
210
0
220
0
230
1
0
LINE
5
A6
100
AcDbEntity
8
1
62
256
6
ByLayer
370
18
48
1
60
0
100
AcDbLine
10
11.003703
20
0.967628
30
0
11
9.906117
21
1.467632
31
0
39
0
210
0
220
0
230
1
0
LINE
5
A7
100
AcDbEntity
8
1
62
256
6
ByLayer
370
18
48
1
60
0
100
AcDbLine
10
9.728283
20
1.5
30
0
11
3.997679
21
1.5
31
0
39
0
210
0
220
0
230
1
0
LINE
5
A8
100
AcDbEntity
8
1
62
256
6
ByLayer
370
18
48
1
60
0
100
AcDbLine
10
3.997679
20
-1.5
30
0
11
9.728283
21
-1.5
31
0
39
0
210
0
220
0
230
1
0
LINE
5
A9
100
AcDbEntity
8
1
62
256
6
ByLayer
370
18
48
1
60
0
100
AcDbLine
10
3.497679
20
1.633975
30
0
11
1.131654
21
3
31
0
39
0
210
0
220
0
230
1
0
LINE
5
AA
100
AcDbEntity
8
1
62
256
6
ByLayer
370
18
48
1
60
0
100
AcDbLine
10
1.131654
20
-3
30
0
11
3.497679
21
-1.633975
31
0
39
0
210
0
220
0
230
1
0
LINE
5
AB
100
AcDbEntity
8
SK1
62
256
6
ByLayer
370
18
48
1
60
0
100
AcDbLine
10
0
20
3
30
0
11
-35.6
21
3
31
0
39
0
210
0
220
0
230
1
0
LINE
5
AC
100
AcDbEntity
8
SK1
62
256
6
ByLayer
370
18
48
1
60
0
100
AcDbLine
10
-35.6
20
-3
30
0
11
0
21
-3
31
0
39
0
210
0
220
0
230
1
0
LINE
5
AD
100
AcDbEntity
8
SK1
62
256
6
ByLayer
370
18
48
1
60
0
100
AcDbLine
10
-36
20
-2.6
30
0
11
-35.6
21
-3
31
0
39
0
210
0
220
0
230
1
0
LINE
5
AE
100
AcDbEntity
8
SK1
62
256
6
ByLayer
370
18
48
1
60
0
100
AcDbLine
10
-35.6
20
3
30
0
11
-36
21
2.6
31
0
39
0
210
0
220
0
230
1
0
LINE
5
AF
100
AcDbEntity
8
SK2
62
256
6
ByLayer
370
18
48
1
60
0
100
AcDbLine
10
-43.85
20
11.75
30
0
11
-43.85
21
-19.315466
31
0
39
0
210
0
220
0
230
1
0
LINE
5
B1
100
AcDbEntity
8
SK2
62
256
6
ByLayer
370
18
48
1
60
0
100
AcDbLine
10
-37.1875
20
3
30
0
11
-45.85
21
3
31
0
39
0
210
0
220
0
230
1
0
LINE
5
B2
100
AcDbEntity
8
SK2
62
256
6
ByLayer
370
18
48
1
60
0
100
AcDbLine
10
-37.1875
20
-3
30
0
11
-45.85
21
-3
31
0
39
0
210
0
220
0
230
1
0
LINE
5
B3
100
AcDbEntity
8
1
62
256
6
ByLayer
370
18
48
1
60
1
100
AcDbLine
10
-43.85
20
3
30
0
11
-44.310784
21
6.499998
31
0
39
0
210
0
220
0
230
1
0
LINE
5
B4
100
AcDbEntity
8
1
62
256
6
ByLayer
370
18
48
1
60
1
100
AcDbLine
10
-44.310784
20
6.499998
30
0
11
-43.389216
21
6.500002
31
0
39
0
210
0
220
0
230
1
0
LINE
5
B5
100
AcDbEntity
8
1
62
256
6
ByLayer
370
18
48
1
60
1
100
AcDbLine
10
-43.389216
20
6.500002
30
0
11
-43.85
21
3
31
0
39
0
210
0
220
0
230
1
0
LINE
5
B6
100
AcDbEntity
8
1
62
256
6
ByLayer
370
18
48
1
60
1
100
AcDbLine
10
-43.85
20
-3
30
0
11
-43.389216
21
-6.499998
31
0
39
0
210
0
220
0
230
1
0
LINE
5
B7
100
AcDbEntity
8
1
62
256
6
ByLayer
370
18
48
1
60
1
100
AcDbLine
10
-43.389216
20
-6.499998
30
0
11
-44.310784
21
-6.500002
31
0
39
0
210
0
220
0
230
1
0
LINE
5
B8
100
AcDbEntity
8
1
62
256
6
ByLayer
370
18
48
1
60
1
100
AcDbLine
10
-44.310784
20
-6.500002
30
0
11
-43.85
21
-3
31
0
39
0
210
0
220
0
230
1
0
LINE
5
B9
100
AcDbEntity
8
2
62
256
6
ByLayer
370
18
48
1
60
0
100
AcDbLine
10
26
20
17.815566
30
0
11
26
21
-10.2501
31
0
39
0
210
0
220
0
230
1
0
LINE
5
BB
100
AcDbEntity
8
2
62
256
6
ByLayer
370
18
48
1
60
0
100
AcDbLine
10
15.5875
20
1.5001
30
0
11
28
21
1.5001
31
0
39
0
210
0
220
0
230
1
0
LINE
5
BC
100
AcDbEntity
8
2
62
256
6
ByLayer
370
18
48
1
60
0
100
AcDbLine
10
15.5875
20
-1.5001
30
0
11
28
21
-1.5001
31
0
39
0
210
0
220
0
230
1
0
LINE
5
BD
100
AcDbEntity
8
1
62
256
6
ByLayer
370
18
48
1
60
1
100
AcDbLine
10
26
20
1.5001
30
0
11
25.539216
21
5.000098
31
0
39
0
210
0
220
0
230
1
0
LINE
5
BE
100
AcDbEntity
8
1
62
256
6
ByLayer
370
18
48
1
60
1
100
AcDbLine
10
25.539216
20
5.000098
30
0
11
26.460784
21
5.000102
31
0
39
0
210
0
220
0
230
1
0
LINE
5
BF
100
AcDbEntity
8
1
62
256
6
ByLayer
370
18
48
1
60
1
100
AcDbLine
10
26.460784
20
5.000102
30
0
11
26
21
1.5001
31
0
39
0
210
0
220
0
230
1
0
LINE
5
C0
100
AcDbEntity
8
1
62
256
6
ByLayer
370
18
48
1
60
1
100
AcDbLine
10
26
20
-1.5001
30
0
11
26.460784
21
-5.000098
31
0
39
0
210
0
220
0
230
1
0
LINE
5
C1
100
AcDbEntity
8
1
62
256
6
ByLayer
370
18
48
1
60
1
100
AcDbLine
10
26.460784
20
-5.000098
30
0
11
25.539216
21
-5.000102
31
0
39
0
210
0
220
0
230
1
0
LINE
5
C2
100
AcDbEntity
8
1
62
256
6
ByLayer
370
18
48
1
60
1
100
AcDbLine
10
25.539216
20
-5.000102
30
0
11
26
21
-1.5001
31
0
39
0
210
0
220
0
230
1
0
LINE
5
C3
100
AcDbEntity
8
SK2
62
256
6
ByLayer
370
18
48
1
60
0
100
AcDbLine
10
14
20
-33.1
30
0
11
-36
21
-33.1
31
0
39
0
210
0
220
0
230
1
0
LINE
5
C4
100
AcDbEntity
8
SK2
62
256
6
ByLayer
370
18
48
1
60
0
100
AcDbLine
10
-36
20
-4.1875
30
0
11
-36
21
-35.1
31
0
39
0
210
0
220
0
230
1
0
LINE
5
C5
100
AcDbEntity
8
SK2
62
256
6
ByLayer
370
18
48
1
60
0
100
AcDbLine
10
14
20
-3.0876
30
0
11
14
21
-35.1
31
0
39
0
210
0
220
0
230
1
0
LINE
5
C6
100
AcDbEntity
8
1
62
256
6
ByLayer
370
18
48
1
60
1
100
AcDbLine
10
-36
20
-33.1
30
0
11
-32.500002
21
-32.639216
31
0
39
0
210
0
220
0
230
1
0
LINE
5
C7
100
AcDbEntity
8
1
62
256
6
ByLayer
370
18
48
1
60
1
100
AcDbLine
10
-32.500002
20
-32.639216
30
0
11
-32.499998
21
-33.560784
31
0
39
0
210
0
220
0
230
1
0
LINE
5
C8
100
AcDbEntity
8
1
62
256
6
ByLayer
370
18
48
1
60
1
100
AcDbLine
10
-32.499998
20
-33.560784
30
0
11
-36
21
-33.1
31
0
39
0
210
0
220
0
230
1
0
LINE
5
C9
100
AcDbEntity
8
1
62
256
6
ByLayer
370
18
48
1
60
1
100
AcDbLine
10
14
20
-33.1
30
0
11
10.500002
21
-33.560784
31
0
39
0
210
0
220
0
230
1
0
LINE
5
CA
100
AcDbEntity
8
1
62
256
6
ByLayer
370
18
48
1
60
1
100
AcDbLine
10
10.500002
20
-33.560784
30
0
11
10.499998
21
-32.639216
31
0
39
0
210
0
220
0
230
1
0
LINE
5
CB
100
AcDbEntity
8
1
62
256
6
ByLayer
370
18
48
1
60
1
100
AcDbLine
10
10.499998
20
-32.639216
30
0
11
14
21
-33.1
31
0
39
0
210
0
220
0
230
1
0
LINE
5
106
100
AcDbEntity
8
1
62
256
6
ByLayer
370
18
48
1
60
1
100
AcDbLine
10
-43.85
20
3
30
0
11
-44.310784
21
6.499998
31
0
39
0
210
0
220
0
230
1
0
LINE
5
107
100
AcDbEntity
8
1
62
256
6
ByLayer
370
18
48
1
60
1
100
AcDbLine
10
-44.310784
20
6.499998
30
0
11
-43.389216
21
6.500002
31
0
39
0
210
0
220
0
230
1
0
LINE
5
108
100
AcDbEntity
8
1
62
256
6
ByLayer
370
18
48
1
60
1
100
AcDbLine
10
-43.389216
20
6.500002
30
0
11
-43.85
21
3
31
0
39
0
210
0
220
0
230
1
0
LINE
5
10A
100
AcDbEntity
8
1
62
256
6
ByLayer
370
18
48
1
60
1
100
AcDbLine
10
-43.85
20
-3
30
0
11
-43.389216
21
-6.499998
31
0
39
0
210
0
220
0
230
1
0
LINE
5
10B
100
AcDbEntity
8
1
62
256
6
ByLayer
370
18
48
1
60
1
100
AcDbLine
10
-43.389216
20
-6.499998
30
0
11
-44.310784
21
-6.500002
31
0
39
0
210
0
220
0
230
1
0
LINE
5
10C
100
AcDbEntity
8
1
62
256
6
ByLayer
370
18
48
1
60
1
100
AcDbLine
10
-44.310784
20
-6.500002
30
0
11
-43.85
21
-3
31
0
39
0
210
0
220
0
230
1
0
LINE
5
110
100
AcDbEntity
8
1
62
256
6
ByLayer
370
18
48
1
60
1
100
AcDbLine
10
26
20
1.5001
30
0
11
25.539216
21
5.000098
31
0
39
0
210
0
220
0
230
1
0
LINE
5
111
100
AcDbEntity
8
1
62
256
6
ByLayer
370
18
48
1
60
1
100
AcDbLine
10
25.539216
20
5.000098
30
0
11
26.460784
21
5.000102
31
0
39
0
210
0
220
0
230
1
0
LINE
5
112
100
AcDbEntity
8
1
62
256
6
ByLayer
370
18
48
1
60
1
100
AcDbLine
10
26.460784
20
5.000102
30
0
11
26
21
1.5001
31
0
39
0
210
0
220
0
230
1
0
LINE
5
114
100
AcDbEntity
8
1
62
256
6
ByLayer
370
18
48
1
60
1
100
AcDbLine
10
26
20
-1.5001
30
0
11
26.460784
21
-5.000098
31
0
39
0
210
0
220
0
230
1
0
LINE
5
115
100
AcDbEntity
8
1
62
256
6
ByLayer
370
18
48
1
60
1
100
AcDbLine
10
26.460784
20
-5.000098
30
0
11
25.539216
21
-5.000102
31
0
39
0
210
0
220
0
230
1
0
LINE
5
116
100
AcDbEntity
8
1
62
256
6
ByLayer
370
18
48
1
60
1
100
AcDbLine
10
25.539216
20
-5.000102
30
0
11
26
21
-1.5001
31
0
39
0
210
0
220
0
230
1
0
LINE
5
119
100
AcDbEntity
8
1
62
256
6
ByLayer
370
18
48
1
60
1
100
AcDbLine
10
-36
20
-33.1
30
0
11
-32.500002
21
-32.639216
31
0
39
0
210
0
220
0
230
1
0
LINE
5
11A
100
AcDbEntity
8
1
62
256
6
ByLayer
370
18
48
1
60
1
100
AcDbLine
10
-32.500002
20
-32.639216
30
0
11
-32.499998
21
-33.560784
31
0
39
0
210
0
220
0
230
1
0
LINE
5
11B
100
AcDbEntity
8
1
62
256
6
ByLayer
370
18
48
1
60
1
100
AcDbLine
10
-32.499998
20
-33.560784
30
0
11
-36
21
-33.1
31
0
39
0
210
0
220
0
230
1
0
LINE
5
11D
100
AcDbEntity
8
1
62
256
6
ByLayer
370
18
48
1
60
1
100
AcDbLine
10
14
20
-33.1
30
0
11
10.500002
21
-33.560784
31
0
39
0
210
0
220
0
230
1
0
LINE
5
11E
100
AcDbEntity
8
1
62
256
6
ByLayer
370
18
48
1
60
1
100
AcDbLine
10
10.500002
20
-33.560784
30
0
11
10.499998
21
-32.639216
31
0
39
0
210
0
220
0
230
1
0
LINE
5
11F
100
AcDbEntity
8
1
62
256
6
ByLayer
370
18
48
1
60
1
100
AcDbLine
10
10.499998
20
-32.639216
30
0
11
14
21
-33.1
31
0
39
0
210
0
220
0
230
1
0
MTEXT
5
102
100
AcDbEntity
8
SK2
62
256
6
ByLayer
370
18
48
1
60
0
100
AcDbMText
10
-45.414634
20
-17.380622
30
0
210
0
220
0
230
1
1
%%c
40
3.5
41
0
44
1.084337
50
90
71
7
72
5
7
iso_b_vert
0
MTEXT
5
105
100
AcDbEntity
8
SK2
62
256
6
ByLayer
370
18
48
1
60
0
100
AcDbMText
10
-45.414634
20
-10.407966
30
0
210
0
220
0
230
1
1
\W0.5404;6
40
3.5
41
0
44
1.084337
50
90
71
7
72
5
7
iso_b_vert
0
MTEXT
5
10E
100
AcDbEntity
8
2
62
256
6
ByLayer
370
18
48
1
60
0
100
AcDbMText
10
24.435366
20
9.434944
30
0
210
0
220
0
230
1
1
%%c
40
3.5
41
0
44
1.084337
50
90
71
7
72
5
7
iso_b_vert
0
MTEXT
5
10F
100
AcDbEntity
8
2
62
256
6
ByLayer
370
18
48
1
60
0
100
AcDbMText
10
24.435366
20
16.4076
30
0
210
0
220
0
230
1
1
\W0.5404;3
40
3.5
41
0
44
1.084337
50
90
71
7
72
5
7
iso_b_vert
0
MTEXT
5
118
100
AcDbEntity
8
SK2
62
256
6
ByLayer
370
18
48
1
60
0
100
AcDbMText
10
-12.904966
20
-32.067366
30
0
210
0
220
0
230
1
1
\W0.6740;50
40
3.5
41
0
44
1.084337
50
0
71
7
72
5
7
iso_b_vert
0
MTEXT
5
121
100
AcDbEntity
8
SK6
62
256
6
ByLayer
370
18
48
1
60
0
100
AcDbMText
10
-35.4695
20
-62.114886
30
0
210
0
220
0
230
1
1
\W0.6967;1K212-0300-XA       1730
40
3
41
0
44
1.084337
50
0
71
7
72
5
7
iso_b_vert
0
HATCH
5
109
100
AcDbEntity
8
SK2
62
256
6
ByLayer
370
13
48
1
60
0
100
AcDbHatch
10
0
20
0
30
0
210
0
220
0
230
1
2
ANSI31
70
0
71
0
91
1
92
5
93
3
72
1
10
-43.85
20
3
11
-44.3107837415528
21
6.49999830744682
72
1
10
-44.3107837415528
20
6.49999830744682
11
-43.3892162584472
21
6.50000169255318
72
1
10
-43.3892162584472
20
6.50000169255318
11
-43.85
21
3
97
0
75
0
76
1
52
0
41
0.0062
77
0
78
1
53
45
43
0
44
0
45
-0.0139193969876572
46
0.0139193969876572
79
0
47
0
98
1
10
0
20
0
0
HATCH
5
10D
100
AcDbEntity
8
SK2
62
256
6
ByLayer
370
13
48
1
60
0
100
AcDbHatch
10
0
20
0
30
0
210
0
220
0
230
1
2
ANSI31
70
0
71
0
91
1
92
5
93
3
72
1
10
-43.85
20
-3
11
-43.3892162584472
21
-6.49999830744682
72
1
10
-43.3892162584472
20
-6.49999830744682
11
-44.3107837415528
21
-6.50000169255318
72
1
10
-44.3107837415528
20
-6.50000169255318
11
-43.85
21
-3
97
0
75
0
76
1
52
0
41
0.0062
77
0
78
1
53
45
43
0
44
0
45
-0.0139193969876572
46
0.0139193969876572
79
0
47
0
98
1
10
0
20
0
0
HATCH
5
113
100
AcDbEntity
8
2
62
256
6
ByLayer
370
13
48
1
60
0
100
AcDbHatch
10
0
20
0
30
0
210
0
220
0
230
1
2
ANSI31
70
0
71
0
91
1
92
5
93
3
72
1
10
26
20
1.50009999999997
11
25.5392162584472
21
5.00009830744679
72
1
10
25.5392162584472
20
5.00009830744679
11
26.4607837415528
21
5.00010169255316
72
1
10
26.4607837415528
20
5.00010169255316
11
26
21
1.50009999999997
97
0
75
0
76
1
52
0
41
0.0062
77
0
78
1
53
45
43
0
44
0
45
-0.0139193969876572
46
0.0139193969876572
79
0
47
0
98
1
10
0
20
0
0
HATCH
5
117
100
AcDbEntity
8
2
62
256
6
ByLayer
370
13
48
1
60
0
100
AcDbHatch
10
0
20
0
30
0
210
0
220
0
230
1
2
ANSI31
70
0
71
0
91
1
92
5
93
3
72
1
10
26
20
-1.50010000000003
11
26.4607837415528
21
-5.00009830744685
72
1
10
26.4607837415528
20
-5.00009830744685
11
25.5392162584472
21
-5.00010169255322
72
1
10
25.5392162584472
20
-5.00010169255322
11
26
21
-1.50010000000003
97
0
75
0
76
1
52
0
41
0.0062
77
0
78
1
53
45
43
0
44
0
45
-0.0139193969876572
46
0.0139193969876572
79
0
47
0
98
1
10
0
20
0
0
HATCH
5
11C
100
AcDbEntity
8
SK2
62
256
6
ByLayer
370
13
48
1
60
0
100
AcDbHatch
10
0
20
0
30
0
210
0
220
0
230
1
2
ANSI31
70
0
71
0
91
1
92
5
93
3
72
1
10
-36
20
-33.1000000000001
11
-32.5000016925532
21
-32.6392162584473
72
1
10
-32.5000016925532
20
-32.6392162584473
11
-32.4999983074468
21
-33.5607837415528
72
1
10
-32.4999983074468
20
-33.5607837415528
11
-36
21
-33.1000000000001
97
0
75
0
76
1
52
0
41
0.0062
77
0
78
1
53
45
43
0
44
0
45
-0.0139193969876572
46
0.0139193969876572
79
0
47
0
98
1
10
0
20
0
0
HATCH
5
120
100
AcDbEntity
8
SK2
62
256
6
ByLayer
370
13
48
1
60
0
100
AcDbHatch
10
0
20
0
30
0
210
0
220
0
230
1
2
ANSI31
70
0
71
0
91
1
92
5
93
3
72
1
10
14
20
-33.1000000000001
11
10.5000016925532
21
-33.5607837415528
72
1
10
10.5000016925532
20
-33.5607837415528
11
10.4999983074468
21
-32.6392162584473
72
1
10
10.4999983074468
20
-32.6392162584473
11
14
21
-33.1000000000001
97
0
75
0
76
1
52
0
41
0.0062
77
0
78
1
53
45
43
0
44
0
45
-0.0139193969876572
46
0.0139193969876572
79
0
47
0
98
1
10
0
20
0
0
DIMENSION
5
124
100
AcDbEntity
8
2
62
256
6
ByLayer
370
18
48
1
60
0
100
AcDbDimension
2
_U0
10
11
20
-17.1
30
0
11
12.5
21
-17.1
31
0
70
32
71
1
72
1
41
1
210
0
220
0
230
1
3
Standard
100
AcDbAlignedDimension
13
14
23
-1.5001
33
0
14
11
24
-1.5001
34
0
50
0
100
AcDbRotatedDimension
1001
ACAD
1000
DSTYLE
1002
{
1070
   371
1070
    13
1070
   372
1070
    13
1070
   170
1070
     0
1070
   144
1040
1.0
1070
   277
1070
     2
1070
   284
1070
     8
1070
   278
1070
    46
1070
   146
1040
1.0
1070
   345
1005
16
1070
   347
1005
16
1070
   346
1005
16
1070
   344
1005
0
1070
   343
1005
0
1070
   172
1070
     1
1070
    76
1070
     0
1070
    75
1070
     0
1070
   282
1070
     0
1070
   281
1070
     0
1070
    71
1070
     0
1070
    74
1070
     0
1070
   279
1070
     0
1070
   173
1070
     1
1070
   340
1005
103
1070
   271
1070
     2
1070
   272
1070
     2
1070
    77
1070
     1
1070
    73
1070
     1
1070
   171
1070
     3
1070
   274
1070
     4
1070
   177
1070
     2
1070
   176
1070
     2
1070
   178
1070
     2
1070
    78
1070
     8
1070
    48
1040
-0.1
1070
    41
1040
3.5
1070
   147
1040
1.75
1070
    42
1040
1.5875
1070
    44
1040
2.0
1070
   140
1040
3.5
1002
}
1001
ACAD_DSTYLE_DIM_LINETYPE
1070
   380
1005
16
1001
ACAD_DSTYLE_DIM_EXT1_LINETYPE
1070
   381
1005
16
1001
ACAD_DSTYLE_DIM_EXT2_LINETYPE
1070
   382
1005
16
0
ENDSEC
0
SECTION
2
OBJECTS
0
DICTIONARY
5
1ae
330
0
100
AcDbDictionary
280
0
281
1
3
ACAD_GROUP
350
1af
3
ACAD_MLINESTYLE
350
1b0
0
DICTIONARY
5
1af
330
0
100
AcDbDictionary
280
0
281
1
0
DICTIONARY
5
1b0
330
0
100
AcDbDictionary
280
0
281
1
3
Standard
350
18
0
MLINESTYLE
5
18
330
1b0
100
AcDbMlineStyle
2
Standard
70
0
3

62
256
51
90
52
90
71
2
49
-0.5
62
256
6
ByLayer
49
0.5
62
256
6
ByLayer
0
RASTERVARIABLES
5
19c
330

100
AcDbRasterVariables
90
0
70
1
71
1
72
1
0
ENDSEC
0
EOF
