0
SECTION
2
HEADER
9
$ACADVER
1
AC1015
9
$DWGCODEPAGE
3
ANSI_1252
9
$HANDSEED
5
2bc
9
$ANGBASE
50
0
9
$ANGDIR
70
0
9
$ATTMODE
70
1
9
$AUNITS
70
0
9
$AUPREC
70
0
9
$CECOLOR
62
256
9
$CELTSCALE
40
1
9
$CELTYPE
6
ByLayer
9
$CELWEIGHT
370
18
9
$CLAYER
8
0
9
$CMLJUST
70
0
9
$CMLSCALE
40
1
9
$CMLSTYLE
2
Standard
9
$DIMSTYLE
2
Standard
9
$TEXTSIZE
40
0.2
9
$TEXTSTYLE
7
Standard
9
$LUNITS
70
2
9
$LUPREC
70
4
9
$EXTNAMES
290
1
9
$INSUNITS
70
4
9
$LTSCALE
40
1
9
$LWDISPLAY
290
1
9
$PDMODE
70
0
9
$PDSIZE
40
0
9
$PLINEGEN
70
0
0
ENDSEC
0
SECTION
2
CLASSES
0
CLASS
1
RASTERVARIABLES
2
AcDbRasterVariables
3
ISM
90
0
280
0
281
0
0
ENDSEC
0
SECTION
2
TABLES
0
TABLE
2
VPORT
5
2b2
100
AcDbSymbolTable
0
VPORT
5
1
100
AcDbSymbolTableRecord
100
AcDbViewportTableRecord
2
*Active
70
0
10
0
20
0
11
1
21
1
12
-1
22
1
13
0
23
0
14
0.5
24
0.5
15
10
25
10
16
0
26
0
36
1
17
0
27
0
37
0
0
ENDTAB
0
TABLE
2
LTYPE
5
2b3
100
AcDbSymbolTable
0
LTYPE
5
14
100
AcDbSymbolTableRecord
100
AcDbLinetypeTableRecord
70
0
2
ByBlock
3

72
65
73
0
40
0
0
LTYPE
5
15
100
AcDbSymbolTableRecord
100
AcDbLinetypeTableRecord
70
0
2
ByLayer
3

72
65
73
0
40
0
0
LTYPE
5
16
100
AcDbSymbolTableRecord
100
AcDbLinetypeTableRecord
70
0
2
Continuous
3
Solid line
72
65
73
0
40
0
0
LTYPE
5
6E
100
AcDbSymbolTableRecord
100
AcDbLinetypeTableRecord
70
0
2
CENTER
3
____ _ ____ _ ____ _ ____
72
65
73
4
40
47.5
49
22
74
0
49
-8.5
74
0
49
8.5
74
0
49
-8.5
74
0
0
LTYPE
5
6F
100
AcDbSymbolTableRecord
100
AcDbLinetypeTableRecord
70
0
2
DASHED
3
__ __ __ __ __ __ __ __ __
72
65
73
2
40
25.72
49
12.86
74
0
49
-12.86
74
0
0
ENDTAB
0
TABLE
2
LAYER
5
2b4
100
AcDbSymbolTable
0
LAYER
5
10
100
AcDbSymbolTableRecord
100
AcDbLayerTableRecord
2
0
70
0
62
7
6
Continuous
290
1
370
-3
390
0
0
LAYER
5
71
100
AcDbSymbolTableRecord
100
AcDbLayerTableRecord
2
80
70
0
62
-6
6
Continuous
290
1
370
-3
390
0
0
LAYER
5
73
100
AcDbSymbolTableRecord
100
AcDbLayerTableRecord
2
81
70
0
62
-3
6
Continuous
290
1
370
-3
390
0
0
LAYER
5
75
100
AcDbSymbolTableRecord
100
AcDbLayerTableRecord
2
1
70
0
62
4
6
Continuous
290
1
370
-3
390
0
0
LAYER
5
7E
100
AcDbSymbolTableRecord
100
AcDbLayerTableRecord
2
4
70
0
62
-2
6
CENTER
290
1
370
-3
390
0
0
LAYER
5
F5
100
AcDbSymbolTableRecord
100
AcDbLayerTableRecord
2
2
70
0
62
7
6
Continuous
290
1
370
-3
390
0
0
LAYER
5
211
100
AcDbSymbolTableRecord
100
AcDbLayerTableRecord
2
Defpoints
70
0
62
7
6
Continuous
290
0
370
-3
390
0
0
LAYER
5
29e
100
AcDbSymbolTableRecord
100
AcDbLayerTableRecord
2
SK4
70
0
62
2
6
CENTER
290
1
370
-3
390
0
0
LAYER
5
29f
100
AcDbSymbolTableRecord
100
AcDbLayerTableRecord
2
SK1
70
0
62
4
6
Continuous
290
1
370
-3
390
0
0
LAYER
5
2a0
100
AcDbSymbolTableRecord
100
AcDbLayerTableRecord
2
SK2
70
0
62
7
6
Continuous
290
1
370
-3
390
0
0
LAYER
5
2a1
100
AcDbSymbolTableRecord
100
AcDbLayerTableRecord
2
SK6
70
0
62
5
6
Continuous
290
1
370
-3
390
0
0
ENDTAB
0
TABLE
2
STYLE
5
2b5
100
AcDbSymbolTable
0
STYLE
5
11
100
AcDbSymbolTableRecord
100
AcDbTextStyleTableRecord
2
Standard
3
txt
70
0
71
0
40
0
41
1
42
0
50
0
0
STYLE
5
1E3
100
AcDbSymbolTableRecord
100
AcDbTextStyleTableRecord
2
iso_b_vert
3
simplex.shx
70
0
71
0
40
0
41
1
42
0
50
0
0
STYLE
5
1E4
100
AcDbSymbolTableRecord
100
AcDbTextStyleTableRecord
2
DWGDirectTextStyle
3
simplex
70
0
71
0
40
0
41
1
42
0
50
0
0
ENDTAB
0
TABLE
2
DIMSTYLE
5
2b6
100
AcDbSymbolTable
100
AcDbDimStyleTable
0
DIMSTYLE
105
27
100
AcDbSymbolTableRecord
100
AcDbDimStyleTableRecord
2
Standard
70
0
3
<>
41
0.18
42
0.0625
44
0.18
140
0.18
147
0.09
73
0
74
0
77
1
271
2
275
0
278
52
280
0
340
11
0
ENDTAB
0
TABLE
2
VIEW
5
2b7
100
AcDbSymbolTable
0
ENDTAB
0
TABLE
2
UCS
5
2b8
100
AcDbSymbolTable
0
ENDTAB
0
TABLE
2
APPID
5
2b9
100
AcDbSymbolTable
0
APPID
5
12
100
AcDbSymbolTableRecord
100
AcDbRegAppTableRecord
2
ACAD
70
0
0
APPID
5
20D
100
AcDbSymbolTableRecord
100
AcDbRegAppTableRecord
2
ACAD_DSTYLE_DIMBREAK
70
0
0
APPID
5
25D
100
AcDbSymbolTableRecord
100
AcDbRegAppTableRecord
2
ACAD_DSTYLE_DIM_LINETYPE
70
0
0
APPID
5
25E
100
AcDbSymbolTableRecord
100
AcDbRegAppTableRecord
2
ACAD_DSTYLE_DIM_EXT1_LINETYPE
70
0
0
APPID
5
25F
100
AcDbSymbolTableRecord
100
AcDbRegAppTableRecord
2
ACAD_DSTYLE_DIM_EXT2_LINETYPE
70
0
0
APPID
5
29A
100
AcDbSymbolTableRecord
100
AcDbRegAppTableRecord
2
ACAD_MLEADERVER
70
0
0
ENDTAB
0
TABLE
2
BLOCK_RECORD
5
2ba
100
AcDbSymbolTable
0
BLOCK_RECORD
5
1F
100
AcDbSymbolTableRecord
100
AcDbBlockTableRecord
2
*Model_Space
340
0
70
0
0
BLOCK_RECORD
5
1B
100
AcDbSymbolTableRecord
100
AcDbBlockTableRecord
2
*Paper_Space
340
0
70
0
0
BLOCK_RECORD
5
23
100
AcDbSymbolTableRecord
100
AcDbBlockTableRecord
2
*Paper_Space0
340
0
70
0
0
BLOCK_RECORD
5
212
100
AcDbSymbolTableRecord
100
AcDbBlockTableRecord
2
*D1
340
0
70
0
0
BLOCK_RECORD
5
21E
100
AcDbSymbolTableRecord
100
AcDbBlockTableRecord
2
_U0
340
0
70
0
0
BLOCK_RECORD
5
22A
100
AcDbSymbolTableRecord
100
AcDbBlockTableRecord
2
*D3
340
0
70
0
0
BLOCK_RECORD
5
236
100
AcDbSymbolTableRecord
100
AcDbBlockTableRecord
2
_U1
340
0
70
0
0
ENDTAB
0
ENDSEC
0
SECTION
2
BLOCKS
0
BLOCK
5
20
100
AcDbEntity
8
0
100
AcDbBlockBegin
2
*Model_Space
70
0
10
0
20
0
30
0
3
*Model_Space
0
ENDBLK
5
21
100
AcDbEntity
8
0
100
AcDbBlockEnd
0
BLOCK
5
1C
100
AcDbEntity
8
0
100
AcDbBlockBegin
2
*Paper_Space
70
0
10
0
20
0
30
0
3
*Paper_Space
0
ENDBLK
5
1D
100
AcDbEntity
8
0
100
AcDbBlockEnd
0
BLOCK
5
24
100
AcDbEntity
8
0
100
AcDbBlockBegin
2
*Paper_Space0
70
0
10
0
20
0
30
0
3
*Paper_Space0
0
ENDBLK
5
25
100
AcDbEntity
8
0
100
AcDbBlockEnd
0
BLOCK
5
213
100
AcDbEntity
8
0
100
AcDbBlockBegin
2
*D1
70
1
10
0
20
0
30
0
3
*D1
0
LINE
5
215
100
AcDbEntity
8
0
62
256
6
ByLayer
370
-2
48
1
60
0
100
AcDbLine
10
38
20
-7.5875
30
0
11
38
21
-23.060248
31
0
39
0
210
0
220
0
230
1
0
LINE
5
216
100
AcDbEntity
8
0
62
256
6
ByLayer
370
-2
48
1
60
0
100
AcDbLine
10
14
20
-7.5875
30
0
11
14
21
-23.060248
31
0
39
0
210
0
220
0
230
1
0
LINE
5
217
100
AcDbEntity
8
0
62
256
6
ByLayer
370
-2
48
1
60
0
100
AcDbLine
10
34.5
20
-21.060248
30
0
11
17.5
21
-21.060248
31
0
39
0
210
0
220
0
230
1
0
SOLID
5
218
100
AcDbEntity
8
0
62
256
6
ByLayer
370
-1
48
1
60
0
100
AcDbTrace
10
34.5
20
-21.643581
30
0
11
34.5
21
-20.476914
31
0
12
38
22
-21.060248
32
0
13
38
23
-21.060248
33
0
39
0
210
0
220
0
230
1
0
SOLID
5
219
100
AcDbEntity
8
0
62
256
6
ByLayer
370
-1
48
1
60
0
100
AcDbTrace
10
17.5
20
-20.476914
30
0
11
17.5
21
-21.643581
31
0
12
14
22
-21.060248
32
0
13
14
23
-21.060248
33
0
39
0
210
0
220
0
230
1
0
MTEXT
5
21A
100
AcDbEntity
8
0
62
256
6
ByLayer
370
18
48
1
60
0
100
AcDbMText
10
26
20
-14.060248
30
0
210
0
220
0
230
1
1
\A1;24
40
3.5
41
0
44
1
50
0
71
5
72
5
7
iso_b_vert
0
POINT
5
21B
100
AcDbEntity
8
Defpoints
62
0
6
ByLayer
370
-1
48
1
60
0
100
AcDbPoint
10
38
20
-6
30
0
39
0
210
0
220
0
230
1
50
360
0
POINT
5
21C
100
AcDbEntity
8
Defpoints
62
0
6
ByLayer
370
-1
48
1
60
0
100
AcDbPoint
10
14
20
-6
30
0
39
0
210
0
220
0
230
1
50
360
0
POINT
5
21D
100
AcDbEntity
8
Defpoints
62
0
6
ByLayer
370
-1
48
1
60
0
100
AcDbPoint
10
14
20
-21.060248
30
0
39
0
210
0
220
0
230
1
50
360
0
ENDBLK
5
214
100
AcDbEntity
8
0
100
AcDbBlockEnd
0
BLOCK
5
225
100
AcDbEntity
8
0
100
AcDbBlockBegin
2
_U0
70
0
10
0
20
0
30
0
3
_U0
0
MTEXT
5
21F
100
AcDbEntity
8
2
62
256
6
ByLayer
370
18
48
1
60
0
100
AcDbMText
10
23.910767
20
-20.027614
30
0
210
0
220
0
230
1
1
\W0.7167;24
40
3.5
41
0
44
1.084337
50
0
71
7
72
5
7
iso_b_vert
0
LINE
5
220
100
AcDbEntity
8
2
62
256
6
ByLayer
370
13
48
1
60
0
100
AcDbLine
10
38
20
-7.5875
30
0
11
38
21
-23.060248
31
0
39
0
210
0
220
0
230
1
0
LINE
5
221
100
AcDbEntity
8
2
62
256
6
ByLayer
370
13
48
1
60
0
100
AcDbLine
10
14
20
-7.5875
30
0
11
14
21
-23.060248
31
0
39
0
210
0
220
0
230
1
0
LINE
5
222
100
AcDbEntity
8
2
62
256
6
ByLayer
370
13
48
1
60
0
100
AcDbLine
10
38
20
-21.060248
30
0
11
14
21
-21.060248
31
0
39
0
210
0
220
0
230
1
0
SOLID
5
223
100
AcDbEntity
8
2
62
256
6
ByLayer
370
18
48
1
60
0
100
AcDbTrace
10
38
20
-21.060248
30
0
11
34.500002
21
-21.521031
31
0
12
34.499998
22
-20.599464
32
0
13
34.499998
23
-20.599464
33
0
39
0
210
0
220
0
230
1
0
SOLID
5
224
100
AcDbEntity
8
2
62
256
6
ByLayer
370
18
48
1
60
0
100
AcDbTrace
10
14
20
-21.060248
30
0
11
17.499998
21
-20.599464
31
0
12
17.500002
22
-21.521031
32
0
13
17.500002
23
-21.521031
33
0
39
0
210
0
220
0
230
1
0
ENDBLK
5
226
100
AcDbEntity
8
0
100
AcDbBlockEnd
0
BLOCK
5
22B
100
AcDbEntity
8
0
100
AcDbBlockBegin
2
*D3
70
1
10
0
20
0
30
0
3
*D3
0
LINE
5
22D
100
AcDbEntity
8
0
62
256
6
ByLayer
370
-2
48
1
60
0
100
AcDbLine
10
38
20
-7.5875
30
0
11
38
21
-38.060248
31
0
39
0
210
0
220
0
230
1
0
LINE
5
22E
100
AcDbEntity
8
0
62
256
6
ByLayer
370
-2
48
1
60
0
100
AcDbLine
10
1.997679
20
-7.3475
30
0
11
1.997679
21
-38.060248
31
0
39
0
210
0
220
0
230
1
0
LINE
5
22F
100
AcDbEntity
8
0
62
256
6
ByLayer
370
-2
48
1
60
0
100
AcDbLine
10
34.5
20
-36.060248
30
0
11
5.497679
21
-36.060248
31
0
39
0
210
0
220
0
230
1
0
SOLID
5
230
100
AcDbEntity
8
0
62
256
6
ByLayer
370
-1
48
1
60
0
100
AcDbTrace
10
34.5
20
-36.643581
30
0
11
34.5
21
-35.476914
31
0
12
38
22
-36.060248
32
0
13
38
23
-36.060248
33
0
39
0
210
0
220
0
230
1
0
SOLID
5
231
100
AcDbEntity
8
0
62
256
6
ByLayer
370
-1
48
1
60
0
100
AcDbTrace
10
5.497679
20
-35.476914
30
0
11
5.497679
21
-36.643581
31
0
12
1.997679
22
-36.060248
32
0
13
1.997679
23
-36.060248
33
0
39
0
210
0
220
0
230
1
0
MTEXT
5
232
100
AcDbEntity
8
0
62
256
6
ByLayer
370
18
48
1
60
0
100
AcDbMText
10
19.998839
20
-29.060248
30
0
210
0
220
0
230
1
1
\A1;36
40
3.5
41
0
44
1
50
0
71
5
72
5
7
iso_b_vert
0
POINT
5
233
100
AcDbEntity
8
Defpoints
62
0
6
ByLayer
370
-1
48
1
60
0
100
AcDbPoint
10
38
20
-6
30
0
39
0
210
0
220
0
230
1
50
360
0
POINT
5
234
100
AcDbEntity
8
Defpoints
62
0
6
ByLayer
370
-1
48
1
60
0
100
AcDbPoint
10
1.997679
20
-5.76
30
0
39
0
210
0
220
0
230
1
50
360
0
POINT
5
235
100
AcDbEntity
8
Defpoints
62
0
6
ByLayer
370
-1
48
1
60
0
100
AcDbPoint
10
1.997679
20
-36.060248
30
0
39
0
210
0
220
0
230
1
50
360
0
ENDBLK
5
22C
100
AcDbEntity
8
0
100
AcDbBlockEnd
0
BLOCK
5
23D
100
AcDbEntity
8
0
100
AcDbBlockBegin
2
_U1
70
0
10
0
20
0
30
0
3
_U1
0
MTEXT
5
237
100
AcDbEntity
8
SK2
62
256
6
ByLayer
370
18
48
1
60
0
100
AcDbMText
10
18.093873
20
-35.027614
30
0
210
0
220
0
230
1
1
\W0.6740;36
40
3.5
41
0
44
1.084337
50
0
71
7
72
5
7
iso_b_vert
0
LINE
5
238
100
AcDbEntity
8
SK2
62
256
6
ByLayer
370
13
48
1
60
0
100
AcDbLine
10
38
20
-7.5875
30
0
11
38
21
-38.060248
31
0
39
0
210
0
220
0
230
1
0
LINE
5
239
100
AcDbEntity
8
SK2
62
256
6
ByLayer
370
13
48
1
60
0
100
AcDbLine
10
1.997679
20
-7.3475
30
0
11
1.997679
21
-38.060248
31
0
39
0
210
0
220
0
230
1
0
LINE
5
23A
100
AcDbEntity
8
SK2
62
256
6
ByLayer
370
13
48
1
60
0
100
AcDbLine
10
38
20
-36.060248
30
0
11
1.997679
21
-36.060248
31
0
39
0
210
0
220
0
230
1
0
SOLID
5
23B
100
AcDbEntity
8
SK2
62
256
6
ByLayer
370
18
48
1
60
0
100
AcDbTrace
10
38
20
-36.060248
30
0
11
34.500002
21
-36.521031
31
0
12
34.499998
22
-35.599464
32
0
13
34.499998
23
-35.599464
33
0
39
0
210
0
220
0
230
1
0
SOLID
5
23C
100
AcDbEntity
8
SK2
62
256
6
ByLayer
370
18
48
1
60
0
100
AcDbTrace
10
1.997679
20
-36.060248
30
0
11
5.497677
21
-35.599464
31
0
12
5.497681
22
-36.521031
32
0
13
5.497681
23
-36.521031
33
0
39
0
210
0
220
0
230
1
0
ENDBLK
5
23E
100
AcDbEntity
8
0
100
AcDbBlockEnd
0
ENDSEC
0
SECTION
2
ENTITIES
0
ARC
5
107
100
AcDbEntity
8
1
62
256
6
ByLayer
370
18
48
1
60
0
100
AcDbCircle
39
0
10
13.316359
20
-6.76
30
0
40
1
210
0
220
0
230
1
100
AcDbArc
50
60
51
90
0
ARC
5
108
100
AcDbEntity
8
1
62
256
6
ByLayer
370
18
48
1
60
0
100
AcDbCircle
39
0
10
1.997679
20
6.76
30
0
40
1
210
0
220
0
230
1
100
AcDbArc
50
240
51
270
0
ARC
5
109
100
AcDbEntity
8
1
62
256
6
ByLayer
370
18
48
1
60
0
100
AcDbCircle
39
0
10
1.997679
20
-6.76
30
0
40
1
210
0
220
0
230
1
100
AcDbArc
50
90
51
120
0
ELLIPSE
5
10A
100
AcDbEntity
8
1
62
256
6
ByLayer
370
18
48
1
60
0
100
AcDbEllipse
10
185.249454
20
19.084465
30
0
11
175.442969096698
21
20.2121601016421
31
0
210
0
220
0
230
1
40
0.149773
41
2.9045909522841
42
2.90944485805999
0
ELLIPSE
5
10B
100
AcDbEntity
8
1
62
256
6
ByLayer
370
18
48
1
60
0
100
AcDbEllipse
10
37.86155
20
-1.045586
30
0
11
0.0173468391615497
21
-0.796960142768345
31
0
210
0
220
0
230
1
40
0.54939
41
-1.85284145340238
42
-0.939104063054411
0
ELLIPSE
5
10C
100
AcDbEntity
8
1
62
256
6
ByLayer
370
18
48
1
60
0
100
AcDbEllipse
10
37.395836
20
-1.081175
30
0
11
0.406501170653387
21
-0.355285133965755
31
0
210
0
220
0
230
1
40
0.453109
41
-1.67193296122882
42
-1.61561752501259
0
ELLIPSE
5
10D
100
AcDbEntity
8
1
62
256
6
ByLayer
370
18
48
1
60
0
100
AcDbEllipse
10
52.652185
20
-12.156774
30
0
11
42.4734023347854
21
-15.0181625933508
31
0
210
0
220
0
230
1
40
0.255528
41
-2.62553600286751
42
-2.61523103476374
0
ELLIPSE
5
10E
100
AcDbEntity
8
1
62
256
6
ByLayer
370
18
48
1
60
0
100
AcDbEllipse
10
62.354817
20
-29.535072
30
0
11
52.3820344097769
21
-33.1920901073159
31
0
210
0
220
0
230
1
40
0.045306
41
-2.72641481314191
42
-2.71722175973085
0
POINT
5
70
100
AcDbEntity
8
80
62
256
6
ByLayer
370
18
48
1
60
0
100
AcDbPoint
10
0
20
0
30
0
39
0
210
0
220
0
230
1
50
360
0
POINT
5
72
100
AcDbEntity
8
81
62
256
6
ByLayer
370
18
48
1
60
0
100
AcDbPoint
10
38
20
0
30
0
39
0
210
0
220
0
230
1
50
360
0
POINT
5
74
100
AcDbEntity
8
1
62
256
6
ByLayer
370
18
48
1
60
1
100
AcDbPoint
10
38
20
-6
30
0
39
0
210
0
220
0
230
1
50
360
0
POINT
5
76
100
AcDbEntity
8
1
62
256
6
ByLayer
370
18
48
1
60
1
100
AcDbPoint
10
14
20
-6
30
0
39
0
210
0
220
0
230
1
50
360
0
POINT
5
77
100
AcDbEntity
8
1
62
256
6
ByLayer
370
18
48
1
60
1
100
AcDbPoint
10
38
20
-6
30
0
39
0
210
0
220
0
230
1
50
360
0
POINT
5
78
100
AcDbEntity
8
1
62
256
6
ByLayer
370
18
48
1
60
1
100
AcDbPoint
10
1.997679
20
-5.76
30
0
39
0
210
0
220
0
230
1
50
360
0
SPLINE
5
10F
100
AcDbEntity
8
1
62
256
6
ByLayer
370
18
48
1
60
0
100
AcDbSpline
70
4
71
3
72
10
73
6
40
0
40
0
40
0
40
0
40
0.74136024726525
40
0.74136024726525
40
1
40
1
40
1
40
1
41
1
10
37.986523626063
20
-1.53748248872518
30
0
41
1
10
37.987303642551
20
-1.54695415773088
30
0
41
1
10
37.9855456423449
20
-1.55651704391781
30
0
41
1
10
37.9799264932099
20
-1.56953288048689
30
0
41
1
10
37.9781816726634
20
-1.57291034915374
30
0
41
1
10
37.9761416641426
20
-1.5762983972358
30
0
0
SPLINE
5
110
100
AcDbEntity
8
1
62
256
6
ByLayer
370
18
48
1
60
0
100
AcDbSpline
70
4
71
3
72
10
73
6
40
0
40
0
40
0
40
0
40
0.0638882607110064
40
0.0638882607110064
40
1
40
1
40
1
40
1
41
1
10
13.7532555945889
20
5.41173416816204
30
0
41
1
10
13.7546208932906
20
5.41271905352318
30
0
41
1
10
13.7559848065007
20
5.41370655950519
30
0
41
1
10
13.7773107100843
20
5.42920387254398
30
0
41
1
10
13.7969832074357
20
5.44427614165269
30
0
41
1
10
13.8163586137524
20
5.45992542667577
30
0
0
SPLINE
5
111
100
AcDbEntity
8
1
62
256
6
ByLayer
370
18
48
1
60
0
100
AcDbSpline
70
4
71
3
72
8
73
4
40
0
40
0
40
0
40
0
40
1
40
1
40
1
40
1
41
1
10
37.9865236260357
20
-1.53748248882781
30
0
41
1
10
37.9590395392454
20
-1.73474370165084
30
0
41
1
10
37.9315554524551
20
-1.93200491447385
30
0
41
1
10
37.9040713656647
20
-2.12926612729689
30
0
0
SPLINE
5
112
100
AcDbEntity
8
1
62
256
6
ByLayer
370
18
48
1
60
0
100
AcDbSpline
70
4
71
3
72
12
73
8
40
0
40
0
40
0
40
0
40
0.348234932923272
40
0.348234932923272
40
0.696469865846543
40
0.696469865846543
40
1
40
1
40
1
40
1
41
1
10
37.9865236260633
20
-5.04216317578971
30
0
41
1
10
37.9872964331692
20
-5.06946454289925
30
0
41
1
10
37.9855853924243
20
-5.09650562436084
30
0
41
1
10
37.9774630150722
20
-5.15009523713499
30
0
41
1
10
37.9710678106514
20
-5.17664545896812
30
0
41
1
10
37.954561214754
20
-5.22586205091056
30
0
41
1
10
37.9452014322447
20
-5.24807240093566
30
0
41
1
10
37.9342573368417
20
-5.26954245258619
30
0
0
SPLINE
5
113
100
AcDbEntity
8
1
62
256
6
ByLayer
370
13
48
1
60
0
100
AcDbSpline
70
4
71
3
72
8
73
4
40
0
40
0
40
0
40
0
40
1
40
1
40
1
40
1
41
1
10
37.9865236260502
20
-5.04216317580736
30
0
41
1
10
37.9537380246305
20
-5.10295959249507
30
0
41
1
10
37.9209524232107
20
-5.16375600918281
30
0
41
1
10
37.8881668217909
20
-5.22455242587051
30
0
0
SPLINE
5
114
100
AcDbEntity
8
1
62
256
6
ByLayer
370
18
48
1
60
0
100
AcDbSpline
70
4
71
3
72
8
73
4
40
0
40
0
40
0
40
0
40
1
40
1
40
1
40
1
41
1
10
13.9991400483724
20
-5.95592586197694
30
0
41
1
10
14.0321290777363
20
-5.95293594737333
30
0
41
1
10
14.0651193990812
20
-5.94979149561266
30
0
41
1
10
14.0981112073674
20
-5.94649317854638
30
0
0
SPLINE
5
115
100
AcDbEntity
8
1
62
256
6
ByLayer
370
18
48
1
60
0
100
AcDbSpline
70
4
71
3
72
34
73
30
40
0
40
0
40
0
40
0
40
0.250000000000029
40
0.250000000000029
40
0.375000000000045
40
0.375000000000045
40
0.50000000000006
40
0.50000000000006
40
0.562500000000059
40
0.562500000000059
40
0.625000000000057
40
0.625000000000057
40
0.687500000000055
40
0.687500000000055
40
0.750000000000053
40
0.750000000000053
40
0.812500000000051
40
0.812500000000051
40
0.843750000000042
40
0.843750000000042
40
0.875000000000034
40
0.875000000000034
40
0.906250000000025
40
0.906250000000025
40
0.937500000000017
40
0.937500000000017
40
0.968750000000008
40
0.968750000000008
40
1
40
1
40
1
40
1
41
1
10
37.6816734880632
20
-5.69992476101643
30
0
41
1
10
37.7023189483111
20
-5.67285555579392
30
0
41
1
10
37.7227790697891
20
-5.64435810700979
30
0
41
1
10
37.7530577496449
20
-5.59844084556778
30
0
41
1
10
37.763081294154
20
-5.58260068147806
30
0
41
1
10
37.7829479756684
20
-5.54953011068432
30
0
41
1
10
37.7927921010938
20
-5.53230732086828
30
0
41
1
10
37.8073692634669
20
-5.50501648014
30
0
41
1
10
37.8121964767071
20
-5.49567416342546
30
0
41
1
10
37.821771443454
20
-5.4763772034288
30
0
41
1
10
37.8265303261335
20
-5.46639910383101
30
0
41
1
10
37.8358898113991
20
-5.44577396777527
30
0
41
1
10
37.8404816727095
20
-5.43515018535507
30
0
41
1
10
37.8494358070171
20
-5.41308957871559
30
0
41
1
10
37.8538145087591
20
-5.40161012253762
30
0
41
1
10
37.8621715768429
20
-5.37775828504519
30
0
41
1
10
37.8661423299898
20
-5.36542078016311
30
0
41
1
10
37.8716578629621
20
-5.34604175966035
30
0
41
1
10
37.8734222864072
20
-5.33943532864734
30
0
41
1
10
37.8767678194993
20
-5.32585934653093
30
0
41
1
10
37.8783547660796
20
-5.31885657486154
30
0
41
1
10
37.8812311148303
20
-5.30471239729778
30
0
41
1
10
37.8825281713909
20
-5.29754501684354
30
0
41
1
10
37.8847839495333
20
-5.28298179076234
30
0
41
1
10
37.8857484211432
20
-5.27551890296843
30
0
41
1
10
37.8872278922301
20
-5.260708851933
30
0
41
1
10
37.8877464778201
20
-5.2533683844612
30
0
41
1
10
37.8883155119128
20
-5.23882410799359
30
0
41
1
10
37.8883633780763
20
-5.23157782416837
30
0
41
1
10
37.8881668217915
20
-5.22455242587603
30
0
0
SPLINE
5
116
100
AcDbEntity
8
1
62
256
6
ByLayer
370
18
48
1
60
0
100
AcDbSpline
70
4
71
3
72
10
73
6
40
0
40
0
40
0
40
0
40
0.5
40
0.5
40
1
40
1
40
1
40
1
41
1
10
13.9216631615294
20
-5.95194946015292
30
0
41
1
10
13.9294398540313
20
-5.95365752224862
30
0
41
1
10
13.9400945496512
20
-5.95498241188935
30
0
41
1
10
13.9662131648696
20
-5.95643154163503
30
0
41
1
10
13.9816721464091
20
-5.95655643195872
30
0
41
1
10
13.9991400483724
20
-5.95592586197694
30
0
0
SPLINE
5
117
100
AcDbEntity
8
1
62
256
6
ByLayer
370
18
48
1
60
0
100
AcDbSpline
70
4
71
3
72
28
73
24
40
0
40
0
40
0
40
0
40
0.125000000000012
40
0.125000000000012
40
0.250000000000025
40
0.250000000000025
40
0.312500000000031
40
0.312500000000031
40
0.375000000000037
40
0.375000000000037
40
0.500000000000049
40
0.500000000000049
40
0.562500000000056
40
0.562500000000056
40
0.625000000000062
40
0.625000000000062
40
0.750000000000028
40
0.750000000000028
40
0.812500000000035
40
0.812500000000035
40
0.875000000000041
40
0.875000000000041
40
1
40
1
40
1
40
1
41
1
10
37.9865236260629
20
5.48257040946424
30
0
41
1
10
37.9872897477081
20
5.51141372768717
30
0
41
1
10
37.9856184423191
20
5.53988687957849
30
0
41
1
10
37.9776691476122
20
5.59613357706738
30
0
41
1
10
37.9714064739788
20
5.62390944862238
30
0
41
1
10
37.9584565097294
20
5.66503322158425
30
0
41
1
10
37.9535821601351
20
5.67852195493805
30
0
41
1
10
37.9428133631076
20
5.70489300373089
30
0
41
1
10
37.9369087066125
20
5.71780453234516
30
0
41
1
10
37.9176609133449
20
5.75573132424358
30
0
41
1
10
37.9028032390052
20
5.77994895073954
30
0
41
1
10
37.8773321837861
20
5.81459823880925
30
0
41
1
10
37.8683510270545
20
5.82579989370129
30
0
41
1
10
37.8496392448565
20
5.84724757289669
30
0
41
1
10
37.8398779718593
20
5.85753644600817
30
0
41
1
10
37.8093917128663
20
5.88711287181229
30
0
41
1
10
37.7874789850563
20
5.90512600182893
30
0
41
1
10
37.7520918623607
20
5.92944390110841
30
0
41
1
10
37.7398797134434
20
5.93708371958857
30
0
41
1
10
37.7150851452622
20
5.95114621762516
30
0
41
1
10
37.7024447027031
20
5.95761067740381
30
0
41
1
10
37.6638004243767
20
5.97531889787501
30
0
41
1
10
37.6370840689039
20
5.98490181366833
30
0
41
1
10
37.6093576721027
20
5.99213037774936
30
0
0
SPLINE
5
118
100
AcDbEntity
8
1
62
256
6
ByLayer
370
18
48
1
60
0
100
AcDbSpline
70
4
71
3
72
16
73
12
40
0
40
0
40
0
40
0
40
0.154810384681204
40
0.154810384681204
40
0.295675320567666
40
0.295675320567666
40
0.366107788510898
40
0.366107788510898
40
0.436540256454129
40
0.436540256454129
40
1
40
1
40
1
40
1
41
1
10
34.8416482315579
20
5.53393894096141
30
0
41
1
10
34.9754464682118
20
5.57296377077409
30
0
41
1
10
35.1094493551635
20
5.60969460430729
30
0
41
1
10
35.3659069157644
20
5.67535141888456
30
0
41
1
10
35.4883142809676
20
5.70468455004445
30
0
41
1
10
35.6723419524168
20
5.74570389594598
30
0
41
1
10
35.7337899159921
20
5.758887438789
30
0
41
1
10
35.8566314521886
20
5.78420815927794
30
0
41
1
10
35.9180197401913
20
5.79634501640771
30
0
41
1
10
36.4702779557855
20
5.9008631457954
30
0
41
1
10
36.9595420699983
20
5.96029658469172
30
0
41
1
10
37.4500276446824
20
5.98575853635896
30
0
0
SPLINE
5
119
100
AcDbEntity
8
1
62
256
6
ByLayer
370
18
48
1
60
0
100
AcDbSpline
70
4
71
3
72
8
73
4
40
0
40
0
40
0
40
0
40
1
40
1
40
1
40
1
41
1
10
37.6042091512299
20
5.99263907834217
30
0
41
1
10
37.6059250666986
20
5.99247850993046
30
0
41
1
10
37.607641236894
20
5.99230897127904
30
0
41
1
10
37.6093576721028
20
5.99213037774928
30
0
0
SPLINE
5
11A
100
AcDbEntity
8
1
62
256
6
ByLayer
370
18
48
1
60
0
100
AcDbSpline
70
4
71
3
72
8
73
4
40
0
40
0
40
0
40
0
40
1
40
1
40
1
40
1
41
1
10
37.4503619690563
20
5.98577588643454
30
0
41
1
10
37.5016306021211
20
5.98843571049684
30
0
41
1
10
37.5529120394208
20
5.99072378297285
30
0
41
1
10
37.6042091512299
20
5.99263907834342
30
0
0
SPLINE
5
11B
100
AcDbEntity
8
1
62
256
6
ByLayer
370
18
48
1
60
0
100
AcDbSpline
70
4
71
3
72
8
73
4
40
0
40
0
40
0
40
0
40
1
40
1
40
1
40
1
41
1
10
37.4500255260871
20
5.98573390958515
30
0
41
1
10
37.4501376737614
20
5.9857479020817
30
0
41
1
10
37.4502498214181
20
5.98576189436491
30
0
41
1
10
37.4503619690571
20
5.98577588643471
30
0
0
SPLINE
5
11C
100
AcDbEntity
8
1
62
256
6
ByLayer
370
18
48
1
60
0
100
AcDbSpline
70
4
71
3
72
8
73
4
40
0
40
0
40
0
40
0
40
1
40
1
40
1
40
1
41
1
10
37.6093576721031
20
5.99213037774945
30
0
41
1
10
37.6536681950818
20
5.85397530770717
30
0
41
1
10
37.7011252987456
20
5.71693441971382
30
0
41
1
10
37.7523927582789
20
5.58124275370272
30
0
0
SPLINE
5
11D
100
AcDbEntity
8
1
62
256
6
ByLayer
370
18
48
1
60
0
100
AcDbSpline
70
4
71
3
72
20
73
16
40
0
40
0
40
0
40
0
40
0.103024181355433
40
0.103024181355433
40
0.231163584018943
40
0.231163584018943
40
0.359302986682453
40
0.359302986682453
40
0.487442389345964
40
0.487442389345964
40
0.615581792009474
40
0.615581792009474
40
0.743721194672984
40
0.743721194672984
40
1
40
1
40
1
40
1
41
1
10
16.8863866595906
20
-5.60111761997376
30
0
41
1
10
16.7872371285805
20
-5.61932149918357
30
0
41
1
10
16.6880773307288
20
-5.63620905728575
30
0
41
1
10
16.4656430484159
20
-5.67114012537778
30
0
41
1
10
16.342361288613
20
-5.68847191198986
30
0
41
1
10
16.0957259331521
20
-5.71910624512662
30
0
41
1
10
15.9723763974608
20
-5.73239207522269
30
0
41
1
10
15.7258233108908
20
-5.75481752539002
30
0
41
1
10
15.6025779221223
20
-5.76397795244668
30
0
41
1
10
15.3560610361273
20
-5.77816646900493
30
0
41
1
10
15.2327951905888
20
-5.78318009468978
30
0
41
1
10
14.9861619101284
20
-5.78898628903903
30
0
41
1
10
14.8628485210031
20
-5.78978150558765
30
0
41
1
10
14.4930947459931
20
-5.78583065229344
30
0
41
1
10
14.2467136785495
20
-5.77473436589329
30
0
41
1
10
14
20
-5.75529830146957
30
0
0
SPLINE
5
11E
100
AcDbEntity
8
1
62
256
6
ByLayer
370
18
48
1
60
0
100
AcDbSpline
70
4
71
3
72
13
73
9
40
0
40
0
40
0
40
0
40
0.0154775265721681
40
0.19913952026869
40
0.382801513965211
40
0.750125501358254
40
0.933787495054775
40
1
40
1
40
1
40
1
41
1
10
13.9216631615294
20
-5.95194946015292
30
0
41
1
10
13.9311620571013
20
-5.95173360628942
30
0
41
1
10
14.0533796014609
20
-5.94879192858591
30
0
41
1
10
14.2883487777685
20
-5.93906452656933
30
0
41
1
10
14.7394607144734
20
-5.90607809210371
30
0
41
1
10
15.1908981881189
20
-5.85157302921843
30
0
41
1
10
15.5705883877912
20
-5.78790898756279
30
0
41
1
10
15.7243828111495
20
-5.75891418004306
30
0
41
1
10
15.7651409863921
20
-5.75100525679193
30
0
0
SPLINE
5
11F
100
AcDbEntity
8
1
62
256
6
ByLayer
370
13
48
1
60
0
100
AcDbSpline
70
4
71
3
72
8
73
4
40
0
40
0
40
0
40
0
40
1
40
1
40
1
40
1
41
1
10
16.5460347846233
20
-5.58903693100004
30
0
41
1
10
15.6973565230822
20
-5.69973427697658
30
0
41
1
10
14.8486782615411
20
-5.71515628915481
30
0
41
1
10
14
20
-5.63185760996856
30
0
0
SPLINE
5
120
100
AcDbEntity
8
1
62
256
6
ByLayer
370
18
48
1
60
0
100
AcDbSpline
70
4
71
3
72
30
73
26
40
0
40
0
40
0
40
0
40
0.180913610138037
40
0.180913610138037
40
0.271370415207052
40
0.271370415207052
40
0.31659881774156
40
0.31659881774156
40
0.361827220276068
40
0.361827220276068
40
0.542740830414094
40
0.542740830414094
40
0.63319763548311
40
0.63319763548311
40
0.678426038017618
40
0.678426038017618
40
0.723654440552125
40
0.723654440552125
40
0.90456805069011
40
0.90456805069011
40
0.949796453224606
40
0.949796453224606
40
0.995024855759102
40
0.995024855759102
40
1
40
1
40
1
40
1
41
1
10
37.7523927295903
20
5.58124274324547
30
0
41
1
10
37.7736675113899
20
5.52491853365404
30
0
41
1
10
37.7909603581287
20
5.46768117122687
30
0
41
1
10
37.8098722174224
20
5.38021357108974
30
0
41
1
10
37.8149997805513
20
5.35078792975412
30
0
41
1
10
37.8207336269671
20
5.30620056613282
30
0
41
1
10
37.8223181552421
20
5.29126317904215
30
0
41
1
10
37.8247945350783
20
5.26122955736602
30
0
41
1
10
37.8256859435005
20
5.24610070082679
30
0
41
1
10
37.8282869286897
20
5.17085212760477
30
0
41
1
10
37.8245118389373
20
5.11140718311273
30
0
41
1
10
37.8094521608605
20
5.02344958726482
30
0
41
1
10
37.8028626376405
20
4.99433247048566
30
0
41
1
10
37.7905145172085
20
4.95097400144672
30
0
41
1
10
37.7859876012802
20
4.93657407657255
30
0
41
1
10
37.7760908241915
20
4.90788275167603
30
0
41
1
10
37.7707504178997
20
4.89368177960665
30
0
41
1
10
37.7422996043097
20
4.82379757333842
30
0
41
1
10
37.713812966042
20
4.77103339399591
30
0
41
1
10
37.6718676639126
20
4.70855676306783
30
0
41
1
10
37.6631607143174
20
4.69623593686171
30
0
41
1
10
37.6451277845421
20
4.67193409100662
30
0
41
1
10
37.6357805695971
20
4.65992871915657
30
0
41
1
10
37.6251684131697
20
4.64690334409028
30
0
41
1
10
37.6241140166168
20
4.64561555806094
30
0
41
1
10
37.6230569009538
20
4.64433077318412
30
0
0
SPLINE
5
121
100
AcDbEntity
8
1
62
256
6
ByLayer
370
18
48
1
60
0
100
AcDbSpline
70
4
71
3
72
8
73
4
40
0
40
0
40
0
40
0
40
1
40
1
40
1
40
1
41
1
10
37.7523927344057
20
5.58124274255118
30
0
41
1
10
37.0722330559084
20
5.55939638045689
30
0
41
1
10
36.3920733774112
20
5.47408329904559
30
0
41
1
10
35.7119136989139
20
5.33163965985784
30
0
0
SPLINE
5
122
100
AcDbEntity
8
1
62
256
6
ByLayer
370
18
48
1
60
0
100
AcDbSpline
70
4
71
3
72
12
73
8
40
0
40
0
40
0
40
0
40
0.25
40
0.25
40
0.5
40
0.5
40
1
40
1
40
1
40
1
41
1
10
13.5562710838314
20
-5.71339508983448
30
0
41
1
10
13.579713491454
20
-5.72989746675714
30
0
41
1
10
13.6024838939822
20
-5.7460141688949
30
0
41
1
10
13.6471969302431
20
-5.77743425553555
30
0
41
1
10
13.6691272176588
20
-5.79273901024561
30
0
41
1
10
13.7339054754435
20
-5.83743897477297
30
0
41
1
10
13.7757575982432
20
-5.86561508033975
30
0
41
1
10
13.8163586137524
20
-5.89227483950413
30
0
0
SPLINE
5
123
100
AcDbEntity
8
1
62
256
6
ByLayer
370
18
48
1
60
0
100
AcDbSpline
70
4
71
3
72
8
73
4
40
0
40
0
40
0
40
0
40
1
40
1
40
1
40
1
41
1
10
16.4317554514126
20
-5.55729775993905
30
0
41
1
10
15.6211703009418
20
-5.6333938592121
30
0
41
1
10
14.810585150471
20
-5.62336648955511
30
0
41
1
10
14
20
-5.52268490353521
30
0
0
SPLINE
5
124
100
AcDbEntity
8
1
62
256
6
ByLayer
370
18
48
1
60
0
100
AcDbSpline
70
4
71
3
72
10
73
6
40
0
40
0
40
0
40
0
40
0.5
40
0.5
40
1
40
1
40
1
40
1
41
1
10
14
20
-5.75529830146954
30
0
41
1
10
13.925438826807
20
-5.74996392282586
30
0
41
1
10
13.8511839957234
20
-5.74381657491622
30
0
41
1
10
13.7032533374383
20
-5.72986304489703
30
0
41
1
10
13.6295629331273
20
-5.7220575361298
30
0
41
1
10
13.5562710838174
20
-5.71339508983849
30
0
0
SPLINE
5
125
100
AcDbEntity
8
1
62
256
6
ByLayer
370
18
48
1
60
0
100
AcDbSpline
70
4
71
3
72
10
73
6
40
0
40
0
40
0
40
0
40
0.5
40
0.5
40
1
40
1
40
1
40
1
41
1
10
13.5562710838222
20
-5.71339508983255
30
0
41
1
10
13.5179941447159
20
-5.69823813946169
30
0
41
1
10
13.4792584930252
20
-5.68499361470759
30
0
41
1
10
13.3997609471771
20
-5.66260198083049
30
0
41
1
10
13.3590007004583
20
-5.65343864266123
30
0
41
1
10
13.3163586137527
20
-5.64695681468328
30
0
0
SPLINE
5
126
100
AcDbEntity
8
1
62
256
6
ByLayer
370
18
48
1
60
0
100
AcDbSpline
70
4
71
3
72
14
73
10
40
0
40
0
40
0
40
0
40
0.25
40
0.25
40
0.5
40
0.5
40
0.75
40
0.75
40
1
40
1
40
1
40
1
41
1
10
37.4925102719803
20
4.74410631726093
30
0
41
1
10
37.5009451653742
20
4.74109146635496
30
0
41
1
10
37.509650215065
20
4.73672701903422
30
0
41
1
10
37.5275500615045
20
4.72555153061035
30
0
41
1
10
37.5367573941955
20
4.71872653017263
30
0
41
1
10
37.5555149341122
20
4.70288263343065
30
0
41
1
10
37.5650879978652
20
4.69384621791687
30
0
41
1
10
37.5845178391378
20
4.67375765511045
30
0
41
1
10
37.5943679104771
20
4.6627146950897
30
0
41
1
10
37.604346647341
20
4.65072097807186
30
0
0
SPLINE
5
127
100
AcDbEntity
8
1
62
256
6
ByLayer
370
18
48
1
60
0
100
AcDbSpline
70
4
71
3
72
8
73
4
40
0
40
0
40
0
40
0
40
1
40
1
40
1
40
1
41
1
10
13.3163586137525
20
4.90874322650851
30
0
41
1
10
13.4004160726294
20
4.88462412625671
30
0
41
1
10
13.4821818100077
20
4.86801419278478
30
0
41
1
10
13.5608219652213
20
4.85683190553661
30
0
0
SPLINE
5
128
100
AcDbEntity
8
1
62
256
6
ByLayer
370
18
48
1
60
0
100
AcDbSpline
70
4
71
3
72
8
73
4
40
0
40
0
40
0
40
0
40
1
40
1
40
1
40
1
41
1
10
37.3729028373178
20
-4.87471612129153
30
0
41
1
10
37.3986033728169
20
-4.99854767497192
30
0
41
1
10
37.4243039083159
20
-5.12237922865231
30
0
41
1
10
37.4500044438149
20
-5.24621078233267
30
0
0
SPLINE
5
129
100
AcDbEntity
8
1
62
256
6
ByLayer
370
18
48
1
60
0
100
AcDbSpline
70
4
71
3
72
8
73
4
40
0
40
0
40
0
40
0
40
1
40
1
40
1
40
1
41
1
10
37.4866417554515
20
-5.25039608146179
30
0
41
1
10
37.4747378704263
20
-5.24908243774777
30
0
41
1
10
37.4628162516615
20
-5.24781337119038
30
0
41
1
10
37.450874723259
20
-5.24659464807323
30
0
0
SPLINE
5
12A
100
AcDbEntity
8
1
62
256
6
ByLayer
370
18
48
1
60
0
100
AcDbSpline
70
4
71
3
72
10
73
6
40
0
40
0
40
0
40
0
40
0.847095146841706
40
0.847095146841706
40
1
40
1
40
1
40
1
41
1
10
37.6043466494835
20
4.65072097753705
30
0
41
1
10
37.6116207765516
20
4.64197449894965
30
0
41
1
10
37.6187516733892
20
4.63420944967936
30
0
41
1
10
37.6269854054271
20
4.62630583347087
30
0
41
1
10
37.6282398641709
20
4.62513190228441
30
0
41
1
10
37.6294890396161
20
4.62399396217401
30
0
0
SPLINE
5
12B
100
AcDbEntity
8
1
62
256
6
ByLayer
370
13
48
1
60
0
100
AcDbSpline
70
4
71
3
72
8
73
4
40
0
40
0
40
0
40
0
40
1
40
1
40
1
40
1
41
1
10
37.6043466504898
20
4.65072097846232
30
0
41
1
10
37.4397309769344
20
4.71708138551156
30
0
41
1
10
37.275115303379
20
4.78054208694155
30
0
41
1
10
37.1104996298237
20
4.84100929897087
30
0
0
SPLINE
5
12C
100
AcDbEntity
8
1
62
256
6
ByLayer
370
13
48
1
60
0
100
AcDbSpline
70
4
71
3
72
8
73
4
40
0
40
0
40
0
40
0
40
1
40
1
40
1
40
1
41
1
10
37.986523626052
20
-4.87693786966716
30
0
41
1
10
37.9537380246243
20
-4.71896871126944
30
0
41
1
10
37.9209524231965
20
-4.56099955287172
30
0
41
1
10
37.8881668217687
20
-4.403030394474
30
0
0
SPLINE
5
12D
100
AcDbEntity
8
1
62
256
6
ByLayer
370
13
48
1
60
0
100
AcDbSpline
70
4
71
3
72
8
73
4
40
0
40
0
40
0
40
0
40
1
40
1
40
1
40
1
41
1
10
37.4866417554515
20
-5.25039608146179
30
0
41
1
10
37.4617418045733
20
-5.13042194302659
30
0
41
1
10
37.436841853695
20
-5.01044780459142
30
0
41
1
10
37.4119419028168
20
-4.89047366615623
30
0
0
SPLINE
5
12E
100
AcDbEntity
8
1
62
256
6
ByLayer
370
18
48
1
60
0
100
AcDbSpline
70
4
71
3
72
28
73
24
40
0
40
0
40
0
40
0
40
0.125000000000044
40
0.125000000000044
40
0.250000000000089
40
0.250000000000089
40
0.312500000000113
40
0.312500000000113
40
0.375000000000137
40
0.375000000000137
40
0.500000000000156
40
0.500000000000156
40
0.562500000000147
40
0.562500000000147
40
0.625000000000138
40
0.625000000000138
40
0.750000000000074
40
0.750000000000074
40
0.812500000000041
40
0.812500000000041
40
0.875000000000009
40
0.875000000000009
40
1
40
1
40
1
40
1
41
1
10
37.9865236260633
20
-4.87693786968435
30
0
41
1
10
37.9872808722128
20
-4.90177496603852
30
0
41
1
10
37.9856603595764
20
-4.92620944822357
30
0
41
1
10
37.9779306936006
20
-4.97431837312789
30
0
41
1
10
37.9718359748128
20
-4.99799525999708
30
0
41
1
10
37.9592383416042
20
-5.03292547818279
30
0
41
1
10
37.954483991257
20
-5.04439423738177
30
0
41
1
10
37.9439886062404
20
-5.06675530553434
30
0
41
1
10
37.9382335299734
20
-5.07768450864887
30
0
41
1
10
37.9194738176587
20
-5.10973183024711
30
0
41
1
10
37.9049939377779
20
-5.13011919130113
30
0
41
1
10
37.8801865692464
20
-5.15917082526238
30
0
41
1
10
37.8714037878016
20
-5.16858373437438
30
0
41
1
10
37.8531197417721
20
-5.18654889564692
30
0
41
1
10
37.8435815520234
20
-5.19514677305401
30
0
41
1
10
37.813794152461
20
-5.21980151204934
30
0
41
1
10
37.7923863924221
20
-5.23473334729243
30
0
41
1
10
37.7578361760654
20
-5.25476308665191
30
0
41
1
10
37.7458644252276
20
-5.26105997187159
30
0
41
1
10
37.7215305457569
20
-5.27260903800283
30
0
41
1
10
37.7091255741977
20
-5.27789056533459
30
0
41
1
10
37.6712049553262
20
-5.29227350993921
30
0
41
1
10
37.6449930723821
20
-5.2999329008772
30
0
41
1
10
37.6178052332659
20
-5.30557091508919
30
0
0
SPLINE
5
12F
100
AcDbEntity
8
1
62
256
6
ByLayer
370
18
48
1
60
0
100
AcDbSpline
70
4
71
3
72
31
73
27
40
0
40
0
40
0
40
0
40
0.249999999999998
40
0.249999999999998
40
0.374999999999999
40
0.374999999999999
40
0.499999999999999
40
0.499999999999999
40
0.625
40
0.625
40
0.6875
40
0.6875
40
0.75
40
0.75
40
0.8125
40
0.8125
40
0.84375
40
0.84375
40
0.875
40
0.90625
40
0.90625
40
0.9375
40
0.9375
40
0.96875
40
0.96875
40
1
40
1
40
1
40
1
41
1
10
37.6785160697307
20
-4.38132956218629
30
0
41
1
10
37.6995050585463
20
-4.40147545274147
30
0
41
1
10
37.7203477194267
20
-4.42000905341834
30
0
41
1
10
37.7512814865748
20
-4.44417093462374
30
0
41
1
10
37.7615262185683
20
-4.45160169081311
30
0
41
1
10
37.7818036636984
20
-4.46481388818606
30
0
41
1
10
37.7918531753605
20
-4.47061275753558
30
0
41
1
10
37.8116242589477
20
-4.47990646443606
30
0
41
1
10
37.8213103287552
20
-4.48339974267992
30
0
41
1
10
37.8353785891583
20
-4.4859745310774
30
0
41
1
10
37.8399903688943
20
-4.48638378827658
30
0
41
1
10
37.8490085052119
20
-4.48601431100667
30
0
41
1
10
37.8534323114324
20
-4.48523156622127
30
0
41
1
10
37.8618770147056
20
-4.48203807364072
30
0
41
1
10
37.865904149844
20
-4.47964016230154
30
0
41
1
10
37.8715197173799
20
-4.47429854808215
30
0
41
1
10
37.8733158204854
20
-4.4722236691656
30
0
41
1
10
37.8766756536886
20
-4.46743424747956
30
0
41
1
10
37.8798169283341
20
-4.46199399050022
30
0
41
1
10
37.8824341012445
20
-4.45499303551009
30
0
41
1
10
37.8847251765703
20
-4.44702100979663
30
0
41
1
10
37.8857036311084
20
-4.44253189497431
30
0
41
1
10
37.8872008479776
20
-4.43275637519281
30
0
41
1
10
37.8877313186211
20
-4.42743702049771
30
0
41
1
10
37.8883159776909
20
-4.41585596668733
30
0
41
1
10
37.8883651583588
20
-4.40959760850984
30
0
41
1
10
37.8881668217916
20
-4.40303039454722
30
0
0
SPLINE
5
130
100
AcDbEntity
8
1
62
256
6
ByLayer
370
18
48
1
60
0
100
AcDbSpline
70
4
71
3
72
17
73
13
40
0
40
0
40
0
40
0
40
0.0263386596770203
40
0.0263386596770203
40
0.221070927741681
40
0.415803195806342
40
0.415803195806342
40
0.513169329838671
40
0.513169329838671
40
0.610535463871001
40
0.610535463871001
40
1
40
1
40
1
40
1
41
1
10
35.3968114805861
20
2.33905179482576
30
0
41
1
10
35.3979372625297
20
2.33919216487254
30
0
41
1
10
35.3990675095411
20
2.33934957187751
30
0
41
1
10
35.4085851334706
20
2.34081325013901
30
0
41
1
10
35.4257013581423
20
2.34521985032976
30
0
41
1
10
35.4438866642737
20
2.35309603260322
30
0
41
1
10
35.4580770173383
20
2.3602805818615
30
0
41
1
10
35.4628991908496
20
2.36288880719979
30
0
41
1
10
35.4727557551455
20
2.36853405583204
30
0
41
1
10
35.4778058210698
20
2.37158184602478
30
0
41
1
10
35.5032679786886
20
2.38764989158184
30
0
41
1
10
35.5245508817275
20
2.40324457246899
30
0
41
1
10
35.5472811358346
20
2.42114404953492
30
0
0
SPLINE
5
131
100
AcDbEntity
8
1
62
256
6
ByLayer
370
18
48
1
60
0
100
AcDbSpline
70
4
71
3
72
8
73
4
40
0
40
0
40
0
40
0
40
1
40
1
40
1
40
1
41
1
10
37.3722832632577
20
4.33413306326517
30
0
41
1
10
37.3744298362532
20
4.32591822130118
30
0
41
1
10
37.376576225326
20
4.31769260352846
30
0
41
1
10
37.3787224269134
20
4.30945622613726
30
0
0
SPLINE
5
132
100
AcDbEntity
8
1
62
256
6
ByLayer
370
18
48
1
60
0
100
AcDbSpline
70
4
71
3
72
26
73
22
40
0
40
0
40
0
40
0
40
0.170227237757505
40
0.170227237757505
40
0.255340856636254
40
0.255340856636254
40
0.340454475515003
40
0.340454475515003
40
0.425568094393752
40
0.425568094393752
40
0.510681713272501
40
0.510681713272501
40
0.59579533215125
40
0.59579533215125
40
0.680908951029999
40
0.680908951029999
40
0.851136188787503
40
0.851136188787503
40
0.936249807666252
40
0.936249807666252
40
1
40
1
40
1
40
1
41
1
10
37.6768962534008
20
4.60611872597156
30
0
41
1
10
37.4301155397613
20
4.71277221256219
30
0
41
1
10
37.1836256144707
20
4.81289842427651
30
0
41
1
10
36.8139441874344
20
4.95294733106087
30
0
41
1
10
36.6907199163827
20
4.99794125742798
30
0
41
1
10
36.4441869262223
20
5.08448765548962
30
0
41
1
10
36.3208409500136
20
5.12605259188948
30
0
41
1
10
36.0741654433536
20
5.20559428990995
30
0
41
1
10
35.9508615159686
20
5.24356394949697
30
0
41
1
10
35.7042286229293
20
5.31582277641283
30
0
41
1
10
35.5808736624301
20
5.35011754150301
30
0
41
1
10
35.3341986151317
20
5.41493838491013
30
0
41
1
10
35.2108700676692
20
5.4454678849267
30
0
41
1
10
34.9641120374508
20
5.50274034009806
30
0
41
1
10
34.8406538442817
20
5.52948613775061
30
0
41
1
10
34.4704999909114
20
5.60388325194182
30
0
41
1
10
34.2239062209852
20
5.64570745964312
30
0
41
1
10
33.8539644177166
20
5.69669098225256
30
0
41
1
10
33.7306397132373
20
5.71173165383672
30
0
41
1
10
33.5148809683481
20
5.7346011154664
30
0
41
1
10
33.4224944560642
20
5.743286973506
30
0
41
1
10
33.3301415428017
20
5.75085136075106
30
0
0
SPLINE
5
133
100
AcDbEntity
8
1
62
256
6
ByLayer
370
18
48
1
60
0
100
AcDbSpline
70
4
71
3
72
17
73
13
40
0
40
0
40
0
40
0
40
0.250000000000028
40
0.250000000000028
40
0.37500000000001
40
0.37500000000001
40
0.499999999999992
40
0.624999999999973
40
0.624999999999973
40
0.749999999999955
40
0.749999999999955
40
1
40
1
40
1
40
1
41
1
10
35.4871626243206
20
-0.98474673279091
30
0
41
1
10
35.4989618364809
20
-0.968727265011495
30
0
41
1
10
35.5110393771363
20
-0.951173240590862
30
0
41
1
10
35.5302960750488
20
-0.922816328313814
30
0
41
1
10
35.5368513622599
20
-0.91310693768753
30
0
41
1
10
35.5502381617172
20
-0.893402991359238
30
0
41
1
10
35.5639333584672
20
-0.873366111194855
30
0
41
1
10
35.5784609589952
20
-0.852792566578103
30
0
41
1
10
35.5935234626544
20
-0.832006889420654
30
0
41
1
10
35.6013017277543
20
-0.821541390159211
30
0
41
1
10
35.6249902452221
20
-0.79071354544908
30
0
41
1
10
35.6414350096848
20
-0.770662843565702
30
0
41
1
10
35.6588220332905
20
-0.751347134961975
30
0
0
SPLINE
5
134
100
AcDbEntity
8
1
62
256
6
ByLayer
370
18
48
1
60
0
100
AcDbSpline
70
4
71
3
72
28
73
24
40
0
40
0
40
0
40
0
40
0.226704143116689
40
0.226704143116689
40
0.291145464523628
40
0.291145464523628
40
0.355586785930566
40
0.355586785930566
40
0.48446942874445
40
0.48446942874445
40
0.613352071558335
40
0.613352071558335
40
0.677793392965279
40
0.677793392965279
40
0.742234714372223
40
0.742234714372223
40
0.806676035779167
40
0.806676035779167
40
0.871117357186112
40
0.871117357186112
40
0.935558678593056
40
0.935558678593056
40
1
40
1
40
1
40
1
41
1
10
37.1755264370172
20
-0.711442707343878
30
0
41
1
10
37.1569703356274
20
-0.75166736100968
30
0
41
1
10
37.142015755072
20
-0.791534758835184
30
0
41
1
10
37.1272255755068
20
-0.842678894987216
30
0
41
1
10
37.1242370250129
20
-0.853997462544299
30
0
41
1
10
37.118853599039
20
-0.87665443050895
30
0
41
1
10
37.1164549878161
20
-0.888013944426433
30
0
41
1
10
37.1102375360257
20
-0.921996960352317
30
0
41
1
10
37.1073898976451
20
-0.944477479877776
30
0
41
1
10
37.1046520754692
20
-0.98930406140795
30
0
41
1
10
37.1047525343469
20
-1.01164762100305
30
0
41
1
10
37.1077132526137
20
-1.04527019389548
30
0
41
1
10
37.1091781597203
20
-1.05652592570729
30
0
41
1
10
37.1132055823518
20
-1.07898448065828
30
0
41
1
10
37.115757612518
20
-1.09014532903649
30
0
41
1
10
37.1221156522666
20
-1.11235409447576
30
0
41
1
10
37.1259201025951
20
-1.12340187723899
30
0
41
1
10
37.135048154014
20
-1.14541251461986
30
0
41
1
10
37.1404151691973
20
-1.15644383852643
30
0
41
1
10
37.1527654444535
20
-1.17794290580946
30
0
41
1
10
37.1597505308344
20
-1.18844270528322
30
0
41
1
10
37.1756401490659
20
-1.20891032732706
30
0
41
1
10
37.1845414098353
20
-1.21887854304106
30
0
41
1
10
37.1946334235606
20
-1.22855186327445
30
0
0
SPLINE
5
135
100
AcDbEntity
8
1
62
256
6
ByLayer
370
18
48
1
60
0
100
AcDbSpline
70
4
71
3
72
10
73
6
40
0
40
0
40
0
40
0
40
0.5
40
0.5
40
1
40
1
40
1
40
1
41
1
10
13.9215793126991
20
-4.20249672594053
30
0
41
1
10
13.9293413934405
20
-4.2694957398748
30
0
41
1
10
13.9399809102563
20
-4.3360185093475
30
0
41
1
10
13.9660831327174
20
-4.46781068863726
30
0
41
1
10
13.9815406871759
20
-4.53304473031054
30
0
41
1
10
13.9990176256911
20
-4.59748551658475
30
0
0
SPLINE
5
136
100
AcDbEntity
8
1
62
256
6
ByLayer
370
13
48
1
60
0
100
AcDbSpline
70
4
71
3
72
9
73
5
40
0
40
0
40
0
40
0
40
0.324941048411024
40
1
40
1
40
1
40
1
41
1
10
34.7365650723761
20
2.71477260841556
30
0
41
1
10
34.8243767149174
20
2.68443520434661
30
0
41
1
10
35.094615402737
20
2.58955717882597
30
0
41
1
10
35.3648540905565
20
2.49013751750928
30
0
41
1
10
35.5472811358346
20
2.42114404953492
30
0
0
SPLINE
5
137
100
AcDbEntity
8
1
62
256
6
ByLayer
370
18
48
1
60
0
100
AcDbSpline
70
4
71
3
72
18
73
14
40
0
40
0
40
0
40
0
40
0.250000000000075
40
0.250000000000075
40
0.375000000000076
40
0.375000000000076
40
0.500000000000078
40
0.500000000000078
40
0.75000000000008
40
0.75000000000008
40
0.87500000000004
40
0.87500000000004
40
1
40
1
40
1
40
1
41
1
10
35.5472811358347
20
2.42114404953489
30
0
41
1
10
35.576274285022
20
2.44397791247505
30
0
41
1
10
35.607573030892
20
2.46546746757585
30
0
41
1
10
35.6580686998905
20
2.49518874191534
30
0
41
1
10
35.6754973362276
20
2.50467172999245
30
0
41
1
10
35.7116324995128
20
2.52263290187125
30
0
41
1
10
35.7300605271482
20
2.53096872131232
30
0
41
1
10
35.7861662598823
20
2.55378674059392
30
0
41
1
10
35.8247771997704
20
2.56616697194568
30
0
41
1
10
35.8847765765228
20
2.57958661520036
30
0
41
1
10
35.9049270934385
20
2.58314414949649
30
0
41
1
10
35.9452342543384
20
2.58829018357281
30
0
41
1
10
35.9654418614403
20
2.58989041826683
30
0
41
1
10
35.9857174822066
20
2.59046357851392
30
0
0
SPLINE
5
138
100
AcDbEntity
8
1
62
256
6
ByLayer
370
18
48
1
60
0
100
AcDbSpline
70
4
71
3
72
15
73
11
40
0
40
0
40
0
40
0
40
0.0826399005388823
40
0.210834585673825
40
0.339029270808769
40
0.467223955943712
40
0.595418641078656
40
0.723613326213599
40
0.851808011348542
40
1
40
1
40
1
40
1
41
1
10
31.8796106043188
20
5.93408912834522
30
0
41
1
10
32.0269927933593
20
5.92505558013931
30
0
41
1
10
32.4035191277271
20
5.89445189158317
30
0
41
1
10
33.0114659760994
20
5.81424438033642
30
0
41
1
10
33.7052182014077
20
5.68033265830525
30
0
41
1
10
34.4039674889657
20
5.50357157315719
30
0
41
1
10
35.1083339073156
20
5.28395195440521
30
0
41
1
10
35.8191617708348
20
5.02196456907711
30
0
41
1
10
36.5743933131315
20
4.70234010386142
30
0
41
1
10
37.0966368096374
20
4.45236791383803
30
0
41
1
10
37.3787224217431
20
4.30945622647039
30
0
0
SPLINE
5
139
100
AcDbEntity
8
1
62
256
6
ByLayer
370
18
48
1
60
0
100
AcDbSpline
70
4
71
3
72
12
73
8
40
0
40
0
40
0
40
0
40
0.397714297685461
40
0.397714297685461
40
0.698856028630358
40
0.698856028630358
40
1
40
1
40
1
40
1
41
1
10
37.3722832632579
20
4.33413306326511
30
0
41
1
10
37.3774830606628
20
4.33160525335754
30
0
41
1
10
37.3826765261308
20
4.32907142436667
30
0
41
1
10
37.3917909385275
20
4.32460828250501
30
0
41
1
10
37.3957146736457
20
4.32268157452486
30
0
41
1
10
37.4035545544307
20
4.31882104149125
30
0
41
1
10
37.4074707073533
20
4.31688721278388
30
0
41
1
10
37.4113829747317
20
4.31494978706709
30
0
0
SPLINE
5
13A
100
AcDbEntity
8
1
62
256
6
ByLayer
370
18
48
1
60
0
100
AcDbSpline
70
4
71
3
72
48
73
44
40
0
40
0
40
0
40
0
40
0.062499999999999
40
0.062499999999999
40
0.0937500000000001
40
0.0937500000000001
40
0.109375000000001
40
0.109375000000001
40
0.125000000000002
40
0.125000000000002
40
0.187500000000008
40
0.187500000000008
40
0.218750000000009
40
0.218750000000009
40
0.23437500000001
40
0.23437500000001
40
0.250000000000011
40
0.250000000000011
40
0.312500000000031
40
0.312500000000031
40
0.328125000000029
40
0.328125000000029
40
0.343750000000028
40
0.343750000000028
40
0.375000000000025
40
0.375000000000025
40
0.43750000000002
40
0.43750000000002
40
0.468750000000017
40
0.468750000000017
40
0.500000000000014
40
0.500000000000014
40
0.562500000000009
40
0.562500000000009
40
0.625000000000004
40
0.625000000000004
40
0.687499999999998
40
0.687499999999998
40
0.749999999999993
40
0.749999999999993
40
0.874999999999997
40
0.874999999999997
40
1
40
1
40
1
40
1
41
1
10
37.7471820513105
20
3.55615750218672
30
0
41
1
10
37.7683187732428
20
3.51794221678838
30
0
41
1
10
37.7856220338234
20
3.47938535253422
30
0
41
1
10
37.8048061597309
20
3.42094677341802
30
0
41
1
10
37.8100675334545
20
3.40136626385029
30
0
41
1
10
37.8160742601583
20
3.37182751116788
30
0
41
1
10
37.8177618035454
20
3.36195321975816
30
0
41
1
10
37.8204699772849
20
3.34214521318961
30
0
41
1
10
37.8214907915056
20
3.33218867979789
30
0
41
1
10
37.8247995765038
20
3.28276434640747
30
0
41
1
10
37.8217837743123
20
3.24407068619038
30
0
41
1
10
37.8081608333586
20
3.18738926792969
30
0
41
1
10
37.802100040024
20
3.16872246277296
30
0
41
1
10
37.7906223425057
20
3.1410787064043
30
0
41
1
10
37.7863984661069
20
3.13192356326081
30
0
41
1
10
37.7771341264751
20
3.11373524327414
30
0
41
1
10
37.7721131896916
20
3.10474501971623
30
0
41
1
10
37.7453109153061
20
3.06065705924124
30
0
41
1
10
37.7182747458347
20
3.02778333072342
30
0
41
1
10
37.6782758189144
20
2.98934886417044
30
0
41
1
10
37.6699648609775
20
2.98179527831289
30
0
41
1
10
37.6527367536409
20
2.96694780122397
30
0
41
1
10
37.6437962662117
20
2.95963642829207
30
0
41
1
10
37.6163061680408
20
2.93824790014128
30
0
41
1
10
37.5970839308592
20
2.92470022526837
30
0
41
1
10
37.537060092713
20
2.88592958270203
30
0
41
1
10
37.4939161436325
20
2.86256725777992
30
0
41
1
10
37.4254570658752
20
2.83049714256049
30
0
41
1
10
37.4020092797535
20
2.82030602986433
30
0
41
1
10
37.3539750024276
20
2.80082833414704
30
0
41
1
10
37.3294207441231
20
2.7915587133208
30
0
41
1
10
37.2550263335043
20
2.76525080678283
30
0
41
1
10
37.2041917654668
20
2.74959100465622
30
0
41
1
10
37.1005793693648
20
2.72121981202883
30
0
41
1
10
37.0477982914695
20
2.70851335233431
30
0
41
1
10
36.9406421449653
20
2.68551891563465
30
0
41
1
10
36.8862654157856
20
2.67523345813305
30
0
41
1
10
36.7761640144279
20
2.65670770988348
30
0
41
1
10
36.7203157363731
20
2.6484555354769
30
0
41
1
10
36.5524714538077
20
2.62653305894739
30
0
41
1
10
36.4398541598934
20
2.61558708595527
30
0
41
1
10
36.2135463671845
20
2.59915564567214
30
0
41
1
10
36.0998519759924
20
2.59368998304242
30
0
41
1
10
35.9857174822066
20
2.59046357851392
30
0
0
SPLINE
5
13B
100
AcDbEntity
8
1
62
256
6
ByLayer
370
18
48
1
60
0
100
AcDbSpline
70
4
71
3
72
20
73
16
40
0
40
0
40
0
40
0
40
0.318496432326741
40
0.318496432326741
40
0.477744648490127
40
0.477744648490127
40
0.636992864653513
40
0.636992864653513
40
0.796241080816899
40
0.796241080816899
40
0.87586518889859
40
0.87586518889859
40
0.955489296980281
40
0.955489296980281
40
1
40
1
40
1
40
1
41
1
10
37.6816734880604
20
4.60246360920073
30
0
41
1
10
37.702366492396
20
4.55623941071815
30
0
41
1
10
37.7229554452056
20
4.50898955448889
30
0
41
1
10
37.7534306713685
20
4.43620108446044
30
0
41
1
10
37.7635283758146
20
4.41159692405628
30
0
41
1
10
37.7835413667903
20
4.36155285464204
30
0
41
1
10
37.7934269782548
20
4.33619320946866
30
0
41
1
10
37.8128627843963
20
4.28453715167419
30
0
41
1
10
37.8224156788626
20
4.25824827914929
30
0
41
1
10
37.8363538698167
20
4.21772254654985
30
0
41
1
10
37.8409229962166
20
4.20405879095361
30
0
41
1
10
37.849797639415
20
4.17651782921754
30
0
41
1
10
37.8541119902254
20
4.16261848888109
30
0
41
1
10
37.8605739188189
20
4.14067243272794
30
0
41
1
10
37.8628432678704
20
4.1327270500372
30
0
41
1
10
37.8650325626019
20
4.12476266228731
30
0
0
SPLINE
5
13C
100
AcDbEntity
8
1
62
256
6
ByLayer
370
18
48
1
60
0
100
AcDbSpline
70
4
71
3
72
8
73
4
40
0
40
0
40
0
40
0
40
1
40
1
40
1
40
1
41
1
10
37.6816734880473
20
4.60246360920689
30
0
41
1
10
37.6801013024072
20
4.60365500988453
30
0
41
1
10
37.6785088137227
20
4.60487389390559
30
0
41
1
10
37.676896253401
20
4.60611872597156
30
0
0
SPLINE
5
13D
100
AcDbEntity
8
1
62
256
6
ByLayer
370
18
48
1
60
0
100
AcDbSpline
70
4
71
3
72
40
73
36
40
0
40
0
40
0
40
0
40
0.0312500000001165
40
0.0312500000001165
40
0.0468750000001524
40
0.0468750000001524
40
0.0625000000001883
40
0.0625000000001883
40
0.0937500000002122
40
0.0937500000002122
40
0.125000000000236
40
0.125000000000236
40
0.140625000000248
40
0.140625000000248
40
0.156250000000259
40
0.156250000000259
40
0.171875000000271
40
0.171875000000271
40
0.187500000000282
40
0.187500000000282
40
0.218750000000271
40
0.218750000000271
40
0.250000000000261
40
0.250000000000261
40
0.31250000000024
40
0.31250000000024
40
0.375000000000219
40
0.375000000000219
40
0.500000000000175
40
0.500000000000175
40
0.62500000000013
40
0.62500000000013
40
0.750000000000086
40
0.750000000000086
40
1
40
1
40
1
40
1
41
1
10
37.4113829747319
20
4.31494978706701
30
0
41
1
10
37.4183887727601
20
4.31148038890126
30
0
41
1
10
37.4256116087349
20
4.30818594385715
30
0
41
1
10
37.4369028603993
20
4.30362036882573
30
0
41
1
10
37.4407434600646
20
4.30216178329903
30
0
41
1
10
37.4486132195888
20
4.29940133069803
30
0
41
1
10
37.4526684931314
20
4.29809201700735
30
0
41
1
10
37.4649750625628
20
4.29452408439226
30
0
41
1
10
37.4733339625
20
4.2926244688698
30
0
41
1
10
37.4904068755625
20
4.29014234317677
30
0
41
1
10
37.4986550547801
20
4.28963411547366
30
0
41
1
10
37.5106032676937
20
4.28996976086316
30
0
41
1
10
37.5144973144122
20
4.29026755961846
30
0
41
1
10
37.5219032308575
20
4.2911786578139
30
0
41
1
10
37.5254503484226
20
4.29179235089816
30
0
41
1
10
37.5322754566202
20
4.2932945006313
30
0
41
1
10
37.5355489778803
20
4.29418407935574
30
0
41
1
10
37.5417320808332
20
4.29615440403674
30
0
41
1
10
37.5446631679845
20
4.29723958446203
30
0
41
1
10
37.5530645518796
20
4.30074070332378
30
0
41
1
10
37.5581508959377
20
4.30340151234429
30
0
41
1
10
37.5675767204788
20
4.30917888735857
30
0
41
1
10
37.5718361862382
20
4.31224593167744
30
0
41
1
10
37.5836753716549
20
4.32182008119648
30
0
41
1
10
37.5903332127371
20
4.32869350477364
30
0
41
1
10
37.6022220907066
20
4.34301526778799
30
0
41
1
10
37.6074377164669
20
4.35047804931858
30
0
41
1
10
37.6215869108379
20
4.3734195290474
30
0
41
1
10
37.6289471006411
20
4.38922247565085
30
0
41
1
10
37.6415376738538
20
4.42135227652321
30
0
41
1
10
37.6467182593539
20
4.43769074949481
30
0
41
1
10
37.6556640177877
20
4.47070704996676
30
0
41
1
10
37.6594172455301
20
4.48738771897621
30
0
41
1
10
37.6691503257446
20
4.53777937680687
30
0
41
1
10
37.6736322502621
20
4.57183262130243
30
0
41
1
10
37.676896253401
20
4.60611872597156
30
0
0
SPLINE
5
13E
100
AcDbEntity
8
1
62
256
6
ByLayer
370
13
48
1
60
0
100
AcDbSpline
70
4
71
3
72
8
73
4
40
0
40
0
40
0
40
0
40
1
40
1
40
1
40
1
41
1
10
37.4866380135622
20
3.92106712837051
30
0
41
1
10
37.4615530006188
20
4.05236134793606
30
0
41
1
10
37.4364679876753
20
4.1836555675016
30
0
41
1
10
37.4113829747318
20
4.31494978706712
30
0
0
SPLINE
5
13F
100
AcDbEntity
8
1
62
256
6
ByLayer
370
18
48
1
60
0
100
AcDbSpline
70
4
71
3
72
26
73
22
40
0
40
0
40
0
40
0
40
0.125000000000019
40
0.125000000000019
40
0.250000000000039
40
0.250000000000039
40
0.375000000000058
40
0.375000000000058
40
0.500000000000078
40
0.500000000000078
40
0.562500000000068
40
0.562500000000068
40
0.625000000000059
40
0.625000000000059
40
0.750000000000039
40
0.750000000000039
40
0.812500000000029
40
0.812500000000029
40
0.875000000000019
40
0.875000000000019
40
1
40
1
40
1
40
1
41
1
10
37.9865236260625
20
3.47326999739275
30
0
41
1
10
37.9872964331698
20
3.49271028161869
30
0
41
1
10
37.9855853924264
20
3.51207211695746
30
0
41
1
10
37.9774630150765
20
3.55064733528479
30
0
41
1
10
37.9710678106568
20
3.5698612277935
30
0
41
1
10
37.9534290214521
20
3.60813588343149
30
0
41
1
10
37.9424080783516
20
3.62670158938414
30
0
41
1
10
37.9162296867336
20
3.66261309594287
30
0
41
1
10
37.9010727712643
20
3.6799841161328
30
0
41
1
10
37.8750750300333
20
3.70511807718751
30
0
41
1
10
37.8659460514589
20
3.71325718282654
30
0
41
1
10
37.8468980020896
20
3.72896544940292
30
0
41
1
10
37.8369613203787
20
3.73655192207158
30
0
41
1
10
37.8059254555112
20
3.75851623991241
30
0
41
1
10
37.7836152234301
20
3.77210856567049
30
0
41
1
10
37.7475689218284
20
3.7908229773779
30
0
41
1
10
37.7351958934996
20
3.79673750137522
30
0
41
1
10
37.710044626464
20
3.80778444953546
30
0
41
1
10
37.69722176471
20
3.81294017345434
30
0
41
1
10
37.658016793976
20
3.82731197730328
30
0
41
1
10
37.6309088887264
20
3.83544844068476
30
0
41
1
10
37.602764033328
20
3.84204244843843
30
0
0
SPLINE
5
140
100
AcDbEntity
8
1
62
256
6
ByLayer
370
18
48
1
60
0
100
AcDbSpline
70
4
71
3
72
16
73
12
40
0
40
0
40
0
40
0
40
0.249999999999999
40
0.249999999999999
40
0.499999999999998
40
0.499999999999998
40
0.749999999999997
40
0.749999999999997
40
0.874999999999999
40
0.874999999999999
40
1
40
1
40
1
40
1
41
1
10
37.6027640333279
20
3.84204244843218
30
0
41
1
10
37.5951517992767
20
3.85031201106656
30
0
41
1
10
37.5872589577921
20
3.85840363444026
30
0
41
1
10
37.5706494855707
20
3.87407905595643
30
0
41
1
10
37.5619042495173
20
3.88169657651025
30
0
41
1
10
37.5432660272402
20
3.8959581454221
30
0
41
1
10
37.5334164186424
20
3.90261731592534
30
0
41
1
10
37.5170472187994
20
3.91121939987332
30
0
41
1
10
37.5113033365722
20
3.91384695340642
30
0
41
1
10
37.4994010086384
20
3.91820552981343
30
0
41
1
10
37.493209442351
20
3.91996535592395
30
0
41
1
10
37.4866380135622
20
3.92106712837045
30
0
0
SPLINE
5
141
100
AcDbEntity
8
1
62
256
6
ByLayer
370
18
48
1
60
0
100
AcDbSpline
70
4
71
3
72
12
73
8
40
0
40
0
40
0
40
0
40
0.258903358643775
40
0.258903358643775
40
0.517806752285251
40
0.517806752285251
40
1
40
1
40
1
40
1
41
1
10
37.486638013562
20
3.92106712837048
30
0
41
1
10
37.4835324507476
20
3.92158781019629
30
0
41
1
10
37.4804257934193
20
3.92210505400453
30
0
41
1
10
37.4742102804104
20
3.92313246696028
30
0
41
1
10
37.4711014157453
20
3.92364263760325
30
0
41
1
10
37.4621993055964
20
3.92509255195304
30
0
41
1
10
37.4564032668777
20
3.92602332273995
30
0
41
1
10
37.450603308902
20
3.92694077570479
30
0
0
SPLINE
5
142
100
AcDbEntity
8
1
62
256
6
ByLayer
370
13
48
1
60
0
100
AcDbSpline
70
4
71
3
72
10
73
6
40
0
40
0
40
0
40
0
40
0.0060470910923581
40
0.337364727394906
40
1
40
1
40
1
40
1
41
1
10
18.5273774639339
20
-3.31425422447228
30
0
41
1
10
18.5182516426226
20
-3.31169143304956
30
0
41
1
10
18.0091258213113
20
-3.16838218243814
30
0
41
1
10
16.5
20
-2.68878068428913
30
0
41
1
10
15
20
-2.07971344384413
30
0
41
1
10
14
20
-1.63685664493025
30
0
0
SPLINE
5
143
100
AcDbEntity
8
1
62
256
6
ByLayer
370
18
48
1
60
0
100
AcDbSpline
70
4
71
3
72
13
73
9
40
0
40
0
40
0
40
0
40
0.04184994660399
40
0.201541622169992
40
0.361233297735994
40
0.520924973301995
40
0.680616648867997
40
1
40
1
40
1
40
1
41
0.999999999999999
10
23.3931007654813
20
-5.51103280415205
30
0
41
1
10
23.2620671769876
20
-5.52551609058341
30
0
41
1
10
22.6310335884938
20
-5.58489271457148
30
0
41
1
10
21.5
20
-5.60044056883231
30
0
41
1
10
20
20
-5.42894378386427
30
0
41
1
10
18.5
20
-5.07154617855673
30
0
41
1
10
16.5
20
-4.36666256113068
30
0
41
1
10
15
20
-3.60740946881435
30
0
41
1
10
14
20
-3.02430658675192
30
0
0
SPLINE
5
144
100
AcDbEntity
8
1
62
256
6
ByLayer
370
13
48
1
60
0
100
AcDbSpline
70
4
71
3
72
13
73
9
40
0
40
0
40
0
40
0
40
0.0561140107949278
40
0.213428342329106
40
0.370742673863285
40
0.528057005397464
40
0.685371336931643
40
1
40
1
40
1
40
1
41
0.999999999999999
10
23.5350498926037
20
-5.54572918360504
30
0
41
1
10
23.3566999284025
20
-5.57319099403358
30
0
41
1
10
22.6783499642012
20
-5.66235227157367
30
0
41
1
10
21.4999999999999
20
-5.71486771836058
30
0
41
1
10
19.9999999999999
20
-5.58577571806919
30
0
41
1
10
18.5
20
-5.26738753484966
30
0
41
1
10
16.4999999999999
20
-4.60243580284771
30
0
41
1
10
15
20
-3.85799567485503
30
0
41
1
10
14
20
-3.28488062770546
30
0
0
SPLINE
5
145
100
AcDbEntity
8
1
62
256
6
ByLayer
370
18
48
1
60
0
100
AcDbSpline
70
4
71
3
72
50
73
46
40
0
40
0
40
0
40
0
40
0.0083526887969255
40
0.0083526887969255
40
0.0464929699970435
40
0.0464929699970435
40
0.0846332511971612
40
0.0846332511971612
40
0.160913813597394
40
0.160913813597394
40
0.199054094797512
40
0.199054094797512
40
0.23719437599763
40
0.23719437599763
40
0.275334657197748
40
0.275334657197748
40
0.313474938397865
40
0.313474938397865
40
0.351615219597983
40
0.351615219597983
40
0.389755500798101
40
0.389755500798101
40
0.466036063198337
40
0.466036063198337
40
0.542316625598572
40
0.542316625598572
40
0.618597187998808
40
0.618597187998808
40
0.656737469198927
40
0.656737469198927
40
0.694877750399047
40
0.694877750399047
40
0.733018031599166
40
0.733018031599166
40
0.771158312799285
40
0.771158312799285
40
0.809298593999404
40
0.809298593999404
40
0.847438875199523
40
0.847438875199523
40
0.885579156399642
40
0.885579156399642
40
0.923719437599762
40
0.923719437599762
40
1
40
1
40
1
40
1
41
1
10
23.6994664747256
20
-5.57787000331649
30
0
41
1
10
23.6724443904664
20
-5.58303152206699
30
0
41
1
10
23.6454233653568
20
-5.58809912334243
30
0
41
1
10
23.4950260348626
20
-5.61578066023327
30
0
41
1
10
23.3716592888716
20
-5.63650851236594
30
0
41
1
10
23.1249076881739
20
-5.67405524535943
30
0
41
1
10
23.0016062068727
20
-5.69089126873411
30
0
41
1
10
22.6318425402191
20
-5.73552159183524
30
0
41
1
10
22.385541903422
20
-5.75738692904318
30
0
41
1
10
22.0158945459904
20
-5.77795708788906
30
0
41
1
10
21.8926070369508
20
-5.78276787561327
30
0
41
1
10
21.646036477381
20
-5.78846674615286
30
0
41
1
10
21.5227516231954
20
-5.78935418464266
30
0
41
1
10
21.276124421051
20
-5.78709845220305
30
0
41
1
10
21.1527616553725
20
-5.78395810570217
30
0
41
1
10
20.9061002961231
20
-5.77365012688313
30
0
41
1
10
20.782782748935
20
-5.76648102569175
30
0
41
1
10
20.5360874152816
20
-5.7481124459982
30
0
41
1
10
20.4127025284945
20
-5.73691561490713
30
0
41
1
10
20.1660825164309
20
-5.71059195690776
30
0
41
1
10
20.0428058505616
20
-5.69546544405705
30
0
41
1
10
19.6729328909708
20
-5.64426224190348
30
0
41
1
10
19.4263122118898
20
-5.60233920888089
30
0
41
1
10
18.9324936749723
20
-5.50288699029795
30
0
41
1
10
18.6856623568938
20
-5.44547395247639
30
0
41
1
10
18.1919845005075
20
-5.31565080555029
30
0
41
1
10
17.9455187464367
20
-5.24331408340546
30
0
41
1
10
17.5758471556677
20
-5.12393738107735
30
0
41
1
10
17.4526261569449
20
-5.08233635077659
30
0
41
1
10
17.2060912502747
20
-4.99557590253696
30
0
41
1
10
17.082736901729
20
-4.95040388771326
30
0
41
1
10
16.8360859266499
20
-4.85669799818533
30
0
41
1
10
16.7127796486197
20
-4.80816346124601
30
0
41
1
10
16.4661307415984
20
-4.70778084451666
30
0
41
1
10
16.3427748962771
20
-4.655910158745
30
0
41
1
10
16.0961639698257
20
-4.54895673649645
30
0
41
1
10
15.9728814669419
20
-4.49388016528704
30
0
41
1
10
15.7262637188421
20
-4.38063386318694
30
0
41
1
10
15.6029316820215
20
-4.32246014761216
30
0
41
1
10
15.356371988386
20
-4.20319751635719
30
0
41
1
10
15.2331139800895
20
-4.14209542059004
30
0
41
1
10
14.9865535444158
20
-4.01702132656627
30
0
41
1
10
14.8632183246055
20
-3.95302732021381
30
0
41
1
10
14.4933040372666
20
-3.75706828825469
30
0
41
1
10
14.2467964348681
20
-3.6211577449192
30
0
41
1
10
13.9999999999999
20
-3.48042312032987
30
0
0
SPLINE
5
146
100
AcDbEntity
8
1
62
256
6
ByLayer
370
18
48
1
60
0
100
AcDbSpline
70
4
71
3
72
26
73
22
40
0
40
0
40
0
40
0
40
0.0064404991735425
40
0.0463017820517351
40
0.0861630649299276
40
0.12602434780812
40
0.165885630686313
40
0.205746913564505
40
0.245608196442698
40
0.28546947932089
40
0.325330762199083
40
0.405053327955468
40
0.484775893711853
40
0.564498459468238
40
0.644221025224623
40
0.723943590981008
40
0.803666156737393
40
0.883388722493778
40
0.923250005371971
40
0.963111288250163
40
1
40
1
40
1
40
1
41
1
10
13.921579312699
20
-4.20249672594048
30
0
41
1
10
13.9399234336144
20
-4.21203891155329
30
0
41
1
10
14.071796848549
20
-4.28040339863577
30
0
41
1
10
14.3171278737479
20
-4.40445017154664
30
0
41
1
10
14.6574454024083
20
-4.56885928887613
30
0
41
1
10
14.9975882135499
20
-4.72515939821318
30
0
41
1
10
15.3375649840929
20
-4.87298198705867
30
0
41
1
10
15.6773736526621
20
-5.0121702893093
30
0
41
1
10
16.0170188107864
20
-5.14255640107808
30
0
41
1
10
16.3564993836111
20
-5.26390977874379
30
0
41
1
10
16.8089327213615
20
-5.41318013052847
30
0
41
1
10
17.374094355538
20
-5.57631257775162
30
0
41
1
10
18.0518372025283
20
-5.73289061497385
30
0
41
1
10
18.7292958039507
20
-5.84938084840346
30
0
41
1
10
19.4066058268218
20
-5.92509944273655
30
0
41
1
10
20.0839294871884
20
-5.95944038361779
30
0
41
1
10
20.7613840304963
20
-5.95231954655324
30
0
41
1
10
21.3261535146058
20
-5.91163858134513
30
0
41
1
10
21.7781071768091
20
-5.85848290529856
30
0
41
1
10
22.1087199066888
20
-5.80970379751864
30
0
41
1
10
22.3263697702591
20
-5.77127101075325
30
0
41
1
10
22.4309918950859
20
-5.75135672033724
30
0
0
SPLINE
5
147
100
AcDbEntity
8
1
62
256
6
ByLayer
370
18
48
1
60
0
100
AcDbSpline
70
4
71
3
72
12
73
8
40
0
40
0
40
0
40
0
40
0.25
40
0.25
40
0.500000000000001
40
0.500000000000001
40
1
40
1
40
1
40
1
41
1
10
13.5571410092585
20
-3.22903356521164
30
0
41
1
10
13.5804737215137
20
-3.28746210545981
30
0
41
1
10
13.6031509094555
20
-3.34585856226136
30
0
41
1
10
13.647694242556
20
-3.46244350222293
30
0
41
1
10
13.669548680933
20
-3.52063558239706
30
0
41
1
10
13.7341183955783
20
-3.69484903748565
30
0
41
1
10
13.7758565898275
20
-3.81050119015103
30
0
41
1
10
13.8163586137524
20
-3.92570222056682
30
0
0
SPLINE
5
148
100
AcDbEntity
8
1
62
256
6
ByLayer
370
18
48
1
60
0
100
AcDbSpline
70
4
71
3
72
10
73
6
40
0
40
0
40
0
40
0
40
0.5
40
0.5
40
1
40
1
40
1
40
1
41
1
10
14
20
-3.48042312032956
30
0
41
1
10
13.9256089399543
20
-3.44007318128956
30
0
41
1
10
13.8515088505685
20
-3.39895519896035
30
0
41
1
10
13.7038675249969
20
-3.31516986252856
30
0
41
1
10
13.630310041482
20
-3.27249377946975
30
0
41
1
10
13.5571410092415
20
-3.22903356521829
30
0
0
SPLINE
5
149
100
AcDbEntity
8
1
62
256
6
ByLayer
370
18
48
1
60
0
100
AcDbSpline
70
4
71
3
72
10
73
6
40
0
40
0
40
0
40
0
40
0.5
40
0.5
40
1
40
1
40
1
40
1
41
1
10
13.557141009246
20
-3.22903356521215
30
0
41
1
10
13.5187470550756
20
-3.19413049786556
30
0
41
1
10
13.4798839177011
20
-3.16042549303973
30
0
41
1
10
13.4000989952603
20
-3.09650069038562
30
0
41
1
10
13.3591778832019
20
-3.06627379564208
30
0
41
1
10
13.3163586137523
20
-3.0388069666333
30
0
0
SPLINE
5
14A
100
AcDbEntity
8
1
62
256
6
ByLayer
370
18
48
1
60
0
100
AcDbSpline
70
4
71
3
72
13
73
9
40
0
40
0
40
0
40
0
40
0.299797999636266
40
0.463491919541292
40
0.62718583944632
40
0.790879759351346
40
0.954573679256373
40
1
40
1
40
1
40
1
41
1
10
37.7471820560917
20
3.5561575072895
30
0
41
1
10
36.8314547040611
20
4.04206394955707
30
0
41
1
10
35.4157273520305
20
4.68335908223213
30
0
41
1
10
33.5
20
5.26200970103517
30
0
41
1
10
32
20
5.53683258681869
30
0
41
1
10
30.5
20
5.61436037406685
30
0
41
1
10
29.3612461575543
20
5.5293415318165
30
0
41
1
10
28.7224923151087
20
5.43201272080466
30
0
41
1
10
28.583738472663
20
5.40855508311191
30
0
0
SPLINE
5
14B
100
AcDbEntity
8
1
62
256
6
ByLayer
370
18
48
1
60
0
100
AcDbSpline
70
4
71
3
72
8
73
4
40
0
40
0
40
0
40
0
40
1
40
1
40
1
40
1
41
1
10
37.6009947428883
20
3.84217498526812
30
0
41
1
10
37.6462820298461
20
3.74624422360748
30
0
41
1
10
37.6947863882552
20
3.6508664293535
30
0
41
1
10
37.7471820804618
20
3.55615749957948
30
0
0
SPLINE
5
14C
100
AcDbEntity
8
1
62
256
6
ByLayer
370
18
48
1
60
0
100
AcDbSpline
70
4
71
3
72
16
73
12
40
0
40
0
40
0
40
0
40
0.249999999999997
40
0.249999999999997
40
0.499999999999993
40
0.499999999999993
40
0.74999999999999
40
0.74999999999999
40
0.874999999999995
40
0.874999999999995
40
1
40
1
40
1
40
1
41
1
10
35.2567313628258
20
2.41445527880782
30
0
41
1
10
35.4338199860486
20
2.3219843847796
30
0
41
1
10
35.6115191865328
20
2.22517713824644
30
0
41
1
10
35.9678440020075
20
2.02498319959869
30
0
41
1
10
36.1464727309221
20
1.92157439222802
30
0
41
1
10
36.504501316139
20
1.70928018936147
30
0
41
1
10
36.6839024953777
20
1.60038539830072
30
0
41
1
10
36.95351606803
20
1.4334083536734
30
0
41
1
10
37.043472981984
20
1.3771405289506
30
0
41
1
10
37.2235510161813
20
1.26343867761912
30
0
41
1
10
37.3135958718117
20
1.20605230562151
30
0
41
1
10
37.4035318331816
20
1.14822477231402
30
0
0
SPLINE
5
14D
100
AcDbEntity
8
1
62
256
6
ByLayer
370
18
48
1
60
0
100
AcDbSpline
70
4
71
3
72
10
73
6
40
0
40
0
40
0
40
0
40
0.742394171736977
40
0.742394171736977
40
1
40
1
40
1
40
1
41
1
10
35.2567313628257
20
2.41445527880785
30
0
41
1
10
35.2406991406527
20
2.42282687202831
30
0
41
1
10
35.2258005882591
20
2.43060080355417
30
0
41
1
10
35.2075575642372
20
2.44005616737724
30
0
41
1
10
35.2030265713309
20
2.44239803533807
30
0
41
1
10
35.1987398423191
20
2.44460544869779
30
0
0
SPLINE
5
14E
100
AcDbEntity
8
1
62
256
6
ByLayer
370
13
48
1
60
0
100
AcDbSpline
70
4
71
3
72
9
73
5
40
0
40
0
40
0
40
0
40
0.888283710881936
40
1
40
1
40
1
40
1
41
1
10
14
20
-1.23933546958881
30
0
41
1
10
15
20
-1.67827734704218
30
0
41
1
10
16.1257664502337
20
-2.14178330349239
30
0
41
1
10
17.2515329004674
20
-2.54098869112133
30
0
41
1
10
17.3772993507011
20
-2.58473236011088
30
0
0
SPLINE
5
14F
100
AcDbEntity
8
1
62
256
6
ByLayer
370
13
48
1
60
0
100
AcDbSpline
70
4
71
3
72
14
73
10
40
0
40
0
40
0
40
0
40
0.266991102850689
40
0.400486654276033
40
0.533982205701378
40
0.667477757126722
40
0.800973308552067
40
0.934468859977411
40
1
40
1
40
1
40
1
41
1
10
14
20
2.40554187435018
30
0
41
1
10
15
20
2.02788440300668
30
0
41
1
10
16.5
20
1.37921516393561
30
0
41
1
10
18.5
20
0.42958173345059
30
0
41
1
10
20
20
-0.295977815812137
30
0
41
1
10
21.4999999999999
20
-1.00641938555844
30
0
41
1
10
23
20
-1.68616222229991
30
0
41
1
10
24.2454431601761
20
-2.20518883819852
30
0
41
1
10
24.9908863203523
20
-2.48591483627919
30
0
41
1
10
25.2363294805285
20
-2.57470603704223
30
0
0
SPLINE
5
150
100
AcDbEntity
8
1
62
256
6
ByLayer
370
18
48
1
60
0
100
AcDbSpline
70
4
71
3
72
14
73
10
40
0
40
0
40
0
40
0
40
0.249999999999996
40
0.249999999999996
40
0.374999999999996
40
0.374999999999996
40
0.499999999999996
40
0.499999999999996
40
1
40
1
40
1
40
1
41
1
10
37.2819803562917
20
-2.69632184080493
30
0
41
1
10
37.2956544124208
20
-2.79255662223434
30
0
41
1
10
37.310162277627
20
-2.88920770194966
30
0
41
1
10
37.3332003392159
20
-3.03482152545604
30
0
41
1
10
37.3410964157094
20
-3.08348842654957
30
0
41
1
10
37.3572821943721
20
-3.18081914628945
30
0
41
1
10
37.3655750304071
20
-3.22950392690461
30
0
41
1
10
37.4080409603434
20
-3.47302512954329
30
0
41
1
10
37.4452147282401
20
-3.66815300585964
30
0
41
1
10
37.4856509107235
20
-3.8635977592302
30
0
0
SPLINE
5
151
100
AcDbEntity
8
1
62
256
6
ByLayer
370
18
48
1
60
0
100
AcDbSpline
70
4
71
3
72
16
73
12
40
0
40
0
40
0
40
0
40
0.250000000000004
40
0.250000000000004
40
0.500000000000008
40
0.500000000000008
40
0.625000000000002
40
0.625000000000002
40
0.749999999999996
40
0.749999999999996
40
1
40
1
40
1
40
1
41
1
10
35.5142037738505
20
-1.55214597325485
30
0
41
1
10
35.6598604607265
20
-1.65297553642256
30
0
41
1
10
35.8060899138335
20
-1.75223914952343
30
0
41
1
10
36.0995340157443
20
-1.94807283832091
30
0
41
1
10
36.2467494029533
20
-2.0446408952084
30
0
41
1
10
36.4682325738695
20
-2.18768828591158
30
0
41
1
10
36.5421705821381
20
-2.23506922991635
30
0
41
1
10
36.6902581188772
20
-2.329252819039
30
0
41
1
10
36.7643287815584
20
-2.37600477373027
30
0
41
1
10
36.9863526951705
20
-2.51511458335421
30
0
41
1
10
37.1342311272715
20
-2.60640102547171
30
0
41
1
10
37.2819803562917
20
-2.69632184080496
30
0
0
SPLINE
5
152
100
AcDbEntity
8
1
62
256
6
ByLayer
370
18
48
1
60
0
100
AcDbSpline
70
4
71
3
72
28
73
24
40
0
40
0
40
0
40
0
40
0.124999999999982
40
0.124999999999982
40
0.187499999999956
40
0.187499999999956
40
0.249999999999929
40
0.249999999999929
40
0.281249999999927
40
0.281249999999927
40
0.312499999999924
40
0.312499999999924
40
0.374999999999931
40
0.374999999999931
40
0.499999999999944
40
0.499999999999944
40
0.624999999999958
40
0.624999999999958
40
0.749999999999972
40
0.749999999999972
40
0.874999999999986
40
0.874999999999986
40
1
40
1
40
1
40
1
41
1
10
35.5142037738505
20
-1.55214597325485
30
0
41
1
10
35.4879941963373
20
-1.53400262324368
30
0
41
1
10
35.4642657224382
20
-1.5131905134057
30
0
41
1
10
35.4333434485746
20
-1.47695488542217
30
0
41
1
10
35.4241375174801
20
-1.46438742163949
30
0
41
1
10
35.4079833615394
20
-1.43852513834003
30
0
41
1
10
35.4010073196055
20
-1.42519734897994
30
0
41
1
10
35.392146095651
20
-1.40463152655488
30
0
41
1
10
35.3894773547458
20
-1.39771515364507
30
0
41
1
10
35.38473749674
20
-1.38394982638985
30
0
41
1
10
35.382654099903
20
-1.37707295417999
30
0
41
1
10
35.3771943582114
20
-1.35645877144262
30
0
41
1
10
35.3746001815843
20
-1.34269115685561
30
0
41
1
10
35.3695867225246
20
-1.3017518083407
30
0
41
1
10
35.3699151539338
20
-1.27558491144279
30
0
41
1
10
35.3754779158441
20
-1.22473940423615
30
0
41
1
10
35.3808082827922
20
-1.19995568145711
30
0
41
1
10
35.3948337988862
20
-1.15272110171688
30
0
41
1
10
35.4035425745858
20
-1.13010175612561
30
0
41
1
10
35.4235231924225
20
-1.08633137087932
30
0
41
1
10
35.434804121757
20
-1.06518583523581
30
0
41
1
10
35.4594908776809
20
-1.02407161616074
30
0
41
1
10
35.4729116819826
20
-1.00409650338236
30
0
41
1
10
35.4871626243206
20
-0.98474673279091
30
0
0
SPLINE
5
153
100
AcDbEntity
8
1
62
256
6
ByLayer
370
13
48
1
60
0
100
AcDbSpline
70
4
71
3
72
13
73
9
40
0
40
0
40
0
40
0
40
0.066916842345664
40
0.272957409719827
40
0.478997977093989
40
0.685038544468152
40
0.891079111842315
40
1
40
1
40
1
40
1
41
1
10
35.4871626243205
20
-0.98474673279091
30
0
41
1
10
35.3247750828804
20
-0.904939201519312
30
0
41
1
10
34.6623875414402
20
-0.57703314064301
30
0
41
1
10
33.5
20
0.0104580164739332
30
0
41
1
10
32
20
0.763701696712815
30
0
41
1
10
30.5
20
1.49886096982036
30
0
41
1
10
29.2356809643223
20
2.07541408457001
30
0
41
1
10
28.4713619286444
20
2.39312164275367
30
0
41
1
10
28.2070428929666
20
2.49881788086654
30
0
0
SPLINE
5
154
100
AcDbEntity
8
1
62
256
6
ByLayer
370
18
48
1
60
0
100
AcDbSpline
70
4
71
3
72
21
73
17
40
0
40
0
40
0
40
0
40
0.0127360870466489
40
0.0127360870466489
40
0.0785536812435415
40
0.0785536812435415
40
0.210188869637326
40
0.210188869637326
40
0.473459246424894
40
0.473459246424894
40
0.539276840621771
40
0.539276840621771
40
0.605094434818647
40
0.736729623212431
40
0.736729623212431
40
1
40
1
40
1
40
1
41
1
10
37.3070178818046
20
-0.730643526213271
30
0
41
1
10
37.3024187010951
20
-0.729885694657639
30
0
41
1
10
37.2978096053142
20
-0.729129992820418
30
0
41
1
10
37.2693321370677
20
-0.724483508334515
30
0
41
1
10
37.2451965168047
20
-0.72064272787344
30
0
41
1
10
37.1720568205655
20
-0.709259779280387
30
0
41
1
10
37.1223239510478
20
-0.701856235126144
30
0
41
1
10
36.9707568818191
20
-0.680096108082751
30
0
41
1
10
36.8665833638082
20
-0.666184487435345
30
0
41
1
10
36.7335509721804
20
-0.64933049737283
30
0
41
1
10
36.706770595462
20
-0.645983244339249
30
0
41
1
10
36.6531392924236
20
-0.639364020524738
30
0
41
1
10
36.5725654824731
20
-0.629545274882446
30
0
41
1
10
36.4916419703101
20
-0.620030014520552
30
0
41
1
10
36.329390731677
20
-0.601350286808213
30
0
41
1
10
36.2206875870537
20
-0.589361994965401
30
0
41
1
10
36.1115543470634
20
-0.577746956731801
30
0
0
SPLINE
5
155
100
AcDbEntity
8
1
62
256
6
ByLayer
370
13
48
1
60
0
100
AcDbSpline
70
4
71
3
72
8
73
4
40
0
40
0
40
0
40
0
40
1
40
1
40
1
40
1
41
1
10
21.5724659275087
20
3.89995979429807
30
0
41
1
10
21.6228902455453
20
3.90006279928372
30
0
41
1
10
21.6733145635819
20
3.89993242448816
30
0
41
1
10
21.7237388816185
20
3.89956863241912
30
0
0
SPLINE
5
156
100
AcDbEntity
8
1
62
256
6
ByLayer
370
13
48
1
60
0
100
AcDbSpline
70
4
71
3
72
14
73
10
40
0
40
0
40
0
40
0
40
0.0322092620831497
40
0.21013765676463
40
0.388066051446109
40
0.565994446127589
40
0.743922840809068
40
0.921851235490548
40
1
40
1
40
1
40
1
41
1
10
27.2284644015858
20
2.96710258352218
30
0
41
1
10
27.3189762677239
20
2.93841849913971
30
0
41
1
10
27.9094881338619
20
2.74750112545567
30
0
41
1
10
29
20
2.35024503496888
30
0
41
1
10
30.5
20
1.71786958388208
30
0
41
1
10
32
20
1.02579248608495
30
0
41
1
10
33.5
20
0.303197214794409
30
0
41
1
10
34.7196073444302
20
-0.295905254136727
30
0
41
1
10
35.4392146888604
20
-0.645464114217191
30
0
41
1
10
35.6588220332906
20
-0.751347134962003
30
0
0
SPLINE
5
157
100
AcDbEntity
8
1
62
256
6
ByLayer
370
18
48
1
60
0
100
AcDbSpline
70
4
71
3
72
21
73
17
40
0
40
0
40
0
40
0
40
0.249999999999979
40
0.249999999999979
40
0.312499999999975
40
0.312499999999975
40
0.37499999999997
40
0.37499999999997
40
0.49999999999996
40
0.624999999999951
40
0.624999999999951
40
0.687499999999946
40
0.687499999999946
40
0.749999999999941
40
0.749999999999941
40
1
40
1
40
1
40
1
41
1
10
35.6588220332906
20
-0.751347134962003
30
0
41
1
10
35.6875114025247
20
-0.719473791980533
30
0
41
1
10
35.7189833174376
20
-0.691618904118457
30
0
41
1
10
35.7618847292605
20
-0.66172598131169
30
0
41
1
10
35.7706456228125
20
-0.655996738898153
30
0
41
1
10
35.7885410541242
20
-0.645046739068647
30
0
41
1
10
35.7977067889865
20
-0.639809986409063
30
0
41
1
10
35.8255320541257
20
-0.625018493030836
30
0
41
1
10
35.8634228742807
20
-0.607760464729978
30
0
41
1
10
35.9029433228637
20
-0.595261261170378
30
0
41
1
10
35.9332379087382
20
-0.587673568733379
30
0
41
1
10
35.9434454078121
20
-0.585442730475734
30
0
41
1
10
35.9640895752381
20
-0.581586048611427
30
0
41
1
10
35.9745419471749
20
-0.579960199758716
30
0
41
1
10
36.0267688153718
20
-0.573438371589873
30
0
41
1
10
36.0689050252844
20
-0.573207794299321
30
0
41
1
10
36.1115543470633
20
-0.577746956731801
30
0
0
SPLINE
5
158
100
AcDbEntity
8
1
62
256
6
ByLayer
370
13
48
1
60
0
100
AcDbSpline
70
4
71
3
72
18
73
14
40
0
40
0
40
0
40
0
40
0.0617978874648033
40
0.173715811851575
40
0.285633736238347
40
0.369572179528427
40
0.453510622818506
40
0.537449066108585
40
0.621387509398664
40
0.733305433785436
40
0.845223358172208
40
0.95714128255898
40
1
40
1
40
1
40
1
41
1
10
19.1717427596596
20
3.269334776487
30
0
41
1
10
19.4478285064398
20
3.19422791560316
30
0
41
1
10
20.2239142532198
20
2.96594812052157
30
0
41
1
10
21.5
20
2.51731652391408
30
0
41
1
10
22.875
20
1.94839326929522
30
0
41
0.999999999999999
10
24.125
20
1.38135025856582
30
0
41
1
10
25.25
20
0.841852095252847
30
0
41
1
10
26.3750000000001
20
0.285052447223649
30
0
41
1
10
27.625
20
-0.339584704720977
30
0
41
1
10
29
20
-1.01953382925302
30
0
41
1
10
30.5
20
-1.72275363530326
30
0
41
1
10
31.6914738755023
20
-2.23193889261853
30
0
41
1
10
32.3829477510047
20
-2.49951237891793
30
0
41
1
10
32.574421626507
20
-2.5712894089813
30
0
0
SPLINE
5
159
100
AcDbEntity
8
1
62
256
6
ByLayer
370
18
48
1
60
0
100
AcDbSpline
70
4
71
3
72
8
73
4
40
0
40
0
40
0
40
0
40
1
40
1
40
1
40
1
41
1
10
37.4271678325257
20
-5.26549600215839
30
0
41
1
10
37.4507297160667
20
-5.37563998104031
30
0
41
1
10
37.4761039869233
20
-5.48202625460829
30
0
41
1
10
37.5033195533636
20
-5.58459488603071
30
0
0
SPLINE
5
15A
100
AcDbEntity
8
1
62
256
6
ByLayer
370
18
48
1
60
0
100
AcDbSpline
70
4
71
3
72
12
73
8
40
0
40
0
40
0
40
0
40
0.332640492686503
40
0.332640492686503
40
0.665280985373006
40
0.665280985373006
40
1
40
1
40
1
40
1
41
1
10
35.3832658069941
20
-4.46984823294292
30
0
41
1
10
35.4648544359245
20
-4.4975142997655
30
0
41
1
10
35.5467334428617
20
-4.52374130738156
30
0
41
1
10
35.7110275641701
20
-4.57353847422681
30
0
41
1
10
35.7934640184513
20
-4.59711082154755
30
0
41
1
10
35.9586589377259
20
-4.64173941532457
30
0
41
1
10
36.0415067301042
20
-4.66281225553564
30
0
41
1
10
36.124348063326
20
-4.68266159535077
30
0
0
SPLINE
5
15B
100
AcDbEntity
8
1
62
256
6
ByLayer
370
18
48
1
60
0
100
AcDbSpline
70
4
71
3
72
24
73
20
40
0
40
0
40
0
40
0
40
0.168648161016309
40
0.168648161016309
40
0.25297224152451
40
0.25297224152451
40
0.337296322032711
40
0.337296322032711
40
0.505944483049114
40
0.505944483049114
40
0.590268563557341
40
0.590268563557341
40
0.674592644065568
40
0.674592644065568
40
0.843240805082046
40
0.843240805082046
40
0.92756488559029
40
0.92756488559029
40
1
40
1
40
1
40
1
41
1
10
35.3832658069943
20
-4.46984823294247
30
0
41
1
10
35.3681109795416
20
-4.46470934932
30
0
41
1
10
35.3538669315249
20
-4.45804310699384
30
0
41
1
10
35.3340449103143
20
-4.44542350028513
30
0
41
1
10
35.3276957019261
20
-4.44077888862262
30
0
41
1
10
35.3155552575485
20
-4.43053770520822
30
0
41
1
10
35.3097568473103
20
-4.4249182201589
30
0
41
1
10
35.2937610372603
20
-4.40711937717805
30
0
41
1
10
35.2847582968277
20
-4.39385402599149
30
0
41
1
10
35.2735514402495
20
-4.37200749274047
30
0
41
1
10
35.2701840686115
20
-4.36435619014767
30
0
41
1
10
35.2642715397991
20
-4.34863120194103
30
0
41
1
10
35.2617385277424
20
-4.3406087860397
30
0
41
1
10
35.2552520406179
20
-4.31612001698591
30
0
41
1
10
35.2524036241005
20
-4.29923487202973
30
0
41
1
10
35.2499085423265
20
-4.27323112761246
30
0
41
1
10
35.2493761517332
20
-4.26442672211539
30
0
41
1
10
35.2488936341419
20
-4.24809213767861
30
0
41
1
10
35.2488690405444
20
-4.24053776456103
30
0
41
1
10
35.2490205915011
20
-4.23297760708149
30
0
0
SPLINE
5
15C
100
AcDbEntity
8
1
62
256
6
ByLayer
370
13
48
1
60
0
100
AcDbSpline
70
4
71
3
72
18
73
14
40
0
40
0
40
0
40
0
40
0.0062762853936852
40
0.118013736441407
40
0.229751187489128
40
0.34148863853685
40
0.453226089584572
40
0.537029177870363
40
0.620832266156154
40
0.704635354441945
40
0.788438442727736
40
0.900175893775458
40
1
40
1
40
1
40
1
41
1
10
33.5842549029198
20
-3.23385031860224
30
0
41
1
10
33.5561699352798
20
-3.22498744577211
30
0
41
1
10
33.0280849676399
20
-3.057178616165
30
0
41
1
10
32
20
-2.68845064975668
30
0
41
1
10
30.5
20
-2.05017376496553
30
0
41
1
10
29
20
-1.33923392390227
30
0
41
1
10
27.625
20
-0.642434086885572
30
0
41
1
10
26.3750000000001
20
0.004421295430916
30
0
41
1
10
25.25
20
0.58614339670703
30
0
41
0.999999999999999
10
24.125
20
1.15483628964566
30
0
41
1
10
22.875
20
1.75836286522659
30
0
41
1
10
21.5533095426442
20
2.34768991482693
30
0
41
1
10
20.6066190852885
20
2.71610020437669
30
0
41
1
10
20.1599286279328
20
2.87564588451778
30
0
0
SPLINE
5
15D
100
AcDbEntity
8
1
62
256
6
ByLayer
370
18
48
1
60
0
100
AcDbSpline
70
4
71
3
72
12
73
8
40
0
40
0
40
0
40
0
40
0.340836919583252
40
0.544788910932547
40
0.748740902281841
40
0.952692893631136
40
1
40
1
40
1
40
1
41
1
10
37.5067437488232
20
0.843537211871649
30
0
41
1
10
36.6711624992154
20
1.42552300551429
30
0
41
1
10
35.3355812496077
20
2.3351855877309
30
0
41
1
10
33.5
20
3.43318633686377
30
0
41
1
10
32
20
4.21469540863248
30
0
41
1
10
30.884023916472
20
4.68114790494187
30
0
41
1
10
30.268047832944
20
4.89572623212683
30
0
41
1
10
30.152071749416
20
4.93457163351098
30
0
0
SPLINE
5
15E
100
AcDbEntity
8
1
62
256
6
ByLayer
370
13
48
1
60
0
100
AcDbSpline
70
4
71
3
72
15
73
11
40
0
40
0
40
0
40
0
40
0.0108999337812559
40
0.134537442058599
40
0.258174950335942
40
0.381812458613285
40
0.505449966890628
40
0.629087475167971
40
0.752724983445314
40
1
40
1
40
1
40
1
41
1
10
26.1322406193694
20
-3.16203135111229
30
0
41
1
10
26.088160412913
20
-3.14836307600444
30
0
41
1
10
25.5440802064565
20
-2.97786152231086
30
0
41
1
10
24.5
20
-2.60838160486844
30
0
41
1
10
23
20
-1.98657512072216
30
0
41
1
10
21.4999999999999
20
-1.30158963052958
30
0
41
1
10
20
20
-0.577147556601915
30
0
41
1
10
18.5
20
0.171958237699727
30
0
41
1
10
16.5
20
1.16277657776962
30
0
41
1
10
15
20
1.85086076099569
30
0
41
1
10
14
20
2.25732420102429
30
0
0
SPLINE
5
15F
100
AcDbEntity
8
1
62
256
6
ByLayer
370
18
48
1
60
0
100
AcDbSpline
70
4
71
3
72
14
73
10
40
0
40
0
40
0
40
0
40
0.25
40
0.25
40
0.5
40
0.5
40
0.75
40
0.75
40
1
40
1
40
1
40
1
41
1
10
37.4856509153299
20
-3.86359775928858
30
0
41
1
10
37.494181146252
20
-3.89025109668242
30
0
41
1
10
37.5029830070233
20
-3.91629098433012
30
0
41
1
10
37.5210777862336
20
-3.96726177369985
30
0
41
1
10
37.5303828356672
20
-3.99221975948677
30
0
41
1
10
37.5493355290773
20
-4.04080166694914
30
0
41
1
10
37.559006423592
20
-4.06448717898297
30
0
41
1
10
37.5786312562249
20
-4.11052423417655
30
0
41
1
10
37.5885788904347
20
-4.13286357669764
30
0
41
1
10
37.5986550515132
20
-4.1545573428161
30
0
0
SPLINE
5
160
100
AcDbEntity
8
1
62
256
6
ByLayer
370
18
48
1
60
0
100
AcDbSpline
70
4
71
3
72
17
73
13
40
0
40
0
40
0
40
0
40
0.0701406488599581
40
0.176883281073699
40
0.28362591328744
40
0.39036854550118
40
0.497111177714921
40
0.603853809928662
40
0.710596442142402
40
0.817339074356143
40
0.924081706569884
40
1
40
1
40
1
40
1
41
1
10
37.4856509166765
20
-3.86359775807674
30
0
41
1
10
37.1571006111177
20
-3.69397523182306
30
0
41
1
10
36.3285503055588
20
-3.24086841991419
30
0
41
1
10
35
20
-2.42164228804097
30
0
41
1
10
33.5
20
-1.41279078358392
30
0
41
1
10
32
20
-0.345502588044184
30
0
41
1
10
30.5
20
0.729380196622373
30
0
41
1
10
29
20
1.77892242405974
30
0
41
1
10
27.5
20
2.7637541257275
30
0
41
1
10
26.0000000000001
20
3.64674349415526
30
0
41
1
10
24.6443862594746
20
4.32376112951096
30
0
41
1
10
23.7887725189492
20
4.67255985690042
30
0
41
1
10
23.4331587784237
20
4.80260296310123
30
0
0
SPLINE
5
161
100
AcDbEntity
8
1
62
256
6
ByLayer
370
18
48
1
60
0
100
AcDbSpline
70
4
71
3
72
12
73
8
40
0
40
0
40
0
40
0
40
0.249999999999989
40
0.249999999999989
40
0.499999999999978
40
0.499999999999978
40
1
40
1
40
1
40
1
41
1
10
37.50331955931
20
-5.58459488148037
30
0
41
1
10
37.511078070381
20
-5.59263765925121
30
0
41
1
10
37.5190340767237
20
-5.59963303543395
30
0
41
1
10
37.535309825702
20
-5.6116948074903
30
0
41
1
10
37.5436377756693
20
-5.61676254713703
30
0
41
1
10
37.5690152824761
20
-5.62917354032362
30
0
41
1
10
37.5864963666443
20
-5.63376219866711
30
0
41
1
10
37.604346647345
20
-5.63497335426069
30
0
0
SPLINE
5
162
100
AcDbEntity
8
1
62
256
6
ByLayer
370
18
48
1
60
0
100
AcDbSpline
70
4
71
3
72
22
73
18
40
0
40
0
40
0
40
0
40
0.113841280360524
40
0.182055472110025
40
0.250269663859526
40
0.318483855609027
40
0.386698047358528
40
0.454912239108029
40
0.506072882920155
40
0.55723352673228
40
0.608394170544406
40
0.659554814356532
40
0.727769006106033
40
0.795983197855534
40
0.864197389605035
40
0.932411581354536
40
1
40
1
40
1
40
1
41
1
10
37.503319560948
20
-5.58459488193756
30
0
41
1
10
36.6688797072987
20
-5.63223928239969
30
0
41
1
10
35.3344398536493
20
-5.56544945345706
30
0
41
1
10
33.5
20
-5.16607301071843
30
0
41
1
10
32
20
-4.66458669009123
30
0
41
1
10
30.5
20
-4.00251447948204
30
0
41
1
10
29
20
-3.20416171929872
30
0
41
1
10
27.625
20
-2.37285068549895
30
0
41
1
10
26.3750000000001
20
-1.56096503873792
30
0
41
1
10
25.25
20
-0.797337176303358
30
0
41
0.999999999999999
10
24.125
20
-0.0192319968174957
30
0
41
1
10
22.875
20
0.841697469784236
30
0
41
1
10
21.5
20
1.7735678607223
30
0
41
1
10
20
20
2.72794334568945
30
0
41
1
10
18.5
20
3.5872078758396
30
0
41
1
10
17.0045868248819
20
4.32314893953611
30
0
41
1
10
16.0091736497638
20
4.71599700963696
30
0
41
1
10
15.5137604746458
20
4.88416760751605
30
0
0
SPLINE
5
163
100
AcDbEntity
8
1
62
256
6
ByLayer
370
18
48
1
60
0
100
AcDbSpline
70
4
71
3
72
18
73
14
40
0
40
0
40
0
40
0
40
0.0305377865311633
40
0.11867071502833
40
0.206803643525497
40
0.294936572022664
40
0.383069500519831
40
0.471202429016998
40
0.559335357514165
40
0.647468286011332
40
0.735601214508499
40
0.823734143005666
40
1
40
1
40
1
40
1
41
1
10
31.019745350323
20
-5.49680981899727
30
0
41
1
10
30.8464969002153
20
-5.5191317868634
30
0
41
1
10
30.1732484501077
20
-5.59227887315092
30
0
41
1
10
29
20
-5.62724886002448
30
0
41
1
10
27.5
20
-5.49487793027947
30
0
41
1
10
26
20
-5.18565768662089
30
0
41
1
10
24.5
20
-4.71280864044215
30
0
41
1
10
23
20
-4.09265679063077
30
0
41
1
10
21.4999999999999
20
-3.3399963483555
30
0
41
1
10
20
20
-2.48194882229584
30
0
41
1
10
18.5
20
-1.54576234459353
30
0
41
1
10
16.5
20
-0.23227750902987
30
0
41
1
10
15
20
0.778833410741271
30
0
41
1
10
14
20
1.42531740905517
30
0
0
SPLINE
5
164
100
AcDbEntity
8
1
62
256
6
ByLayer
370
18
48
1
60
0
100
AcDbSpline
70
4
71
3
72
22
73
18
40
0
40
0
40
0
40
0
40
0.24999999999999
40
0.24999999999999
40
0.374999999999979
40
0.374999999999979
40
0.499999999999968
40
0.499999999999968
40
0.562499999999961
40
0.562499999999961
40
0.624999999999954
40
0.624999999999954
40
0.749999999999969
40
0.749999999999969
40
0.874999999999984
40
0.874999999999984
40
1
40
1
40
1
40
1
41
1
10
9.67336321771256
20
5.11055098145712
30
0
41
1
10
9.66512972159805
20
5.12048841593139
30
0
41
1
10
9.6588499538442
20
5.13054270674184
30
0
41
1
10
9.65394493357144
20
5.14595021651954
30
0
41
1
10
9.6530942425276
20
5.15113965284814
30
0
41
1
10
9.65335179002469
20
5.16133797141393
30
0
41
1
10
9.65444249849287
20
5.16638340636004
30
0
41
1
10
9.65783799851974
20
5.17386477012874
30
0
41
1
10
9.65926631113126
20
5.17633693580552
30
0
41
1
10
9.66266975856394
20
5.18112603707189
30
0
41
1
10
9.66465108161717
20
5.18345848403195
30
0
41
1
10
9.67143981530936
20
5.19027119005554
30
0
41
1
10
9.67709753171152
20
5.19457173871564
30
0
41
1
10
9.69070854421861
20
5.20266235391955
30
0
41
1
10
9.69840739302211
20
5.20630662482063
30
0
41
1
10
9.71532314282805
20
5.21292676199826
30
0
41
1
10
9.72458643879489
20
5.21591102453783
30
0
41
1
10
9.73433548371992
20
5.21856012538942
30
0
0
SPLINE
5
165
100
AcDbEntity
8
1
62
256
6
ByLayer
370
18
48
1
60
0
100
AcDbSpline
70
4
71
3
72
40
73
36
40
0
40
0
40
0
40
0
40
0.0312499999999931
40
0.0312499999999931
40
0.0624999999999863
40
0.0624999999999863
40
0.0937499999999794
40
0.0937499999999794
40
0.109374999999976
40
0.109374999999976
40
0.124999999999973
40
0.124999999999973
40
0.187499999999964
40
0.187499999999964
40
0.218749999999963
40
0.218749999999963
40
0.249999999999962
40
0.249999999999962
40
0.312499999999964
40
0.312499999999964
40
0.374999999999967
40
0.374999999999967
40
0.499999999999973
40
0.499999999999973
40
0.562499999999975
40
0.562499999999975
40
0.624999999999978
40
0.624999999999978
40
0.749999999999984
40
0.749999999999984
40
0.812499999999987
40
0.812499999999987
40
0.874999999999989
40
0.874999999999989
40
1
40
1
40
1
40
1
41
1
10
9.73433548371989
20
5.21856012538942
30
0
41
1
10
9.76783095033375
20
5.22766182404953
30
0
41
1
10
9.80236558135718
20
5.23549512569042
30
0
41
1
10
9.87300367653575
20
5.24931897171589
30
0
41
1
10
9.90911172121909
20
5.2553030780746
30
0
41
1
10
9.98259684830472
20
5.26582990103338
30
0
41
1
10
10.0199759535607
20
5.27036979062953
30
0
41
1
10
10.0768474731379
20
5.27629423822339
30
0
41
1
10
10.0959390954499
20
5.27812060397764
30
0
41
1
10
10.1343721621582
20
5.28150109364205
30
0
41
1
10
10.153732792875
20
5.2830562847499
30
0
41
1
10
10.2505947258102
20
5.29016710352613
30
0
41
1
10
10.3286324765127
20
5.29379899463291
30
0
41
1
10
10.4463021230176
20
5.29701841151845
30
0
41
1
10
10.4856580412252
20
5.29771360230069
30
0
41
1
10
10.5644268282865
20
5.29843058914244
30
0
41
1
10
10.6037549861061
20
5.29845206319598
30
0
41
1
10
10.7215891639823
20
5.29761605100842
30
0
41
1
10
10.7999457660138
20
5.29586439956216
30
0
41
1
10
10.956327583672
20
5.29034447813149
30
0
41
1
10
11.0343873159083
20
5.28657071589987
30
0
41
1
10
11.2679134648657
20
5.27253134898049
30
0
41
1
10
11.4217808528194
20
5.25963863519414
30
0
41
1
10
11.6504480264842
20
5.23561809881548
30
0
41
1
10
11.7263354329389
20
5.22681803342456
30
0
41
1
10
11.8770289865438
20
5.20772826351654
30
0
41
1
10
11.9518895958865
20
5.19743307102911
30
0
41
1
10
12.1751421068293
20
5.16432233439053
30
0
41
1
10
12.3222834841593
20
5.1392669186867
30
0
41
1
10
12.5399668867458
20
5.09735852340907
30
0
41
1
10
12.6120553688726
20
5.08266244121887
30
0
41
1
10
12.755360517721
20
5.0518050122499
30
0
41
1
10
12.826590306592
20
5.03563989307182
30
0
41
1
10
13.0387945243152
20
4.98499096288359
30
0
41
1
10
13.178375928883
20
4.94833540849706
30
0
41
1
10
13.3163586137526
20
4.90874322650814
30
0
0
SPLINE
5
166
100
AcDbEntity
8
1
62
256
6
ByLayer
370
18
48
1
60
0
100
AcDbSpline
70
4
71
3
72
8
73
4
40
0
40
0
40
0
40
0
40
1
40
1
40
1
40
1
41
1
10
9.86088157791079
20
-5.76000169958451
30
0
41
1
10
9.84163139600668
20
-5.76002066417254
30
0
41
1
10
9.82274936060404
20
-5.75946181622095
30
0
41
1
10
9.80423241415011
20
-5.7583061329193
30
0
0
SPLINE
5
167
100
AcDbEntity
8
1
62
256
6
ByLayer
370
18
48
1
60
0
100
AcDbSpline
70
4
71
3
72
24
73
20
40
0
40
0
40
0
40
0
40
0.250000000000003
40
0.250000000000003
40
0.500000000000007
40
0.500000000000007
40
0.625000000000008
40
0.625000000000008
40
0.75000000000001
40
0.75000000000001
40
0.812500000000011
40
0.812500000000011
40
0.875000000000012
40
0.875000000000012
40
0.937500000000012
40
0.937500000000012
40
0.968750000000006
40
0.968750000000006
40
1
40
1
40
1
40
1
41
1
10
13.3163586137523
20
-5.64695681468353
30
0
41
1
10
13.2595510634201
20
-5.63832175956432
30
0
41
1
10
13.2031400836363
20
-5.62910357005919
30
0
41
1
10
13.0914467258835
20
-5.60933396166666
30
0
41
1
10
13.0361277231836
20
-5.59878513539701
30
0
41
1
10
12.954626064726
20
-5.58172060690643
30
0
41
1
10
12.9277184349005
20
-5.57582631077614
30
0
41
1
10
12.8746612613746
20
-5.5635358775792
30
0
41
1
10
12.8485008966681
20
-5.55714344716884
30
0
41
1
10
12.8102105088871
20
-5.54704045272459
30
0
41
1
10
12.797598181791
20
-5.54358346871609
30
0
41
1
10
12.7728938824289
20
-5.53645959004757
30
0
41
1
10
12.7607999986764
20
-5.53279570621723
30
0
41
1
10
12.7374688380519
20
-5.52517256292336
30
0
41
1
10
12.7261983666929
20
-5.52122191005699
30
0
41
1
10
12.7106405162579
20
-5.51488813507947
30
0
41
1
10
12.7056825071846
20
-5.51270683537845
30
0
41
1
10
12.6967754465507
20
-5.50817538818586
30
0
41
1
10
12.6927388918957
20
-5.50583129296467
30
0
41
1
10
12.6899518459171
20
-5.50327498232383
30
0
0
SPLINE
5
168
100
AcDbEntity
8
1
62
256
6
ByLayer
370
18
48
1
60
0
100
AcDbSpline
70
4
71
3
72
20
73
16
40
0
40
0
40
0
40
0
40
0.0625000000000007
40
0.0625000000000007
40
0.125000000000001
40
0.125000000000001
40
0.250000000000002
40
0.250000000000002
40
0.375000000000002
40
0.375000000000002
40
0.500000000000002
40
0.500000000000002
40
0.750000000000001
40
0.750000000000001
40
1
40
1
40
1
40
1
41
1
10
12.6899518459384
20
-5.50327498231232
30
0
41
1
10
12.6866724702644
20
-5.500267101205
30
0
41
1
10
12.6827685207403
20
-5.49733880704272
30
0
41
1
10
12.6742823035425
20
-5.49155270597919
30
0
41
1
10
12.6696877179309
20
-5.48869684170359
30
0
41
1
10
12.6552215398664
20
-5.48018369503913
30
0
41
1
10
12.6446816782255
20
-5.47457870132291
30
0
41
1
10
12.6226481218646
20
-5.46338317618205
30
0
41
1
10
12.6111356025265
20
-5.4577955702286
30
0
41
1
10
12.5874737414048
20
-5.44658849660092
30
0
41
1
10
12.5753123577269
20
-5.44096661840334
30
0
41
1
10
12.5382291459016
20
-5.42405719611776
30
0
41
1
10
12.5126955288516
20
-5.41271080147689
30
0
41
1
10
12.4606643180525
20
-5.38974708592482
30
0
41
1
10
12.4341540891475
20
-5.37813236320142
30
0
41
1
10
12.4072973149692
20
-5.36635943131378
30
0
0
SPLINE
5
169
100
AcDbEntity
8
1
62
256
6
ByLayer
370
18
48
1
60
0
100
AcDbSpline
70
4
71
3
72
18
73
14
40
0
40
0
40
0
40
0
40
0.249999999999997
40
0.249999999999997
40
0.499999999999995
40
0.499999999999995
40
0.624999999999993
40
0.624999999999993
40
0.687499999999994
40
0.687499999999994
40
0.749999999999995
40
0.749999999999995
40
1
40
1
40
1
40
1
41
1
10
12.4072973149692
20
-5.36635943131381
30
0
41
1
10
12.1205252640071
20
-5.28012048722292
30
0
41
1
10
11.8408948479016
20
-5.17843447608274
30
0
41
1
10
11.2963559199835
20
-4.9400693754877
30
0
41
1
10
11.0314527798435
20
-4.80340626116953
30
0
41
1
10
10.6452333587413
20
-4.56795490351533
30
0
41
1
10
10.5183464159911
20
-4.48438170972599
30
0
41
1
10
10.3307728495579
20
-4.35070929910182
30
0
41
1
10
10.2686464158367
20
-4.30471466417575
30
0
41
1
10
10.1459103132203
20
-4.21030260026708
30
0
41
1
10
10.085239498676
20
-4.16184502921661
30
0
41
1
10
9.7853199203478
20
-3.91315107049491
30
0
41
1
10
9.55639168414905
20
-3.69376264248331
30
0
41
1
10
9.33766967829925
20
-3.45157199845559
30
0
0
SPLINE
5
16A
100
AcDbEntity
8
1
62
256
6
ByLayer
370
18
48
1
60
0
100
AcDbSpline
70
4
71
3
72
28
73
24
40
0
40
0
40
0
40
0
40
0.124999999999999
40
0.124999999999999
40
0.249999999999999
40
0.249999999999999
40
0.312499999999998
40
0.312499999999998
40
0.374999999999997
40
0.374999999999997
40
0.499999999999998
40
0.499999999999998
40
0.624999999999998
40
0.624999999999998
40
0.687499999999999
40
0.687499999999999
40
0.749999999999999
40
0.749999999999999
40
0.812499999999999
40
0.812499999999999
40
0.874999999999999
40
0.874999999999999
40
1
40
1
40
1
40
1
41
1
10
9.33766967829928
20
-3.45157199845559
30
0
41
1
10
9.3257818192084
20
-3.43840858475082
30
0
41
1
10
9.31449114714087
20
-3.42494019292835
30
0
41
1
10
9.29341578968442
20
-3.39724392886157
30
0
41
1
10
9.28362585669433
20
-3.38301851310379
30
0
41
1
10
9.2704578134919
20
-3.36092642294821
30
0
41
1
10
9.26632327402993
20
-3.35343579282085
30
0
41
1
10
9.25866932020929
20
-3.33815141248775
30
0
41
1
10
9.25513906225319
20
-3.33032879240747
30
0
41
1
10
9.24580763291718
20
-3.30659481835883
30
0
41
1
10
9.24119408186846
20
-3.29038662512076
30
0
41
1
10
9.23693191009909
20
-3.25693708389628
30
0
41
1
10
9.23736096621025
20
-3.24029941544549
30
0
41
1
10
9.24348121847621
20
-3.215574205412
30
0
41
1
10
9.2464913317356
20
-3.20734248867018
30
0
41
1
10
9.25433921571874
20
-3.19178133838963
30
0
41
1
10
9.2591904727075
20
-3.18435362811448
30
0
41
1
10
9.27082802233767
20
-3.17024261495857
30
0
41
1
10
9.27745724848222
20
-3.163757026014
30
0
41
1
10
9.292021917174
20
-3.15192064395112
30
0
41
1
10
9.30005220981602
20
-3.14650789742004
30
0
41
1
10
9.32534737547064
20
-3.13207837024621
30
0
41
1
10
9.34367723553322
20
-3.12481131356944
30
0
41
1
10
9.36299750525527
20
-3.11914455739318
30
0
0
SPLINE
5
16B
100
AcDbEntity
8
1
62
256
6
ByLayer
370
18
48
1
60
0
100
AcDbSpline
70
4
71
3
72
34
73
30
40
0
40
0
40
0
40
0
40
0.0312499999999993
40
0.0312499999999993
40
0.0624999999999986
40
0.0624999999999986
40
0.124999999999997
40
0.124999999999997
40
0.156249999999996
40
0.156249999999996
40
0.187499999999996
40
0.187499999999996
40
0.249999999999994
40
0.249999999999994
40
0.312499999999993
40
0.312499999999993
40
0.374999999999992
40
0.374999999999992
40
0.499999999999993
40
0.499999999999993
40
0.562499999999994
40
0.562499999999994
40
0.624999999999995
40
0.624999999999995
40
0.749999999999997
40
0.749999999999997
40
0.874999999999998
40
0.874999999999998
40
1
40
1
40
1
40
1
41
1
10
9.36299750525524
20
-3.11914455739318
30
0
41
1
10
9.40541046816406
20
-3.10670456959926
30
0
41
1
10
9.44823145958131
20
-3.09657837920858
30
0
41
1
10
9.53448646358606
20
-3.07983552800039
30
0
41
1
10
9.57792239934346
20
-3.07322925756023
30
0
41
1
10
9.70897305909088
20
-3.0576906697566
30
0
41
1
10
9.79732134449279
20
-3.05298800012363
30
0
41
1
10
9.93091622791334
20
-3.05215296064469
30
0
41
1
10
9.97546752812241
20
-3.05293103505127
30
0
41
1
10
10.0642586600179
20
-3.05630284744834
30
0
41
1
10
10.1085576190129
20
-3.05889716043851
30
0
41
1
10
10.2411994402419
20
-3.06907082100309
30
0
41
1
10
10.329288917614
20
-3.07902577888891
30
0
41
1
10
10.5049154518795
20
-3.10404836574446
30
0
41
1
10
10.5920365305485
20
-3.11906284555167
30
0
41
1
10
10.7651153056429
20
-3.15317970807195
30
0
41
1
10
10.8511083449945
20
-3.17229609779707
30
0
41
1
10
11.1073546743463
20
-3.23474991369054
30
0
41
1
10
11.2750104315902
20
-3.28291875706961
30
0
41
1
10
11.5228351503685
20
-3.36201864502579
30
0
41
1
10
11.6048273275638
20
-3.38954040156392
30
0
41
1
10
11.767710904929
20
-3.44652206589862
30
0
41
1
10
11.8486438675295
20
-3.47599844081344
30
0
41
1
10
12.0896594924406
20
-3.56673352516529
30
0
41
1
10
12.2477470377584
20
-3.63019624697827
30
0
41
1
10
12.5597811643321
20
-3.76080645951146
30
0
41
1
10
12.7137756602601
20
-3.82798506736225
30
0
41
1
10
13.0177247719826
20
-3.96379368008706
30
0
41
1
10
13.1677786224968
20
-4.03246697497161
30
0
41
1
10
13.3163586137518
20
-4.1011056968679
30
0
0
SPLINE
5
16C
100
AcDbEntity
8
1
62
256
6
ByLayer
370
18
48
1
60
0
100
AcDbSpline
70
4
71
3
72
26
73
22
40
0
40
0
40
0
40
0
40
0.249999999999992
40
0.249999999999992
40
0.499999999999984
40
0.499999999999984
40
0.62499999999998
40
0.62499999999998
40
0.749999999999976
40
0.749999999999976
40
0.812499999999983
40
0.812499999999983
40
0.874999999999989
40
0.874999999999989
40
0.937499999999996
40
0.937499999999996
40
0.968749999999998
40
0.968749999999998
40
0.984374999999999
40
0.984374999999999
40
1
40
1
40
1
40
1
41
1
10
13.3163586137523
20
-3.0388069666333
30
0
41
1
10
13.2575285926252
20
-3.00106988817174
30
0
41
1
10
13.199096639992
20
-2.96264242990262
30
0
41
1
10
13.0833641429212
20
-2.88399892013752
30
0
41
1
10
13.0260247284152
20
-2.84378593131785
30
0
41
1
10
12.9415058855861
20
-2.78151139647679
30
0
41
1
10
12.913593070009
20
-2.76042975656887
30
0
41
1
10
12.8585277274952
20
-2.71737176102118
30
0
41
1
10
12.8313642535994
20
-2.69540652500029
30
0
41
1
10
12.7915734675759
20
-2.66139364428048
30
0
41
1
10
12.7784617216485
20
-2.64986722594492
30
0
41
1
10
12.7527714015852
20
-2.62635941906061
30
0
41
1
10
12.7401854699309
20
-2.6143826514199
30
0
41
1
10
12.7158769365839
20
-2.58970779870131
30
0
41
1
10
12.7041197845396
20
-2.57703715775205
30
0
41
1
10
12.6878540062127
20
-2.55691466630222
30
0
41
1
10
12.6826804897313
20
-2.55003717669575
30
0
41
1
10
12.6756904886886
20
-2.53935610197814
30
0
41
1
10
12.6734881272469
20
-2.53573084454638
30
0
41
1
10
12.6694779276615
20
-2.52828115417196
30
0
41
1
10
12.6676622876213
20
-2.52446060168126
30
0
41
1
10
12.6662027754071
20
-2.52046136853861
30
0
0
SPLINE
5
16D
100
AcDbEntity
8
1
62
256
6
ByLayer
370
18
48
1
60
0
100
AcDbSpline
70
4
71
3
72
20
73
16
40
0
40
0
40
0
40
0
40
0.0624999999999932
40
0.0624999999999932
40
0.124999999999986
40
0.124999999999986
40
0.249999999999989
40
0.249999999999989
40
0.374999999999991
40
0.374999999999991
40
0.499999999999993
40
0.499999999999993
40
0.749999999999997
40
0.749999999999997
40
1
40
1
40
1
40
1
41
1
10
12.6662027754761
20
-2.52046136848452
30
0
41
1
10
12.6619309547693
20
-2.50875608306453
30
0
41
1
10
12.6566483446772
20
-2.49756071931179
30
0
41
1
10
12.6451398397164
20
-2.47563258144575
30
0
41
1
10
12.6388831513671
20
-2.46491575381702
30
0
41
1
10
12.6192032860402
20
-2.43319884269133
30
0
41
1
10
12.6048877634366
20
-2.41262335351047
30
0
41
1
10
12.5750707495656
20
-2.37199084082243
30
0
41
1
10
12.5595249423031
20
-2.35193366423459
30
0
41
1
10
12.5277187531049
20
-2.31220816685075
30
0
41
1
10
12.5114653698762
20
-2.29255958709999
30
0
41
1
10
12.4619774138274
20
-2.23402455339877
30
0
41
1
10
12.4280296186558
20
-2.19553830538561
30
0
41
1
10
12.3589959792996
20
-2.11908958819478
30
0
41
1
10
12.3238940826019
20
-2.0811387113165
30
0
41
1
10
12.2883714193058
20
-2.04334649202386
30
0
0
SPLINE
5
16E
100
AcDbEntity
8
1
62
256
6
ByLayer
370
18
48
1
60
0
100
AcDbSpline
70
4
71
3
72
20
73
16
40
0
40
0
40
0
40
0
40
0.250000000000005
40
0.250000000000005
40
0.50000000000001
40
0.50000000000001
40
0.625000000000012
40
0.625000000000012
40
0.656250000000011
40
0.656250000000011
40
0.68750000000001
40
0.68750000000001
40
0.750000000000008
40
0.750000000000008
40
1
40
1
40
1
40
1
41
1
10
12.2883714193052
20
-2.04334649202446
30
0
41
1
10
12.0093609043765
20
-1.82657402941953
30
0
41
1
10
11.7376176789299
20
-1.60000401662617
30
0
41
1
10
11.209168631289
20
-1.12592678729621
30
0
41
1
10
10.9524673421983
20
-0.878418906326402
30
0
41
1
10
10.5788586703008
20
-0.49040353990614
30
0
41
1
10
10.4562269610438
20
-0.358272497923764
30
0
41
1
10
10.3053103643826
20
-0.189504465067728
30
0
41
1
10
10.2752456243049
20
-0.155570630389064
30
0
41
1
10
10.2153528112891
20
-0.0873395909303269
30
0
41
1
10
10.1855063669458
20
-0.0530208377746249
30
0
41
1
10
10.096526340697
20
0.0502453544870889
30
0
41
1
10
10.037915215014
20
0.119543131575966
30
0
41
1
10
9.74835612596652
20
0.468240731472036
30
0
41
1
10
9.52791122018795
20
0.754286360460469
30
0
41
1
10
9.31794082398196
20
1.04650192049038
30
0
0
SPLINE
5
16F
100
AcDbEntity
8
1
62
256
6
ByLayer
370
18
48
1
60
0
100
AcDbSpline
70
4
71
3
72
30
73
26
40
0
40
0
40
0
40
0
40
0.125000000000006
40
0.125000000000006
40
0.250000000000011
40
0.250000000000011
40
0.312500000000005
40
0.312500000000005
40
0.374999999999998
40
0.374999999999998
40
0.499999999999985
40
0.499999999999985
40
0.624999999999972
40
0.624999999999972
40
0.687499999999971
40
0.687499999999971
40
0.749999999999969
40
0.749999999999969
40
0.781249999999968
40
0.781249999999968
40
0.812499999999968
40
0.812499999999968
40
0.874999999999966
40
0.874999999999966
40
1
40
1
40
1
40
1
41
1
10
9.31794082398196
20
1.04650192049038
30
0
41
1
10
9.30673067545624
20
1.06210307136047
30
0
41
1
10
9.29611335443283
20
1.0780005550935
30
0
41
1
10
9.27637448594527
20
1.11054621213353
30
0
41
1
10
9.2672477816985
20
1.12719173954429
30
0
41
1
10
9.25506389088369
20
1.15291933864279
30
0
41
1
10
9.25125559567459
20
1.16162276825136
30
0
41
1
10
9.24424934360181
20
1.17933812791034
30
0
41
1
10
9.24104025624376
20
1.18838655082541
30
0
41
1
10
9.2326460617073
20
1.21579147025727
30
0
41
1
10
9.22864840139098
20
1.23436989534369
30
0
41
1
10
9.22548916335302
20
1.27247397594687
30
0
41
1
10
9.22640226005703
20
1.29130232961648
30
0
41
1
10
9.2329181628734
20
1.31897654564187
30
0
41
1
10
9.23600224051336
20
1.32815484684488
30
0
41
1
10
9.24383392756087
20
1.34545676824035
30
0
41
1
10
9.24859477496156
20
1.35368463504858
30
0
41
1
10
9.25702819001717
20
1.36538161212269
30
0
41
1
10
9.26005469852726
20
1.3691672933038
30
0
41
1
10
9.26639907314538
20
1.37637420644302
30
0
41
1
10
9.26973156400453
20
1.37981688246901
30
0
41
1
10
9.28017752214942
20
1.38969554499937
30
0
41
1
10
9.28777318634755
20
1.39570671247296
30
0
41
1
10
9.31191966245666
20
1.41199425464822
30
0
41
1
10
9.3293762584203
20
1.4203222779704
30
0
41
1
10
9.34775634770742
20
1.42693537054612
30
0
0
SPLINE
5
170
100
AcDbEntity
8
1
62
256
6
ByLayer
370
18
48
1
60
0
100
AcDbSpline
70
4
71
3
72
26
73
22
40
0
40
0
40
0
40
0
40
0.250000000000009
40
0.250000000000009
40
0.500000000000018
40
0.500000000000018
40
0.625000000000022
40
0.625000000000022
40
0.750000000000026
40
0.750000000000026
40
0.81250000000002
40
0.81250000000002
40
0.875000000000014
40
0.875000000000014
40
0.937500000000008
40
0.937500000000008
40
0.968750000000004
40
0.968750000000004
40
0.984375000000002
40
0.984375000000002
40
1
40
1
40
1
40
1
41
1
10
13.3163586137524
20
1.57384881942707
30
0
41
1
10
13.2532758200904
20
1.61777211675553
30
0
41
1
10
13.1905935257932
20
1.66204805061173
30
0
41
1
10
13.0663640012304
20
1.75170332294437
30
0
41
1
10
13.0047746790726
20
1.79708159638651
30
0
41
1
10
12.9139028892321
20
1.86658436702601
30
0
41
1
10
12.8838730333467
20
1.88999104036625
30
0
41
1
10
12.8245765536441
20
1.93754155432174
30
0
41
1
10
12.7952987585678
20
1.96167328750317
30
0
41
1
10
12.7523430658053
20
1.99884208920662
30
0
41
1
10
12.7381814467528
20
2.01140165115717
30
0
41
1
10
12.7104063597705
20
2.03694600860106
30
0
41
1
10
12.6967795303763
20
2.04993069813799
30
0
41
1
10
12.6704010199874
20
2.07663111712378
30
0
41
1
10
12.6575923129435
20
2.09033889161046
30
0
41
1
10
12.639853299329
20
2.11202685362542
30
0
41
1
10
12.6342199045423
20
2.11940691539743
30
0
41
1
10
12.6265638470885
20
2.13091089068203
30
0
41
1
10
12.6241460746232
20
2.13481892121629
30
0
41
1
10
12.6197356288482
20
2.14286866669369
30
0
41
1
10
12.6177326659548
20
2.1470046614499
30
0
41
1
10
12.6161305715054
20
2.15136211007501
30
0
0
SPLINE
5
171
100
AcDbEntity
8
1
62
256
6
ByLayer
370
18
48
1
60
0
100
AcDbSpline
70
4
71
3
72
20
73
16
40
0
40
0
40
0
40
0
40
0.0625000000000011
40
0.0625000000000011
40
0.125000000000002
40
0.125000000000002
40
0.250000000000003
40
0.250000000000003
40
0.375000000000003
40
0.375000000000003
40
0.500000000000004
40
0.500000000000004
40
0.750000000000002
40
0.750000000000002
40
1
40
1
40
1
40
1
41
1
10
12.6161305715054
20
2.15136211007498
30
0
41
1
10
12.6124875690974
20
2.16127051206766
30
0
41
1
10
12.6081381554594
20
2.17077063319601
30
0
41
1
10
12.5987036054796
20
2.18933837464189
30
0
41
1
10
12.593602519421
20
2.19839696349567
30
0
41
1
10
12.5775689386832
20
2.22513608963141
30
0
41
1
10
12.5659210927048
20
2.24238850015024
30
0
41
1
10
12.5416256469422
20
2.27626839887938
30
0
41
1
10
12.528956495551
20
2.29288366161117
30
0
41
1
10
12.5029547708252
20
2.32568143163803
30
0
41
1
10
12.4896099549454
20
2.34186833053758
30
0
41
1
10
12.4489664716983
20
2.38981461580073
30
0
41
1
10
12.4210369933518
20
2.42101605504732
30
0
41
1
10
12.3641919956702
20
2.48242984665893
30
0
41
1
10
12.3352631449566
20
2.51263182151334
30
0
41
1
10
12.3059795044651
20
2.54244946512458
30
0
0
SPLINE
5
172
100
AcDbEntity
8
1
62
256
6
ByLayer
370
18
48
1
60
0
100
AcDbSpline
70
4
71
3
72
24
73
20
40
0
40
0
40
0
40
0
40
0.125
40
0.125
40
0.25
40
0.25
40
0.375
40
0.375
40
0.5
40
0.5
40
0.5625
40
0.5625
40
0.625
40
0.625
40
0.75
40
0.75
40
0.875
40
0.875
40
1
40
1
40
1
40
1
41
1
10
12.3059795044651
20
2.54244946512458
30
0
41
1
10
12.1628091565319
20
2.6557630288809
30
0
41
1
10
12.0230067131517
20
2.76947892226983
30
0
41
1
10
11.7505409364116
20
2.99741894924486
30
0
41
1
10
11.6178778553456
20
3.11164430731134
30
0
41
1
10
11.3600831939855
20
3.34015418576152
30
0
41
1
10
11.234951703359
20
3.45444030315969
30
0
41
1
10
10.9925955014039
20
3.68242628651225
30
0
41
1
10
10.8753705563796
20
3.79612839567105
30
0
41
1
10
10.7057329364462
20
3.9655683245654
30
0
41
1
10
10.6501155785162
20
4.02197190165637
30
0
41
1
10
10.5421278140984
20
4.13307746377228
30
0
41
1
10
10.4896302535064
20
4.18790304890587
30
0
41
1
10
10.3365483324625
20
4.34998721402511
30
0
41
1
10
10.2403742445622
20
4.45485910116537
30
0
41
1
10
10.0593638884541
20
4.65698076592656
30
0
41
1
10
9.97452546783884
20
4.75423287242123
30
0
41
1
10
9.81580078291134
20
4.93964847856293
30
0
41
1
10
9.74191165440976
20
5.0278163097552
30
0
41
1
10
9.67336321771256
20
5.11055098145712
30
0
0
SPLINE
5
173
100
AcDbEntity
8
1
62
256
6
ByLayer
370
13
48
1
60
0
100
AcDbSpline
70
4
71
3
72
11
73
7
40
0
40
0
40
0
40
0
40
0.392423087188682
40
0.618671912067276
40
0.84492073694587
40
1
40
1
40
1
40
1
41
1
10
37.6017135386178
20
0.590439323572355
30
0
41
1
10
36.7344756924119
20
1.20574477842516
30
0
41
1
10
35.3672378462059
20
2.16233199161132
30
0
41
1
10
33.5
20
3.31656525453494
30
0
41
1
10
32.1572816165181
20
4.04883065893949
30
0
41
1
10
31.3145632330362
20
4.43554252404655
30
0
41
1
10
30.9718448495544
20
4.58007978472764
30
0
0
SPLINE
5
174
100
AcDbEntity
8
1
62
256
6
ByLayer
370
18
48
1
60
0
100
AcDbSpline
70
4
71
3
72
8
73
4
40
0
40
0
40
0
40
0
40
1
40
1
40
1
40
1
41
1
10
37.6816734880631
20
-5.69992476101643
30
0
41
1
10
37.6801013024179
20
-5.70156595837233
30
0
41
1
10
37.6785088137281
20
-5.70321138412149
30
0
41
1
10
37.676896253401
20
-5.70486035141769
30
0
0
SPLINE
5
175
100
AcDbEntity
8
1
62
256
6
ByLayer
370
18
48
1
60
0
100
AcDbSpline
70
4
71
3
72
16
73
12
40
0
40
0
40
0
40
0
40
0.25
40
0.25
40
0.5
40
0.5
40
0.625000000000001
40
0.625000000000001
40
0.750000000000001
40
0.750000000000001
40
1
40
1
40
1
40
1
41
1
10
37.6043466494834
20
-5.63497335332284
30
0
41
1
10
37.6116207765514
20
-5.63546159422077
30
0
41
1
10
37.6187516733887
20
-5.63702157604004
30
0
41
1
10
37.6327011822879
20
-5.64247831860112
30
0
41
1
10
37.6395372454319
20
-5.64639237839089
30
0
41
1
10
37.6493883297502
20
-5.6541999397536
30
0
41
1
10
37.6526089604854
20
-5.65712693020305
30
0
41
1
10
37.6589130693664
20
-5.66368657318259
30
0
41
1
10
37.6620037242128
20
-5.66732958579459
30
0
41
1
10
37.6709726387818
20
-5.679333102345
30
0
41
1
10
37.6765630597003
20
-5.68875364133513
30
0
41
1
10
37.6816734880631
20
-5.6999247610164
30
0
0
SPLINE
5
176
100
AcDbEntity
8
1
62
256
6
ByLayer
370
13
48
1
60
0
100
AcDbSpline
70
4
71
3
72
22
73
18
40
0
40
0
40
0
40
0
40
0.120803627430829
40
0.190381708026271
40
0.259959788621712
40
0.329537869217154
40
0.399115949812596
40
0.468694030408037
40
0.520877590854618
40
0.573061151301199
40
0.62524471174778
40
0.677428272194362
40
0.747006352789803
40
0.816584433385245
40
0.886162513980686
40
0.955740594576128
40
1
40
1
40
1
40
1
41
1
10
37.6043466504897
20
-5.63497335363306
30
0
41
1
10
36.7362311003264
20
-5.71576035091348
30
0
41
1
10
35.3681155501632
20
-5.68722157707657
30
0
41
1
10
33.5
20
-5.32425612917106
30
0
41
1
10
32
20
-4.84739473298046
30
0
41
1
10
30.5
20
-4.20925136944473
30
0
41
1
10
29
20
-3.42650064539589
30
0
41
1
10
27.6249999999999
20
-2.59986422826728
30
0
41
1
10
26.3750000000001
20
-1.78597099742763
30
0
41
1
10
25.2499999999999
20
-1.02069221415184
30
0
41
0.999999999999999
10
24.125
20
-0.234813315654833
30
0
41
1
10
22.875
20
0.642268983656862
30
0
41
1
10
21.4999999999999
20
1.59497845097008
30
0
41
1
10
20
20
2.57813560279004
30
0
41
1
10
18.5
20
3.47054730649481
30
0
41
1
10
17.1819443347308
20
4.15325638045607
30
0
41
1
10
16.3638886694616
20
4.51229316603755
30
0
41
1
10
16.0458330041924
20
4.64120456107895
30
0
0
SPLINE
5
177
100
AcDbEntity
8
1
62
256
6
ByLayer
370
18
48
1
60
0
100
AcDbSpline
70
4
71
3
72
16
73
12
40
0
40
0
40
0
40
0
40
0.250000000000004
40
0.250000000000004
40
0.500000000000007
40
0.500000000000007
40
0.625000000000007
40
0.625000000000007
40
0.750000000000006
40
0.750000000000006
40
1
40
1
40
1
40
1
41
1
10
37.601713537424
20
0.590439321893058
30
0
41
1
10
37.6091067279775
20
0.57090778918456
30
0
41
1
10
37.6163537835957
20
0.551697721300997
30
0
41
1
10
37.6305284441176
20
0.513980332067575
30
0
41
1
10
37.6374736663345
20
0.495425502293074
30
0
41
1
10
37.6474776097221
20
0.468568624096037
30
0
41
1
10
37.6507475194718
20
0.459767589265709
30
0
41
1
10
37.6571461051118
20
0.442495506969095
30
0
41
1
10
37.6602816215335
20
0.434005811950129
30
0
41
1
10
37.6693712961422
20
0.40930796948922
30
0
41
1
10
37.6750305220243
20
0.393813681684804
30
0
41
1
10
37.680190033812
20
0.3795306882121
30
0
0
SPLINE
5
178
100
AcDbEntity
8
1
62
256
6
ByLayer
370
18
48
1
60
0
100
AcDbSpline
70
4
71
3
72
8
73
4
40
0
40
0
40
0
40
0
40
1
40
1
40
1
40
1
41
1
10
37.4035318331851
20
1.14822477231041
30
0
41
1
10
37.4329262215011
20
1.05931798154526
30
0
41
1
10
37.4672714555056
20
0.957901002805698
30
0
41
1
10
37.506743739382
20
0.843537216283039
30
0
0
SPLINE
5
179
100
AcDbEntity
8
1
62
256
6
ByLayer
370
18
48
1
60
0
100
AcDbSpline
70
4
71
3
72
12
73
8
40
0
40
0
40
0
40
0
40
0.25
40
0.25
40
0.5
40
0.5
40
1
40
1
40
1
40
1
41
1
10
37.5067437468091
20
0.843537208998299
30
0
41
1
10
37.5141085764037
20
0.823701335344083
30
0
41
1
10
37.5216359020972
20
0.803489135356529
30
0
41
1
10
37.5369921617423
20
0.762366279008518
30
0
41
1
10
37.5448271502974
20
0.741439592484227
30
0
41
1
10
37.5686641387544
20
0.677924415960263
30
0
41
1
10
37.5850291446069
20
0.634517432410775
30
0
41
1
10
37.6017135349325
20
0.590439321405142
30
0
0
SPLINE
5
17A
100
AcDbEntity
8
1
62
256
6
ByLayer
370
18
48
1
60
0
100
AcDbSpline
70
4
71
3
72
35
73
31
40
0
40
0
40
0
40
0
40
0.0312500000000041
40
0.0312500000000041
40
0.0625000000000082
40
0.0625000000000082
40
0.125000000000016
40
0.125000000000016
40
0.140625000000017
40
0.140625000000017
40
0.156250000000018
40
0.18750000000002
40
0.18750000000002
40
0.250000000000018
40
0.250000000000018
40
0.312500000000017
40
0.312500000000017
40
0.375000000000015
40
0.375000000000015
40
0.500000000000012
40
0.500000000000012
40
0.562500000000011
40
0.562500000000011
40
0.625000000000009
40
0.625000000000009
40
0.750000000000006
40
0.750000000000006
40
0.875000000000003
40
0.875000000000003
40
1
40
1
40
1
40
1
41
1
10
9.34775634770739
20
1.42693537054612
30
0
41
1
10
9.38985242812561
20
1.44208139473187
30
0
41
1
10
9.4324070892859
20
1.45448280025894
30
0
41
1
10
9.51820239050264
20
1.47519664809181
30
0
41
1
10
9.56144525408428
20
1.48349552911185
30
0
41
1
10
9.69200269864703
20
1.50346571134381
30
0
41
1
10
9.78013560898259
20
1.51027455452078
30
0
41
1
10
9.89129460822366
20
1.51290339975728
30
0
41
1
10
9.91358087269737
20
1.51312817986107
30
0
41
1
10
9.95806042356216
20
1.51301640103594
30
0
41
1
10
10.0247135230286
20
1.51200795726882
30
0
41
1
10
10.091182611622
20
1.50866321640933
30
0
41
1
10
10.2239052115428
20
1.49923392379429
30
0
41
1
10
10.3121009464589
20
1.48931322618074
30
0
41
1
10
10.4880262474747
20
1.46351998237185
30
0
41
1
10
10.5753998587741
20
1.44768957971584
30
0
41
1
10
10.7489965015316
20
1.41111892764047
30
0
41
1
10
10.8352607766863
20
1.39036482004852
30
0
41
1
10
11.0925641393057
20
1.32165538907077
30
0
41
1
10
11.2610382654962
20
1.26760513032656
30
0
41
1
10
11.5102096245986
20
1.17676741017385
30
0
41
1
10
11.5926706870712
20
1.14484507443788
30
0
41
1
10
11.7565248504064
20
1.07801365796186
30
0
41
1
10
11.8379495848711
20
1.04308946311053
30
0
41
1
10
12.0805659881621
20
0.934307606879798
30
0
41
1
10
12.2397644948953
20
0.856612364331426
30
0
41
1
10
12.5540582214491
20
0.692645836651991
30
0
41
1
10
12.7092082707079
20
0.606327523735388
30
0
41
1
10
13.0154603287987
20
0.42705626278385
30
0
41
1
10
13.1666590561874
20
0.334052786535153
30
0
41
1
10
13.3163586137518
20
0.238361676888331
30
0
0
SPLINE
5
17B
100
AcDbEntity
8
1
62
256
6
ByLayer
370
18
48
1
60
0
100
AcDbSpline
70
4
71
3
72
8
73
4
40
0
40
0
40
0
40
0
40
1
40
1
40
1
40
1
41
1
10
37.6785160697307
20
-4.38132956218621
30
0
41
1
10
37.6781766436711
20
-4.38163051215372
30
0
41
1
10
37.6778363340967
20
-4.38192978749527
30
0
41
1
10
37.6774951432706
20
-4.38222739952587
30
0
0
SPLINE
5
17C
100
AcDbEntity
8
1
62
256
6
ByLayer
370
18
48
1
60
0
100
AcDbSpline
70
4
71
3
72
16
73
12
40
0
40
0
40
0
40
0
40
0.250000000000028
40
0.250000000000028
40
0.500000000000055
40
0.500000000000055
40
0.625000000000039
40
0.625000000000039
40
0.750000000000023
40
0.750000000000023
40
1
40
1
40
1
40
1
41
1
10
37.5986550543973
20
-4.15455734132922
30
0
41
1
10
37.6061950253702
20
-4.17079204838146
30
0
41
1
10
37.6135848624839
20
-4.18768502855272
30
0
41
1
10
37.6280353924643
20
-4.22291419300711
30
0
41
1
10
37.6351136441958
20
-4.24130261031041
30
0
41
1
10
37.6453026599871
20
-4.26977030759718
30
0
41
1
10
37.6486320707881
20
-4.27941821290409
30
0
41
1
10
37.6551443096422
20
-4.29906154290137
30
0
41
1
10
37.6583327713258
20
-4.30907685243932
30
0
41
1
10
37.6675638267827
20
-4.33941265535063
30
0
41
1
10
37.673302653128
20
-4.36008644348385
30
0
41
1
10
37.6785160697307
20
-4.38132956218627
30
0
0
SPLINE
5
17D
100
AcDbEntity
8
1
62
256
6
ByLayer
370
13
48
1
60
0
100
AcDbSpline
70
4
71
3
72
17
73
13
40
0
40
0
40
0
40
0
40
0.0797658451808919
40
0.188670607544435
40
0.297575369907978
40
0.406480132271521
40
0.515384894635064
40
0.624289656998607
40
0.73319441936215
40
0.842099181725693
40
0.951003944089236
40
1
40
1
40
1
40
1
41
1
10
37.5986550557994
20
-4.15455734013312
30
0
41
1
10
37.2324367038662
20
-3.97289862995595
30
0
41
1
10
36.3662183519331
20
-3.51229605475171
30
0
41
1
10
35
20
-2.67552268916018
30
0
41
1
10
33.5
20
-1.67080556648594
30
0
41
1
10
32
20
-0.58737532694758
30
0
41
1
10
30.5
20
0.503370968746481
30
0
41
1
10
29
20
1.57914310251485
30
0
41
1
10
27.5
20
2.60008980706257
30
0
41
1
10
26
20
3.5244589153437
30
0
41
1
10
24.7750509029752
20
4.17219309593116
30
0
41
1
10
24.0501018059504
20
4.50069431783427
30
0
41
1
10
23.8251527089255
20
4.59694469764892
30
0
0
SPLINE
5
17E
100
AcDbEntity
8
1
62
256
6
ByLayer
370
13
48
1
60
0
100
AcDbSpline
70
4
71
3
72
18
73
14
40
0
40
0
40
0
40
0
40
0.0349316848291169
40
0.12266516802647
40
0.210398651223823
40
0.298132134421176
40
0.385865617618529
40
0.473599100815882
40
0.561332584013235
40
0.649066067210588
40
0.736799550407941
40
0.824533033605294
40
1
40
1
40
1
40
1
41
1
10
31.0972352325942
20
-5.5187197667392
30
0
41
1
10
30.8981568217295
20
-5.55092802802426
30
0
41
1
10
30.1990784108648
20
-5.64775060064147
30
0
41
1
10
28.9999999999999
20
-5.71483546255874
30
0
41
1
10
27.4999999999999
20
-5.61698363477819
30
0
41
1
10
26
20
-5.34098439055242
30
0
41
1
10
24.5
20
-4.89597788409367
30
0
41
1
10
23
20
-4.29593336374813
30
0
41
1
10
21.4999999999999
20
-3.5578130433075
30
0
41
1
10
20
20
-2.70780038179538
30
0
41
1
10
18.4999999999999
20
-1.77443292686527
30
0
41
1
10
16.5
20
-0.45140994124435
30
0
41
1
10
15
20
0.579305005055005
30
0
41
1
10
14
20
1.23876105001665
30
0
0
SPLINE
5
17F
100
AcDbEntity
8
1
62
256
6
ByLayer
370
18
48
1
60
0
100
AcDbSpline
70
4
71
3
72
31
73
27
40
0
40
0
40
0
40
0
40
0.249999999999975
40
0.249999999999975
40
0.374999999999963
40
0.374999999999963
40
0.49999999999995
40
0.49999999999995
40
0.624999999999938
40
0.624999999999938
40
0.687499999999941
40
0.687499999999941
40
0.749999999999944
40
0.749999999999944
40
0.812499999999947
40
0.812499999999947
40
0.843749999999956
40
0.843749999999956
40
0.874999999999965
40
0.906249999999974
40
0.906249999999974
40
0.937499999999982
40
0.937499999999982
40
0.968749999999991
40
0.968749999999991
40
1
40
1
40
1
40
1
41
1
10
37.6801900338121
20
0.3795306882121
30
0
41
1
10
37.700931070485
20
0.326409401760657
30
0
41
1
10
37.7215638302095
20
0.273663142355815
30
0
41
1
10
37.7522654002159
20
0.195401232978895
30
0
41
1
10
37.7624536742154
20
0.169468503131839
30
0
41
1
10
37.7825997691222
20
0.118290205267129
30
0
41
1
10
37.7925722772079
20
0.0930066707222181
30
0
41
1
10
37.8122269165884
20
0.0433182812846269
30
0
41
1
10
37.8218507386664
20
0.0190600200462541
30
0
41
1
10
37.835818047208
20
-0.0159786304742795
30
0
41
1
10
37.8403949059863
20
-0.027430971879653
30
0
41
1
10
37.8493402709338
20
-0.0497357421494655
30
0
41
1
10
37.8537264917441
20
-0.0606322175967478
30
0
41
1
10
37.8621165936444
20
-0.0813607184921068
30
0
41
1
10
37.866112718873
20
-0.0911744444678675
30
0
41
1
10
37.8716769813002
20
-0.10470522016621
30
0
41
1
10
37.8734634940556
20
-0.109024866606177
30
0
41
1
10
37.876801357634
20
-0.117034104732142
30
0
41
1
10
37.8799175091482
20
-0.124446364611742
30
0
41
1
10
37.8825043677633
20
-0.130433459162049
30
0
41
1
10
37.8847655865158
20
-0.135543741190617
30
0
41
1
10
37.8857360226704
20
-0.137664111746403
30
0
41
1
10
37.8872183805753
20
-0.140706600845419
30
0
41
1
10
37.8877409715317
20
-0.141653872892704
30
0
41
1
10
37.8883156851558
20
-0.142313052439249
30
0
41
1
10
37.888363955701
20
-0.14201341442643
30
0
41
1
10
37.8881668217916
20
-0.141080552887928
30
0
0
SPLINE
5
180
100
AcDbEntity
8
1
62
256
6
ByLayer
370
18
48
1
60
0
100
AcDbSpline
70
4
71
3
72
8
73
4
40
0
40
0
40
0
40
0
40
1
40
1
40
1
40
1
41
1
10
37.680190033812
20
0.379530688212071
30
0
41
1
10
37.679186513243
20
0.379453839512536
30
0
41
1
10
37.6781748891104
20
0.379397319096995
30
0
41
1
10
37.6771552188181
20
0.379360594442289
30
0
0
SPLINE
5
181
100
AcDbEntity
8
1
62
256
6
ByLayer
370
18
48
1
60
0
100
AcDbSpline
70
4
71
3
72
28
73
24
40
0
40
0
40
0
40
0
40
0.125000000000001
40
0.125000000000001
40
0.250000000000002
40
0.250000000000002
40
0.312500000000001
40
0.312500000000001
40
0.374999999999999
40
0.374999999999999
40
0.499999999999997
40
0.499999999999997
40
0.562499999999995
40
0.562499999999995
40
0.624999999999994
40
0.624999999999994
40
0.749999999999994
40
0.749999999999994
40
0.812499999999995
40
0.812499999999995
40
0.874999999999996
40
0.874999999999996
40
1
40
1
40
1
40
1
41
1
10
37.9865236260634
20
-0.927053315681576
30
0
41
1
10
37.9872897475848
20
-0.930706247771298
30
0
41
1
10
37.9856184428491
20
-0.934103797059379
30
0
41
1
10
37.9776691508901
20
-0.940416227704958
30
0
41
1
10
37.9714064793501
20
-0.943332713773174
30
0
41
1
10
37.9584565194605
20
-0.947334865804663
30
0
41
1
10
37.9535821713507
20
-0.948593757092254
30
0
41
1
10
37.9428133777091
20
-0.950948507253031
30
0
41
1
10
37.9369087230647
20
-0.952047122433072
30
0
41
1
10
37.9176609358195
20
-0.955110768156743
30
0
41
1
10
37.9028032661296
20
-0.956846518553533
30
0
41
1
10
37.8773322190873
20
-0.958968048081971
30
0
41
1
10
37.8683510647747
20
-0.959589777379051
30
0
41
1
10
37.8496392879063
20
-0.960650017246763
30
0
41
1
10
37.8398780176912
20
-0.961091224503605
30
0
41
1
10
37.8093917674238
20
-0.962151114328634
30
0
41
1
10
37.7874790459329
20
-0.962509288714529
30
0
41
1
10
37.7520919337646
20
-0.962494268980748
30
0
41
1
10
37.7398797877536
20
-0.962395521937623
30
0
41
1
10
37.7150852255625
20
-0.962014855110141
30
0
41
1
10
37.7024447860673
20
-0.961733147846957
30
0
41
1
10
37.6638005171612
20
-0.960616356384605
30
0
41
1
10
37.6370841682656
20
-0.959513522240513
30
0
41
1
10
37.6093577785029
20
-0.958031135828207
30
0
0
SPLINE
5
182
100
AcDbEntity
8
1
62
256
6
ByLayer
370
13
48
1
60
0
100
AcDbSpline
70
4
71
3
72
8
73
4
40
0
40
0
40
0
40
0
40
1
40
1
40
1
40
1
41
1
10
37.4866255968969
20
-0.847796339150904
30
0
41
1
10
37.4616351093097
20
-0.648096453434817
30
0
41
1
10
37.4366446217225
20
-0.44839656771876
30
0
41
1
10
37.4116541341353
20
-0.248696682002674
30
0
0
SPLINE
5
183
100
AcDbEntity
8
1
62
256
6
ByLayer
370
18
48
1
60
0
100
AcDbSpline
70
4
71
3
72
12
73
8
40
0
40
0
40
0
40
0
40
0.257457845374008
40
0.257457845374008
40
0.514915726908893
40
0.514915726908893
40
1
40
1
40
1
40
1
41
1
10
37.486625596897
20
-0.847796339150904
30
0
41
1
10
37.4835180997591
20
-0.84709622314719
30
0
41
1
10
37.4804094324483
20
-0.846401261114892
30
0
41
1
10
37.4741897423569
20
-0.845021960081027
30
0
41
1
10
37.4710787105032
20
-0.844337619049583
30
0
41
1
10
37.4621026723579
20
-0.842379682073755
30
0
41
1
10
37.4562345722789
20
-0.841120026891673
30
0
41
1
10
37.450362149696
20
-0.839880948817296
30
0
0
SPLINE
5
184
100
AcDbEntity
8
1
62
256
6
ByLayer
370
18
48
1
60
0
100
AcDbSpline
70
4
71
3
72
84
73
80
40
0
40
0
40
0
40
0
40
0.0119638203303763
40
0.0119638203303763
40
0.0334428677144993
40
0.0334428677144993
40
0.0549219150986223
40
0.0549219150986223
40
0.09788000986687
40
0.09788000986687
40
0.140838104635118
40
0.140838104635118
40
0.183796199403365
40
0.183796199403365
40
0.205275246787489
40
0.205275246787489
40
0.226754294171613
40
0.226754294171613
40
0.26971238893986
40
0.26971238893986
40
0.291191436323983
40
0.291191436323983
40
0.312670483708107
40
0.312670483708107
40
0.334149531092229
40
0.334149531092229
40
0.355628578476352
40
0.355628578476352
40
0.377107625860475
40
0.377107625860475
40
0.398586673244598
40
0.398586673244598
40
0.420065720628721
40
0.420065720628721
40
0.441544768012844
40
0.441544768012844
40
0.463023815396967
40
0.463023815396967
40
0.48450286278109
40
0.48450286278109
40
0.505981910165213
40
0.505981910165213
40
0.527460957549336
40
0.527460957549336
40
0.548940004933459
40
0.548940004933459
40
0.570419052317582
40
0.570419052317582
40
0.613377147085828
40
0.613377147085828
40
0.634856194469951
40
0.634856194469951
40
0.656335241854073
40
0.656335241854073
40
0.699293336622318
40
0.699293336622318
40
0.720772384006439
40
0.720772384006439
40
0.74225143139056
40
0.74225143139056
40
0.763730478774682
40
0.763730478774682
40
0.785209526158803
40
0.785209526158803
40
0.828167620927043
40
0.828167620927043
40
0.849646668311163
40
0.849646668311163
40
0.871125715695283
40
0.871125715695283
40
0.892604763079402
40
0.892604763079402
40
0.914083810463522
40
0.914083810463522
40
0.935562857847642
40
0.935562857847642
40
0.957041905231762
40
0.957041905231762
40
1
40
1
40
1
40
1
41
1
10
31.2236978592879
20
-5.55331767490949
30
0
41
1
10
31.1550091730738
20
-5.5666664596599
30
0
41
1
10
31.0863157368709
20
-5.57946256173159
30
0
41
1
10
30.8942709961783
20
-5.6136792533419
30
0
41
1
10
30.7709007686435
20
-5.6338635179348
30
0
41
1
10
30.5240615334823
20
-5.67059475094212
30
0
41
1
10
30.4006261390521
20
-5.68713574160927
30
0
41
1
10
30.03051717982
20
-5.73115893140411
30
0
41
1
10
29.7837705755521
20
-5.75306959694089
30
0
41
1
10
29.2907472149324
20
-5.78214148519479
30
0
41
1
10
29.0443985753211
20
-5.78930506821345
30
0
41
1
10
28.5514038385495
20
-5.78874549085668
30
0
41
1
10
28.3046691189256
20
-5.78100460945487
30
0
41
1
10
27.9347555709715
20
-5.75812574000736
30
0
41
1
10
27.8114272919367
20
-5.74862164284727
30
0
41
1
10
27.56479760456
20
-5.72586723622996
30
0
41
1
10
27.4415543221548
20
-5.71261677753961
30
0
41
1
10
27.0718869204631
20
-5.66737363087361
30
0
41
1
10
26.8255074774083
20
-5.62995785154268
30
0
41
1
10
26.4555926103142
20
-5.56316227140761
30
0
41
1
10
26.3321990397491
20
-5.53909135123061
30
0
41
1
10
26.0854629799588
20
-5.48734150081819
30
0
41
1
10
25.9621245140492
20
-5.45966937977454
30
0
41
1
10
25.715407637372
20
-5.40083789432549
30
0
41
1
10
25.5920060931059
20
-5.36967414964917
30
0
41
1
10
25.3452405957258
20
-5.30398469192903
30
0
41
1
10
25.2218719192115
20
-5.26944844475241
30
0
41
1
10
24.975118268744
20
-5.19694312843461
30
0
41
1
10
24.8517180147348
20
-5.15895198420625
30
0
41
1
10
24.6050119246791
20
-5.07961459979984
30
0
41
1
10
24.4816736985532
20
-5.03830682430987
30
0
41
1
10
24.2349228089032
20
-4.95256704986505
30
0
41
1
10
24.111506964174
20
-4.90810646692609
30
0
41
1
10
23.864762037503
20
-4.81606156710026
30
0
41
1
10
23.7414103564425
20
-4.76847147015658
30
0
41
1
10
23.4946969723628
20
-4.6701428761705
30
0
41
1
10
23.3713413164667
20
-4.61938133013766
30
0
41
1
10
23.1247082053365
20
-4.51495514037063
30
0
41
1
10
23.0013959263173
20
-4.46131217234228
30
0
41
1
10
22.7547264294012
20
-4.35117566450478
30
0
41
1
10
22.6313859135354
20
-4.29467758660525
30
0
41
1
10
22.384792399783
20
-4.17892444621046
30
0
41
1
10
22.2615163427235
20
-4.11965994090772
30
0
41
1
10
22.0149334330932
20
-3.99838565802108
30
0
41
1
10
21.8916756443822
20
-3.93639773339461
30
0
41
1
10
21.6452395671385
20
-3.81012625227103
30
0
41
1
10
21.522037369165
20
-3.74582088775543
30
0
41
1
10
21.152408419043
20
-3.54938373414623
30
0
41
1
10
20.905963340407
20
-3.41372147682168
30
0
41
1
10
20.5358752362061
20
-3.20351630355106
30
0
41
1
10
20.412535377486
20
-3.13243205143203
30
0
41
1
10
20.1657880601052
20
-2.98842799681594
30
0
41
1
10
20.0423754323723
20
-2.91546167995574
30
0
41
1
10
19.6721201630846
20
-2.69380897781309
30
0
41
1
10
19.4255168231335
20
-2.54260254948065
30
0
41
1
10
19.0555952434105
20
-2.31111746479814
30
0
41
1
10
18.9322921380841
20
-2.23315861086195
30
0
41
1
10
18.6856082401961
20
-2.07578285319642
30
0
41
1
10
18.5621881406414
20
-1.99635423675235
30
0
41
1
10
18.315395349149
20
-1.8362430985305
30
0
41
1
10
18.192039511685
20
-1.75556666281892
30
0
41
1
10
17.9453305245942
20
-1.59307850258591
30
0
41
1
10
17.8219400983144
20
-1.51124319222831
30
0
41
1
10
17.4520116184092
20
-1.26440570071085
30
0
41
1
10
17.2056804995365
20
-1.09808557763867
30
0
41
1
10
16.8360307961346
20
-0.846832859875292
30
0
41
1
10
16.7127943610765
20
-0.762776480334935
30
0
41
1
10
16.4662257836362
20
-0.594123917503708
30
0
41
1
10
16.3428680813997
20
-0.509513489898353
30
0
41
1
10
16.0962640522018
20
-0.340057529869767
30
0
41
1
10
15.9729879016489
20
-0.255189479211595
30
0
41
1
10
15.7264052721536
20
-0.0852920792776786
30
0
41
1
10
15.6030904392755
20
-0.0002612005245624
30
0
41
1
10
15.3565274796912
20
0.169682345061176
30
0
41
1
10
15.2332542569766
20
0.254610435655337
30
0
41
1
10
14.986641492801
20
0.42425906826918
30
0
41
1
10
14.8633127824511
20
0.508978129804888
30
0
41
1
10
14.4934338636329
20
0.762382133907181
30
0
41
1
10
14.2468547200867
20
0.930371899268579
30
0
41
1
10
14
20
1.09699135594752
30
0
0
SPLINE
5
185
100
AcDbEntity
8
1
62
256
6
ByLayer
370
18
48
1
60
0
100
AcDbSpline
70
4
71
3
72
8
73
4
40
0
40
0
40
0
40
0
40
1
40
1
40
1
40
1
41
1
10
14
20
1.09699135594874
30
0
41
1
10
13.8519039133791
20
1.19255881864632
30
0
41
1
10
13.7047989657755
20
1.28910420285914
30
0
41
1
10
13.5588485748561
20
1.38654238403913
30
0
0
SPLINE
5
186
100
AcDbEntity
8
1
62
256
6
ByLayer
370
18
48
1
60
0
100
AcDbSpline
70
4
71
3
72
110
73
106
40
0
40
0
40
0
40
0
40
0.0312500000000006
40
0.0312500000000006
40
0.0468750000000008
40
0.0468750000000008
40
0.0625000000000011
40
0.0625000000000011
40
0.0781250000000014
40
0.0781250000000014
40
0.0937500000000017
40
0.0937500000000017
40
0.109375000000002
40
0.109375000000002
40
0.125000000000002
40
0.125000000000002
40
0.156250000000002
40
0.156250000000002
40
0.171875000000001
40
0.171875000000001
40
0.187500000000001
40
0.187500000000001
40
0.218750000000001
40
0.218750000000001
40
0.25
40
0.25
40
0.265624999999999
40
0.265624999999999
40
0.281249999999998
40
0.281249999999998
40
0.296874999999997
40
0.296874999999997
40
0.312499999999996
40
0.312499999999996
40
0.328124999999995
40
0.328124999999995
40
0.343749999999995
40
0.343749999999995
40
0.374999999999993
40
0.374999999999993
40
0.390624999999992
40
0.390624999999992
40
0.406249999999991
40
0.406249999999991
40
0.437499999999991
40
0.437499999999991
40
0.45312499999999
40
0.45312499999999
40
0.468749999999989
40
0.468749999999989
40
0.484374999999988
40
0.484374999999988
40
0.499999999999987
40
0.499999999999987
40
0.515624999999986
40
0.515624999999986
40
0.531249999999986
40
0.531249999999986
40
0.546874999999985
40
0.546874999999985
40
0.562499999999984
40
0.562499999999984
40
0.593749999999982
40
0.593749999999982
40
0.609374999999982
40
0.609374999999982
40
0.624999999999982
40
0.624999999999982
40
0.656249999999982
40
0.656249999999982
40
0.671874999999983
40
0.671874999999983
40
0.687499999999984
40
0.687499999999984
40
0.703124999999985
40
0.703124999999985
40
0.718749999999986
40
0.718749999999986
40
0.734374999999987
40
0.734374999999987
40
0.749999999999988
40
0.749999999999988
40
0.781249999999989
40
0.781249999999989
40
0.812499999999989
40
0.812499999999989
40
0.84374999999999
40
0.84374999999999
40
0.859374999999991
40
0.859374999999991
40
0.874999999999992
40
0.874999999999992
40
0.890624999999993
40
0.890624999999993
40
0.906249999999994
40
0.906249999999994
40
0.921874999999995
40
0.921874999999995
40
0.937499999999996
40
0.937499999999996
40
0.953124999999997
40
0.953124999999997
40
0.968749999999998
40
0.968749999999998
40
1
40
1
40
1
40
1
41
1
10
37.6768962534008
20
-5.70486035141769
30
0
41
1
10
37.4301155397614
20
-5.73474302686458
30
0
41
1
10
37.1836256144708
20
-5.75666114849747
30
0
41
1
10
36.8139441874345
20
-5.77757826653749
30
0
41
1
10
36.6907199163827
20
-5.78255734092232
30
0
41
1
10
36.4441869262223
20
-5.78852327420108
30
0
41
1
10
36.3208409500136
20
-5.78951068021272
30
0
41
1
10
36.0741654433536
20
-5.78746184301849
30
0
41
1
10
35.9508615159686
20
-5.78442713643949
30
0
41
1
10
35.7042286229293
20
-5.77431715654336
30
0
41
1
10
35.58087366243
20
-5.76723858524312
30
0
41
1
10
35.3341986151316
20
-5.7490918719304
30
0
41
1
10
35.2108700676692
20
-5.73802447878586
30
0
41
1
10
34.9641120374507
20
-5.71195748284862
30
0
41
1
10
34.8406538442817
20
-5.69695496796564
30
0
41
1
10
34.4704999909114
20
-5.64610244454676
30
0
41
1
10
34.2239062209852
20
-5.60436363410497
30
0
41
1
10
33.8539644177165
20
-5.53011756174502
30
0
41
1
10
33.7306397132373
20
-5.50343565042499
30
0
41
1
10
33.4839174584102
20
-5.44621746600765
30
0
41
1
10
33.3605761262548
20
-5.41568359072352
30
0
41
1
10
32.9907721125275
20
-5.31841132927875
30
0
41
1
10
32.74428497775
20
-5.24590362932145
30
0
41
1
10
32.2517658965567
20
-5.08671200528858
30
0
41
1
10
32.0055758946635
20
-5.00006557284814
30
0
41
1
10
31.6356978381263
20
-4.85996671366971
30
0
41
1
10
31.512284962392
20
-4.81153915696495
30
0
41
1
10
31.2654417148165
20
-4.71141466339208
30
0
41
1
10
31.142025862885
20
-4.65972968682004
30
0
41
1
10
30.8951348424197
20
-4.55321845711708
30
0
41
1
10
30.7716341131097
20
-4.49838529036001
30
0
41
1
10
30.5247070505221
20
-4.38569354006538
30
0
41
1
10
30.4012716139188
20
-4.32782646301416
30
0
41
1
10
30.1543919782851
20
-4.20909110024104
30
0
41
1
10
30.0309264210922
20
-4.14821362568276
30
0
41
1
10
29.7842169022893
20
-4.02367654995231
30
0
41
1
10
29.6609360820765
20
-3.95999981574982
30
0
41
1
10
29.2911896015192
20
-3.76484911904495
30
0
41
1
10
29.0448259627005
20
-3.62923778773271
30
0
41
1
10
28.6749460335363
20
-3.41799032189195
30
0
41
1
10
28.551647111942
20
-3.34634148505788
30
0
41
1
10
28.3050778270324
20
-3.20089701712792
30
0
41
1
10
28.1817849992541
20
-3.12706686485518
30
0
41
1
10
27.8117962893069
20
-2.90236361688125
30
0
41
1
10
27.5654539274604
20
-2.74852742824831
30
0
41
1
10
27.1958918054383
20
-2.51230820487783
30
0
41
1
10
27.0726916830498
20
-2.43267087056103
30
0
41
1
10
26.8261601371722
20
-2.2717578065909
30
0
41
1
10
26.702786453223
20
-2.19046223634868
30
0
41
1
10
26.4560601883845
20
-2.02645458431934
30
0
41
1
10
26.3327141526328
20
-1.94374833973373
30
0
41
1
10
26.0860010526503
20
-1.776973452883
30
0
41
1
10
25.9626146048466
20
-1.6928819611511
30
0
41
1
10
25.7158659445688
20
-1.5237268465001
30
0
41
1
10
25.5924902153213
20
-1.43864735103014
30
0
41
1
10
25.3456970461213
20
-1.26751704012443
30
0
41
1
10
25.2222706630743
20
-1.18145931031572
30
0
41
1
10
24.9755301907876
20
-1.00858676103186
30
0
41
1
10
24.8521919257337
20
-0.921750693020215
30
0
41
1
10
24.6054831912106
20
-0.747408460075519
30
0
41
1
10
24.4821163153705
20
-0.659935720275428
30
0
41
1
10
24.1120323168582
20
-0.397117248042662
30
0
41
1
10
23.8651591847018
20
-0.221193433708407
30
0
41
1
10
23.4950260348626
20
0.0428294316617439
30
0
41
1
10
23.3716592888716
20
0.130890894503295
30
0
41
1
10
23.1249076881739
20
0.306913683375029
30
0
41
1
10
23.0016062068727
20
0.394792463104153
30
0
41
1
10
22.6318425402192
20
0.657910544853252
30
0
41
1
10
22.385541903422
20
0.832653820848606
30
0
41
1
10
22.0158945459904
20
1.09302099586964
30
0
41
1
10
21.8926070369508
20
1.17954548936444
30
0
41
1
10
21.646036477381
20
1.35162732733497
30
0
41
1
10
21.5227516231954
20
1.43718923006477
30
0
41
1
10
21.276124421051
20
1.60724990491582
30
0
41
1
10
21.1527616553725
20
1.69176387438512
30
0
41
1
10
20.9061002961232
20
1.85948422319538
30
0
41
1
10
20.782782748935
20
1.94270459872632
30
0
41
1
10
20.5360874152816
20
2.10774805719373
30
0
41
1
10
20.4127025284945
20
2.18957289154852
30
0
41
1
10
20.1660825164309
20
2.35148780512887
30
0
41
1
10
20.0428058505616
20
2.43160416778935
30
0
41
1
10
19.6729328909708
20
2.66926325599317
30
0
41
1
10
19.4263122118899
20
2.82413152870723
30
0
41
1
10
18.9324936749723
20
3.12601797382021
30
0
41
1
10
18.6856623568938
20
3.2727995466376
30
0
41
1
10
18.1919845005075
20
3.5571134015419
30
0
41
1
10
17.9455187464367
20
3.69442718035919
30
0
41
1
10
17.5758471556677
20
3.89252039232196
30
0
41
1
10
17.4526261569449
20
3.95723835506419
30
0
41
1
10
17.2060912502748
20
4.08394184517806
30
0
41
1
10
17.0827369017291
20
4.14594672163008
30
0
41
1
10
16.8360859266499
20
4.26700101252314
30
0
41
1
10
16.7127796486197
20
4.32605895794705
30
0
41
1
10
16.4661307415985
20
4.44115915421446
30
0
41
1
10
16.3427748962771
20
4.49720345505756
30
0
41
1
10
16.0961639698257
20
4.60608220159452
30
0
41
1
10
15.9728814669419
20
4.65893337209448
30
0
41
1
10
15.7262637188422
20
4.76139719025716
30
0
41
1
10
15.6029316820216
20
4.81100642315022
30
0
41
1
10
15.3563719883861
20
4.90680730718901
30
0
41
1
10
15.2331139800895
20
4.95301200616569
30
0
41
1
10
14.9865535444158
20
5.04194898920372
30
0
41
1
10
14.8632183246055
20
5.08468981402933
30
0
41
1
10
14.4933040372667
20
5.207504841987
30
0
41
1
10
14.2467964348682
20
5.28219862317835
30
0
41
1
10
14
20
5.34951308908452
30
0
0
SPLINE
5
187
100
AcDbEntity
8
1
62
256
6
ByLayer
370
18
48
1
60
0
100
AcDbSpline
70
4
71
3
72
10
73
6
40
0
40
0
40
0
40
0
40
0.5
40
0.5
40
1
40
1
40
1
40
1
41
1
10
14
20
5.34951308908435
30
0
41
1
10
13.9256089399583
20
5.36914533730982
30
0
41
1
10
13.8515088505764
20
5.38825314975892
30
0
41
1
10
13.7038675250126
20
5.42534409767561
30
0
41
1
10
13.6303100415016
20
5.44333112162226
30
0
41
1
10
13.5571410092649
20
5.46070798791649
30
0
0
SPLINE
5
188
100
AcDbEntity
8
1
62
256
6
ByLayer
370
18
48
1
60
0
100
AcDbSpline
70
4
71
3
72
8
73
4
40
0
40
0
40
0
40
0
40
1
40
1
40
1
40
1
41
1
10
37.3725833301992
20
-0.220779031926838
30
0
41
1
10
37.3745824100047
20
-0.235782167006789
30
0
41
1
10
37.3765813106818
20
-0.250787431723069
30
0
41
1
10
37.3785800292704
20
-0.265794802943645
30
0
0
SPLINE
5
189
100
AcDbEntity
8
1
62
256
6
ByLayer
370
18
48
1
60
0
100
AcDbSpline
70
4
71
3
72
12
73
8
40
0
40
0
40
0
40
0
40
0.398132269230583
40
0.398132269230583
40
0.699065035048934
40
0.699065035048934
40
1
40
1
40
1
40
1
41
1
10
37.3725833301993
20
-0.220779031926952
30
0
41
1
10
37.3777847615
20
-0.224461109599787
30
0
41
1
10
37.382979846531
20
-0.228152161853132
30
0
41
1
10
37.3920902286031
20
-0.234649181082915
30
0
41
1
10
37.3960083336255
20
-0.23745123743339
30
0
41
1
10
37.4038369600452
20
-0.243065962360163
30
0
41
1
10
37.4077474885598
20
-0.245878636158352
30
0
41
1
10
37.4116541341353
20
-0.248696682002674
30
0
0
SPLINE
5
18A
100
AcDbEntity
8
1
62
256
6
ByLayer
370
18
48
1
60
0
100
AcDbSpline
70
4
71
3
72
38
73
34
40
0
40
0
40
0
40
0
40
0.0312500000000238
40
0.0312500000000238
40
0.0625000000000477
40
0.0625000000000477
40
0.0937500000000716
40
0.0937500000000716
40
0.125000000000095
40
0.125000000000095
40
0.140625000000084
40
0.140625000000084
40
0.156250000000073
40
0.156250000000073
40
0.171875000000062
40
0.171875000000062
40
0.187500000000051
40
0.187500000000051
40
0.218750000000063
40
0.218750000000063
40
0.250000000000074
40
0.250000000000074
40
0.312500000000074
40
0.312500000000074
40
0.375000000000074
40
0.375000000000074
40
0.50000000000006
40
0.50000000000006
40
0.625000000000046
40
0.625000000000046
40
0.750000000000032
40
0.750000000000032
40
1
40
1
40
1
40
1
41
1
10
37.4116541341353
20
-0.248696682002588
30
0
41
1
10
37.4186422037113
20
-0.25373750284183
30
0
41
1
10
37.4258461718459
20
-0.258356485982887
30
0
41
1
10
37.4408599233356
20
-0.266413015230256
30
0
41
1
10
37.4487272270603
20
-0.269877544752489
30
0
41
1
10
37.4651176085576
20
-0.274913921501678
30
0
41
1
10
37.4734586982536
20
-0.276435962910398
30
0
41
1
10
37.4905378684176
20
-0.276794915955463
30
0
41
1
10
37.4988151754437
20
-0.275603196787387
30
0
41
1
10
37.5107933823122
20
-0.271775042806894
30
0
41
1
10
37.5147068323974
20
-0.270154438925459
30
0
41
1
10
37.522145812902
20
-0.266397416686686
30
0
41
1
10
37.5257082681891
20
-0.264250806026894
30
0
41
1
10
37.5325620212042
20
-0.259493826125862
30
0
41
1
10
37.5358525589324
20
-0.256879557872225
30
0
41
1
10
37.542065003973
20
-0.251378155881952
30
0
41
1
10
37.5450088550707
20
-0.248476632366135
30
0
41
1
10
37.5534444195283
20
-0.239403741353357
30
0
41
1
10
37.558547580929
20
-0.232864315996721
30
0
41
1
10
37.5680032660027
20
-0.219112332160734
30
0
41
1
10
37.5722732930455
20
-0.212020322050393
30
0
41
1
10
37.5841372106775
20
-0.190296794905748
30
0
41
1
10
37.5908024354757
20
-0.175226002843601
30
0
41
1
10
37.6026993822993
20
-0.144404021183845
30
0
41
1
10
37.6079170326642
20
-0.128623152135106
30
0
41
1
10
37.6220557873655
20
-0.0807085542718085
30
0
41
1
10
37.6294027150922
20
-0.0484158485463126
30
0
41
1
10
37.6419649875429
20
0.0165283118612081
30
0
41
1
10
37.6471300725943
20
0.0491880806291647
30
0
41
1
10
37.6560445542343
20
0.114743808237023
30
0
41
1
10
37.6597819277326
20
0.147641768470692
30
0
41
1
10
37.6694681550681
20
0.24658640528898
30
0
41
1
10
37.6739199024635
20
0.31287891536013
30
0
41
1
10
37.6771552188182
20
0.379360594442289
30
0
0
SPLINE
5
18B
100
AcDbEntity
8
1
62
256
6
ByLayer
370
18
48
1
60
0
100
AcDbSpline
70
4
71
3
72
54
73
50
40
0
40
0
40
0
40
0
40
0.0668270489640623
40
0.0668270489640623
40
0.100240573446093
40
0.100240573446093
40
0.133654097928125
40
0.133654097928125
40
0.167067622410156
40
0.167067622410156
40
0.200481146892187
40
0.200481146892187
40
0.233894671374218
40
0.233894671374218
40
0.267308195856249
40
0.267308195856249
40
0.334135244820314
40
0.334135244820314
40
0.400962293784379
40
0.400962293784379
40
0.434375818266411
40
0.434375818266411
40
0.467789342748443
40
0.467789342748443
40
0.501202867230476
40
0.501202867230476
40
0.534616391712508
40
0.534616391712508
40
0.60144344067657
40
0.60144344067657
40
0.634856965158602
40
0.634856965158602
40
0.668270489640635
40
0.668270489640635
40
0.735097538604699
40
0.735097538604699
40
0.801924587568764
40
0.801924587568764
40
0.835338112050798
40
0.835338112050798
40
0.868751636532831
40
0.868751636532831
40
0.902165161014865
40
0.902165161014865
40
0.935578685496899
40
0.935578685496899
40
0.968992209978932
40
0.968992209978932
40
1
40
1
40
1
40
1
41
1
10
37.6771552188181
20
0.379360594442375
30
0
41
1
10
37.4303374741686
20
0.558321906082455
30
0
41
1
10
37.1838327820162
20
0.736512746131183
30
0
41
1
10
36.8141271556596
20
1.00193105603722
30
0
41
1
10
36.6908954709014
20
1.09009357681777
30
0
41
1
10
36.4443446709429
20
1.26566914426587
30
0
41
1
10
36.3209834350487
20
1.35311151745623
30
0
41
1
10
36.0743169446039
20
1.52693867693029
30
0
41
1
10
35.9510165796389
20
1.61332035501573
30
0
41
1
10
35.7043782402264
20
1.78487916443962
30
0
41
1
10
35.5810185717199
20
1.87007088574927
30
0
41
1
10
35.3343608517312
20
2.03895561550965
30
0
41
1
10
35.2110423370493
20
2.12266283587741
30
0
41
1
10
34.9642794292076
20
2.2884499918321
30
0
41
1
10
34.8408323496443
20
2.37052299822096
30
0
41
1
10
34.4706930655673
20
2.61384844519003
30
0
41
1
10
34.2240425937165
20
2.77232842132057
30
0
41
1
10
33.7305993006396
20
3.08131285546963
30
0
41
1
10
33.4837089407056
20
3.23191580267442
30
0
41
1
10
33.1139055294962
20
3.45069736893808
30
0
41
1
10
32.9906589492583
20
3.52245845923363
30
0
41
1
10
32.7442397480864
20
3.66338416521379
30
0
41
1
10
32.621090167223
20
3.73253537501711
30
0
41
1
10
32.3747334601811
20
3.86807878617896
30
0
41
1
10
32.2514845071773
20
3.93449306795753
30
0
41
1
10
32.0050286757745
20
4.06428721226951
30
0
41
1
10
31.8818030726279
20
4.12766701996307
30
0
41
1
10
31.5120174250884
20
4.31316051247279
30
0
41
1
10
31.2653666206647
20
4.43065020796539
30
0
41
1
10
30.8949291852881
20
4.59728789207009
30
0
41
1
10
30.7713926833841
20
4.65122234856278
30
0
41
1
10
30.5244500929857
20
4.75567784672856
30
0
41
1
10
30.4010069134884
20
4.80621863181133
30
0
41
1
10
30.030654754861
20
4.95264588638085
30
0
41
1
10
29.7839585100974
20
5.04322670356783
30
0
41
1
10
29.2904799612589
20
5.20982994158319
30
0
41
1
10
29.0440803562263
20
5.28572418514452
30
0
41
1
10
28.6744408511179
20
5.38807919252127
30
0
41
1
10
28.5512228036559
20
5.42028291273613
30
0
41
1
10
28.3046886375641
20
5.4807886333131
30
0
41
1
10
28.1813350184036
20
5.50909774549373
30
0
41
1
10
27.9347385522152
20
5.56167131633373
30
0
41
1
10
27.8114713973995
20
5.58594294452985
30
0
41
1
10
27.5649003636489
20
5.63039131080797
30
0
41
1
10
27.4415948239775
20
5.65055329286201
30
0
41
1
10
27.1950323559574
20
5.68679654970484
30
0
41
1
10
27.071740259328
20
5.70290437884873
30
0
41
1
10
26.8339266655111
20
5.7300620671603
30
0
41
1
10
26.7194376862909
20
5.7413879731879
30
0
41
1
10
26.6049623942368
20
5.75092433938124
30
0
0
SPLINE
5
18C
100
AcDbEntity
8
1
62
256
6
ByLayer
370
18
48
1
60
0
100
AcDbSpline
70
4
71
3
72
8
73
4
40
0
40
0
40
0
40
0
40
1
40
1
40
1
40
1
41
1
10
37.3729028373178
20
-4.87471612129153
30
0
41
1
10
37.3859567772074
20
-4.87993521751292
30
0
41
1
10
37.3989708118945
20
-4.88518714588361
30
0
41
1
10
37.4119419028168
20
-4.89047366615623
30
0
0
SPLINE
5
18D
100
AcDbEntity
8
1
62
256
6
ByLayer
370
18
48
1
60
0
100
AcDbSpline
70
4
71
3
72
38
73
34
40
0
40
0
40
0
40
0
40
0.031249999999963
40
0.031249999999963
40
0.0624999999999261
40
0.0624999999999261
40
0.0937499999998891
40
0.0937499999998891
40
0.124999999999852
40
0.124999999999852
40
0.140624999999857
40
0.140624999999857
40
0.156249999999861
40
0.156249999999861
40
0.171874999999865
40
0.171874999999865
40
0.187499999999869
40
0.187499999999869
40
0.218749999999878
40
0.218749999999878
40
0.249999999999886
40
0.249999999999886
40
0.312499999999901
40
0.312499999999901
40
0.374999999999916
40
0.374999999999916
40
0.499999999999934
40
0.499999999999934
40
0.624999999999951
40
0.624999999999951
40
0.749999999999969
40
0.749999999999969
40
1
40
1
40
1
40
1
41
1
10
37.4119419028168
20
-4.8904736661562
30
0
41
1
10
37.4189176211079
20
-4.8933167019797
30
0
41
1
10
37.4261081700839
20
-4.89579706330818
30
0
41
1
10
37.4410917745807
20
-4.89975466319871
30
0
41
1
10
37.448931258544
20
-4.90124319517119
30
0
41
1
10
37.4653147759237
20
-4.90268185499565
30
0
41
1
10
37.4736530754055
20
-4.90261626936805
30
0
41
1
10
37.4907289279092
20
-4.90038699089985
30
0
41
1
10
37.4990478861417
20
-4.89825900637669
30
0
41
1
10
37.5110612608204
20
-4.89358614303603
30
0
41
1
10
37.5149947989955
20
-4.89177506465288
30
0
41
1
10
37.5224697071206
20
-4.88781909141764
30
0
41
1
10
37.526048785656
20
-4.88566112649485
30
0
41
1
10
37.532933517638
20
-4.88103523481863
30
0
41
1
10
37.5362417624694
20
-4.87856201256938
30
0
41
1
10
37.5424854568508
20
-4.87346594138936
30
0
41
1
10
37.5454429234598
20
-4.87082915033761
30
0
41
1
10
37.5539149944347
20
-4.86270343853499
30
0
41
1
10
37.5590361841085
20
-4.85699912023551
30
0
41
1
10
37.5685239127476
20
-4.84520288641588
30
0
41
1
10
37.5728053932756
20
-4.83921688877686
30
0
41
1
10
37.5846963022185
20
-4.82108024536774
30
0
41
1
10
37.5913698680087
20
-4.80875439004154
30
0
41
1
10
37.6032762188455
20
-4.78383860834239
30
0
41
1
10
37.6084960411357
20
-4.77122452176118
30
0
41
1
10
37.6226252256275
20
-4.7332445771477
30
0
41
1
10
37.6299587759691
20
-4.70802415581829
30
0
41
1
10
37.6424917222505
20
-4.65768588555193
30
0
41
1
10
37.6476403851774
20
-4.63256998576926
30
0
41
1
10
37.6565212070061
20
-4.58239909966974
30
0
41
1
10
37.6602412678624
20
-4.55734462075043
30
0
41
1
10
37.6698756904794
20
-4.48223366729022
30
0
41
1
10
37.6742931600436
20
-4.43222802475972
30
0
41
1
10
37.6774951432706
20
-4.38222739952587
30
0
0
SPLINE
5
18E
100
AcDbEntity
8
1
62
256
6
ByLayer
370
18
48
1
60
0
100
AcDbSpline
70
4
71
3
72
90
73
86
40
0
40
0
40
0
40
0
40
0.0408738828384455
40
0.0408738828384455
40
0.0613108242576683
40
0.0613108242576683
40
0.081747765676891
40
0.081747765676891
40
0.122621648515337
40
0.122621648515337
40
0.143058589934559
40
0.143058589934559
40
0.163495531353781
40
0.163495531353781
40
0.204369414192225
40
0.204369414192225
40
0.245243297030669
40
0.245243297030669
40
0.265680238449891
40
0.265680238449891
40
0.286117179869113
40
0.286117179869113
40
0.306554121288335
40
0.306554121288335
40
0.326991062707557
40
0.326991062707557
40
0.347428004126779
40
0.347428004126779
40
0.367864945546001
40
0.367864945546001
40
0.408738828384445
40
0.408738828384445
40
0.429175769803667
40
0.429175769803667
40
0.449612711222889
40
0.449612711222889
40
0.470049652642111
40
0.470049652642111
40
0.490486594061333
40
0.490486594061333
40
0.510923535480555
40
0.510923535480555
40
0.531360476899777
40
0.531360476899777
40
0.572234359738223
40
0.572234359738223
40
0.592671301157446
40
0.592671301157446
40
0.613108242576669
40
0.613108242576669
40
0.633545183995891
40
0.633545183995891
40
0.653982125415114
40
0.653982125415114
40
0.674419066834337
40
0.674419066834337
40
0.69485600825356
40
0.69485600825356
40
0.715292949672782
40
0.715292949672782
40
0.735729891092005
40
0.735729891092005
40
0.756166832511228
40
0.756166832511228
40
0.776603773930451
40
0.776603773930451
40
0.797040715349674
40
0.797040715349674
40
0.817477656768897
40
0.817477656768897
40
0.83791459818812
40
0.83791459818812
40
0.858351539607343
40
0.858351539607343
40
0.878788481026566
40
0.878788481026566
40
0.899225422445789
40
0.899225422445789
40
0.940099305284234
40
0.940099305284234
40
0.960536246703457
40
0.960536246703457
40
0.98097318812268
40
0.98097318812268
40
1
40
1
40
1
40
1
41
1
10
37.6774951432707
20
-4.38222739952585
30
0
41
1
10
37.4307042216001
20
-4.26278861725689
30
0
41
1
10
37.1840898118811
20
-4.13710865539201
30
0
41
1
10
36.8141465938521
20
-3.93963200318257
30
0
41
1
10
36.6908273076184
20
-3.87231015626676
30
0
41
1
10
36.4441364427258
20
-3.73470632212599
30
0
41
1
10
36.3207140297543
20
-3.66438435955593
30
0
41
1
10
35.950800718785
20
-3.44943452630861
30
0
41
1
10
35.7045975941301
20
-3.30075567696241
30
0
41
1
10
35.3349964330995
20
-3.07069427873512
30
0
41
1
10
35.2117422250024
20
-2.99284305124706
30
0
41
1
10
34.9649497758138
20
-2.83504052395949
30
0
41
1
10
34.8414463328876
20
-2.75513197957153
30
0
41
1
10
34.4709092257983
20
-2.51268321327143
30
0
41
1
10
34.2236041617626
20
-2.34720662453512
30
0
41
1
10
33.7298507614099
20
-2.00978510120299
30
0
41
1
10
33.483300235427
20
-1.83772359004638
30
0
41
1
10
33.1136817682651
20
-1.57487710251456
30
0
41
1
10
32.9904357456624
20
-1.48645648601578
30
0
41
1
10
32.7442162685481
20
-1.30860281198542
30
0
41
1
10
32.6212099192021
20
-1.2191498428281
30
0
41
1
10
32.3752067638128
20
-1.03945715992151
30
0
41
1
10
32.2522092870473
20
-0.949218627200679
30
0
41
1
10
32.0060200969817
20
-0.768230922876086
30
0
41
1
10
31.8828164141505
20
-0.677498119223799
30
0
41
1
10
31.6361080759359
20
-0.495662147907609
30
0
41
1
10
31.5126766307293
20
-0.404592966184964
30
0
41
1
10
31.2657992343039
20
-0.222373505922207
30
0
41
1
10
31.1423059608492
20
-0.131192470105361
30
0
41
1
10
30.7717137668591
20
0.142325732600654
30
0
41
1
10
30.5248889286944
20
0.324363173224924
30
0
41
1
10
30.1547315581779
20
0.596576781268226
30
0
41
1
10
30.0313516327041
20
0.687164006143689
30
0
41
1
10
29.7845122487844
20
0.867911303947267
30
0
41
1
10
29.6610176267343
20
0.958096776250272
30
0
41
1
10
29.4141792787097
20
1.13767050458324
30
0
41
1
10
29.2908048313039
20
1.22708140426405
30
0
41
1
10
29.0440496195791
20
1.40501595706306
30
0
41
1
10
28.9206759744622
20
1.49353600517716
30
0
41
1
10
28.6740587604432
20
1.66937586184167
30
0
41
1
10
28.5507744317488
20
1.75671111074038
30
0
41
1
10
28.3041004295392
20
1.93005456863475
30
0
41
1
10
28.1808032447345
20
2.01600805134225
30
0
41
1
10
27.811104549082
20
2.27139486494727
30
0
41
1
10
27.5648334374245
20
2.43841403658604
30
0
41
1
10
27.1950817367726
20
2.68325175125983
30
0
41
1
10
27.0716998061274
20
2.76395516395388
30
0
41
1
10
26.8250347157659
20
2.92313913033973
30
0
41
1
10
26.7017575388186
20
3.00161917766948
30
0
41
1
10
26.4552489723261
20
3.1562380259825
30
0
41
1
10
26.3320188582686
20
3.23237613407065
30
0
41
1
10
26.0855171015035
20
3.38217861957347
30
0
41
1
10
25.9622466254552
20
3.45583816909578
30
0
41
1
10
25.7154923157602
20
3.60060052531762
30
0
41
1
10
25.5920315739763
20
3.6716944952089
30
0
41
1
10
25.3451932486242
20
3.81103779858572
30
0
41
1
10
25.221774554839
20
3.8793112900787
30
0
41
1
10
24.9748757566614
20
4.01295402263762
30
0
41
1
10
24.8515067138738
20
4.07826170219485
30
0
41
1
10
24.6049218636705
20
4.20571647632622
30
0
41
1
10
24.4816808873655
20
4.26788192362201
30
0
41
1
10
24.2351602054401
20
4.3890663465572
30
0
41
1
10
24.1118913062468
20
4.44807446242206
30
0
41
1
10
23.8652659634241
20
4.56278727544324
30
0
41
1
10
23.7418489538092
20
4.61851893037149
30
0
41
1
10
23.4952078508715
20
4.72638245551977
30
0
41
1
10
23.3719801777941
20
4.77850918602337
30
0
41
1
10
23.1255430782529
20
4.87913305899951
30
0
41
1
10
23.0023167665185
20
4.92765342450235
30
0
41
1
10
22.7557531183283
20
5.02103077089458
30
0
41
1
10
22.6324259689601
20
5.06587832139377
30
0
41
1
10
22.3856167157586
20
5.15179335164359
30
0
41
1
10
22.2621706759618
20
5.19284784931975
30
0
41
1
10
22.0153931117249
20
5.27096880712105
30
0
41
1
10
21.8920259270776
20
5.30804028543872
30
0
41
1
10
21.645167011928
20
5.37830463341635
30
0
41
1
10
21.5218027345359
20
5.41146348427347
30
0
41
1
10
21.1518753335353
20
5.50478936889496
30
0
41
1
10
20.9054577206128
20
5.55883864671605
30
0
41
1
10
20.5355225544538
20
5.62741900037293
30
0
41
1
10
20.4121085774537
20
5.64819137958946
30
0
41
1
10
20.1654779000913
20
5.68544761613086
30
0
41
1
10
20.0422268820928
20
5.70195755461563
30
0
41
1
10
19.8042377033972
20
5.72977432014955
30
0
41
1
10
19.689507366511
20
5.74134845296476
30
0
41
1
10
19.5747541433781
20
5.75106363830469
30
0
0
SPLINE
5
18F
100
AcDbEntity
8
1
62
256
6
ByLayer
370
18
48
1
60
0
100
AcDbSpline
70
4
71
3
72
40
73
36
40
0
40
0
40
0
40
0
40
0.0015450488552001
40
0.0445194045311633
40
0.0660065823691448
40
0.0874937602071264
40
0.13046811588309
40
0.173442471559053
40
0.194929649397034
40
0.216416827235016
40
0.237904005072997
40
0.259391182910979
40
0.280878360748961
40
0.302365538586942
40
0.323852716424924
40
0.345339894262905
40
0.388314249938868
40
0.40980142777685
40
0.431288605614832
40
0.474262961290795
40
0.495750139128776
40
0.517237316966758
40
0.560211672642721
40
0.581698850480703
40
0.603186028318684
40
0.646160383994647
40
0.667647561832629
40
0.689134739670611
40
0.732109095346574
40
0.775083451022537
40
0.8180578066985
40
0.861032162374463
40
0.904006518050426
40
0.989955229402353
40
1
40
1
40
1
40
1
41
1
10
13.92171324419
20
0.309401584030695
30
0
41
1
10
13.9298480294572
20
0.303650335477954
30
0
41
1
10
14.1642476854474
20
0.137919160006874
30
0
41
1
10
14.5118679225636
20
-0.108341143338094
30
0
41
1
10
14.9647629948615
20
-0.428618382296662
30
0
41
1
10
15.41783866575
20
-0.748002884080137
30
0
41
1
10
15.9846115763491
20
-1.1449233982662
30
0
41
1
10
16.551897508685
20
-1.53593068695432
30
0
41
1
10
17.0060402009774
20
-1.84358449289258
30
0
41
1
10
17.3468023309816
20
-2.07147340080869
30
0
41
1
10
17.6877198441911
20
-2.29610234428259
30
0
41
1
10
18.0287850666887
20
-2.51695371490467
30
0
41
1
10
18.3700028438045
20
-2.73378633649185
30
0
41
1
10
18.7113723580418
20
-2.94624867085943
30
0
41
1
10
19.0528859060965
20
-3.15401423716142
30
0
41
1
10
19.5084218428536
20
-3.42402903343574
30
0
41
1
10
19.9642489468025
20
-3.68324920186316
30
0
41
1
10
20.4202636268412
20
-3.93011634032757
30
0
41
1
10
20.8763787342935
20
-4.16846966025832
30
0
41
1
10
21.3326080418102
20
-4.39319555566806
30
0
41
1
10
21.7888562609476
20
-4.6032151674508
30
0
41
1
10
22.2450873256537
20
-4.80317266359953
30
0
41
1
10
22.7012634250627
20
-4.98725659425372
30
0
41
1
10
23.1573040431228
20
-5.15467226964907
30
0
41
1
10
23.6132293790276
20
-5.31079189572495
30
0
41
1
10
24.0689531458266
20
-5.44929257570672
30
0
41
1
10
24.5243912072065
20
-5.56967738214027
30
0
41
1
10
24.9796132989657
20
-5.67786023017513
30
0
41
1
10
25.5481978764447
20
-5.78952281263619
30
0
41
1
10
26.2295235699396
20
-5.88553428811144
30
0
41
1
10
26.9096886000687
20
-5.94271871176781
30
0
41
1
10
27.5884584365334
20
-5.96131569942639
30
0
41
1
10
28.4918710798705
20
-5.93420807494468
30
0
41
1
10
29.2214057148621
20
-5.85007399239259
30
0
41
1
10
29.7260288478547
20
-5.76073490945268
30
0
41
1
10
29.7788415359388
20
-5.75104507795155
30
0
0
SPLINE
5
190
100
AcDbEntity
8
1
62
256
6
ByLayer
370
18
48
1
60
0
100
AcDbSpline
70
4
71
3
72
8
73
4
40
0
40
0
40
0
40
0
40
1
40
1
40
1
40
1
41
1
10
13.8163586137524
20
0.624802331712289
30
0
41
1
10
13.8493266058863
20
0.519417365534281
30
0
41
1
10
13.8845696352341
20
0.414330638655997
30
0
41
1
10
13.92171324419
20
0.309401584030695
30
0
0
SPLINE
5
191
100
AcDbEntity
8
1
62
256
6
ByLayer
370
18
48
1
60
0
100
AcDbSpline
70
4
71
3
72
10
73
6
40
0
40
0
40
0
40
0
40
0.5
40
0.5
40
1
40
1
40
1
40
1
41
1
10
13.92171324419
20
0.309401584030695
30
0
41
1
10
13.9294367677084
20
0.219994567034149
30
0
41
1
10
13.9400371278961
20
0.130858673647651
30
0
41
1
10
13.9660845639847
20
-0.0468905244844109
30
0
41
1
10
13.9815261205256
20
-0.135453549301815
30
0
41
1
10
13.9990046152555
20
-0.223679705031174
30
0
0
SPLINE
5
192
100
AcDbEntity
8
1
62
256
6
ByLayer
370
18
48
1
60
0
100
AcDbSpline
70
4
71
3
72
8
73
4
40
0
40
0
40
0
40
0
40
1
40
1
40
1
40
1
41
1
10
37.3785800291577
20
-0.265794801702981
30
0
41
1
10
37.400701461811
20
-0.442458143125862
30
0
41
1
10
37.4227659983345
20
-0.619131821826471
30
0
41
1
10
37.4447716869979
20
-0.795796878681955
30
0
0
SPLINE
5
193
100
AcDbEntity
8
1
62
256
6
ByLayer
370
18
48
1
60
0
100
AcDbSpline
70
4
71
3
72
26
73
22
40
0
40
0
40
0
40
0
40
0.0445525963493787
40
0.0723896105166373
40
0.100226624683895
40
0.128063638851154
40
0.155900653018412
40
0.183737667185671
40
0.211574681352929
40
0.267248709687446
40
0.378596766356479
40
0.434270794690996
40
0.489944823025513
40
0.601292879694546
40
0.656966908029063
40
0.712640936363579
40
0.823988993032613
40
0.851826007199871
40
0.87966302136713
40
0.935337049701646
40
1
40
1
40
1
40
1
41
1
10
24.9832117664634
20
5.9445574354487
30
0
41
1
10
25.1649434692989
20
5.93658058857625
30
0
41
1
10
25.4600837532119
20
5.91602435158714
30
0
41
1
10
25.8683007070906
20
5.87082273084255
30
0
41
1
10
26.2081312551942
20
5.82256509863896
30
0
41
1
10
26.5476325187607
20
5.76370628308322
30
0
41
1
10
26.8867867590815
20
5.69442199104276
30
0
41
1
10
27.2255701468797
20
5.61495782905644
30
0
41
1
10
27.6767491163895
20
5.49568500108833
30
0
41
1
10
28.4651830618514
20
5.25213055918206
30
0
41
1
10
29.3651571742261
20
4.89755018540211
30
0
41
1
10
30.267123620974
20
4.47329871777603
30
0
41
1
10
31.1713444393421
20
4.00450081444697
30
0
41
1
10
32.0806059282665
20
3.47311242621151
30
0
41
1
10
32.998316307508
20
2.88724354325328
30
0
41
1
10
33.9223407357228
20
2.2677888067642
30
0
41
1
10
34.7407588259158
20
1.68690712360683
30
0
41
1
10
35.4515643658638
20
1.16817155817836
30
0
41
1
10
35.9279237245633
20
0.817232188935776
30
0
41
1
10
36.5671589901977
20
0.341283867098951
30
0
41
1
10
37.0934293240437
20
-0.0528015787033951
30
0
41
1
10
37.3785800223011
20
-0.265794802560663
30
0
0
SPLINE
5
194
100
AcDbEntity
8
1
62
256
6
ByLayer
370
18
48
1
60
0
100
AcDbSpline
70
4
71
3
72
8
73
4
40
0
40
0
40
0
40
0
40
1
40
1
40
1
40
1
41
1
10
37.4447716862537
20
-0.795796872371625
30
0
41
1
10
37.4465241860615
20
-0.810409500671227
30
0
41
1
10
37.4482761685127
20
-0.82502105420923
30
0
41
1
10
37.4500276319663
20
-0.839631516692606
30
0
0
SPLINE
5
195
100
AcDbEntity
8
1
62
256
6
ByLayer
370
13
48
1
60
0
100
AcDbSpline
70
4
71
3
72
16
73
12
40
0
40
0
40
0
40
0
40
0.109215958010811
40
0.222606729852966
40
0.335997501695121
40
0.449388273537276
40
0.562779045379431
40
0.676169817221586
40
0.789560589063741
40
0.902951360905896
40
1
40
1
40
1
40
1
41
1
10
34.9447731006211
20
1.0408150007101
30
0
41
1
10
34.4631820670808
20
1.37292672146793
30
0
41
1
10
33.4815910335404
20
2.03828212079512
30
0
41
1
10
32
20
2.97254022363569
30
0
41
1
10
30.5
20
3.80866286490056
30
0
41
1
10
29
20
4.51240089457946
30
0
41
1
10
27.5
20
5.0613139443208
30
0
41
1
10
26
20
5.43253590275239
30
0
41
1
10
24.5
20
5.60240681500545
30
0
41
1
10
23.0720611231521
20
5.57681468314797
30
0
41
1
10
22.1441222463041
20
5.4496641737816
30
0
41
1
10
21.7161833694562
20
5.36816912468387
30
0
0
SPLINE
5
196
100
AcDbEntity
8
1
62
256
6
ByLayer
370
18
48
1
60
0
100
AcDbSpline
70
4
71
3
72
17
73
13
40
0
40
0
40
0
40
0
40
0.0196257839185106
40
0.103224682054778
40
0.186823580191046
40
0.270422478327313
40
0.354021376463581
40
0.465486573978604
40
0.576951771493627
40
0.688416969008651
40
0.799882166523674
40
1
40
1
40
1
40
1
41
1
10
27.7641064344213
20
1.04206188350369
30
0
41
1
10
27.6760709562809
20
1.10386106136352
30
0
41
1
10
27.2130354781405
20
1.42787334665434
30
0
41
1
10
26.3750000000001
20
2.00274015360827
30
0
41
1
10
25.2499999999999
20
2.73253162492688
30
0
41
0.999999999999999
10
24.125
20
3.4060306824558
30
0
41
1
10
22.875
20
4.07671031396541
30
0
41
1
10
21.5
20
4.69499609184348
30
0
41
1
10
20
20
5.19895594738312
30
0
41
1
10
18.5
20
5.5103218230557
30
0
41
1
10
16.6023304226893
20
5.65094890015717
30
0
41
1
10
15.2046608453786
20
5.48322970194789
30
0
41
1
10
14.306991268068
20
5.27095853714417
30
0
0
SPLINE
5
197
100
AcDbEntity
8
1
62
256
6
ByLayer
370
18
48
1
60
0
100
AcDbSpline
70
4
71
3
72
8
73
4
40
0
40
0
40
0
40
0
40
1
40
1
40
1
40
1
41
1
10
37.4447611978874
20
-5.22420385938895
30
0
41
1
10
37.446510729046
20
-5.23156570074639
30
0
41
1
10
37.4482597207204
20
-5.23891943383461
30
0
41
1
10
37.4500081712349
20
-5.2462650563848
30
0
0
SPLINE
5
198
100
AcDbEntity
8
1
62
256
6
ByLayer
370
13
48
1
60
0
100
AcDbSpline
70
4
71
3
72
11
73
7
40
0
40
0
40
0
40
0
40
0.0383384711695546
40
0.278753853377166
40
0.519169235584778
40
1
40
1
40
1
40
1
41
1
10
20.239201444709
20
1.04153003156196
30
0
41
1
10
20.159467629806
20
1.09541091046953
30
0
41
1
10
19.579733814903
20
1.4860163808633
30
0
41
1
10
18.5
20
2.19547077404417
30
0
41
1
10
16.5
20
3.41198395287424
30
0
41
1
10
15
20
4.17022432234214
30
0
41
1
10
14
20
4.56721329568737
30
0
0
SPLINE
5
199
100
AcDbEntity
8
1
62
256
6
ByLayer
370
18
48
1
60
0
100
AcDbSpline
70
4
71
3
72
8
73
4
40
0
40
0
40
0
40
0
40
1
40
1
40
1
40
1
41
1
10
37.3787224269802
20
4.30945622674324
30
0
41
1
10
37.4007917235039
20
4.1940536796607
30
0
41
1
10
37.4228074675828
20
4.07761225248026
30
0
41
1
10
37.4447677396174
20
3.9601506017305
30
0
0
SPLINE
5
19A
100
AcDbEntity
8
1
62
256
6
ByLayer
370
18
48
1
60
0
100
AcDbSpline
70
4
71
3
72
8
73
4
40
0
40
0
40
0
40
0
40
1
40
1
40
1
40
1
41
1
10
37.4447677402343
20
3.96015059856302
30
0
41
1
10
37.4465213522176
20
3.94919417491386
30
0
41
1
10
37.4482744699079
20
3.93823162335195
30
0
41
1
10
37.4500270916797
20
3.92726296087892
30
0
0
SPLINE
5
19B
100
AcDbEntity
8
1
62
256
6
ByLayer
370
18
48
1
60
0
100
AcDbSpline
70
4
71
3
72
16
73
12
40
0
40
0
40
0
40
0
40
0.249999999999999
40
0.249999999999999
40
0.499999999999998
40
0.499999999999998
40
0.749999999999997
40
0.749999999999997
40
0.874999999999998
40
0.874999999999998
40
1
40
1
40
1
40
1
41
1
10
37.6036258011581
20
-5.30244277632082
30
0
41
1
10
37.595958761093
20
-5.29711440223963
30
0
41
1
10
37.588014847533
20
-5.29187243583851
30
0
41
1
10
37.5713160623562
20
-5.28166254881353
30
0
41
1
10
37.5625505708916
20
-5.27668045121433
30
0
41
1
10
37.5437747815932
20
-5.26724362348764
30
0
41
1
10
37.5338535454109
20
-5.2628031428726
30
0
41
1
10
37.5173534023967
20
-5.25703100504163
30
0
41
1
10
37.5115907078488
20
-5.25526942495526
30
0
41
1
10
37.4995922595425
20
-5.25232980648147
30
0
41
1
10
37.4933315069921
20
-5.25113432364418
30
0
41
1
10
37.4866417554514
20
-5.25039608146179
30
0
0
SPLINE
5
19C
100
AcDbEntity
8
1
62
256
6
ByLayer
370
18
48
1
60
0
100
AcDbSpline
70
4
71
3
72
8
73
4
40
0
40
0
40
0
40
0
40
1
40
1
40
1
40
1
41
1
10
37.6009947428715
20
3.84217498526522
30
0
41
1
10
37.6015845058287
20
3.8421307821188
30
0
41
1
10
37.6021742693166
20
3.84208660317665
30
0
41
1
10
37.6027640333287
20
3.8420424484396
30
0
0
SPLINE
5
19D
100
AcDbEntity
8
1
62
256
6
ByLayer
370
18
48
1
60
0
100
AcDbSpline
70
4
71
3
72
21
73
17
40
0
40
0
40
0
40
0
40
0.0470694945050959
40
0.097430793166514
40
0.147792091827932
40
0.19815339048935
40
0.248514689150768
40
0.298875987812186
40
0.349237286473604
40
0.399598585135022
40
0.500321182457859
40
0.601043779780695
40
0.701766377103531
40
0.802488974426367
40
0.903211571749203
40
1
40
1
40
1
40
1
41
1
10
13.999017625691
20
-4.59748551658467
30
0
41
1
10
14.1051190159129
20
-4.64791103660022
30
0
41
1
10
14.3246894828871
20
-4.74981294696951
30
0
41
1
10
14.657590887565
20
-4.89646362015534
30
0
41
1
10
14.9977349157439
20
-5.03770360799373
30
0
41
1
10
15.3377124768862
20
-5.16994996867311
30
0
41
1
10
15.6775206273281
20
-5.29304076681387
30
0
41
1
10
16.0171643503181
20
-5.40683513457191
30
0
41
1
10
16.3566460243316
20
-5.51112987137574
30
0
41
1
10
16.8090812959016
20
-5.63713347589109
30
0
41
1
10
17.3742415905778
20
-5.77012694105184
30
0
41
1
10
18.0519877265215
20
-5.88925081225315
30
0
41
1
10
18.7294431805323
20
-5.96723039286181
30
0
41
1
10
19.4067561350613
20
-6.00359057000642
30
0
41
1
10
20.0752581637427
20
-5.99814544584777
30
0
41
1
10
20.5180743671524
20
-5.96774341229553
30
0
41
1
10
20.7351117442738
20
-5.94643945884388
30
0
0
SPLINE
5
19E
100
AcDbEntity
8
1
62
256
6
ByLayer
370
18
48
1
60
0
100
AcDbSpline
70
4
71
3
72
18
73
14
40
0
40
0
40
0
40
0
40
0.415368677198029
40
0.415368677198029
40
0.467289761847783
40
0.467289761847783
40
0.519210846497537
40
0.519210846497537
40
0.623053015797043
40
0.623053015797043
40
0.830737354396054
40
0.830737354396054
40
1
40
1
40
1
40
1
41
1
10
14.0000000000001
20
-4.62397874848864
30
0
41
1
10
14.4924044313809
20
-4.85613421083741
30
0
41
1
10
14.9830943614464
20
-5.06211337928258
30
0
41
1
10
15.5363360075513
20
-5.26178887724643
30
0
41
1
10
15.5978246501221
20
-5.28353096049224
30
0
41
1
10
15.7208480593502
20
-5.3261200098361
30
0
41
1
10
15.7823490328955
20
-5.34695497535228
30
0
41
1
10
15.9665756243428
20
-5.40798689444836
30
0
41
1
10
16.0891281229285
20
-5.44674899904254
30
0
41
1
10
16.4561363869251
20
-5.55719709940908
30
0
41
1
10
16.6999446913591
20
-5.62300365693238
30
0
41
1
10
17.1415944718713
20
-5.72831178839238
30
0
41
1
10
17.3395985670953
20
-5.77040360471148
30
0
41
1
10
17.5374864069439
20
-5.80725991747573
30
0
0
SPLINE
5
19F
100
AcDbEntity
8
1
62
256
6
ByLayer
370
18
48
1
60
0
100
AcDbSpline
70
4
71
3
72
10
73
6
40
0
40
0
40
0
40
0
40
0.377032546345249
40
0.377032546345249
40
1
40
1
40
1
40
1
41
1
10
17.5899305856715
20
-5.81690543626115
30
0
41
1
10
17.8601491198596
20
-5.86597434439602
30
0
41
1
10
18.1301831587799
20
-5.90527248821891
30
0
41
1
10
18.8472277366279
20
-5.98331605524476
30
0
41
1
10
19.2947884072691
20
-6.00502740920965
30
0
41
1
10
19.7451557193339
20
-5.999090531326
30
0
0
SPLINE
5
1A0
100
AcDbEntity
8
1
62
256
6
ByLayer
370
18
48
1
60
0
100
AcDbSpline
70
4
71
3
72
8
73
4
40
0
40
0
40
0
40
0
40
1
40
1
40
1
40
1
41
1
10
37.4500234906009
20
3.92724300102509
30
0
41
1
10
37.4502167634202
20
3.92714225962919
30
0
41
1
10
37.4504100361875
20
3.92704151785679
30
0
41
1
10
37.450603308903
20
3.92694077570786
30
0
0
SPLINE
5
1A1
100
AcDbEntity
8
1
62
256
6
ByLayer
370
18
48
1
60
0
100
AcDbSpline
70
4
71
3
72
8
73
4
40
0
40
0
40
0
40
0
40
1
40
1
40
1
40
1
41
1
10
37.4506033089037
20
3.92694077570778
30
0
41
1
10
37.5007284711437
20
3.89891300797396
30
0
41
1
10
37.5508581004005
20
3.87065696952931
30
0
41
1
10
37.6009947428773
20
3.84217498527119
30
0
0
SPLINE
5
1A2
100
AcDbEntity
8
1
62
256
6
ByLayer
370
18
48
1
60
0
100
AcDbSpline
70
4
71
3
72
9
73
5
40
0
40
0
40
0
40
0
40
0.327081839039156
40
1
40
1
40
1
40
1
41
1
10
30.6479764878762
20
5.99904901165047
30
0
41
1
10
30.7494477713433
20
5.99818162982612
30
0
41
1
10
31.0598549139935
20
5.99122080565908
30
0
41
1
10
31.3708911604823
20
5.97102889221446
30
0
41
1
10
31.5805659184342
20
5.95142548253608
30
0
0
SPLINE
5
1A3
100
AcDbEntity
8
1
62
256
6
ByLayer
370
18
48
1
60
0
100
AcDbSpline
70
4
71
3
72
16
73
12
40
0
40
0
40
0
40
0
40
0.0011647736376368
40
0.122295380024396
40
0.243425986411155
40
0.364556592797914
40
0.485687199184672
40
0.606817805571431
40
0.72794841195819
40
0.849079018344948
40
1
40
1
40
1
40
1
41
1
10
31.6296166895897
20
5.94673042648242
30
0
41
1
10
31.6318118061759
20
5.94651543292738
30
0
41
1
10
31.8622923860536
20
5.92387297676831
30
0
41
1
10
32.3219732142616
20
5.86433827027327
30
0
41
1
10
33.0116073712904
20
5.73278416025349
30
0
41
1
10
33.7053883034963
20
5.55868135578612
30
0
41
1
10
34.4041058897389
20
5.34224033759119
30
0
41
1
10
35.1084908980099
20
5.08390984262888
30
0
41
1
10
35.8192776735051
20
4.7843236348368
30
0
41
1
10
36.5961167863369
20
4.4166032239084
30
0
41
1
10
37.1404347152586
20
4.12929030714352
30
0
41
1
10
37.444767738923
20
3.96015059845385
30
0
0
SPLINE
5
1A4
100
AcDbEntity
8
1
62
256
6
ByLayer
370
18
48
1
60
0
100
AcDbSpline
70
4
71
3
72
30
73
26
40
0
40
0
40
0
40
0
40
0.105278831207507
40
0.105278831207507
40
0.254399026006251
40
0.254399026006251
40
0.403519220804996
40
0.403519220804996
40
0.422159245154839
40
0.422159245154839
40
0.440799269504683
40
0.440799269504683
40
0.478079318204369
40
0.552639415603745
40
0.552639415603745
40
0.701759610402501
40
0.701759610402501
40
0.850879805201256
40
0.850879805201256
40
0.888159853900945
40
0.888159853900945
40
0.906799878250788
40
0.906799878250788
40
0.925439902600631
40
1
40
1
40
1
40
1
41
1
10
27.6332752648102
20
5.62879348089444
30
0
41
1
10
27.9790696228051
20
5.71749575853315
30
0
41
1
10
28.3229845288438
20
5.79040147682736
30
0
41
1
10
29.1521447644169
20
5.92815643132974
30
0
41
1
10
29.6366077739858
20
5.97696569437773
30
0
41
1
10
30.6083584654171
20
6.01024900116602
30
0
41
1
10
31.0956599914659
20
5.99470558927348
30
0
41
1
10
31.6485206229926
20
5.94005952768441
30
0
41
1
10
31.7100136011807
20
5.93347104569486
30
0
41
1
10
31.8331370653939
20
5.91925685200354
30
0
41
1
10
31.8947345945492
20
5.911634161606
30
0
41
1
10
32.0791998904723
20
5.88728416186658
30
0
41
1
10
32.4473281676091
20
5.83259817653465
30
0
41
1
10
32.8134155416576
20
5.76027249203867
30
0
41
1
10
33.5438986226598
20
5.59280684882455
30
0
41
1
10
34.0286210376264
20
5.45073598531565
30
0
41
1
10
34.9993990927789
20
5.10910192749006
30
0
41
1
10
35.4854705751588
20
4.90953942741388
30
0
41
1
10
36.097671697272
20
4.62616995855464
30
0
41
1
10
36.2203422550185
20
4.56779918056543
30
0
41
1
10
36.404763578505
20
4.47772837723733
30
0
41
1
10
36.4663320280068
20
4.44727261792275
30
0
41
1
10
36.5893885568302
20
4.38564375429138
30
0
41
1
10
36.8969344758604
20
4.22972658480336
30
0
41
1
10
37.2041468929441
20
4.06473977524197
30
0
41
1
10
37.4500270916797
20
3.92726296087892
30
0
0
SPLINE
5
1A5
100
AcDbEntity
8
1
62
256
6
ByLayer
370
18
48
1
60
0
100
AcDbSpline
70
4
71
3
72
16
73
12
40
0
40
0
40
0
40
0
40
0.25
40
0.25
40
0.500000000000001
40
0.500000000000001
40
0.750000000000001
40
0.750000000000001
40
0.875
40
0.875
40
1
40
1
40
1
40
1
41
1
10
37.6042090360682
20
-0.954434987015958
30
0
41
1
10
37.5965133146711
20
-0.943399465133297
30
0
41
1
10
37.5885352253798
20
-0.932574902295983
30
0
41
1
10
37.5717494002167
20
-0.911549121579242
30
0
41
1
10
37.5629148047448
20
-0.901303982306928
30
0
41
1
10
37.5440722444295
20
-0.88204640639475
30
0
41
1
10
37.5341123948342
20
-0.873016422520521
30
0
41
1
10
37.5175373663994
20
-0.86129696267588
30
0
41
1
10
37.5117162404951
20
-0.857705134126348
30
0
41
1
10
37.4996299479992
20
-0.851730418638596
30
0
41
1
10
37.4933327370104
20
-0.849307451124332
30
0
41
1
10
37.4866255968969
20
-0.847796339150847
30
0
0
SPLINE
5
1A6
100
AcDbEntity
8
1
62
256
6
ByLayer
370
18
48
1
60
0
100
AcDbSpline
70
4
71
3
72
8
73
4
40
0
40
0
40
0
40
0
40
1
40
1
40
1
40
1
41
1
10
37.3729028373178
20
-4.87471612129153
30
0
41
1
10
37.3747448930489
20
-4.88518311673838
30
0
41
1
10
37.3765867798714
20
-4.89564386019384
30
0
41
1
10
37.3784284953957
20
-4.9060983393851
30
0
0
SPLINE
5
1A7
100
AcDbEntity
8
1
62
256
6
ByLayer
370
18
48
1
60
0
100
AcDbSpline
70
4
71
3
72
8
73
4
40
0
40
0
40
0
40
0
40
1
40
1
40
1
40
1
41
1
10
37.3784284953958
20
-4.9060983393853
30
0
41
1
10
37.4006003449108
20
-5.01326729951924
30
0
41
1
10
37.422711916893
20
-5.11930364273576
30
0
41
1
10
37.4447611978874
20
-5.22420385938892
30
0
0
SPLINE
5
1A8
100
AcDbEntity
8
1
62
256
6
ByLayer
370
18
48
1
60
0
100
AcDbSpline
70
4
71
3
72
43
73
39
40
0
40
0
40
0
40
0
40
0.0354424622277097
40
0.0709511307643365
40
0.08870546503265
40
0.106459799300963
40
0.124214133569277
40
0.14196846783759
40
0.177477136374217
40
0.19523147064253
40
0.212985804910844
40
0.248494473447471
40
0.266248807715784
40
0.284003141984098
40
0.319511810520725
40
0.337266144789038
40
0.355020479057351
40
0.390529147593978
40
0.408283481862292
40
0.426037816130605
40
0.443792150398919
40
0.461546484667232
40
0.479300818935545
40
0.497055153203859
40
0.532563821740486
40
0.550318156008799
40
0.568072490277112
40
0.603581158813739
40
0.674598495886993
40
0.71010716442362
40
0.745615832960247
40
0.781124501496874
40
0.8166331700335
40
0.852141838570127
40
0.887650507106754
40
0.923159175643381
40
0.958667844180008
40
1
40
1
40
1
40
1
41
1
10
18.0512185256479
20
5.9412722714163
30
0
41
1
10
18.2761866743204
20
5.92973590317857
30
0
41
1
10
18.7264436084924
20
5.89191279505459
30
0
41
1
10
19.2892533068718
20
5.8080432087381
30
0
41
1
10
19.7398472736121
20
5.71919442348624
30
0
41
1
10
20.0778155381618
20
5.64190079722002
30
0
41
1
10
20.4158234333006
20
5.55412877069037
30
0
41
1
10
20.8665680578814
20
5.4231568427908
30
0
41
1
10
21.3174698023016
20
5.27173523094845
30
0
41
1
10
21.7685296840352
20
5.10065830140829
30
0
41
1
10
22.2197040495417
20
4.91692095671379
30
0
41
1
10
22.6710667907344
20
4.71437604320644
30
0
41
1
10
23.1226309662267
20
4.49429062609153
30
0
41
1
10
23.5743381231095
20
4.26298224907077
30
0
41
1
10
24.0262662521917
20
4.01519481466605
30
0
41
1
10
24.4783694701684
20
3.75250126188701
30
0
41
1
10
24.9305786615581
20
3.48040950101128
30
0
41
1
10
25.3829310841554
20
3.19476449129843
30
0
41
1
10
25.8353803942531
20
2.89735461107691
30
0
41
1
10
26.1747594884346
20
2.66884951860771
30
0
41
1
10
26.5141659908969
20
2.43524610485414
30
0
41
1
10
26.8535843511127
20
2.19703408266611
30
0
41
1
10
27.1929911791492
20
1.9547116017678
30
0
41
1
10
27.6454994596652
20
1.62675519962389
30
0
41
1
10
28.0979368718247
20
1.29237677302928
30
0
41
1
10
28.5502595991789
20
0.95357648636633
30
0
41
1
10
29.0024799940614
20
0.612453576642338
30
0
41
1
10
29.7938081153498
20
0.0108292462742554
30
0
41
1
10
30.6996209309455
20
-0.680535260412029
30
0
41
1
10
31.6101214965813
20
-1.36243972305238
30
0
41
1
10
32.2960274001982
20
-1.86576869927836
30
0
41
1
10
32.985840930534
20
-2.35749298146263
30
0
41
1
10
33.6803638336988
20
-2.8340617081127
30
0
41
1
10
34.3806270881894
20
-3.29196926809379
30
0
41
1
10
35.0873514008968
20
-3.72736725197535
30
0
41
1
10
35.8015283021893
20
-4.13650151220344
30
0
41
1
10
36.563344833363
20
-4.53600306502852
30
0
41
1
10
37.091755772643
20
-4.78240721148762
30
0
41
1
10
37.3784284953956
20
-4.9060983393851
30
0
0
SPLINE
5
1A9
100
AcDbEntity
8
1
62
256
6
ByLayer
370
18
48
1
60
0
100
AcDbSpline
70
4
71
3
72
8
73
4
40
0
40
0
40
0
40
0
40
1
40
1
40
1
40
1
41
1
10
37.4500255122265
20
-0.839622295647303
30
0
41
1
10
37.4501377247342
20
-0.839708513400865
30
0
41
1
10
37.4502499372243
20
-0.839794731124556
30
0
41
1
10
37.4503621496967
20
-0.839880948818376
30
0
0
SPLINE
5
1AA
100
AcDbEntity
8
1
62
256
6
ByLayer
370
18
48
1
60
0
100
AcDbSpline
70
4
71
3
72
8
73
4
40
0
40
0
40
0
40
0
40
1
40
1
40
1
40
1
41
1
10
37.6036258011488
20
-5.30244277632298
30
0
41
1
10
37.6083579993618
20
-5.30355266871334
30
0
41
1
10
37.6130844540198
20
-5.30459579336966
30
0
41
1
10
37.6178052332661
20
-5.3055709150826
30
0
0
SPLINE
5
1AB
100
AcDbEntity
8
1
62
256
6
ByLayer
370
18
48
1
60
0
100
AcDbSpline
70
4
71
3
72
8
73
4
40
0
40
0
40
0
40
0
40
1
40
1
40
1
40
1
41
1
10
37.4508747232636
20
-5.24659464806706
30
0
41
1
10
37.5017967457178
20
-5.26554851470146
30
0
41
1
10
37.5527126003295
20
-5.2841652518253
30
0
41
1
10
37.6036258011493
20
-5.30244277632556
30
0
0
SPLINE
5
1AC
100
AcDbEntity
8
1
62
256
6
ByLayer
370
18
48
1
60
0
100
AcDbSpline
70
4
71
3
72
8
73
4
40
0
40
0
40
0
40
0
40
1
40
1
40
1
40
1
41
1
10
37.4500044438148
20
-5.24621078233267
30
0
41
1
10
37.45029453708
20
-5.24633873895274
30
0
41
1
10
37.4505846302263
20
-5.24646669419548
30
0
41
1
10
37.4508747232532
20
-5.24659464806084
30
0
0
SPLINE
5
1AD
100
AcDbEntity
8
1
62
256
6
ByLayer
370
18
48
1
60
0
100
AcDbSpline
70
4
71
3
72
52
73
48
40
0
40
0
40
0
40
0
40
0.114906208222884
40
0.114906208222884
40
0.143632760278605
40
0.143632760278605
40
0.172359312334326
40
0.172359312334326
40
0.229812416445768
40
0.229812416445768
40
0.287265520557211
40
0.287265520557211
40
0.315992072612933
40
0.315992072612933
40
0.330355348640794
40
0.330355348640794
40
0.344718624668655
40
0.344718624668655
40
0.402171728780102
40
0.402171728780102
40
0.459624832891548
40
0.459624832891548
40
0.48835138494727
40
0.48835138494727
40
0.502714660975131
40
0.502714660975131
40
0.517077937002991
40
0.517077937002991
40
0.574531041114431
40
0.574531041114431
40
0.689437249337313
40
0.689437249337313
40
0.718163801393033
40
0.718163801393033
40
0.746890353448753
40
0.746890353448753
40
0.804343457560191
40
0.804343457560191
40
0.861796561671629
40
0.861796561671629
40
0.890523113727349
40
0.890523113727349
40
0.919249665783069
40
0.919249665783069
40
0.976702769894507
40
0.976702769894507
40
1
40
1
40
1
40
1
41
1
10
14.0000000000001
20
-0.264358045317749
30
0
41
1
10
14.4904258462648
20
-0.61383664645453
30
0
41
1
10
14.9793306020681
20
-0.961006181478751
30
0
41
1
10
15.5916212629994
20
-1.38779977937236
30
0
41
1
10
15.714212810573
20
-1.47284931764446
30
0
41
1
10
15.959151205003
20
-1.64180219724887
30
0
41
1
10
16.0815002505499
20
-1.72570730946478
30
0
41
1
10
16.4483145927043
20
-1.97554276417736
30
0
41
1
10
16.6925482447526
20
-2.13958660460517
30
0
41
1
10
17.1810749321325
20
-2.46179439822328
30
0
41
1
10
17.4253617945039
20
-2.61998862236155
30
0
41
1
10
17.7923408847634
20
-2.85219716076043
30
0
41
1
10
17.9147598232759
20
-2.92874900640183
30
0
41
1
10
18.0985862211631
20
-3.04223126488981
30
0
41
1
10
18.1599095938684
20
-3.0798434040247
30
0
41
1
10
18.2824684001457
20
-3.15450781997362
30
0
41
1
10
18.3437210990246
20
-3.19157088067519
30
0
41
1
10
18.6498754893635
20
-3.37551794725601
30
0
41
1
10
18.8944500139409
20
-3.51831553221987
30
0
41
1
10
19.3835051698632
20
-3.79442424089478
30
0
41
1
10
19.6279846789196
20
-3.92776707322255
30
0
41
1
10
19.9950164205108
20
-4.1203300850315
30
0
41
1
10
20.1174114199456
20
-4.18327247171317
30
0
41
1
10
20.301132176274
20
-4.27575494607188
30
0
41
1
10
20.3623938864742
20
-4.30626073746211
30
0
41
1
10
20.4849694428272
20
-4.36661833571563
30
0
41
1
10
20.5463046796221
20
-4.39648033778181
30
0
41
1
10
20.8527962606455
20
-4.54396215809081
30
0
41
1
10
21.0974503793518
20
-4.65612330257358
30
0
41
1
10
21.8307552282373
20
-4.97441684795965
30
0
41
1
10
22.3187400356309
20
-5.16234575887165
30
0
41
1
10
22.931031132655
20
-5.36406038829003
30
0
41
1
10
23.0536320820313
20
-5.40274894707417
30
0
41
1
10
23.2984680745282
20
-5.47653382057774
30
0
41
1
10
23.4207869400021
20
-5.51165887415169
30
0
41
1
10
23.787574353075
20
-5.61167875765898
30
0
41
1
10
24.0318748037042
20
-5.67122605912627
30
0
41
1
10
24.5206783971327
20
-5.77582312709154
30
0
41
1
10
24.7651831188025
20
-5.8208628115425
30
0
41
1
10
25.1325470224052
20
-5.8773416494447
30
0
41
1
10
25.2551219555132
20
-5.89432507014925
30
0
41
1
10
25.5004601662606
20
-5.92455673183761
30
0
41
1
10
25.6230070341898
20
-5.93777800086266
30
0
41
1
10
25.9903833693834
20
-5.97176831029051
30
0
41
1
10
26.234949294482
20
-5.98686854514958
30
0
41
1
10
26.5785515257807
20
-5.99745112282625
30
0
41
1
10
26.6776680237893
20
-5.99926012625278
30
0
41
1
10
26.7767897624333
20
-5.99982150187262
30
0
0
SPLINE
5
1AE
100
AcDbEntity
8
1
62
256
6
ByLayer
370
18
48
1
60
0
100
AcDbSpline
70
4
71
3
72
36
73
32
40
0
40
0
40
0
40
0
40
0.0484137747741423
40
0.0746633439373019
40
0.100912913100461
40
0.153412051426781
40
0.2059111897531
40
0.23216075891626
40
0.258410328079419
40
0.284659897242579
40
0.310909466405739
40
0.337159035568898
40
0.363408604732058
40
0.389658173895218
40
0.415907743058377
40
0.468406881384696
40
0.494656450547856
40
0.520906019711016
40
0.573405158037335
40
0.599654727200495
40
0.625904296363654
40
0.678403434689974
40
0.704653003853133
40
0.730902573016293
40
0.783401711342612
40
0.809651280505772
40
0.835900849668932
40
0.888399987995251
40
0.94089912632157
40
0.993398264647889
40
1
40
1
40
1
40
1
41
1
10
13.9990046152555
20
-0.223679705031202
30
0
41
1
10
14.2076746428104
20
-0.37240608857735
30
0
41
1
10
14.5295598479121
20
-0.601494256734838
30
0
41
1
10
14.9648341912698
20
-0.9093223970373
30
0
41
1
10
15.4179109316807
20
-1.22771748247189
30
0
41
1
10
15.9846713455593
20
-1.6213764583477
30
0
41
1
10
16.5519610510311
20
-2.00655416500919
30
0
41
1
10
17.0061048202664
20
-2.30802893647206
30
0
41
1
10
17.3468678608743
20
-2.53049284384579
30
0
41
1
10
17.6877855310857
20
-2.74892564444187
30
0
41
1
10
18.0288515553368
20
-2.96287415607264
30
0
41
1
10
18.3700681888747
20
-3.1720542129049
30
0
41
1
10
18.7114359706619
20
-3.37613055507791
30
0
41
1
10
19.0529496508866
20
-3.57477088288144
30
0
41
1
10
19.5084891173205
20
-3.83175489749053
30
0
41
1
10
19.964313269507
20
-4.07653436805595
30
0
41
1
10
20.4203294957303
20
-4.30771834966902
30
0
41
1
10
20.8764453039661
20
-4.52947279560073
30
0
41
1
10
21.3326720445773
20
-4.73645288360416
30
0
41
1
10
21.7889215835273
20
-4.92761649436133
30
0
41
1
10
22.2451550247468
20
-5.10791419941339
30
0
41
1
10
22.7013282584915
20
-5.27140574865183
30
0
41
1
10
23.1573687448341
20
-5.41731102782285
30
0
41
1
10
23.6132946428054
20
-5.55125483047863
30
0
41
1
10
24.0690161426062
20
-5.666882920783
30
0
41
1
10
24.5244571145541
20
-5.76368322371405
30
0
41
1
10
24.9796847582165
20
-5.84777024898983
30
0
41
1
10
25.5482643200569
20
-5.92879406789643
30
0
41
1
10
26.2295877052694
20
-5.98701903439201
30
0
41
1
10
26.7115373725446
20
-6.00044963673929
30
0
41
1
10
26.9664770646311
20
-5.99929460969969
30
0
41
1
10
26.9949509795853
20
-5.99906251448053
30
0
0
SPLINE
5
1AF
100
AcDbEntity
8
1
62
256
6
ByLayer
370
18
48
1
60
0
100
AcDbSpline
70
4
71
3
72
8
73
4
40
0
40
0
40
0
40
0
40
1
40
1
40
1
40
1
41
1
10
13.8163586137524
20
-5.89227483950413
30
0
41
1
10
13.8493489545969
20
-5.91393721741855
30
0
41
1
10
13.8845762201517
20
-5.93385298374778
30
0
41
1
10
13.9216631615294
20
-5.95194946015292
30
0
0
SPLINE
5
1B0
100
AcDbEntity
8
1
62
256
6
ByLayer
370
18
48
1
60
0
100
AcDbSpline
70
4
71
3
72
10
73
6
40
0
40
0
40
0
40
0
40
0.5
40
0.5
40
1
40
1
40
1
40
1
41
1
10
13.5571410092665
20
5.46070798791595
30
0
41
1
10
13.5187470550987
20
5.46356590046676
30
0
41
1
10
13.4798839177271
20
5.46820417286415
30
0
41
1
10
13.4000989952925
20
5.48070151133015
30
0
41
1
10
13.3591778832409
20
5.48854408573138
30
0
41
1
10
13.3163586137953
20
5.49818129757534
30
0
0
SPLINE
5
1B1
100
AcDbEntity
8
1
62
256
6
ByLayer
370
18
48
1
60
0
100
AcDbSpline
70
4
71
3
72
12
73
8
40
0
40
0
40
0
40
0
40
0.500000000000025
40
0.500000000000025
40
0.750000000000012
40
0.750000000000012
40
1
40
1
40
1
40
1
41
1
10
13.5608219652327
20
4.85683190553502
30
0
41
1
10
13.6050509213644
20
4.85054274078476
30
0
41
1
10
13.6485306407609
20
4.84649364435077
30
0
41
1
10
13.712591369903
20
4.84388472979185
30
0
41
1
10
13.7337912753712
20
4.84359593485365
30
0
41
1
10
13.7755625494929
20
4.84421797281519
30
0
41
1
10
13.7961252465417
20
4.84512581323153
30
0
41
1
10
13.8163586137524
20
4.84664228404196
30
0
0
SPLINE
5
1B2
100
AcDbEntity
8
1
62
256
6
ByLayer
370
18
48
1
60
0
100
AcDbSpline
70
4
71
3
72
8
73
4
40
0
40
0
40
0
40
0
40
1
40
1
40
1
40
1
41
1
10
13.8163586137524
20
4.84664228404202
30
0
41
1
10
13.8773931582603
20
4.85121676263523
30
0
41
1
10
13.9386098060714
20
4.85547303409351
30
0
41
1
10
14.0000000000001
20
4.85942605123452
30
0
0
SPLINE
5
1B3
100
AcDbEntity
8
1
62
256
6
ByLayer
370
18
48
1
60
0
100
AcDbSpline
70
4
71
3
72
8
73
4
40
0
40
0
40
0
40
0
40
1
40
1
40
1
40
1
41
1
10
14.0000000000001
20
-4.62380927631526
30
0
41
1
10
13.9995983041777
20
-4.61503794901486
30
0
41
1
10
13.9992701874101
20
-4.60626283194486
30
0
41
1
10
13.9990176256912
20
-4.59748551658475
30
0
0
SPLINE
5
1B4
100
AcDbEntity
8
1
62
256
6
ByLayer
370
18
48
1
60
0
100
AcDbSpline
70
4
71
3
72
8
73
4
40
0
40
0
40
0
40
0
40
1
40
1
40
1
40
1
41
1
10
13.8163586137524
20
-3.92570222056682
30
0
41
1
10
13.8493095008881
20
-4.01942534310007
30
0
41
1
10
13.8845078143734
20
-4.11167340998824
30
0
41
1
10
13.9215793126991
20
-4.20249672594053
30
0
0
SPLINE
5
1B5
100
AcDbEntity
8
1
62
256
6
ByLayer
370
18
48
1
60
0
100
AcDbSpline
70
4
71
3
72
12
73
8
40
0
40
0
40
0
40
0
40
0.5
40
0.5
40
0.75
40
0.75
40
1
40
1
40
1
40
1
41
1
10
13.515382546667
20
-4.21117254928811
30
0
41
1
10
13.5676610412114
20
-4.24514014087632
30
0
41
1
10
13.6189722733429
20
-4.28201059479352
30
0
41
1
10
13.694450629385
20
-4.3417834065597
30
0
41
1
10
13.7194101565292
20
-4.36250055227993
30
0
41
1
10
13.7685036777347
20
-4.40523198366799
30
0
41
1
10
13.7926418796873
20
-4.42724456299993
30
0
41
1
10
13.8163586137524
20
-4.44992444493545
30
0
0
SPLINE
5
1B6
100
AcDbEntity
8
1
62
256
6
ByLayer
370
18
48
1
60
0
100
AcDbSpline
70
4
71
3
72
8
73
4
40
0
40
0
40
0
40
0
40
1
40
1
40
1
40
1
41
1
10
13.316358613752
20
-4.10110569686694
30
0
41
1
10
13.384231046168
20
-4.13246036968442
30
0
41
1
10
13.4507135016217
20
-4.16915428289366
30
0
41
1
10
13.5153825466575
20
-4.21117254928197
30
0
0
SPLINE
5
1B7
100
AcDbEntity
8
1
62
256
6
ByLayer
370
18
48
1
60
0
100
AcDbSpline
70
4
71
3
72
26
73
22
40
0
40
0
40
0
40
0
40
0.249999999999984
40
0.249999999999984
40
0.499999999999969
40
0.499999999999969
40
0.62499999999997
40
0.62499999999997
40
0.749999999999971
40
0.749999999999971
40
0.812499999999972
40
0.812499999999972
40
0.874999999999973
40
0.874999999999973
40
0.937499999999973
40
0.937499999999973
40
0.968749999999981
40
0.968749999999981
40
0.98437499999999
40
0.98437499999999
40
1
40
1
40
1
40
1
41
1
10
13.3163586137534
20
5.4981812975868
30
0
41
1
10
13.2575285926217
20
5.51142200402157
30
0
41
1
10
13.1990966400201
20
5.52432135914424
30
0
41
1
10
13.0833641429427
20
5.54947754506682
30
0
41
1
10
13.0260247284336
20
5.56173558991247
30
0
41
1
10
12.9415058856
20
5.57971614488145
30
0
41
1
10
12.9135930700215
20
5.58564081073774
30
0
41
1
10
12.8585277275048
20
5.5973923687788
30
0
41
1
10
12.8313642536075
20
5.60321706893029
30
0
41
1
10
12.7915734675819
20
5.61195012360852
30
0
41
1
10
12.7784617216538
20
5.61486310610337
30
0
41
1
10
12.752771401589
20
5.62070316274159
30
0
41
1
10
12.740185469934
20
5.62362938224325
30
0
41
1
10
12.7158769365856
20
5.6295475714256
30
0
41
1
10
12.7041197845407
20
5.63253383806244
30
0
41
1
10
12.6878540062128
20
5.63717817158448
30
0
41
1
10
12.6826804897311
20
5.63874985026317
30
0
41
1
10
12.6756904886879
20
5.64116346452155
30
0
41
1
10
12.6734881272462
20
5.64197827490005
30
0
41
1
10
12.6694779276605
20
5.64364280743493
30
0
41
1
10
12.6676622876202
20
5.64449170962561
30
0
41
1
10
12.6662027754059
20
5.64537459250812
30
0
0
SPLINE
5
1B8
100
AcDbEntity
8
1
62
256
6
ByLayer
370
18
48
1
60
0
100
AcDbSpline
70
4
71
3
72
20
73
16
40
0
40
0
40
0
40
0
40
0.0624999999999939
40
0.0624999999999939
40
0.124999999999988
40
0.124999999999988
40
0.249999999999996
40
0.249999999999996
40
0.375000000000005
40
0.375000000000005
40
0.500000000000013
40
0.500000000000013
40
0.750000000000007
40
0.750000000000007
40
1
40
1
40
1
40
1
41
1
10
12.6662027754749
20
5.64537459249334
30
0
41
1
10
12.662733262982
20
5.6474733575306
30
0
41
1
10
12.6585858251271
20
5.64946563226059
30
0
41
1
10
12.6495730017303
20
5.65331931995794
30
0
41
1
10
12.6446930963773
20
5.65517889911777
30
0
41
1
10
12.6293370834734
20
5.6606086828977
30
0
41
1
10
12.6181594557708
20
5.66403188614657
30
0
41
1
10
12.5948158119813
20
5.6706041570871
30
0
41
1
10
12.5826291938714
20
5.67375057140211
30
0
41
1
10
12.5575985367538
20
5.67981521259864
30
0
41
1
10
12.5447441997521
20
5.6827336250555
30
0
41
1
10
12.5055762051828
20
5.69116393512405
30
0
41
1
10
12.4786328955879
20
5.69636310577823
30
0
41
1
10
12.4237605543107
20
5.70605709413246
30
0
41
1
10
12.3958183681041
20
5.71054949209065
30
0
41
1
10
12.3675210676612
20
5.71472095924
30
0
0
SPLINE
5
1B9
100
AcDbEntity
8
1
62
256
6
ByLayer
370
18
48
1
60
0
100
AcDbSpline
70
4
71
3
72
10
73
6
40
0
40
0
40
0
40
0
40
0.552524274763079
40
0.552524274763079
40
1
40
1
40
1
40
1
41
1
10
12.3675210676612
20
5.71472095924003
30
0
41
1
10
12.2285083604541
20
5.7306765918344
30
0
41
1
10
12.0929447657178
20
5.7427459418017
30
0
41
1
10
11.8541774698505
20
5.7566093661865
30
0
41
1
10
11.7497217972856
20
5.75992186465649
30
0
41
1
10
11.6477487350179
20
5.75999937138056
30
0
0
SPLINE
5
1BA
100
AcDbEntity
8
1
62
256
6
ByLayer
370
18
48
1
60
0
100
AcDbSpline
70
4
71
3
72
23
73
19
40
0
40
0
40
0
40
0
40
0.250000000000004
40
0.250000000000004
40
0.375000000000012
40
0.375000000000012
40
0.50000000000002
40
0.50000000000002
40
0.562500000000018
40
0.562500000000018
40
0.625000000000015
40
0.687500000000013
40
0.687500000000013
40
0.75000000000001
40
0.75000000000001
40
0.875000000000005
40
0.875000000000005
40
1
40
1
40
1
40
1
41
1
10
9.80423241415014
20
-5.7583061329193
30
0
41
1
10
9.79567106852764
20
-5.75777180053356
30
0
41
1
10
9.78903503321882
20
-5.7571005044594
30
0
41
1
10
9.78349985736779
20
-5.7558443388015
30
0
41
1
10
9.78241377936183
20
-5.75538078005278
30
0
41
1
10
9.78219721971581
20
-5.75439069840311
30
0
41
1
10
9.78304594738157
20
-5.75386194246414
30
0
41
1
10
9.78607263989082
20
-5.75302063607162
30
0
41
1
10
9.78738541185399
20
-5.7527307496303
30
0
41
1
10
9.79059118911155
20
-5.75214863567118
30
0
41
1
10
9.79438010503978
20
-5.75156199892899
30
0
41
1
10
9.79936154591962
20
-5.75097108832628
30
0
41
1
10
9.80495711599627
20
-5.75038050842733
30
0
41
1
10
9.80808397453177
20
-5.75008367476832
30
0
41
1
10
9.81819088678213
20
-5.74921620487385
30
0
41
1
10
9.82590939509961
20
-5.74866532080597
30
0
41
1
10
9.84308132239076
20
-5.74762869927161
30
0
41
1
10
9.85254292267999
20
-5.74714384042824
30
0
41
1
10
9.86252059333009
20
-5.74670554508299
30
0
0
SPLINE
5
1BB
100
AcDbEntity
8
1
62
256
6
ByLayer
370
18
48
1
60
0
100
AcDbSpline
70
4
71
3
72
40
73
36
40
0
40
0
40
0
40
0
40
0.0374279471999557
40
0.0374279471999557
40
0.0748558943999114
40
0.0748558943999114
40
0.112283841599867
40
0.112283841599867
40
0.130997815199848
40
0.130997815199848
40
0.149711788799829
40
0.149711788799829
40
0.224567683199741
40
0.224567683199741
40
0.2619956303997
40
0.2619956303997
40
0.299423577599659
40
0.299423577599659
40
0.37427947199957
40
0.37427947199957
40
0.411707419199522
40
0.411707419199522
40
0.449135366399475
40
0.449135366399475
40
0.59884715519929
40
0.59884715519929
40
0.673703049599195
40
0.673703049599195
40
0.7485589439991
40
0.7485589439991
40
0.823414838399004
40
0.823414838399004
40
0.898270732798908
40
0.898270732798908
40
1
40
1
40
1
40
1
41
1
10
9.86252059333012
20
-5.74670554508293
30
0
41
1
10
9.89485449859109
20
-5.74528519351324
30
0
41
1
10
9.92819906627335
20
-5.74393411302799
30
0
41
1
10
9.99643317347264
20
-5.74141416430154
30
0
41
1
10
10.0313267648341
20
-5.74024472652945
30
0
41
1
10
10.1023739031314
20
-5.73810687264915
30
0
41
1
10
10.1385292832165
20
-5.73713821502986
30
0
41
1
10
10.1935645235191
20
-5.73584145355156
30
0
41
1
10
10.2120438983486
20
-5.73543516492771
30
0
41
1
10
10.2492528724348
20
-5.73467478199109
30
0
41
1
10
10.2679936480511
20
-5.73432057749358
30
0
41
1
10
10.361736540177
20
-5.73268850046202
30
0
41
1
10
10.4372834753696
20
-5.73181811041903
30
0
41
1
10
10.5512249970343
20
-5.73107544223774
30
0
41
1
10
10.5893584673174
20
-5.73092161908792
30
0
41
1
10
10.6655599677955
20
-5.73078636260286
30
0
41
1
10
10.7036056672583
20
-5.73080465583155
30
0
41
1
10
10.8175955034484
20
-5.7310888385083
30
0
41
1
10
10.893393228087
20
-5.73158377072855
30
0
41
1
10
11.0068459737276
20
-5.73267752001956
30
0
41
1
10
11.0446226669713
20
-5.73310073902013
30
0
41
1
10
11.1201001835214
20
-5.73404730798771
30
0
41
1
10
11.1578203486913
20
-5.73457099829153
30
0
41
1
10
11.3457438776962
20
-5.73738958231883
30
0
41
1
10
11.4942813551972
20
-5.74028460218497
30
0
41
1
10
11.7149736689281
20
-5.74478548343976
30
0
41
1
10
11.7880799602983
20
-5.74631071444551
30
0
41
1
10
11.9332642021628
20
-5.74928014359
30
0
41
1
10
12.0053762212825
20
-5.75072509000833
30
0
41
1
10
12.1487262669186
20
-5.75341377105718
30
0
41
1
10
12.2199879759488
20
-5.75465777415346
30
0
41
1
10
12.3614431339245
20
-5.75682300653855
30
0
41
1
10
12.4316668971595
20
-5.75774489532742
30
0
41
1
10
12.5962348461775
20
-5.75941008999237
30
0
41
1
10
12.6902093739309
20
-5.75996845956445
30
0
41
1
10
12.7832976641955
20
-5.75999798202679
30
0
0
SPLINE
5
1BC
100
AcDbEntity
8
1
62
256
6
ByLayer
370
18
48
1
60
0
100
AcDbSpline
70
4
71
3
72
12
73
8
40
0
40
0
40
0
40
0
40
0.49999999999998
40
0.49999999999998
40
0.74999999999999
40
0.74999999999999
40
1
40
1
40
1
40
1
41
1
10
13.5173474951302
20
0.103340781897913
30
0
41
1
10
13.5692898156719
20
0.0663874847003569
30
0
41
1
10
13.6202654818133
20
0.029247681575697
30
0
41
1
10
13.6952428816556
20
-0.0267487505503823
30
0
41
1
10
13.7200361707669
20
-0.0455006937814346
30
0
41
1
10
13.7688178879114
20
-0.0828861155357288
30
0
41
1
10
13.7927991144511
20
-0.101512804983742
30
0
41
1
10
13.8163586137524
20
-0.120071523587683
30
0
0
SPLINE
5
1BD
100
AcDbEntity
8
1
62
256
6
ByLayer
370
18
48
1
60
0
100
AcDbSpline
70
4
71
3
72
10
73
6
40
0
40
0
40
0
40
0
40
0.5
40
0.5
40
1
40
1
40
1
40
1
41
1
10
13.5588485748564
20
1.38654238403936
30
0
41
1
10
13.5202228468414
20
1.41799397261352
30
0
41
1
10
13.4811077828263
20
1.44976149022557
30
0
41
1
10
13.4007579314409
20
1.51266634851672
30
0
41
1
10
13.3595219095869
20
1.543795073127
30
0
41
1
10
13.3163586137524
20
1.57384881942707
30
0
0
SPLINE
5
1BE
100
AcDbEntity
8
1
62
256
6
ByLayer
370
18
48
1
60
0
100
AcDbSpline
70
4
71
3
72
8
73
4
40
0
40
0
40
0
40
0
40
1
40
1
40
1
40
1
41
1
10
13.316358613752
20
0.238361676888701
30
0
41
1
10
13.3849176033237
20
0.194537327003445
30
0
41
1
10
13.4520590837202
20
0.149788881351583
30
0
41
1
10
13.5173474951201
20
0.103340781905018
30
0
0
SPLINE
5
1BF
100
AcDbEntity
8
1
62
256
6
ByLayer
370
18
48
1
60
0
100
AcDbSpline
70
4
71
3
72
12
73
8
40
0
40
0
40
0
40
0
40
0.249999999999998
40
0.249999999999998
40
0.499999999999996
40
0.499999999999996
40
1
40
1
40
1
40
1
41
1
10
13.5588485748564
20
1.38654238403936
30
0
41
1
10
13.5819708171864
20
1.32409572721767
30
0
41
1
10
13.6044724808852
20
1.26132467972459
30
0
41
1
10
13.6486955330292
20
1.1352794693623
30
0
41
1
10
13.6704061878024
20
1.07200204911408
30
0
41
1
10
13.7345714846892
20
0.881487390382887
30
0
41
1
10
13.7760751787276
20
0.753571727809373
30
0
41
1
10
13.8163586137524
20
0.62480233171226
30
0
0
SPLINE
5
1C0
100
AcDbEntity
8
1
62
256
6
ByLayer
370
18
48
1
60
0
100
AcDbSpline
70
4
71
3
72
12
73
8
40
0
40
0
40
0
40
0
40
0.249999999999998
40
0.249999999999998
40
0.499999999999996
40
0.499999999999996
40
1
40
1
40
1
40
1
41
1
10
13.5571410092663
20
5.4607079879159
30
0
41
1
10
13.5804737168184
20
5.44407712401903
30
0
41
1
10
13.6031509018614
20
5.42696493931999
30
0
41
1
10
13.6476942313802
20
5.39182083228172
30
0
41
1
10
13.6695486691142
20
5.3737883486107
30
0
41
1
10
13.7341183845346
20
5.31835605139048
30
0
41
1
10
13.7758565829044
20
5.2796195607028
30
0
41
1
10
13.8163586137524
20
5.23922278874107
30
0
0
SPLINE
5
1C1
100
AcDbEntity
8
1
62
256
6
ByLayer
370
18
48
1
60
0
100
AcDbSpline
70
4
71
3
72
8
73
4
40
0
40
0
40
0
40
0
40
1
40
1
40
1
40
1
41
1
10
13.8163586137524
20
5.23922278874107
30
0
41
1
10
13.8493095008881
20
5.20635753616756
30
0
41
1
10
13.8845078143734
20
5.17218636857751
30
0
41
1
10
13.9215793126991
20
5.13658312532397
30
0
0
SPLINE
5
1C2
100
AcDbEntity
8
1
62
256
6
ByLayer
370
18
48
1
60
0
100
AcDbSpline
70
4
71
3
72
50
73
46
40
0
40
0
40
0
40
0
40
0.0023743291441573
40
0.0170694332208769
40
0.0317645372975965
40
0.0464596413743161
40
0.0611547454510356
40
0.0758498495277552
40
0.0905449536044748
40
0.105240057681194
40
0.119935161757914
40
0.149325369911353
40
0.178715578064792
40
0.208105786218231
40
0.23749599437167
40
0.26688620252511
40
0.296276410678549
40
0.325666618831988
40
0.340361722908707
40
0.355056826985427
40
0.384447035138866
40
0.399142139215586
40
0.413837243292305
40
0.443227451445745
40
0.457922555522464
40
0.472617659599184
40
0.502007867752623
40
0.516702971829342
40
0.531398075906062
40
0.560788284059501
40
0.59017849221294
40
0.61956870036638
40
0.634263804443099
40
0.648958908519819
40
0.678349116673258
40
0.737129532980136
40
0.766519741133575
40
0.795909949287014
40
0.825300157440454
40
0.854690365593893
40
0.884080573747332
40
0.913470781900771
40
0.94286099005421
40
0.972251198207649
40
1
40
1
40
1
40
1
41
1
10
13.921579312699
20
5.13658312532402
30
0
41
1
10
13.9399234336144
20
5.12976789429129
30
0
41
1
10
14.071796848549
20
5.08049021056434
30
0
41
1
10
14.3171278737479
20
4.98503331631241
30
0
41
1
10
14.6574454024083
20
4.84386082963263
30
0
41
1
10
14.9975882135499
20
4.69423274756227
30
0
41
1
10
15.337564984093
20
4.53642065679745
30
0
41
1
10
15.6773736526622
20
4.37071016847395
30
0
41
1
10
16.0170188107865
20
4.19741285359322
30
0
41
1
10
16.3564993836111
20
4.01684421025564
30
0
41
1
10
16.8089327213615
20
3.76683197985923
30
0
41
1
10
17.374094355538
20
3.4377419342101
30
0
41
1
10
18.0518372025284
20
3.01912508856273
30
0
41
1
10
18.7292958039509
20
2.57955891579235
30
0
41
1
10
19.406605826822
20
2.12216801390613
30
0
41
1
10
20.0839294871885
20
1.64990358655473
30
0
41
1
10
20.7613840304963
20
1.16609565408666
30
0
41
1
10
21.3261535146058
20
0.755953828177695
30
0
41
1
10
21.7781071768092
20
0.425400129262499
30
0
41
1
10
22.2301611403949
20
0.0937772117717657
30
0
41
1
10
22.6823789698758
20
-0.238596156741892
30
0
41
1
10
23.1347712649778
20
-0.569952404830929
30
0
41
1
10
23.5872872490139
20
-0.900091186960168
30
0
41
1
10
24.0399929159929
20
-1.22748605908481
30
0
41
1
10
24.4928495884352
20
-1.55038695411787
30
0
41
1
10
24.9457980001601
20
-1.86977030276111
30
0
41
1
10
25.3988692025267
20
-2.18291447811248
30
0
41
1
10
25.8520248388422
20
-2.48817897397493
30
0
41
1
10
26.305226116518
20
-2.78769562701959
30
0
41
1
10
26.8717946701063
20
-3.15012309692514
30
0
41
1
10
27.5516673860367
20
-3.56298842638543
30
0
41
1
10
28.1181459839976
20
-3.88605240682742
30
0
41
1
10
28.5712311972509
20
-4.13063619764432
30
0
41
1
10
29.0242286861581
20
-4.36558598795091
30
0
41
1
10
29.816948171925
20
-4.75007687957495
30
0
41
1
10
30.7242149380045
20
-5.12485083077453
30
0
41
1
10
31.6356151724142
20
-5.42766766499585
30
0
41
1
10
32.321830347117
20
-5.61674308580101
30
0
41
1
10
33.0114659760991
20
-5.76631232885521
30
0
41
1
10
33.7052182014076
20
-5.87473602195664
30
0
41
1
10
34.4039674889656
20
-5.94060906784014
30
0
41
1
10
35.1083339073155
20
-5.96231068467804
30
0
41
1
10
35.8191617708347
20
-5.93868818049421
30
0
41
1
10
36.5236997163488
20
-5.86979272253842
30
0
41
1
10
36.9940700096489
20
-5.79444149281233
30
0
41
1
10
37.2238493047662
20
-5.75066437729546
30
0
0
SPLINE
5
1C3
100
AcDbEntity
8
1
62
256
6
ByLayer
370
18
48
1
60
0
100
AcDbSpline
70
4
71
3
72
10
73
6
40
0
40
0
40
0
40
0
40
0.5
40
0.5
40
1
40
1
40
1
40
1
41
1
10
13.9215793126991
20
5.13658312532397
30
0
41
1
10
13.9293413934405
20
5.09486717107185
30
0
41
1
10
13.9399809102564
20
5.05296615160876
30
0
41
1
10
13.9660831327175
20
4.9684269994311
30
0
41
1
10
13.981540687176
20
4.92581283779413
30
0
41
1
10
13.9990176256912
20
4.88273688591187
30
0
0
SPLINE
5
1C4
100
AcDbEntity
8
1
62
256
6
ByLayer
370
18
48
1
60
0
100
AcDbSpline
70
4
71
3
72
29
73
25
40
0
40
0
40
0
40
0
40
0.0146573709867625
40
0.0402492184276368
40
0.0658410658685112
40
0.11702476075026
40
0.142616608191134
40
0.168208455632009
40
0.193800303072883
40
0.219392150513757
40
0.244983997954632
40
0.270575845395506
40
0.321759540277255
40
0.424126930040752
40
0.475310624922501
40
0.52649431980425
40
0.628861709567747
40
0.680045404449496
40
0.731229099331244
40
0.833596489094742
40
0.859188336535616
40
0.884780183976491
40
0.935963878858239
40
1
40
1
40
1
40
1
41
1
10
23.9700479106361
20
5.99903675308246
30
0
41
1
10
24.035174724012
20
5.9984711028556
30
0
41
1
10
24.2139935793439
20
5.99526587152684
30
0
41
1
10
24.5064148483354
20
5.98261084101645
30
0
41
1
10
24.9608409363923
20
5.94832907500333
30
0
41
1
10
25.4148839246322
20
5.89222095564773
30
0
41
1
10
25.8683949720183
20
5.81478069772936
30
0
41
1
10
26.2082237019677
20
5.74615408524815
30
0
41
1
10
26.5477222641967
20
5.66714528325008
30
0
41
1
10
26.8868752845888
20
5.57792685251991
30
0
41
1
10
27.2256638367299
20
5.47871963669098
30
0
41
1
10
27.6768542374577
20
5.33338479158942
30
0
41
1
10
28.4652839553012
20
5.04545663364704
30
0
41
1
10
29.3652681138086
20
4.64315707820774
30
0
41
1
10
30.267204884585
20
4.17461958407881
30
0
41
1
10
31.1714454058339
20
3.66448939730429
30
0
41
1
10
32.0807730391141
20
3.09640681820829
30
0
41
1
10
32.9983511766828
20
2.4790155343625
30
0
41
1
10
33.922427696611
20
1.83211678847437
30
0
41
1
10
34.7409641233545
20
1.2326534987854
30
0
41
1
10
35.4516405969048
20
0.702316899922806
30
0
41
1
10
35.9279718035421
20
0.344878249609337
30
0
41
1
10
36.5887951238672
20
-0.153462470499761
30
0
41
1
10
37.137245801096
20
-0.566158431241064
30
0
41
1
10
37.4447716767608
20
-0.79579687350261
30
0
0
SPLINE
5
1C5
100
AcDbEntity
8
1
62
256
6
ByLayer
370
18
48
1
60
0
100
AcDbSpline
70
4
71
3
72
8
73
4
40
0
40
0
40
0
40
0
40
1
40
1
40
1
40
1
41
1
10
37.6042090360683
20
-0.954434987015816
30
0
41
1
10
37.6059250254359
20
-0.955636566424573
30
0
41
1
10
37.6076412694843
20
-0.956835295137211
30
0
41
1
10
37.6093577785029
20
-0.958031135827923
30
0
0
SPLINE
5
1C6
100
AcDbEntity
8
1
62
256
6
ByLayer
370
18
48
1
60
0
100
AcDbSpline
70
4
71
3
72
8
73
4
40
0
40
0
40
0
40
0
40
1
40
1
40
1
40
1
41
1
10
37.4503621496954
20
-0.839880948817921
30
0
41
1
10
37.501605976428
20
-0.878090641481549
30
0
41
1
10
37.5528872782625
20
-0.916276628425948
30
0
41
1
10
37.6042090360682
20
-0.954434987015873
30
0
0
SPLINE
5
1C7
100
AcDbEntity
8
1
62
256
6
ByLayer
370
18
48
1
60
0
100
AcDbSpline
70
4
71
3
72
53
73
49
40
0
40
0
40
0
40
0
40
0.0317114528824888
40
0.0317114528824888
40
0.119737684438622
40
0.119737684438622
40
0.207763915994755
40
0.207763915994755
40
0.229770473883788
40
0.229770473883788
40
0.240773752828304
40
0.240773752828304
40
0.251777031772821
40
0.251777031772821
40
0.295790147550888
40
0.295790147550888
40
0.339803263328955
40
0.339803263328955
40
0.361809821217989
40
0.361809821217989
40
0.383816379107023
40
0.383816379107023
40
0.471842610663157
40
0.471842610663157
40
0.493849168552192
40
0.493849168552192
40
0.515855726441226
40
0.515855726441226
40
0.559868842219296
40
0.559868842219296
40
0.603881957997367
40
0.603881957997367
40
0.647895073775437
40
0.647895073775437
40
0.691908189553507
40
0.691908189553507
40
0.735921305331578
40
0.735921305331578
40
0.757927863220613
40
0.757927863220613
40
0.76893114216513
40
0.76893114216513
40
0.779934421109648
40
0.823947536887718
40
0.823947536887718
40
0.911973768443859
40
0.911973768443859
40
1
40
1
40
1
40
1
41
1
10
20.8055708906111
20
5.57358531967239
30
0
41
1
10
20.9816879311103
20
5.62272448416317
30
0
41
1
10
21.1573658672953
20
5.66765980482495
30
0
41
1
10
21.8195805590424
20
5.82142664360208
30
0
41
1
10
22.3041314859137
20
5.90200262426933
30
0
41
1
10
23.2748298720204
20
5.99689070621321
30
0
41
1
10
23.7609626589851
20
6.01119904431783
30
0
41
1
10
24.3735794455628
20
5.98641127675316
30
0
41
1
10
24.4963501612522
20
5.97931855512289
30
0
41
1
10
24.68095163196
20
5.96544228512579
30
0
41
1
10
24.742516427621
20
5.96028013465934
30
0
41
1
10
24.8655347896065
20
5.94890105383865
30
0
41
1
10
24.927015966737
20
5.94268188584533
30
0
41
1
10
25.2343098184969
20
5.90895492619129
30
0
41
1
10
25.4797901031306
20
5.87356712906976
30
0
41
1
10
25.9706917342545
20
5.78625335402521
30
0
41
1
10
26.2161016224366
20
5.73431038731528
30
0
41
1
10
26.5846503511061
20
5.64409100542346
30
0
41
1
10
26.7075742549226
20
5.6119645523051
30
0
41
1
10
26.9536653855381
20
5.54362613257084
30
0
41
1
10
27.0766436335672
20
5.50746608232362
30
0
41
1
10
27.6907430419681
20
5.31705391613235
30
0
41
1
10
28.1801952043796
20
5.13374518133432
30
0
41
1
10
28.79391523896
20
4.86874073927743
30
0
41
1
10
28.9167552288799
20
4.81394479984982
30
0
41
1
10
29.162734718711
20
4.70082573493127
30
0
41
1
10
29.2855440655133
20
4.64265317532278
30
0
41
1
10
29.6531455807074
20
4.46368886978712
30
0
41
1
10
29.8973049094577
20
4.33836199221335
30
0
41
1
10
30.3846088067448
20
4.07664564489272
30
0
41
1
10
30.6277540722465
20
3.9402558827592
30
0
41
1
10
31.1137468561671
20
3.65729630600461
30
0
41
1
10
31.3565937914989
20
3.5107278146196
30
0
41
1
10
31.8426189892265
20
3.20810718556785
30
0
41
1
10
32.08578978262
20
3.05204682095635
30
0
41
1
10
32.5730560788425
20
2.73100003013167
30
0
41
1
10
32.8171552894492
20
2.56601812293087
30
0
41
1
10
33.1845533221178
20
2.31239427525224
30
0
41
1
10
33.3072282252122
20
2.22682858332897
30
0
41
1
10
33.4916286060764
20
2.09701663950116
30
0
41
1
10
33.5531986496639
20
2.05347454178508
30
0
41
1
10
33.6761281399941
20
1.96616661726696
30
0
41
1
10
33.9830900645781
20
1.74722248675096
30
0
41
1
10
34.2884077565784
20
1.52513002433153
30
0
41
1
10
35.0192560360549
20
0.987735641463928
30
0
41
1
10
35.5039594127568
20
0.623669840306974
30
0
41
1
10
36.474633458276
20
-0.107548231428581
30
0
41
1
10
36.9606057602426
20
-0.474694499501908
30
0
41
1
10
37.4500276319804
20
-0.839631516690872
30
0
0
SPLINE
5
1C8
100
AcDbEntity
8
1
62
256
6
ByLayer
370
18
48
1
60
0
100
AcDbSpline
70
4
71
3
72
50
73
46
40
0
40
0
40
0
40
0
40
0.0047852979563568
40
0.0207069730267225
40
0.0366286480970882
40
0.0525503231674539
40
0.0684719982378196
40
0.0843936733081853
40
0.100315348378551
40
0.132158698519282
40
0.164002048660014
40
0.179923723730379
40
0.195845398800745
40
0.211767073871111
40
0.227688748941477
40
0.259532099082208
40
0.275453774152574
40
0.29137544922294
40
0.323218799363671
40
0.339140474434037
40
0.355062149504402
40
0.386905499645134
40
0.402827174715499
40
0.418748849785865
40
0.450592199926596
40
0.466513874996962
40
0.482435550067328
40
0.498357225137693
40
0.514278900208059
40
0.530200575278425
40
0.546122250348791
40
0.577965600489522
40
0.593887275559888
40
0.609808950630254
40
0.641652300770985
40
0.705339001052448
40
0.737182351193179
40
0.769025701333911
40
0.800869051474642
40
0.832712401615374
40
0.864555751756105
40
0.896399101896836
40
0.928242452037568
40
0.960085802178299
40
1
40
1
40
1
40
1
41
1
10
15.9176191208397
20
5.95225826777843
30
0
41
1
10
15.9515780753219
20
5.95551882781947
30
0
41
1
10
16.0985134004461
20
5.96890126776648
30
0
41
1
10
16.3583359270803
20
5.9870170222562
30
0
41
1
10
16.6969836768819
20
5.99931400054942
30
0
41
1
10
17.0354658579197
20
6.00036596935533
30
0
41
1
10
17.3738069321996
20
5.99021855719153
30
0
41
1
10
17.7120273232824
20
5.96890570378233
30
0
41
1
10
18.1628572215364
20
5.92550751867896
30
0
41
1
10
18.7262023641451
20
5.84361397231621
30
0
41
1
10
19.289432676219
20
5.7253723121473
30
0
41
1
10
19.7400250629668
20
5.6094339817941
30
0
41
1
10
20.0779924838728
20
5.51203302119035
30
0
41
1
10
20.416000293416
20
5.40436508948585
30
0
41
1
10
20.8667486920205
20
5.24722627782597
30
0
41
1
10
21.317647096696
20
5.07030147879138
30
0
41
1
10
21.7687081387134
20
4.87451043510868
30
0
41
1
10
22.2198828899559
20
4.66651531271222
30
0
41
1
10
22.6712439112004
20
4.4407200190802
30
0
41
1
10
23.1228098435621
20
4.19840796360683
30
0
41
1
10
23.5745179782935
20
3.94551880568477
30
0
41
1
10
24.0264440226548
20
3.67742085312386
30
0
41
1
10
24.4785481213738
20
3.39567432814337
30
0
41
1
10
24.9307565311446
20
3.10534791057356
30
0
41
1
10
25.3831076355914
20
2.80294592228842
30
0
41
1
10
25.8355595958574
20
2.49023131339064
30
0
41
1
10
26.174938968679
20
2.25097265701675
30
0
41
1
10
26.5143444586212
20
2.00744774579772
30
0
41
1
10
26.8537614459353
20
1.76013339412916
30
0
41
1
10
27.1931699694759
20
1.50951926425643
30
0
41
1
10
27.6456803202477
20
1.17159948315688
30
0
41
1
10
28.0981160139006
20
0.829001766835916
30
0
41
1
10
28.5504377454572
20
0.483700836638633
30
0
41
1
10
29.0026530088761
20
0.137251755352423
30
0
41
1
10
29.7939796933526
20
-0.470503288002107
30
0
41
1
10
30.6998392249565
20
-1.16170888739907
30
0
41
1
10
31.6102875045656
20
-1.83614096624694
30
0
41
1
10
32.2962013278128
20
-2.33020371241315
30
0
41
1
10
32.9860110470438
20
-2.80901430323831
30
0
41
1
10
33.6805695039224
20
-3.26904987161319
30
0
41
1
10
34.3807950712392
20
-3.7067719401071
30
0
41
1
10
35.0875435164034
20
-4.1184682309146
30
0
41
1
10
35.8016660147661
20
-4.50036502442586
30
0
41
1
10
36.5851255981216
20
-4.87799033327829
30
0
41
1
10
37.135713152577
20
-5.10763973390692
30
0
41
1
10
37.4447611978875
20
-5.22420385938895
30
0
0
SPLINE
5
1C9
100
AcDbEntity
8
1
62
256
6
ByLayer
370
18
48
1
60
0
100
AcDbSpline
70
4
71
3
72
65
73
61
40
0
40
0
40
0
40
0
40
0.0625000000000019
40
0.0625000000000019
40
0.0781250000000025
40
0.0781250000000025
40
0.0937500000000031
40
0.0937500000000031
40
0.125000000000004
40
0.125000000000004
40
0.156250000000004
40
0.156250000000004
40
0.187500000000005
40
0.187500000000005
40
0.250000000000005
40
0.250000000000005
40
0.257812500000005
40
0.257812500000005
40
0.265625000000004
40
0.265625000000004
40
0.281250000000003
40
0.281250000000003
40
0.312500000000001
40
0.312500000000001
40
0.374999999999997
40
0.374999999999997
40
0.437499999999993
40
0.437499999999993
40
0.445312499999993
40
0.445312499999993
40
0.453124999999993
40
0.468749999999993
40
0.468749999999993
40
0.499999999999994
40
0.499999999999994
40
0.562499999999996
40
0.562499999999996
40
0.624999999999998
40
0.624999999999998
40
0.632812499999998
40
0.632812499999998
40
0.640624999999998
40
0.656249999999998
40
0.656249999999998
40
0.687499999999998
40
0.687499999999998
40
0.749999999999998
40
0.749999999999998
40
0.812499999999999
40
0.812499999999999
40
0.820312499999998
40
0.820312499999998
40
0.828124999999998
40
0.843749999999999
40
0.843749999999999
40
0.875
40
0.875
40
0.9375
40
0.9375
40
1
40
1
40
1
40
1
41
1
10
14.0000000000001
20
5.60678694288416
30
0
41
1
10
14.4929309800281
20
5.74145532256196
30
0
41
1
10
14.9839847943322
20
5.84229082316119
30
0
41
1
10
15.5996030185714
20
5.9246232825262
30
0
41
1
10
15.7229278965593
20
5.93890746142282
30
0
41
1
10
15.9688482504676
20
5.96298134648956
30
0
41
1
10
16.0915392033762
20
5.97279619416148
30
0
41
1
10
16.4589582332225
20
5.99560634013787
30
0
41
1
10
16.7030356043385
20
6.00190243571504
30
0
41
1
10
17.1902257755918
20
5.99709447031896
30
0
41
1
10
17.4333293534119
20
5.98601518904076
30
0
41
1
10
17.9193415022849
20
5.94653773346982
30
0
41
1
10
18.1622548963412
20
5.9181153628644
30
0
41
1
10
18.8918903888791
20
5.80723893112176
30
0
41
1
10
19.3795324777116
20
5.69901286238383
30
0
41
1
10
19.9331005124742
20
5.53877537572421
30
0
41
1
10
19.9947198945388
20
5.52042430323888
30
0
41
1
10
20.1178932180515
20
5.48272012947194
30
0
41
1
10
20.1794060932319
20
5.46338076832339
30
0
41
1
10
20.3637425602968
20
5.4039114192995
30
0
41
1
10
20.4863637672755
20
5.36232341894149
30
0
41
1
10
20.8535778762639
20
5.23188922234323
30
0
41
1
10
21.0975229345019
20
5.13742541431077
30
0
41
1
10
21.8279955361938
20
4.83266802930757
30
0
41
1
10
22.3131838110519
20
4.60099967849365
30
0
41
1
10
23.2861853255255
20
4.08600169517012
30
0
41
1
10
23.7739192909742
20
3.80258428297566
30
0
41
1
10
24.3276725651143
20
3.45719821357977
30
0
41
1
10
24.3893184884443
20
3.41842339022392
30
0
41
1
10
24.5124255204462
20
3.34036212136149
30
0
41
1
10
24.6968710816594
20
3.22246565906244
30
0
41
1
10
24.8807327937041
20
3.10223401808131
30
0
41
1
10
25.2478350693206
20
2.8588646716747
30
0
41
1
10
25.4917430046042
20
2.69274996380821
30
0
41
1
10
26.2221681656001
20
2.18433030734155
30
0
41
1
10
26.7073594045125
20
1.83191470514026
30
0
41
1
10
27.6803717583193
20
1.1079085252907
30
0
41
1
10
28.1682415570947
20
0.736364144669096
30
0
41
1
10
28.7223124913046
20
0.312038824462235
30
0
41
1
10
28.7839620083414
20
0.264792781885831
30
0
41
1
10
28.9070219538278
20
0.170443182618015
30
0
41
1
10
29.0913995295494
20
0.0290204084661525
30
0
41
1
10
29.2751961910235
20
-0.1120303076288
30
0
41
1
10
29.6421701112123
20
-0.393445933695062
30
0
41
1
10
29.8859939209591
20
-0.580142464552182
30
0
41
1
10
30.6162107323735
20
-1.13595811830299
30
0
41
1
10
31.1013632000692
20
-1.50078704505694
30
0
41
1
10
32.0746519265294
20
-2.21087360133333
30
0
41
1
10
32.5627110537301
20
-2.55624183402406
30
0
41
1
10
33.1169901511746
20
-2.92911278400104
30
0
41
1
10
33.1785927481661
20
-2.97028501398231
30
0
41
1
10
33.3015818040379
20
-3.05192655358547
30
0
41
1
10
33.4858579164696
20
-3.1734132585407
30
0
41
1
10
33.6695726987037
20
-3.29192379273573
30
0
41
1
10
34.0364118433026
20
-3.5248475985959
30
0
41
1
10
34.2801861959672
20
-3.67466929625857
30
0
41
1
10
35.0103462719375
20
-4.10675660001931
30
0
41
1
10
35.4955370690011
20
-4.37169421726318
30
0
41
1
10
36.4688789375472
20
-4.84968810302101
30
0
41
1
10
36.9570697158024
20
-5.06275700931803
30
0
41
1
10
37.450010003851
20
-5.24627275560297
30
0
0
SPLINE
5
1CA
100
AcDbEntity
8
1
62
256
6
ByLayer
370
18
48
1
60
0
100
AcDbSpline
70
4
71
3
72
46
73
42
40
0
40
0
40
0
40
0
40
0.0154962531693486
40
0.0320762364940069
40
0.0486562198186652
40
0.0652362031433234
40
0.0818161864679817
40
0.09839616979264
40
0.114976153117298
40
0.131556136441956
40
0.164716103091273
40
0.19787606974059
40
0.231036036389906
40
0.264196003039223
40
0.297355969688539
40
0.330515936337856
40
0.363675902987172
40
0.38025588631183
40
0.396835869636489
40
0.429995836285805
40
0.446575819610464
40
0.463155802935122
40
0.496315769584439
40
0.512895752909097
40
0.529475736233755
40
0.562635702883072
40
0.57921568620773
40
0.595795669532388
40
0.628955636181705
40
0.662115602831021
40
0.695275569480338
40
0.711855552804996
40
0.728435536129654
40
0.761595502778971
40
0.827915436077604
40
0.86107540272692
40
0.894235369376237
40
0.927395336025553
40
0.96055530267487
40
0.993715269324187
40
1
40
1
40
1
40
1
41
1
10
13.999017625691
20
4.8827368859119
30
0
41
1
10
14.105119015913
20
4.83711753876588
30
0
41
1
10
14.3246894828871
20
4.74011010639833
30
0
41
1
10
14.6575908875651
20
4.58515871418598
30
0
41
1
10
14.9977349157439
20
4.4187708452221
30
0
41
1
10
15.3377124768864
20
4.24467451814778
30
0
41
1
10
15.6775206273282
20
4.06320058653066
30
0
41
1
10
16.0171643503182
20
3.8747033220958
30
0
41
1
10
16.3566460243316
20
3.67951035950648
30
0
41
1
10
16.8090812959015
20
3.41076112035361
30
0
41
1
10
17.3742415905778
20
3.05983952535996
30
0
41
1
10
18.0519877265215
20
2.61765056515506
30
0
41
1
10
18.7294431805325
20
2.15736471398913
30
0
41
1
10
19.4067561350614
20
1.6821572920702
30
0
41
1
10
20.084076753613
20
1.19518958342138
30
0
41
1
10
20.761534237204
20
0.699806395759339
30
0
41
1
10
21.3262997638705
20
0.28275021042154
30
0
41
1
10
21.7782544476246
20
-0.0516892667210982
30
0
41
1
10
22.230308633383
20
-0.386089147739057
30
0
41
1
10
22.6825250565426
20
-0.719551953721606
30
0
41
1
10
23.1349189227009
20
-1.05032928395036
30
0
41
1
10
23.5874357538788
20
-1.37875111059378
30
0
41
1
10
24.0401396737233
20
-1.70275732042569
30
0
41
1
10
24.4929969306321
20
-2.02061820765516
30
0
41
1
10
24.9459442857652
20
-2.3338261969532
30
0
41
1
10
25.3990147058875
20
-2.63918943254595
30
0
41
1
10
25.852172936404
20
-2.93507663985082
30
0
41
1
10
26.3053762314629
20
-3.22411643455203
30
0
41
1
10
26.8719429105506
20
-3.57159710327477
30
0
41
1
10
27.5518171919546
20
-3.9635079823658
30
0
41
1
10
28.1182929608681
20
-4.26683493396445
30
0
41
1
10
28.5713782473742
20
-4.49426612991377
30
0
41
1
10
29.0243720111684
20
-4.7111286026323
30
0
41
1
10
29.8170901193295
20
-5.06195429946644
30
0
41
1
10
30.7243958015423
20
-5.39385567995811
30
0
41
1
10
31.6357512752716
20
-5.64966374021981
30
0
41
1
10
32.3219732142614
20
-5.80188150963028
30
0
41
1
10
33.0116073712902
20
-5.91306513341831
30
0
41
1
10
33.7053883034962
20
-5.98183296785643
30
0
41
1
10
34.215342129231
20
-6.00010723636322
30
0
41
1
10
34.4937266372805
20
-5.99944265379324
30
0
41
1
10
34.5381164536022
20
-5.99906667130887
30
0
0
SPLINE
5
1CB
100
AcDbEntity
8
1
62
256
6
ByLayer
370
18
48
1
60
0
100
AcDbSpline
70
4
71
3
72
8
73
4
40
0
40
0
40
0
40
0
40
1
40
1
40
1
40
1
41
1
10
14.0000000000001
20
4.85957830870549
30
0
41
1
10
13.9995983041777
20
4.8672987949366
30
0
41
1
10
13.9992701874102
20
4.87501825390538
30
0
41
1
10
13.9990176256912
20
4.88273688591184
30
0
0
SPLINE
5
1CC
100
AcDbEntity
8
1
62
256
6
ByLayer
370
18
48
1
60
0
100
AcDbSpline
70
4
71
3
72
61
73
57
40
0
40
0
40
0
40
0
40
0.0723929486176495
40
0.0723929486176495
40
0.0814420671948552
40
0.0814420671948552
40
0.090491185772061
40
0.090491185772061
40
0.108589422926472
40
0.108589422926472
40
0.144785897235294
40
0.144785897235294
40
0.217178845852937
40
0.217178845852937
40
0.289571794470581
40
0.289571794470581
40
0.307670031624992
40
0.307670031624992
40
0.316719150202198
40
0.316719150202198
40
0.325768268779404
40
0.361964743088226
40
0.361964743088226
40
0.398161217397047
40
0.398161217397047
40
0.416259454551458
40
0.416259454551458
40
0.425308573128664
40
0.425308573128664
40
0.434357691705869
40
0.434357691705869
40
0.506750640323519
40
0.506750640323519
40
0.57914358894117
40
0.57914358894117
40
0.615340063249995
40
0.615340063249995
40
0.633438300404407
40
0.633438300404407
40
0.651536537558818
40
0.651536537558818
40
0.723929486176467
40
0.723929486176467
40
0.796322434794116
40
0.796322434794116
40
0.868715383411765
40
0.868715383411765
40
0.877764501988971
40
0.877764501988971
40
0.886813620566177
40
0.886813620566177
40
0.90491185772059
40
0.90491185772059
40
0.941108332029418
40
0.941108332029418
40
1
40
1
40
1
40
1
41
1
10
14.0000000000001
20
4.85942929125667
30
0
41
1
10
14.4924044313626
20
4.64567424654754
30
0
41
1
10
14.9830944761342
20
4.40583307161302
30
0
41
1
10
15.5363363422181
20
4.10928401635803
30
0
41
1
10
15.5978250105039
20
4.07596459371715
30
0
41
1
10
15.7208484735979
20
4.00859845286115
30
0
41
1
10
15.7823493529879
20
3.97457005223555
30
0
41
1
10
15.9665757824778
20
3.8716156569256
30
0
41
1
10
16.0891281830774
20
3.80176522992849
30
0
41
1
10
16.4561361812066
20
3.58874260514824
30
0
41
1
10
16.699944345927
20
3.44208314800625
30
0
41
1
10
17.4299438377119
20
2.98980280746767
30
0
41
1
10
17.9147289184533
20
2.67184125636402
30
0
41
1
10
18.8863345142676
20
2.0103502556299
30
0
41
1
10
19.373160916367
20
1.66685356968122
30
0
41
1
10
19.9860945754423
20
1.22523639021998
30
0
41
1
10
20.1088978451587
20
1.13629461980278
30
0
41
1
10
20.2934876438934
20
1.00201938265957
30
0
41
1
10
20.3550942054335
20
0.957108336881959
30
0
41
1
10
20.4781704389518
20
0.867213892770963
30
0
41
1
10
20.7856868046098
20
0.642175686509262
30
0
41
1
10
21.0924645541315
20
0.415806010123987
30
0
41
1
10
21.583089747736
20
0.0528951971437834
30
0
41
1
10
21.8282924089413
20
-0.128920304307172
30
0
41
1
10
22.1965129779947
20
-0.401397406880705
30
0
41
1
10
22.3193232565108
20
-0.492181249700422
30
0
41
1
10
22.5037180396661
20
-0.628193660213753
30
0
41
1
10
22.5652440329138
20
-0.673526806131662
30
0
41
1
10
22.6882121318146
20
-0.764006650760535
30
0
41
1
10
22.7496277702664
20
-0.80913392845008
30
0
41
1
10
23.3018107452926
20
-1.21419569406629
30
0
41
1
10
23.7887120388083
20
-1.56649023522272
30
0
41
1
10
24.7607622422332
20
-2.24822801504027
30
0
41
1
10
25.2459200107792
20
-2.57766397716509
30
0
41
1
10
25.9761008051305
20
-3.04999421696405
30
0
41
1
10
26.2198829480002
20
-3.20381497445482
30
0
41
1
10
26.5865910317985
20
-3.42851016489405
30
0
41
1
10
26.7090008154538
20
-3.50240125746987
30
0
41
1
10
26.9542559437315
20
-3.64804926611197
30
0
41
1
10
27.0771360891538
20
-3.7198257938542
30
0
41
1
10
27.692506662756
20
-4.07284537380016
30
0
41
1
10
28.1801045392399
20
-4.33203517450852
30
0
41
1
10
29.1521426117465
20
-4.79949519295346
30
0
41
1
10
29.6366036155796
20
-5.00771212974763
30
0
41
1
10
30.60835974532
20
-5.36895298273154
30
0
41
1
10
31.0956624969819
20
-5.52195806555352
30
0
41
1
10
31.6485227333903
20
-5.66029232631627
30
0
41
1
10
31.7100156623883
20
-5.67519323233481
30
0
41
1
10
31.8331390373453
20
-5.70404668238825
30
0
41
1
10
31.8947364283682
20
-5.71799072253
30
0
41
1
10
32.0792014122951
20
-5.75827445837552
30
0
41
1
10
32.2019105352209
20
-5.78310653508939
30
0
41
1
10
32.5693583613098
20
-5.85155883662279
30
0
41
1
10
32.8134166001406
20
-5.88913920982611
30
0
41
1
10
33.4530763777019
20
-5.96675504631983
30
0
41
1
10
33.8477418688161
20
-5.993555017793
30
0
41
1
10
34.2424863809718
20
-5.99898007739489
30
0
0
SPLINE
5
1CD
100
AcDbEntity
8
1
62
256
6
ByLayer
370
18
48
1
60
0
100
AcDbSpline
70
4
71
3
72
8
73
4
40
0
40
0
40
0
40
0
40
1
40
1
40
1
40
1
41
1
10
13.9990046152555
20
-0.223679705031202
30
0
41
1
10
13.9992551239642
20
-0.237237271684478
30
0
41
1
10
13.9995821567454
20
-0.250793583069765
30
0
41
1
10
13.9999837709084
20
-0.264347393342575
30
0
0
SPLINE
5
1CE
100
AcDbEntity
8
1
62
256
6
ByLayer
370
18
48
1
60
0
100
AcDbSpline
70
4
71
2
72
6
73
3
40
0
40
0
40
0
40
1
40
1
40
1
41
1
10
37.8063846342566
20
-5.50667395969555
30
0
41
1
10
37.8701685740209
20
-5.38839536140944
30
0
41
1
10
37.9339525137852
20
-5.2701167631233
30
0
0
SPLINE
5
1CF
100
AcDbEntity
8
1
62
256
6
ByLayer
370
18
48
1
60
0
100
AcDbSpline
70
4
71
3
72
11
73
7
40
0
40
0
40
0
40
0
40
0.408761019879339
40
0.738875305153524
40
0.990724361567816
40
1
40
1
40
1
40
1
41
1
10
37.4551730350821
20
4.75765564484249
30
0
41
1
10
37.2943931965272
20
4.81587889277105
30
0
41
1
10
37.0050966633239
20
4.91621543862271
30
0
41
1
10
36.6186652808401
20
5.03912815514937
30
0
41
1
10
36.3914046532279
20
5.10660344952717
30
0
41
1
10
36.2918021268185
20
5.13520684318897
30
0
41
1
10
36.288264957805
20
5.13622139240371
30
0
0
SPLINE
5
1D0
100
AcDbEntity
8
1
62
256
6
ByLayer
370
18
48
1
60
0
100
AcDbSpline
70
4
71
2
72
6
73
3
40
0
40
0
40
0
40
1
40
1
40
1
41
1
10
37.9718564165966
20
3.56582039915122
30
0
41
1
10
37.9184617905986
20
3.84528630037266
30
0
41
1
10
37.8650671646007
20
4.12475220159411
30
0
0
SPLINE
5
1D1
100
AcDbEntity
8
1
62
256
6
ByLayer
370
18
48
1
60
0
100
AcDbSpline
70
4
71
1
72
4
73
2
40
0
40
0
40
1
40
1
41
1
10
23.45036057959
20
-5.55846705761081
30
0
41
1
10
23.5389966289592
20
-5.54365710679514
30
0
0
SPLINE
5
1D2
100
AcDbEntity
8
1
62
256
6
ByLayer
370
18
48
1
60
0
100
AcDbSpline
70
4
71
2
72
6
73
3
40
0
40
0
40
0
40
1
40
1
40
1
41
1
10
19.7449850313255
20
-5.99909201073899
30
0
41
1
10
19.7449716135895
20
-5.9990922069741
30
0
41
1
10
19.7449581958508
20
-5.99909233181009
30
0
0
SPLINE
5
1D3
100
AcDbEntity
8
1
62
256
6
ByLayer
370
18
48
1
60
0
100
AcDbSpline
70
4
71
2
72
6
73
3
40
0
40
0
40
0
40
1
40
1
40
1
41
1
10
30.6427569654298
20
5.99909238580969
30
0
41
1
10
30.6427717360818
20
5.99909236895647
30
0
41
1
10
30.6427865067408
20
5.99909227352441
30
0
0
SPLINE
5
1D4
100
AcDbEntity
8
1
62
256
6
ByLayer
370
18
48
1
60
0
100
AcDbSpline
70
4
71
3
72
10
73
6
40
0
40
0
40
0
40
0
40
0.0914317600910156
40
0.452934258019669
40
1
40
1
40
1
40
1
41
1
10
35.1998794222543
20
2.44436324235099
30
0
41
1
10
35.1750389628756
20
2.45700352880814
30
0
41
1
10
35.0519804462372
20
2.52020489002163
30
0
41
1
10
34.7803390737846
20
2.66722644675116
30
0
41
1
10
34.5332415620669
20
2.80994085328442
30
0
41
1
10
34.3843931252077
20
2.899648646407
30
0
0
SPLINE
5
1D5
100
AcDbEntity
8
1
62
256
6
ByLayer
370
18
48
1
60
0
100
AcDbSpline
70
4
71
3
72
13
73
9
40
0
40
0
40
0
40
0
40
0.198633745164348
40
0.343714929014249
40
0.459734806854464
40
0.578931556843383
40
0.747872009512498
40
1
40
1
40
1
40
1
41
1
10
28.2150154266518
20
2.49562854837032
30
0
41
1
10
28.1101291051498
20
2.53755532029345
30
0
41
1
10
27.9269589270078
20
2.61419878163147
30
0
41
1
10
27.6781367138584
20
2.72601650732634
30
0
41
1
10
27.4697910308957
20
2.82472158730943
30
0
41
1
10
27.2594329573209
20
2.92871291171428
30
0
41
1
10
26.9682843901
20
3.07980272003283
30
0
41
1
10
26.7380607954969
20
3.20791283032602
30
0
41
1
10
26.5981970003291
20
3.28868446883953
30
0
0
SPLINE
5
1D6
100
AcDbEntity
8
1
62
256
6
ByLayer
370
18
48
1
60
0
100
AcDbSpline
70
4
71
3
72
14
73
10
40
0
40
0
40
0
40
0
40
0.198502301344964
40
0.32368643322246
40
0.424752347867544
40
0.505467250348194
40
0.619690331149033
40
0.784462994598202
40
1
40
1
40
1
40
1
41
1
10
20.1710798068891
20
2.87166002027149
30
0
41
1
10
20.0386386032259
20
2.91898350658329
30
0
41
1
10
19.8199327543006
20
3.00073357718256
30
0
41
1
10
19.5279173754849
20
3.11736568511068
30
0
41
1
10
19.3128145118539
20
3.20719343177944
30
0
41
1
10
19.1065754514923
20
3.29626017083538
30
0
41
1
10
18.8567292304123
20
3.40789386838057
30
0
41
1
10
18.5143984716011
20
3.56805588652398
30
0
41
1
10
18.2517154798503
20
3.69812183993667
30
0
41
1
10
18.1030901025527
20
3.77406175416158
30
0
0
SPLINE
5
1D7
100
AcDbEntity
8
1
62
256
6
ByLayer
370
18
48
1
60
0
100
AcDbSpline
70
4
71
3
72
11
73
7
40
0
40
0
40
0
40
0
40
0.339273143384335
40
0.62060170117054
40
0.919353897895447
40
1
40
1
40
1
40
1
41
1
10
30.1696000539434
20
4.92868880808723
30
0
41
1
10
30.0504049403653
20
4.9685211683356
30
0
41
1
10
29.835052216928
20
5.03816043036969
30
0
41
1
10
29.5231168343633
20
5.1323128859537
30
0
41
1
10
29.3040731493744
20
5.19452549249198
30
0
41
1
10
29.177329075131
20
5.22867881874174
30
0
41
1
10
29.1503528006589
20
5.23586568390252
30
0
0
SPLINE
5
1D8
100
AcDbEntity
8
1
62
256
6
ByLayer
370
18
48
1
60
0
100
AcDbSpline
70
4
71
3
72
10
73
6
40
0
40
0
40
0
40
0
40
0.347163749225037
40
0.680732881504446
40
1
40
1
40
1
40
1
41
1
10
23.6121609669011
20
4.73589012227981
30
0
41
1
10
23.4719457522231
20
4.78889011747722
30
0
41
1
10
23.199670053446
20
4.88817485682898
30
0
41
1
10
22.8060752367751
20
5.02056250632833
30
0
41
1
10
22.5555801626212
20
5.09874659702456
30
0
41
1
10
22.4324943338696
20
5.13537209492841
30
0
0
SPLINE
5
1D9
100
AcDbEntity
8
1
62
256
6
ByLayer
370
18
48
1
60
0
100
AcDbSpline
70
4
71
1
72
4
73
2
40
0
40
0
40
1
40
1
41
1
10
30.8366941860961
20
-5.55822145616119
30
0
41
1
10
30.9607595100354
20
-5.53782322122782
30
0
0
SPLINE
5
1DA
100
AcDbEntity
8
1
62
256
6
ByLayer
370
18
48
1
60
0
100
AcDbSpline
70
4
71
3
72
8
73
4
40
0
40
0
40
0
40
0
40
1
40
1
40
1
40
1
41
1
10
30.9607595100354
20
-5.53782322122782
30
0
41
1
10
31.019264065369
20
-5.52940235752061
30
0
41
1
10
31.0777185228989
20
-5.52061403895709
30
0
41
1
10
31.1361299480812
20
-5.51144746541576
30
0
0
SPLINE
5
1DB
100
AcDbEntity
8
1
62
256
6
ByLayer
370
18
48
1
60
0
100
AcDbSpline
70
4
71
3
72
10
73
6
40
0
40
0
40
0
40
0
40
0.102946396252853
40
0.616365423576978
40
1
40
1
40
1
40
1
41
1
10
17.1538513164427
20
4.10862907928322
30
0
41
1
10
17.1841070450696
20
4.09354416063547
30
0
41
1
10
17.3650811695533
20
4.00275344184936
30
0
41
1
10
17.6570211061395
20
3.85105526703589
30
0
41
1
10
17.9181846139011
20
3.70724539440616
30
0
41
1
10
18.0296443801859
20
3.64446232739084
30
0
0
SPLINE
5
1DC
100
AcDbEntity
8
1
62
256
6
ByLayer
370
18
48
1
60
0
100
AcDbSpline
70
4
71
1
72
4
73
2
40
0
40
0
40
1
40
1
41
1
10
18.0296443801859
20
3.64446232739084
30
0
41
1
10
18.2239756891279
20
3.53749923055471
30
0
0
SPLINE
5
1DD
100
AcDbEntity
8
1
62
256
6
ByLayer
370
18
48
1
60
0
100
AcDbSpline
70
4
71
2
72
6
73
3
40
0
40
0
40
0
40
1
40
1
40
1
41
1
10
37.9866146064209
20
-0.9275440126886
30
0
41
1
10
37.9374310796412
20
-0.534516911816013
30
0
41
1
10
37.8882475407135
20
-0.141489352507222
30
0
0
SPLINE
5
1DE
100
AcDbEntity
8
1
62
256
6
ByLayer
370
18
48
1
60
0
100
AcDbSpline
70
4
71
1
72
4
73
2
40
0
40
0
40
1
40
1
41
1
10
23.9649193092239
20
5.99908005320822
30
0
41
1
10
23.9649367281177
20
5.99907926011008
30
0
0
SPLINE
5
1DF
100
AcDbEntity
8
1
62
256
6
ByLayer
370
18
48
1
60
0
100
AcDbSpline
70
4
71
2
72
6
73
3
40
0
40
0
40
0
40
1
40
1
40
1
41
1
10
16.9667851656644
20
5.99919148097632
30
0
41
1
10
16.9668001429789
20
5.99923597377295
30
0
41
1
10
16.9668151202905
20
5.9992803897361
30
0
0
SPLINE
5
1E0
100
AcDbEntity
8
1
62
256
6
ByLayer
370
18
48
1
60
0
100
AcDbSpline
70
4
71
2
72
6
73
3
40
0
40
0
40
0
40
1
40
1
40
1
41
1
10
34.5337900920688
20
-5.99910234908029
30
0
41
1
10
34.5337768983005
20
-5.99910254688911
30
0
41
1
10
34.5337637045342
20
-5.99910267443164
30
0
0
SPLINE
5
1E1
100
AcDbEntity
8
1
62
256
6
ByLayer
370
18
48
1
60
0
100
AcDbSpline
70
4
71
1
72
4
73
2
40
0
40
0
40
1
40
1
41
1
10
26.9901696246368
20
-5.99910171214617
30
0
41
1
10
26.9901582345323
20
-5.99910060716195
30
0
0
LINE
5
79
100
AcDbEntity
8
81
62
256
6
ByLayer
370
18
48
1
60
0
100
AcDbLine
10
38
20
0
30
0
11
43
21
0
31
0
39
0
210
0
220
0
230
1
0
LINE
5
7A
100
AcDbEntity
8
SK4
62
256
6
ByLayer
370
18
48
0.05
60
0
100
AcDbLine
10
-45
20
0
30
0
11
38
21
0
31
0
39
0
210
0
220
0
230
1
0
LINE
5
7C
100
AcDbEntity
8
80
62
256
6
ByLayer
370
18
48
1
60
0
100
AcDbLine
10
0
20
0
30
0
11
-5
21
0
31
0
39
0
210
0
220
0
230
1
0
LINE
5
7D
100
AcDbEntity
8
4
62
256
6
ByLayer
370
18
48
0.05
60
0
100
AcDbLine
10
0
20
0
30
0
11
38
21
0
31
0
39
0
210
0
220
0
230
1
0
LINE
5
7F
100
AcDbEntity
8
1
62
256
6
ByLayer
370
18
48
1
60
0
100
AcDbLine
10
0
20
6
30
0
11
0
21
0
31
0
39
0
210
0
220
0
230
1
0
LINE
5
80
100
AcDbEntity
8
1
62
256
6
ByLayer
370
18
48
1
60
0
100
AcDbLine
10
0
20
0
30
0
11
0
21
-6
31
0
39
0
210
0
220
0
230
1
0
LINE
5
81
100
AcDbEntity
8
1
62
256
6
ByLayer
370
18
48
1
60
0
100
AcDbLine
10
37.951963
20
2.603892
30
0
11
37.986524
21
3.357443
31
0
39
0
210
0
220
0
230
1
0
LINE
5
82
100
AcDbEntity
8
1
62
256
6
ByLayer
370
18
48
1
60
0
100
AcDbLine
10
37.854722
20
-1.830086
30
0
11
37.81119
21
-1.292102
31
0
39
0
210
0
220
0
230
1
0
LINE
5
83
100
AcDbEntity
8
1
62
256
6
ByLayer
370
18
48
1
60
0
100
AcDbLine
10
37.938137
20
-0.949923
30
0
11
37.986524
21
-1.537482
31
0
39
0
210
0
220
0
230
1
0
LINE
5
84
100
AcDbEntity
8
1
62
256
6
ByLayer
370
18
48
1
60
0
100
AcDbLine
10
37.699325
20
-1.688611
30
0
11
37.81119
21
-1.292102
31
0
39
0
210
0
220
0
230
1
0
LINE
5
85
100
AcDbEntity
8
1
62
256
6
ByLayer
370
18
48
1
60
0
100
AcDbLine
10
37.81119
20
-1.292102
30
0
11
37.83259
21
-0.96008
31
0
39
0
210
0
220
0
230
1
0
LINE
5
86
100
AcDbEntity
8
1
62
256
6
ByLayer
370
13
48
1
60
0
100
AcDbLine
10
37.517549
20
-0.889974
30
0
11
37.424799
21
-1.088552
31
0
39
0
210
0
220
0
230
1
0
LINE
5
87
100
AcDbEntity
8
1
62
256
6
ByLayer
370
18
48
1
60
0
100
AcDbLine
10
37.899636
20
-1.972633
30
0
11
37.921173
21
-2.733493
31
0
39
0
210
0
220
0
230
1
0
LINE
5
88
100
AcDbEntity
8
1
62
256
6
ByLayer
370
18
48
1
60
0
100
AcDbLine
10
37.982523
20
-4.900821
30
0
11
37.986524
21
-5.042163
31
0
39
0
210
0
220
0
230
1
0
LINE
5
89
100
AcDbEntity
8
1
62
256
6
ByLayer
370
18
48
1
60
0
100
AcDbLine
10
37.888167
20
-5.224552
30
0
11
37.886073
21
-5.149698
31
0
39
0
210
0
220
0
230
1
0
LINE
5
8A
100
AcDbEntity
8
1
62
256
6
ByLayer
370
18
48
1
60
0
100
AcDbLine
10
37.842848
20
0.073402
30
0
11
37.874916
21
1.2807
31
0
39
0
210
0
220
0
230
1
0
LINE
5
8B
100
AcDbEntity
8
1
62
256
6
ByLayer
370
18
48
1
60
0
100
AcDbLine
10
37.940035
20
3.73235
30
0
11
37.986524
21
5.48257
31
0
39
0
210
0
220
0
230
1
0
LINE
5
8C
100
AcDbEntity
8
1
62
256
6
ByLayer
370
13
48
1
60
0
100
AcDbLine
10
9.804232
20
-5.758306
30
0
11
9.821737
21
-5.749148
31
0
39
0
210
0
220
0
230
1
0
LINE
5
8D
100
AcDbEntity
8
1
62
256
6
ByLayer
370
18
48
1
60
0
100
AcDbLine
10
37.898562
20
-1.99186
30
0
11
37.899636
21
-1.972633
31
0
39
0
210
0
220
0
230
1
0
LINE
5
8E
100
AcDbEntity
8
1
62
256
6
ByLayer
370
18
48
1
60
0
100
AcDbLine
10
37.897926
20
-1.970994
30
0
11
37.899636
21
-1.972633
31
0
39
0
210
0
220
0
230
1
0
LINE
5
8F
100
AcDbEntity
8
1
62
256
6
ByLayer
370
18
48
1
60
0
100
AcDbLine
10
14
20
-5.631858
30
0
11
14
21
-5.755298
31
0
39
0
210
0
220
0
230
1
0
LINE
5
90
100
AcDbEntity
8
1
62
256
6
ByLayer
370
13
48
1
60
0
100
AcDbLine
10
37.3298
20
-0.749464
30
0
11
37.131351
21
-1.128757
31
0
39
0
210
0
220
0
230
1
0
LINE
5
91
100
AcDbEntity
8
1
62
256
6
ByLayer
370
13
48
1
60
0
100
AcDbLine
10
35.45428
20
-4.33412
30
0
11
35.383266
21
-4.469848
31
0
39
0
210
0
220
0
230
1
0
LINE
5
92
100
AcDbEntity
8
1
62
256
6
ByLayer
370
13
48
1
60
0
100
AcDbLine
10
12.689952
20
-5.503275
30
0
11
14
21
-5.631858
31
0
39
0
210
0
220
0
230
1
0
LINE
5
93
100
AcDbEntity
8
1
62
256
6
ByLayer
370
18
48
1
60
0
100
AcDbLine
10
14
20
-5.631858
30
0
11
14
21
-5.522685
31
0
39
0
210
0
220
0
230
1
0
LINE
5
94
100
AcDbEntity
8
1
62
256
6
ByLayer
370
18
48
1
60
0
100
AcDbLine
10
37.894741
20
-1.866526
30
0
11
37.986524
21
-4.876938
31
0
39
0
210
0
220
0
230
1
0
LINE
5
95
100
AcDbEntity
8
1
62
256
6
ByLayer
370
13
48
1
60
0
100
AcDbLine
10
9.734335
20
5.21856
30
0
11
14
21
2.405542
31
0
39
0
210
0
220
0
230
1
0
LINE
5
96
100
AcDbEntity
8
1
62
256
6
ByLayer
370
13
48
1
60
0
100
AcDbLine
10
13.560822
20
4.856832
30
0
11
14
21
4.567213
31
0
39
0
210
0
220
0
230
1
0
LINE
5
97
100
AcDbEntity
8
1
62
256
6
ByLayer
370
18
48
1
60
0
100
AcDbLine
10
37.676364
20
4.601123
30
0
11
37.681673
21
4.602464
31
0
39
0
210
0
220
0
230
1
0
LINE
5
98
100
AcDbEntity
8
1
62
256
6
ByLayer
370
18
48
1
60
0
100
AcDbLine
10
14
20
2.257324
30
0
11
14
21
2.405542
31
0
39
0
210
0
220
0
230
1
0
LINE
5
99
100
AcDbEntity
8
1
62
256
6
ByLayer
370
18
48
1
60
0
100
AcDbLine
10
37.888167
20
-4.40303
30
0
11
37.824062
21
-2.280413
31
0
39
0
210
0
220
0
230
1
0
LINE
5
9A
100
AcDbEntity
8
1
62
256
6
ByLayer
370
18
48
1
60
0
100
AcDbLine
10
37.28198
20
-2.696322
30
0
11
37.824062
21
-2.280413
31
0
39
0
210
0
220
0
230
1
0
LINE
5
9B
100
AcDbEntity
8
1
62
256
6
ByLayer
370
18
48
1
60
0
100
AcDbLine
10
37.824062
20
-2.280413
30
0
11
37.894741
21
-1.866526
31
0
39
0
210
0
220
0
230
1
0
LINE
5
9C
100
AcDbEntity
8
1
62
256
6
ByLayer
370
18
48
1
60
0
100
AcDbLine
10
37.216801
20
-1.24926
30
0
11
37.894741
21
-1.866526
31
0
39
0
210
0
220
0
230
1
0
LINE
5
9D
100
AcDbEntity
8
1
62
256
6
ByLayer
370
13
48
1
60
0
100
AcDbLine
10
37.194633
20
-1.228552
30
0
11
35.514204
21
-1.552146
31
0
39
0
210
0
220
0
230
1
0
LINE
5
9E
100
AcDbEntity
8
1
62
256
6
ByLayer
370
18
48
1
60
0
100
AcDbLine
10
12.407297
20
-5.366359
30
0
11
14
21
-5.522685
31
0
39
0
210
0
220
0
230
1
0
LINE
5
9F
100
AcDbEntity
8
1
62
256
6
ByLayer
370
18
48
1
60
0
100
AcDbLine
10
14
20
-5.522685
30
0
11
14
21
-4.623985
31
0
39
0
210
0
220
0
230
1
0
LINE
5
A0
100
AcDbEntity
8
1
62
256
6
ByLayer
370
18
48
1
60
0
100
AcDbLine
10
37.899961
20
1.295757
30
0
11
37.986524
21
3.47327
31
0
39
0
210
0
220
0
230
1
0
LINE
5
A1
100
AcDbEntity
8
1
62
256
6
ByLayer
370
13
48
1
60
0
100
AcDbLine
10
35.985717
20
2.590464
30
0
11
36.579725
21
1.657686
31
0
39
0
210
0
220
0
230
1
0
LINE
5
A2
100
AcDbEntity
8
1
62
256
6
ByLayer
370
18
48
1
60
0
100
AcDbLine
10
37.899961
20
1.295757
30
0
11
37.453732
21
1.02697
31
0
39
0
210
0
220
0
230
1
0
LINE
5
A3
100
AcDbEntity
8
1
62
256
6
ByLayer
370
13
48
1
60
0
100
AcDbLine
10
9.33767
20
-3.451572
30
0
11
12.575294
21
-3.769348
31
0
39
0
210
0
220
0
230
1
0
LINE
5
A4
100
AcDbEntity
8
1
62
256
6
ByLayer
370
13
48
1
60
0
100
AcDbLine
10
13.816359
20
-3.925702
30
0
11
13.816359
21
-4.449924
31
0
39
0
210
0
220
0
230
1
0
LINE
5
A5
100
AcDbEntity
8
1
62
256
6
ByLayer
370
13
48
1
60
0
100
AcDbLine
10
9.362998
20
-3.119145
30
0
11
11.308293
21
-3.310077
31
0
39
0
210
0
220
0
230
1
0
LINE
5
A6
100
AcDbEntity
8
1
62
256
6
ByLayer
370
18
48
1
60
0
100
AcDbLine
10
14
20
-3.284881
30
0
11
14
21
-3.480423
31
0
39
0
210
0
220
0
230
1
0
LINE
5
A7
100
AcDbEntity
8
1
62
256
6
ByLayer
370
13
48
1
60
0
100
AcDbLine
10
9.673363
20
5.110551
30
0
11
14
21
2.257324
31
0
39
0
210
0
220
0
230
1
0
LINE
5
A8
100
AcDbEntity
8
1
62
256
6
ByLayer
370
13
48
1
60
0
100
AcDbLine
10
12.666203
20
-2.520461
30
0
11
14
21
-3.284881
31
0
39
0
210
0
220
0
230
1
0
LINE
5
A9
100
AcDbEntity
8
1
62
256
6
ByLayer
370
18
48
1
60
0
100
AcDbLine
10
14
20
-3.284881
30
0
11
14
21
-3.024307
31
0
39
0
210
0
220
0
230
1
0
LINE
5
AA
100
AcDbEntity
8
1
62
256
6
ByLayer
370
18
48
1
60
0
100
AcDbLine
10
12.30598
20
2.542449
30
0
11
14
21
1.425317
31
0
39
0
210
0
220
0
230
1
0
LINE
5
AB
100
AcDbEntity
8
1
62
256
6
ByLayer
370
18
48
1
60
0
100
AcDbLine
10
14
20
2.405542
30
0
11
14
21
4.567213
31
0
39
0
210
0
220
0
230
1
0
LINE
5
AC
100
AcDbEntity
8
1
62
256
6
ByLayer
370
18
48
1
60
0
100
AcDbLine
10
14
20
1.425317
30
0
11
14
21
2.257324
31
0
39
0
210
0
220
0
230
1
0
LINE
5
AD
100
AcDbEntity
8
1
62
256
6
ByLayer
370
13
48
1
60
0
100
AcDbLine
10
12.616131
20
2.151362
30
0
11
14
21
1.238761
31
0
39
0
210
0
220
0
230
1
0
LINE
5
AE
100
AcDbEntity
8
1
62
256
6
ByLayer
370
18
48
1
60
0
100
AcDbLine
10
14
20
-1.636857
30
0
11
14
21
-1.239335
31
0
39
0
210
0
220
0
230
1
0
LINE
5
AF
100
AcDbEntity
8
1
62
256
6
ByLayer
370
18
48
1
60
0
100
AcDbLine
10
14
20
1.238761
30
0
11
14
21
1.425317
31
0
39
0
210
0
220
0
230
1
0
LINE
5
B0
100
AcDbEntity
8
1
62
256
6
ByLayer
370
18
48
1
60
0
100
AcDbLine
10
12.288371
20
-2.043346
30
0
11
14
21
-3.024307
31
0
39
0
210
0
220
0
230
1
0
LINE
5
B1
100
AcDbEntity
8
1
62
256
6
ByLayer
370
18
48
1
60
0
100
AcDbLine
10
14
20
-3.024307
30
0
11
14
21
-1.636857
31
0
39
0
210
0
220
0
230
1
0
LINE
5
B2
100
AcDbEntity
8
1
62
256
6
ByLayer
370
13
48
1
60
0
100
AcDbLine
10
9.317941
20
1.046502
30
0
11
14
21
-1.636857
31
0
39
0
210
0
220
0
230
1
0
LINE
5
B3
100
AcDbEntity
8
1
62
256
6
ByLayer
370
13
48
1
60
0
100
AcDbLine
10
13.316359
20
4.908743
30
0
11
13.316359
21
5.498181
31
0
39
0
210
0
220
0
230
1
0
LINE
5
B4
100
AcDbEntity
8
1
62
256
6
ByLayer
370
13
48
1
60
0
100
AcDbLine
10
13.316359
20
-5.76
30
0
11
13.316359
21
-5.646957
31
0
39
0
210
0
220
0
230
1
0
LINE
5
B5
100
AcDbEntity
8
1
62
256
6
ByLayer
370
13
48
1
60
0
100
AcDbLine
10
13.316359
20
-4.101106
30
0
11
13.316359
21
-3.038807
31
0
39
0
210
0
220
0
230
1
0
LINE
5
B6
100
AcDbEntity
8
1
62
256
6
ByLayer
370
18
48
1
60
0
100
AcDbLine
10
37.888167
20
-0.141081
30
0
11
37.837051
21
0.100806
31
0
39
0
210
0
220
0
230
1
0
LINE
5
B7
100
AcDbEntity
8
1
62
256
6
ByLayer
370
18
48
1
60
0
100
AcDbLine
10
37.403532
20
1.148225
30
0
11
37.837051
21
0.100806
31
0
39
0
210
0
220
0
230
1
0
LINE
5
B8
100
AcDbEntity
8
1
62
256
6
ByLayer
370
13
48
1
60
0
100
AcDbLine
10
9.347756
20
1.426935
30
0
11
14
21
-1.239335
31
0
39
0
210
0
220
0
230
1
0
LINE
5
B9
100
AcDbEntity
8
1
62
256
6
ByLayer
370
18
48
1
60
0
100
AcDbLine
10
14
20
-0.23594
30
0
11
14
21
-1.239335
31
0
39
0
210
0
220
0
230
1
0
LINE
5
BA
100
AcDbEntity
8
1
62
256
6
ByLayer
370
18
48
1
60
0
100
AcDbLine
10
14
20
1.238761
30
0
11
14
21
1.096991
31
0
39
0
210
0
220
0
230
1
0
LINE
5
BB
100
AcDbEntity
8
1
62
256
6
ByLayer
370
13
48
1
60
0
100
AcDbLine
10
13.316359
20
0.238362
30
0
11
13.316359
21
1.573849
31
0
39
0
210
0
220
0
230
1
0
LINE
5
BC
100
AcDbEntity
8
1
62
256
6
ByLayer
370
13
48
1
60
0
100
AcDbLine
10
13.816359
20
0.624802
30
0
11
13.816359
21
-0.120072
31
0
39
0
210
0
220
0
230
1
0
LINE
5
BD
100
AcDbEntity
8
1
62
256
6
ByLayer
370
18
48
1
60
0
100
AcDbLine
10
14
20
5.60678
30
0
11
14
21
5.349515
31
0
39
0
210
0
220
0
230
1
0
LINE
5
BE
100
AcDbEntity
8
1
62
256
6
ByLayer
370
18
48
1
60
0
100
AcDbLine
10
14
20
4.859426
30
0
11
14
21
4.859578
31
0
39
0
210
0
220
0
230
1
0
LINE
5
BF
100
AcDbEntity
8
1
62
256
6
ByLayer
370
18
48
1
60
0
100
AcDbLine
10
14
20
4.859426
30
0
11
14
21
4.567213
31
0
39
0
210
0
220
0
230
1
0
LINE
5
C0
100
AcDbEntity
8
1
62
256
6
ByLayer
370
13
48
1
60
0
100
AcDbLine
10
13.816359
20
-5.893975
30
0
11
13.816359
21
-5.892275
31
0
39
0
210
0
220
0
230
1
0
LINE
5
C1
100
AcDbEntity
8
1
62
256
6
ByLayer
370
13
48
1
60
0
100
AcDbLine
10
12.666203
20
5.645375
30
0
11
12.85729
21
5.597931
31
0
39
0
210
0
220
0
230
1
0
LINE
5
C2
100
AcDbEntity
8
1
62
256
6
ByLayer
370
13
48
1
60
0
100
AcDbLine
10
13.816359
20
5.239223
30
0
11
13.816359
21
4.846642
31
0
39
0
210
0
220
0
230
1
0
LINE
5
C3
100
AcDbEntity
8
1
62
256
6
ByLayer
370
18
48
1
60
0
100
AcDbLine
10
14
20
-4.623975
30
0
11
14
21
-4.623809
31
0
39
0
210
0
220
0
230
1
0
LINE
5
C4
100
AcDbEntity
8
1
62
256
6
ByLayer
370
13
48
1
60
0
100
AcDbLine
10
1.997679
20
-5.76
30
0
11
1.997679
21
0
31
0
39
0
210
0
220
0
230
1
0
LINE
5
C5
100
AcDbEntity
8
1
62
256
6
ByLayer
370
13
48
1
60
0
100
AcDbLine
10
1.997679
20
0
30
0
11
1.997679
21
5.76
31
0
39
0
210
0
220
0
230
1
0
LINE
5
C6
100
AcDbEntity
8
1
62
256
6
ByLayer
370
13
48
1
60
0
100
AcDbLine
10
1.497679
20
5.893975
30
0
11
1.497679
21
0
31
0
39
0
210
0
220
0
230
1
0
LINE
5
C7
100
AcDbEntity
8
1
62
256
6
ByLayer
370
13
48
1
60
0
100
AcDbLine
10
1.497679
20
0
30
0
11
1.497679
21
-5.893975
31
0
39
0
210
0
220
0
230
1
0
LINE
5
C8
100
AcDbEntity
8
1
62
256
6
ByLayer
370
18
48
1
60
0
100
AcDbLine
10
1.314038
20
6
30
0
11
1.314038
21
0
31
0
39
0
210
0
220
0
230
1
0
LINE
5
C9
100
AcDbEntity
8
1
62
256
6
ByLayer
370
18
48
1
60
0
100
AcDbLine
10
1.314038
20
0
30
0
11
1.314038
21
-6
31
0
39
0
210
0
220
0
230
1
0
LINE
5
CA
100
AcDbEntity
8
SK1
62
256
6
ByLayer
370
18
48
1
60
0
100
AcDbLine
10
-45
20
-5.2
30
0
11
-45
21
5.2
31
0
39
0
210
0
220
0
230
1
0
LINE
5
CC
100
AcDbEntity
8
SK1
62
256
6
ByLayer
370
18
48
1
60
0
100
AcDbLine
10
0
20
6
30
0
11
0
21
0
31
0
39
0
210
0
220
0
230
1
0
LINE
5
CD
100
AcDbEntity
8
SK1
62
256
6
ByLayer
370
18
48
1
60
0
100
AcDbLine
10
0
20
0
30
0
11
0
21
-6
31
0
39
0
210
0
220
0
230
1
0
LINE
5
CE
100
AcDbEntity
8
SK1
62
256
6
ByLayer
370
18
48
1
60
0
100
AcDbLine
10
-44.2
20
6
30
0
11
-44.2
21
-6
31
0
39
0
210
0
220
0
230
1
0
LINE
5
CF
100
AcDbEntity
8
SK1
62
256
6
ByLayer
370
18
48
1
60
0
100
AcDbLine
10
-26.5
20
4.4
30
0
11
-28.1
21
6
31
0
39
0
210
0
220
0
230
1
0
LINE
5
D0
100
AcDbEntity
8
SK1
62
256
6
ByLayer
370
18
48
1
60
0
100
AcDbLine
10
-16.9
20
6
30
0
11
-18.5
21
4.4
31
0
39
0
210
0
220
0
230
1
0
LINE
5
D1
100
AcDbEntity
8
SK1
62
256
6
ByLayer
370
18
48
1
60
0
100
AcDbLine
10
-26.5
20
4.4
30
0
11
-18.5
21
4.4
31
0
39
0
210
0
220
0
230
1
0
LINE
5
D2
100
AcDbEntity
8
1
62
256
6
ByLayer
370
18
48
1
60
0
100
AcDbLine
10
1.314038
20
6
30
0
11
0
21
6
31
0
39
0
210
0
220
0
230
1
0
LINE
5
D3
100
AcDbEntity
8
1
62
256
6
ByLayer
370
18
48
1
60
0
100
AcDbLine
10
0
20
-6
30
0
11
1.314038
21
-6
31
0
39
0
210
0
220
0
230
1
0
LINE
5
D4
100
AcDbEntity
8
1
62
256
6
ByLayer
370
18
48
1
60
0
100
AcDbLine
10
14.097903
20
-5.946494
30
0
11
14.098404
21
-5.946458
31
0
39
0
210
0
220
0
230
1
0
LINE
5
D5
100
AcDbEntity
8
1
62
256
6
ByLayer
370
18
48
1
60
0
100
AcDbLine
10
13.093767
20
5.546791
30
0
11
12.570475
21
5.676714
31
0
39
0
210
0
220
0
230
1
0
LINE
5
D6
100
AcDbEntity
8
1
62
256
6
ByLayer
370
18
48
1
60
0
100
AcDbLine
10
13.816359
20
-5.893975
30
0
11
13.861288
21
-5.919915
31
0
39
0
210
0
220
0
230
1
0
LINE
5
D7
100
AcDbEntity
8
1
62
256
6
ByLayer
370
18
48
1
60
0
100
AcDbLine
10
11.652627
20
5.76
30
0
11
1.997679
21
5.76
31
0
39
0
210
0
220
0
230
1
0
LINE
5
D8
100
AcDbEntity
8
1
62
256
6
ByLayer
370
18
48
1
60
0
100
AcDbLine
10
1.997679
20
-5.76
30
0
11
9.868109
21
-5.76
31
0
39
0
210
0
220
0
230
1
0
LINE
5
D9
100
AcDbEntity
8
1
62
256
6
ByLayer
370
18
48
1
60
0
100
AcDbLine
10
12.781569
20
-5.76
30
0
11
13.316359
21
-5.76
31
0
39
0
210
0
220
0
230
1
0
LINE
5
DA
100
AcDbEntity
8
1
62
256
6
ByLayer
370
18
48
1
60
0
100
AcDbLine
10
1.497679
20
5.893975
30
0
11
1.314038
21
6
31
0
39
0
210
0
220
0
230
1
0
LINE
5
DB
100
AcDbEntity
8
1
62
256
6
ByLayer
370
18
48
1
60
0
100
AcDbLine
10
1.314038
20
-6
30
0
11
1.497679
21
-5.893975
31
0
39
0
210
0
220
0
230
1
0
LINE
5
DC
100
AcDbEntity
8
SK1
62
256
6
ByLayer
370
18
48
1
60
0
100
AcDbLine
10
-45
20
-5.2
30
0
11
-44.2
21
-6
31
0
39
0
210
0
220
0
230
1
0
LINE
5
DD
100
AcDbEntity
8
SK1
62
256
6
ByLayer
370
18
48
1
60
0
100
AcDbLine
10
-44.2
20
6
30
0
11
-45
21
5.2
31
0
39
0
210
0
220
0
230
1
0
LINE
5
DE
100
AcDbEntity
8
SK1
62
256
6
ByLayer
370
18
48
1
60
0
100
AcDbLine
10
0
20
6
30
0
11
-16.9
21
6
31
0
39
0
210
0
220
0
230
1
0
LINE
5
DF
100
AcDbEntity
8
SK1
62
256
6
ByLayer
370
18
48
1
60
0
100
AcDbLine
10
-28.1
20
6
30
0
11
-44.2
21
6
31
0
39
0
210
0
220
0
230
1
0
LINE
5
E0
100
AcDbEntity
8
SK1
62
256
6
ByLayer
370
18
48
1
60
0
100
AcDbLine
10
-44.2
20
-6
30
0
11
0
21
-6
31
0
39
0
210
0
220
0
230
1
0
LINE
5
E1
100
AcDbEntity
8
SK2
62
256
6
ByLayer
370
18
48
1
60
0
100
AcDbLine
10
-52.45
20
6
30
0
11
-52.45
21
-24.056066
31
0
39
0
210
0
220
0
230
1
0
LINE
5
E3
100
AcDbEntity
8
SK2
62
256
6
ByLayer
370
18
48
1
60
0
100
AcDbLine
10
-45.7875
20
6
30
0
11
-54.45
21
6
31
0
39
0
210
0
220
0
230
1
0
LINE
5
E4
100
AcDbEntity
8
SK2
62
256
6
ByLayer
370
18
48
1
60
0
100
AcDbLine
10
-45.7875
20
-6
30
0
11
-54.45
21
-6
31
0
39
0
210
0
220
0
230
1
0
LINE
5
E5
100
AcDbEntity
8
1
62
256
6
ByLayer
370
18
48
1
60
1
100
AcDbLine
10
-52.45
20
6
30
0
11
-51.989216
21
2.500002
31
0
39
0
210
0
220
0
230
1
0
LINE
5
E6
100
AcDbEntity
8
1
62
256
6
ByLayer
370
18
48
1
60
1
100
AcDbLine
10
-51.989216
20
2.500002
30
0
11
-52.910784
21
2.499998
31
0
39
0
210
0
220
0
230
1
0
LINE
5
E7
100
AcDbEntity
8
1
62
256
6
ByLayer
370
18
48
1
60
1
100
AcDbLine
10
-52.910784
20
2.499998
30
0
11
-52.45
21
6
31
0
39
0
210
0
220
0
230
1
0
LINE
5
E8
100
AcDbEntity
8
1
62
256
6
ByLayer
370
18
48
1
60
1
100
AcDbLine
10
-52.45
20
-6
30
0
11
-52.910784
21
-2.500002
31
0
39
0
210
0
220
0
230
1
0
LINE
5
E9
100
AcDbEntity
8
1
62
256
6
ByLayer
370
18
48
1
60
1
100
AcDbLine
10
-52.910784
20
-2.500002
30
0
11
-51.989216
21
-2.499998
31
0
39
0
210
0
220
0
230
1
0
LINE
5
EA
100
AcDbEntity
8
1
62
256
6
ByLayer
370
18
48
1
60
1
100
AcDbLine
10
-51.989216
20
-2.499998
30
0
11
-52.45
21
-6
31
0
39
0
210
0
220
0
230
1
0
LINE
5
EB
100
AcDbEntity
8
SK2
62
256
6
ByLayer
370
13
48
1
60
0
100
AcDbLine
10
9.107019
20
-5.76
30
0
11
9.107019
21
33.590131
31
0
39
0
210
0
220
0
230
1
0
LINE
5
EC
100
AcDbEntity
8
SK2
62
256
6
ByLayer
370
13
48
1
60
0
100
AcDbLine
10
11.728859
20
5.76
30
0
11
7.107019
21
5.76
31
0
39
0
210
0
220
0
230
1
0
LINE
5
ED
100
AcDbEntity
8
SK2
62
256
6
ByLayer
370
13
48
1
60
0
100
AcDbLine
10
11.728859
20
-5.76
30
0
11
7.107019
21
-5.76
31
0
39
0
210
0
220
0
230
1
0
LINE
5
EE
100
AcDbEntity
8
1
62
256
6
ByLayer
370
18
48
1
60
1
100
AcDbLine
10
9.107019
20
5.76
30
0
11
9.567803
21
2.260002
31
0
39
0
210
0
220
0
230
1
0
LINE
5
EF
100
AcDbEntity
8
1
62
256
6
ByLayer
370
18
48
1
60
1
100
AcDbLine
10
9.567803
20
2.260002
30
0
11
8.646235
21
2.259998
31
0
39
0
210
0
220
0
230
1
0
LINE
5
F0
100
AcDbEntity
8
1
62
256
6
ByLayer
370
18
48
1
60
1
100
AcDbLine
10
8.646235
20
2.259998
30
0
11
9.107019
21
5.76
31
0
39
0
210
0
220
0
230
1
0
LINE
5
F1
100
AcDbEntity
8
1
62
256
6
ByLayer
370
18
48
1
60
1
100
AcDbLine
10
9.107019
20
-5.76
30
0
11
8.646235
21
-2.260002
31
0
39
0
210
0
220
0
230
1
0
LINE
5
F2
100
AcDbEntity
8
1
62
256
6
ByLayer
370
18
48
1
60
1
100
AcDbLine
10
8.646235
20
-2.260002
30
0
11
9.567803
21
-2.259998
31
0
39
0
210
0
220
0
230
1
0
LINE
5
F3
100
AcDbEntity
8
1
62
256
6
ByLayer
370
18
48
1
60
1
100
AcDbLine
10
9.567803
20
-2.259998
30
0
11
9.107019
21
-5.76
31
0
39
0
210
0
220
0
230
1
0
LINE
5
F4
100
AcDbEntity
8
2
62
256
6
ByLayer
370
18
48
1
60
0
100
AcDbLine
10
50
20
-6
30
0
11
50
21
24.056066
31
0
39
0
210
0
220
0
230
1
0
LINE
5
F6
100
AcDbEntity
8
2
62
256
6
ByLayer
370
18
48
1
60
0
100
AcDbLine
10
39.5875
20
6
30
0
11
52
21
6
31
0
39
0
210
0
220
0
230
1
0
LINE
5
F7
100
AcDbEntity
8
2
62
256
6
ByLayer
370
18
48
1
60
0
100
AcDbLine
10
39.5875
20
-6
30
0
11
52
21
-6
31
0
39
0
210
0
220
0
230
1
0
LINE
5
F8
100
AcDbEntity
8
1
62
256
6
ByLayer
370
18
48
1
60
1
100
AcDbLine
10
50
20
6
30
0
11
50.460784
21
2.500002
31
0
39
0
210
0
220
0
230
1
0
LINE
5
F9
100
AcDbEntity
8
1
62
256
6
ByLayer
370
18
48
1
60
1
100
AcDbLine
10
50.460784
20
2.500002
30
0
11
49.539216
21
2.499998
31
0
39
0
210
0
220
0
230
1
0
LINE
5
FA
100
AcDbEntity
8
1
62
256
6
ByLayer
370
18
48
1
60
1
100
AcDbLine
10
49.539216
20
2.499998
30
0
11
50
21
6
31
0
39
0
210
0
220
0
230
1
0
LINE
5
FB
100
AcDbEntity
8
1
62
256
6
ByLayer
370
18
48
1
60
1
100
AcDbLine
10
50
20
-6
30
0
11
49.539216
21
-2.500002
31
0
39
0
210
0
220
0
230
1
0
LINE
5
FC
100
AcDbEntity
8
1
62
256
6
ByLayer
370
18
48
1
60
1
100
AcDbLine
10
49.539216
20
-2.500002
30
0
11
50.460784
21
-2.499998
31
0
39
0
210
0
220
0
230
1
0
LINE
5
FD
100
AcDbEntity
8
1
62
256
6
ByLayer
370
18
48
1
60
1
100
AcDbLine
10
50.460784
20
-2.499998
30
0
11
50
21
-6
31
0
39
0
210
0
220
0
230
1
0
LINE
5
FE
100
AcDbEntity
8
SK2
62
256
6
ByLayer
370
18
48
1
60
0
100
AcDbLine
10
38
20
-53.060248
30
0
11
-45
21
-53.060248
31
0
39
0
210
0
220
0
230
1
0
LINE
5
FF
100
AcDbEntity
8
SK2
62
256
6
ByLayer
370
18
48
1
60
0
100
AcDbLine
10
-45
20
-6.7875
30
0
11
-45
21
-55.060248
31
0
39
0
210
0
220
0
230
1
0
LINE
5
100
100
AcDbEntity
8
SK2
62
256
6
ByLayer
370
18
48
1
60
0
100
AcDbLine
10
38
20
-7.5875
30
0
11
38
21
-55.060248
31
0
39
0
210
0
220
0
230
1
0
LINE
5
101
100
AcDbEntity
8
1
62
256
6
ByLayer
370
18
48
1
60
1
100
AcDbLine
10
-45
20
-53.060248
30
0
11
-41.500002
21
-52.599464
31
0
39
0
210
0
220
0
230
1
0
LINE
5
102
100
AcDbEntity
8
1
62
256
6
ByLayer
370
18
48
1
60
1
100
AcDbLine
10
-41.500002
20
-52.599464
30
0
11
-41.499998
21
-53.521031
31
0
39
0
210
0
220
0
230
1
0
LINE
5
103
100
AcDbEntity
8
1
62
256
6
ByLayer
370
18
48
1
60
1
100
AcDbLine
10
-41.499998
20
-53.521031
30
0
11
-45
21
-53.060248
31
0
39
0
210
0
220
0
230
1
0
LINE
5
104
100
AcDbEntity
8
1
62
256
6
ByLayer
370
18
48
1
60
1
100
AcDbLine
10
38
20
-53.060248
30
0
11
34.500002
21
-53.521031
31
0
39
0
210
0
220
0
230
1
0
LINE
5
105
100
AcDbEntity
8
1
62
256
6
ByLayer
370
18
48
1
60
1
100
AcDbLine
10
34.500002
20
-53.521031
30
0
11
34.499998
21
-52.599464
31
0
39
0
210
0
220
0
230
1
0
LINE
5
106
100
AcDbEntity
8
1
62
256
6
ByLayer
370
18
48
1
60
1
100
AcDbLine
10
34.499998
20
-52.599464
30
0
11
38
21
-53.060248
31
0
39
0
210
0
220
0
230
1
0
LINE
5
1E6
100
AcDbEntity
8
1
62
256
6
ByLayer
370
18
48
1
60
1
100
AcDbLine
10
-52.45
20
6
30
0
11
-51.989216
21
2.500002
31
0
39
0
210
0
220
0
230
1
0
LINE
5
1E7
100
AcDbEntity
8
1
62
256
6
ByLayer
370
18
48
1
60
1
100
AcDbLine
10
-51.989216
20
2.500002
30
0
11
-52.910784
21
2.499998
31
0
39
0
210
0
220
0
230
1
0
LINE
5
1E8
100
AcDbEntity
8
1
62
256
6
ByLayer
370
18
48
1
60
1
100
AcDbLine
10
-52.910784
20
2.499998
30
0
11
-52.45
21
6
31
0
39
0
210
0
220
0
230
1
0
LINE
5
1EA
100
AcDbEntity
8
1
62
256
6
ByLayer
370
18
48
1
60
1
100
AcDbLine
10
-52.45
20
-6
30
0
11
-52.910784
21
-2.500002
31
0
39
0
210
0
220
0
230
1
0
LINE
5
1EB
100
AcDbEntity
8
1
62
256
6
ByLayer
370
18
48
1
60
1
100
AcDbLine
10
-52.910784
20
-2.500002
30
0
11
-51.989216
21
-2.499998
31
0
39
0
210
0
220
0
230
1
0
LINE
5
1EC
100
AcDbEntity
8
1
62
256
6
ByLayer
370
18
48
1
60
1
100
AcDbLine
10
-51.989216
20
-2.499998
30
0
11
-52.45
21
-6
31
0
39
0
210
0
220
0
230
1
0
LINE
5
1F0
100
AcDbEntity
8
1
62
256
6
ByLayer
370
18
48
1
60
1
100
AcDbLine
10
9.107019
20
5.76
30
0
11
9.567803
21
2.260002
31
0
39
0
210
0
220
0
230
1
0
LINE
5
1F1
100
AcDbEntity
8
1
62
256
6
ByLayer
370
18
48
1
60
1
100
AcDbLine
10
9.567803
20
2.260002
30
0
11
8.646235
21
2.259998
31
0
39
0
210
0
220
0
230
1
0
LINE
5
1F2
100
AcDbEntity
8
1
62
256
6
ByLayer
370
18
48
1
60
1
100
AcDbLine
10
8.646235
20
2.259998
30
0
11
9.107019
21
5.76
31
0
39
0
210
0
220
0
230
1
0
LINE
5
1F4
100
AcDbEntity
8
1
62
256
6
ByLayer
370
18
48
1
60
1
100
AcDbLine
10
9.107019
20
-5.76
30
0
11
8.646235
21
-2.260002
31
0
39
0
210
0
220
0
230
1
0
LINE
5
1F5
100
AcDbEntity
8
1
62
256
6
ByLayer
370
18
48
1
60
1
100
AcDbLine
10
8.646235
20
-2.260002
30
0
11
9.567803
21
-2.259998
31
0
39
0
210
0
220
0
230
1
0
LINE
5
1F6
100
AcDbEntity
8
1
62
256
6
ByLayer
370
18
48
1
60
1
100
AcDbLine
10
9.567803
20
-2.259998
30
0
11
9.107019
21
-5.76
31
0
39
0
210
0
220
0
230
1
0
LINE
5
1FA
100
AcDbEntity
8
1
62
256
6
ByLayer
370
18
48
1
60
1
100
AcDbLine
10
50
20
6
30
0
11
50.460784
21
2.500002
31
0
39
0
210
0
220
0
230
1
0
LINE
5
1FB
100
AcDbEntity
8
1
62
256
6
ByLayer
370
18
48
1
60
1
100
AcDbLine
10
50.460784
20
2.500002
30
0
11
49.539216
21
2.499998
31
0
39
0
210
0
220
0
230
1
0
LINE
5
1FC
100
AcDbEntity
8
1
62
256
6
ByLayer
370
18
48
1
60
1
100
AcDbLine
10
49.539216
20
2.499998
30
0
11
50
21
6
31
0
39
0
210
0
220
0
230
1
0
LINE
5
1FE
100
AcDbEntity
8
1
62
256
6
ByLayer
370
18
48
1
60
1
100
AcDbLine
10
50
20
-6
30
0
11
49.539216
21
-2.500002
31
0
39
0
210
0
220
0
230
1
0
LINE
5
1FF
100
AcDbEntity
8
1
62
256
6
ByLayer
370
18
48
1
60
1
100
AcDbLine
10
49.539216
20
-2.500002
30
0
11
50.460784
21
-2.499998
31
0
39
0
210
0
220
0
230
1
0
LINE
5
200
100
AcDbEntity
8
1
62
256
6
ByLayer
370
18
48
1
60
1
100
AcDbLine
10
50.460784
20
-2.499998
30
0
11
50
21
-6
31
0
39
0
210
0
220
0
230
1
0
LINE
5
203
100
AcDbEntity
8
1
62
256
6
ByLayer
370
18
48
1
60
1
100
AcDbLine
10
-45
20
-53.060248
30
0
11
-41.500002
21
-52.599464
31
0
39
0
210
0
220
0
230
1
0
LINE
5
204
100
AcDbEntity
8
1
62
256
6
ByLayer
370
18
48
1
60
1
100
AcDbLine
10
-41.500002
20
-52.599464
30
0
11
-41.499998
21
-53.521031
31
0
39
0
210
0
220
0
230
1
0
LINE
5
205
100
AcDbEntity
8
1
62
256
6
ByLayer
370
18
48
1
60
1
100
AcDbLine
10
-41.499998
20
-53.521031
30
0
11
-45
21
-53.060248
31
0
39
0
210
0
220
0
230
1
0
LINE
5
207
100
AcDbEntity
8
1
62
256
6
ByLayer
370
18
48
1
60
1
100
AcDbLine
10
38
20
-53.060248
30
0
11
34.500002
21
-53.521031
31
0
39
0
210
0
220
0
230
1
0
LINE
5
208
100
AcDbEntity
8
1
62
256
6
ByLayer
370
18
48
1
60
1
100
AcDbLine
10
34.500002
20
-53.521031
30
0
11
34.499998
21
-52.599464
31
0
39
0
210
0
220
0
230
1
0
LINE
5
209
100
AcDbEntity
8
1
62
256
6
ByLayer
370
18
48
1
60
1
100
AcDbLine
10
34.499998
20
-52.599464
30
0
11
38
21
-53.060248
31
0
39
0
210
0
220
0
230
1
0
MTEXT
5
1E2
100
AcDbEntity
8
SK2
62
256
6
ByLayer
370
18
48
1
60
0
100
AcDbMText
10
-54.014634
20
-22.121222
30
0
210
0
220
0
230
1
1
%%c
40
3.5
41
0
44
1.084337
50
90
71
7
72
5
7
iso_b_vert
0
MTEXT
5
1E5
100
AcDbEntity
8
SK2
62
256
6
ByLayer
370
18
48
1
60
0
100
AcDbMText
10
-54.014634
20
-15.148566
30
0
210
0
220
0
230
1
1
\W0.5321;12
40
3.5
41
0
44
1.084337
50
90
71
7
72
5
7
iso_b_vert
0
MTEXT
5
1EE
100
AcDbEntity
8
SK2
62
256
6
ByLayer
370
18
48
1
60
0
100
AcDbMText
10
7.542385
20
17.694844
30
0
210
0
220
0
230
1
1
%%c
40
3.5
41
0
44
1.084337
50
90
71
7
72
5
7
iso_b_vert
0
MTEXT
5
1EF
100
AcDbEntity
8
SK2
62
256
6
ByLayer
370
18
48
1
60
0
100
AcDbMText
10
7.542385
20
24.6675
30
0
210
0
220
0
230
1
1
\W0.6261;11.52
40
3.5
41
0
44
1.084337
50
90
71
7
72
5
7
iso_b_vert
0
MTEXT
5
1F8
100
AcDbEntity
8
2
62
256
6
ByLayer
370
18
48
1
60
0
100
AcDbMText
10
48.435366
20
13.934844
30
0
210
0
220
0
230
1
1
%%c
40
3.5
41
0
44
1.084337
50
90
71
7
72
5
7
iso_b_vert
0
MTEXT
5
1F9
100
AcDbEntity
8
2
62
256
6
ByLayer
370
18
48
1
60
0
100
AcDbMText
10
48.435366
20
20.9075
30
0
210
0
220
0
230
1
1
\W0.5321;12
40
3.5
41
0
44
1.084337
50
90
71
7
72
5
7
iso_b_vert
0
MTEXT
5
202
100
AcDbEntity
8
SK2
62
256
6
ByLayer
370
18
48
1
60
0
100
AcDbMText
10
-5.404966
20
-52.027614
30
0
210
0
220
0
230
1
1
\W0.6740;83
40
3.5
41
0
44
1.084337
50
0
71
7
72
5
7
iso_b_vert
0
MTEXT
5
20B
100
AcDbEntity
8
SK6
62
256
6
ByLayer
370
18
48
1
60
0
100
AcDbMText
10
-28.660025
20
-62.132536
30
0
210
0
220
0
230
1
1
\W0.7088;1K337-1200-050-XD   1730
40
3
41
0
44
1.084337
50
0
71
7
72
5
7
iso_b_vert
0
HATCH
5
1E9
100
AcDbEntity
8
SK2
62
256
6
ByLayer
370
13
48
1
60
0
100
AcDbHatch
10
0
20
0
30
0
210
0
220
0
230
1
2
ANSI31
70
0
71
0
91
1
92
5
93
3
72
1
10
-52.45
20
6
11
-51.9892162584472
21
2.50000169255318
72
1
10
-51.9892162584472
20
2.50000169255318
11
-52.9107837415528
21
2.49999830744682
72
1
10
-52.9107837415528
20
2.49999830744682
11
-52.45
21
6
97
0
75
0
76
1
52
0
41
0.0062
77
0
78
1
53
45
43
0
44
0
45
-0.0139193969876572
46
0.0139193969876572
79
0
47
0
98
1
10
0
20
0
0
HATCH
5
1ED
100
AcDbEntity
8
SK2
62
256
6
ByLayer
370
13
48
1
60
0
100
AcDbHatch
10
0
20
0
30
0
210
0
220
0
230
1
2
ANSI31
70
0
71
0
91
1
92
5
93
3
72
1
10
-52.45
20
-6
11
-52.9107837415528
21
-2.50000169255318
72
1
10
-52.9107837415528
20
-2.50000169255318
11
-51.9892162584472
21
-2.49999830744682
72
1
10
-51.9892162584472
20
-2.49999830744682
11
-52.45
21
-6
97
0
75
0
76
1
52
0
41
0.0062
77
0
78
1
53
45
43
0
44
0
45
-0.0139193969876572
46
0.0139193969876572
79
0
47
0
98
1
10
0
20
0
0
HATCH
5
1F3
100
AcDbEntity
8
SK2
62
256
6
ByLayer
370
13
48
1
60
0
100
AcDbHatch
10
0
20
0
30
0
210
0
220
0
230
1
2
ANSI31
70
0
71
0
91
1
92
5
93
3
72
1
10
9.10701876795659
20
5.75999999999993
11
9.56780250950936
21
2.26000169255312
72
1
10
9.56780250950936
20
2.26000169255312
11
8.64623502640382
21
2.25999830744675
72
1
10
8.64623502640382
20
2.25999830744675
11
9.10701876795659
21
5.75999999999993
97
0
75
0
76
1
52
0
41
0.0062
77
0
78
1
53
45
43
0
44
0
45
-0.0139193969876572
46
0.0139193969876572
79
0
47
0
98
1
10
0
20
0
0
HATCH
5
1F7
100
AcDbEntity
8
SK2
62
256
6
ByLayer
370
13
48
1
60
0
100
AcDbHatch
10
0
20
0
30
0
210
0
220
0
230
1
2
ANSI31
70
0
71
0
91
1
92
5
93
3
72
1
10
9.10701876795659
20
-5.76000000000005
11
8.64623502640382
21
-2.26000169255323
72
1
10
8.64623502640382
20
-2.26000169255323
11
9.56780250950936
21
-2.25999830744686
72
1
10
9.56780250950936
20
-2.25999830744686
11
9.10701876795659
21
-5.76000000000005
97
0
75
0
76
1
52
0
41
0.0062
77
0
78
1
53
45
43
0
44
0
45
-0.0139193969876572
46
0.0139193969876572
79
0
47
0
98
1
10
0
20
0
0
HATCH
5
1FD
100
AcDbEntity
8
2
62
256
6
ByLayer
370
13
48
1
60
0
100
AcDbHatch
10
0
20
0
30
0
210
0
220
0
230
1
2
ANSI31
70
0
71
0
91
1
92
5
93
3
72
1
10
50
20
5.99999999999986
11
50.4607837415528
21
2.50000169255304
72
1
10
50.4607837415528
20
2.50000169255304
11
49.5392162584472
21
2.49999830744667
72
1
10
49.5392162584472
20
2.49999830744667
11
50
21
5.99999999999986
97
0
75
0
76
1
52
0
41
0.0062
77
0
78
1
53
45
43
0
44
0
45
-0.0139193969876572
46
0.0139193969876572
79
0
47
0
98
1
10
0
20
0
0
HATCH
5
201
100
AcDbEntity
8
2
62
256
6
ByLayer
370
13
48
1
60
0
100
AcDbHatch
10
0
20
0
30
0
210
0
220
0
230
1
2
ANSI31
70
0
71
0
91
1
92
5
93
3
72
1
10
50
20
-6.00000000000014
11
49.5392162584472
21
-2.50000169255333
72
1
10
49.5392162584472
20
-2.50000169255333
11
50.4607837415528
21
-2.49999830744696
72
1
10
50.4607837415528
20
-2.49999830744696
11
50
21
-6.00000000000014
97
0
75
0
76
1
52
0
41
0.0062
77
0
78
1
53
45
43
0
44
0
45
-0.0139193969876572
46
0.0139193969876572
79
0
47
0
98
1
10
0
20
0
0
HATCH
5
206
100
AcDbEntity
8
SK2
62
256
6
ByLayer
370
13
48
1
60
0
100
AcDbHatch
10
0
20
0
30
0
210
0
220
0
230
1
2
ANSI31
70
0
71
0
91
1
92
5
93
3
72
1
10
-45
20
-53.0602475074428
11
-41.5000016925532
21
-52.59946376589
72
1
10
-41.5000016925532
20
-52.59946376589
11
-41.4999983074468
21
-53.5210312489956
72
1
10
-41.4999983074468
20
-53.5210312489956
11
-45
21
-53.0602475074428
97
0
75
0
76
1
52
0
41
0.0062
77
0
78
1
53
45
43
0
44
0
45
-0.0139193969876572
46
0.0139193969876572
79
0
47
0
98
1
10
0
20
0
0
HATCH
5
20A
100
AcDbEntity
8
SK2
62
256
6
ByLayer
370
13
48
1
60
0
100
AcDbHatch
10
0
20
0
30
0
210
0
220
0
230
1
2
ANSI31
70
0
71
0
91
1
92
5
93
3
72
1
10
38
20
-53.0602475074428
11
34.5000016925532
21
-53.5210312489956
72
1
10
34.5000016925532
20
-53.5210312489956
11
34.4999983074468
21
-52.59946376589
72
1
10
34.4999983074468
20
-52.59946376589
11
38
21
-53.0602475074428
97
0
75
0
76
1
52
0
41
0.0062
77
0
78
1
53
45
43
0
44
0
45
-0.0139193969876572
46
0.0139193969876572
79
0
47
0
98
1
10
0
20
0
0
DIMENSION
5
20E
100
AcDbEntity
8
2
62
256
6
ByLayer
370
18
48
1
60
0
100
AcDbDimension
2
_U0
10
14
20
-21.060248
30
0
11
26
21
-21.060248
31
0
70
32
71
1
72
1
41
1
210
0
220
0
230
1
3
Standard
100
AcDbAlignedDimension
13
38
23
-6
33
0
14
14
24
-6
34
0
50
0
100
AcDbRotatedDimension
1001
ACAD
1000
DSTYLE
1002
{
1070
   371
1070
    13
1070
   372
1070
    13
1070
   170
1070
     0
1070
   144
1040
1.0
1070
   277
1070
     2
1070
   284
1070
     8
1070
   278
1070
    46
1070
   146
1040
1.0
1070
   345
1005
16
1070
   347
1005
16
1070
   346
1005
16
1070
   344
1005
0
1070
   343
1005
0
1070
   172
1070
     1
1070
    76
1070
     0
1070
    75
1070
     0
1070
   282
1070
     0
1070
   281
1070
     0
1070
    71
1070
     0
1070
    74
1070
     0
1070
   279
1070
     0
1070
   173
1070
     1
1070
   340
1005
1E3
1070
   271
1070
     2
1070
   272
1070
     2
1070
    77
1070
     1
1070
    73
1070
     1
1070
   171
1070
     3
1070
   274
1070
     4
1070
   177
1070
     2
1070
   176
1070
     2
1070
   178
1070
     2
1070
    78
1070
     8
1070
    48
1040
-0.1
1070
    41
1040
3.5
1070
   147
1040
1.75
1070
    42
1040
1.5875
1070
    44
1040
2.0
1070
   140
1040
3.5
1002
}
1001
ACAD_DSTYLE_DIM_LINETYPE
1070
   380
1005
16
1001
ACAD_DSTYLE_DIM_EXT1_LINETYPE
1070
   381
1005
16
1001
ACAD_DSTYLE_DIM_EXT2_LINETYPE
1070
   382
1005
16
0
DIMENSION
5
227
100
AcDbEntity
8
SK2
62
256
6
ByLayer
370
18
48
1
60
0
100
AcDbDimension
2
_U1
10
1.997679
20
-36.060248
30
0
11
19.998839
21
-36.060248
31
0
70
32
71
1
72
1
41
1
210
0
220
0
230
1
3
Standard
100
AcDbAlignedDimension
13
38
23
-6
33
0
14
1.997679
24
-5.76
34
0
50
0
100
AcDbRotatedDimension
1001
ACAD
1000
DSTYLE
1002
{
1070
   371
1070
    13
1070
   372
1070
    13
1070
   170
1070
     0
1070
   144
1040
1.0
1070
   277
1070
     2
1070
   284
1070
     8
1070
   278
1070
    46
1070
   146
1040
1.0
1070
   345
1005
16
1070
   347
1005
16
1070
   346
1005
16
1070
   344
1005
0
1070
   343
1005
0
1070
   172
1070
     1
1070
    76
1070
     0
1070
    75
1070
     0
1070
   282
1070
     0
1070
   281
1070
     0
1070
    71
1070
     0
1070
    74
1070
     0
1070
   279
1070
     0
1070
   173
1070
     1
1070
   340
1005
1E3
1070
   271
1070
     2
1070
   272
1070
     2
1070
    77
1070
     1
1070
    73
1070
     1
1070
   171
1070
     3
1070
   274
1070
     4
1070
   177
1070
     2
1070
   176
1070
     2
1070
   178
1070
     2
1070
    78
1070
     8
1070
    48
1040
-0.1
1070
    41
1040
3.5
1070
   147
1040
1.75
1070
    42
1040
1.5875
1070
    44
1040
2.0
1070
   140
1040
3.5
1002
}
1001
ACAD_DSTYLE_DIM_LINETYPE
1070
   380
1005
16
1001
ACAD_DSTYLE_DIM_EXT1_LINETYPE
1070
   381
1005
16
1001
ACAD_DSTYLE_DIM_EXT2_LINETYPE
1070
   382
1005
16
0
ENDSEC
0
SECTION
2
OBJECTS
0
DICTIONARY
5
2af
330
0
100
AcDbDictionary
280
0
281
1
3
ACAD_GROUP
350
2b0
3
ACAD_MLINESTYLE
350
2b1
0
DICTIONARY
5
2b0
330
0
100
AcDbDictionary
280
0
281
1
0
DICTIONARY
5
2b1
330
0
100
AcDbDictionary
280
0
281
1
3
Standard
350
18
0
MLINESTYLE
5
18
330
2b1
100
AcDbMlineStyle
2
Standard
70
0
3

62
256
51
90
52
90
71
2
49
-0.5
62
256
6
ByLayer
49
0.5
62
256
6
ByLayer
0
RASTERVARIABLES
5
29d
330

100
AcDbRasterVariables
90
0
70
1
71
1
72
1
0
ENDSEC
0
EOF
