0
SECTION
2
HEADER
9
$ACADVER
1
AC1015
9
$DWGCODEPAGE
3
ANSI_1252
9
$HANDSEED
5
2c9
9
$ANGBASE
50
0
9
$ANGDIR
70
0
9
$ATTMODE
70
1
9
$AUNITS
70
0
9
$AUPREC
70
0
9
$CECOLOR
62
256
9
$CELTSCALE
40
1
9
$CELTYPE
6
ByLayer
9
$CELWEIGHT
370
18
9
$CLAYER
8
0
9
$CMLJUST
70
0
9
$CMLSCALE
40
1
9
$CMLSTYLE
2
Standard
9
$DIMSTYLE
2
Standard
9
$TEXTSIZE
40
0.2
9
$TEXTSTYLE
7
Standard
9
$LUNITS
70
2
9
$LUPREC
70
4
9
$EXTNAMES
290
1
9
$INSUNITS
70
4
9
$LTSCALE
40
1
9
$LWDISPLAY
290
1
9
$PDMODE
70
0
9
$PDSIZE
40
0
9
$PLINEGEN
70
0
0
ENDSEC
0
SECTION
2
CLASSES
0
CLASS
1
RASTERVARIABLES
2
AcDbRasterVariables
3
ISM
90
0
280
0
281
0
0
ENDSEC
0
SECTION
2
TABLES
0
TABLE
2
VPORT
5
2bf
100
AcDbSymbolTable
0
VPORT
5
1
100
AcDbSymbolTableRecord
100
AcDbViewportTableRecord
2
*Active
70
0
10
0
20
0
11
1
21
1
12
-1
22
1
13
0
23
0
14
0.5
24
0.5
15
10
25
10
16
0
26
0
36
1
17
0
27
0
37
0
0
ENDTAB
0
TABLE
2
LTYPE
5
2c0
100
AcDbSymbolTable
0
LTYPE
5
14
100
AcDbSymbolTableRecord
100
AcDbLinetypeTableRecord
70
0
2
ByBlock
3

72
65
73
0
40
0
0
LTYPE
5
15
100
AcDbSymbolTableRecord
100
AcDbLinetypeTableRecord
70
0
2
ByLayer
3

72
65
73
0
40
0
0
LTYPE
5
16
100
AcDbSymbolTableRecord
100
AcDbLinetypeTableRecord
70
0
2
Continuous
3
Solid line
72
65
73
0
40
0
0
LTYPE
5
6E
100
AcDbSymbolTableRecord
100
AcDbLinetypeTableRecord
70
0
2
CENTER
3
____ _ ____ _ ____ _ ____
72
65
73
4
40
47.5
49
22
74
0
49
-8.5
74
0
49
8.5
74
0
49
-8.5
74
0
0
LTYPE
5
6F
100
AcDbSymbolTableRecord
100
AcDbLinetypeTableRecord
70
0
2
DASHED
3
__ __ __ __ __ __ __ __ __
72
65
73
2
40
25.72
49
12.86
74
0
49
-12.86
74
0
0
ENDTAB
0
TABLE
2
LAYER
5
2c1
100
AcDbSymbolTable
0
LAYER
5
10
100
AcDbSymbolTableRecord
100
AcDbLayerTableRecord
2
0
70
0
62
7
6
Continuous
290
1
370
-3
390
0
0
LAYER
5
71
100
AcDbSymbolTableRecord
100
AcDbLayerTableRecord
2
81
70
0
62
-3
6
Continuous
290
1
370
-3
390
0
0
LAYER
5
73
100
AcDbSymbolTableRecord
100
AcDbLayerTableRecord
2
80
70
0
62
-6
6
Continuous
290
1
370
-3
390
0
0
LAYER
5
75
100
AcDbSymbolTableRecord
100
AcDbLayerTableRecord
2
1
70
0
62
4
6
Continuous
290
1
370
-3
390
0
0
LAYER
5
7B
100
AcDbSymbolTableRecord
100
AcDbLayerTableRecord
2
4
70
0
62
-2
6
CENTER
290
1
370
-3
390
0
0
LAYER
5
E0
100
AcDbSymbolTableRecord
100
AcDbLayerTableRecord
2
2
70
0
62
7
6
Continuous
290
1
370
-3
390
0
0
LAYER
5
21E
100
AcDbSymbolTableRecord
100
AcDbLayerTableRecord
2
Defpoints
70
0
62
7
6
Continuous
290
0
370
-3
390
0
0
LAYER
5
2ab
100
AcDbSymbolTableRecord
100
AcDbLayerTableRecord
2
SK4
70
0
62
2
6
CENTER
290
1
370
-3
390
0
0
LAYER
5
2ac
100
AcDbSymbolTableRecord
100
AcDbLayerTableRecord
2
SK1
70
0
62
4
6
Continuous
290
1
370
-3
390
0
0
LAYER
5
2ad
100
AcDbSymbolTableRecord
100
AcDbLayerTableRecord
2
SK2
70
0
62
7
6
Continuous
290
1
370
-3
390
0
0
LAYER
5
2ae
100
AcDbSymbolTableRecord
100
AcDbLayerTableRecord
2
SK6
70
0
62
5
6
Continuous
290
1
370
-3
390
0
0
ENDTAB
0
TABLE
2
STYLE
5
2c2
100
AcDbSymbolTable
0
STYLE
5
11
100
AcDbSymbolTableRecord
100
AcDbTextStyleTableRecord
2
Standard
3
txt
70
0
71
0
40
0
41
1
42
0
50
0
0
STYLE
5
1F0
100
AcDbSymbolTableRecord
100
AcDbTextStyleTableRecord
2
iso_b_vert
3
simplex.shx
70
0
71
0
40
0
41
1
42
0
50
0
0
STYLE
5
1F1
100
AcDbSymbolTableRecord
100
AcDbTextStyleTableRecord
2
DWGDirectTextStyle
3
simplex
70
0
71
0
40
0
41
1
42
0
50
0
0
ENDTAB
0
TABLE
2
DIMSTYLE
5
2c3
100
AcDbSymbolTable
100
AcDbDimStyleTable
0
DIMSTYLE
105
27
100
AcDbSymbolTableRecord
100
AcDbDimStyleTableRecord
2
Standard
70
0
3
<>
41
0.18
42
0.0625
44
0.18
140
0.18
147
0.09
73
0
74
0
77
1
271
2
275
0
278
52
280
0
340
11
0
ENDTAB
0
TABLE
2
VIEW
5
2c4
100
AcDbSymbolTable
0
ENDTAB
0
TABLE
2
UCS
5
2c5
100
AcDbSymbolTable
0
ENDTAB
0
TABLE
2
APPID
5
2c6
100
AcDbSymbolTable
0
APPID
5
12
100
AcDbSymbolTableRecord
100
AcDbRegAppTableRecord
2
ACAD
70
0
0
APPID
5
21A
100
AcDbSymbolTableRecord
100
AcDbRegAppTableRecord
2
ACAD_DSTYLE_DIMBREAK
70
0
0
APPID
5
26A
100
AcDbSymbolTableRecord
100
AcDbRegAppTableRecord
2
ACAD_DSTYLE_DIM_LINETYPE
70
0
0
APPID
5
26B
100
AcDbSymbolTableRecord
100
AcDbRegAppTableRecord
2
ACAD_DSTYLE_DIM_EXT1_LINETYPE
70
0
0
APPID
5
26C
100
AcDbSymbolTableRecord
100
AcDbRegAppTableRecord
2
ACAD_DSTYLE_DIM_EXT2_LINETYPE
70
0
0
APPID
5
2A7
100
AcDbSymbolTableRecord
100
AcDbRegAppTableRecord
2
ACAD_MLEADERVER
70
0
0
ENDTAB
0
TABLE
2
BLOCK_RECORD
5
2c7
100
AcDbSymbolTable
0
BLOCK_RECORD
5
1F
100
AcDbSymbolTableRecord
100
AcDbBlockTableRecord
2
*Model_Space
340
0
70
0
0
BLOCK_RECORD
5
1B
100
AcDbSymbolTableRecord
100
AcDbBlockTableRecord
2
*Paper_Space
340
0
70
0
0
BLOCK_RECORD
5
23
100
AcDbSymbolTableRecord
100
AcDbBlockTableRecord
2
*Paper_Space0
340
0
70
0
0
BLOCK_RECORD
5
21F
100
AcDbSymbolTableRecord
100
AcDbBlockTableRecord
2
*D1
340
0
70
0
0
BLOCK_RECORD
5
22B
100
AcDbSymbolTableRecord
100
AcDbBlockTableRecord
2
_U0
340
0
70
0
0
BLOCK_RECORD
5
237
100
AcDbSymbolTableRecord
100
AcDbBlockTableRecord
2
*D3
340
0
70
0
0
BLOCK_RECORD
5
243
100
AcDbSymbolTableRecord
100
AcDbBlockTableRecord
2
_U1
340
0
70
0
0
ENDTAB
0
ENDSEC
0
SECTION
2
BLOCKS
0
BLOCK
5
20
100
AcDbEntity
8
0
100
AcDbBlockBegin
2
*Model_Space
70
0
10
0
20
0
30
0
3
*Model_Space
0
ENDBLK
5
21
100
AcDbEntity
8
0
100
AcDbBlockEnd
0
BLOCK
5
1C
100
AcDbEntity
8
0
100
AcDbBlockBegin
2
*Paper_Space
70
0
10
0
20
0
30
0
3
*Paper_Space
0
ENDBLK
5
1D
100
AcDbEntity
8
0
100
AcDbBlockEnd
0
BLOCK
5
24
100
AcDbEntity
8
0
100
AcDbBlockBegin
2
*Paper_Space0
70
0
10
0
20
0
30
0
3
*Paper_Space0
0
ENDBLK
5
25
100
AcDbEntity
8
0
100
AcDbBlockEnd
0
BLOCK
5
220
100
AcDbEntity
8
0
100
AcDbBlockBegin
2
*D1
70
1
10
0
20
0
30
0
3
*D1
0
LINE
5
222
100
AcDbEntity
8
0
62
256
6
ByLayer
370
-2
48
1
60
0
100
AcDbLine
10
47
20
-6.5875
30
0
11
47
21
-21.678891
31
0
39
0
210
0
220
0
230
1
0
LINE
5
223
100
AcDbEntity
8
0
62
256
6
ByLayer
370
-2
48
1
60
0
100
AcDbLine
10
17
20
-6.5875
30
0
11
17
21
-21.678891
31
0
39
0
210
0
220
0
230
1
0
LINE
5
224
100
AcDbEntity
8
0
62
256
6
ByLayer
370
-2
48
1
60
0
100
AcDbLine
10
43.5
20
-19.678891
30
0
11
20.5
21
-19.678891
31
0
39
0
210
0
220
0
230
1
0
SOLID
5
225
100
AcDbEntity
8
0
62
256
6
ByLayer
370
-1
48
1
60
0
100
AcDbTrace
10
43.5
20
-20.262224
30
0
11
43.5
21
-19.095557
31
0
12
47
22
-19.678891
32
0
13
47
23
-19.678891
33
0
39
0
210
0
220
0
230
1
0
SOLID
5
226
100
AcDbEntity
8
0
62
256
6
ByLayer
370
-1
48
1
60
0
100
AcDbTrace
10
20.5
20
-19.095557
30
0
11
20.5
21
-20.262224
31
0
12
17
22
-19.678891
32
0
13
17
23
-19.678891
33
0
39
0
210
0
220
0
230
1
0
MTEXT
5
227
100
AcDbEntity
8
0
62
256
6
ByLayer
370
18
48
1
60
0
100
AcDbMText
10
32
20
-12.678891
30
0
210
0
220
0
230
1
1
\A1;30
40
3.5
41
0
44
1
50
0
71
5
72
5
7
iso_b_vert
0
POINT
5
228
100
AcDbEntity
8
Defpoints
62
0
6
ByLayer
370
-1
48
1
60
0
100
AcDbPoint
10
47
20
-5
30
0
39
0
210
0
220
0
230
1
50
360
0
POINT
5
229
100
AcDbEntity
8
Defpoints
62
0
6
ByLayer
370
-1
48
1
60
0
100
AcDbPoint
10
17
20
-5
30
0
39
0
210
0
220
0
230
1
50
360
0
POINT
5
22A
100
AcDbEntity
8
Defpoints
62
0
6
ByLayer
370
-1
48
1
60
0
100
AcDbPoint
10
17
20
-19.678891
30
0
39
0
210
0
220
0
230
1
50
360
0
ENDBLK
5
221
100
AcDbEntity
8
0
100
AcDbBlockEnd
0
BLOCK
5
232
100
AcDbEntity
8
0
100
AcDbBlockBegin
2
_U0
70
0
10
0
20
0
30
0
3
_U0
0
MTEXT
5
22C
100
AcDbEntity
8
2
62
256
6
ByLayer
370
18
48
1
60
0
100
AcDbMText
10
30.095034
20
-18.646257
30
0
210
0
220
0
230
1
1
\W0.6740;30
40
3.5
41
0
44
1.084337
50
0
71
7
72
5
7
iso_b_vert
0
LINE
5
22D
100
AcDbEntity
8
2
62
256
6
ByLayer
370
13
48
1
60
0
100
AcDbLine
10
47
20
-6.5875
30
0
11
47
21
-21.678891
31
0
39
0
210
0
220
0
230
1
0
LINE
5
22E
100
AcDbEntity
8
2
62
256
6
ByLayer
370
13
48
1
60
0
100
AcDbLine
10
17
20
-6.5875
30
0
11
17
21
-21.678891
31
0
39
0
210
0
220
0
230
1
0
LINE
5
22F
100
AcDbEntity
8
2
62
256
6
ByLayer
370
13
48
1
60
0
100
AcDbLine
10
47
20
-19.678891
30
0
11
17
21
-19.678891
31
0
39
0
210
0
220
0
230
1
0
SOLID
5
230
100
AcDbEntity
8
2
62
256
6
ByLayer
370
18
48
1
60
0
100
AcDbTrace
10
47
20
-19.678891
30
0
11
43.500002
21
-20.139674
31
0
12
43.499998
22
-19.218107
32
0
13
43.499998
23
-19.218107
33
0
39
0
210
0
220
0
230
1
0
SOLID
5
231
100
AcDbEntity
8
2
62
256
6
ByLayer
370
18
48
1
60
0
100
AcDbTrace
10
17
20
-19.678891
30
0
11
20.499998
21
-19.218107
31
0
12
20.500002
22
-20.139674
32
0
13
20.500002
23
-20.139674
33
0
39
0
210
0
220
0
230
1
0
ENDBLK
5
233
100
AcDbEntity
8
0
100
AcDbBlockEnd
0
BLOCK
5
238
100
AcDbEntity
8
0
100
AcDbBlockBegin
2
*D3
70
1
10
0
20
0
30
0
3
*D3
0
LINE
5
23A
100
AcDbEntity
8
0
62
256
6
ByLayer
370
-2
48
1
60
0
100
AcDbLine
10
47
20
-6.5875
30
0
11
47
21
-36.678891
31
0
39
0
210
0
220
0
230
1
0
LINE
5
23B
100
AcDbEntity
8
0
62
256
6
ByLayer
370
-2
48
1
60
0
100
AcDbLine
10
1.997679
20
-6.3875
30
0
11
1.997679
21
-36.678891
31
0
39
0
210
0
220
0
230
1
0
LINE
5
23C
100
AcDbEntity
8
0
62
256
6
ByLayer
370
-2
48
1
60
0
100
AcDbLine
10
43.5
20
-34.678891
30
0
11
5.497679
21
-34.678891
31
0
39
0
210
0
220
0
230
1
0
SOLID
5
23D
100
AcDbEntity
8
0
62
256
6
ByLayer
370
-1
48
1
60
0
100
AcDbTrace
10
43.5
20
-35.262224
30
0
11
43.5
21
-34.095557
31
0
12
47
22
-34.678891
32
0
13
47
23
-34.678891
33
0
39
0
210
0
220
0
230
1
0
SOLID
5
23E
100
AcDbEntity
8
0
62
256
6
ByLayer
370
-1
48
1
60
0
100
AcDbTrace
10
5.497679
20
-34.095557
30
0
11
5.497679
21
-35.262224
31
0
12
1.997679
22
-34.678891
32
0
13
1.997679
23
-34.678891
33
0
39
0
210
0
220
0
230
1
0
MTEXT
5
23F
100
AcDbEntity
8
0
62
256
6
ByLayer
370
18
48
1
60
0
100
AcDbMText
10
24.498839
20
-27.678891
30
0
210
0
220
0
230
1
1
\A1;45
40
3.5
41
0
44
1
50
0
71
5
72
5
7
iso_b_vert
0
POINT
5
240
100
AcDbEntity
8
Defpoints
62
0
6
ByLayer
370
-1
48
1
60
0
100
AcDbPoint
10
47
20
-5
30
0
39
0
210
0
220
0
230
1
50
360
0
POINT
5
241
100
AcDbEntity
8
Defpoints
62
0
6
ByLayer
370
-1
48
1
60
0
100
AcDbPoint
10
1.997679
20
-4.8
30
0
39
0
210
0
220
0
230
1
50
360
0
POINT
5
242
100
AcDbEntity
8
Defpoints
62
0
6
ByLayer
370
-1
48
1
60
0
100
AcDbPoint
10
1.997679
20
-34.678891
30
0
39
0
210
0
220
0
230
1
50
360
0
ENDBLK
5
239
100
AcDbEntity
8
0
100
AcDbBlockEnd
0
BLOCK
5
24A
100
AcDbEntity
8
0
100
AcDbBlockBegin
2
_U1
70
0
10
0
20
0
30
0
3
_U1
0
MTEXT
5
244
100
AcDbEntity
8
SK2
62
256
6
ByLayer
370
18
48
1
60
0
100
AcDbMText
10
22.409607
20
-33.646257
30
0
210
0
220
0
230
1
1
\W0.7361;45
40
3.5
41
0
44
1.084337
50
0
71
7
72
5
7
iso_b_vert
0
LINE
5
245
100
AcDbEntity
8
SK2
62
256
6
ByLayer
370
13
48
1
60
0
100
AcDbLine
10
47
20
-6.5875
30
0
11
47
21
-36.678891
31
0
39
0
210
0
220
0
230
1
0
LINE
5
246
100
AcDbEntity
8
SK2
62
256
6
ByLayer
370
13
48
1
60
0
100
AcDbLine
10
1.997679
20
-6.3875
30
0
11
1.997679
21
-36.678891
31
0
39
0
210
0
220
0
230
1
0
LINE
5
247
100
AcDbEntity
8
SK2
62
256
6
ByLayer
370
13
48
1
60
0
100
AcDbLine
10
47
20
-34.678891
30
0
11
1.997679
21
-34.678891
31
0
39
0
210
0
220
0
230
1
0
SOLID
5
248
100
AcDbEntity
8
SK2
62
256
6
ByLayer
370
18
48
1
60
0
100
AcDbTrace
10
47
20
-34.678891
30
0
11
43.500002
21
-35.139674
31
0
12
43.499998
22
-34.218107
32
0
13
43.499998
23
-34.218107
33
0
39
0
210
0
220
0
230
1
0
SOLID
5
249
100
AcDbEntity
8
SK2
62
256
6
ByLayer
370
18
48
1
60
0
100
AcDbTrace
10
1.997679
20
-34.678891
30
0
11
5.497677
21
-34.218107
31
0
12
5.497681
22
-35.139674
32
0
13
5.497681
23
-35.139674
33
0
39
0
210
0
220
0
230
1
0
ENDBLK
5
24B
100
AcDbEntity
8
0
100
AcDbBlockEnd
0
ENDSEC
0
SECTION
2
ENTITIES
0
ARC
5
F2
100
AcDbEntity
8
1
62
256
6
ByLayer
370
18
48
1
60
0
100
AcDbCircle
39
0
10
16.385641
20
5.8
30
0
40
1
210
0
220
0
230
1
100
AcDbArc
50
270
51
290.634233
0
ARC
5
F3
100
AcDbEntity
8
1
62
256
6
ByLayer
370
18
48
1
60
0
100
AcDbCircle
39
0
10
1.997679
20
5.8
30
0
40
1
210
0
220
0
230
1
100
AcDbArc
50
240
51
270
0
ARC
5
F4
100
AcDbEntity
8
1
62
256
6
ByLayer
370
18
48
1
60
0
100
AcDbCircle
39
0
10
1.997679
20
-5.8
30
0
40
1
210
0
220
0
230
1
100
AcDbArc
50
90
51
120
0
ELLIPSE
5
F5
100
AcDbEntity
8
1
62
256
6
ByLayer
370
18
48
1
60
0
100
AcDbEllipse
10
46.758561
20
-0.179653
30
0
11
0.0252373998926564
21
-0.856498804505709
31
0
210
0
220
0
230
1
40
0.078371
41
0.864030988220263
42
1.47305353071436
0
ELLIPSE
5
F6
100
AcDbEntity
8
1
62
256
6
ByLayer
370
18
48
1
60
0
100
AcDbEllipse
10
46.67231
20
-0.603202
30
0
11
0.339522482504483
21
-0.583910371523839
31
0
210
0
220
0
230
1
40
0.515307
41
2.86701062606234
42
-2.49125266932099
0
ELLIPSE
5
F7
100
AcDbEntity
8
1
62
256
6
ByLayer
370
18
48
1
60
0
100
AcDbEllipse
10
46.71798
20
-0.611706
30
0
11
0.0401041000147705
21
-0.576499601986905
31
0
210
0
220
0
230
1
40
0.176242
41
0.76062162899771
42
1.34419304975328
0
ELLIPSE
5
F8
100
AcDbEntity
8
1
62
256
6
ByLayer
370
18
48
1
60
0
100
AcDbEllipse
10
46.41966
20
-0.55616
30
0
11
0.293002072131878
21
-0.565244520872712
31
0
210
0
220
0
230
1
40
0.633593
41
0.314435697454135
42
0.347344128393466
0
ELLIPSE
5
F9
100
AcDbEntity
8
1
62
256
6
ByLayer
370
18
48
1
60
0
100
AcDbEllipse
10
21.851535
20
0
30
0
11
9.23126982798521
21
3.29218850977813
31
0
210
0
220
0
230
1
40
0.378395
41
-2.69567471999092
42
-2.33202032542667
0
ELLIPSE
5
FA
100
AcDbEntity
8
1
62
256
6
ByLayer
370
18
48
1
60
0
100
AcDbEllipse
10
21.936464
20
0
30
0
11
9.41105883006016
21
-4.00871754955987
31
0
210
0
220
0
230
1
40
0.280533
41
-2.43900617909602
42
-2.07755018198599
0
POINT
5
70
100
AcDbEntity
8
81
62
256
6
ByLayer
370
18
48
1
60
0
100
AcDbPoint
10
47
20
0
30
0
39
0
210
0
220
0
230
1
50
360
0
POINT
5
72
100
AcDbEntity
8
80
62
256
6
ByLayer
370
18
48
1
60
0
100
AcDbPoint
10
0
20
0
30
0
39
0
210
0
220
0
230
1
50
360
0
POINT
5
74
100
AcDbEntity
8
1
62
256
6
ByLayer
370
18
48
1
60
1
100
AcDbPoint
10
47
20
-5
30
0
39
0
210
0
220
0
230
1
50
360
0
POINT
5
76
100
AcDbEntity
8
1
62
256
6
ByLayer
370
18
48
1
60
1
100
AcDbPoint
10
17
20
-5
30
0
39
0
210
0
220
0
230
1
50
360
0
POINT
5
77
100
AcDbEntity
8
1
62
256
6
ByLayer
370
18
48
1
60
1
100
AcDbPoint
10
47
20
-5
30
0
39
0
210
0
220
0
230
1
50
360
0
POINT
5
78
100
AcDbEntity
8
1
62
256
6
ByLayer
370
18
48
1
60
1
100
AcDbPoint
10
1.997679
20
-4.8
30
0
39
0
210
0
220
0
230
1
50
360
0
SPLINE
5
FB
100
AcDbEntity
8
1
62
256
6
ByLayer
370
18
48
1
60
0
100
AcDbSpline
70
4
71
3
72
8
73
4
40
0
40
0
40
0
40
0
40
1
40
1
40
1
40
1
41
1
10
35.3962868721856
20
-0.422360887069061
30
0
41
1
10
35.3885158674958
20
-0.427884183198927
30
0
41
1
10
35.3807448936365
20
-0.433406680314761
30
0
41
1
10
35.3729739503217
20
-0.438928347987485
30
0
0
SPLINE
5
FC
100
AcDbEntity
8
1
62
256
6
ByLayer
370
18
48
1
60
0
100
AcDbSpline
70
4
71
3
72
15
73
11
40
0
40
0
40
0
40
0
40
0.0578713088101059
40
0.184030463287196
40
0.31003950627849
40
0.373121300803196
40
0.499603975212963
40
0.689748387745805
40
0.815452452960016
40
1
40
1
40
1
40
1
41
1
10
31.4692381744638
20
-3.00519097142151
30
0
41
1
10
31.1917361526503
20
-3.16338810902681
30
0
41
1
10
30.3088854786147
20
-3.6442308348939
30
0
41
1
10
28.8194962533968
20
-4.3161703088721
30
0
41
1
10
27.3021084280898
20
-4.7592101989195
30
0
41
1
10
25.7860894184549
20
-4.99925980567662
30
0
41
1
10
23.9662566883739
20
-5.03699460569518
30
0
41
1
10
21.858202591242
20
-4.59171145029703
30
0
41
1
10
19.4487807058904
20
-3.58760547226191
30
0
41
1
10
17.9253855082388
20
-2.69606648276644
30
0
41
1
10
17
20
-2.09630229039334
30
0
0
SPLINE
5
FD
100
AcDbEntity
8
1
62
256
6
ByLayer
370
18
48
1
60
0
100
AcDbSpline
70
4
71
5
72
16
73
10
40
0
40
0
40
0
40
0
40
0
40
0
40
0.356729795802322
40
0.736473346112425
40
0.823437141895325
40
0.881702885069868
40
1
40
1
40
1
40
1
40
1
40
1
41
1
10
17.0000000000001
20
4.88685045090719
30
0
41
1
10
17.6933390978088
20
4.77435017665707
30
0
41
1
10
19.1258190155924
20
4.3987226934984
30
0
41
1
10
20.7257176928798
20
3.66255746023785
30
0
41
1
10
22.4407559781097
20
2.56405254396211
30
0
41
1
10
24.3843724232828
20
1.12300460688962
30
0
41
1
10
25.6352882503766
20
0.162511129856398
30
0
41
1
10
26.1474101492449
20
-0.231197626330072
30
0
41
1
10
26.4908214331678
20
-0.493900717017823
30
0
41
1
10
26.7207634327072
20
-0.668756743638625
30
0
0
SPLINE
5
FE
100
AcDbEntity
8
1
62
256
6
ByLayer
370
18
48
1
60
0
100
AcDbSpline
70
4
71
3
72
13
73
9
40
0
40
0
40
0
40
0
40
0.068565715238137
40
0.386786650563388
40
0.493108959868305
40
0.599439433593514
40
0.812192056308831
40
1
40
1
40
1
40
1
41
1
10
43.9552628547177
20
4.53574417854199
30
0
41
1
10
43.7576849349331
20
4.47645088611324
30
0
41
1
10
42.6453514100396
20
4.11210818642567
30
0
41
1
10
41.2403600833041
20
3.44298193921622
30
0
41
1
10
39.7272308693037
20
2.54881772956898
30
0
41
1
10
38.5148479841657
20
1.77574523421919
30
0
41
1
10
37.0707580255534
20
0.775619152564445
30
0
41
1
10
35.930680841407
20
-0.0425366224025652
30
0
41
1
10
35.3962868721856
20
-0.422360887069061
30
0
0
SPLINE
5
FF
100
AcDbEntity
8
1
62
256
6
ByLayer
370
18
48
1
60
0
100
AcDbSpline
70
4
71
3
72
12
73
8
40
0
40
0
40
0
40
0
40
0.0489914262752186
40
0.282008812138545
40
0.747856727423028
40
0.980505232126033
40
1
40
1
40
1
40
1
41
1
10
35.3729739503217
20
-0.438928347987485
30
0
41
1
10
35.3092535328681
20
-0.484205086588617
30
0
41
1
10
34.9424722115057
20
-0.744510057565748
30
0
41
1
10
33.9699746104579
20
-1.42843593340737
30
0
41
1
10
32.7584360834473
20
-2.23952615142812
30
0
41
1
10
31.8232408552861
20
-2.80261731048384
30
0
41
1
10
31.494645010203
20
-2.99070715374231
30
0
41
1
10
31.4692381744638
20
-3.00519097142151
30
0
0
SPLINE
5
100
100
AcDbEntity
8
1
62
256
6
ByLayer
370
18
48
1
60
0
100
AcDbSpline
70
4
71
5
72
13
73
7
40
0
40
0
40
0
40
0
40
0
40
0
40
0.60117233278147
40
1
40
1
40
1
40
1
40
1
40
1
41
1
10
17
20
-4.69146762269531
30
0
41
1
10
17.5339060816675
20
-4.55734606394665
30
0
41
1
10
18.4223672339241
20
-4.27530507116128
30
0
41
1
10
19.3107221041971
20
-3.90025600518734
30
0
41
1
10
20.1988944674726
20
-3.44418909164602
30
0
41
1
10
21.087250024999
20
-2.92411769290936
30
0
41
1
10
21.4415270274186
20
-2.70772397831647
30
0
0
SPLINE
5
101
100
AcDbEntity
8
1
62
256
6
ByLayer
370
18
48
1
60
0
100
AcDbSpline
70
4
71
5
72
15
73
9
40
0
40
0
40
0
40
0
40
0
40
0
40
0.349048650272813
40
0.515437052208752
40
0.67
40
1
40
1
40
1
40
1
40
1
40
1
41
1
10
21.4415270274186
20
-2.70772397831647
30
0
41
1
10
21.9657115837474
20
-2.38755836891707
30
0
41
1
10
22.7395948648385
20
-1.88582749648842
30
0
41
1
10
23.7458477922915
20
-1.18891018932621
30
0
41
1
10
25.2473424002842
20
-0.097507723962849
30
0
41
1
10
26.7490727424853
20
0.998370446522898
30
0
41
1
10
27.7265193858053
20
1.68347853311278
30
0
41
1
10
28.4541573988902
20
2.16625873353917
30
0
41
1
10
28.9497119873753
20
2.4789160070807
30
0
0
SPLINE
5
102
100
AcDbEntity
8
1
62
256
6
ByLayer
370
18
48
1
60
0
100
AcDbSpline
70
4
71
3
72
8
73
4
40
0
40
0
40
0
40
0
40
1
40
1
40
1
40
1
41
1
10
46.8804855984846
20
-0.489997547563519
30
0
41
1
10
46.8826502443603
20
-0.484363047179528
30
0
41
1
10
46.8848148877161
20
-0.478728544958813
30
0
41
1
10
46.8869795285869
20
-0.473094040950173
30
0
0
SPLINE
5
103
100
AcDbEntity
8
1
62
256
6
ByLayer
370
18
48
1
60
0
100
AcDbSpline
70
4
71
3
72
10
73
6
40
0
40
0
40
0
40
0
40
0.5
40
0.5
40
1
40
1
40
1
40
1
41
1
10
46.8870565783043
20
-0.472893482530964
30
0
41
1
10
46.8887753806089
20
-0.46736613425486
30
0
41
1
10
46.8900160529719
20
-0.463052251003859
30
0
41
1
10
46.8914091688122
20
-0.457186343937764
30
0
41
1
10
46.8915437475827
20
-0.455699204162812
30
0
41
1
10
46.8911148288707
20
-0.455675284787532
30
0
0
SPLINE
5
104
100
AcDbEntity
8
1
62
256
6
ByLayer
370
13
48
1
60
0
100
AcDbSpline
70
4
71
3
72
8
73
4
40
0
40
0
40
0
40
0
40
1
40
1
40
1
40
1
41
1
10
46.9728996861904
20
0.19259740623221
30
0
41
1
10
46.945638067088
20
-0.0234934907587672
30
0
41
1
10
46.9183764479855
20
-0.239584387749744
30
0
41
1
10
46.891114828883
20
-0.455675284740693
30
0
0
SPLINE
5
105
100
AcDbEntity
8
1
62
256
6
ByLayer
370
18
48
1
60
0
100
AcDbSpline
70
4
71
3
72
8
73
4
40
0
40
0
40
0
40
0
40
1
40
1
40
1
40
1
41
1
10
25.5905930956943
20
-4.98372942333975
30
0
41
1
10
25.5895903359466
20
-4.98285850460866
30
0
41
1
10
25.5885975043103
20
-4.98199308640517
30
0
41
1
10
25.5876175233796
20
-4.98113293339466
30
0
0
SPLINE
5
106
100
AcDbEntity
8
1
62
256
6
ByLayer
370
18
48
1
60
0
100
AcDbSpline
70
4
71
3
72
16
73
12
40
0
40
0
40
0
40
0
40
0.125
40
0.125
40
0.25
40
0.25
40
0.5
40
0.5
40
0.75
40
0.75
40
1
40
1
40
1
40
1
41
1
10
16.5183397810411
20
-4.80841544018222
30
0
41
1
10
16.5361417090136
20
-4.81023033552472
30
0
41
1
10
16.5530596913191
20
-4.81183402454255
30
0
41
1
10
16.586124263774
20
-4.81457656757996
30
0
41
1
10
16.602242555087
20
-4.81571685889818
30
0
41
1
10
16.6498678033948
20
-4.818429708259
30
0
41
1
10
16.6806599387876
20
-4.81929323052171
30
0
41
1
10
16.7411262964887
20
-4.81914674930087
30
0
41
1
10
16.7707702081191
20
-4.81813794877169
30
0
41
1
10
16.829013867914
20
-4.81431159920217
30
0
41
1
10
16.8576076289221
20
-4.81149427822251
30
0
41
1
10
16.8856406460551
20
-4.80781832954759
30
0
0
SPLINE
5
107
100
AcDbEntity
8
1
62
256
6
ByLayer
370
18
48
1
60
0
100
AcDbSpline
70
4
71
3
72
8
73
4
40
0
40
0
40
0
40
0
40
1
40
1
40
1
40
1
41
1
10
16.8856406460551
20
-4.80781832954762
30
0
41
1
10
16.9020707197778
20
-4.80566386620737
30
0
41
1
10
16.919057408047
20
-4.80308397913282
30
0
41
1
10
16.9365470536849
20
-4.80006500672246
30
0
0
SPLINE
5
108
100
AcDbEntity
8
1
62
256
6
ByLayer
370
18
48
1
60
0
100
AcDbSpline
70
4
71
3
72
8
73
4
40
0
40
0
40
0
40
0
40
1
40
1
40
1
40
1
41
1
10
16.9365470536849
20
-4.80006500672246
30
0
41
1
10
16.9453015819776
20
-4.79846068593895
30
0
41
1
10
16.954055682233
20
-4.79684474920558
30
0
41
1
10
16.9628093576594
20
-4.79521717951852
30
0
0
SPLINE
5
109
100
AcDbEntity
8
1
62
256
6
ByLayer
370
18
48
1
60
0
100
AcDbSpline
70
4
71
3
72
8
73
4
40
0
40
0
40
0
40
0
40
1
40
1
40
1
40
1
41
1
10
25.5932834801506
20
-4.97465827044604
30
0
41
1
10
25.5918691464664
20
-4.9776944783215
30
0
41
1
10
25.5909571791651
20
-4.98073224836372
30
0
41
1
10
25.5905930956944
20
-4.98372942333975
30
0
0
SPLINE
5
10A
100
AcDbEntity
8
1
62
256
6
ByLayer
370
18
48
1
60
0
100
AcDbSpline
70
4
71
3
72
25
73
21
40
0
40
0
40
0
40
0
40
0.125000000000011
40
0.125000000000011
40
0.250000000000021
40
0.250000000000021
40
0.312500000000027
40
0.312500000000027
40
0.375000000000032
40
0.375000000000032
40
0.50000000000003
40
0.625000000000027
40
0.625000000000027
40
0.687500000000014
40
0.687500000000014
40
0.750000000000001
40
0.750000000000001
40
0.875
40
0.875
40
1
40
1
40
1
40
1
41
1
10
46.9728996861815
20
3.96729224163582
30
0
41
1
10
46.9740805962157
20
4.01166446567413
30
0
41
1
10
46.9723960442447
20
4.05559574058239
30
0
41
1
10
46.9636728232046
20
4.14263437670783
30
0
41
1
10
46.9566292691089
20
4.18574098620599
30
0
41
1
10
46.942066616599
20
4.24978577611648
30
0
41
1
10
46.9365441523514
20
4.27103120684848
30
0
41
1
10
46.9241410437449
20
4.31331306594217
30
0
41
1
10
46.9172411386703
20
4.33439030046884
30
0
41
1
10
46.8947713141452
20
4.39646588048925
30
0
41
1
10
46.8599772226943
20
4.47668369051559
30
0
41
1
10
46.8157268702571
20
4.55191425524418
30
0
41
1
10
46.7788806437463
20
4.60640770070782
30
0
41
1
10
46.765961015547
20
4.62428267600404
30
0
41
1
10
46.7389652443519
20
4.65921882079644
30
0
41
1
10
46.7249837301017
20
4.67616199722511
30
0
41
1
10
46.6816103109527
20
4.72544072621093
30
0
41
1
10
46.6507958417091
20
4.75623232911983
30
0
41
1
10
46.5853315896185
20
4.81365295971872
30
0
41
1
10
46.5506830177279
20
4.8402833016942
30
0
41
1
10
46.5139898206946
20
4.86469455369905
30
0
0
SPLINE
5
10B
100
AcDbEntity
8
1
62
256
6
ByLayer
370
18
48
1
60
0
100
AcDbSpline
70
4
71
3
72
8
73
4
40
0
40
0
40
0
40
0
40
1
40
1
40
1
40
1
41
1
10
16.8856406460551
20
4.82947828831229
30
0
41
1
10
16.9237344629776
20
4.84862741165864
30
0
41
1
10
16.9618465097113
20
4.86774707693777
30
0
41
1
10
16.9999759910464
20
4.88683842967851
30
0
0
SPLINE
5
10C
100
AcDbEntity
8
1
62
256
6
ByLayer
370
18
48
1
60
0
100
AcDbSpline
70
4
71
3
72
8
73
4
40
0
40
0
40
0
40
0
40
1
40
1
40
1
40
1
41
1
10
16.6912151966286
20
4.7560297774827
30
0
41
1
10
16.7590612055196
20
4.77394658911422
30
0
41
1
10
16.8238705754938
20
4.79842750904919
30
0
41
1
10
16.8856406460577
20
4.82947828830677
30
0
0
SPLINE
5
10D
100
AcDbEntity
8
1
62
256
6
ByLayer
370
18
48
1
60
0
100
AcDbSpline
70
4
71
3
72
10
73
6
40
0
40
0
40
0
40
0
40
0.667126484287537
40
0.667126484287537
40
1
40
1
40
1
40
1
41
1
10
37.2839845740955
20
4.95053970769538
30
0
41
1
10
37.2929515680344
20
4.94881707731861
30
0
41
1
10
37.3002210173709
20
4.94689613886544
30
0
41
1
10
37.3081365487006
20
4.9439700692142
30
0
41
1
10
37.3102747505431
20
4.94298851111225
30
0
41
1
10
37.3118698741049
20
4.94202719107662
30
0
0
SPLINE
5
10E
100
AcDbEntity
8
1
62
256
6
ByLayer
370
18
48
1
60
0
100
AcDbSpline
70
4
71
3
72
8
73
4
40
0
40
0
40
0
40
0
40
1
40
1
40
1
40
1
41
1
10
37.3149853208143
20
4.93922063001216
30
0
41
1
10
37.3178991021263
20
4.93694512788639
30
0
41
1
10
37.320742912538
20
4.93465011129899
30
0
41
1
10
37.3235141997146
20
4.93233688175232
30
0
0
SPLINE
5
10F
100
AcDbEntity
8
1
62
256
6
ByLayer
370
18
48
1
60
0
100
AcDbSpline
70
4
71
3
72
24
73
20
40
0
40
0
40
0
40
0
40
0.125000000000002
40
0.125000000000002
40
0.250000000000004
40
0.250000000000004
40
0.312500000000001
40
0.312500000000001
40
0.374999999999999
40
0.374999999999999
40
0.499999999999997
40
0.624999999999995
40
0.624999999999995
40
0.687499999999996
40
0.687499999999996
40
0.749999999999996
40
0.749999999999996
40
0.874999999999998
40
1
40
1
40
1
40
1
41
1
10
46.9728996861816
20
-3.97266926247789
30
0
41
1
10
46.9740420408835
20
-4.01572278888636
30
0
41
1
10
46.9725130017133
20
-4.05837202505171
30
0
41
1
10
46.9644698307603
20
-4.14291605065571
30
0
41
1
10
46.9579520111202
20
-4.18481028197761
30
0
41
1
10
46.9444696651391
20
-4.24709081887525
30
0
41
1
10
46.9393561011951
20
-4.26775725013957
30
0
41
1
10
46.9278724904503
20
-4.30889995584712
30
0
41
1
10
46.9214778217283
20
-4.32944357121406
30
0
41
1
10
46.9005742514582
20
-4.39018092655124
30
0
41
1
10
46.8681809557499
20
-4.46878653664101
30
0
41
1
10
46.8270034139928
20
-4.54277352263105
30
0
41
1
10
46.7927492437709
20
-4.59649133385014
30
0
41
1
10
46.7807675960058
20
-4.6141009432618
30
0
41
1
10
46.7556416910511
20
-4.64870887958278
30
0
41
1
10
46.7424904123693
20
-4.66570620154951
30
0
41
1
10
46.7018268760543
20
-4.7150533942837
30
0
41
1
10
46.6440468694896
20
-4.77697398162792
30
0
41
1
10
46.579150426264
20
-4.83115136808468
30
0
41
1
10
46.5448310211935
20
-4.85620407756093
30
0
0
SPLINE
5
110
100
AcDbEntity
8
1
62
256
6
ByLayer
370
13
48
1
60
0
100
AcDbSpline
70
4
71
3
72
8
73
4
40
0
40
0
40
0
40
0
40
1
40
1
40
1
40
1
41
1
10
46.9728996861886
20
-3.97266926248648
30
0
41
1
10
46.9456380670833
20
-3.93004352047143
30
0
41
1
10
46.918376447978
20
-3.88741777845638
30
0
41
1
10
46.8911148288727
20
-3.84479203644133
30
0
0
SPLINE
5
111
100
AcDbEntity
8
1
62
256
6
ByLayer
370
13
48
1
60
0
100
AcDbSpline
70
4
71
3
72
12
73
8
40
0
40
0
40
0
40
0
40
0.12260767696002
40
0.282094872091219
40
0.441582067222419
40
0.760556457484818
40
1
40
1
40
1
40
1
41
1
10
37.9147754565133
20
4.69074796221955
30
0
41
1
10
37.9237826842891
20
4.69422419939838
30
0
41
1
10
37.9440096420188
20
4.70300336378679
30
0
41
1
10
37.9736283530833
20
4.71927566286382
30
0
41
1
10
38.0151521341827
20
4.74815505526263
30
0
41
1
10
38.0572546607658
20
4.78909297706093
30
0
41
1
10
38.0833269734552
20
4.82718241963897
30
0
41
1
10
38.0930331658509
20
4.84430402806765
30
0
0
SPLINE
5
112
100
AcDbEntity
8
1
62
256
6
ByLayer
370
18
48
1
60
0
100
AcDbSpline
70
4
71
3
72
8
73
4
40
0
40
0
40
0
40
0
40
1
40
1
40
1
40
1
41
1
10
25.5932834801506
20
-4.97465827044604
30
0
41
1
10
25.5950979978232
20
-4.97076297126071
30
0
41
1
10
25.5977424876024
20
-4.96687265977567
30
0
41
1
10
25.6009626660921
20
-4.96306786190507
30
0
0
SPLINE
5
113
100
AcDbEntity
8
1
62
256
6
ByLayer
370
13
48
1
60
0
100
AcDbSpline
70
4
71
3
72
12
73
8
40
0
40
0
40
0
40
0
40
0.113341844913009
40
0.274306304203328
40
0.435270763493646
40
0.757199682074283
40
1
40
1
40
1
40
1
41
1
10
25.4171595986055
20
-4.82777903788758
30
0
41
1
10
25.4253761686923
20
-4.83088758312491
30
0
41
1
10
25.4448179627837
20
-4.83906719764104
30
0
41
1
10
25.4737449701195
20
-4.85433290176681
30
0
41
1
10
25.5152679592201
20
-4.88207282076101
30
0
41
1
10
25.5574355412175
20
-4.92145662549154
30
0
41
1
10
25.5835459741373
20
-4.95812813603592
30
0
41
1
10
25.5932834801487
20
-4.97465827044292
30
0
0
SPLINE
5
114
100
AcDbEntity
8
1
62
256
6
ByLayer
370
18
48
1
60
0
100
AcDbSpline
70
4
71
3
72
8
73
4
40
0
40
0
40
0
40
0
40
1
40
1
40
1
40
1
41
1
10
17.0000000000001
20
-4.792602112617
30
0
41
1
10
16.8384783752464
20
-4.80084831260231
30
0
41
1
10
16.6779062842013
20
-4.80617683524389
30
0
41
1
10
16.5183397810505
20
-4.80841544018148
30
0
0
SPLINE
5
115
100
AcDbEntity
8
1
62
256
6
ByLayer
370
18
48
1
60
0
100
AcDbSpline
70
4
71
3
72
14
73
10
40
0
40
0
40
0
40
0
40
0.25
40
0.25
40
0.5
40
0.5
40
0.75
40
0.75
40
1
40
1
40
1
40
1
41
1
10
25.6009626660907
20
-4.96306786190507
30
0
41
1
10
25.5965169777137
20
-4.94334714648002
30
0
41
1
10
25.5924841979242
20
-4.92340362775929
30
0
41
1
10
25.5860702077758
20
-4.88304988582476
30
0
41
1
10
25.583692027938
20
-4.8626405228699
30
0
41
1
10
25.5811501832943
20
-4.82146861028076
30
0
41
1
10
25.5809908614672
20
-4.80070365721596
30
0
41
1
10
25.5830627971439
20
-4.75905283545785
30
0
41
1
10
25.5852991407405
20
-4.73817749237705
30
0
41
1
10
25.5885457446327
20
-4.71737445671658
30
0
0
SPLINE
5
116
100
AcDbEntity
8
1
62
256
6
ByLayer
370
18
48
1
60
0
100
AcDbSpline
70
4
71
3
72
13
73
9
40
0
40
0
40
0
40
0
40
0.114473498793496
40
0.32669462657759
40
0.538915754361683
40
0.751136882145776
40
0.96335800992987
40
1
40
1
40
1
40
1
41
1
10
25.6009626660918
20
-4.96306786190507
30
0
41
1
10
25.6703682468012
20
-4.96296862387169
30
0
41
1
10
25.8684811841285
20
-4.96060275348253
30
0
41
1
10
26.195451852078
20
-4.94687781918771
30
0
41
1
10
26.5819436183736
20
-4.91552415178913
30
0
41
1
10
26.9686127348793
20
-4.86926083013671
30
0
41
1
10
27.2487562652087
20
-4.82510674767647
30
0
41
1
10
27.3999887287564
20
-4.79788335798483
30
0
41
1
10
27.4222564227533
20
-4.79380179772039
30
0
0
SPLINE
5
117
100
AcDbEntity
8
1
62
256
6
ByLayer
370
18
48
1
60
0
100
AcDbSpline
70
4
71
3
72
10
73
6
40
0
40
0
40
0
40
0
40
0.5
40
0.5
40
1
40
1
40
1
40
1
41
1
10
16.3856406460552
20
4.71949398823182
30
0
41
1
10
16.4383315742226
20
4.71832762342623
30
0
41
1
10
16.4901856171568
20
4.72102915325357
30
0
41
1
10
16.5921006975894
20
4.73340092895904
30
0
41
1
10
16.6421618199575
20
4.74307573458358
30
0
41
1
10
16.6912151966286
20
4.7560297774827
30
0
0
SPLINE
5
118
100
AcDbEntity
8
1
62
256
6
ByLayer
370
18
48
1
60
0
100
AcDbSpline
70
4
71
3
72
35
73
31
40
0
40
0
40
0
40
0
40
0.0245187464268339
40
0.0491371362600634
40
0.0738497881222029
40
0.0986513273528676
40
0.123536348764019
40
0.148499440589147
40
0.17353524585188
40
0.198638521352729
40
0.223804171730613
40
0.249027237531943
40
0.327108917193632
40
0.407200647762762
40
0.489137541258116
40
0.572765518445984
40
0.647688787780948
40
0.726732472583867
40
0.809760273248654
40
0.89666067089287
40
0.904745350004023
40
0.913333204590933
40
0.922423029637534
40
0.932013582620649
40
0.942103591528131
40
0.952691763324857
40
0.963776792916926
40
0.97535737264999
40
0.987432202362785
40
1
40
1
40
1
40
1
41
1
10
46.8874205267531
20
-3.93523505023984
30
0
41
1
10
46.8866921796853
20
-3.94528080870032
30
0
41
1
10
46.8852325255704
20
-3.96541315126447
30
0
41
1
10
46.8819330452924
20
-3.99555609146631
30
0
41
1
10
46.8778117567309
20
-4.02569729324026
30
0
41
1
10
46.8727861461939
20
-4.0557968444935
30
0
41
1
10
46.8668769435703
20
-4.08582297295342
30
0
41
1
10
46.8600787919249
20
-4.1157417164091
30
0
41
1
10
46.8523947117239
20
-4.14551981697963
30
0
41
1
10
46.8438269890854
20
-4.17512381733812
30
0
41
1
10
46.8343794187941
20
-4.20452147564666
30
0
41
1
10
46.8168554382924
20
-4.25402601252918
30
0
41
1
10
46.7876365721634
20
-4.32308808624308
30
0
41
1
10
46.7413104290066
20
-4.40943127080587
30
0
41
1
10
46.6858293141874
20
-4.4927211919389
30
0
41
1
10
46.6238669988017
20
-4.56840375844925
30
0
41
1
10
46.5559175102588
20
-4.63688165242758
30
0
41
1
10
46.4820730431145
20
-4.69843560599242
30
0
41
1
10
46.3984403518287
20
-4.75487442423338
30
0
41
1
10
46.3346366048847
20
-4.78853308669906
30
0
41
1
10
46.2964724375085
20
-4.80576145521715
30
0
41
1
10
46.2869328837901
20
-4.80994618001162
30
0
41
1
10
46.2767852845561
20
-4.81426004239401
30
0
41
1
10
46.2660237571164
20
-4.81868161120565
30
0
41
1
10
46.2546427580675
20
-4.82318790606905
30
0
41
1
10
46.242636697782
20
-4.82775435642202
30
0
41
1
10
46.2300007043753
20
-4.83235667432507
30
0
41
1
10
46.2167282348211
20
-4.83696286345179
30
0
41
1
10
46.2028208545348
20
-4.84156519375992
30
0
41
1
10
46.1932970140008
20
-4.84449860606063
30
0
41
1
10
46.188439833033
20
-4.84599465320113
30
0
0
SPLINE
5
119
100
AcDbEntity
8
1
62
256
6
ByLayer
370
18
48
1
60
0
100
AcDbSpline
70
4
71
3
72
8
73
4
40
0
40
0
40
0
40
0
40
1
40
1
40
1
40
1
41
1
10
33.0891440680317
20
-4.46346538121853
30
0
41
1
10
33.08812538333
20
-4.4692042157418
30
0
41
1
10
33.087116821304
20
-4.47494885941649
30
0
41
1
10
33.0861213016222
20
-4.48069918723004
30
0
0
SPLINE
5
11A
100
AcDbEntity
8
1
62
256
6
ByLayer
370
18
48
1
60
0
100
AcDbSpline
70
4
71
3
72
8
73
4
40
0
40
0
40
0
40
0
40
1
40
1
40
1
40
1
41
1
10
33.0923315287441
20
-4.35960489989884
30
0
41
1
10
33.0906515978175
20
-4.39422852199476
30
0
41
1
10
33.0895683978303
20
-4.42886483211552
30
0
41
1
10
33.0891440680319
20
-4.46346538121855
30
0
0
SPLINE
5
11B
100
AcDbEntity
8
1
62
256
6
ByLayer
370
18
48
1
60
0
100
AcDbSpline
70
4
71
3
72
14
73
10
40
0
40
0
40
0
40
0
40
0.0977596589155571
40
0.220377943651401
40
0.465614513123088
40
0.588232797858932
40
0.710851082594776
40
0.956087652066464
40
1
40
1
40
1
40
1
41
1
10
26.6693672508946
20
4.9563107413484
30
0
41
1
10
26.7704440374455
20
4.95229642144443
30
0
41
1
10
26.9983554426819
20
4.9394424621901
30
0
41
1
10
27.4801908133609
20
4.89425535979697
30
0
41
1
10
27.9883608155235
20
4.81458386179128
30
0
41
1
10
28.4971852026157
20
4.70374106453212
30
0
41
1
10
29.0064764211433
20
4.57261932794717
30
0
41
1
10
29.4346619432291
20
4.43696731971573
30
0
41
1
10
29.7357101395525
20
4.32837175385734
30
0
41
1
10
29.7814383830671
20
4.31157613308804
30
0
0
SPLINE
5
11C
100
AcDbEntity
8
1
62
256
6
ByLayer
370
18
48
1
60
0
100
AcDbSpline
70
4
71
3
72
8
73
4
40
0
40
0
40
0
40
0
40
1
40
1
40
1
40
1
41
1
10
46.3734302419329
20
-3.82859009023647
30
0
41
1
10
46.5447703279622
20
-3.86552549801465
30
0
41
1
10
46.716077523122
20
-3.90073929263349
30
0
41
1
10
46.8873694039869
20
-3.93523665695699
30
0
0
SPLINE
5
11D
100
AcDbEntity
8
1
62
256
6
ByLayer
370
18
48
1
60
0
100
AcDbSpline
70
4
71
3
72
12
73
8
40
0
40
0
40
0
40
0
40
0.499999999999992
40
0.499999999999992
40
0.749999999999996
40
0.749999999999996
40
1
40
1
40
1
40
1
41
1
10
46.8874430932122
20
-3.93525149757264
30
0
41
1
10
46.8890250968021
20
-3.92109255367552
30
0
41
1
10
46.8901589273272
20
-3.90644278355185
30
0
41
1
10
46.8911026371125
20
-3.88363904435096
30
0
41
1
10
46.8912888088314
20
-3.87591814777377
30
0
41
1
10
46.8913972289108
20
-3.86043015021505
30
0
41
1
10
46.8913207518891
20
-3.85263595379712
30
0
41
1
10
46.8911148288708
20
-3.8447920364406
30
0
0
SPLINE
5
11E
100
AcDbEntity
8
1
62
256
6
ByLayer
370
18
48
1
60
0
100
AcDbSpline
70
4
71
3
72
45
73
41
40
0
40
0
40
0
40
0
40
0.0625000000000104
40
0.0625000000000104
40
0.125000000000021
40
0.125000000000021
40
0.156250000000026
40
0.156250000000026
40
0.187500000000031
40
0.187500000000031
40
0.25000000000003
40
0.25000000000003
40
0.375000000000027
40
0.375000000000027
40
0.437500000000016
40
0.437500000000016
40
0.500000000000006
40
0.500000000000006
40
0.562499999999995
40
0.562499999999995
40
0.624999999999985
40
0.624999999999985
40
0.687499999999974
40
0.687499999999974
40
0.718749999999969
40
0.718749999999969
40
0.749999999999964
40
0.781249999999959
40
0.781249999999959
40
0.812499999999953
40
0.812499999999953
40
0.874999999999969
40
0.874999999999969
40
0.906249999999977
40
0.906249999999977
40
0.937499999999985
40
0.937499999999985
40
0.968749999999992
40
0.968749999999992
40
1
40
1
40
1
40
1
41
1
10
46.2199139209588
20
-0.24441055800483
30
0
41
1
10
46.218618903723
20
-0.263230806388435
30
0
41
1
10
46.2195465097954
20
-0.281878218410924
30
0
41
1
10
46.2246972185821
20
-0.318877247722185
30
0
41
1
10
46.228932846181
20
-0.337228268250925
30
0
41
1
10
46.2372868258609
20
-0.364545247712101
30
0
41
1
10
46.2404076155687
20
-0.373615786512033
30
0
41
1
10
46.2472650983591
20
-0.391686736567863
30
0
41
1
10
46.2510122144649
20
-0.400709440313591
30
0
41
1
10
46.2630292968337
20
-0.427494386765147
30
0
41
1
10
46.2720422961598
20
-0.44493340302401
30
0
41
1
10
46.3015273631687
20
-0.496152972587169
30
0
41
1
10
46.3244134876479
20
-0.528856719802661
30
0
41
1
10
46.3624110499088
20
-0.575875409983297
30
0
41
1
10
46.375698721026
20
-0.591203314523028
30
0
41
1
10
46.4034172522263
20
-0.621118030187716
30
0
41
1
10
46.4178561770133
20
-0.6357078365061
30
0
41
1
10
46.4475330966848
20
-0.663776917037495
30
0
41
1
10
46.4628027467016
20
-0.677293538262461
30
0
41
1
10
46.4941467248664
20
-0.703106570296342
30
0
41
1
10
46.5102205811282
20
-0.715406380705815
30
0
41
1
10
46.5431572788078
20
-0.738432492646837
30
0
41
1
10
46.5600182636112
20
-0.749166681473469
30
0
41
1
10
46.5859439511589
20
-0.763576636631711
30
0
41
1
10
46.5947125520595
20
-0.768102568939611
30
0
41
1
10
46.6122844831006
20
-0.776351440685232
30
0
41
1
10
46.6299246518724
20
-0.783819005985492
30
0
41
1
10
46.6476758837976
20
-0.789392203139926
30
0
41
1
10
46.6654787439429
20
-0.793803812134627
30
0
41
1
10
46.6744609818631
20
-0.795431719291798
30
0
41
1
10
46.7010094082571
20
-0.798136826479691
30
0
41
1
10
46.7181430580983
20
-0.797046109889351
30
0
41
1
10
46.7431385515285
20
-0.790503653200943
30
0
41
1
10
46.7513450520583
20
-0.787499459953096
30
0
41
1
10
46.7671727017521
20
-0.780120786901648
30
0
41
1
10
46.7748570405215
20
-0.775734265609032
30
0
41
1
10
46.7899203355847
20
-0.765737827848483
30
0
41
1
10
46.7973103080103
20
-0.760119232740152
30
0
41
1
10
46.811886049804
20
-0.747851082897341
30
0
41
1
10
46.8189906097082
20
-0.741274376100449
30
0
41
1
10
46.8259954902522
20
-0.734340168816061
30
0
0
SPLINE
5
11F
100
AcDbEntity
8
1
62
256
6
ByLayer
370
18
48
1
60
0
100
AcDbSpline
70
4
71
3
72
18
73
14
40
0
40
0
40
0
40
0
40
0.25
40
0.25
40
0.375
40
0.375
40
0.5
40
0.5
40
0.75
40
0.75
40
0.875
40
0.875
40
1
40
1
40
1
40
1
41
1
10
44.1909251978897
20
-0.429262953779727
30
0
41
1
10
44.1867992161525
20
-0.396894184532243
30
0
41
1
10
44.1869942976747
20
-0.364313063840484
30
0
41
1
10
44.1918645850823
20
-0.314576501512761
30
0
41
1
10
44.1942893376315
20
-0.297777301199915
30
0
41
1
10
44.200476359725
20
-0.264339322046254
30
0
41
1
10
44.2042324547944
20
-0.247685415039683
30
0
41
1
10
44.2172743448458
20
-0.197836644905237
30
0
41
1
10
44.2283070210666
20
-0.164748438770545
30
0
41
1
10
44.2481395070916
20
-0.115176815882592
30
0
41
1
10
44.2553083084393
20
-0.0986704122178708
30
0
41
1
10
44.2705470967108
20
-0.0661663229705027
30
0
41
1
10
44.2786408063762
20
-0.0501065775626159
30
0
41
1
10
44.2872172995714
20
-0.0342428200869733
30
0
0
SPLINE
5
120
100
AcDbEntity
8
1
62
256
6
ByLayer
370
18
48
1
60
0
100
AcDbSpline
70
4
71
3
72
14
73
10
40
0
40
0
40
0
40
0
40
0.25
40
0.25
40
0.5
40
0.5
40
0.75
40
0.75
40
1
40
1
40
1
40
1
41
1
10
29.826260118857
20
4.54177330256655
30
0
41
1
10
29.8342203609674
20
4.52136055797399
30
0
41
1
10
29.8397879123051
20
4.50083712167384
30
0
41
1
10
29.8455036613876
20
4.46010288707274
30
0
41
1
10
29.8456491797278
20
4.4398904042624
30
0
41
1
10
29.8395936313623
20
4.40046182834294
30
0
41
1
10
29.8333966804439
20
4.38124303555441
30
0
41
1
10
29.813461065019
20
4.34469615677227
30
0
41
1
10
29.7997342231411
20
4.32736273151252
30
0
41
1
10
29.7814383830673
20
4.31157613308795
30
0
0
SPLINE
5
121
100
AcDbEntity
8
1
62
256
6
ByLayer
370
18
48
1
60
0
100
AcDbSpline
70
4
71
3
72
10
73
6
40
0
40
0
40
0
40
0
40
0.5
40
0.5
40
1
40
1
40
1
40
1
41
1
10
29.7814383830671
20
4.31157613308804
30
0
41
1
10
29.7904440611609
20
4.28022218732625
30
0
41
1
10
29.7977526516589
20
4.24861032213045
30
0
41
1
10
29.8083813867275
20
4.18515075671391
30
0
41
1
10
29.8116953416617
20
4.15333173146252
30
0
41
1
10
29.8126239837985
20
4.1216669193216
30
0
0
SPLINE
5
122
100
AcDbEntity
8
1
62
256
6
ByLayer
370
18
48
1
60
0
100
AcDbSpline
70
4
71
3
72
8
73
4
40
0
40
0
40
0
40
0
40
1
40
1
40
1
40
1
41
1
10
29.8126239837985
20
4.12166691932163
30
0
41
1
10
29.8155530199307
20
4.11298579544589
30
0
41
1
10
29.8184119963671
20
4.10428197336847
30
0
41
1
10
29.8211983160994
20
4.09555683043757
30
0
0
SPLINE
5
123
100
AcDbEntity
8
1
62
256
6
ByLayer
370
18
48
1
60
0
100
AcDbSpline
70
4
71
3
72
10
73
6
40
0
40
0
40
0
40
0
40
0.398857969793754
40
0.398857969793754
40
1
40
1
40
1
40
1
41
1
10
45.4064918207011
20
3.01238128919323
30
0
41
1
10
45.4957085555733
20
2.9771458689591
30
0
41
1
10
45.585130563191
20
2.93982816032965
30
0
41
1
10
45.8098102239622
20
2.84135150760414
30
0
41
1
10
45.9453139495329
20
2.77769640297478
30
0
41
1
10
46.0812321158679
20
2.70983720780754
30
0
0
SPLINE
5
124
100
AcDbEntity
8
1
62
256
6
ByLayer
370
18
48
1
60
0
100
AcDbSpline
70
4
71
3
72
8
73
4
40
0
40
0
40
0
40
0
40
1
40
1
40
1
40
1
41
1
10
17.2221498918224
20
-2.24163135033101
30
0
41
1
10
17.1480999278816
20
-2.22394751450437
30
0
41
1
10
17.0740499639408
20
-2.20587511203235
30
0
41
1
10
17
20
-2.18741906198531
30
0
0
SPLINE
5
125
100
AcDbEntity
8
1
62
256
6
ByLayer
370
13
48
1
60
0
100
AcDbSpline
70
4
71
3
72
12
73
8
40
0
40
0
40
0
40
0
40
0.13361579166429
40
0.291592847354221
40
0.449569903044151
40
0.765524014424012
40
1
40
1
40
1
40
1
41
1
10
30.4120196860477
20
3.71832433117035
30
0
41
1
10
30.4219765732345
20
3.72189415739916
30
0
41
1
10
30.4431434256674
20
3.73054701698678
30
0
41
1
10
30.4735855407716
20
3.74647086784964
30
0
41
1
10
30.5151082401445
20
3.77396654134543
30
0
41
1
10
30.5570493605852
20
3.81279446341239
30
0
41
1
10
30.5830254087451
20
3.84885210923642
30
0
41
1
10
30.5926535948126
20
3.86495035900955
30
0
0
SPLINE
5
126
100
AcDbEntity
8
1
62
256
6
ByLayer
370
18
48
1
60
0
100
AcDbSpline
70
4
71
3
72
8
73
4
40
0
40
0
40
0
40
0
40
1
40
1
40
1
40
1
41
1
10
33.0923315287441
20
-4.35960489989884
30
0
41
1
10
33.0941692001362
20
-4.32173022373533
30
0
41
1
10
33.0967203627118
20
-4.28387743587518
30
0
41
1
10
33.0997756382478
20
-4.24610450357275
30
0
0
SPLINE
5
127
100
AcDbEntity
8
1
62
256
6
ByLayer
370
13
48
1
60
0
100
AcDbSpline
70
4
71
3
72
12
73
8
40
0
40
0
40
0
40
0
40
0.141964376414076
40
0.298918804322994
40
0.455873232231911
40
0.769782088049746
40
1
40
1
40
1
40
1
41
1
10
32.9099542317413
20
-4.25767466560819
30
0
41
1
10
32.9206403852967
20
-4.26028429763366
30
0
41
1
10
32.9425274856088
20
-4.26644494017779
30
0
41
1
10
32.9735983098765
20
-4.27772949463395
30
0
41
1
10
33.0151222976604
20
-4.29682123744374
30
0
41
1
10
33.0569019375355
20
-4.32367741833667
30
0
41
1
10
33.0827824702201
20
-4.3485697379113
30
0
41
1
10
33.0923315287398
20
-4.3596048998939
30
0
0
SPLINE
5
128
100
AcDbEntity
8
1
62
256
6
ByLayer
370
18
48
1
60
0
100
AcDbSpline
70
4
71
3
72
14
73
10
40
0
40
0
40
0
40
0
40
0.25
40
0.25
40
0.5
40
0.5
40
0.75
40
0.75
40
1
40
1
40
1
40
1
41
1
10
33.099775638247
20
-4.24610450357244
30
0
41
1
10
33.0953067410048
20
-4.18922897464441
30
0
41
1
10
33.0912650791821
20
-4.13217367313376
30
0
41
1
10
33.0848508493317
20
-4.01767865382763
30
0
41
1
10
33.0824814093641
20
-3.96023949032397
30
0
41
1
10
33.0799743063699
20
-3.84505756250181
30
0
41
1
10
33.079841215609
20
-3.78730491634724
30
0
41
1
10
33.0819863435673
20
-3.67171051580931
30
0
41
1
10
33.0842696552097
20
-3.61389350858917
30
0
41
1
10
33.0875752783585
20
-3.55614907569608
30
0
0
SPLINE
5
129
100
AcDbEntity
8
1
62
256
6
ByLayer
370
18
48
1
60
0
100
AcDbSpline
70
4
71
3
72
17
73
13
40
0
40
0
40
0
40
0
40
0.0709376302528462
40
0.143647275940963
40
0.216356921629079
40
0.289066567317196
40
0.361776213005312
40
0.507195504381545
40
0.579905150069662
40
0.652614795757778
40
0.798034087134011
40
1
40
1
40
1
40
1
41
1
10
33.0997756382481
20
-4.24610450357289
30
0
41
1
10
33.2249458758416
20
-4.29549762098287
30
0
41
1
10
33.4783869598637
20
-4.39080616290627
30
0
41
1
10
33.8599437240405
20
-4.51908486314036
30
0
41
1
10
34.2443285184953
20
-4.6325865374528
30
0
41
1
10
34.6282643657136
20
-4.7299185103434
30
0
41
1
10
35.1394119203597
20
-4.83795193232504
30
0
41
1
10
35.6492535447088
20
-4.91198984691525
30
0
41
1
10
36.1573697001278
20
-4.95221905295753
30
0
41
1
10
36.6641616082257
20
-4.97014752671407
30
0
41
1
10
37.3935773235773
20
-4.94719525954028
30
0
41
1
10
37.9955309921456
20
-4.8647250422249
30
0
41
1
10
38.3461330278449
20
-4.79583425687312
30
0
0
SPLINE
5
12A
100
AcDbEntity
8
1
62
256
6
ByLayer
370
18
48
1
60
0
100
AcDbSpline
70
4
71
3
72
8
73
4
40
0
40
0
40
0
40
0
40
1
40
1
40
1
40
1
41
1
10
45.9728123840975
20
-4.96135772860794
30
0
41
1
10
45.9608855701906
20
-4.96081669501683
30
0
41
1
10
45.9489242188041
20
-4.96028611238529
30
0
41
1
10
45.9369169252097
20
-4.95977198755625
30
0
0
SPLINE
5
12B
100
AcDbEntity
8
1
62
256
6
ByLayer
370
18
48
1
60
0
100
AcDbSpline
70
4
71
3
72
16
73
12
40
0
40
0
40
0
40
0
40
0.499999999999997
40
0.499999999999997
40
0.749999999999999
40
0.749999999999999
40
0.874999999999999
40
0.874999999999999
40
0.9375
40
0.9375
40
1
40
1
40
1
40
1
41
1
10
45.9207770349095
20
-4.95447772013026
30
0
41
1
10
45.9226329538448
20
-4.95543361130928
30
0
41
1
10
45.9246067309003
20
-4.95637976464926
30
0
41
1
10
45.9280911652691
20
-4.95776066367628
30
0
41
1
10
45.9293344040724
20
-4.95821555675616
30
0
41
1
10
45.9315482746881
20
-4.95886984816312
30
0
41
1
10
45.9323442490418
20
-4.95908415437
30
0
41
1
10
45.9337440149266
20
-4.95938238087095
30
0
41
1
10
45.9342441689725
20
-4.95947816627032
30
0
41
1
10
45.9354075983981
20
-4.95965247088947
30
0
41
1
10
45.9360733716378
20
-4.95973586852307
30
0
41
1
10
45.9369169252097
20
-4.95977198755625
30
0
0
SPLINE
5
12C
100
AcDbEntity
8
1
62
256
6
ByLayer
370
18
48
1
60
0
100
AcDbSpline
70
4
71
3
72
18
73
14
40
0
40
0
40
0
40
0
40
0.250000000000019
40
0.250000000000019
40
0.375000000000019
40
0.375000000000019
40
0.500000000000019
40
0.500000000000019
40
0.750000000000018
40
0.750000000000018
40
0.875000000000009
40
0.875000000000009
40
1
40
1
40
1
40
1
41
1
10
46.1723290561423
20
2.65686313557009
30
0
41
1
10
46.1867644324728
20
2.62718041801105
30
0
41
1
10
46.2018423871379
20
2.59550902511472
30
0
41
1
10
46.2253610393026
20
2.5452112586492
30
0
41
1
10
46.2333512054997
20
2.52797920611667
30
0
41
1
10
46.2496259345579
20
2.49260399130281
30
0
41
1
10
46.2579192224087
20
2.47444141980526
30
0
41
1
10
46.2831339309235
20
2.41882985175855
30
0
41
1
10
46.3004070080882
20
2.38022252998559
30
0
41
1
10
46.3269753218183
20
2.32013194737755
30
0
41
1
10
46.335941413101
20
2.29973781245369
30
0
41
1
10
46.3540897601924
20
2.25823426458601
30
0
41
1
10
46.3632780384362
20
2.23711069445838
30
0
41
1
10
46.3725298671906
20
2.21573409776604
30
0
0
SPLINE
5
12D
100
AcDbEntity
8
1
62
256
6
ByLayer
370
18
48
1
60
0
100
AcDbSpline
70
4
71
3
72
8
73
4
40
0
40
0
40
0
40
0
40
1
40
1
40
1
40
1
41
1
10
46.0812321158224
20
2.70983720785134
30
0
41
1
10
46.1116244188819
20
2.69237389744112
30
0
41
1
10
46.1419900150643
20
2.67471550366423
30
0
41
1
10
46.1723290561394
20
2.65686313557077
30
0
0
SPLINE
5
12E
100
AcDbEntity
8
1
62
256
6
ByLayer
370
18
48
1
60
0
100
AcDbSpline
70
4
71
3
72
9
73
5
40
0
40
0
40
0
40
0
40
0.848880674846324
40
1
40
1
40
1
40
1
41
1
10
46.0812321157964
20
2.70983720782419
30
0
41
1
10
45.1374880771976
20
3.1485151143161
30
0
41
1
10
44.0257369600342
20
3.5737652628236
30
0
41
1
10
42.9139858428709
20
3.85025173619988
30
0
41
1
10
42.7459787643063
20
3.88855558783706
30
0
0
SPLINE
5
12F
100
AcDbEntity
8
1
62
256
6
ByLayer
370
18
48
1
60
0
100
AcDbSpline
70
4
71
3
72
8
73
4
40
0
40
0
40
0
40
0
40
1
40
1
40
1
40
1
41
1
10
20.4683915155439
20
-4.02053639649762
30
0
41
1
10
19.3122610103626
20
-4.22035491224415
30
0
41
1
10
18.1561305051813
20
-4.24979826088864
30
0
41
1
10
17
20
-4.09591701366779
30
0
0
SPLINE
5
130
100
AcDbEntity
8
1
62
256
6
ByLayer
370
18
48
1
60
0
100
AcDbSpline
70
4
71
3
72
8
73
4
40
0
40
0
40
0
40
0
40
1
40
1
40
1
40
1
41
1
10
46.0202478925294
20
-2.14509998231441
30
0
41
1
10
46.0285229889445
20
-2.39787436144823
30
0
41
1
10
46.0426805093167
20
-2.65035925079695
30
0
41
1
10
46.0632480162346
20
-2.90252868759734
30
0
0
SPLINE
5
131
100
AcDbEntity
8
1
62
256
6
ByLayer
370
18
48
1
60
0
100
AcDbSpline
70
4
71
3
72
20
73
16
40
0
40
0
40
0
40
0
40
0.125000000000018
40
0.125000000000018
40
0.250000000000035
40
0.250000000000035
40
0.375000000000053
40
0.375000000000053
40
0.437500000000055
40
0.437500000000055
40
0.500000000000058
40
0.500000000000058
40
0.750000000000029
40
0.750000000000029
40
1
40
1
40
1
40
1
41
1
10
44.2516553524129
20
-0.56008079013651
30
0
41
1
10
44.3146185094178
20
-0.636198850565194
30
0
41
1
10
44.3796532158906
20
-0.710937467033659
30
0
41
1
10
44.5133898254151
20
-0.857972715239072
30
0
41
1
10
44.5820926504977
20
-0.930268732995927
30
0
41
1
10
44.7227950407221
20
-1.07266547062602
30
0
41
1
10
44.794795253264
20
-1.14276575939573
30
0
41
1
10
44.9050500743824
20
-1.24641492036901
30
0
41
1
10
44.9422181632056
20
-1.28074883375916
30
0
41
1
10
45.0167768798211
20
-1.34848848938191
30
0
41
1
10
45.0542233225767
20
-1.38194800698977
30
0
41
1
10
45.2422367272544
20
-1.5473272202124
30
0
41
1
10
45.3951259045144
20
-1.67354423876688
30
0
41
1
10
45.704858058187
20
-1.91626890941035
30
0
41
1
10
45.8617088483516
20
-2.03275737322548
30
0
41
1
10
46.0202478925296
20
-2.14509998231441
30
0
0
SPLINE
5
132
100
AcDbEntity
8
1
62
256
6
ByLayer
370
18
48
1
60
0
100
AcDbSpline
70
4
71
3
72
13
73
9
40
0
40
0
40
0
40
0
40
0.499999999999981
40
0.499999999999981
40
0.625000000000004
40
0.625000000000004
40
0.750000000000027
40
1
40
1
40
1
40
1
41
1
10
44.251655352413
20
-0.560080790136425
30
0
41
1
10
44.2354489211115
20
-0.540488346303732
30
0
41
1
10
44.2217781986703
20
-0.519782038714141
30
0
41
1
10
44.2086856569539
20
-0.492137612510305
30
0
41
1
10
44.2062616915005
20
-0.4864984531944
30
0
41
1
10
44.2019040657895
20
-0.475189905711289
30
0
41
1
10
44.1960831708169
20
-0.458151066503689
30
0
41
1
10
44.1924094719137
20
-0.440881910525888
30
0
41
1
10
44.1909251978841
20
-0.429262953777425
30
0
0
SPLINE
5
133
100
AcDbEntity
8
1
62
256
6
ByLayer
370
18
48
1
60
0
100
AcDbSpline
70
4
71
3
72
12
73
8
40
0
40
0
40
0
40
0
40
0.129105783121617
40
0.38637739609994
40
0.643649009078263
40
0.900920622056586
40
1
40
1
40
1
40
1
41
1
10
44.1909251978897
20
-0.429262953779727
30
0
41
1
10
43.8772834652598
20
-0.300941562598552
30
0
41
1
10
42.9386417326299
20
0.0873327866072486
30
0
41
1
10
41.375
20
0.74129294958837
30
0
41
1
10
39.5000000000001
20
1.47105619621132
30
0
41
1
10
38.0093025888176
20
1.97245436683136
30
0
41
1
10
37.143605177635
20
2.21529785691857
30
0
41
1
10
36.9029077664524
20
2.27878165584147
30
0
0
SPLINE
5
134
100
AcDbEntity
8
1
62
256
6
ByLayer
370
18
48
1
60
0
100
AcDbSpline
70
4
71
3
72
8
73
4
40
0
40
0
40
0
40
0
40
1
40
1
40
1
40
1
41
1
10
40.5896617595405
20
-2.98709787409203
30
0
41
1
10
40.5886453730746
20
-2.99722086385052
30
0
41
1
10
40.5876388601816
20
-3.00734799736634
30
0
41
1
10
40.5866451464959
20
-3.01747929725008
30
0
0
SPLINE
5
135
100
AcDbEntity
8
1
62
256
6
ByLayer
370
18
48
1
60
0
100
AcDbSpline
70
4
71
3
72
15
73
11
40
0
40
0
40
0
40
0
40
0.0098410967437235
40
0.124090200965601
40
0.23833930518748
40
0.390671444149984
40
0.543003583112488
40
0.695335722074992
40
0.847667861037496
40
1
40
1
40
1
40
1
41
1
10
29.3086304227733
20
-2.54142008571489
30
0
41
1
10
29.2682536151822
20
-2.53271677365137
30
0
41
1
10
28.7591268075911
20
-2.42108860951686
30
0
41
1
10
27.78125
20
-2.16152558491325
30
0
41
1
10
26.21875
20
-1.62895838836403
30
0
41
1
10
24.5000000000001
20
-0.936555917023782
30
0
41
1
10
22.625
20
-0.100943938729017
30
0
41
1
10
20.7500000000001
20
0.731501356935155
30
0
41
1
10
18.875
20
1.49998366141941
30
0
41
1
10
17.625
20
1.92108803462415
30
0
41
1
10
17
20
2.10079716736141
30
0
0
SPLINE
5
136
100
AcDbEntity
8
1
62
256
6
ByLayer
370
18
48
1
60
0
100
AcDbSpline
70
4
71
3
72
17
73
13
40
0
40
0
40
0
40
0
40
0.137124951676072
40
0.279196545759542
40
0.385750241322145
40
0.492303936884748
40
0.598857632447351
40
0.669893429489086
40
0.776447125051689
40
0.883000820614292
40
0.989554516176895
40
1
40
1
40
1
40
1
41
1
10
39.4347163338759
20
-2.30217621223292
30
0
41
1
10
38.8314775559173
20
-2.15889755920719
30
0
41
1
10
37.6032387779587
20
-1.80935634925109
30
0
41
1
10
35.90625
20
-1.20444444333847
30
0
41
1
10
34.34375
20
-0.57889017621028
30
0
41
1
10
32.9375
20
0.0084777713234416
30
0
41
1
10
31.6875000000001
20
0.529837221877301
30
0
41
1
10
30.4375
20
1.03527420433619
30
0
41
1
10
29.1875000000001
20
1.50842518112631
30
0
41
1
10
27.78125
20
1.97523724524891
30
0
41
1
10
26.7977983273131
20
2.24358914564232
30
0
41
1
10
26.2830966546261
20
2.36322068394253
30
0
41
1
10
26.2371449819391
20
2.37373370444195
30
0
0
SPLINE
5
137
100
AcDbEntity
8
1
62
256
6
ByLayer
370
18
48
1
60
0
100
AcDbSpline
70
4
71
3
72
8
73
4
40
0
40
0
40
0
40
0
40
1
40
1
40
1
40
1
41
1
10
40.5927132047931
20
-2.83117455857442
30
0
41
1
10
40.591118333234
20
-2.88314599092226
30
0
41
1
10
40.590082250796
20
-2.93512864531078
30
0
41
1
10
40.5896617595406
20
-2.98709787409214
30
0
0
SPLINE
5
138
100
AcDbEntity
8
1
62
256
6
ByLayer
370
18
48
1
60
0
100
AcDbSpline
70
4
71
3
72
18
73
14
40
0
40
0
40
0
40
0
40
0.0624999999997551
40
0.0624999999997551
40
0.12499999999951
40
0.12499999999951
40
0.187499999999265
40
0.187499999999265
40
0.24999999999902
40
0.24999999999902
40
0.499999999999342
40
0.499999999999342
40
1
40
1
40
1
40
1
41
1
10
45.9294688320745
20
-4.94812629273298
30
0
41
1
10
45.9290587891587
20
-4.94806143181685
30
0
41
1
10
45.9286045057014
20
-4.94801031123697
30
0
41
1
10
45.9275650214527
20
-4.94799245011143
30
0
41
1
10
45.9269595698164
20
-4.94803876611562
30
0
41
1
10
45.9259195615006
20
-4.94824856392736
30
0
41
1
10
45.9255031444455
20
-4.9483942797149
30
0
41
1
10
45.9248241944009
20
-4.94868905810662
30
0
41
1
10
45.9245476520249
20
-4.94884427293985
30
0
41
1
10
45.9233465783
20
-4.94961458638576
30
0
41
1
10
45.9228463174233
20
-4.95023496241592
30
0
41
1
10
45.9215483191918
20
-4.95207508781101
30
0
41
1
10
45.9211136714459
20
-4.95327904849822
30
0
41
1
10
45.9207770348725
20
-4.95447772013063
30
0
0
SPLINE
5
139
100
AcDbEntity
8
1
62
256
6
ByLayer
370
18
48
1
60
0
100
AcDbSpline
70
4
71
3
72
8
73
4
40
0
40
0
40
0
40
0
40
1
40
1
40
1
40
1
41
1
10
45.9294688320743
20
-4.94812629273295
30
0
41
1
10
45.9428086014245
20
-4.9502363881098
30
0
41
1
10
45.9558439595907
20
-4.95240802224481
30
0
41
1
10
45.9685252347322
20
-4.95465442452888
30
0
0
SPLINE
5
13A
100
AcDbEntity
8
1
62
256
6
ByLayer
370
18
48
1
60
0
100
AcDbSpline
70
4
71
3
72
36
73
32
40
0
40
0
40
0
40
0
40
0.0625000000000591
40
0.0625000000000591
40
0.0937500000001293
40
0.0937500000001293
40
0.1250000000002
40
0.1250000000002
40
0.15625000000027
40
0.15625000000027
40
0.18750000000034
40
0.18750000000034
40
0.203125000000375
40
0.203125000000375
40
0.21875000000041
40
0.21875000000041
40
0.2500000000004
40
0.2500000000004
40
0.281250000000389
40
0.281250000000389
40
0.312500000000378
40
0.312500000000378
40
0.375000000000357
40
0.375000000000357
40
0.500000000000284
40
0.500000000000284
40
0.62500000000021
40
0.62500000000021
40
0.750000000000137
40
0.750000000000137
40
1
40
1
40
1
40
1
41
1
10
45.9685252347375
20
-4.95465442452698
30
0
41
1
10
45.9742789535063
20
-4.95567365696533
30
0
41
1
10
45.9802759718374
20
-4.95658606222483
30
0
41
1
10
45.9899699677057
20
-4.9576669675574
30
0
41
1
10
45.9933195584989
20
-4.9579786141627
30
0
41
1
10
46.0003881721445
20
-4.95845403625108
30
0
41
1
10
46.0040850446574
20
-4.95861611624676
30
0
41
1
10
46.0118338501007
20
-4.95869348699756
30
0
41
1
10
46.0159009508189
20
-4.95860596595384
30
0
41
1
10
46.0241600588236
20
-4.95806040312937
30
0
41
1
10
46.0284428964224
20
-4.95758484670847
30
0
41
1
10
46.0344397184465
20
-4.95659361881229
30
0
41
1
10
46.0364019447927
20
-4.95621312503053
30
0
41
1
10
46.0400851664146
20
-4.95539649875218
30
0
41
1
10
46.0418269612773
20
-4.9549576517386
30
0
41
1
10
46.0468021871758
20
-4.95356538594993
30
0
41
1
10
46.0496710582177
20
-4.95257206058506
30
0
41
1
10
46.0548176923463
20
-4.95053144594223
30
0
41
1
10
46.05710991185
20
-4.94947438197087
30
0
41
1
10
46.0612110118555
20
-4.94737576915978
30
0
41
1
10
46.0630392034641
20
-4.94632585961571
30
0
41
1
10
46.0680812618968
20
-4.94317594299005
30
0
41
1
10
46.0708618501209
20
-4.94107580673128
30
0
41
1
10
46.0782569977762
20
-4.93477861274545
30
0
41
1
10
46.0818895413692
20
-4.93063117725148
30
0
41
1
10
46.0880442489369
20
-4.92243166797155
30
0
41
1
10
46.0905290588017
20
-4.91836917979845
30
0
41
1
10
46.0948351413121
20
-4.91028655994799
30
0
41
1
10
46.0966455001921
20
-4.90626863264671
30
0
41
1
10
46.101406218288
20
-4.89427997304929
30
0
41
1
10
46.1037072562037
20
-4.88636239768678
30
0
41
1
10
46.1055635867129
20
-4.87847878333309
30
0
0
SPLINE
5
13B
100
AcDbEntity
8
1
62
256
6
ByLayer
370
13
48
1
60
0
100
AcDbSpline
70
4
71
3
72
8
73
4
40
0
40
0
40
0
40
0
40
1
40
1
40
1
40
1
41
1
10
46.4782172683353
20
1.86390575560699
30
0
41
1
10
45.7002688102097
20
2.31426519024302
30
0
41
1
10
44.9223203520842
20
2.72752656792821
30
0
41
1
10
44.1443718939587
20
3.08206330870999
30
0
0
SPLINE
5
13C
100
AcDbEntity
8
1
62
256
6
ByLayer
370
13
48
1
60
0
100
AcDbSpline
70
4
71
3
72
8
73
4
40
0
40
0
40
0
40
0
40
1
40
1
40
1
40
1
41
1
10
17.4301976361333
20
-4.39102731120207
30
0
41
1
10
17.2867984240888
20
-4.39583924740379
30
0
41
1
10
17.1433992120444
20
-4.3976969245613
30
0
41
1
10
17
20
-4.39653920067457
30
0
0
SPLINE
5
13D
100
AcDbEntity
8
1
62
256
6
ByLayer
370
18
48
1
60
0
100
AcDbSpline
70
4
71
3
72
45
73
41
40
0
40
0
40
0
40
0
40
0.0984469901005143
40
0.0984469901005143
40
0.14767048515077
40
0.14767048515077
40
0.172282232675896
40
0.172282232675896
40
0.196893980201022
40
0.246117475251274
40
0.246117475251274
40
0.2707292227764
40
0.2707292227764
40
0.295340970301525
40
0.295340970301525
40
0.393787960402036
40
0.393787960402036
40
0.418399707927161
40
0.418399707927161
40
0.443011455452286
40
0.443011455452286
40
0.492234950502537
40
0.492234950502537
40
0.541458445552788
40
0.541458445552788
40
0.56607019307792
40
0.56607019307792
40
0.590681940603052
40
0.590681940603052
40
0.689128930703593
40
0.689128930703593
40
0.787575920804135
40
0.787575920804135
40
0.836799415854406
40
0.836799415854406
40
0.886022910904677
40
0.886022910904677
40
0.984469901005219
40
0.984469901005219
40
1
40
1
40
1
40
1
41
1
10
46.5963649179046
20
4.64384745623755
30
0
41
1
10
46.624841742928
20
4.57158278295455
30
0
41
1
10
46.6480059662109
20
4.49794993772142
30
0
41
1
10
46.6725880479388
20
4.38488303655029
30
0
41
1
10
46.6790763328772
20
4.34675478406842
30
0
41
1
10
46.6858203729214
20
4.28879279612025
30
0
41
1
10
46.6875669566169
20
4.26932187748378
30
0
41
1
10
46.6899558897424
20
4.2305424622902
30
0
41
1
10
46.6919034214817
20
4.17246435514167
30
0
41
1
10
46.6887540596932
20
4.11466982653437
30
0
41
1
10
46.6818915873522
20
4.05708188620508
30
0
41
1
10
46.6789845309823
20
4.03792037719091
30
0
41
1
10
46.6718693034778
20
3.99966974996738
30
0
41
1
10
46.6676432130542
20
3.98051368295376
30
0
41
1
10
46.64330649916
20
3.88574791848183
30
0
41
1
10
46.6139543484904
20
3.81424764930631
30
0
41
1
10
46.5657950159841
20
3.72987686408209
30
0
41
1
10
46.555588857925
20
3.71325329866747
30
0
41
1
10
46.534047261409
20
3.68049892837286
30
0
41
1
10
46.5227434978898
20
3.66442350978201
30
0
41
1
10
46.487690079094
20
3.61754638093038
30
0
41
1
10
46.4626665136773
20
3.58788060857035
30
0
41
1
10
46.4097718522518
20
3.53127789536691
30
0
41
1
10
46.3818996452773
20
3.50434201917835
30
0
41
1
10
46.3382274094156
20
3.46572443272058
30
0
41
1
10
46.3233586901208
20
3.45315023442186
30
0
41
1
10
46.2930373319483
20
3.42856141676759
30
0
41
1
10
46.2775528819936
20
3.41652392942459
30
0
41
1
10
46.1992960055342
20
3.35804505931841
30
0
41
1
10
46.1339060945209
20
3.31649453572908
30
0
41
1
10
45.9991966313563
20
3.24077822473257
30
0
41
1
10
45.929861436239
20
3.20664183420351
30
0
41
1
10
45.8236218639033
20
3.15964069271965
30
0
41
1
10
45.787832186177
20
3.1446811546376
30
0
41
1
10
45.7155874063009
20
3.11601257022269
30
0
41
1
10
45.679152929265
20
3.10231473932498
30
0
41
1
10
45.5697109094394
20
3.06314382171431
30
0
41
1
10
45.4963033892598
20
3.0394723899353
30
0
41
1
10
45.4109151072332
20
3.01426013100655
30
0
41
1
10
45.3992717721164
20
3.01087210980293
30
0
41
1
10
45.3876200573225
20
3.00752996193546
30
0
0
SPLINE
5
13E
100
AcDbEntity
8
1
62
256
6
ByLayer
370
18
48
1
60
0
100
AcDbSpline
70
4
71
3
72
28
73
24
40
0
40
0
40
0
40
0
40
0.0222681330632407
40
0.0939485903146009
40
0.165629047565961
40
0.205949304769851
40
0.237309504817321
40
0.268669704864792
40
0.308989962068682
40
0.380670419320042
40
0.452350876571402
40
0.488191105197082
40
0.524031333822762
40
0.559871562448442
40
0.595711791074123
40
0.667392248325483
40
0.739072705576843
40
0.774912934202523
40
0.810753162828203
40
0.846593391453883
40
0.882433620079564
40
0.954114077330924
40
1
40
1
40
1
40
1
41
1
10
16.9368304908834
20
4.92971849793162
30
0
41
1
10
16.9767932753535
20
4.9261761218267
30
0
41
1
10
17.1453618179111
20
4.91005770201258
30
0
41
1
10
17.4423016507428
20
4.87292210490173
30
0
41
1
10
17.7711951333271
20
4.81721721505318
30
0
41
1
10
18.0276564790966
20
4.76510582176724
30
0
41
1
10
18.2118811243913
20
4.72372406189186
30
0
41
1
10
18.3960142556585
20
4.67891339320485
30
0
41
1
10
18.6520611048343
20
4.61112781900715
30
0
41
1
10
18.9798493459151
20
4.51358524515823
30
0
41
1
10
19.299296277859
20
4.40554857246769
30
0
41
1
10
19.554659062996
20
4.31165323833795
30
0
41
1
10
19.7460855528155
20
4.237554450912
30
0
41
1
10
19.9374162532615
20
4.1598389356142
30
0
41
1
10
20.1923990049304
20
4.05144061753228
30
0
41
1
10
20.5108901627492
20
3.90722099316576
30
0
41
1
10
20.8290374618682
20
3.75202140219241
30
0
41
1
10
21.0833513605334
20
3.62161947184657
30
0
41
1
10
21.2739842443028
20
3.52078207436682
30
0
41
1
10
21.4645108269298
20
3.4169888976852
30
0
41
1
10
21.7184152123378
20
3.27473979723106
30
0
41
1
10
21.9899079446149
20
3.11656074892491
30
0
41
1
10
22.1978027158113
20
2.99073138145559
30
0
41
1
10
22.2789198328689
20
2.94095483308527
30
0
0
SPLINE
5
13F
100
AcDbEntity
8
1
62
256
6
ByLayer
370
18
48
1
60
0
100
AcDbSpline
70
4
71
3
72
28
73
24
40
0
40
0
40
0
40
0
40
0.0108580185030836
40
0.0829458552444786
40
0.155033691985874
40
0.195583100152908
40
0.227121528727269
40
0.258659957301629
40
0.299209365468664
40
0.371297202210059
40
0.443385038951454
40
0.479428957322151
40
0.515472875692849
40
0.551516794063546
40
0.587560712434244
40
0.659648549175639
40
0.731736385917034
40
0.767780304287732
40
0.803824222658429
40
0.839868141029127
40
0.875912059399824
40
0.947999896141219
40
1
40
1
40
1
40
1
41
1
10
16.9991067160533
20
4.89478511638566
30
0
41
1
10
17.0184785564531
20
4.89175925463488
30
0
41
1
10
17.1664483857579
20
4.86815106145895
30
0
41
1
10
17.4428168408848
20
4.8169926885906
30
0
41
1
10
17.7717093350834
20
4.74173901506296
30
0
41
1
10
18.0281719554377
20
4.6744914646921
30
0
41
1
10
18.2123990751946
20
4.62228334031198
30
0
41
1
10
18.3965344432413
20
4.56672299458387
30
0
41
1
10
18.6525810454203
20
4.48415936038654
30
0
41
1
10
18.9803647600052
20
4.36803568898043
30
0
41
1
10
19.2998134421991
20
4.2422987143398
30
0
41
1
10
19.5551782342629
20
4.13450895636086
30
0
41
1
10
19.746606552205
20
4.05012148894912
30
0
41
1
10
19.9379381806683
20
3.96228364960663
30
0
41
1
10
20.1929192197445
20
3.84066325710651
30
0
41
1
10
20.511404821647
20
3.68042117840193
30
0
41
1
10
20.8295538680231
20
3.50985043506273
30
0
41
1
10
21.0838700211936
20
3.36755367829207
30
0
41
1
10
21.2745047055023
20
3.25799344751687
30
0
41
1
10
21.4650324464701
20
3.14570963946628
30
0
41
1
10
21.7189354538903
20
2.99248527622248
30
0
41
1
10
22.0007240924448
20
2.81668369246978
30
0
41
1
10
22.2189029260078
20
2.67588005617296
30
0
41
1
10
22.3103029718536
20
2.61612309547687
30
0
0
SPLINE
5
140
100
AcDbEntity
8
1
62
256
6
ByLayer
370
18
48
1
60
0
100
AcDbSpline
70
4
71
1
72
4
73
2
40
0
40
0
40
1
40
1
41
1
10
16.9999759910464
20
4.88683842967851
30
0
41
1
10
17.0000000000001
20
4.88683720671307
30
0
0
SPLINE
5
141
100
AcDbEntity
8
1
62
256
6
ByLayer
370
18
48
1
60
0
100
AcDbSpline
70
4
71
3
72
17
73
13
40
0
40
0
40
0
40
0
40
0.0047199801292313
40
0.0689315943144422
40
0.165249015592258
40
0.261566436870075
40
0.357883858147891
40
0.486307086518313
40
0.614730314888735
40
0.743153543259156
40
0.871576771629578
40
1
40
1
40
1
40
1
41
1
10
31.600162476774
20
-3.87826239715568
30
0
41
1
10
31.5771916511827
20
-3.88251917480272
30
0
41
1
10
31.2417208255913
20
-3.94377900995903
30
0
41
1
10
30.4374999999999
20
-4.05877832012993
30
0
41
1
10
29.1875
20
-4.1168867856525
30
0
41
1
10
27.78125
20
-4.0173362898903
30
0
41
1
10
26.21875
20
-3.72747446711429
30
0
41
1
10
24.5000000000001
20
-3.19364290637623
30
0
41
1
10
22.625
20
-2.38401617788432
30
0
41
1
10
20.7500000000001
20
-1.40484408465255
30
0
41
1
10
18.875
20
-0.325766686469734
30
0
41
1
10
17.625
20
0.408878272744942
30
0
41
1
10
17
20
0.767647574733957
30
0
0
SPLINE
5
142
100
AcDbEntity
8
1
62
256
6
ByLayer
370
18
48
1
60
0
100
AcDbSpline
70
4
71
3
72
21
73
17
40
0
40
0
40
0
40
0
40
0.0430353126266651
40
0.136169672465176
40
0.229304032303688
40
0.322438392142199
40
0.392289162021082
40
0.462139931899966
40
0.531990701778849
40
0.578557881698105
40
0.648408651576988
40
0.718259421455872
40
0.788110191334755
40
0.881244551173267
40
0.974378911011778
40
1
40
1
40
1
40
1
41
1
10
42.2413957245737
20
-3.89745093610463
30
0
41
1
10
41.9525971497158
20
-3.9629441687992
30
0
41
1
10
41.0387985748579
20
-4.13396016236052
30
0
41
1
10
39.5000000000001
20
-4.21891599135151
30
0
41
1
10
37.6250000000001
20
-3.97493643412474
30
0
41
1
10
35.90625
20
-3.45261613103304
30
0
41
1
10
34.34375
20
-2.77246663600366
30
0
41
1
10
32.9375
20
-2.03341205170645
30
0
41
1
10
31.6875000000001
20
-1.29130632249132
30
0
41
1
10
30.4375
20
-0.508395676338097
30
0
41
1
10
29.1875000000001
20
0.295160750294059
30
0
41
1
10
27.78125
20
1.18568732800728
30
0
41
1
10
26.21875
20
2.11401459780117
30
0
41
1
10
24.5000000000001
20
3.00122340813758
30
0
41
1
10
23.078063663664
20
3.54800916625357
30
0
41
1
10
22.281127327328
20
3.77143841860439
30
0
41
1
10
22.1091909909919
20
3.81566161298673
30
0
0
SPLINE
5
143
100
AcDbEntity
8
1
62
256
6
ByLayer
370
18
48
1
60
0
100
AcDbSpline
70
4
71
3
72
10
73
6
40
0
40
0
40
0
40
0
40
0.499999999999999
40
0.499999999999999
40
1
40
1
40
1
40
1
41
1
10
46.3734302419359
20
-3.82859009024259
30
0
41
1
10
46.3921528450927
20
-3.86928155801485
30
0
41
1
10
46.4090110579346
20
-3.90763790316285
30
0
41
1
10
46.4424403458813
20
-3.97860474526908
30
0
41
1
10
46.4589900024667
20
-4.01123170192523
30
0
41
1
10
46.4764851723196
20
-4.040815661392
30
0
0
SPLINE
5
144
100
AcDbEntity
8
1
62
256
6
ByLayer
370
18
48
1
60
0
100
AcDbSpline
70
4
71
3
72
18
73
14
40
0
40
0
40
0
40
0
40
0.250000000000002
40
0.250000000000002
40
0.500000000000004
40
0.500000000000004
40
0.562500000000002
40
0.562500000000002
40
0.625
40
0.625
40
0.749999999999997
40
0.749999999999997
40
1
40
1
40
1
40
1
41
1
10
46.0632480225015
20
-2.90252868784612
30
0
41
1
10
46.0801073961853
20
-2.99881686574113
30
0
41
1
10
46.0997876294068
20
-3.08982247005287
30
0
41
1
10
46.1438756780533
20
-3.26298044360701
30
0
41
1
10
46.1682936185534
20
-3.3451138452406
30
0
41
1
10
46.2015526221624
20
-3.44265586265652
30
0
41
1
10
46.2083422424777
20
-3.46190617415536
30
0
41
1
10
46.2221950804268
20
-3.49989443694943
30
0
41
1
10
46.229253553651
20
-3.51861599603262
30
0
41
1
10
46.2506408978175
20
-3.57353246498457
30
0
41
1
10
46.2652427763144
20
-3.60865318203287
30
0
41
1
10
46.3100099570209
20
-3.70984551361883
30
0
41
1
10
46.3411311397276
20
-3.77177187411596
30
0
41
1
10
46.3734302419372
20
-3.82859009024381
30
0
0
SPLINE
5
145
100
AcDbEntity
8
1
62
256
6
ByLayer
370
18
48
1
60
0
100
AcDbSpline
70
4
71
3
72
15
73
11
40
0
40
0
40
0
40
0
40
0.075934811410776
40
0.227683355251962
40
0.379431899093147
40
0.531180442934333
40
0.682928986775518
40
0.834677530616704
40
0.986426074457889
40
1
40
1
40
1
40
1
41
1
10
46.0632480239429
20
-2.90252868675302
30
0
41
1
10
45.7504986826286
20
-2.77333923756208
30
0
41
1
10
44.8127493413143
20
-2.35754242114862
30
0
41
1
10
43.25
20
-1.54192157206586
30
0
41
1
10
41.375
20
-0.443365959457765
30
0
41
1
10
39.5000000000001
20
0.690333367585111
30
0
41
1
10
37.6250000000001
20
1.76875932326871
30
0
41
1
10
35.75
20
2.71151774223787
30
0
41
1
10
34.4440936746471
20
3.21963438725291
30
0
41
1
10
33.7631873492942
20
3.43180308055278
30
0
41
1
10
33.7072810239412
20
3.44886310803685
30
0
0
SPLINE
5
146
100
AcDbEntity
8
1
62
256
6
ByLayer
370
18
48
1
60
0
100
AcDbSpline
70
4
71
3
72
8
73
4
40
0
40
0
40
0
40
0
40
1
40
1
40
1
40
1
41
1
10
27.9729997689871
20
-4.38735116201065
30
0
41
1
10
27.937992325847
20
-4.38878745447804
30
0
41
1
10
27.9029848827069
20
-4.39005939264317
30
0
41
1
10
27.8679774395668
20
-4.39116661464053
30
0
0
SPLINE
5
147
100
AcDbEntity
8
1
62
256
6
ByLayer
370
13
48
1
60
0
100
AcDbSpline
70
4
71
3
72
14
73
10
40
0
40
0
40
0
40
0
40
0.0079800901490652
40
0.13737399143397
40
0.309899193147176
40
0.482424394860382
40
0.654949596573588
40
0.827474798286794
40
1
40
1
40
1
40
1
41
1
10
27.8679774397069
20
-4.39116661463609
30
0
41
1
10
27.8390682931379
20
-4.39208095856262
30
0
41
1
10
27.3414091465689
20
-4.40588734413103
30
0
41
1
10
26.21875
20
-4.36180436479097
30
0
41
1
10
24.5
20
-4.04423755998366
30
0
41
1
10
22.625
20
-3.40995986533059
30
0
41
1
10
20.75
20
-2.53356292183781
30
0
41
1
10
18.875
20
-1.47649154644026
30
0
41
1
10
17.625
20
-0.701459076571495
30
0
41
1
10
17
20
-0.31039916143672
30
0
0
SPLINE
5
148
100
AcDbEntity
8
1
62
256
6
ByLayer
370
18
48
1
60
0
100
AcDbSpline
70
4
71
3
72
14
73
10
40
0
40
0
40
0
40
0
40
0.25
40
0.25
40
0.5
40
0.5
40
0.75
40
0.75
40
1
40
1
40
1
40
1
41
1
10
22.3237638850669
20
3.51098823380283
30
0
41
1
10
22.3317408844344
20
3.46223320169287
30
0
41
1
10
22.3373364265036
20
3.41343202329006
30
0
41
1
10
22.3431166131581
20
3.31619273023381
30
0
41
1
10
22.343299422464
20
3.26775309138745
30
0
41
1
10
22.3372968417251
20
3.17182636104911
30
0
41
1
10
22.3311161053373
20
3.124336731125
30
0
41
1
10
22.3111390890548
20
3.03108805438347
30
0
41
1
10
22.2973542499811
20
2.98532413892662
30
0
41
1
10
22.2789198328699
20
2.94095483308465
30
0
0
SPLINE
5
149
100
AcDbEntity
8
1
62
256
6
ByLayer
370
18
48
1
60
0
100
AcDbSpline
70
4
71
3
72
10
73
6
40
0
40
0
40
0
40
0
40
0.5
40
0.5
40
1
40
1
40
1
40
1
41
1
10
22.2789198328696
20
2.94095483308482
30
0
41
1
10
22.2879609013657
20
2.88718831888474
30
0
41
1
10
22.2953083270858
20
2.83315416760703
30
0
41
1
10
22.3060091007217
20
2.72472579147805
30
0
41
1
10
22.3093562194881
20
2.67038132034563
30
0
41
1
10
22.3103029718532
20
2.61612309547712
30
0
0
SPLINE
5
14A
100
AcDbEntity
8
1
62
256
6
ByLayer
370
18
48
1
60
0
100
AcDbSpline
70
4
71
3
72
8
73
4
40
0
40
0
40
0
40
0
40
1
40
1
40
1
40
1
41
1
10
22.3103029718532
20
2.61612309547715
30
0
41
1
10
22.3132449601651
20
2.60291396498067
30
0
41
1
10
22.3161170157603
20
2.589683416442
30
0
41
1
10
22.3189164986012
20
2.57643263205421
30
0
0
SPLINE
5
14B
100
AcDbEntity
8
1
62
256
6
ByLayer
370
18
48
1
60
0
100
AcDbSpline
70
4
71
3
72
24
73
20
40
0
40
0
40
0
40
0
40
0.249999999999971
40
0.249999999999971
40
0.37499999999996
40
0.37499999999996
40
0.49999999999995
40
0.49999999999995
40
0.562499999999946
40
0.562499999999946
40
0.624999999999941
40
0.624999999999941
40
0.749999999999941
40
0.749999999999941
40
0.812499999999942
40
0.812499999999942
40
0.874999999999942
40
0.874999999999942
40
1
40
1
40
1
40
1
41
1
10
46.4764851723196
20
-4.040815661392
30
0
41
1
10
46.4812267044532
20
-4.0488334900715
30
0
41
1
10
46.4852841969732
20
-4.05807644854102
30
0
41
1
10
46.4898559561188
20
-4.07437032537055
30
0
41
1
10
46.4911239772818
20
-4.08021091336335
30
0
41
1
10
46.4929733862303
20
-4.09292710784499
30
0
41
1
10
46.4935353782386
20
-4.09967958867452
30
0
41
1
10
46.4936824661994
20
-4.11048687566992
30
0
41
1
10
46.4936149869013
20
-4.11420439611328
30
0
41
1
10
46.4932094237415
20
-4.12189887915835
30
0
41
1
10
46.4928683277119
20
-4.12588735785781
30
0
41
1
10
46.4914098660587
20
-4.13799644042425
30
0
41
1
10
46.4898597583849
20
-4.14634199289424
30
0
41
1
10
46.4864977205325
20
-4.15931320734268
30
0
41
1
10
46.4851926103966
20
-4.16374433516299
30
0
41
1
10
46.4822438232065
20
-4.17262104499508
30
0
41
1
10
46.4806181602428
20
-4.17701959959652
30
0
41
1
10
46.4753006172173
20
-4.19009729211328
30
0
41
1
10
46.4711707127068
20
-4.19865920059357
30
0
41
1
10
46.4664666250635
20
-4.20706227757614
30
0
0
SPLINE
5
14C
100
AcDbEntity
8
1
62
256
6
ByLayer
370
13
48
1
60
0
100
AcDbSpline
70
4
71
3
72
15
73
11
40
0
40
0
40
0
40
0
40
0.103359445106427
40
0.246756474940323
40
0.39015350477422
40
0.533550534608117
40
0.676947564442014
40
0.820344594275911
40
0.963741624109807
40
1
40
1
40
1
40
1
41
1
10
46.4764851723152
20
-4.04081566139087
30
0
41
1
10
46.0259901148768
20
-3.92419130510803
30
0
41
1
10
44.9504950574384
20
-3.58014634679438
30
0
41
1
10
43.25
20
-2.8139180199133
30
0
41
1
10
41.375
20
-1.75008227302328
30
0
41
1
10
39.5
20
-0.548781033665392
30
0
41
1
10
37.625
20
0.692571782429923
30
0
41
1
10
35.75
20
1.88362683371801
30
0
41
1
10
34.3419668457735
20
2.66567861595035
30
0
41
1
10
33.5589336915469
20
3.04135674029189
30
0
41
1
10
33.4009005373204
20
3.11458841924363
30
0
0
SPLINE
5
14D
100
AcDbEntity
8
1
62
256
6
ByLayer
370
18
48
1
60
0
100
AcDbSpline
70
4
71
3
72
18
73
14
40
0
40
0
40
0
40
0
40
0.0716487576131536
40
0.187720990954658
40
0.274775165960786
40
0.361829340966915
40
0.448883515973043
40
0.506919632643795
40
0.593973807649924
40
0.681027982656052
40
0.768082157662181
40
0.884154391003685
40
1
40
1
40
1
40
1
41
1
10
38.7823949829104
20
-4.39065116869904
30
0
41
1
10
38.3965966552737
20
-4.40430554680265
30
0
41
1
10
37.3857983276368
20
-4.37974801328895
30
0
41
1
10
35.90625
20
-4.11109592455287
30
0
41
1
10
34.34375
20
-3.58421508436425
30
0
41
1
10
32.9375
20
-2.94203213336283
30
0
41
1
10
31.6875
20
-2.25138780759417
30
0
41
1
10
30.4374999999999
20
-1.48535935669778
30
0
41
1
10
29.1875
20
-0.665371134004346
30
0
41
1
10
27.78125
20
0.288284050643369
30
0
41
1
10
26.21875
20
1.3329419341029
30
0
41
1
10
24.501220276475
20
2.39994363251114
30
0
41
1
10
23.25244055295
20
3.04433098823958
30
0
41
1
10
22.6286608294249
20
3.32021264659125
30
0
0
SPLINE
5
14E
100
AcDbEntity
8
1
62
256
6
ByLayer
370
18
48
1
60
0
100
AcDbSpline
70
4
71
3
72
14
73
10
40
0
40
0
40
0
40
0
40
0.499999999999957
40
0.499999999999957
40
0.624999999999968
40
0.624999999999968
40
0.749999999999978
40
0.749999999999978
40
1
40
1
40
1
40
1
41
1
10
45.4169454896981
20
4.70613763250563
30
0
41
1
10
45.4515866949945
20
4.72971412399764
30
0
41
1
10
45.4833025746812
20
4.75753871990955
30
0
41
1
10
45.5192113458694
20
4.7976704866991
30
0
41
1
10
45.5262024540564
20
4.80597046265706
30
0
41
1
10
45.5397865423447
20
4.82314212588761
30
0
41
1
10
45.5463966847734
20
4.83203889547039
30
0
41
1
10
45.5654410994531
20
4.85946012056499
30
0
41
1
10
45.5770642956137
20
4.87866615774152
30
0
41
1
10
45.5875083077528
20
4.89889686020538
30
0
0
SPLINE
5
14F
100
AcDbEntity
8
1
62
256
6
ByLayer
370
18
48
1
60
0
100
AcDbSpline
70
4
71
3
72
28
73
24
40
0
40
0
40
0
40
0
40
0.124999999999955
40
0.124999999999955
40
0.187499999999932
40
0.187499999999932
40
0.249999999999909
40
0.249999999999909
40
0.374999999999818
40
0.374999999999818
40
0.437499999999773
40
0.437499999999773
40
0.499999999999727
40
0.499999999999727
40
0.531249999999726
40
0.531249999999726
40
0.562499999999724
40
0.562499999999724
40
0.624999999999764
40
0.624999999999764
40
0.749999999999843
40
0.749999999999843
40
1
40
1
40
1
40
1
41
1
10
45.4169454896981
20
4.70613763250563
30
0
41
1
10
45.3936899435262
20
4.69031011779393
30
0
41
1
10
45.3696877779219
20
4.67681736704515
30
0
41
1
10
45.3325799112987
20
4.66018204705441
30
0
41
1
10
45.3200277402867
20
4.65523358439481
30
0
41
1
10
45.2945432523185
20
4.64661008562604
30
0
41
1
10
45.281557566903
20
4.64293114238026
30
0
41
1
10
45.2423565341565
20
4.63407699006967
30
0
41
1
10
45.2161858615324
20
4.63106848392042
30
0
41
1
10
45.1769464386428
20
4.63156424037209
30
0
41
1
10
45.1638570659937
20
4.63256357120741
30
0
41
1
10
45.1377486917711
20
4.63644800776879
30
0
41
1
10
45.1249804756657
20
4.63930277901247
30
0
41
1
10
45.1062811943034
20
4.64500071615981
30
0
41
1
10
45.1001253852332
20
4.64714184172087
30
0
41
1
10
45.0879717771684
20
4.65191384161267
30
0
41
1
10
45.0819753984995
20
4.65454903142415
30
0
41
1
10
45.0639523120811
20
4.6623011730193
30
0
41
1
10
45.0519283412208
20
4.66738568850818
30
0
41
1
10
45.0158988815936
20
4.68261221110981
30
0
41
1
10
44.9919215905071
20
4.69268030069017
30
0
41
1
10
44.920088376995
20
4.72255230354961
30
0
41
1
10
44.8723402652959
20
4.74205367521705
30
0
41
1
10
44.8247229277486
20
4.76113199362226
30
0
0
SPLINE
5
150
100
AcDbEntity
8
1
62
256
6
ByLayer
370
18
48
1
60
0
100
AcDbSpline
70
4
71
3
72
20
73
16
40
0
40
0
40
0
40
0
40
0.0438628293626066
40
0.0438628293626066
40
0.163379975692282
40
0.163379975692282
40
0.282897122021957
40
0.282897122021957
40
0.521931414681309
40
0.521931414681309
40
0.76096570734066
40
0.76096570734066
40
0.88048285367033
40
0.88048285367033
40
1
40
1
40
1
40
1
41
1
10
42.4096295291464
20
3.96586113261213
30
0
41
1
10
42.4449967389392
20
3.98122014728523
30
0
41
1
10
42.4803755051072
20
3.99643219191716
30
0
41
1
10
42.6122023061396
20
4.05254133041822
30
0
41
1
10
42.7086340000875
20
4.09244187715947
30
0
41
1
10
42.9012519672314
20
4.16979859783996
30
0
41
1
10
42.9974828666322
20
4.20727389646467
30
0
41
1
10
43.2860164015219
20
4.31605097501989
30
0
41
1
10
43.4781563768635
20
4.38370811371641
30
0
41
1
10
43.8624196387325
20
4.50902917594615
30
0
41
1
10
44.054544180764
20
4.56669013237428
30
0
41
1
10
44.3430532352058
20
4.64545942095589
30
0
41
1
10
44.439276713408
20
4.67042920090952
30
0
41
1
10
44.6318883360437
20
4.71775610857333
30
0
41
1
10
44.7283458157814
20
4.74012800712163
30
0
41
1
10
44.8247229277486
20
4.76113199362206
30
0
0
SPLINE
5
151
100
AcDbEntity
8
1
62
256
6
ByLayer
370
18
48
1
60
0
100
AcDbSpline
70
4
71
3
72
14
73
10
40
0
40
0
40
0
40
0
40
0.500000000000057
40
0.500000000000057
40
0.625000000000023
40
0.625000000000023
40
0.749999999999989
40
0.749999999999989
40
1
40
1
40
1
40
1
41
1
10
25.4171595986058
20
-4.82777903788769
30
0
41
1
10
25.4517806697402
20
-4.84402812972368
30
0
41
1
10
25.4834772669828
20
-4.86488605833981
30
0
41
1
10
25.5193636176165
20
-4.89674130248542
30
0
41
1
10
25.5263503341074
20
-4.90340821851456
30
0
41
1
10
25.5399258391537
20
-4.91736034664416
30
0
41
1
10
25.5465317654971
20
-4.92466639560092
30
0
41
1
10
25.5655644585308
20
-4.94742701929684
30
0
41
1
10
25.5771802141953
20
-4.96368030697917
30
0
41
1
10
25.5876175233796
20
-4.98113293339469
30
0
0
SPLINE
5
152
100
AcDbEntity
8
1
62
256
6
ByLayer
370
18
48
1
60
0
100
AcDbSpline
70
4
71
3
72
28
73
24
40
0
40
0
40
0
40
0
40
0.124999999999942
40
0.124999999999942
40
0.187499999999935
40
0.187499999999935
40
0.249999999999927
40
0.249999999999927
40
0.374999999999913
40
0.374999999999913
40
0.437499999999882
40
0.437499999999882
40
0.499999999999852
40
0.499999999999852
40
0.531249999999838
40
0.531249999999838
40
0.562499999999823
40
0.562499999999823
40
0.624999999999836
40
0.624999999999836
40
0.749999999999905
40
0.749999999999905
40
1
40
1
40
1
40
1
41
1
10
25.4171595986058
20
-4.82777903788769
30
0
41
1
10
25.3939074334095
20
-4.81686584094496
30
0
41
1
10
25.3699079894223
20
-4.80833039125551
30
0
41
1
10
25.332803002361
20
-4.79921866207081
30
0
41
1
10
25.3202515949808
20
-4.79679255985579
30
0
41
1
10
25.2947682523489
20
-4.79324903800003
30
0
41
1
10
25.2817829783468
20
-4.79213798164463
30
0
41
1
10
25.2425821717182
20
-4.79098196430519
30
0
41
1
10
25.2164108801565
20
-4.79304262437654
30
0
41
1
10
25.1771692954248
20
-4.80106701367041
30
0
41
1
10
25.1640791285415
20
-4.80456579468978
30
0
41
1
10
25.1379681828111
20
-4.81341678709029
30
0
41
1
10
25.1251987117441
20
-4.8186908304319
30
0
41
1
10
25.1064975290668
20
-4.82792172109106
30
0
41
1
10
25.1003410534154
20
-4.8312239815869
30
0
41
1
10
25.0881862143525
20
-4.83828587414288
30
0
41
1
10
25.0821897068058
20
-4.84205086124655
30
0
41
1
10
25.0641671239867
20
-4.85321148871137
30
0
41
1
10
25.0521433683151
20
-4.86058083431419
30
0
41
1
10
25.0161143425987
20
-4.8826832859985
30
0
41
1
10
24.9921372117101
20
-4.89736784891522
30
0
41
1
10
24.9203040001895
20
-4.94119140236572
30
0
41
1
10
24.8725552958272
20
-4.97012796104227
30
0
41
1
10
24.8249369307585
20
-4.99877356398926
30
0
0
SPLINE
5
153
100
AcDbEntity
8
1
62
256
6
ByLayer
370
18
48
1
60
0
100
AcDbSpline
70
4
71
3
72
9
73
5
40
0
40
0
40
0
40
0
40
0.908052797900709
40
1
40
1
40
1
40
1
41
1
10
46.5963649173235
20
4.64384745634098
30
0
41
1
10
45.4809099448823
20
4.59059537780914
30
0
41
1
10
44.252506734166
20
4.33617297994314
30
0
41
1
10
43.0241035234497
20
3.89407416925365
30
0
41
1
10
42.9111552851746
20
3.85190299092835
30
0
0
SPLINE
5
154
100
AcDbEntity
8
1
62
256
6
ByLayer
370
18
48
1
60
0
100
AcDbSpline
70
4
71
3
72
8
73
4
40
0
40
0
40
0
40
0
40
1
40
1
40
1
40
1
41
1
10
46.5139898206946
20
4.86469455369905
30
0
41
1
10
46.5401632847845
20
4.7906048008555
30
0
41
1
10
46.5675674634573
20
4.71696910989604
30
0
41
1
10
46.5963649141708
20
4.64384745480515
30
0
0
SPLINE
5
155
100
AcDbEntity
8
1
62
256
6
ByLayer
370
18
48
1
60
0
100
AcDbSpline
70
4
71
3
72
16
73
12
40
0
40
0
40
0
40
0
40
0.25
40
0.25
40
0.5
40
0.5
40
0.625
40
0.625
40
0.75
40
0.75
40
1
40
1
40
1
40
1
41
1
10
46.0867974275532
20
4.95773116607282
30
0
41
1
10
46.1227330450237
20
4.95863730176268
30
0
41
1
10
46.1586461795362
20
4.9576046274239
30
0
41
1
10
46.2305064232992
20
4.95138757057094
30
0
41
1
10
46.2664532154838
20
4.94620530011051
30
0
41
1
10
46.3204658519636
20
4.93492933860514
30
0
41
1
10
46.3385359226607
20
4.93056922234049
30
0
41
1
10
46.3743681869148
20
4.92068404638613
30
0
41
1
10
46.3921485175737
20
4.91515889055657
30
0
41
1
10
46.4450796225833
20
4.89676454851983
30
0
41
1
10
46.47982293897
20
4.882087298957
30
0
41
1
10
46.5139898206945
20
4.86469455369934
30
0
0
SPLINE
5
156
100
AcDbEntity
8
1
62
256
6
ByLayer
370
18
48
1
60
0
100
AcDbSpline
70
4
71
3
72
8
73
4
40
0
40
0
40
0
40
0
40
1
40
1
40
1
40
1
41
1
10
45.5875083077528
20
4.89889686020541
30
0
41
1
10
45.753963879381
20
4.92268115012712
30
0
41
1
10
45.9203456759916
20
4.94230543956309
30
0
41
1
10
46.0867974275536
20
4.95773116607404
30
0
0
SPLINE
5
157
100
AcDbEntity
8
1
62
256
6
ByLayer
370
18
48
1
60
0
100
AcDbSpline
70
4
71
3
72
8
73
4
40
0
40
0
40
0
40
0
40
1
40
1
40
1
40
1
41
1
10
24.8165271355298
20
-4.99701810530453
30
0
41
1
10
24.8194004009616
20
-4.99761929968508
30
0
41
1
10
24.8222044904956
20
-4.99820406743498
30
0
41
1
10
24.8249369307586
20
-4.99877356398903
30
0
0
SPLINE
5
158
100
AcDbEntity
8
1
62
256
6
ByLayer
370
13
48
1
60
0
100
AcDbSpline
70
4
71
3
72
12
73
8
40
0
40
0
40
0
40
0
40
0.143763540399912
40
0.300247936762199
40
0.456732333124486
40
0.76970112584906
40
1
40
1
40
1
40
1
41
1
10
22.9095268666079
20
2.1314561007022
30
0
41
1
10
22.9203903489241
20
2.13439285305856
30
0
41
1
10
22.9424524320495
20
2.14128528806234
30
0
41
1
10
22.9736757624466
20
2.15389678129364
30
0
41
1
10
23.0152005069116
20
2.17512932231233
30
0
41
1
10
23.0570272605904
20
2.20502945835327
30
0
41
1
10
23.0829362255065
20
2.23275803402257
30
0
41
1
10
23.0925083355644
20
2.24507519837388
30
0
0
SPLINE
5
159
100
AcDbEntity
8
1
62
256
6
ByLayer
370
13
48
1
60
0
100
AcDbSpline
70
4
71
3
72
12
73
8
40
0
40
0
40
0
40
0
40
0.178632222105701
40
0.409796189641089
40
0.640960157176477
40
0.872124124711864
40
1
40
1
40
1
40
1
41
1
10
36.1760915908773
20
2.52780409025883
30
0
41
1
10
36.6590610605849
20
2.45187303471499
30
0
41
1
10
37.7670305302925
20
2.23494087812159
30
0
41
1
10
39.5000000000001
20
1.75675678734797
30
0
41
1
10
41.375
20
1.11224007409871
30
0
41
1
10
42.9707390998571
20
0.491409908966972
30
0
41
1
10
43.9414781997142
20
0.103735545335837
30
0
41
1
10
44.2872172995714
20
-0.0342428200869733
30
0
0
SPLINE
5
15A
100
AcDbEntity
8
1
62
256
6
ByLayer
370
18
48
1
60
0
100
AcDbSpline
70
4
71
3
72
28
73
24
40
0
40
0
40
0
40
0
40
0.124999999999951
40
0.124999999999951
40
0.249999999999901
40
0.249999999999901
40
0.312499999999897
40
0.312499999999897
40
0.374999999999892
40
0.374999999999892
40
0.499999999999882
40
0.499999999999882
40
0.562499999999878
40
0.562499999999878
40
0.624999999999873
40
0.624999999999873
40
0.749999999999915
40
0.749999999999915
40
0.812499999999936
40
0.812499999999936
40
0.874999999999957
40
0.874999999999957
40
1
40
1
40
1
40
1
41
1
10
44.287217299572
20
-0.0342428200872007
30
0
41
1
10
44.302240103606
20
-0.0064534300121863
30
0
41
1
10
44.3192597944028
20
0.0196884512002384
30
0
41
1
10
44.3568752748061
20
0.0690126176187391
30
0
41
1
10
44.3774761670836
20
0.0921908971719745
30
0
41
1
10
44.4110732098676
20
0.12473689733082
30
0
41
1
10
44.4226749950622
20
0.135158916165551
30
0
41
1
10
44.4463938814309
20
0.154933160511973
30
0
41
1
10
44.4585506132886
20
0.164324233487378
30
0
41
1
10
44.4959011449832
20
0.191049045114653
30
0
41
1
10
44.5219704886676
20
0.206941240617539
30
0
41
1
10
44.5628813265167
20
0.227905529090037
30
0
41
1
10
44.5768299568558
20
0.234410935414957
30
0
41
1
10
44.6049179926373
20
0.246280272276039
30
0
41
1
10
44.6191090631312
20
0.251672391399097
30
0
41
1
10
44.6621259130276
20
0.266280046747312
30
0
41
1
10
44.6913940584418
20
0.273931635669129
30
0
41
1
10
44.7362188584912
20
0.282407634323249
30
0
41
1
10
44.7513480430876
20
0.284735166892546
30
0
41
1
10
44.7817656763297
20
0.288377146640983
30
0
41
1
10
44.7970065913893
20
0.289688560092117
30
0
41
1
10
44.8428360942271
20
0.292167380604241
30
0
41
1
10
44.8735315644486
20
0.291883157816358
30
0
41
1
10
44.9043954787269
20
0.289802287442399
30
0
0
SPLINE
5
15B
100
AcDbEntity
8
1
62
256
6
ByLayer
370
18
48
1
60
0
100
AcDbSpline
70
4
71
3
72
10
73
6
40
0
40
0
40
0
40
0
40
0.5
40
0.5
40
1
40
1
40
1
40
1
41
1
10
24.7860073115713
20
-4.93079902991678
30
0
41
1
10
24.794897523803
20
-4.94192447518245
30
0
41
1
10
24.8020854697962
20
-4.95289397844226
30
0
41
1
10
24.8124824528571
20
-4.97485594069065
30
0
41
1
10
24.8156853989067
20
-4.98583713622236
30
0
41
1
10
24.8165271355298
20
-4.99701810530453
30
0
0
SPLINE
5
15C
100
AcDbEntity
8
1
62
256
6
ByLayer
370
18
48
1
60
0
100
AcDbSpline
70
4
71
3
72
8
73
4
40
0
40
0
40
0
40
0
40
1
40
1
40
1
40
1
41
1
10
40.5927132047748
20
-2.83117455857328
30
0
41
1
10
40.5945648809789
20
-2.77083473924009
30
0
41
1
10
40.597170460316
20
-2.710519600536
30
0
41
1
10
40.6003024280034
20
-2.65026545059286
30
0
0
SPLINE
5
15D
100
AcDbEntity
8
1
62
256
6
ByLayer
370
13
48
1
60
0
100
AcDbSpline
70
4
71
3
72
12
73
8
40
0
40
0
40
0
40
0
40
0.131449468013362
40
0.289803525558229
40
0.448157583103095
40
0.764865698192828
40
1
40
1
40
1
40
1
41
1
10
40.4126153895999
20
-2.79222514505074
30
0
41
1
10
40.4223782645848
20
-2.79316074690038
30
0
41
1
10
40.4433534960735
20
-2.79544618595142
30
0
41
1
10
40.4736283530833
20
-2.79965788527409
30
0
41
1
10
40.5151521341826
20
-2.80697063225841
30
0
41
1
10
40.557100615234
20
-2.81729887338778
30
0
41
1
10
40.5830815479497
20
-2.82689098743893
30
0
41
1
10
40.5927132047717
20
-2.83117455857192
30
0
0
SPLINE
5
15E
100
AcDbEntity
8
1
62
256
6
ByLayer
370
13
48
1
60
0
100
AcDbSpline
70
4
71
3
72
17
73
13
40
0
40
0
40
0
40
0
40
0.052138019307288
40
0.157741605724788
40
0.263345192142288
40
0.368948778559787
40
0.439351169504787
40
0.544954755922287
40
0.650558342339787
40
0.756161928757287
40
0.896966710647286
40
1
40
1
40
1
40
1
41
1
10
25.6807140184519
20
2.53385778721403
30
0
41
1
10
25.9121426789679
20
2.49695295757812
30
0
41
1
10
26.612321339484
20
2.37153516892022
30
0
41
1
10
27.78125
20
2.09503567169659
30
0
41
1
10
29.1875000000001
20
1.6719830430136
30
0
41
1
10
30.4375
20
1.2301286986856
30
0
41
1
10
31.6875000000001
20
0.748792370304358
30
0
41
1
10
32.9375
20
0.243261246016772
30
0
41
1
10
34.34375
20
-0.337367033087162
30
0
41
1
10
35.90625
20
-0.967167212913665
30
0
41
1
10
37.4573410432592
20
-1.53883410410452
30
0
41
1
10
38.5396820865183
20
-1.87675836914872
30
0
41
1
10
38.9970231297775
20
-2.00544799369993
30
0
0
SPLINE
5
15F
100
AcDbEntity
8
1
62
256
6
ByLayer
370
13
48
1
60
0
100
AcDbSpline
70
4
71
3
72
14
73
10
40
0
40
0
40
0
40
0
40
0.162638231580395
40
0.325276463160789
40
0.487914694741184
40
0.650552926321578
40
0.813191157901973
40
0.935169831587269
40
1
40
1
40
1
40
1
41
1
10
17
20
2.23821261337054
30
0
41
1
10
17.625
20
2.0851665132744
30
0
41
1
10
18.875
20
1.71706337518177
30
0
41
1
10
20.7500000000001
20
1.02146099625824
30
0
41
1
10
22.625
20
0.245226563213038
30
0
41
1
10
24.5000000000001
20
-0.555088554619289
30
0
41
1
10
26.21875
20
-1.24304062764182
30
0
41
1
10
27.5616348735425
20
-1.71629627799237
30
0
41
1
10
28.279519747085
20
-1.9358126240902
30
0
41
1
10
28.5286546206275
20
-2.00757670990754
30
0
0
SPLINE
5
160
100
AcDbEntity
8
1
62
256
6
ByLayer
370
18
48
1
60
0
100
AcDbSpline
70
4
71
3
72
8
73
4
40
0
40
0
40
0
40
0
40
1
40
1
40
1
40
1
41
1
10
16.9990812145331
20
-2.05912200865359
30
0
41
1
10
16.9992997747367
20
-2.07127908961237
30
0
41
1
10
16.9996069056925
20
-2.08343357924488
30
0
41
1
10
16.9999999999999
20
-2.09558495086563
30
0
0
SPLINE
5
161
100
AcDbEntity
8
1
62
256
6
ByLayer
370
18
48
1
60
0
100
AcDbSpline
70
4
71
3
72
30
73
26
40
0
40
0
40
0
40
0
40
0.249999999999983
40
0.249999999999983
40
0.374999999999975
40
0.374999999999975
40
0.499999999999967
40
0.499999999999967
40
0.624999999999958
40
0.624999999999958
40
0.687499999999966
40
0.687499999999966
40
0.749999999999973
40
0.749999999999973
40
0.781249999999977
40
0.781249999999977
40
0.812499999999981
40
0.812499999999981
40
0.843749999999985
40
0.843749999999985
40
0.874999999999988
40
0.874999999999988
40
0.937499999999994
40
0.937499999999994
40
1
40
1
40
1
40
1
41
1
10
14.0602165271687
20
-4.47677270456981
30
0
41
1
10
14.0379213530787
20
-4.46921053830411
30
0
41
1
10
14.016188634762
20
-4.4613308839607
30
0
41
1
10
13.9850494003865
20
-4.44878054481157
30
0
41
1
10
13.9749164071422
20
-4.44447388605718
30
0
41
1
10
13.9553757444456
20
-4.43552012612307
30
0
41
1
10
13.9459656366378
20
-4.43087657131665
30
0
41
1
10
13.9285312999824
20
-4.42116757557127
30
0
41
1
10
13.9204167416977
20
-4.41608874750204
30
0
41
1
10
13.9104032888678
20
-4.40789984240973
30
0
41
1
10
13.9074458452043
20
-4.40508204327384
30
0
41
1
10
13.9028981324138
20
-4.39923156289441
30
0
41
1
10
13.9013041401007
20
-4.39623872356745
30
0
41
1
10
13.9009252473315
20
-4.39156743276536
30
0
41
1
10
13.9011521438113
20
-4.39001857111595
30
0
41
1
10
13.9025449670678
20
-4.38695729690244
30
0
41
1
10
13.9037338427093
20
-4.38544511564234
30
0
41
1
10
13.9070990041627
20
-4.38266057510109
30
0
41
1
10
13.9093329538314
20
-4.38134589387033
30
0
41
1
10
13.9145659766425
20
-4.37904638422143
30
0
41
1
10
13.9175822932594
20
-4.37804339328929
30
0
41
1
10
13.9272939938004
20
-4.37547566900966
30
0
41
1
10
13.9345259768286
20
-4.37434716554932
30
0
41
1
10
13.9493868692902
20
-4.372753089995
30
0
41
1
10
13.9569681728406
20
-4.37229545625687
30
0
41
1
10
13.9646360125185
20
-4.3720333938216
30
0
0
SPLINE
5
162
100
AcDbEntity
8
1
62
256
6
ByLayer
370
18
48
1
60
0
100
AcDbSpline
70
4
71
3
72
34
73
30
40
0
40
0
40
0
40
0
40
0.12499999999997
40
0.12499999999997
40
0.24999999999994
40
0.24999999999994
40
0.312499999999925
40
0.312499999999925
40
0.37499999999991
40
0.37499999999991
40
0.406249999999912
40
0.406249999999912
40
0.437499999999914
40
0.499999999999917
40
0.531249999999918
40
0.531249999999918
40
0.56249999999992
40
0.56249999999992
40
0.624999999999932
40
0.624999999999932
40
0.687499999999944
40
0.687499999999944
40
0.749999999999956
40
0.749999999999956
40
0.874999999999978
40
0.874999999999978
40
0.937499999999989
40
0.937499999999989
40
1
40
1
40
1
40
1
41
1
10
13.9646360125185
20
-4.3720333938216
30
0
41
1
10
14.0031616242331
20
-4.37071671062913
30
0
41
1
10
14.0412904789622
20
-4.36863790540483
30
0
41
1
10
14.1164271624872
20
-4.36228528736677
30
0
41
1
10
14.1534426361145
20
-4.35802936519386
30
0
41
1
10
14.2076847788566
20
-4.3490573766455
30
0
41
1
10
14.2253078891088
20
-4.34566440547817
30
0
41
1
10
14.2592929354439
20
-4.33795250839535
30
0
41
1
10
14.2756841062756
20
-4.33362940662576
30
0
41
1
10
14.2992094265348
20
-4.32629605659739
30
0
41
1
10
14.3069018459504
20
-4.32369925408932
30
0
41
1
10
14.3217654537428
20
-4.31824168711927
30
0
41
1
10
14.3431785720737
20
-4.30970137255477
30
0
41
1
10
14.3681829404182
20
-4.29686081773013
30
0
41
1
10
14.3842616526861
20
-4.28608057773241
30
0
41
1
10
14.3943859805809
20
-4.27863121539087
30
0
41
1
10
14.3991670859905
20
-4.27475867450821
30
0
41
1
10
14.4124203713629
20
-4.26292460298282
30
0
41
1
10
14.4198641686555
20
-4.25471619177938
30
0
41
1
10
14.4323601168494
20
-4.23770015243119
30
0
41
1
10
14.4374246627709
20
-4.22886131174423
30
0
41
1
10
14.4454138065627
20
-4.21075084707107
30
0
41
1
10
14.4483109404718
20
-4.20156995758984
30
0
41
1
10
14.4543637530598
20
-4.17366220861646
30
0
41
1
10
14.4549149391654
20
-4.15457096007501
30
0
41
1
10
14.4521140441171
20
-4.12523210795277
30
0
41
1
10
14.4505611491753
20
-4.11532112977525
30
0
41
1
10
14.4464266583207
20
-4.09538952625721
30
0
41
1
10
14.4438451485351
20
-4.08535733848248
30
0
41
1
10
14.4408256590374
20
-4.07525569187305
30
0
0
SPLINE
5
163
100
AcDbEntity
8
1
62
256
6
ByLayer
370
18
48
1
60
0
100
AcDbSpline
70
4
71
3
72
17
73
13
40
0
40
0
40
0
40
0
40
0.249999999999999
40
0.249999999999999
40
0.499999999999998
40
0.499999999999998
40
0.562499999999997
40
0.562499999999997
40
0.624999999999997
40
0.749999999999999
40
0.749999999999999
40
1
40
1
40
1
40
1
41
1
10
14.440825659034
20
-4.07525569187527
30
0
41
1
10
14.2811680257632
20
-3.97207320995975
30
0
41
1
10
14.1318481568433
20
-3.85609689891021
30
0
41
1
10
13.8534741040072
20
-3.5954140997535
30
0
41
1
10
13.7244095167957
20
-3.45073207949071
30
0
41
1
10
13.5754651657274
20
-3.24928775399425
30
0
41
1
10
13.5462691143158
20
-3.20792518233762
30
0
41
1
10
13.4892283150288
20
-3.12322043200666
30
0
41
1
10
13.4060639251892
20
-2.99375175664807
30
0
41
1
10
13.3298625322248
20
-2.85701141233585
30
0
41
1
10
13.1862360455028
20
-2.57364117243483
30
0
41
1
10
13.102137891109
20
-2.37159974697727
30
0
41
1
10
13.0288463101148
20
-2.15535821995482
30
0
0
SPLINE
5
164
100
AcDbEntity
8
1
62
256
6
ByLayer
370
18
48
1
60
0
100
AcDbSpline
70
4
71
3
72
19
73
15
40
0
40
0
40
0
40
0
40
0.250000000000005
40
0.250000000000005
40
0.375000000000004
40
0.375000000000004
40
0.500000000000003
40
0.625000000000003
40
0.625000000000003
40
0.750000000000002
40
0.750000000000002
40
0.875000000000001
40
0.875000000000001
40
1
40
1
40
1
40
1
41
1
10
13.0288463101148
20
-2.15535821995482
30
0
41
1
10
13.0247801120341
20
-2.14336119560059
30
0
41
1
10
13.021990049753
20
-2.13116028234572
30
0
41
1
10
13.0202619245844
20
-2.11247290916492
30
0
41
1
10
13.020103259464
20
-2.10613016708902
30
0
41
1
10
13.020731949581
20
-2.09359099311899
30
0
41
1
10
13.022289886293
20
-2.08119688503297
30
0
41
1
10
13.025791085122
20
-2.06910936959804
30
0
41
1
10
13.0303262192499
20
-2.05718682660188
30
0
41
1
10
13.0331255316949
20
-2.05130606598533
30
0
41
1
10
13.039554426016
20
-2.04013446702621
30
0
41
1
10
13.043202128133
20
-2.03478639298888
30
0
41
1
10
13.0513087630709
20
-2.02453713976587
30
0
41
1
10
13.0557868800494
20
-2.01961872976068
30
0
41
1
10
13.0605998504311
20
-2.01496240424103
30
0
0
SPLINE
5
165
100
AcDbEntity
8
1
62
256
6
ByLayer
370
18
48
1
60
0
100
AcDbSpline
70
4
71
3
72
36
73
32
40
0
40
0
40
0
40
0
40
0.0312500000000089
40
0.0312500000000089
40
0.0625000000000177
40
0.0625000000000177
40
0.12500000000003
40
0.12500000000003
40
0.156250000000034
40
0.156250000000034
40
0.187500000000038
40
0.187500000000038
40
0.25000000000004
40
0.25000000000004
40
0.312500000000042
40
0.312500000000042
40
0.34375000000004
40
0.34375000000004
40
0.375000000000038
40
0.375000000000038
40
0.50000000000003
40
0.50000000000003
40
0.625000000000023
40
0.625000000000023
40
0.750000000000015
40
0.750000000000015
40
0.812500000000011
40
0.812500000000011
40
0.875000000000008
40
0.875000000000008
40
1
40
1
40
1
40
1
41
1
10
13.0605998504311
20
-2.01496240424103
30
0
41
1
10
13.0858788065058
20
-1.9905061871975
30
0
41
1
10
13.112412857357
20
-1.96760981187228
30
0
41
1
10
13.1675267042359
20
-1.92438628096679
30
0
41
1
10
13.1961089927182
20
-1.90406207182448
30
0
41
1
10
13.284454888725
20
-1.84638683536488
30
0
41
1
10
13.3467922396225
20
-1.81230307965157
30
0
41
1
10
13.4442801510633
20
-1.76633341271398
30
0
41
1
10
13.477545771376
20
-1.75184316283261
30
0
41
1
10
13.544492901933
20
-1.72475806221456
30
0
41
1
10
13.5782416523243
20
-1.71212515783239
30
0
41
1
10
13.680209114741
20
-1.67662610005519
30
0
41
1
10
13.7491437214279
20
-1.65614288263498
30
0
41
1
10
13.888558195784
20
-1.62038044761226
30
0
41
1
10
13.9590410181721
20
-1.60511052283817
30
0
41
1
10
14.0657609327445
20
-1.58559026845114
30
0
41
1
10
14.1015010278118
20
-1.57965027357295
30
0
41
1
10
14.1732950166873
20
-1.56884073454671
30
0
41
1
10
14.209402261744
20
-1.56396519713391
30
0
41
1
10
14.3899797326383
20
-1.54221852919795
30
0
41
1
10
14.5341546437165
20
-1.53315424599597
30
0
41
1
10
14.8220493311865
20
-1.52832236583208
30
0
41
1
10
14.9657673961164
20
-1.5326019145966
30
0
41
1
10
15.2528025778325
20
-1.55283683934067
30
0
41
1
10
15.3961190371204
20
-1.56881057436686
30
0
41
1
10
15.6108140187249
20
-1.60082284914591
30
0
41
1
10
15.6824007450308
20
-1.61285509089035
30
0
41
1
10
15.824761340139
20
-1.63937988014465
30
0
41
1
10
15.8956121960211
20
-1.6538815064747
30
0
41
1
10
16.1072154188834
20
-1.70091499611001
30
0
41
1
10
16.2470196272511
20
-1.73697231879709
30
0
41
1
10
16.3856406460553
20
-1.77729545638869
30
0
0
SPLINE
5
166
100
AcDbEntity
8
1
62
256
6
ByLayer
370
18
48
1
60
0
100
AcDbSpline
70
4
71
3
72
39
73
35
40
0
40
0
40
0
40
0
40
0.12499999999999
40
0.12499999999999
40
0.187499999999985
40
0.187499999999985
40
0.21874999999999
40
0.21874999999999
40
0.249999999999996
40
0.281250000000001
40
0.281250000000001
40
0.312500000000007
40
0.312500000000007
40
0.375000000000018
40
0.375000000000018
40
0.406250000000018
40
0.406250000000018
40
0.437500000000018
40
0.437500000000018
40
0.500000000000012
40
0.500000000000012
40
0.531250000000011
40
0.531250000000011
40
0.562500000000011
40
0.562500000000011
40
0.625000000000009
40
0.625000000000009
40
0.687500000000008
40
0.687500000000008
40
0.750000000000006
40
0.750000000000006
40
0.875000000000003
40
0.875000000000003
40
1
40
1
40
1
40
1
41
1
10
13.9268621602619
20
1.61245047505213
30
0
41
1
10
13.9776248146613
20
1.61663640243381
30
0
41
1
10
14.027705572512
20
1.62374423827257
30
0
41
1
10
14.101187763144
20
1.6413943735345
30
0
41
1
10
14.125405090304
20
1.64845745285106
30
0
41
1
10
14.1611753839661
20
1.66141152069713
30
0
41
1
10
14.1729740592629
20
1.66611820281653
30
0
41
1
10
14.1960065472146
20
1.67628456519424
30
0
41
1
10
14.2185510244836
20
1.68723074092847
30
0
41
1
10
14.2400144334917
20
1.6998988739465
30
0
41
1
10
14.2608757051829
20
1.71352261621482
30
0
41
1
10
14.2710522200414
20
1.72085060074934
30
0
41
1
10
14.3002334533392
20
1.74415989731892
30
0
41
1
10
14.3176475702747
20
1.76124512579091
30
0
41
1
10
14.3406708341502
20
1.78918827503614
30
0
41
1
10
14.3478291819171
20
1.79888828493182
30
0
41
1
10
14.3611101567974
20
1.81905609430976
30
0
41
1
10
14.3672448250684
20
1.82956178663773
30
0
41
1
10
14.3837511856334
20
1.86147510510983
30
0
41
1
10
14.3923924016178
20
1.88348470807364
30
0
41
1
10
14.4024312082663
20
1.91737000869273
30
0
41
1
10
14.4052960377181
20
1.92885486999469
30
0
41
1
10
14.4100778205413
20
1.95180626355344
30
0
41
1
10
14.4120022392523
20
1.96328122565899
30
0
41
1
10
14.4165660294756
20
1.99769518949873
30
0
41
1
10
14.4180047062336
20
2.02062287373033
30
0
41
1
10
14.4183981443855
20
2.06641486891519
30
0
41
1
10
14.4173486445079
20
2.08927937300436
30
0
41
1
10
14.4132420515368
20
2.13492268367744
30
0
41
1
10
14.4101981509442
20
2.15752657540077
30
0
41
1
10
14.3987677716441
20
2.22447325051437
30
0
41
1
10
14.3881034130366
20
2.26811028132698
30
0
41
1
10
14.3626381357953
20
2.35384443504526
30
0
41
1
10
14.3478121422586
20
2.3959359577145
30
0
41
1
10
14.3314108219155
20
2.43737278675223
30
0
0
SPLINE
5
167
100
AcDbEntity
8
1
62
256
6
ByLayer
370
18
48
1
60
0
100
AcDbSpline
70
4
71
3
72
27
73
23
40
0
40
0
40
0
40
0
40
0.249999999999999
40
0.249999999999999
40
0.375000000000001
40
0.375000000000001
40
0.437500000000001
40
0.437500000000001
40
0.468750000000002
40
0.468750000000002
40
0.500000000000002
40
0.625000000000001
40
0.625000000000001
40
0.750000000000001
40
0.750000000000001
40
0.875
40
0.875
40
0.90625
40
0.90625
40
0.9375
40
0.9375
40
1
40
1
40
1
40
1
41
1
10
14.3314108219154
20
2.43737278675223
30
0
41
1
10
14.194033926997
20
2.6270627513455
30
0
41
1
10
14.0722225817275
20
2.81379533870003
30
0
41
1
10
13.9111894515909
20
3.08637326535916
30
0
41
1
10
13.86112746328
20
3.17597374195174
30
0
41
1
10
13.791295163015
20
3.30803775787635
30
0
41
1
10
13.7688949826798
20
3.35166912900428
30
0
41
1
10
13.7365956496229
20
3.41646961097618
30
0
41
1
10
13.7260323146513
20
3.43799079970941
30
0
41
1
10
13.7054271164011
20
3.48061977260196
30
0
41
1
10
13.6552011972157
20
3.58619001028279
30
0
41
1
10
13.6112304402391
20
3.68670781703534
30
0
41
1
10
13.5482041775163
20
3.84078352569239
30
0
41
1
10
13.520354650113
20
3.91444588995654
30
0
41
1
10
13.4715067265266
20
4.05465426090967
30
0
41
1
10
13.4505080280016
20
4.12120153625469
30
0
41
1
10
13.4283719272863
20
4.19964132994215
30
0
41
1
10
13.4241508385016
20
4.21509174451339
30
0
41
1
10
13.4161188085658
20
4.24550861117004
30
0
41
1
10
13.4123088231846
20
4.2604725607687
30
0
41
1
10
13.4015252639963
20
4.30448105277105
30
0
41
1
10
13.3951838795403
20
4.3326934348996
30
0
41
1
10
13.3896666351302
20
4.35976782220038
30
0
0
SPLINE
5
168
100
AcDbEntity
8
1
62
256
6
ByLayer
370
18
48
1
60
0
100
AcDbSpline
70
4
71
3
72
14
73
10
40
0
40
0
40
0
40
0
40
0.499999999999986
40
0.499999999999986
40
0.624999999999983
40
0.624999999999983
40
0.749999999999981
40
0.749999999999981
40
1
40
1
40
1
40
1
41
1
10
13.3896666351302
20
4.35976782220038
30
0
41
1
10
13.3856393090993
20
4.37953083732887
30
0
41
1
10
13.387303813707
20
4.39846546284312
30
0
41
1
10
13.3970532776231
20
4.42112793086281
30
0
41
1
10
13.3993879536317
20
4.42561009828123
30
0
41
1
10
13.404846638668
20
4.43447437652929
30
0
41
1
10
13.4079688573258
20
4.43884900303678
30
0
41
1
10
13.4184097702772
20
4.45167882104451
30
0
41
1
10
13.4268299037226
20
4.45988937418102
30
0
41
1
10
13.4366530596574
20
4.46778405670858
30
0
0
SPLINE
5
169
100
AcDbEntity
8
1
62
256
6
ByLayer
370
18
48
1
60
0
100
AcDbSpline
70
4
71
3
72
38
73
34
40
0
40
0
40
0
40
0
40
0.0625000000000006
40
0.0625000000000006
40
0.0937500000000028
40
0.0937500000000028
40
0.109375000000002
40
0.109375000000002
40
0.125000000000001
40
0.125000000000001
40
0.187499999999998
40
0.187499999999998
40
0.249999999999995
40
0.249999999999995
40
0.281249999999991
40
0.281249999999991
40
0.312499999999986
40
0.312499999999986
40
0.374999999999984
40
0.374999999999984
40
0.499999999999978
40
0.499999999999978
40
0.531249999999978
40
0.531249999999978
40
0.562499999999978
40
0.562499999999978
40
0.624999999999979
40
0.624999999999979
40
0.749999999999986
40
0.749999999999986
40
0.874999999999993
40
0.874999999999993
40
1
40
1
40
1
40
1
41
1
10
13.4366530596573
20
4.46778405670858
30
0
41
1
10
13.4652627648805
20
4.49077712955039
30
0
41
1
10
13.5008786717132
20
4.51082789783169
30
0
41
1
10
13.5624292045872
20
4.53774812002038
30
0
41
1
10
13.5843150709471
20
4.54618832676209
30
0
41
1
10
13.6189999217084
20
4.55815675894942
30
0
41
1
10
13.6308976565574
20
4.56203862544467
30
0
41
1
10
13.6551522286571
20
4.56954574773914
30
0
41
1
10
13.6674890623096
20
4.57316595131107
30
0
41
1
10
13.7301392807421
20
4.59066426211933
30
0
41
1
10
13.7833169217449
20
4.60276018627991
30
0
41
1
10
13.8943452626628
20
4.62428896910856
30
0
41
1
10
13.9522094835984
20
4.63371134674887
30
0
41
1
10
14.0418964155818
20
4.64634871928436
30
0
41
1
10
14.0722763836575
20
4.65030745676455
30
0
41
1
10
14.1333640885971
20
4.65772079763732
30
0
41
1
10
14.1641445751215
20
4.66118593031041
30
0
41
1
10
14.2571259623158
20
4.67095975814985
30
0
41
1
10
14.3199634062171
20
4.67665167094756
30
0
41
1
10
14.5106304954078
20
4.69184523340135
30
0
41
1
10
14.640591097476
20
4.69949785025534
30
0
41
1
10
14.8059045567613
20
4.70706402226375
30
0
41
1
10
14.8391125380118
20
4.70847426238109
30
0
41
1
10
14.9058090210465
20
4.71110580083749
30
0
41
1
10
14.9393212924018
20
4.71232767826575
30
0
41
1
10
15.0397834756066
20
4.71571599374093
30
0
41
1
10
15.1068074409008
20
4.71761294236978
30
0
41
1
10
15.3080152861508
20
4.72238429361386
30
0
41
1
10
15.4423342970293
20
4.72435249133719
30
0
41
1
10
15.7112992069051
20
4.72632088703253
30
0
41
1
10
15.8459454871612
20
4.72631656943852
30
0
41
1
10
16.1155545189932
20
4.72439916349924
30
0
41
1
10
16.2505174396907
20
4.72248507147506
30
0
41
1
10
16.3856406460552
20
4.7194939882317
30
0
0
SPLINE
5
16A
100
AcDbEntity
8
1
62
256
6
ByLayer
370
18
48
1
60
0
100
AcDbSpline
70
4
71
3
72
8
73
4
40
0
40
0
40
0
40
0
40
1
40
1
40
1
40
1
41
1
10
46.3725298671901
20
2.21573409776715
30
0
41
1
10
46.5442967868487
20
1.77179429176547
30
0
41
1
10
46.7160305475707
20
1.32764047835718
30
0
41
1
10
46.887749269758
20
0.883404388479619
30
0
0
SPLINE
5
16B
100
AcDbEntity
8
1
62
256
6
ByLayer
370
18
48
1
60
0
100
AcDbSpline
70
4
71
3
72
10
73
6
40
0
40
0
40
0
40
0
40
0.5
40
0.5
40
1
40
1
40
1
40
1
41
1
10
46.3725298671905
20
2.2157340977659
30
0
41
1
10
46.3918776535804
20
2.1615332580119
30
0
41
1
10
46.4091165567424
20
2.10497886932532
30
0
41
1
10
46.4433020990192
20
1.98755017079105
30
0
41
1
10
46.4602206112066
20
1.92668079819461
30
0
41
1
10
46.4782172683329
20
1.86390575560841
30
0
0
SPLINE
5
16C
100
AcDbEntity
8
1
62
256
6
ByLayer
370
18
48
1
60
0
100
AcDbSpline
70
4
71
3
72
22
73
18
40
0
40
0
40
0
40
0
40
0.250000000000022
40
0.250000000000022
40
0.37500000000003
40
0.37500000000003
40
0.500000000000037
40
0.500000000000037
40
0.562500000000036
40
0.562500000000036
40
0.625000000000035
40
0.625000000000035
40
0.750000000000024
40
0.750000000000024
40
0.875000000000012
40
0.875000000000012
40
1
40
1
40
1
40
1
41
1
10
46.4782172683329
20
1.86390575560836
30
0
41
1
10
46.4829295160579
20
1.84746888278048
30
0
41
1
10
46.4869403585888
20
1.83173436866909
30
0
41
1
10
46.491410646666
20
1.80948293932431
30
0
41
1
10
46.4926396047864
20
1.80229311824507
30
0
41
1
10
46.4943989047295
20
1.78847760441838
30
0
41
1
10
46.4949126516365
20
1.78195965885826
30
0
41
1
10
46.4949746265627
20
1.77299833769496
30
0
41
1
10
46.4948772353615
20
1.77014196775195
30
0
41
1
10
46.4944097081876
20
1.76472203210025
30
0
41
1
10
46.4940358195569
20
1.76214828891958
30
0
41
1
10
46.4924748815012
20
1.75508498173193
30
0
41
1
10
46.4908532088502
20
1.75119777421571
30
0
41
1
10
46.4862401040671
20
1.74525560899227
30
0
41
1
10
46.4831892278425
20
1.7432212669994
30
0
41
1
10
46.4759744968523
20
1.74133118272007
30
0
41
1
10
46.4717893715586
20
1.74140849964681
30
0
41
1
10
46.4670398929799
20
1.74242873100363
30
0
0
SPLINE
5
16D
100
AcDbEntity
8
1
62
256
6
ByLayer
370
18
48
1
60
0
100
AcDbSpline
70
4
71
3
72
48
73
44
40
0
40
0
40
0
40
0
40
0.0624999999999867
40
0.0624999999999867
40
0.124999999999973
40
0.124999999999973
40
0.140624999999969
40
0.140624999999969
40
0.156249999999965
40
0.187499999999956
40
0.218749999999947
40
0.218749999999947
40
0.234374999999943
40
0.234374999999943
40
0.249999999999939
40
0.249999999999939
40
0.312499999999918
40
0.312499999999918
40
0.343749999999907
40
0.343749999999907
40
0.359374999999906
40
0.359374999999906
40
0.374999999999904
40
0.374999999999904
40
0.437499999999908
40
0.437499999999908
40
0.46874999999991
40
0.46874999999991
40
0.499999999999912
40
0.499999999999912
40
0.562499999999928
40
0.562499999999928
40
0.624999999999944
40
0.624999999999944
40
0.68749999999996
40
0.68749999999996
40
0.718749999999961
40
0.718749999999961
40
0.749999999999962
40
0.749999999999962
40
0.874999999999981
40
0.874999999999981
40
1
40
1
40
1
40
1
41
1
10
46.6048400442012
20
0.327821414385511
30
0
41
1
10
46.6264685338138
20
0.319944715779656
30
0
41
1
10
46.6449347078168
20
0.312262410546594
30
0
41
1
10
46.6743274437955
20
0.297361316068816
30
0
41
1
10
46.685266790222
20
0.290141731291612
30
0
41
1
10
46.6930415402079
20
0.281479917277466
30
0
41
1
10
46.6942992947678
20
0.279763569866361
30
0
41
1
10
46.6961684077818
20
0.276397906631388
30
0
41
1
10
46.6980128838335
20
0.271440506014869
30
0
41
1
10
46.6961535451129
20
0.263646700977091
30
0
41
1
10
46.6890570590333
20
0.257944342959718
30
0
41
1
10
46.6814770840632
20
0.253881978841292
30
0
41
1
10
46.6785738950148
20
0.252563616446991
30
0
41
1
10
46.6719853688859
20
0.250001171956939
30
0
41
1
10
46.6682881234777
20
0.248754252173342
30
0
41
1
10
46.6480177532648
20
0.242779804340756
30
0
41
1
10
46.6260164981578
20
0.238785024598314
30
0
41
1
10
46.5848324839628
20
0.233902830211093
30
0
41
1
10
46.5697397067477
20
0.23246057499253
30
0
41
1
10
46.545107804788
20
0.23056752364684
30
0
41
1
10
46.536540590561
20
0.229980231004419
30
0
41
1
10
46.5189120967237
20
0.228903841945851
30
0
41
1
10
46.5098461723653
20
0.228413936300569
30
0
41
1
10
46.4633322306192
20
0.226191641349516
30
0
41
1
10
46.4223533270062
20
0.225136716641458
30
0
41
1
10
46.3563565214474
20
0.224423194916881
30
0
41
1
10
46.333598436064
20
0.224331011083706
30
0
41
1
10
46.2867080157219
20
0.224410318137103
30
0
41
1
10
46.2625129659661
20
0.224583054819078
30
0
41
1
10
46.1889015473355
20
0.225448564137253
30
0
41
1
10
46.138260715697
20
0.226483558909223
30
0
41
1
10
46.0345766387522
20
0.229255904707287
30
0
41
1
10
45.9815288786689
20
0.230994575648367
30
0
41
1
10
45.873509807007
20
0.23503427630817
30
0
41
1
10
45.8185361968168
20
0.237335978037208
30
0
41
1
10
45.7348875069628
20
0.241135927951831
30
0
41
1
10
45.7067695926163
20
0.242462523801237
30
0
41
1
10
45.6503577030698
20
0.245212889430462
30
0
41
1
10
45.6220840529367
20
0.246635515846464
30
0
41
1
10
45.4804114020928
20
0.25396195217283
30
0
41
1
10
45.3661140796442
20
0.260495248708679
30
0
41
1
10
45.136183689378
20
0.274497847010394
30
0
41
1
10
45.0205445206178
20
0.28197142392807
30
0
41
1
10
44.9043954787269
20
0.289802287442399
30
0
0
SPLINE
5
16E
100
AcDbEntity
8
1
62
256
6
ByLayer
370
18
48
1
60
0
100
AcDbSpline
70
4
71
3
72
8
73
4
40
0
40
0
40
0
40
0
40
1
40
1
40
1
40
1
41
1
10
38.093033165853
20
4.84430402807152
30
0
41
1
10
38.0948715111725
20
4.85391187998493
30
0
41
1
10
38.0975070963932
20
4.86352330513569
30
0
41
1
10
38.1006956667034
20
4.87321479846864
30
0
0
SPLINE
5
16F
100
AcDbEntity
8
1
62
256
6
ByLayer
370
18
48
1
60
0
100
AcDbSpline
70
4
71
3
72
8
73
4
40
0
40
0
40
0
40
0
40
1
40
1
40
1
40
1
41
1
10
38.093033165853
20
4.84430402807152
30
0
41
1
10
38.0915407511637
20
4.83650413368997
30
0
41
1
10
38.0905724151101
20
4.82870637018763
30
0
41
1
10
38.090178672228
20
4.82086498170742
30
0
0
SPLINE
5
170
100
AcDbEntity
8
1
62
256
6
ByLayer
370
18
48
1
60
0
100
AcDbSpline
70
4
71
3
72
8
73
4
40
0
40
0
40
0
40
0
40
1
40
1
40
1
40
1
41
1
10
45.9287867276472
20
0.845434477211683
30
0
41
1
10
45.9422701922781
20
0.832684930509345
30
0
41
1
10
45.9554106471362
20
0.819608413185193
30
0
41
1
10
45.9681532944025
20
0.806153318463288
30
0
0
SPLINE
5
171
100
AcDbEntity
8
1
62
256
6
ByLayer
370
13
48
1
60
0
100
AcDbSpline
70
4
71
3
72
8
73
4
40
0
40
0
40
0
40
0
40
1
40
1
40
1
40
1
41
1
10
45.9728837913941
20
0.769363112841859
30
0
41
1
10
45.9713069590665
20
0.781626514718539
30
0
41
1
10
45.9697301267389
20
0.793889916595219
30
0
41
1
10
45.9681532944113
20
0.8061533184719
30
0
0
SPLINE
5
172
100
AcDbEntity
8
1
62
256
6
ByLayer
370
18
48
1
60
0
100
AcDbSpline
70
4
71
3
72
25
73
21
40
0
40
0
40
0
40
0
40
0.124999999999998
40
0.124999999999998
40
0.249999999999995
40
0.249999999999995
40
0.312499999999997
40
0.312499999999997
40
0.374999999999999
40
0.374999999999999
40
0.499999999999988
40
0.624999999999976
40
0.624999999999976
40
0.68749999999998
40
0.68749999999998
40
0.749999999999984
40
0.749999999999984
40
0.874999999999992
40
0.874999999999992
40
1
40
1
40
1
40
1
41
1
10
46.9728996861815
20
0.223320930561869
30
0
41
1
10
46.9740649534619
20
0.22788499185998
30
0
41
1
10
46.972444289235
20
0.232648469608478
30
0
41
1
10
46.9640003267725
20
0.242547828660861
30
0
41
1
10
46.9571724697909
20
0.247684036279708
30
0
41
1
10
46.9430523270389
20
0.255665959787422
30
0
41
1
10
46.9376973056719
20
0.258373006657251
30
0
41
1
10
46.9256711981795
20
0.263881304063034
30
0
41
1
10
46.9189761038777
20
0.266690968573727
30
0
41
1
10
46.8971480288643
20
0.275159150843564
30
0
41
1
10
46.8633390019502
20
0.286599582696027
30
0
41
1
10
46.8203494314716
20
0.2983317714083
30
0
41
1
10
46.7845675544206
20
0.307243404268803
30
0
41
1
10
46.7720484198308
20
0.31023275724948
30
0
41
1
10
46.7457853125129
20
0.316250388458229
30
0
41
1
10
46.7321424123762
20
0.319255136992041
30
0
41
1
10
46.6898773088843
20
0.328217904378704
30
0
41
1
10
46.6598505135254
20
0.334141659469736
30
0
41
1
10
46.596076334605
20
0.345885754379481
30
0
41
1
10
46.5623299187384
20
0.351706121095646
30
0
41
1
10
46.5266115078634
20
0.357471675403218
30
0
0
SPLINE
5
173
100
AcDbEntity
8
1
62
256
6
ByLayer
370
18
48
1
60
0
100
AcDbSpline
70
4
71
3
72
12
73
8
40
0
40
0
40
0
40
0
40
0.500000000000009
40
0.500000000000009
40
0.750000000000004
40
0.750000000000004
40
1
40
1
40
1
40
1
41
1
10
46.8878216008941
20
0.883217267926227
30
0
41
1
10
46.8892685110874
20
0.877035587089694
30
0
41
1
10
46.8902975260134
20
0.871872022587951
30
0
41
1
10
46.8911424556813
20
0.865828654094486
30
0
41
1
10
46.8913061051796
20
0.864102732064595
30
0
41
1
10
46.8913902823354
20
0.861282114610248
30
0
41
1
10
46.8913120550476
20
0.860179533811277
30
0
41
1
10
46.8911148288706
20
0.859381312553325
30
0
0
SPLINE
5
174
100
AcDbEntity
8
1
62
256
6
ByLayer
370
18
48
1
60
0
100
AcDbSpline
70
4
71
3
72
35
73
31
40
0
40
0
40
0
40
0
40
0.0247318391182589
40
0.0495635781799758
40
0.0744899748940308
40
0.0995057602059424
40
0.124605650722498
40
0.149784437167222
40
0.17503704103365
40
0.200358490372962
40
0.225743880771625
40
0.251188344221915
40
0.329018252593155
40
0.408821236778308
40
0.49044189801837
40
0.573735034451898
40
0.648422491257425
40
0.72718545675166
40
0.809893858071172
40
0.89644073441978
40
0.904592394296997
40
0.913237063082451
40
0.922373595271582
40
0.932000810959051
40
0.942117503211117
40
0.952722445854562
40
0.963814401732352
40
0.975392131460256
40
0.98745440270648
40
1
40
1
40
1
40
1
41
1
10
46.8877992839693
20
0.88338477279126
30
0
41
1
10
46.887098072558
20
0.884630775367469
30
0
41
1
10
46.8856928173147
20
0.88712781352956
30
0
41
1
10
46.8824466160306
20
0.89106549795946
30
0
41
1
10
46.8783578260529
20
0.895150795725925
30
0
41
1
10
46.8733415322278
20
0.899394412212899
30
0
41
1
10
46.8674186681345
20
0.903789169008661
30
0
41
1
10
46.8605835855356
20
0.908331890583412
30
0
41
1
10
46.852839544392
20
0.913017602260794
30
0
41
1
10
46.8441891795116
20
0.917841109185332
30
0
41
1
10
46.8346365393591
20
0.922796721939278
30
0
41
1
10
46.8170246550048
20
0.931361624631336
30
0
41
1
10
46.7877366067765
20
0.944078902125739
30
0
41
1
10
46.7413718166903
20
0.961659172309851
30
0
41
1
10
46.6858502047016
20
0.980512731391997
30
0
41
1
10
46.6238311488916
20
0.99966687994069
30
0
41
1
10
46.5558090963396
20
1.01899885602623
30
0
41
1
10
46.4818786293817
20
1.03860120793667
30
0
41
1
10
46.3981736774688
20
1.05937765557783
30
0
41
1
10
46.3342880537237
20
1.07421836494854
30
0
41
1
10
46.2960283548229
20
1.08275018306719
30
0
41
1
10
46.2863797977071
20
1.08488052707273
30
0
41
1
10
46.2761308671439
20
1.08712442976633
30
0
41
1
10
46.2652756957823
20
1.08948120288221
30
0
41
1
10
46.2538087567628
20
1.09195074073546
30
0
41
1
10
46.2417244865694
20
1.09453248916714
30
0
41
1
10
46.2290180505727
20
1.09722578397495
30
0
41
1
10
46.2156829320377
20
1.10002940959416
30
0
41
1
10
46.2017207842565
20
1.10294290065014
30
0
41
1
10
46.1921628411068
20
1.10491647467734
30
0
41
1
10
46.1872900051879
20
1.10592264329102
30
0
0
SPLINE
5
175
100
AcDbEntity
8
1
62
256
6
ByLayer
370
18
48
1
60
0
100
AcDbSpline
70
4
71
3
72
10
73
6
40
0
40
0
40
0
40
0
40
0.5
40
0.5
40
1
40
1
40
1
40
1
41
1
10
39.7813910724301
20
-2.11847208158304
30
0
41
1
10
39.7904065812279
20
-2.18227586502155
30
0
41
1
10
39.797726346014
20
-2.24616577572871
30
0
41
1
10
39.8083796391783
20
-2.37430699510125
30
0
41
1
10
39.8117069826281
20
-2.43849805451146
30
0
41
1
10
39.8126497760356
20
-2.50281851345886
30
0
0
SPLINE
5
176
100
AcDbEntity
8
1
62
256
6
ByLayer
370
18
48
1
60
0
100
AcDbSpline
70
4
71
3
72
8
73
4
40
0
40
0
40
0
40
0
40
1
40
1
40
1
40
1
41
1
10
30.5926535948157
20
3.86495035901476
30
0
41
1
10
30.594508947444
20
3.90312077011808
30
0
41
1
10
30.5971186804339
20
3.94128661719512
30
0
41
1
10
30.6002547963684
20
3.97950882488641
30
0
0
SPLINE
5
177
100
AcDbEntity
8
1
62
256
6
ByLayer
370
18
48
1
60
0
100
AcDbSpline
70
4
71
3
72
8
73
4
40
0
40
0
40
0
40
0
40
1
40
1
40
1
40
1
41
1
10
30.5926535948257
20
3.86495035901922
30
0
41
1
10
30.591056770213
20
3.8320986774583
30
0
41
1
10
30.5900182294074
20
3.7992466873502
30
0
41
1
10
30.589594862641
20
3.76635022152476
30
0
0
SPLINE
5
178
100
AcDbEntity
8
1
62
256
6
ByLayer
370
18
48
1
60
0
100
AcDbSpline
70
4
71
3
72
8
73
4
40
0
40
0
40
0
40
0
40
1
40
1
40
1
40
1
41
1
10
23.0925083355685
20
2.24507519837891
30
0
41
1
10
23.0943616657543
20
2.30177884423139
30
0
41
1
10
23.0969254170074
20
2.35847029610628
30
0
41
1
10
23.0999890836099
20
2.41518620178491
30
0
0
SPLINE
5
179
100
AcDbEntity
8
1
62
256
6
ByLayer
370
18
48
1
60
0
100
AcDbSpline
70
4
71
3
72
8
73
4
40
0
40
0
40
0
40
0
40
1
40
1
40
1
40
1
41
1
10
23.0925083355682
20
2.24507519837869
30
0
41
1
10
23.0908124297256
20
2.19318803600314
30
0
41
1
10
23.0897118829172
20
2.14129674449498
30
0
41
1
10
23.0892701821669
20
2.08936864750134
30
0
0
SPLINE
5
17A
100
AcDbEntity
8
1
62
256
6
ByLayer
370
18
48
1
60
0
100
AcDbSpline
70
4
71
3
72
10
73
6
40
0
40
0
40
0
40
0
40
0.5
40
0.5
40
1
40
1
40
1
40
1
41
1
10
32.2793222054754
20
-3.88977465999543
30
0
41
1
10
32.2883513309012
20
-3.93524602898475
30
0
41
1
10
32.2956863946019
20
-3.98067779566711
30
0
41
1
10
32.3063611178375
20
-4.07177140807624
30
0
41
1
10
32.3096945596859
20
-4.11738984560259
30
0
41
1
10
32.3106271060315
20
-4.16320268730118
30
0
0
SPLINE
5
17B
100
AcDbEntity
8
1
62
256
6
ByLayer
370
18
48
1
60
0
100
AcDbSpline
70
4
71
3
72
14
73
10
40
0
40
0
40
0
40
0
40
0.499999999999876
40
0.499999999999876
40
0.624999999999887
40
0.624999999999887
40
0.749999999999897
40
0.749999999999897
40
1
40
1
40
1
40
1
41
1
10
37.9147754565139
20
4.69074796221977
30
0
41
1
10
37.9497342661969
20
4.70125021353945
30
0
41
1
10
37.9817672407505
20
4.71646707503001
30
0
41
1
10
38.018061425772
20
4.74139914516283
30
0
41
1
10
38.025128870849
20
4.74668845299527
30
0
41
1
10
38.0388640847835
20
4.75789998143284
30
0
41
1
10
38.0455491364505
20
4.76383927232004
30
0
41
1
10
38.0648160390015
20
4.78255608080869
30
0
41
1
10
38.0765796952946
20
4.79619294706177
30
0
41
1
10
38.0871509746128
20
4.81112543193314
30
0
0
SPLINE
5
17C
100
AcDbEntity
8
1
62
256
6
ByLayer
370
18
48
1
60
0
100
AcDbSpline
70
4
71
3
72
28
73
24
40
0
40
0
40
0
40
0
40
0.125000000000014
40
0.125000000000014
40
0.187500000000021
40
0.187500000000021
40
0.250000000000028
40
0.250000000000028
40
0.375000000000041
40
0.375000000000041
40
0.437500000000049
40
0.437500000000049
40
0.500000000000056
40
0.500000000000056
40
0.53125000000006
40
0.53125000000006
40
0.562500000000063
40
0.562500000000063
40
0.625000000000073
40
0.625000000000073
40
0.750000000000048
40
0.750000000000048
40
1
40
1
40
1
40
1
41
1
10
37.9147754565139
20
4.69074796221977
30
0
41
1
10
37.8915351357866
20
4.68376615445112
30
0
41
1
10
37.8675613560867
20
4.67907155605849
30
0
41
1
10
37.8305185212809
20
4.67559038807832
30
0
41
1
10
37.8179916570247
20
4.6750198086616
30
0
41
1
10
37.7925648249938
20
4.67514797049111
30
0
41
1
10
37.7796104920812
20
4.67586020250516
30
0
41
1
10
37.7405302147026
20
4.68005515487306
30
0
41
1
10
37.7144419226138
20
4.68549982995253
30
0
41
1
10
37.6753306368779
20
4.69831475136385
30
0
41
1
10
37.6622862314354
20
4.70336344596149
30
0
41
1
10
37.636263595666
20
4.71521123224247
30
0
41
1
10
37.6235329311251
20
4.72190327718889
30
0
41
1
10
37.6048839761392
20
4.73314466642972
30
0
41
1
10
37.598744363849
20
4.73709851328121
30
0
41
1
10
37.5866193839378
20
4.74541845713793
30
0
41
1
10
37.5806277613843
20
4.74976688862776
30
0
41
1
10
37.5626099737367
20
4.76266365676
30
0
41
1
10
37.5505911788063
20
4.77120442193643
30
0
41
1
10
37.5145787873936
20
4.79683688654643
30
0
41
1
10
37.4906132203057
20
4.81389405172453
30
0
41
1
10
37.4188183875004
20
4.86490542110081
30
0
41
1
10
37.3710993792958
20
4.89872279530141
30
0
41
1
10
37.3235141997145
20
4.93233688175238
30
0
0
SPLINE
5
17D
100
AcDbEntity
8
1
62
256
6
ByLayer
370
13
48
1
60
0
100
AcDbSpline
70
4
71
3
72
15
73
11
40
0
40
0
40
0
40
0
40
0.0504472538766222
40
0.188505535045783
40
0.326563816214944
40
0.464622097384105
40
0.602680378553267
40
0.740738659722428
40
0.878796940891589
40
1
40
1
40
1
40
1
41
1
10
45.8101352937154
20
0.860645658801616
30
0
41
1
10
45.5817568624769
20
1.01246108880716
30
0
41
1
10
44.7283784312385
20
1.57448163509312
30
0
41
1
10
43.25
20
2.49624978311783
30
0
41
1
10
41.375
20
3.4778727183643
30
0
41
1
10
39.5000000000001
20
4.20803155740398
30
0
41
1
10
37.625
20
4.62148343895689
30
0
41
1
10
35.75
20
4.7007200635885
30
0
41
1
10
33.9513048308204
20
4.43760216876711
30
0
41
1
10
32.7776096616409
20
4.07783741142674
30
0
41
1
10
32.2289144924612
20
3.87208596415195
30
0
0
SPLINE
5
17E
100
AcDbEntity
8
1
62
256
6
ByLayer
370
18
48
1
60
0
100
AcDbSpline
70
4
71
3
72
8
73
4
40
0
40
0
40
0
40
0
40
1
40
1
40
1
40
1
41
1
10
46.5266115078634
20
0.357471675403218
30
0
41
1
10
46.5515042366455
20
0.3476467363881
30
0
41
1
10
46.5775319179137
20
0.337765709440475
30
0
41
1
10
46.6048400738561
20
0.327821403229308
30
0
0
SPLINE
5
17F
100
AcDbEntity
8
1
62
256
6
ByLayer
370
18
48
1
60
0
100
AcDbSpline
70
4
71
3
72
16
73
12
40
0
40
0
40
0
40
0
40
0.249999999999955
40
0.249999999999955
40
0.49999999999991
40
0.49999999999991
40
0.624999999999917
40
0.624999999999917
40
0.749999999999925
40
0.749999999999925
40
1
40
1
40
1
40
1
41
1
10
46.0859029677461
20
0.66206701770227
30
0
41
1
10
46.1230027363535
20
0.635455471150635
30
0
41
1
10
46.160084064138
20
0.608945841809145
30
0
41
1
10
46.2342998942354
20
0.556276165835669
30
0
41
1
10
46.2714339974781
20
0.530115390943564
30
0
41
1
10
46.3272526629483
20
0.491273046067192
30
0
41
1
10
46.3458967500745
20
0.478380624525443
30
0
41
1
10
46.3828022835204
20
0.453055928198864
30
0
41
1
10
46.4011157471699
20
0.440587212274835
30
0
41
1
10
46.45563481723
20
0.403812704818023
30
0
41
1
10
46.4914219357339
20
0.380134212499968
30
0
41
1
10
46.5266115078634
20
0.35747167540319
30
0
0
SPLINE
5
180
100
AcDbEntity
8
1
62
256
6
ByLayer
370
18
48
1
60
0
100
AcDbSpline
70
4
71
3
72
8
73
4
40
0
40
0
40
0
40
0
40
1
40
1
40
1
40
1
41
1
10
38.090178672228
20
4.82086498170744
30
0
41
1
10
38.0891584115847
20
4.81761312424848
30
0
41
1
10
38.0881481722021
20
4.81436669884738
30
0
41
1
10
38.0871509746128
20
4.81112543193314
30
0
0
SPLINE
5
181
100
AcDbEntity
8
1
62
256
6
ByLayer
370
18
48
1
60
0
100
AcDbSpline
70
4
71
3
72
8
73
4
40
0
40
0
40
0
40
0
40
1
40
1
40
1
40
1
41
1
10
45.972883791394
20
0.76936311284183
30
0
41
1
10
45.9609109089797
20
0.773874278148526
30
0
41
1
10
45.9489069845622
20
0.778302993019253
30
0
41
1
10
45.9368627860721
20
0.782625040653073
30
0
0
SPLINE
5
182
100
AcDbEntity
8
1
62
256
6
ByLayer
370
18
48
1
60
0
100
AcDbSpline
70
4
71
3
72
14
73
10
40
0
40
0
40
0
40
0
40
0.50000000000008
40
0.50000000000008
40
0.62500000000008
40
0.62500000000008
40
0.75000000000008
40
0.75000000000008
40
1
40
1
40
1
40
1
41
1
10
30.412019686049
20
3.71832433117083
30
0
41
1
10
30.4473330618537
20
3.71359979149972
30
0
41
1
10
30.4797287537623
20
3.71308098877108
30
0
41
1
10
30.5164741600219
20
3.7176800160575
30
0
41
1
10
30.5236314530419
20
3.71886947150784
30
0
41
1
10
30.5375456160159
20
3.72181168013583
30
0
41
1
10
30.5443192498081
20
3.72356979644647
30
0
41
1
10
30.5638602941534
20
3.72972588587572
30
0
41
1
10
30.5758002321549
20
3.73498513003318
30
0
41
1
10
30.5865343576433
20
3.74154860450224
30
0
0
SPLINE
5
183
100
AcDbEntity
8
1
62
256
6
ByLayer
370
18
48
1
60
0
100
AcDbSpline
70
4
71
3
72
28
73
24
40
0
40
0
40
0
40
0
40
0.125000000000053
40
0.125000000000053
40
0.187500000000058
40
0.187500000000058
40
0.250000000000063
40
0.250000000000063
40
0.375000000000116
40
0.375000000000116
40
0.437500000000142
40
0.437500000000142
40
0.500000000000169
40
0.500000000000169
40
0.531250000000161
40
0.531250000000161
40
0.562500000000154
40
0.562500000000154
40
0.625000000000138
40
0.625000000000138
40
0.750000000000105
40
0.750000000000105
40
1
40
1
40
1
40
1
41
1
10
30.4120196860491
20
3.71832433117083
30
0
41
1
10
30.3887813956414
20
3.72143335775488
30
0
41
1
10
30.364823012951
20
3.72632200712371
30
0
41
1
10
30.3278265572448
20
3.73645589664858
30
0
41
1
10
30.3153188547817
20
3.74029824545988
30
0
41
1
10
30.2899373589099
20
3.74899305629029
30
0
41
1
10
30.2770070217468
20
3.75387436775984
30
0
41
1
10
30.2380439056249
20
3.77002387229373
30
0
41
1
10
30.2120309667861
20
3.78267339037188
30
0
41
1
10
30.1730304118506
20
3.80502403028973
30
0
41
1
10
30.1600185644044
20
3.8130449705875
30
0
41
1
10
30.1340772480197
20
3.83034792773864
30
0
41
1
10
30.1213797084533
20
3.83947746131756
30
0
41
1
10
30.1027726726603
20
3.85393366408383
30
0
41
1
10
30.0966466000361
20
3.8588848056967
30
0
41
1
10
30.0845415202437
20
3.86904097235924
30
0
41
1
10
30.0785424549468
20
3.87421044136346
30
0
41
1
10
30.0605020827811
20
3.88963255368162
30
0
41
1
10
30.0484707172325
20
3.89989305121395
30
0
41
1
10
30.0124223835774
20
3.93071660706406
30
0
41
1
10
29.9884334664595
20
3.95129035983612
30
0
41
1
10
29.9165735628561
20
4.01304727338564
30
0
41
1
10
29.8688166653652
20
4.05427886696717
30
0
41
1
10
29.8211983160993
20
4.09555683043752
30
0
0
SPLINE
5
184
100
AcDbEntity
8
1
62
256
6
ByLayer
370
18
48
1
60
0
100
AcDbSpline
70
4
71
3
72
41
73
37
40
0
40
0
40
0
40
0
40
0.0409481423590731
40
0.0409481423590731
40
0.075199994417678
40
0.075199994417678
40
0.109451846476283
40
0.109451846476283
40
0.177955550593493
40
0.177955550593493
40
0.246459254710703
40
0.246459254710703
40
0.280711106769309
40
0.280711106769309
40
0.314962958827916
40
0.314962958827916
40
0.451970367062339
40
0.451970367062339
40
0.520474071179551
40
0.520474071179551
40
0.554725923238155
40
0.554725923238155
40
0.588977775296759
40
0.588977775296759
40
0.72598518353117
40
0.72598518353117
40
0.760237035589773
40
0.760237035589773
40
0.794488887648377
40
0.862992591765583
40
0.862992591765583
40
0.93149629588279
40
0.93149629588279
40
0.965748147941395
40
0.965748147941395
40
1
40
1
40
1
40
1
41
1
10
21.3948745890096
20
3.9877986212432
30
0
41
1
10
21.509771104703
20
4.03954729167785
30
0
41
1
10
21.6246914203848
20
4.08955199235601
30
0
41
1
10
21.8358817716803
20
4.17809668711845
30
0
41
1
10
21.9321295580307
20
4.21717444914881
30
0
41
1
10
22.1248018279159
20
4.2927736624566
30
0
41
1
10
22.2212394827034
20
4.32929797137376
30
0
41
1
10
22.5100975921888
20
4.43462599562901
30
0
41
1
10
22.702337164903
20
4.49928054890793
30
0
41
1
10
23.0866941699655
20
4.61725482395064
30
0
41
1
10
23.2788124839056
20
4.67056837433637
30
0
41
1
10
23.5672873209336
20
4.74186477655985
30
0
41
1
10
23.663494421641
20
4.76418810565008
30
0
41
1
10
23.8560704371655
20
4.80590077804922
30
0
41
1
10
23.9524942746227
20
4.82529733272145
30
0
41
1
10
24.4345325846903
20
4.91468850688554
30
0
41
1
10
24.818629811929
20
4.96180700759882
30
0
41
1
10
25.3953178929656
20
4.99578404688489
30
0
41
1
10
25.5876462937428
20
5.00094858534285
30
0
41
1
10
25.8766946331302
20
4.99933641830026
30
0
41
1
10
25.9731095202562
20
4.99724096127707
30
0
41
1
10
26.1656449632593
20
4.98995705863811
30
0
41
1
10
26.2618324268952
20
4.98476783449212
30
0
41
1
10
26.7425398119966
20
4.95114103575614
30
0
41
1
10
27.1263869609872
20
4.8997345513871
30
0
41
1
10
27.6079067910053
20
4.80521392044054
30
0
41
1
10
27.7043612174203
20
4.78478255642958
30
0
41
1
10
27.8971361297968
20
4.74099173402396
30
0
41
1
10
28.1860157778288
20
4.67093802755537
30
0
41
1
10
28.4743172195183
20
4.58797855528769
30
0
41
1
10
28.8587019720042
20
4.46615956155253
30
0
41
1
10
29.0508874024676
20
4.39963546976568
30
0
41
1
10
29.3395334615331
20
4.29164092362916
30
0
41
1
10
29.4358101078373
20
4.25427561439551
30
0
41
1
10
29.6285529416893
20
4.17684476865512
30
0
41
1
10
29.7249416882995
20
4.13680863519591
30
0
41
1
10
29.8211983160993
20
4.09555683043749
30
0
0
SPLINE
5
185
100
AcDbEntity
8
1
62
256
6
ByLayer
370
18
48
1
60
0
100
AcDbSpline
70
4
71
3
72
17
73
13
40
0
40
0
40
0
40
0
40
0.0558911922308732
40
0.162668965840854
40
0.269446739450834
40
0.340631921857487
40
0.447409695467468
40
0.554187469077448
40
0.660965242687429
40
0.803335607500736
40
0.945705972314043
40
1
40
1
40
1
40
1
41
1
10
35.0798300512825
20
0.867915818022681
30
0
41
1
10
34.8344700341883
20
1.03543017359652
30
0
41
1
10
34.1203600170942
20
1.51795517592069
30
0
41
1
10
32.9375
20
2.27938051832578
30
0
41
1
10
31.6875000000001
20
2.99483029481061
30
0
41
1
10
30.4374999999999
20
3.60778468994346
30
0
41
1
10
29.1875000000001
20
4.10793910077692
30
0
41
1
10
27.78125
20
4.49038942384459
30
0
41
1
10
26.21875
20
4.6916955407398
30
0
41
1
10
24.5
20
4.62723122842502
30
0
41
1
10
23.0116514690525
20
4.27876799556694
30
0
41
1
10
22.1483029381049
20
3.97511376494993
30
0
41
1
10
21.9099544071573
20
3.88397511787787
30
0
0
SPLINE
5
186
100
AcDbEntity
8
1
62
256
6
ByLayer
370
18
48
1
60
0
100
AcDbSpline
70
4
71
3
72
16
73
12
40
0
40
0
40
0
40
0
40
0.250000000000028
40
0.250000000000028
40
0.500000000000056
40
0.500000000000056
40
0.625000000000042
40
0.625000000000042
40
0.750000000000027
40
0.750000000000027
40
1
40
1
40
1
40
1
41
1
10
46.0829773375876
20
-4.97399250085021
30
0
41
1
10
46.1218938118043
20
-4.97441402048776
30
0
41
1
10
46.1607980900171
20
-4.9725643320817
30
0
41
1
10
46.2386916200289
20
-4.96396512301644
30
0
41
1
10
46.2776803093383
20
-4.95721938371565
30
0
41
1
10
46.3363235936315
20
-4.94289490078353
30
0
41
1
10
46.3558016663827
20
-4.93743633278189
30
0
41
1
10
46.3944009062096
20
-4.92515202594913
30
0
41
1
10
46.4135561360646
20
-4.91831829166333
30
0
41
1
10
46.4705839066109
20
-4.89562988834243
30
0
41
1
10
46.5080220991407
20
-4.8776062764573
30
0
41
1
10
46.5448310211935
20
-4.85620407756096
30
0
0
SPLINE
5
187
100
AcDbEntity
8
1
62
256
6
ByLayer
370
18
48
1
60
0
100
AcDbSpline
70
4
71
3
72
8
73
4
40
0
40
0
40
0
40
0
40
1
40
1
40
1
40
1
41
1
10
30.5895948626408
20
3.76635022152482
30
0
41
1
10
30.5885635493453
20
3.75807903760358
30
0
41
1
10
30.5875423644347
20
3.74981193670823
30
0
41
1
10
30.5865343576433
20
3.74154860450224
30
0
0
SPLINE
5
188
100
AcDbEntity
8
1
62
256
6
ByLayer
370
18
48
1
60
0
100
AcDbSpline
70
4
71
3
72
8
73
4
40
0
40
0
40
0
40
0
40
1
40
1
40
1
40
1
41
1
10
23.0892701821667
20
2.08936864750146
30
0
41
1
10
23.0882337629221
20
2.07788903141889
30
0
41
1
10
23.0872076008149
20
2.06641133349021
30
0
41
1
10
23.0861947497325
20
2.05493526287236
30
0
0
SPLINE
5
189
100
AcDbEntity
8
1
62
256
6
ByLayer
370
18
48
1
60
0
100
AcDbSpline
70
4
71
3
72
8
73
4
40
0
40
0
40
0
40
0
40
1
40
1
40
1
40
1
41
1
10
32.3106271060315
20
-4.16320268730118
30
0
41
1
10
32.3135441521346
20
-4.17185106367975
30
0
41
1
10
32.3163922750944
20
-4.18049135980178
30
0
41
1
10
32.319168890021
20
-4.1891243028598
30
0
0
SPLINE
5
18A
100
AcDbEntity
8
1
62
256
6
ByLayer
370
18
48
1
60
0
100
AcDbSpline
70
4
71
3
72
14
73
10
40
0
40
0
40
0
40
0
40
0.500000000000039
40
0.500000000000039
40
0.625000000000029
40
0.625000000000029
40
0.75000000000002
40
0.75000000000002
40
1
40
1
40
1
40
1
41
1
10
22.9095268666105
20
2.13145610070291
30
0
41
1
10
22.9451998276351
20
2.11260730634328
30
0
41
1
10
22.977962314348
20
2.09671093127597
30
0
41
1
10
23.0151627328636
20
2.08049042264278
30
0
41
1
10
23.0224105374564
20
2.07743457427492
30
0
41
1
10
23.0365046875939
20
2.07171609917853
30
0
41
1
10
23.0433669430799
20
2.06904758155514
30
0
41
1
10
23.0631830833233
20
2.06173110447182
30
0
41
1
10
23.0752992919092
20
2.05779532721084
30
0
41
1
10
23.0861947497325
20
2.05493526287236
30
0
0
SPLINE
5
18B
100
AcDbEntity
8
1
62
256
6
ByLayer
370
18
48
1
60
0
100
AcDbSpline
70
4
71
3
72
28
73
24
40
0
40
0
40
0
40
0
40
0.124999999999943
40
0.124999999999943
40
0.187499999999894
40
0.187499999999894
40
0.249999999999844
40
0.249999999999844
40
0.374999999999788
40
0.374999999999788
40
0.437499999999782
40
0.437499999999782
40
0.499999999999775
40
0.499999999999775
40
0.531249999999772
40
0.531249999999772
40
0.562499999999768
40
0.562499999999768
40
0.624999999999801
40
0.624999999999801
40
0.749999999999867
40
0.749999999999867
40
1
40
1
40
1
40
1
41
1
10
22.9095268666105
20
2.13145610070291
30
0
41
1
10
22.8862816577515
20
2.14373834891134
30
0
41
1
10
22.8623287489955
20
2.15701153111175
30
0
41
1
10
22.8253622906104
20
2.17851921848708
30
0
41
1
10
22.8128680140801
20
2.18595369493454
30
0
41
1
10
22.7875198957428
20
2.20141015951413
30
0
41
1
10
22.7746082111496
20
2.20947140249163
30
0
41
1
10
22.7357442696894
20
2.23435852293539
30
0
41
1
10
22.7097941991236
20
2.25178536224658
30
0
41
1
10
22.6708848093184
20
2.27950468164502
30
0
41
1
10
22.657897738706
20
2.28902198038355
30
0
41
1
10
22.632026930712
20
2.30861812247357
30
0
41
1
10
22.6193571971507
20
2.318534771798
30
0
41
1
10
22.6007847964075
20
2.33361057093302
30
0
41
1
10
22.5946716926967
20
2.33867170011439
30
0
41
1
10
22.582576137847
20
2.34885663567872
30
0
41
1
10
22.5765655530395
20
2.35396857259346
30
0
41
1
10
22.5584976854987
20
2.36930030491388
30
0
41
1
10
22.5464504653236
20
2.37953546036647
30
0
41
1
10
22.5103556246853
20
2.41030506848406
30
0
41
1
10
22.4863363862082
20
2.43089585606626
30
0
41
1
10
22.4143905073844
20
2.49289010362119
30
0
41
1
10
22.3665818290547
20
2.53451808043388
30
0
41
1
10
22.3189164986011
20
2.57643263205395
30
0
0
SPLINE
5
18C
100
AcDbEntity
8
1
62
256
6
ByLayer
370
18
48
1
60
0
100
AcDbSpline
70
4
71
3
72
12
73
8
40
0
40
0
40
0
40
0
40
0.0272327096237284
40
0.270424532217796
40
0.513616354811864
40
0.756808177405932
40
1
40
1
40
1
40
1
41
1
10
24.7099631887282
20
0.867897147955688
30
0
41
1
10
24.6399754591522
20
0.916998846797782
30
0
41
1
10
23.9449877295761
20
1.40305438994412
30
0
41
1
10
22.625
20
2.29246953039345
30
0
41
1
10
20.75
20
3.37130661412709
30
0
41
1
10
18.875
20
4.16686469371712
30
0
41
1
10
17.625
20
4.47393522715532
30
0
41
1
10
17
20
4.56282440308047
30
0
0
SPLINE
5
18D
100
AcDbEntity
8
1
62
256
6
ByLayer
370
18
48
1
60
0
100
AcDbSpline
70
4
71
3
72
14
73
10
40
0
40
0
40
0
40
0
40
0.499999999999996
40
0.499999999999996
40
0.624999999999999
40
0.624999999999999
40
0.750000000000002
40
0.750000000000002
40
1
40
1
40
1
40
1
41
1
10
32.9099542317436
20
-4.25767466560876
30
0
41
1
10
32.9455237151987
20
-4.28728136372558
30
0
41
1
10
32.9781908816132
20
-4.32063270551697
30
0
41
1
10
33.0152830204734
20
-4.36709103658981
30
0
41
1
10
33.0225097833259
20
-4.3766274584446
30
0
41
1
10
33.0365631334895
20
-4.39621141708497
30
0
41
1
10
33.0434050887793
20
-4.4062829319316
30
0
41
1
10
33.0631680511917
20
-4.43715851710499
30
0
41
1
10
33.0752525469308
20
-4.45850301917594
30
0
41
1
10
33.0861213016221
20
-4.48069918723004
30
0
0
SPLINE
5
18E
100
AcDbEntity
8
1
62
256
6
ByLayer
370
18
48
1
60
0
100
AcDbSpline
70
4
71
3
72
28
73
24
40
0
40
0
40
0
40
0
40
0.125000000000053
40
0.125000000000053
40
0.187500000000101
40
0.187500000000101
40
0.250000000000148
40
0.250000000000148
40
0.375000000000201
40
0.375000000000201
40
0.437500000000226
40
0.437500000000226
40
0.500000000000252
40
0.500000000000252
40
0.531250000000244
40
0.531250000000244
40
0.562500000000236
40
0.562500000000236
40
0.625000000000179
40
0.625000000000179
40
0.750000000000106
40
0.750000000000106
40
1
40
1
40
1
40
1
41
1
10
32.9099542317436
20
-4.25767466560873
30
0
41
1
10
32.8867134138841
20
-4.23832988430996
30
0
41
1
10
32.8627621645247
20
-4.22107264512465
30
0
41
1
10
32.825793531427
20
-4.19838180478388
30
0
41
1
10
32.81329779594
20
-4.1913483728749
30
0
41
1
10
32.7879453983498
20
-4.17841922127792
30
0
41
1
10
32.7750307535654
20
-4.17250762471062
30
0
41
1
10
32.7361564591557
20
-4.15679954293827
30
0
41
1
10
32.7101964690234
20
-4.14902452164014
30
0
41
1
10
32.6712671484305
20
-4.14204955669825
30
0
41
1
10
32.6582731025051
20
-4.14050187897564
30
0
41
1
10
32.6323843000457
20
-4.13919864256602
30
0
41
1
10
32.6197056206067
20
-4.13945376087744
30
0
41
1
10
32.6011193133145
20
-4.14127174476999
30
0
41
1
10
32.5950008522865
20
-4.14213466029048
30
0
41
1
10
32.5828980517692
20
-4.14429777808195
30
0
41
1
10
32.5768867029956
20
-4.14550272132763
30
0
41
1
10
32.5588150061809
20
-4.14893215697546
30
0
41
1
10
32.546764820218
20
-4.15114006127692
30
0
41
1
10
32.5106609152163
20
-4.15771882743951
30
0
41
1
10
32.4866355310742
20
-4.16198027099313
30
0
41
1
10
32.4146704973944
20
-4.17433160713904
30
0
41
1
10
32.3668482711189
20
-4.18201050175671
30
0
41
1
10
32.3191688900272
20
-4.18912430284638
30
0
0
SPLINE
5
18F
100
AcDbEntity
8
1
62
256
6
ByLayer
370
18
48
1
60
0
100
AcDbSpline
70
4
71
3
72
8
73
4
40
0
40
0
40
0
40
0
40
1
40
1
40
1
40
1
41
1
10
38.1006956667022
20
4.87321479846881
30
0
41
1
10
38.0963681528838
20
4.86851231504525
30
0
41
1
10
38.0924413214026
20
4.86358899675906
30
0
41
1
10
38.0892976071746
20
4.85843762686014
30
0
0
SPLINE
5
190
100
AcDbEntity
8
1
62
256
6
ByLayer
370
18
48
1
60
0
100
AcDbSpline
70
4
71
3
72
14
73
10
40
0
40
0
40
0
40
0
40
0.25
40
0.25
40
0.5
40
0.5
40
0.75
40
0.75
40
1
40
1
40
1
40
1
41
1
10
46.1873052541805
20
1.10606683087568
30
0
41
1
10
46.1754477891271
20
1.17363394968015
30
0
41
1
10
46.1654458602098
20
1.24106260641642
30
0
41
1
10
46.1479118240943
20
1.37574166686486
30
0
41
1
10
46.1403729125105
20
1.44299149985531
30
0
41
1
10
46.1267684145523
20
1.57736068313093
30
0
41
1
10
46.1207051293637
20
1.64447950330458
30
0
41
1
10
46.1093786678115
20
1.77860235973745
30
0
41
1
10
46.1041192017847
20
1.84560613964646
30
0
41
1
10
46.0990278861392
20
1.91255046699626
30
0
0
SPLINE
5
191
100
AcDbEntity
8
1
62
256
6
ByLayer
370
18
48
1
60
0
100
AcDbSpline
70
4
71
3
72
30
73
26
40
0
40
0
40
0
40
0
40
0.134639333412223
40
0.134639333412223
40
0.168299166765277
40
0.168299166765277
40
0.201959000118331
40
0.201959000118331
40
0.269278666824439
40
0.269278666824439
40
0.403918000236654
40
0.403918000236654
40
0.538557333648869
40
0.538557333648869
40
0.673196667061084
40
0.673196667061084
40
0.69002658373761
40
0.69002658373761
40
0.706856500414137
40
0.740516333767186
40
0.807836000473287
40
0.807836000473287
40
0.942475333885495
40
0.942475333885495
40
1
40
1
40
1
40
1
41
1
10
46.0990278861391
20
1.91255046699635
30
0
41
1
10
45.7633841089156
20
2.12748553042633
30
0
41
1
10
45.4278266595579
20
2.33546125525626
30
0
41
1
10
45.007052645474
20
2.58499716653694
30
0
41
1
10
44.9228806345224
20
2.63435102779923
30
0
41
1
10
44.7549335304991
20
2.73164135605822
30
0
41
1
10
44.6710925724933
20
2.77961703593758
30
0
41
1
10
44.4199139243387
20
2.92148297690557
30
0
41
1
10
44.2529227227054
20
3.0133105101441
30
0
41
1
10
43.7528706306015
20
3.28012142814526
30
0
41
1
10
43.4207136942752
20
3.44643628699319
30
0
41
1
10
42.7563811587264
20
3.75373713245037
30
0
41
1
10
42.4242586462697
20
3.89474872208291
30
0
41
1
10
41.7579145351029
20
4.14944532342363
30
0
41
1
10
41.4236818596761
20
4.26315499528152
30
0
41
1
10
41.0451613973983
20
4.37422253347438
30
0
41
1
10
41.003065498845
20
4.38632963895273
30
0
41
1
10
40.9189950740358
20
4.41001635273653
30
0
41
1
10
40.7929981506201
20
4.44477700813943
30
0
41
1
10
40.4997139040152
20
4.52049817157669
30
0
41
1
10
40.2493584104794
20
4.57616890178073
30
0
41
1
10
39.7495486578859
20
4.67514860608489
30
0
41
1
10
39.4175249780801
20
4.72460559901955
30
0
41
1
10
38.9436567409723
20
4.7715205358752
30
0
41
1
10
38.8018111015689
20
4.78255487845382
30
0
41
1
10
38.6598938150468
20
4.79055297375822
30
0
0
SPLINE
5
192
100
AcDbEntity
8
1
62
256
6
ByLayer
370
18
48
1
60
0
100
AcDbSpline
70
4
71
3
72
22
73
18
40
0
40
0
40
0
40
0
40
0.250000000000041
40
0.250000000000041
40
0.312500000000037
40
0.312500000000037
40
0.375000000000034
40
0.375000000000034
40
0.500000000000027
40
0.500000000000027
40
0.62500000000002
40
0.62500000000002
40
0.687500000000017
40
0.687500000000017
40
0.750000000000013
40
0.750000000000013
40
1
40
1
40
1
40
1
41
1
10
46.4670398929798
20
1.74242873100374
30
0
41
1
10
46.4463898602047
20
1.74686273772107
30
0
41
1
10
46.4223701348073
20
1.75417558422822
30
0
41
1
10
46.3882980491409
20
1.76686316515773
30
0
41
1
10
46.3812773747137
20
1.76958062672844
30
0
41
1
10
46.3668208083143
20
1.77537814321923
30
0
41
1
10
46.359408772446
20
1.77844909949587
30
0
41
1
10
46.3368707422347
20
1.78806366075415
30
0
41
1
10
46.3213558578846
20
1.79504255975399
30
0
41
1
10
46.2894001262203
20
1.81006017888703
30
0
41
1
10
46.2729560563393
20
1.81810191352031
30
0
41
1
10
46.2476136950296
20
1.83091840185617
30
0
41
1
10
46.2390446343912
20
1.83532160246585
30
0
41
1
10
46.2218809471247
20
1.84427018645735
30
0
41
1
10
46.2132619128847
20
1.84882773149582
30
0
41
1
10
46.1699856309459
20
1.87200450070131
30
0
41
1
10
46.134791955786
20
1.89177840628673
30
0
41
1
10
46.0990278861392
20
1.91255046699629
30
0
0
SPLINE
5
193
100
AcDbEntity
8
1
62
256
6
ByLayer
370
13
48
1
60
0
100
AcDbSpline
70
4
71
3
72
8
73
4
40
0
40
0
40
0
40
0
40
1
40
1
40
1
40
1
41
1
10
46.4670398929832
20
1.74242873100172
30
0
41
1
10
46.0288711405852
20
2.00690612992722
30
0
41
1
10
45.5907023881871
20
2.26037749675444
30
0
41
1
10
45.1525336357891
20
2.49874378014573
30
0
0
SPLINE
5
194
100
AcDbEntity
8
1
62
256
6
ByLayer
370
13
48
1
60
0
100
AcDbSpline
70
4
71
3
72
8
73
4
40
0
40
0
40
0
40
0
40
1
40
1
40
1
40
1
41
1
10
18.8177479347723
20
-4.30544709102097
30
0
41
1
10
18.2118319565149
20
-4.42203233293131
30
0
41
1
10
17.6059159782575
20
-4.48880576976867
30
0
41
1
10
17.0000000000001
20
-4.50050684857092
30
0
0
SPLINE
5
195
100
AcDbEntity
8
1
62
256
6
ByLayer
370
18
48
1
60
0
100
AcDbSpline
70
4
71
3
72
8
73
4
40
0
40
0
40
0
40
0
40
1
40
1
40
1
40
1
41
1
10
17.3318248503176
20
-4.76978748573836
30
0
41
1
10
17.2214186037422
20
-4.77925907423028
30
0
41
1
10
17.1108221586265
20
-4.78689222423333
30
0
41
1
10
17.0000000000001
20
-4.792602112617
30
0
0
SPLINE
5
196
100
AcDbEntity
8
1
62
256
6
ByLayer
370
18
48
1
60
0
100
AcDbSpline
70
4
71
3
72
36
73
32
40
0
40
0
40
0
40
0
40
0.249999999999923
40
0.249999999999923
40
0.281249999999923
40
0.281249999999923
40
0.312499999999922
40
0.312499999999922
40
0.343749999999922
40
0.343749999999922
40
0.374999999999922
40
0.374999999999922
40
0.43749999999992
40
0.43749999999992
40
0.499999999999919
40
0.499999999999919
40
0.562499999999918
40
0.562499999999918
40
0.593749999999917
40
0.593749999999917
40
0.624999999999916
40
0.624999999999916
40
0.687499999999929
40
0.687499999999929
40
0.749999999999941
40
0.749999999999941
40
0.812499999999953
40
0.812499999999953
40
0.874999999999966
40
0.874999999999966
40
1
40
1
40
1
40
1
41
1
10
17.3318248503178
20
-4.76978748573907
30
0
41
1
10
17.404033936325
20
-4.71987748043111
30
0
41
1
10
17.4763786210405
20
-4.66966336264815
30
0
41
1
10
17.5580333672004
20
-4.61299738236917
30
0
41
1
10
17.567110792642
20
-4.60669966602478
30
0
41
1
10
17.5852532814521
20
-4.59404344999345
30
0
41
1
10
17.5942944640767
20
-4.587621085812
30
0
41
1
10
17.6128356903227
20
-4.5759661534897
30
0
41
1
10
17.6222960181859
20
-4.5706290222532
30
0
41
1
10
17.6415677692749
20
-4.56086972688132
30
0
41
1
10
17.6514585951414
20
-4.55642611578531
30
0
41
1
10
17.6809131242881
20
-4.54472611404603
30
0
41
1
10
17.7003142691479
20
-4.53899432517537
30
0
41
1
10
17.7386882209722
20
-4.53084145988942
30
0
41
1
10
17.7577939501083
20
-4.52842788502892
30
0
41
1
10
17.7943673982084
20
-4.52642543294994
30
0
41
1
10
17.8119717574191
20
-4.52681380331222
30
0
41
1
10
17.8375273834801
20
-4.52905284746055
30
0
41
1
10
17.8459035225318
20
-4.53007683265909
30
0
41
1
10
17.8623860577671
20
-4.53264043541796
30
0
41
1
10
17.8705152986531
20
-4.5341862847167
30
0
41
1
10
17.8943159802096
20
-4.53951845146611
30
0
41
1
10
17.9093918785795
20
-4.54397335686701
30
0
41
1
10
17.9382062051845
20
-4.554364727457
30
0
41
1
10
17.9519457578384
20
-4.5603000042386
30
0
41
1
10
17.9781540045675
20
-4.57356230201134
30
0
41
1
10
17.990635008668
20
-4.58087426809186
30
0
41
1
10
18.0144165013526
20
-4.59677708459819
30
0
41
1
10
18.025707051475
20
-4.60539261576713
30
0
41
1
10
18.0573719482091
20
-4.63277423849146
30
0
41
1
10
18.0757230747047
20
-4.65317481866921
30
0
41
1
10
18.0912076329601
20
-4.67588668919876
30
0
0
SPLINE
5
197
100
AcDbEntity
8
1
62
256
6
ByLayer
370
18
48
1
60
0
100
AcDbSpline
70
4
71
3
72
14
73
10
40
0
40
0
40
0
40
0
40
0.237707903735913
40
0.237707903735913
40
0.491805269157275
40
0.491805269157275
40
0.745902634578638
40
0.745902634578638
40
1
40
1
40
1
40
1
41
1
10
20.3634136521243
20
-4.0629215938132
30
0
41
1
10
20.1821900735298
20
-4.13054586713116
30
0
41
1
10
20.0015081260862
20
-4.19374797129916
30
0
41
1
10
19.6285142866022
20
-4.31502713009428
30
0
41
1
10
19.4361967591745
20
-4.37256603602034
30
0
41
1
10
19.051833705779
20
-4.47739894008441
30
0
41
1
10
18.8598096162432
20
-4.52465143015613
30
0
41
1
10
18.4756889827499
20
-4.60839803781249
30
0
41
1
10
18.2835969486369
20
-4.64486468666476
30
0
41
1
10
18.0912076329609
20
-4.67588668919814
30
0
0
SPLINE
5
198
100
AcDbEntity
8
1
62
256
6
ByLayer
370
18
48
1
60
0
100
AcDbSpline
70
4
71
3
72
14
73
10
40
0
40
0
40
0
40
0
40
0.25
40
0.25
40
0.5
40
0.5
40
0.75
40
0.75
40
1
40
1
40
1
40
1
41
1
10
40.6003024280024
20
-2.65026545059223
30
0
41
1
10
40.5958716822448
20
-2.57450004189664
30
0
41
1
10
40.5918659613727
20
-2.49865193412956
30
0
41
1
10
40.5855184335355
20
-2.34676496052671
30
0
41
1
10
40.5831797254005
20
-2.27072628485732
30
0
41
1
10
40.5807223645548
20
-2.11848203646582
30
0
41
1
10
40.5806081334116
20
-2.0422625773036
30
0
41
1
10
40.5827701892523
20
-1.88978776497731
30
0
41
1
10
40.5850514575152
20
-1.81356274402083
30
0
41
1
10
40.588341021614
20
-1.73738459853303
30
0
0
SPLINE
5
199
100
AcDbEntity
8
1
62
256
6
ByLayer
370
18
48
1
60
0
100
AcDbSpline
70
4
71
3
72
15
73
11
40
0
40
0
40
0
40
0
40
0.103691795975393
40
0.252832574407278
40
0.401973352839162
40
0.551114131271046
40
0.70025490970293
40
0.849395688134814
40
0.998536466566698
40
1
40
1
40
1
40
1
41
1
10
40.6003024280025
20
-2.65026545059229
30
0
41
1
10
40.779793249831
20
-2.76276308396118
30
0
41
1
10
41.2190847434387
20
-3.03112231855747
30
0
41
1
10
41.9249852667704
20
-3.43143768245503
30
0
41
1
10
42.7231831292537
20
-3.8357744977298
30
0
41
1
10
43.5361433362065
20
-4.19177841381017
30
0
41
1
10
44.3668833777877
20
-4.49187940326294
30
0
41
1
10
45.2175294811726
20
-4.72787209051441
30
0
41
1
10
45.8035056903634
20
-4.83715806626091
30
0
41
1
10
46.1026560738376
20
-4.87808241345365
30
0
41
1
10
46.1055635867093
20
-4.87847878333261
30
0
0
SPLINE
5
19A
100
AcDbEntity
8
1
62
256
6
ByLayer
370
18
48
1
60
0
100
AcDbSpline
70
4
71
3
72
12
73
8
40
0
40
0
40
0
40
0
40
0.499999999999995
40
0.499999999999995
40
0.749999999999998
40
0.749999999999998
40
1
40
1
40
1
40
1
41
1
10
46.1055635867093
20
-4.87847878333295
30
0
41
1
10
46.1210966245869
20
-4.87430826070343
30
0
41
1
10
46.1357512443729
20
-4.86941686759292
30
0
41
1
10
46.1565776687012
20
-4.86116323552469
30
0
41
1
10
46.1633709334243
20
-4.85823748917736
30
0
41
1
10
46.176338549433
20
-4.85222510045179
30
0
41
1
10
46.1825145652724
20
-4.84914238828006
30
0
41
1
10
46.1884315450779
20
-4.84599716239032
30
0
0
SPLINE
5
19B
100
AcDbEntity
8
1
62
256
6
ByLayer
370
18
48
1
60
0
100
AcDbSpline
70
4
71
3
72
14
73
10
40
0
40
0
40
0
40
0
40
0.25
40
0.25
40
0.5
40
0.5
40
0.75
40
0.75
40
1
40
1
40
1
40
1
41
1
10
46.1884588047347
20
-4.84592268512699
30
0
41
1
10
46.1774522495063
20
-4.81617028058167
30
0
41
1
10
46.1682474807756
20
-4.78575077137333
30
0
41
1
10
46.1520788593686
20
-4.72407049068602
30
0
41
1
10
46.1451121635997
20
-4.692808734294
30
0
41
1
10
46.1324382989984
20
-4.62974370247539
30
0
41
1
10
46.1267356238834
20
-4.59793830834326
30
0
41
1
10
46.1159603361454
20
-4.53394585457949
30
0
41
1
10
46.11089201784
20
-4.50175738565585
30
0
41
1
10
46.1059236646309
20
-4.46941680175038
30
0
0
SPLINE
5
19C
100
AcDbEntity
8
1
62
256
6
ByLayer
370
18
48
1
60
0
100
AcDbSpline
70
4
71
3
72
14
73
10
40
0
40
0
40
0
40
0
40
0.25
40
0.25
40
0.5
40
0.5
40
0.75
40
0.75
40
1
40
1
40
1
40
1
41
1
10
23.0999890836091
20
2.41518620178542
30
0
41
1
10
23.0955466464021
20
2.47299429083998
30
0
41
1
10
23.0915338055116
20
2.53064042641358
30
0
41
1
10
23.0851783086226
20
2.64561734254516
30
0
41
1
10
23.0828387841349
20
2.70294881406332
30
0
41
1
10
23.0803872222346
20
2.81740024071272
30
0
41
1
10
23.0802797178712
20
2.87453223811053
30
0
41
1
10
23.0824650735289
20
2.98870650814732
30
0
41
1
10
23.0847629410888
20
3.04572866004725
30
0
41
1
10
23.0880747653033
20
3.10278606583267
30
0
0
SPLINE
5
19D
100
AcDbEntity
8
1
62
256
6
ByLayer
370
18
48
1
60
0
100
AcDbSpline
70
4
71
3
72
14
73
10
40
0
40
0
40
0
40
0
40
0.25
40
0.25
40
0.5
40
0.5
40
0.75
40
0.75
40
1
40
1
40
1
40
1
41
1
10
32.324406620889
20
-3.15436155395676
30
0
41
1
10
32.3323575082577
20
-3.21540872190428
30
0
41
1
10
32.3379278800344
20
-3.27627600662385
30
0
41
1
10
32.3436592846144
20
-3.39795710496225
30
0
41
1
10
32.3438184496966
20
-3.45876965223067
30
0
41
1
10
32.3377720508149
20
-3.58072994379304
30
0
41
1
10
32.3315711436706
20
-3.64187604279476
30
0
41
1
10
32.3115610382232
20
-3.76501694889944
30
0
41
1
10
32.2977633682848
20
-3.8270087370112
30
0
41
1
10
32.2793222054757
20
-3.88977465999557
30
0
0
SPLINE
5
19E
100
AcDbEntity
8
1
62
256
6
ByLayer
370
18
48
1
60
0
100
AcDbSpline
70
4
71
3
72
28
73
24
40
0
40
0
40
0
40
0
40
0.147240171050214
40
0.147240171050214
40
0.294480342100428
40
0.294480342100428
40
0.441720513150642
40
0.441720513150642
40
0.51534059867575
40
0.51534059867575
40
0.588960684200857
40
0.588960684200857
40
0.662580769725964
40
0.662580769725964
40
0.699390812488519
40
0.699390812488519
40
0.736200855251074
40
0.736200855251074
40
0.883441026301297
40
0.883441026301297
40
0.957061111826409
40
0.957061111826409
40
1
40
1
40
1
40
1
41
1
10
22.3237638850669
20
3.51098823380283
30
0
41
1
10
22.1015300682462
20
3.62290511763689
30
0
41
1
10
21.8801113493726
20
3.7283410992458
30
0
41
1
10
21.4382947542502
20
3.92553607793752
30
0
41
1
10
21.2179357557767
20
4.01719512940124
30
0
41
1
10
20.7772252835732
20
4.18657464042218
30
0
41
1
10
20.5568749400657
20
4.26430068212755
30
0
41
1
10
20.225870596291
20
4.36989993275867
30
0
41
1
10
20.1154592149187
20
4.40326028769209
30
0
41
1
10
19.8944031171588
20
4.46614718948018
30
0
41
1
10
19.7837614522384
20
4.4956572268365
30
0
41
1
10
19.5620995803187
20
4.55088194202887
30
0
41
1
10
19.4510813406611
20
4.57659265158628
30
0
41
1
10
19.2841903330726
20
4.61226173003382
30
0
41
1
10
19.2284995664999
20
4.62366778640339
30
0
41
1
10
19.1169844898321
20
4.64549717714905
30
0
41
1
10
19.0611304257643
20
4.65592572329746
30
0
41
1
10
18.7818489121044
20
4.70550784132644
30
0
41
1
10
18.5590184367835
20
4.73688211544371
30
0
41
1
10
18.2251837748215
20
4.77105530137359
30
0
41
1
10
18.113964390565
20
4.78031918775204
30
0
41
1
10
17.9378413112442
20
4.79176449760928
30
0
41
1
10
17.8729537319628
20
4.79528516374671
30
0
41
1
10
17.8080524938479
20
4.79810177760118
30
0
0
SPLINE
5
19F
100
AcDbEntity
8
1
62
256
6
ByLayer
370
18
48
1
60
0
100
AcDbSpline
70
4
71
3
72
34
73
30
40
0
40
0
40
0
40
0
40
0.250000000000048
40
0.250000000000048
40
0.281250000000046
40
0.281250000000046
40
0.312500000000044
40
0.312500000000044
40
0.343750000000041
40
0.343750000000041
40
0.375000000000039
40
0.375000000000039
40
0.437500000000035
40
0.437500000000035
40
0.500000000000031
40
0.500000000000031
40
0.562500000000027
40
0.562500000000027
40
0.625000000000023
40
0.625000000000023
40
0.687500000000019
40
0.687500000000019
40
0.750000000000015
40
0.750000000000015
40
0.875000000000007
40
0.875000000000007
40
0.937500000000004
40
0.937500000000004
40
1
40
1
40
1
40
1
41
1
10
22.3237638850668
20
3.51098823380263
30
0
41
1
10
22.3968932972709
20
3.45912336442819
30
0
41
1
10
22.4702053387758
20
3.40809939303281
30
0
41
1
10
22.5529975654311
20
3.35174320931
30
0
41
1
10
22.5622033017304
20
3.34549599663975
30
0
41
1
10
22.5806086546687
20
3.33302128103753
30
0
41
1
10
22.5897740612077
20
3.32677712030625
30
0
41
1
10
22.6084888357318
20
3.31450210476777
30
0
41
1
10
22.6180145002592
20
3.30845877686926
30
0
41
1
10
22.637370379059
20
3.29653634871042
30
0
41
1
10
22.6472434743725
20
3.29063413674513
30
0
41
1
10
22.6770317034814
20
3.27330725792567
30
0
41
1
10
22.6964815047123
20
3.2626092775069
30
0
41
1
10
22.7346995813269
20
3.2424511910699
30
0
41
1
10
22.753467502448
20
3.23299322986759
30
0
41
1
10
22.7903896905721
20
3.21504227527507
30
0
41
1
10
22.8080617292273
20
3.20678939039101
30
0
41
1
10
22.8420915596668
20
3.19137915528415
30
0
41
1
10
22.8584603311419
20
3.18421639557641
30
0
41
1
10
22.8900418491357
20
3.17080034114687
30
0
41
1
10
22.9053255295826
20
3.16451909854669
30
0
41
1
10
22.9343837156283
20
3.1529166818145
30
0
41
1
10
22.9481897236217
20
3.14757925542008
30
0
41
1
10
22.9875854263174
20
3.13283837867556
30
0
41
1
10
23.0112428948181
20
3.12463518150713
30
0
41
1
10
23.0430835965349
20
3.1145886403138
30
0
41
1
10
23.0531084480363
20
3.11161455741501
30
0
41
1
10
23.0716779522494
20
3.1065440697277
30
0
41
1
10
23.0802455622848
20
3.1044370607467
30
0
41
1
10
23.0880747652822
20
3.10278606582889
30
0
0
SPLINE
5
1A0
100
AcDbEntity
8
1
62
256
6
ByLayer
370
18
48
1
60
0
100
AcDbSpline
70
4
71
3
72
47
73
43
40
0
40
0
40
0
40
0
40
0.0625000000000014
40
0.0625000000000014
40
0.0937500000000036
40
0.0937500000000036
40
0.125000000000006
40
0.18750000000001
40
0.18750000000001
40
0.218750000000014
40
0.218750000000014
40
0.234375000000016
40
0.234375000000016
40
0.250000000000017
40
0.250000000000017
40
0.312500000000019
40
0.312500000000019
40
0.37500000000002
40
0.37500000000002
40
0.437500000000022
40
0.437500000000022
40
0.500000000000023
40
0.500000000000023
40
0.562500000000025
40
0.562500000000025
40
0.625000000000026
40
0.625000000000026
40
0.640625000000025
40
0.640625000000025
40
0.656250000000024
40
0.656250000000024
40
0.687500000000022
40
0.687500000000022
40
0.750000000000017
40
0.750000000000017
40
0.812500000000013
40
0.812500000000013
40
0.875000000000009
40
0.875000000000009
40
0.937500000000004
40
0.937500000000004
40
1
40
1
40
1
40
1
41
1
10
32.3244066208899
20
-3.15436155395727
30
0
41
1
10
32.1327542996532
20
-3.04779738184905
30
0
41
1
10
31.9412719445426
20
-2.93705801855077
30
0
41
1
10
31.6538822229501
20
-2.76516930601906
30
0
41
1
10
31.5580452429612
20
-2.70695221480699
30
0
41
1
10
31.3661993686449
20
-2.58885333399434
30
0
41
1
10
31.0781905884034
20
-2.40914662078799
30
0
41
1
10
30.7892921202046
20
-2.22160123896523
30
0
41
1
10
30.4993915443207
20
-2.02909485221392
30
0
41
1
10
30.4025918505015
20
-1.96409201231236
30
0
41
1
10
30.2570899784586
20
-1.86538636418578
30
0
41
1
10
30.2085028743203
20
-1.83226349472849
30
0
41
1
10
30.1114128696442
20
-1.7657861296677
30
0
41
1
10
30.0629181281203
20
-1.7324375302864
30
0
41
1
10
29.8206546132869
20
-1.56520660857794
30
0
41
1
10
29.627531320025
20
-1.42983840459141
30
0
41
1
10
29.2423570820652
20
-1.15630233752654
30
0
41
1
10
29.0502811085928
20
-1.01817350302531
30
0
41
1
10
28.6666771794341
20
-0.739827258857076
30
0
41
1
10
28.4751207750642
20
-0.599656500984395
30
0
41
1
10
28.0918313107039
20
-0.318290545549758
30
0
41
1
10
27.9001530120481
20
-0.177002371006068
30
0
41
1
10
27.5162463260392
20
0.106155156665693
30
0
41
1
10
27.3240276855866
20
0.248041556989023
30
0
41
1
10
26.9384861824538
20
0.531637303858872
30
0
41
1
10
26.7451280567208
20
0.673276998258217
30
0
41
1
10
26.5023754763816
20
0.849707480101301
30
0
41
1
10
26.4537582501293
20
0.884973407401247
30
0
41
1
10
26.3566974184585
20
0.955226956206644
30
0
41
1
10
26.3082193585269
20
0.990239502876022
30
0
41
1
10
26.1629342162391
20
1.09492134175076
30
0
41
1
10
26.0662787440575
20
1.1642353747207
30
0
41
1
10
25.7767925222725
20
1.37063451940219
30
0
41
1
10
25.5844353244535
20
1.50617613067999
30
0
41
1
10
25.2004037521698
20
1.77251590564387
30
0
41
1
10
25.0087136292242
20
1.90331733491513
30
0
41
1
10
24.6255066223483
20
2.15953693934429
30
0
41
1
10
24.4340182987611
20
2.2849363035628
30
0
41
1
10
24.0506736919433
20
2.5296805965431
30
0
41
1
10
23.858826115838
20
2.64903410284984
30
0
41
1
10
23.4742410549888
20
2.88108993787654
30
0
41
1
10
23.2814997969317
20
2.99380731315642
30
0
41
1
10
23.0880747652822
20
3.10278606582889
30
0
0
SPLINE
5
1A1
100
AcDbEntity
8
1
62
256
6
ByLayer
370
18
48
1
60
0
100
AcDbSpline
70
4
71
3
72
36
73
32
40
0
40
0
40
0
40
0
40
0.250000000000026
40
0.250000000000026
40
0.281250000000021
40
0.281250000000021
40
0.312500000000017
40
0.312500000000017
40
0.343750000000012
40
0.343750000000012
40
0.375000000000008
40
0.375000000000008
40
0.437499999999999
40
0.437499999999999
40
0.499999999999991
40
0.499999999999991
40
0.562499999999982
40
0.562499999999982
40
0.624999999999973
40
0.624999999999973
40
0.656249999999969
40
0.656249999999969
40
0.687499999999965
40
0.687499999999965
40
0.749999999999981
40
0.749999999999981
40
0.874999999999991
40
0.874999999999991
40
0.937499999999996
40
0.937499999999996
40
1
40
1
40
1
40
1
41
1
10
32.3244066208889
20
-3.15436155395764
30
0
41
1
10
32.3973905212046
20
-3.14173546695949
30
0
41
1
10
32.4705568063688
20
-3.12727312952717
30
0
41
1
10
32.5531848090674
20
-3.10909376892136
30
0
41
1
10
32.5623721869805
20
-3.10705296867741
30
0
41
1
10
32.5807407238664
20
-3.10283792142681
30
0
41
1
10
32.5898891135225
20
-3.10050658872947
30
0
41
1
10
32.6085704405546
20
-3.097565706317
30
0
41
1
10
32.618078317742
20
-3.0968404424608
30
0
41
1
10
32.637396651172
20
-3.09676668984218
30
0
41
1
10
32.6472490758443
20
-3.09743170558673
30
0
41
1
10
32.6769791198516
20
-3.10142123126045
30
0
41
1
10
32.6963916153978
20
-3.10657115969241
30
0
41
1
10
32.7345372343671
20
-3.12074353970377
30
0
41
1
10
32.7532699937311
20
-3.12977033154982
30
0
41
1
10
32.7901238169878
20
-3.15108382461588
30
0
41
1
10
32.8077696263767
20
-3.16312404116417
30
0
41
1
10
32.8417460130961
20
-3.18934445915909
30
0
41
1
10
32.858090201067
20
-3.20352864846512
30
0
41
1
10
32.8817425041373
20
-3.22622233441834
30
0
41
1
10
32.8894820362111
20
-3.23402418901608
30
0
41
1
10
32.9046877999647
20
-3.25007301824078
30
0
41
1
10
32.9121467955809
20
-3.25831451770668
30
0
41
1
10
32.9339177740747
20
-3.28341947874043
30
0
41
1
10
32.9477107068392
20
-3.30073843044539
30
0
41
1
10
32.9870741477377
20
-3.35431755574558
30
0
41
1
10
33.0107169101819
20
-3.39212655418649
30
0
41
1
10
33.0425506502276
20
-3.4517554430308
30
0
41
1
10
33.0525764291316
20
-3.47218070007514
30
0
41
1
10
33.0711578932028
20
-3.51366208886685
30
0
41
1
10
33.0797339113706
20
-3.53473454250471
30
0
41
1
10
33.0875752783359
20
-3.55614907569122
30
0
0
SPLINE
5
1A2
100
AcDbEntity
8
1
62
256
6
ByLayer
370
18
48
1
60
0
100
AcDbSpline
70
4
71
3
72
46
73
42
40
0
40
0
40
0
40
0
40
0.016265574128488
40
0.016265574128488
40
0.0332265125055841
40
0.0332265125055841
40
0.0501874508826802
40
0.185874957899442
40
0.185874957899442
40
0.321562464916204
40
0.321562464916204
40
0.457249971932966
40
0.457249971932966
40
0.474210910310061
40
0.474210910310061
40
0.491171848687156
40
0.525093725441347
40
0.525093725441347
40
0.592937478949728
40
0.592937478949728
40
0.660781232458109
40
0.660781232458109
40
0.72862498596649
40
0.72862498596649
40
0.762546862720678
40
0.762546862720678
40
0.796468739474867
40
0.796468739474867
40
0.830390616229056
40
0.830390616229056
40
0.864312492983245
40
0.864312492983245
40
0.898234369737434
40
0.898234369737434
40
0.915195308114529
40
0.915195308114529
40
0.932156246491623
40
0.932156246491623
40
0.966078123245811
40
0.966078123245811
40
1
40
1
40
1
40
1
41
1
10
41.5957071401255
20
-4.0521196119102
30
0
41
1
10
41.5493038882377
20
-4.07054027783246
30
0
41
1
10
41.5028566273407
20
-4.08866994376873
30
0
41
1
10
41.407878367967
20
-4.12510021079871
30
0
41
1
10
41.3593168353624
20
-4.14338420293581
30
0
41
1
10
41.2623525832486
20
-4.17919906055116
30
0
41
1
10
40.8264770436602
20
-4.33707446291939
30
0
41
1
10
40.3944868883301
20
-4.46530226211422
30
0
41
1
10
39.6281678891265
20
-4.64568773528001
30
0
41
1
10
39.2457869171763
20
-4.71205358839859
30
0
41
1
10
38.4786164643753
20
-4.79584896642865
30
0
41
1
10
38.0938901698264
20
-4.81331905346613
30
0
41
1
10
37.657422290029
20
-4.80402287789065
30
0
41
1
10
37.6088728465914
20
-4.80258631450019
30
0
41
1
10
37.5119535566354
20
-4.79891540389599
30
0
41
1
10
37.3667348680384
20
-4.79221114623127
30
0
41
1
10
37.2219600198688
20
-4.78192899886423
30
0
41
1
10
36.932892665715
20
-4.75665635599256
30
0
41
1
10
36.7408227959132
20
-4.73353465778266
30
0
41
1
10
36.3573667233273
20
-4.67508557874183
30
0
41
1
10
36.165960999941
20
-4.63980612957621
30
0
41
1
10
35.7830870685629
20
-4.55796658798354
30
0
41
1
10
35.5916568518104
20
-4.51126156479819
30
0
41
1
10
35.3042731966332
20
-4.43229912179578
30
0
41
1
10
35.2084393446201
20
-4.4044956991288
30
0
41
1
10
35.0166464748596
20
-4.34587775133286
30
0
41
1
10
34.9206918438383
20
-4.3150396206334
30
0
41
1
10
34.7285689535813
20
-4.25047492935335
30
0
41
1
10
34.6323957793545
20
-4.2167731421309
30
0
41
1
10
34.4397404136569
20
-4.14670349693978
30
0
41
1
10
34.3432639315624
20
-4.11030978974961
30
0
41
1
10
34.1499692268284
20
-4.03470413072134
30
0
41
1
10
34.0531503208009
20
-3.99549241506546
30
0
41
1
10
33.9076122267149
20
-3.93454126738419
30
0
41
1
10
33.859094634618
20
-3.91388769800821
30
0
41
1
10
33.7622210239523
20
-3.87198704035518
30
0
41
1
10
33.7138381403318
20
-3.85072868248096
30
0
41
1
10
33.5688404044866
20
-3.78603588577252
30
0
41
1
10
33.4723804087361
20
-3.74167374059675
30
0
41
1
10
33.2797840616989
20
-3.65058473392094
30
0
41
1
10
33.1836393027242
20
-3.6038782496195
30
0
41
1
10
33.0875752783359
20
-3.5561490756912
30
0
0
SPLINE
5
1A3
100
AcDbEntity
8
1
62
256
6
ByLayer
370
18
48
1
60
0
100
AcDbSpline
70
4
71
3
72
19
73
15
40
0
40
0
40
0
40
0
40
0.0334270097478071
40
0.151101421578919
40
0.268775833410031
40
0.357031642283364
40
0.445287451156698
40
0.533543260030032
40
0.592380465945588
40
0.680636274818922
40
0.768892083692256
40
0.857147892565589
40
0.974822304396701
40
1
40
1
40
1
40
1
41
1
10
40.0326191336066
20
-4.31947384557398
30
0
41
1
10
39.8550794224045
20
-4.35415630325752
30
0
41
1
10
39.0525397112023
20
-4.48923202373507
30
0
41
1
10
37.6250000000001
20
-4.55001226213591
30
0
41
1
10
35.9062500000001
20
-4.27936650673908
30
0
41
1
10
34.3437500000001
20
-3.7798391004828
30
0
41
1
10
32.9375000000001
20
-3.15319063998845
30
0
41
1
10
31.6875000000001
20
-2.46765900885293
30
0
41
1
10
30.4375000000001
20
-1.69928673543683
30
0
41
1
10
29.1875000000001
20
-0.869568649489139
30
0
41
1
10
27.7812500000001
20
0.104504022721699
30
0
41
1
10
26.2187500000001
20
1.18132711154414
30
0
41
1
10
24.9912745833425
20
1.97647922648039
30
0
41
1
10
24.2325491666848
20
2.42161108660829
30
0
41
1
10
24.0988237500272
20
2.49848725669429
30
0
0
SPLINE
5
1A4
100
AcDbEntity
8
1
62
256
6
ByLayer
370
18
48
1
60
0
100
AcDbSpline
70
4
71
3
72
14
73
10
40
0
40
0
40
0
40
0
40
0.25
40
0.25
40
0.5
40
0.5
40
0.75
40
0.75
40
1
40
1
40
1
40
1
41
1
10
39.8260299465126
20
-1.21686144301833
30
0
41
1
10
39.8339901261026
20
-1.29234403912929
30
0
41
1
10
39.8395615609656
20
-1.36768950070413
30
0
41
1
10
39.8452923453842
20
-1.51817226113829
30
0
41
1
10
39.8454490162704
20
-1.59330912286154
30
0
41
1
10
39.8394233879094
20
-1.74345363195357
30
0
41
1
10
39.8332452330406
20
-1.81846098749981
30
0
41
1
10
39.8133555067335
20
-1.96845059067425
30
0
41
1
10
39.7996558188576
20
-2.04343244009411
30
0
41
1
10
39.7813910724304
20
-2.11847208158321
30
0
0
SPLINE
5
1A5
100
AcDbEntity
8
1
62
256
6
ByLayer
370
18
48
1
60
0
100
AcDbSpline
70
4
71
3
72
14
73
10
40
0
40
0
40
0
40
0
40
0.25
40
0.25
40
0.5
40
0.5
40
0.75
40
0.75
40
1
40
1
40
1
40
1
41
1
10
30.6002547963674
20
3.97950882488683
30
0
41
1
10
30.5958258359196
20
4.0097563402814
30
0
41
1
10
30.5918228054541
20
4.03978692742342
30
0
41
1
10
30.5854829208301
20
4.09941147874099
30
0
41
1
10
30.5831491767343
20
4.12900632394283
30
0
41
1
10
30.5807038625324
20
4.18788542453072
30
0
41
1
10
30.5805967256195
20
4.21717679156242
30
0
41
1
10
30.5827740135848
20
4.27564316642835
30
0
41
1
10
30.5850634227315
20
4.30480962329236
30
0
41
1
10
30.5883605369222
20
4.33403587447262
30
0
0
SPLINE
5
1A6
100
AcDbEntity
8
1
62
256
6
ByLayer
370
18
48
1
60
0
100
AcDbSpline
70
4
71
3
72
44
73
40
40
0
40
0
40
0
40
0
40
0.124999999999997
40
0.124999999999997
40
0.249999999999995
40
0.249999999999995
40
0.265624999999995
40
0.265624999999995
40
0.281249999999995
40
0.281249999999995
40
0.312499999999995
40
0.312499999999995
40
0.374999999999995
40
0.374999999999995
40
0.437499999999995
40
0.437499999999995
40
0.499999999999995
40
0.499999999999995
40
0.562499999999995
40
0.562499999999995
40
0.624999999999996
40
0.624999999999996
40
0.687499999999996
40
0.687499999999996
40
0.703124999999996
40
0.703124999999996
40
0.718749999999996
40
0.718749999999996
40
0.749999999999996
40
0.749999999999996
40
0.812499999999996
40
0.812499999999996
40
0.874999999999996
40
0.874999999999996
40
0.906249999999998
40
0.906249999999998
40
0.9375
40
0.9375
40
1
40
1
40
1
40
1
41
1
10
39.8260299465126
20
-1.21686144301833
30
0
41
1
10
39.44227645059
20
-0.95034779734371
30
0
41
1
10
39.0593526822317
20
-0.678683464844141
30
0
41
1
10
38.2916161400343
20
-0.130058968662411
30
0
41
1
10
37.906848910783
20
0.146968874672979
30
0
41
1
10
37.4708410726362
20
0.458815548006669
30
0
41
1
10
37.4223517062661
20
0.49346739313458
30
0
41
1
10
37.3252767684078
20
0.562764751245481
30
0
41
1
10
37.2766619027544
20
0.597431126557098
30
0
41
1
10
37.1310419575325
20
0.701131982088725
30
0
41
1
10
37.0341717500499
20
0.769932343446328
30
0
41
1
10
36.744086975381
20
0.975203925249616
30
0
41
1
10
36.5514107021233
20
1.11054851034615
30
0
41
1
10
36.1668489191448
20
1.37751651228092
30
0
41
1
10
35.9749005222234
20
1.50912937361684
30
0
41
1
10
35.5912567613176
20
1.76800956425598
30
0
41
1
10
35.3995764492153
20
1.89527857036978
30
0
41
1
10
35.0161900580112
20
2.14491486509184
30
0
41
1
10
34.8245169386958
20
2.26725814280204
30
0
41
1
10
34.4404640023587
20
2.50646101858751
30
0
41
1
10
34.2480869083604
20
2.62334334092
30
0
41
1
10
33.8622934028049
20
2.85096222637742
30
0
41
1
10
33.6688670321309
20
2.96169823563812
30
0
41
1
10
33.426138425927
20
3.09576854913425
30
0
41
1
10
33.3775185907288
20
3.12237898995079
30
0
41
1
10
33.2804325481115
20
3.17501827134166
30
0
41
1
10
33.2319399080186
20
3.20106198581035
30
0
41
1
10
33.0865875787494
20
3.27837288177469
30
0
41
1
10
32.9898459072088
20
3.32882883718503
30
0
41
1
10
32.700037978331
20
3.47686348309185
30
0
41
1
10
32.5074162432198
20
3.57108080629291
30
0
41
1
10
32.122958180105
20
3.75003062532898
30
0
41
1
10
31.9311350848928
20
3.83472298273694
30
0
41
1
10
31.643585859138
20
3.95437733199969
30
0
41
1
10
31.5477542357515
20
3.99305896270113
30
0
41
1
10
31.3560509553905
20
4.06803111414811
30
0
41
1
10
31.260185607248
20
4.10431021116403
30
0
41
1
10
30.9725050483249
20
4.20936569672978
30
0
41
1
10
30.7806035662938
20
4.27436971486401
30
0
41
1
10
30.5883605369222
20
4.33403587447262
30
0
0
SPLINE
5
1A7
100
AcDbEntity
8
1
62
256
6
ByLayer
370
18
48
1
60
0
100
AcDbSpline
70
4
71
3
72
36
73
32
40
0
40
0
40
0
40
0
40
0.249999999999973
40
0.249999999999973
40
0.28124999999996
40
0.28124999999996
40
0.312499999999948
40
0.312499999999948
40
0.343749999999936
40
0.343749999999936
40
0.374999999999924
40
0.374999999999924
40
0.437499999999901
40
0.437499999999901
40
0.468749999999906
40
0.468749999999906
40
0.49999999999991
40
0.49999999999991
40
0.562499999999919
40
0.562499999999919
40
0.624999999999928
40
0.624999999999928
40
0.687499999999937
40
0.687499999999937
40
0.749999999999946
40
0.749999999999946
40
0.812499999999955
40
0.812499999999955
40
0.874999999999964
40
0.874999999999964
40
1
40
1
40
1
40
1
41
1
10
39.8260299465126
20
-1.21686144301935
30
0
41
1
10
39.8986966354027
20
-1.22713533849281
30
0
41
1
10
39.9715213123774
20
-1.23548507659979
30
0
41
1
10
40.0537396763637
20
-1.24280105699506
30
0
41
1
10
40.0628808796265
20
-1.24358920739627
30
0
41
1
10
40.081154437587
20
-1.24504087962629
30
0
41
1
10
40.0902536148886
20
-1.24558238591624
30
0
41
1
10
40.1088674647259
20
-1.24808412149432
30
0
41
1
10
40.1183533917222
20
-1.24994257989869
30
0
41
1
10
40.1376526680742
20
-1.25479573920319
30
0
41
1
10
40.1475344877506
20
-1.25782191348975
30
0
41
1
10
40.177166496634
20
-1.26841757711276
30
0
41
1
10
40.1966261164179
20
-1.27733148505288
30
0
41
1
10
40.2254267389272
20
-1.29295660289492
30
0
41
1
10
40.2349615384189
20
-1.2985450182708
30
0
41
1
10
40.2539068259098
20
-1.31041700888292
30
0
41
1
10
40.2632976681838
20
-1.31669240656956
30
0
41
1
10
40.2908051705549
20
-1.33614328310654
30
0
41
1
10
40.3084300158752
20
-1.35005530098431
30
0
41
1
10
40.3425033565826
20
-1.37943002972844
30
0
41
1
10
40.3589538136858
20
-1.39489018859985
30
0
41
1
10
40.3907821248055
20
-1.4272195301433
30
0
41
1
10
40.4059352543033
20
-1.44385703062326
30
0
41
1
10
40.4348295822473
20
-1.4778005359492
30
0
41
1
10
40.4485963718787
20
-1.49513057424471
30
0
41
1
10
40.4748413855216
20
-1.53047313639152
30
0
41
1
10
40.4873307521084
20
-1.54848009957678
30
0
41
1
10
40.5111183768034
20
-1.5851282828767
30
0
41
1
10
40.5224381474987
20
-1.60383734844655
30
0
41
1
10
40.554306671806
20
-1.66040024526524
30
0
41
1
10
40.5727696258223
20
-1.69863642749246
30
0
41
1
10
40.588341021614
20
-1.73738459853303
30
0
0
SPLINE
5
1A8
100
AcDbEntity
8
1
62
256
6
ByLayer
370
18
48
1
60
0
100
AcDbSpline
70
4
71
3
72
23
73
19
40
0
40
0
40
0
40
0
40
0.125000000000008
40
0.125000000000008
40
0.187500000000009
40
0.187500000000009
40
0.250000000000011
40
0.250000000000011
40
0.500000000000007
40
0.500000000000007
40
0.750000000000004
40
0.750000000000004
40
0.874999999999999
40
0.874999999999999
40
0.906249999999999
40
0.906249999999999
40
0.9375
40
1
40
1
40
1
40
1
41
1
10
46.1059236646308
20
-4.46941680175033
30
0
41
1
10
45.8750838893426
20
-4.40850201879553
30
0
41
1
10
45.6443305682274
20
-4.33947990552966
30
0
41
1
10
45.2976129571048
20
-4.2243386755857
30
0
41
1
10
45.1819169028584
20
-4.18401939467265
30
0
41
1
10
44.950312826082
20
-4.09963228691794
30
0
41
1
10
44.8347947966321
20
-4.05570190546504
30
0
41
1
10
44.2583861111503
20
-3.82763145975909
30
0
41
1
10
43.801085077965
20
-3.61816455558093
30
0
41
1
10
42.8873731115285
20
-3.15252400796314
30
0
41
1
10
42.4309694504673
20
-2.89634351069145
30
0
41
1
10
41.7423209604268
20
-2.48184228526037
30
0
41
1
10
41.5120859812431
20
-2.33865309839231
30
0
41
1
10
41.2228943099091
20
-2.1538597279513
30
0
41
1
10
41.1649508737284
20
-2.11658708193303
30
0
41
1
10
41.049282721272
20
-2.04171233162884
30
0
41
1
10
40.8759936103068
20
-1.92883394173742
30
0
41
1
10
40.7032816387427
20
-1.81434585835808
30
0
41
1
10
40.588341021614
20
-1.73738459853303
30
0
0
SPLINE
5
1A9
100
AcDbEntity
8
1
62
256
6
ByLayer
370
18
48
1
60
0
100
AcDbSpline
70
4
71
3
72
22
73
18
40
0
40
0
40
0
40
0
40
0.249999999999965
40
0.249999999999965
40
0.312499999999956
40
0.312499999999956
40
0.374999999999947
40
0.374999999999947
40
0.499999999999934
40
0.499999999999934
40
0.62499999999992
40
0.62499999999992
40
0.687499999999945
40
0.687499999999945
40
0.749999999999971
40
0.749999999999971
40
1
40
1
40
1
40
1
41
1
10
46.4664666250634
20
-4.20706227757609
30
0
41
1
10
46.4462719739611
20
-4.24313664872224
30
0
41
1
10
46.4227666199923
20
-4.27599887474702
30
0
41
1
10
46.3894247396097
20
-4.3132126665995
30
0
41
1
10
46.3825547003354
20
-4.32045883622351
30
0
41
1
10
46.3684073449653
20
-4.33455407802268
30
0
41
1
10
46.3611489694485
20
-4.34138273811573
30
0
41
1
10
46.3390799254697
20
-4.3610125709138
30
0
41
1
10
46.3238860622504
20
-4.37305372115446
30
0
41
1
10
46.2925923661301
20
-4.39517717748438
30
0
41
1
10
46.2764889024911
20
-4.40525214035841
30
0
41
1
10
46.2516724466398
20
-4.4189472069236
30
0
41
1
10
46.2432771812203
20
-4.42327909662851
30
0
41
1
10
46.226454126236
20
-4.43138311994912
30
0
41
1
10
46.2180045030716
20
-4.43516824954196
30
0
41
1
10
46.1755708667279
20
-4.45282177534497
30
0
41
1
10
46.1410380815231
20
-4.46292195163323
30
0
41
1
10
46.105923664631
20
-4.46941680175036
30
0
0
SPLINE
5
1AA
100
AcDbEntity
8
1
62
256
6
ByLayer
370
13
48
1
60
0
100
AcDbSpline
70
4
71
3
72
14
73
10
40
0
40
0
40
0
40
0
40
0.111628387518793
40
0.267654055759846
40
0.423679724000898
40
0.579705392241951
40
0.735731060483004
40
0.891756728724056
40
1
40
1
40
1
40
1
41
1
10
46.4664666250581
20
-4.20706227757481
30
0
41
1
10
46.0193110833721
20
-4.09981419361557
30
0
41
1
10
44.9471555416861
20
-3.77506878836621
30
0
41
1
10
43.2500000000001
20
-3.02813569722343
30
0
41
1
10
41.3750000000001
20
-1.9672616253373
30
0
41
1
10
39.5000000000002
20
-0.751992449636958
30
0
41
1
10
37.6250000000002
20
0.519135099010185
30
0
41
1
10
35.9414043915971
20
1.62750556084336
30
0
41
1
10
34.8828087831942
20
2.25770763029522
30
0
41
1
10
34.4492131747912
20
2.50013871148624
30
0
0
SPLINE
5
1AB
100
AcDbEntity
8
1
62
256
6
ByLayer
370
18
48
1
60
0
100
AcDbSpline
70
4
71
3
72
16
73
12
40
0
40
0
40
0
40
0
40
0.164001653421631
40
0.164001653421631
40
0.246002480132447
40
0.246002480132447
40
0.328003306843263
40
0.328003306843263
40
0.65600661368654
40
0.65600661368654
40
1
40
1
40
1
40
1
41
1
10
29.826260118857
20
4.54177330256655
30
0
41
1
10
29.7295554883394
20
4.56449587767102
30
0
41
1
10
29.632676796357
20
4.58585732230884
30
0
41
1
10
29.4870575612854
20
4.61577291895864
30
0
41
1
10
29.4385103966998
20
4.62538210590498
30
0
41
1
10
29.3415677605464
20
4.64383856417413
30
0
41
1
10
29.293146206684
20
4.65269123740279
30
0
41
1
10
29.0512689280243
20
4.69507408098988
30
0
41
1
10
28.8585231245178
20
4.72291650307213
30
0
41
1
10
28.4646062815263
20
4.7677558881534
30
0
41
1
10
28.2634100161243
20
4.78437733434529
30
0
41
1
10
28.0624371467796
20
4.79452198215211
30
0
0
SPLINE
5
1AC
100
AcDbEntity
8
1
62
256
6
ByLayer
370
18
48
1
60
0
100
AcDbSpline
70
4
71
3
72
36
73
32
40
0
40
0
40
0
40
0
40
0.250000000000124
40
0.250000000000124
40
0.281250000000131
40
0.281250000000131
40
0.312500000000138
40
0.312500000000138
40
0.343750000000146
40
0.343750000000146
40
0.375000000000153
40
0.375000000000153
40
0.437500000000167
40
0.437500000000167
40
0.468750000000158
40
0.468750000000158
40
0.500000000000149
40
0.500000000000149
40
0.56250000000013
40
0.56250000000013
40
0.625000000000112
40
0.625000000000112
40
0.687500000000093
40
0.687500000000093
40
0.750000000000075
40
0.750000000000075
40
0.812500000000056
40
0.812500000000056
40
0.875000000000038
40
0.875000000000038
40
1
40
1
40
1
40
1
41
1
10
29.8262601188571
20
4.54177330256675
30
0
41
1
10
29.8989141013924
20
4.48913515983875
30
0
41
1
10
29.9717269669017
20
4.43655917978384
30
0
41
1
10
30.0539334447457
20
4.37763096245564
30
0
41
1
10
30.063073255388
20
4.37108815521597
30
0
41
1
10
30.0813438692791
20
4.35796762925659
30
0
41
1
10
30.0904429077327
20
4.35132101111506
30
0
41
1
10
30.109059651223
20
4.33891739107193
30
0
41
1
10
30.1185470531669
20
4.33309534774284
30
0
41
1
10
30.1378493954567
20
4.32215019514609
30
0
41
1
10
30.1477343384674
20
4.31699945347913
30
0
41
1
10
30.1773595755002
20
4.30280727335813
30
0
41
1
10
30.1968156685042
20
4.29508560230616
30
0
41
1
10
30.2256118470117
20
4.28553643293861
30
0
41
1
10
30.235145332536
20
4.28269646334917
30
0
41
1
10
30.2540882404818
20
4.27763028944625
30
0
41
1
10
30.2634750017094
20
4.27541313241738
30
0
41
1
10
30.2909724494255
20
4.26969768054079
30
0
41
1
10
30.3085913464325
20
4.26709142155596
30
0
41
1
10
30.3426538490134
20
4.26376260158432
30
0
41
1
10
30.3590993155385
20
4.26303756772671
30
0
41
1
10
30.3909180390463
20
4.26323440143693
30
0
41
1
10
30.4060606346175
20
4.26415161864409
30
0
41
1
10
30.4349408355231
20
4.26731776622444
30
0
41
1
10
30.4487009509943
20
4.26956569966376
30
0
41
1
10
30.4749330295271
20
4.27530367627961
30
0
41
1
10
30.4874163991286
20
4.27878116675563
30
0
41
1
10
30.5111921475293
20
4.28686956492828
30
0
41
1
10
30.5225062556231
20
4.29151155789452
30
0
41
1
10
30.5543527862689
20
4.30701139141985
30
0
41
1
10
30.5728019799015
20
4.31940584468873
30
0
41
1
10
30.5883605369222
20
4.33403587447262
30
0
0
SPLINE
5
1AD
100
AcDbEntity
8
1
62
256
6
ByLayer
370
18
48
1
60
0
100
AcDbSpline
70
4
71
3
72
15
73
11
40
0
40
0
40
0
40
0
40
0.0110148511583019
40
0.125128522178498
40
0.239242193198694
40
0.391393754558955
40
0.543545315919216
40
0.695696877279477
40
0.847848438639739
40
1
40
1
40
1
40
1
41
1
10
29.3232386394014
20
-4.30178262105287
30
0
41
1
10
29.2779924262676
20
-4.31037336103489
30
0
41
1
10
28.7639962131339
20
-4.40490760144874
30
0
41
1
10
27.7812500000001
20
-4.5187945711815
30
0
41
1
10
26.2187500000001
20
-4.49836828187543
30
0
41
1
10
24.5000000000001
20
-4.21823171820759
30
0
41
1
10
22.6250000000001
20
-3.61240816563861
30
0
41
1
10
20.7500000000002
20
-2.75006934064791
30
0
41
1
10
18.8750000000001
20
-1.69165152525554
30
0
41
1
10
17.6250000000001
20
-0.905536997374526
30
0
41
1
10
17.0000000000001
20
-0.506557256816279
30
0
0
SPLINE
5
1AE
100
AcDbEntity
8
1
62
256
6
ByLayer
370
18
48
1
60
0
100
AcDbSpline
70
4
71
3
72
36
73
32
40
0
40
0
40
0
40
0
40
0.249999999999992
40
0.249999999999992
40
0.281250000000007
40
0.281250000000007
40
0.312500000000022
40
0.312500000000022
40
0.343750000000036
40
0.343750000000036
40
0.375000000000051
40
0.375000000000051
40
0.437500000000047
40
0.437500000000047
40
0.500000000000042
40
0.500000000000042
40
0.562500000000038
40
0.562500000000038
40
0.593750000000035
40
0.593750000000035
40
0.625000000000032
40
0.625000000000032
40
0.687500000000027
40
0.687500000000027
40
0.750000000000022
40
0.750000000000022
40
0.812500000000016
40
0.812500000000016
40
0.875000000000011
40
0.875000000000011
40
1
40
1
40
1
40
1
41
1
10
24.8316436538818
20
-4.59151109817947
30
0
41
1
10
24.9034650609546
20
-4.55206451458469
30
0
41
1
10
24.9754072677365
20
-4.51162185124372
30
0
41
1
10
25.0565923025425
20
-4.46518703475573
30
0
41
1
10
25.0656168392919
20
-4.46001445844658
30
0
41
1
10
25.0836518660938
20
-4.44956485014822
30
0
41
1
10
25.0926471865884
20
-4.44423309956764
30
0
41
1
10
25.1111128724087
20
-4.43519472428579
30
0
41
1
10
25.1205383912591
20
-4.43133112577968
30
0
41
1
10
25.1397481974238
20
-4.42483917791546
30
0
41
1
10
25.1496096785503
20
-4.42220909178172
30
0
41
1
10
25.1789547967722
20
-4.41629640203263
30
0
41
1
10
25.1983061798441
20
-4.41486594550929
30
0
41
1
10
25.2366171123437
20
-4.41610053305092
30
0
41
1
10
25.2556963257869
20
-4.41881363804168
30
0
41
1
10
25.2922065409628
20
-4.42739774710324
30
0
41
1
10
25.3097913032589
20
-4.4332841823454
30
0
41
1
10
25.335330021275
20
-4.4440406865059
30
0
41
1
10
25.3437026022412
20
-4.44794904624553
30
0
41
1
10
25.3601815044876
20
-4.45636929124709
30
0
41
1
10
25.3683096816976
20
-4.46089642741077
30
0
41
1
10
25.3920607796655
20
-4.47519512819517
30
0
41
1
10
25.4071099631169
20
-4.48568661009207
30
0
41
1
10
25.4358790819242
20
-4.50826377824069
30
0
41
1
10
25.4496001091318
20
-4.52034820259345
30
0
41
1
10
25.4757772446078
20
-4.54602192165817
30
0
41
1
10
25.488245974228
20
-4.55959499679273
30
0
41
1
10
25.5120068479376
20
-4.58813035446411
30
0
41
1
10
25.5232559681086
20
-4.60307922467635
30
0
41
1
10
25.5548141063849
20
-4.64934096112665
30
0
41
1
10
25.5731053304687
20
-4.682255594651
30
0
41
1
10
25.5885457446147
20
-4.71737445671926
30
0
0
SPLINE
5
1AF
100
AcDbEntity
8
1
62
256
6
ByLayer
370
18
48
1
60
0
100
AcDbSpline
70
4
71
3
72
26
73
22
40
0
40
0
40
0
40
0
40
0.0215529953917546
40
0.0215529953917546
40
0.130269329237115
40
0.130269329237115
40
0.238985663082476
40
0.238985663082476
40
0.347701996927836
40
0.347701996927836
40
0.456418330773197
40
0.456418330773197
40
0.565134664618557
40
0.565134664618557
40
0.673850998463918
40
0.673850998463918
40
0.782567332309279
40
0.782567332309279
40
0.891283666154639
40
0.891283666154639
40
1
40
1
40
1
40
1
41
1
10
30.8996866473077
20
-4.05487314823185
30
0
41
1
10
30.8616657232409
20
-4.06886808930344
30
0
41
1
10
30.823649763095
20
-4.08268135727178
30
0
41
1
10
30.5938974603689
20
-4.16506098951677
30
0
41
1
10
30.4022581063895
20
-4.22909073711614
30
0
41
1
10
30.0187056005176
20
-4.34754843155741
30
0
41
1
10
29.8267431693854
20
-4.40213675078641
30
0
41
1
10
29.4421561135133
20
-4.50148127169336
30
0
41
1
10
29.2495343394153
20
-4.54621890448212
30
0
41
1
10
28.8632338071921
20
-4.62529793253523
30
0
41
1
10
28.669568326764
20
-4.65955061681711
30
0
41
1
10
28.2806397467085
20
-4.71782744497236
30
0
41
1
10
28.0868425222559
20
-4.74159852151521
30
0
41
1
10
27.7004524220718
20
-4.77803244561335
30
0
41
1
10
27.5078189100487
20
-4.79073933852735
30
0
41
1
10
27.1233107350609
20
-4.80504838068737
30
0
41
1
10
26.9314005266154
20
-4.80674000786826
30
0
41
1
10
26.547726800222
20
-4.79971406914876
30
0
41
1
10
26.3559960347933
20
-4.79090243510669
30
0
41
1
10
25.9724597335923
20
-4.76226803277021
30
0
41
1
10
25.7806461382825
20
-4.74247291994709
30
0
41
1
10
25.5885457446093
20
-4.71737445670701
30
0
0
SPLINE
5
1B0
100
AcDbEntity
8
1
62
256
6
ByLayer
370
18
48
1
60
0
100
AcDbSpline
70
4
71
3
72
14
73
10
40
0
40
0
40
0
40
0
40
0.25
40
0.25
40
0.5
40
0.5
40
0.75
40
0.75
40
1
40
1
40
1
40
1
41
1
10
24.8316436538818
20
-4.59151109817896
30
0
41
1
10
24.8394862923145
20
-4.61898523424907
30
0
41
1
10
24.8449223837492
20
-4.64629268281041
30
0
41
1
10
24.8503697532125
20
-4.70104848976212
30
0
41
1
10
24.8503771250297
20
-4.72849548129884
30
0
41
1
10
24.8440914218829
20
-4.78412637074734
30
0
41
1
10
24.8378013206545
20
-4.81230824765655
30
0
41
1
10
24.8178131740986
20
-4.87017616503698
30
0
41
1
10
24.8041270328478
20
-4.89985799703197
30
0
41
1
10
24.7860073115714
20
-4.93079902991678
30
0
0
SPLINE
5
1B1
100
AcDbEntity
8
1
62
256
6
ByLayer
370
18
48
1
60
0
100
AcDbSpline
70
4
71
3
72
42
73
38
40
0
40
0
40
0
40
0
40
0.0625000000000039
40
0.0625000000000039
40
0.0781250000000058
40
0.0781250000000058
40
0.0937500000000076
40
0.0937500000000076
40
0.125000000000008
40
0.125000000000008
40
0.187500000000004
40
0.187500000000004
40
0.250000000000001
40
0.250000000000001
40
0.312499999999998
40
0.312499999999998
40
0.374999999999996
40
0.374999999999996
40
0.437499999999994
40
0.437499999999994
40
0.499999999999993
40
0.499999999999993
40
0.562499999999991
40
0.562499999999991
40
0.59374999999999
40
0.59374999999999
40
0.62499999999999
40
0.62499999999999
40
0.749999999999992
40
0.749999999999992
40
0.812499999999994
40
0.812499999999994
40
0.874999999999996
40
0.874999999999996
40
0.937499999999998
40
0.937499999999998
40
1
40
1
40
1
40
1
41
1
10
24.8316436538817
20
-4.59151109817901
30
0
41
1
10
24.6683844815931
20
-4.55857932532558
30
0
41
1
10
24.5047375787911
20
-4.52178386122321
30
0
41
1
10
24.2995273870351
20
-4.47088007856641
30
0
41
1
10
24.2584307667988
20
-4.46045112291924
30
0
41
1
10
24.1763215954174
20
-4.43915798867511
30
0
41
1
10
24.1352997773834
20
-4.42829207612223
30
0
41
1
10
24.0123206213305
20
-4.39505892063261
30
0
41
1
10
23.9304481755336
20
-4.37206026621195
30
0
41
1
10
23.6851398990528
20
-4.3005491456592
30
0
41
1
10
23.5220171614784
20
-4.24951310827996
30
0
41
1
10
23.1964203753373
20
-4.14076550056197
30
0
41
1
10
23.0339451461548
20
-4.08305409265665
30
0
41
1
10
22.7093682314315
20
-3.96122125208922
30
0
41
1
10
22.54726062931
20
-3.89710972312287
30
0
41
1
10
22.223104117485
20
-3.76294430390826
30
0
41
1
10
22.0610559581333
20
-3.69290275467185
30
0
41
1
10
21.7368471324129
20
-3.5469107990883
30
0
41
1
10
21.5746847082988
20
-3.47096430709101
30
0
41
1
10
21.250004545289
20
-3.31332902362934
30
0
41
1
10
21.0874873639985
20
-3.23163186145334
30
0
41
1
10
20.7617979656048
20
-3.06288638878081
30
0
41
1
10
20.5986155680752
20
-2.97589195672526
30
0
41
1
10
20.3531884506679
20
-2.84142810012335
30
0
41
1
10
20.2712706803253
20
-2.79594223349204
30
0
41
1
10
20.1071826353387
20
-2.70368238551527
30
0
41
1
10
20.024949338802
20
-2.65687138420262
30
0
41
1
10
19.6145283436158
20
-2.42054513699188
30
0
41
1
10
19.2876661530353
20
-2.2237858752467
30
0
41
1
10
18.7980656538654
20
-1.91913355350783
30
0
41
1
10
18.6349791307409
20
-1.81599706550651
30
0
41
1
10
18.3087425777981
20
-1.6070105523192
30
0
41
1
10
18.1456055540821
20
-1.50112859546977
30
0
41
1
10
17.8190724508999
20
-1.28683752479307
30
0
41
1
10
17.6556681861653
20
-1.17844983920105
30
0
41
1
10
17.3283067650732
20
-0.95959330654415
30
0
41
1
10
17.1643473473702
20
-0.849135550885222
30
0
41
1
10
17.0000000000001
20
-0.737742285377891
30
0
0
SPLINE
5
1B2
100
AcDbEntity
8
1
62
256
6
ByLayer
370
18
48
1
60
0
100
AcDbSpline
70
4
71
3
72
8
73
4
40
0
40
0
40
0
40
0
40
1
40
1
40
1
40
1
41
1
10
17.0000000000001
20
-0.737742285377863
30
0
41
1
10
16.8363674159799
20
-0.642656718743581
30
0
41
1
10
16.6736741930635
20
-0.545841844086254
30
0
41
1
10
16.5119680726393
20
-0.447209772344507
30
0
0
SPLINE
5
1B3
100
AcDbEntity
8
1
62
256
6
ByLayer
370
18
48
1
60
0
100
AcDbSpline
70
4
71
3
72
29
73
25
40
0
40
0
40
0
40
0
40
0.0096376806317791
40
0.0583096297606261
40
0.15565352801832
40
0.204325477147167
40
0.252997426276014
40
0.301669375404861
40
0.350341324533708
40
0.447685222791402
40
0.496357171920249
40
0.545029121049096
40
0.593701070177943
40
0.64237301930679
40
0.691044968435637
40
0.739716917564484
40
0.788388866693331
40
0.837060815822178
40
0.885732764951025
40
0.910068739515449
40
0.934404714079872
40
0.958740688644296
40
0.983076663208719
40
1
40
1
40
1
40
1
41
1
10
16.9360795500829
20
-1.64022627974873
30
0
41
1
10
16.9613035384245
20
-1.65708233585787
30
0
41
1
10
17.1138897170001
20
-1.75885522068663
30
0
41
1
10
17.5208410078375
20
-2.0270625731946
30
0
41
1
10
18.0288787631358
20
-2.35049046207916
30
0
41
1
10
18.536371496473
20
-2.65902499539354
30
0
41
1
10
18.9167950908347
20
-2.88263762711742
30
0
41
1
10
19.297134334974
20
-3.09770123524939
30
0
41
1
10
19.8042516311807
20
-3.37219064195406
30
0
41
1
10
20.3115742583193
20
-3.62744613951065
30
0
41
1
10
20.8194460160688
20
-3.86110822413804
30
0
41
1
10
21.2007247472963
20
-4.0251797936389
30
0
41
1
10
21.5824684818122
20
-4.17744315018055
30
0
41
1
10
21.9646790641728
20
-4.31751627756486
30
0
41
1
10
22.347324935441
20
-4.44489201330256
30
0
41
1
10
22.7304142160701
20
-4.5592198509224
30
0
41
1
10
23.113925960622
20
-4.65997289407969
30
0
41
1
10
23.4978535886811
20
-4.74686500149247
30
0
41
1
10
23.8181157144458
20
-4.80743954869035
30
0
41
1
10
24.0745244686882
20
-4.84873352544861
30
0
41
1
10
24.266928458225
20
-4.87609077767419
30
0
41
1
10
24.4594268972217
20
-4.89976802083211
30
0
41
1
10
24.6324614963036
20
-4.91770659558503
30
0
41
1
10
24.7413413581898
20
-4.92720371811666
30
0
41
1
10
24.7860073115733
20
-4.93079902991693
30
0
0
SPLINE
5
1B4
100
AcDbEntity
8
1
62
256
6
ByLayer
370
18
48
1
60
0
100
AcDbSpline
70
4
71
3
72
9
73
5
40
0
40
0
40
0
40
0
40
0.264280473544781
40
1
40
1
40
1
40
1
41
1
10
36.305214961904
20
4.99930888335999
30
0
41
1
10
36.3943585602365
20
4.99875309663207
30
0
41
1
10
36.731435340834
20
4.99188936794255
30
0
41
1
10
37.0677086308019
20
4.96705038958882
30
0
41
1
10
37.3149853208142
20
4.93922063001216
30
0
0
SPLINE
5
1B5
100
AcDbEntity
8
1
62
256
6
ByLayer
370
18
48
1
60
0
100
AcDbSpline
70
4
71
3
72
17
73
13
40
0
40
0
40
0
40
0
40
0.0004517945062545
40
0.0986738816401776
40
0.196895968774101
40
0.295118055908024
40
0.393340143041947
40
0.49156223017587
40
0.688006404443716
40
0.78622849157764
40
0.884450578711563
40
1
40
1
40
1
40
1
41
1
10
33.0891440680318
20
-4.46346538121853
30
0
41
1
10
33.0897342081473
20
-4.46366938503169
30
0
41
1
10
33.2186233107982
20
-4.50821269064318
30
0
41
1
10
33.475784795896
20
-4.59185920948809
30
0
41
1
10
33.8604629577414
20
-4.70089177269432
30
0
41
1
10
34.2448417188613
20
-4.79353284269945
30
0
41
1
10
34.6287832696027
20
-4.86946825014806
30
0
41
1
10
35.1399514398226
20
-4.94806673894942
30
0
41
1
10
35.6497689427251
20
-4.99226445825082
30
0
41
1
10
36.1578804700854
20
-5.0022766708336
30
0
41
1
10
36.5603382997536
20
-4.9922096671842
30
0
41
1
10
36.8353717441864
20
-4.97194363957084
30
0
41
1
10
36.9839055906187
20
-4.95713241800135
30
0
0
SPLINE
5
1B6
100
AcDbEntity
8
1
62
256
6
ByLayer
370
18
48
1
60
0
100
AcDbSpline
70
4
71
3
72
16
73
12
40
0
40
0
40
0
40
0
40
0.0923962627131395
40
0.188557758252675
40
0.28471925379221
40
0.380880749331745
40
0.573203740410816
40
0.669365235950351
40
0.765526731489887
40
0.957849722568957
40
1
40
1
40
1
40
1
41
1
10
25.8474294457008
20
4.99927502793412
30
0
41
1
10
25.9691067104122
20
4.9984125089702
30
0
41
1
10
26.2174701700057
20
4.99159800333987
30
0
41
1
10
26.5926854637868
20
4.96573589393157
30
0
41
1
10
26.9730920347996
20
4.9235450949752
30
0
41
1
10
27.4806534696193
20
4.84605075085545
30
0
41
1
10
27.9888179821459
20
4.73686863885209
30
0
41
1
10
28.497646820192
20
4.59706301443441
30
0
41
1
10
29.0069367535083
20
4.43722898019595
30
0
41
1
10
29.4453455144891
20
4.27446960920051
30
0
41
1
10
29.7566490009657
20
4.1453205418054
30
0
41
1
10
29.8126239837985
20
4.12166691932163
30
0
0
SPLINE
5
1B7
100
AcDbEntity
8
1
62
256
6
ByLayer
370
18
48
1
60
0
100
AcDbSpline
70
4
71
3
72
16
73
12
40
0
40
0
40
0
40
0
40
0.250000000000051
40
0.250000000000051
40
0.500000000000103
40
0.500000000000103
40
0.750000000000154
40
0.750000000000154
40
0.875000000000077
40
0.875000000000077
40
1
40
1
40
1
40
1
41
1
10
46.0829773376083
20
-4.97399250084541
30
0
41
1
10
46.0753683049899
20
-4.97283087535621
30
0
41
1
10
46.0675604639039
20
-4.97166408414429
30
0
41
1
10
46.0513575448798
20
-4.96934149457436
30
0
41
1
10
46.0429603705748
20
-4.96818382053888
30
0
41
1
10
46.0252399633526
20
-4.96592746692281
30
0
41
1
10
46.0159880675259
20
-4.9648324254664
30
0
41
1
10
46.00094362199
20
-4.96333719948993
30
0
41
1
10
45.9957251495445
20
-4.96286336913266
30
0
41
1
10
45.9846742296253
20
-4.96200975457705
30
0
41
1
10
45.9789296917411
20
-4.96163522676864
30
0
41
1
10
45.9728123840975
20
-4.96135772860794
30
0
0
SPLINE
5
1B8
100
AcDbEntity
8
1
62
256
6
ByLayer
370
18
48
1
60
0
100
AcDbSpline
70
4
71
3
72
14
73
10
40
0
40
0
40
0
40
0
40
0.108998048391053
40
0.262604536277338
40
0.416211024163623
40
0.569817512049908
40
0.723423999936193
40
0.877030487822478
40
1
40
1
40
1
40
1
41
1
10
40.5896617595405
20
-2.98709787409206
30
0
41
1
10
40.7728187426366
20
-3.09676207116556
30
0
41
1
10
41.2157668526944
20
-3.35389460770131
30
0
41
1
10
41.9254831030412
20
-3.73105757690857
30
0
41
1
10
42.7236234197903
20
-4.10271901870502
30
0
41
1
10
43.5366626364974
20
-4.42154894199817
30
0
41
1
10
44.3671949939927
20
-4.68018137063362
30
0
41
1
10
45.1615371038215
20
-4.85803000285458
30
0
41
1
10
45.6851400001076
20
-4.93096629664254
30
0
41
1
10
45.9207770349103
20
-4.95447772013441
30
0
0
SPLINE
5
1B9
100
AcDbEntity
8
1
62
256
6
ByLayer
370
18
48
1
60
0
100
AcDbSpline
70
4
71
3
72
36
73
32
40
0
40
0
40
0
40
0
40
0.124999999999999
40
0.124999999999999
40
0.187499999999999
40
0.187499999999999
40
0.249999999999999
40
0.249999999999999
40
0.374999999999998
40
0.374999999999998
40
0.437499999999998
40
0.437499999999998
40
0.468749999999998
40
0.468749999999998
40
0.499999999999997
40
0.499999999999997
40
0.624999999999995
40
0.624999999999995
40
0.687499999999995
40
0.687499999999995
40
0.718749999999993
40
0.718749999999993
40
0.749999999999992
40
0.749999999999992
40
0.874999999999994
40
0.874999999999994
40
0.937499999999997
40
0.937499999999997
40
0.968749999999999
40
0.968749999999999
40
1
40
1
40
1
40
1
41
1
10
17.0000000000001
20
-2.09631034411669
30
0
41
1
10
17.326698937953
20
-2.30787744134278
30
0
41
1
10
17.6525816358186
20
-2.51214711345364
30
0
41
1
10
18.1417925368675
20
-2.80563357208783
30
0
41
1
10
18.3049732950111
20
-2.90131440371764
30
0
41
1
10
18.631573817494
20
-3.08793952936563
30
0
41
1
10
18.7946060435097
20
-3.1786787435133
30
0
41
1
10
19.283319653921
20
-3.4427138178134
30
0
41
1
10
19.6086278068925
20
-3.60779076090967
30
0
41
1
10
20.0974529339422
20
-3.83744848459492
30
0
41
1
10
20.2605365216682
20
-3.91101148592719
30
0
41
1
10
20.5055644120473
20
-4.01666664778242
30
0
41
1
10
20.5872397848858
20
-4.05107322918349
30
0
41
1
10
20.7504170784873
20
-4.11816027029457
30
0
41
1
10
20.8319495674132
20
-4.15085463136589
30
0
41
1
10
21.2394095186552
20
-4.31002876047134
30
0
41
1
10
21.5647308846409
20
-4.42356414887246
30
0
41
1
10
22.0533515040865
20
-4.57223088688474
30
0
41
1
10
22.2163329880233
20
-4.61816976517375
30
0
41
1
10
22.4611807973353
20
-4.6814840415739
30
0
41
1
10
22.5428686788313
20
-4.70165702018943
30
0
41
1
10
22.7060393843428
20
-4.74002333770662
30
0
41
1
10
22.7875677307094
20
-4.75822739207368
30
0
41
1
10
23.1950131886104
20
-4.84434193958097
30
0
41
1
10
23.5203461610793
20
-4.89760798265539
30
0
41
1
10
24.0090105330282
20
-4.95363826893689
30
0
41
1
10
24.1720076565961
20
-4.96833610469591
30
0
41
1
10
24.416857497652
20
-4.98430949909326
30
0
41
1
10
24.4985757124307
20
-4.98862600674107
30
0
41
1
10
24.6618443734445
20
-4.99522300877248
30
0
41
1
10
24.7434145784365
20
-4.99750423353171
30
0
41
1
10
24.8249369307584
20
-4.99877356398903
30
0
0
SPLINE
5
1BA
100
AcDbEntity
8
1
62
256
6
ByLayer
370
18
48
1
60
0
100
AcDbSpline
70
4
71
3
72
29
73
25
40
0
40
0
40
0
40
0
40
0.0016603262907247
40
0.0505360695765082
40
0.148287556148075
40
0.197163299433859
40
0.246039042719642
40
0.294914786005426
40
0.343790529291209
40
0.441542015862776
40
0.49041775914856
40
0.539293502434343
40
0.588169245720127
40
0.63704498900591
40
0.685920732291693
40
0.734796475577477
40
0.78367221886326
40
0.832547962149044
40
0.881423705434828
40
0.905861577077719
40
0.930299448720611
40
0.954737320363503
40
0.979175192006394
40
1
40
1
40
1
40
1
41
1
10
16.9990812145331
20
-2.05912200865359
30
0
41
1
10
17.0034074545518
20
-2.06193360563447
30
0
41
1
10
17.1350836684655
20
-2.14747333589156
30
0
41
1
10
17.5211553106426
20
-2.39506072711603
30
0
41
1
10
18.029195477578
20
-2.7072403107135
30
0
41
1
10
18.5366864756178
20
-3.00252498109174
30
0
41
1
10
18.917112005156
20
-3.21513714761267
30
0
41
1
10
19.2974509300191
20
-3.41824054912351
30
0
41
1
10
19.8045704526299
20
-3.67556013132028
30
0
41
1
10
20.3118883947127
20
-3.91175404382548
30
0
41
1
10
20.8197646420676
20
-4.12476947353653
30
0
41
1
10
21.2010430335245
20
-4.27250724604235
30
0
41
1
10
21.5827842627393
20
-4.40769938831787
30
0
41
1
10
21.9649931410367
20
-4.5300241091949
30
0
41
1
10
22.3476450480528
20
-4.63901959720934
30
0
41
1
10
22.730734522724
20
-4.73430117914552
30
0
41
1
10
23.1142423706464
20
-4.81545679799535
30
0
41
1
10
23.498167044683
20
-4.88231398839042
30
0
41
1
10
23.8184335040599
20
-4.92586249661721
30
0
41
1
10
24.0748432797629
20
-4.95331720092247
30
0
41
1
10
24.267246377569
20
-4.97018248402517
30
0
41
1
10
24.4597431250331
20
-4.9832922540202
30
0
41
1
10
24.6428393992053
20
-4.99218681934829
30
0
41
1
10
24.7617895650481
20
-4.99580795887383
30
0
41
1
10
24.8165271355299
20
-4.99701810530453
30
0
0
SPLINE
5
1BB
100
AcDbEntity
8
1
62
256
6
ByLayer
370
18
48
1
60
0
100
AcDbSpline
70
4
71
3
72
32
73
28
40
0
40
0
40
0
40
0
40
0.250000000000002
40
0.250000000000002
40
0.375000000000022
40
0.375000000000022
40
0.500000000000042
40
0.500000000000042
40
0.625000000000062
40
0.625000000000062
40
0.687500000000058
40
0.687500000000058
40
0.750000000000054
40
0.750000000000054
40
0.781250000000054
40
0.781250000000054
40
0.812500000000054
40
0.812500000000054
40
0.843750000000054
40
0.843750000000054
40
0.875000000000054
40
0.875000000000054
40
0.906250000000054
40
0.906250000000054
40
0.937500000000054
40
0.937500000000054
40
1
40
1
40
1
40
1
41
1
10
14.027500278842
20
1.35332352509457
30
0
41
1
10
14.0046914168757
20
1.37343429489863
30
0
41
1
10
13.98243866315
20
1.39402095302629
30
0
41
1
10
13.9505017132958
20
1.42616423619347
30
0
41
1
10
13.940099830987
20
1.43709229616036
30
0
41
1
10
13.9200119038532
20
1.4595825579143
30
0
41
1
10
13.9103179243438
20
1.47114256025859
30
0
41
1
10
13.8923078720817
20
1.49505390494952
30
0
41
1
10
13.8839111199802
20
1.50741976486142
30
0
41
1
10
13.8734145546749
20
1.52719826720772
30
0
41
1
10
13.8703146817643
20
1.53392490798672
30
0
41
1
10
13.8654446780207
20
1.5478287147653
30
0
41
1
10
13.8636368636433
20
1.55511221862179
30
0
41
1
10
13.8629976631667
20
1.56614003646814
30
0
41
1
10
13.8631426629927
20
1.56988325595617
30
0
41
1
10
13.8643843057009
20
1.57712126872167
30
0
41
1
10
13.8654694418237
20
1.5806245289557
30
0
41
1
10
13.8687988527169
20
1.5873434881392
30
0
41
1
10
13.8709805704123
20
1.59040575058211
30
0
41
1
10
13.8762005302553
20
1.59584854968406
30
0
41
1
10
13.8792600663965
20
1.59823961056219
30
0
41
1
10
13.8857476533207
20
1.60225806069587
30
0
41
1
10
13.8892426648871
20
1.60394212093442
30
0
41
1
10
13.8964587230734
20
1.60676627404462
30
0
41
1
10
13.9001446811283
20
1.60789832643402
30
0
41
1
10
13.9113660532184
20
1.61070733471109
30
0
41
1
10
13.9190888010534
20
1.61180947789504
30
0
41
1
10
13.926862160262
20
1.61245047505216
30
0
0
SPLINE
5
1BC
100
AcDbEntity
8
1
62
256
6
ByLayer
370
18
48
1
60
0
100
AcDbSpline
70
4
71
3
72
18
73
14
40
0
40
0
40
0
40
0
40
0.0624999999998985
40
0.0624999999998985
40
0.124999999999797
40
0.124999999999797
40
0.187499999999695
40
0.187499999999695
40
0.249999999999594
40
0.249999999999594
40
0.499999999999659
40
0.499999999999659
40
1
40
1
40
1
40
1
41
1
10
45.9287867276482
20
0.845434477210716
30
0
41
1
10
45.9283102278286
20
0.845885040687477
30
0
41
1
10
45.9277712081443
20
0.846294441726258
30
0
41
1
10
45.9264832717414
20
0.84663145769855
30
0
41
1
10
45.9257975564344
20
0.846435286252756
30
0
41
1
10
45.9248002722064
20
0.845638125062635
30
0
41
1
10
45.924437810459
20
0.845107978383993
30
0
41
1
10
45.9238248639084
20
0.844014709288729
30
0
41
1
10
45.9235796040058
20
0.843445193515038
30
0
41
1
10
45.9224929566863
20
0.840545435045442
30
0
41
1
10
45.922027681573
20
0.838080867001423
30
0
41
1
10
45.9208627010347
20
0.830749058276979
30
0
41
1
10
45.9204974696818
20
0.825804796716767
30
0
41
1
10
45.9202349374703
20
0.820846377840581
30
0
0
SPLINE
5
1BD
100
AcDbEntity
8
1
62
256
6
ByLayer
370
18
48
1
60
0
100
AcDbSpline
70
4
71
3
72
30
73
26
40
0
40
0
40
0
40
0
40
0.0624999999999176
40
0.0624999999999176
40
0.124999999999835
40
0.124999999999835
40
0.156249999999842
40
0.156249999999842
40
0.187499999999848
40
0.187499999999848
40
0.218749999999855
40
0.218749999999855
40
0.249999999999861
40
0.249999999999861
40
0.312499999999872
40
0.312499999999872
40
0.374999999999884
40
0.374999999999884
40
0.499999999999909
40
0.499999999999909
40
0.624999999999934
40
0.624999999999934
40
0.749999999999959
40
0.749999999999959
40
1
40
1
40
1
40
1
41
1
10
45.9681532944113
20
0.806153318471843
30
0
41
1
10
45.9738697630968
20
0.800117239309571
30
0
41
1
10
45.9798378003115
20
0.794351080434495
30
0
41
1
10
45.9927775235465
20
0.783900519672812
30
0
41
1
10
45.9998006925216
20
0.779096713887384
30
0
41
1
10
46.0116188758851
20
0.774454272032443
30
0
41
1
10
46.0156727142719
20
0.773398599648061
30
0
41
1
10
46.0240794353668
20
0.772866726424184
30
0
41
1
10
46.0283130120486
20
0.773465592025673
30
0
41
1
10
46.0360989372211
20
0.776405198777269
30
0
41
1
10
46.039604701242
20
0.778690701910023
30
0
41
1
10
46.045718842005
20
0.784060500646461
30
0
41
1
10
46.0483692618874
20
0.78714596193339
30
0
41
1
10
46.0555029241039
20
0.797023734718266
30
0
41
1
10
46.059067136161
20
0.804170668547386
30
0
41
1
10
46.065257924128
20
0.818908209423256
30
0
41
1
10
46.0678404794011
20
0.826552041728746
30
0
41
1
10
46.0746313784358
20
0.849585992956662
30
0
41
1
10
46.0779515145052
20
0.865159730512545
30
0
41
1
10
46.0835916333025
20
0.896488683048148
30
0
41
1
10
46.0858655669932
20
0.912252109904699
30
0
41
1
10
46.0897970166823
20
0.943890706325419
30
0
41
1
10
46.0914457604435
20
0.959767447082385
30
0
41
1
10
46.0957741950328
20
1.00750925997727
30
0
41
1
10
46.0978469619453
20
1.03944547833373
30
0
41
1
10
46.0995011075312
20
1.07140209198724
30
0
0
SPLINE
5
1BE
100
AcDbEntity
8
1
62
256
6
ByLayer
370
18
48
1
60
0
100
AcDbSpline
70
4
71
3
72
28
73
24
40
0
40
0
40
0
40
0
40
0.0200375925455107
40
0.0200375925455107
40
0.0716145613588989
40
0.0716145613588989
40
0.17476849898568
40
0.17476849898568
40
0.381076374239248
40
0.381076374239248
40
0.432653343052641
40
0.432653343052641
40
0.484230311866034
40
0.484230311866034
40
0.587384249492826
40
0.587384249492826
40
0.690538187119617
40
0.690538187119617
40
0.742115155933012
40
0.742115155933012
40
0.793692124746408
40
0.793692124746408
40
1
40
1
40
1
40
1
41
1
10
31.727116828592
20
3.98508434935547
30
0
41
1
10
31.7645173441378
20
4.00148613903059
30
0
41
1
10
31.8019276775858
20
4.01771562869377
30
0
41
1
10
31.9356732573902
20
4.07509826726292
30
0
41
1
10
32.0321326371176
20
4.11529574044647
30
0
41
1
10
32.3213560015245
20
4.23216464803394
30
0
41
1
10
32.5137869019899
20
4.30505509940963
30
0
41
1
10
33.090623457239
20
4.50830537535052
30
0
41
1
10
33.4745694636644
20
4.6232036099754
30
0
41
1
10
33.9562049630649
20
4.7394418152528
30
0
41
1
10
34.0526692623407
20
4.76133340604289
30
0
41
1
10
34.245341829375
20
4.80224815454966
30
0
41
1
10
34.3415964051863
20
4.82128419159687
30
0
41
1
10
34.6302059522298
20
4.8741073954597
30
0
41
1
10
34.8224078703861
20
4.90360351618884
30
0
41
1
10
35.2068717674546
20
4.95103156867921
30
0
41
1
10
35.3991344160222
20
4.96896617625291
30
0
41
1
10
35.6878916368544
20
4.98716418783786
30
0
41
1
10
35.7842039187452
20
4.99177852922568
30
0
41
1
10
35.9770010992789
20
4.99808369639317
30
0
41
1
10
36.0734566344501
20
4.99977118811799
30
0
41
1
10
36.5550115895461
20
5.00085416705844
30
0
41
1
10
36.938945686866
20
4.97819777209884
30
0
41
1
10
37.3235141997145
20
4.93233688175229
30
0
0
SPLINE
5
1BF
100
AcDbEntity
8
1
62
256
6
ByLayer
370
18
48
1
60
0
100
AcDbSpline
70
4
71
3
72
17
73
13
40
0
40
0
40
0
40
0
40
0.102754356149811
40
0.20486916145488
40
0.30698396675995
40
0.409098772065019
40
0.511213577370088
40
0.613328382675158
40
0.715443187980227
40
0.817557993285297
40
0.919672798590366
40
1
40
1
40
1
40
1
41
1
10
38.090178672228
20
4.82086498170742
30
0
41
1
10
38.3454740093087
20
4.77172793257409
30
0
41
1
10
38.8548669175495
20
4.65386212560779
30
0
41
1
10
39.6212728916759
20
4.41898079732971
30
0
41
1
10
40.3911355950625
20
4.12794050957837
30
0
41
1
10
41.1680794936518
20
3.78195700609785
30
0
41
1
10
41.9542126122446
20
3.38291275024071
30
0
41
1
10
42.7517156015396
20
2.93310909403723
30
0
41
1
10
43.5628695927263
20
2.43524991940458
30
0
41
1
10
44.3900387006582
20
1.89255613718925
30
0
41
1
10
45.1756659131823
20
1.35089212239356
30
0
41
1
10
45.6909047769364
20
0.985069962359887
30
0
41
1
10
45.9202349376452
20
0.820846377822591
30
0
0
SPLINE
5
1C0
100
AcDbEntity
8
1
62
256
6
ByLayer
370
18
48
1
60
0
100
AcDbSpline
70
4
71
3
72
16
73
12
40
0
40
0
40
0
40
0
40
0.249999999999949
40
0.249999999999949
40
0.499999999999898
40
0.499999999999898
40
0.749999999999846
40
0.749999999999846
40
0.874999999999923
40
0.874999999999923
40
1
40
1
40
1
40
1
41
1
10
46.0859029677633
20
0.662067017715998
30
0
41
1
10
46.0780956123118
20
0.672615091806875
30
0
41
1
10
46.0700806033845
20
0.682992375208869
30
0
41
1
10
46.0534399037558
20
0.703248473763239
30
0
41
1
10
46.0448114425728
20
0.713142153543998
30
0
41
1
10
46.0265989574777
20
0.732082182919811
30
0
41
1
10
46.017090178781
20
0.741088053525402
30
0
41
1
10
46.0016483017108
20
0.753244997041151
30
0
41
1
10
45.9962929597912
20
0.757073690580341
30
0
41
1
10
45.9849813039413
20
0.763981434288979
30
0
41
1
10
45.9791102737211
20
0.767017087040784
30
0
41
1
10
45.9728837913941
20
0.76936311284183
30
0
0
SPLINE
5
1C1
100
AcDbEntity
8
1
62
256
6
ByLayer
370
18
48
1
60
0
100
AcDbSpline
70
4
71
3
72
16
73
12
40
0
40
0
40
0
40
0
40
0.499999999999622
40
0.499999999999622
40
0.7499999999996
40
0.7499999999996
40
0.874999999999796
40
0.874999999999796
40
0.937499999999898
40
0.937499999999898
40
1
40
1
40
1
40
1
41
1
10
45.9202349376452
20
0.820846377822448
30
0
41
1
10
45.922140726399
20
0.81407459265634
30
0
41
1
10
45.9241697299002
20
0.807331923687173
30
0
41
1
10
45.9277596749767
20
0.797400972776046
30
0
41
1
10
45.9290416855781
20
0.79411432077498
30
0
41
1
10
45.9313281982522
20
0.789347406895104
30
0
41
1
10
45.9321505373663
20
0.787779925317125
30
0
41
1
10
45.933597385493
20
0.785578799563069
30
0
41
1
10
45.9341145275691
20
0.784868315655103
30
0
41
1
10
45.9353176003957
20
0.783559859037751
30
0
41
1
10
45.9360053402616
20
0.782932734157043
30
0
41
1
10
45.9368627860729
20
0.782625040652761
30
0
0
SPLINE
5
1C2
100
AcDbEntity
8
1
62
256
6
ByLayer
370
18
48
1
60
0
100
AcDbSpline
70
4
71
3
72
26
73
22
40
0
40
0
40
0
40
0
40
0.0625000000000055
40
0.0625000000000055
40
0.125000000000011
40
0.250000000000022
40
0.250000000000022
40
0.312500000000025
40
0.312500000000025
40
0.375000000000028
40
0.375000000000028
40
0.500000000000029
40
0.500000000000029
40
0.625000000000031
40
0.625000000000031
40
0.687500000000029
40
0.687500000000029
40
0.718750000000026
40
0.718750000000026
40
0.750000000000022
40
1
40
1
40
1
40
1
41
1
10
40.5866451464959
20
-3.01747929725008
30
0
41
1
10
40.7013418215601
20
-3.08579828931025
30
0
41
1
10
40.8162256271936
20
-3.15290428376383
30
0
41
1
10
41.0456026402138
20
-3.2840559178351
30
0
41
1
10
41.3893056398784
20
-3.47633020919105
30
0
41
1
10
41.7324430354692
20
-3.65479679201147
30
0
41
1
10
42.0758793361604
20
-3.82344292314858
30
0
41
1
10
42.1904076740344
20
-3.87802150933109
30
0
41
1
10
42.4196725175778
20
-3.98380155662184
30
0
41
1
10
42.5344535235457
20
-4.03502207060424
30
0
41
1
10
42.8789810890624
20
-4.18333691156838
30
0
41
1
10
43.1081245177331
20
-4.27475135605459
30
0
41
1
10
43.566106478795
20
-4.44223695016066
30
0
41
1
10
43.794941682191
20
-4.5183076254506
30
0
41
1
10
44.1385977214584
20
-4.62049781162813
30
0
41
1
10
44.2532174810574
20
-4.65257416076241
30
0
41
1
10
44.4253328092471
20
-4.69764909503144
30
0
41
1
10
44.482764281919
20
-4.71217427407143
30
0
41
1
10
44.5975285326855
20
-4.74015901117241
30
0
41
1
10
45.1135320891703
20
-4.86130250548493
30
0
41
1
10
45.6262587027833
20
-4.93932288904094
30
0
41
1
10
46.0829773375878
20
-4.97399250084979
30
0
0
SPLINE
5
1C3
100
AcDbEntity
8
1
62
256
6
ByLayer
370
18
48
1
60
0
100
AcDbSpline
70
4
71
3
72
27
73
23
40
0
40
0
40
0
40
0
40
0.250000000000007
40
0.250000000000007
40
0.281250000000007
40
0.281250000000007
40
0.312500000000007
40
0.375000000000008
40
0.375000000000008
40
0.50000000000001
40
0.50000000000001
40
0.56250000000001
40
0.56250000000001
40
0.625000000000009
40
0.625000000000009
40
0.750000000000006
40
0.750000000000006
40
0.875000000000003
40
0.875000000000003
40
0.937500000000002
40
0.937500000000002
40
1
40
1
40
1
40
1
41
1
10
17.0000000000002
20
4.88683720671307
30
0
41
1
10
17.4441282094237
20
4.81474038343663
30
0
41
1
10
17.8863939334898
20
4.70895544153635
30
0
41
1
10
18.3857526307131
20
4.55351024051697
30
0
41
1
10
18.4412654443365
20
4.53573069322286
30
0
41
1
10
18.5521858885657
20
4.4992226005692
30
0
41
1
10
18.718472587147
20
4.44301711468216
30
0
41
1
10
18.8845413370278
20
4.38253847688802
30
0
41
1
10
19.2165555497307
20
4.25601894603841
30
0
41
1
10
19.43773295135
20
4.16426869335848
30
0
41
1
10
19.7699183994655
20
4.01590233506386
30
0
41
1
10
19.8807154497816
20
3.96466547958593
30
0
41
1
10
20.1025518805033
20
3.85869540663143
30
0
41
1
10
20.213675483739
20
3.80391790498095
30
0
41
1
10
20.5465334944665
20
3.63497648733548
30
0
41
1
10
20.767972614071
20
3.51611999630913
30
0
41
1
10
21.2106767403826
20
3.26666353233631
30
0
41
1
10
21.4319491783229
20
3.13604250759371
30
0
41
1
10
21.7643786143976
20
2.93192547112597
30
0
41
1
10
21.8753173214937
20
2.86249384828423
30
0
41
1
10
22.0973034504994
20
2.72112184927471
30
0
41
1
10
22.2081530097038
20
2.64930933549115
30
0
41
1
10
22.3189164986011
20
2.57643263205401
30
0
0
SPLINE
5
1C4
100
AcDbEntity
8
1
62
256
6
ByLayer
370
18
48
1
60
0
100
AcDbSpline
70
4
71
3
72
16
73
12
40
0
40
0
40
0
40
0
40
0.48789419293907
40
0.48789419293907
40
0.609867741173832
40
0.609867741173832
40
0.731841289408594
40
0.731841289408594
40
0.975788385878129
40
0.975788385878129
40
1
40
1
40
1
40
1
41
1
10
33.0861213016221
20
-4.48069918723004
30
0
41
1
10
33.470700030536
20
-4.61173041913307
30
0
41
1
10
33.8543365773911
20
-4.7189966516224
30
0
41
1
10
34.3356569246381
20
-4.82209745881238
30
0
41
1
10
34.4320818507791
20
-4.84117785411522
30
0
41
1
10
34.6247411603945
20
-4.87610470139461
30
0
41
1
10
34.7209805629986
20
-4.89195390037946
30
0
41
1
10
35.0095349073059
20
-4.93464660825526
30
0
41
1
10
35.2016888304893
20
-4.956625455063
30
0
41
1
10
35.4129647764767
20
-4.97367354462242
30
0
41
1
10
35.4320409480641
20
-4.97514915798683
30
0
41
1
10
35.4511177686526
20
-4.97656109157828
30
0
0
SPLINE
5
1C5
100
AcDbEntity
8
1
62
256
6
ByLayer
370
18
48
1
60
0
100
AcDbSpline
70
4
71
3
72
10
73
6
40
0
40
0
40
0
40
0
40
0.660057217228081
40
0.660057217228081
40
1
40
1
40
1
40
1
41
1
10
35.5433856149861
20
-4.98289297092711
30
0
41
1
10
35.6857859757156
20
-4.99189761833063
30
0
41
1
10
35.8282439665611
20
-4.99735065978561
30
0
41
1
10
36.0443086555938
20
-5.00020060993739
30
0
41
1
10
36.1178327354322
20
-5.00022015101021
30
0
41
1
10
36.1913647988932
20
-4.99928594287488
30
0
0
SPLINE
5
1C6
100
AcDbEntity
8
1
62
256
6
ByLayer
370
18
48
1
60
0
100
AcDbSpline
70
4
71
3
72
17
73
13
40
0
40
0
40
0
40
0
40
0.0993536058196444
40
0.199518730703427
40
0.299683855587211
40
0.399848980470994
40
0.500014105354777
40
0.60017923023856
40
0.700344355122343
40
0.800509480006126
40
0.900674604889909
40
1
40
1
40
1
40
1
41
1
10
38.1006956667166
20
4.87321479846685
30
0
41
1
10
38.3523480437848
20
4.83874295814445
30
0
41
1
10
38.8581025449336
20
4.74984880407521
30
0
41
1
10
39.6208785898886
20
4.55784932556386
30
0
41
1
10
40.3907181928704
20
4.30717944727715
30
0
41
1
10
41.1677018503427
20
3.99967649920171
30
0
41
1
10
41.9537699028178
20
3.63671800141069
30
0
41
1
10
42.7513288053912
20
3.22019739484551
30
0
41
1
10
43.5624147633656
20
2.75222691519531
30
0
41
1
10
44.3897590707773
20
2.23549675281294
30
0
41
1
10
45.2329422996364
20
1.67534948447016
30
0
41
1
10
45.8087082195691
20
1.27602134969877
30
0
41
1
10
46.0995011075312
20
1.07140209198724
30
0
0
SPLINE
5
1C7
100
AcDbEntity
8
1
62
256
6
ByLayer
370
18
48
1
60
0
100
AcDbSpline
70
4
71
3
72
12
73
8
40
0
40
0
40
0
40
0
40
0.499999999999827
40
0.499999999999827
40
0.749999999999914
40
0.749999999999914
40
1
40
1
40
1
40
1
41
1
10
46.0995011075312
20
1.07140209198724
30
0
41
1
10
46.1160509908313
20
1.07305436594311
30
0
41
1
10
46.1316393929566
20
1.07697468072294
30
0
41
1
10
46.1537561563211
20
1.08588530808888
30
0
41
1
10
46.1609546183667
20
1.08938845918152
30
0
41
1
10
46.1745933147809
20
1.09712296701562
30
0
41
1
10
46.1810783672039
20
1.10136544929404
30
0
41
1
10
46.1872832020449
20
1.10592404465879
30
0
0
SPLINE
5
1C8
100
AcDbEntity
8
1
62
256
6
ByLayer
370
18
48
1
60
0
100
AcDbSpline
70
4
71
3
72
29
73
25
40
0
40
0
40
0
40
0
40
0.0082192512894173
40
0.0497287251755569
40
0.0912381990616965
40
0.132747672947836
40
0.174257146833976
40
0.215766620720115
40
0.257276094606255
40
0.298785568492394
40
0.340295042378534
40
0.381804516264673
40
0.423313990150813
40
0.464823464036953
40
0.547842411809232
40
0.589351885695371
40
0.630861359581511
40
0.71388030735379
40
0.75538978123993
40
0.796899255126069
40
0.879918202898349
40
0.921427676784488
40
0.962937150670628
40
1
40
1
40
1
40
1
41
1
10
23.0999890836307
20
2.41518620177104
30
0
41
1
10
23.1250359367974
20
2.39851809544265
30
0
41
1
10
23.2765662558625
20
2.29735277645096
30
0
41
1
10
23.5544767282727
20
2.10827575364536
30
0
41
1
10
23.933589131832
20
1.84321179378674
30
0
41
1
10
24.3125756498566
20
1.57207265683306
30
0
41
1
10
24.6914915934103
20
1.29562685253725
30
0
41
1
10
25.0703966721906
20
1.01479344259462
30
0
41
1
10
25.4493354291281
20
0.73048016316676
30
0
41
1
10
25.8283721336853
20
0.443709094506829
30
0
41
1
10
26.2075624322122
20
0.155268821814758
30
0
41
1
10
26.5869444345733
20
-0.133845753817013
30
0
41
1
10
26.9665528759741
20
-0.422689166935896
30
0
41
1
10
27.4730640558763
20
-0.806168528145378
30
0
41
1
10
27.9802151544068
20
-1.18528295068108
30
0
41
1
10
28.4880779451476
20
-1.55617730739704
30
0
41
1
10
28.9964553665974
20
-1.92042303755571
30
0
41
1
10
29.5056591710294
20
-2.27264833954268
30
0
41
1
10
30.0157953847368
20
-2.60925416430089
30
0
41
1
10
30.5266134443932
20
-2.93441772841712
30
0
41
1
10
31.0384838525094
20
-3.24029266722434
30
0
41
1
10
31.5510231964952
20
-3.52354680135647
30
0
41
1
10
31.9219530809745
20
-3.71687133284129
30
0
41
1
10
32.164770957148
20
-3.83558223871646
30
0
41
1
10
32.2793222054754
20
-3.88977465999543
30
0
0
SPLINE
5
1C9
100
AcDbEntity
8
1
62
256
6
ByLayer
370
18
48
1
60
0
100
AcDbSpline
70
4
71
3
72
24
73
20
40
0
40
0
40
0
40
0
40
0.0628112985712403
40
0.104494230109592
40
0.146177161647943
40
0.229543024724646
40
0.271225956262998
40
0.31290888780135
40
0.354591819339701
40
0.396274750878053
40
0.437957682416404
40
0.479640613954756
40
0.563006477031459
40
0.60468940856981
40
0.646372340108162
40
0.729738203184865
40
0.896469929338271
40
0.979835792414974
40
1
40
1
40
1
40
1
41
1
10
30.6002547963674
20
3.97950882488683
30
0
41
1
10
30.793123563398
20
3.89405007504428
30
0
41
1
10
31.1142338362106
20
3.74347038865858
30
0
41
1
10
31.5638411439479
20
3.51475973384325
30
0
41
1
10
32.0769579997401
20
3.23847938679407
30
0
41
1
10
32.5903780380217
20
2.93988634998962
30
0
41
1
10
33.1037759849053
20
2.62246057014204
30
0
41
1
10
33.4887507887866
20
2.37587438914227
30
0
41
1
10
33.8735725597588
20
2.1214382264474
30
0
41
1
10
34.2581407002761
20
1.86013427356332
30
0
41
1
10
34.6423310426247
20
1.59300342662993
30
0
41
1
10
35.1539483908778
20
1.23038138714165
30
0
41
1
10
35.664472448038
20
0.859757708198089
30
0
41
1
10
36.1734988324358
20
0.485280110987731
30
0
41
1
10
36.6813604232002
20
0.109569829358804
30
0
41
1
10
37.5673889290199
20
-0.54827393434303
30
0
41
1
10
38.578002013257
20
-1.2893571607114
30
0
41
1
10
39.4023895664915
20
-1.86300752106996
30
0
41
1
10
39.7195594528906
20
-2.0770212128848
30
0
41
1
10
39.7813910724364
20
-2.11847208158727
30
0
0
SPLINE
5
1CA
100
AcDbEntity
8
1
62
256
6
ByLayer
370
18
48
1
60
0
100
AcDbSpline
70
4
71
3
72
10
73
6
40
0
40
0
40
0
40
0
40
0.5
40
0.5
40
1
40
1
40
1
40
1
41
1
10
16.5183397810493
20
-4.80841544018335
30
0
41
1
10
16.4967374182839
20
-4.80573140570854
30
0
41
1
10
16.4748496682108
20
-4.80364943218348
30
0
41
1
10
16.4306267868456
20
-4.80078914561471
30
0
41
1
10
16.4082679254715
20
-4.80000751978207
30
0
41
1
10
16.3856406460552
20
-4.7999294478185
30
0
0
SPLINE
5
1CB
100
AcDbEntity
8
1
62
256
6
ByLayer
370
18
48
1
60
0
100
AcDbSpline
70
4
71
3
72
8
73
4
40
0
40
0
40
0
40
0
40
1
40
1
40
1
40
1
41
1
10
16.7468538167892
20
4.86750989188738
30
0
41
1
10
16.7944747372715
20
4.88603938338093
30
0
41
1
10
16.8407312539744
20
4.90212322225145
30
0
41
1
10
16.8856406460551
20
4.91593244425471
30
0
0
SPLINE
5
1CC
100
AcDbEntity
8
1
62
256
6
ByLayer
370
18
48
1
60
0
100
AcDbSpline
70
4
71
3
72
8
73
4
40
0
40
0
40
0
40
0
40
1
40
1
40
1
40
1
41
1
10
16.8856406460551
20
4.91593244425468
30
0
41
1
10
16.9021620589134
20
4.92101262564651
30
0
41
1
10
16.9192436974535
20
4.92561188910361
30
0
41
1
10
16.9368304908837
20
4.92971849793159
30
0
0
SPLINE
5
1CD
100
AcDbEntity
8
1
62
256
6
ByLayer
370
18
48
1
60
0
100
AcDbSpline
70
4
71
3
72
8
73
4
40
0
40
0
40
0
40
0
40
1
40
1
40
1
40
1
41
1
10
16.9368304908837
20
4.92971849793159
30
0
41
1
10
16.9493069654478
20
4.91965073480969
30
0
41
1
10
16.9709952636156
20
4.90839467136897
30
0
41
1
10
16.9991067160536
20
4.89478511638563
30
0
0
SPLINE
5
1CE
100
AcDbEntity
8
1
62
256
6
ByLayer
370
18
48
1
60
0
100
AcDbSpline
70
4
71
3
72
8
73
4
40
0
40
0
40
0
40
0
40
1
40
1
40
1
40
1
41
1
10
16.9991067160536
20
4.89478511638561
30
0
41
1
10
16.9993050423917
20
4.89213807811987
30
0
41
1
10
16.9995957899589
20
4.88948972635797
30
0
41
1
10
16.9999759910465
20
4.88683842967851
30
0
0
SPLINE
5
1CF
100
AcDbEntity
8
1
62
256
6
ByLayer
370
18
48
1
60
0
100
AcDbSpline
70
4
71
3
72
8
73
4
40
0
40
0
40
0
40
0
40
1
40
1
40
1
40
1
41
1
10
17
20
-2.09558495086827
30
0
41
1
10
17
20
-2.09582674860786
30
0
41
1
10
17
20
-2.09606854635732
30
0
41
1
10
17
20
-2.09631034411669
30
0
0
SPLINE
5
1D0
100
AcDbEntity
8
1
62
256
6
ByLayer
370
18
48
1
60
0
100
AcDbSpline
70
4
71
3
72
8
73
4
40
0
40
0
40
0
40
0
40
1
40
1
40
1
40
1
41
1
10
16.8856406460551
20
-2.01869928528515
30
0
41
1
10
16.9237167031804
20
-2.04459699143789
30
0
41
1
10
16.9618370542291
20
-2.07046427072944
30
0
41
1
10
17.0000000000001
20
-2.09630229039343
30
0
0
SPLINE
5
1D1
100
AcDbEntity
8
1
62
256
6
ByLayer
370
18
48
1
60
0
100
AcDbSpline
70
4
71
3
72
8
73
4
40
0
40
0
40
0
40
0
40
1
40
1
40
1
40
1
41
1
10
16.9360795500829
20
-1.64022627974873
30
0
41
1
10
16.9487756745802
20
-1.78131863394037
30
0
41
1
10
16.970668654491
20
-1.92118520526486
30
0
41
1
10
16.9990812145331
20
-2.05912200865359
30
0
0
SPLINE
5
1D2
100
AcDbEntity
8
1
62
256
6
ByLayer
370
18
48
1
60
0
100
AcDbSpline
70
4
71
3
72
8
73
4
40
0
40
0
40
0
40
0
40
1
40
1
40
1
40
1
41
1
10
16.5119680726382
20
-0.447209772345303
30
0
41
1
10
16.4707636358647
20
-0.417768009405592
30
0
41
1
10
16.4286688090101
20
-0.389523023248643
30
0
41
1
10
16.3856406460552
20
-0.362716095734981
30
0
0
SPLINE
5
1D3
100
AcDbEntity
8
1
62
256
6
ByLayer
370
18
48
1
60
0
100
AcDbSpline
70
4
71
3
72
10
73
6
40
0
40
0
40
0
40
0
40
0.5
40
0.5
40
1
40
1
40
1
40
1
41
1
10
16.3856406460553
20
-1.7772954563888
30
0
41
1
10
16.4362149849352
20
-1.7920069052214
30
0
41
1
10
16.4859244132022
20
-1.80890682990727
30
0
41
1
10
16.5834018812848
20
-1.84760645613639
30
0
41
1
10
16.6311697448241
20
-1.86940662831518
30
0
41
1
10
16.677823869734
20
-1.89401214414031
30
0
0
SPLINE
5
1D4
100
AcDbEntity
8
1
62
256
6
ByLayer
370
18
48
1
60
0
100
AcDbSpline
70
4
71
3
72
8
73
4
40
0
40
0
40
0
40
0
40
1
40
1
40
1
40
1
41
1
10
16.677823869734
20
-1.89401214414028
30
0
41
1
10
16.7504373767168
20
-1.93230871059896
30
0
41
1
10
16.8197188418419
20
-1.97386209247804
30
0
41
1
10
16.8856406460566
20
-2.0186992852837
30
0
0
SPLINE
5
1D5
100
AcDbEntity
8
1
62
256
6
ByLayer
370
18
48
1
60
0
100
AcDbSpline
70
4
71
3
72
37
73
33
40
0
40
0
40
0
40
0
40
0.12500000000001
40
0.12500000000001
40
0.187500000000016
40
0.187500000000016
40
0.218750000000019
40
0.218750000000019
40
0.250000000000022
40
0.250000000000022
40
0.375000000000028
40
0.375000000000028
40
0.437500000000031
40
0.437500000000031
40
0.468750000000031
40
0.468750000000031
40
0.500000000000031
40
0.500000000000031
40
0.625000000000023
40
0.625000000000023
40
0.687500000000019
40
0.687500000000019
40
0.718750000000017
40
0.718750000000017
40
0.750000000000015
40
0.875000000000008
40
0.875000000000008
40
0.906250000000005
40
0.906250000000005
40
0.937500000000002
40
0.937500000000002
40
1
40
1
40
1
40
1
41
1
10
38.0871509746128
20
4.81112543193314
30
0
41
1
10
38.4207296744718
20
4.74512992855367
30
0
41
1
10
38.7534019052146
20
4.66241266936925
30
0
41
1
10
39.252832893701
20
4.51424575614482
30
0
41
1
10
39.4193775463154
20
4.46083933438663
30
0
41
1
10
39.6694979411803
20
4.37479325002448
30
0
41
1
10
39.7529222230307
20
4.34512157748267
30
0
41
1
10
39.9199097480033
20
4.28381544467393
30
0
41
1
10
40.0033634133857
20
4.25222082067179
30
0
41
1
10
40.4202424746717
20
4.08973430048894
30
0
41
1
10
40.752789698891
20
3.94519863146596
30
0
41
1
10
41.2520742935397
20
3.70823396866786
30
0
41
1
10
41.4185805105544
20
3.62588454028949
30
0
41
1
10
41.6686970863964
20
3.49751796913927
30
0
41
1
10
41.7521608974812
20
3.45390483648063
30
0
41
1
10
41.9191030097768
20
3.36517313612504
30
0
41
1
10
42.00250538632
20
3.32009557414889
30
0
41
1
10
42.4192720200824
20
3.0912660421825
30
0
41
1
10
42.7519135824421
20
2.8972116117547
30
0
41
1
10
43.2514520222467
20
2.59163853121831
30
0
41
1
10
43.4180550941097
20
2.48735743786443
30
0
41
1
10
43.6683085217788
20
2.32752979698512
30
0
41
1
10
43.7518299540103
20
2.27365708646599
30
0
41
1
10
43.9187533935585
20
2.16499758460668
30
0
41
1
10
44.3357736494671
20
1.89106119134539
30
0
41
1
10
44.751828848742
20
1.60632376398811
30
0
41
1
10
45.1686966590519
20
1.31498365513559
30
0
41
1
10
45.2521110306955
20
1.25638542714839
30
0
41
1
10
45.4190615820127
20
1.1385791718391
30
0
41
1
10
45.5025175677678
20
1.07942766322705
30
0
41
1
10
45.7526954807053
20
0.901445384516336
30
0
41
1
10
45.9193087321132
20
0.782030671770968
30
0
41
1
10
46.0859029677463
20
0.662067017702441
30
0
0
SPLINE
5
1D6
100
AcDbEntity
8
1
62
256
6
ByLayer
370
18
48
1
60
0
100
AcDbSpline
70
4
71
3
72
14
73
10
40
0
40
0
40
0
40
0
40
0.5
40
0.5
40
0.625
40
0.625
40
0.75
40
0.75
40
1
40
1
40
1
40
1
41
1
10
40.4126153896011
20
-2.79222514505082
30
0
41
1
10
40.4478321554649
20
-2.82588108817612
30
0
41
1
10
40.4801372968176
20
-2.86149692804699
30
0
41
1
10
40.5167779852989
20
-2.90855237650072
30
0
41
1
10
40.5239148264851
20
-2.91809299751935
30
0
41
1
10
40.5377890868489
20
-2.93744465230043
30
0
41
1
10
40.5445428446253
20
-2.94728073089334
30
0
41
1
10
40.5640310304359
20
-2.97704010544021
30
0
41
1
10
40.5759388951233
20
-2.99712669572176
30
0
41
1
10
40.5866451464959
20
-3.01747929725008
30
0
0
SPLINE
5
1D7
100
AcDbEntity
8
1
62
256
6
ByLayer
370
18
48
1
60
0
100
AcDbSpline
70
4
71
3
72
28
73
24
40
0
40
0
40
0
40
0
40
0.124999999999932
40
0.124999999999932
40
0.187499999999899
40
0.187499999999899
40
0.249999999999865
40
0.249999999999865
40
0.374999999999841
40
0.374999999999841
40
0.43749999999983
40
0.43749999999983
40
0.499999999999819
40
0.499999999999819
40
0.531249999999812
40
0.531249999999812
40
0.562499999999805
40
0.562499999999805
40
0.624999999999833
40
0.624999999999833
40
0.749999999999889
40
0.749999999999889
40
1
40
1
40
1
40
1
41
1
10
40.4126153896011
20
-2.79222514505085
30
0
41
1
10
40.3893659600243
20
-2.77000614051721
30
0
41
1
10
40.3653921271395
20
-2.74919244156197
30
0
41
1
10
40.3283652547367
20
-2.72008896217312
30
0
41
1
10
40.3158462470409
20
-2.71073872538966
30
0
41
1
10
40.2904398113993
20
-2.69278092715229
30
0
41
1
10
40.2774952219963
20
-2.68414349492167
30
0
41
1
10
40.2384917010138
20
-2.65969029724073
30
0
41
1
10
40.2124478933173
20
-2.64540185832374
30
0
41
1
10
40.1733945738677
20
-2.62739933715949
30
0
41
1
10
40.1603615855693
20
-2.62196158219046
30
0
41
1
10
40.134386073742
20
-2.61240515867024
30
0
41
1
10
40.1216718959122
20
-2.608372412861
30
0
41
1
10
40.1030404424357
20
-2.60348632523531
30
0
41
1
10
40.0969061525578
20
-2.60205966316684
30
0
41
1
10
40.0847857445943
20
-2.59959227808298
30
0
41
1
10
40.0787807743799
20
-2.59849808806524
30
0
41
1
10
40.0607221856125
20
-2.595042850531
30
0
41
1
10
40.0486784349432
20
-2.59266089177646
30
0
41
1
10
40.0125927984111
20
-2.58544877717935
30
0
41
1
10
39.9885788822636
20
-2.58050249612702
30
0
41
1
10
39.9166434370105
20
-2.56519484520814
30
0
41
1
10
39.8688355347524
20
-2.55438513669506
30
0
41
1
10
39.8211657819248
20
-2.54296788964476
30
0
0
SPLINE
5
1D8
100
AcDbEntity
8
1
62
256
6
ByLayer
370
18
48
1
60
0
100
AcDbSpline
70
4
71
3
72
8
73
4
40
0
40
0
40
0
40
0
40
1
40
1
40
1
40
1
41
1
10
39.8126497760356
20
-2.50281851345883
30
0
41
1
10
39.8155582059037
20
-2.51619906578543
30
0
41
1
10
39.8183977206837
20
-2.52958215716205
30
0
41
1
10
39.8211657819249
20
-2.54296788964393
30
0
0
SPLINE
5
1D9
100
AcDbEntity
8
1
62
256
6
ByLayer
370
18
48
1
60
0
100
AcDbSpline
70
4
71
3
72
24
73
20
40
0
40
0
40
0
40
0
40
0.0637282964784585
40
0.105222233966721
40
0.146716171454984
40
0.229704046431509
40
0.271197983919771
40
0.312691921408034
40
0.354185858896296
40
0.395679796384559
40
0.437173733872821
40
0.478667671361084
40
0.561655546337609
40
0.603149483825872
40
0.644643421314134
40
0.727631296290659
40
0.89360704624371
40
0.976594921220235
40
1
40
1
40
1
40
1
41
1
10
30.5895948626408
20
3.76635022152482
30
0
41
1
10
30.7861633921044
20
3.66981824331995
30
0
41
1
10
31.1109774676278
20
3.50225514918682
30
0
41
1
10
31.5643044038383
20
3.25137309553324
30
0
41
1
10
32.0774229220802
20
2.95310325835231
30
0
41
1
10
32.5908331178558
20
2.63455357798247
30
0
41
1
10
33.1042361512777
20
2.29919089585354
30
0
41
1
10
33.4892142798861
20
2.04012114962708
30
0
41
1
10
33.8740330598866
20
1.77439396407209
30
0
41
1
10
34.2585961090021
20
1.5029874679168
30
0
41
1
10
34.6427911550762
20
1.22691353354443
30
0
41
1
10
35.1544238393444
20
0.853898756620026
30
0
41
1
10
35.6649277598257
20
0.475477634980422
30
0
41
1
10
36.1739523183134
20
0.0956832819089186
30
0
41
1
10
36.6818276091268
20
-0.283668673475347
30
0
41
1
10
37.5678417912855
20
-0.943357336024377
30
0
41
1
10
38.578494091826
20
-1.67649331026757
30
0
41
1
10
39.4130571320638
20
-2.24255540425074
30
0
41
1
10
39.7405302068042
20
-2.4562026063382
30
0
41
1
10
39.8126497760356
20
-2.50281851345883
30
0
0
SPLINE
5
1DA
100
AcDbEntity
8
1
62
256
6
ByLayer
370
18
48
1
60
0
100
AcDbSpline
70
4
71
3
72
40
73
36
40
0
40
0
40
0
40
0
40
0.0625000000000054
40
0.0625000000000054
40
0.0937500000000066
40
0.0937500000000066
40
0.125000000000008
40
0.25000000000001
40
0.25000000000001
40
0.281250000000009
40
0.281250000000009
40
0.312500000000008
40
0.312500000000008
40
0.375000000000009
40
0.43750000000001
40
0.43750000000001
40
0.468750000000009
40
0.468750000000009
40
0.500000000000009
40
0.500000000000009
40
0.624999999999999
40
0.624999999999999
40
0.687499999999996
40
0.687499999999996
40
0.718749999999996
40
0.718749999999996
40
0.749999999999996
40
0.749999999999996
40
0.874999999999998
40
0.874999999999998
40
0.906249999999998
40
0.906249999999998
40
0.937499999999999
40
0.937499999999999
40
1
40
1
40
1
40
1
41
1
10
30.5865343576433
20
3.74154860450224
30
0
41
1
10
30.7786876265847
20
3.64634005687987
30
0
41
1
10
30.9708965261679
20
3.5465151304426
30
0
41
1
10
31.25966823535
20
3.39019873057819
30
0
41
1
10
31.3560091692363
20
3.33699113483419
30
0
41
1
10
31.5488702923056
20
3.22844077186835
30
0
41
1
10
32.0305139789554
20
2.9522623991632
30
0
41
1
10
32.5103506360623
20
2.65290161925032
30
0
41
1
10
32.9912200499612
20
2.33786873981845
30
0
41
1
10
33.0874459696902
20
2.27407628381349
30
0
41
1
10
33.2800702234505
20
2.14498828857384
30
0
41
1
10
33.3765043940444
20
2.07966766534133
30
0
41
1
10
33.6653595336069
20
1.88211957201085
30
0
41
1
10
34.049810539766
20
1.61416477752655
30
0
41
1
10
34.4339652394376
20
1.33855445448057
30
0
41
1
10
34.7223692389586
20
1.12947585013148
30
0
41
1
10
34.8185518922801
20
1.0593873209215
30
0
41
1
10
35.0110773240485
20
0.91849984754117
30
0
41
1
10
35.1074590632045
20
0.847672207933954
30
0
41
1
10
35.5894963429921
20
0.492268921371561
30
0
41
1
10
35.9735739278688
20
0.205321747801264
30
0
41
1
10
36.5501959191715
20
-0.225227224951482
30
0
41
1
10
36.742496043287
20
-0.368754017445411
30
0
41
1
10
37.0314875199238
20
-0.583520511938445
30
0
41
1
10
37.1279110729489
20
-0.655023475976606
30
0
41
1
10
37.3204550218453
20
-0.797354965921755
30
0
41
1
10
37.4166445112383
20
-0.868234878766714
30
0
41
1
10
37.8973498789258
20
-1.22098821803524
30
0
41
1
10
38.2811514149036
20
-1.49791492337937
30
0
41
1
10
38.7625640228858
20
-1.83408406696253
30
0
41
1
10
38.8589880127084
20
-1.90085937066655
30
0
41
1
10
39.05177228246
20
-2.03313090249236
30
0
41
1
10
39.1480708599118
20
-2.09858564121166
30
0
41
1
10
39.4367740960393
20
-2.29281066048122
30
0
41
1
10
39.6289829638161
20
-2.4194463161362
30
0
41
1
10
39.8211657819247
20
-2.54296788964422
30
0
0
SPLINE
5
1DB
100
AcDbEntity
8
1
62
256
6
ByLayer
370
18
48
1
60
0
100
AcDbSpline
70
4
71
3
72
29
73
25
40
0
40
0
40
0
40
0
40
0.0094058195925724
40
0.0507273038862148
40
0.0920487881798573
40
0.1333702724735
40
0.174691756767142
40
0.216013241060785
40
0.257334725354427
40
0.298656209648069
40
0.339977693941712
40
0.381299178235354
40
0.422620662528997
40
0.463942146822639
40
0.546585115409924
40
0.587906599703567
40
0.629228083997209
40
0.711871052584494
40
0.753192536878136
40
0.794514021171779
40
0.877156989759064
40
0.918478474052706
40
0.959799958346348
40
1
40
1
40
1
40
1
41
1
10
23.0892701821667
20
2.08936864750149
30
0
41
1
10
23.1180637850163
20
2.06929805635389
30
0
41
1
10
23.2733408557071
20
1.9607318150484
30
0
41
1
10
23.5549925370479
20
1.76067019588334
30
0
41
1
10
23.9341072296142
20
1.48542471287351
30
0
41
1
10
24.3130955941048
20
1.20526408244908
30
0
41
1
10
24.6920104164158
20
0.921064440054664
30
0
41
1
10
25.0709130728745
20
0.63376277039788
30
0
41
1
10
25.4498543844129
20
0.344276872490298
30
0
41
1
10
25.8288919857742
20
0.053588076966264
30
0
41
1
10
26.2080795154387
20
-0.237420392414208
30
0
41
1
10
26.587460645104
20
-0.527771737197753
30
0
41
1
10
26.9670733570054
20
-0.816518355172235
30
0
41
1
10
27.4735864869217
20
-1.19808270183989
30
0
41
1
10
27.9807314553716
20
-1.5726057512392
30
0
41
1
10
28.4885988406118
20
-1.93630488229081
30
0
41
1
10
28.9969746320015
20
-2.29155318796887
30
0
41
1
10
29.5061740873111
20
-2.63223859519041
30
0
41
1
10
30.0163180901035
20
-2.95486424580449
30
0
41
1
10
30.5271352997135
20
-3.26431729117738
30
0
41
1
10
31.0389982530186
20
-3.5522537432156
30
0
41
1
10
31.5515464989124
20
-3.81545405306108
30
0
41
1
10
31.9327339809505
20
-3.99804545658594
30
0
41
1
10
32.1858135435591
20
-4.11018686823437
30
0
41
1
10
32.3106271060317
20
-4.16320268730126
30
0
0
SPLINE
5
1DC
100
AcDbEntity
8
1
62
256
6
ByLayer
370
18
48
1
60
0
100
AcDbSpline
70
4
71
3
72
41
73
37
40
0
40
0
40
0
40
0
40
0.062499999999993
40
0.062499999999993
40
0.0937499999999895
40
0.0937499999999895
40
0.124999999999986
40
0.124999999999986
40
0.249999999999977
40
0.249999999999977
40
0.281249999999977
40
0.281249999999977
40
0.312499999999977
40
0.312499999999977
40
0.374999999999977
40
0.374999999999977
40
0.437499999999977
40
0.437499999999977
40
0.468749999999979
40
0.468749999999979
40
0.49999999999998
40
0.49999999999998
40
0.62499999999998
40
0.62499999999998
40
0.656249999999981
40
0.656249999999981
40
0.687499999999983
40
0.749999999999986
40
0.749999999999986
40
0.812499999999988
40
0.812499999999988
40
0.84374999999999
40
0.84374999999999
40
0.874999999999991
40
0.874999999999991
40
1
40
1
40
1
40
1
41
1
10
23.0861947497325
20
2.05493526287236
30
0
41
1
10
23.2783571677768
20
1.9204802294424
30
0
41
1
10
23.470655196219
20
1.78328794417814
30
0
41
1
10
23.7597210139799
20
1.57389355763135
30
0
41
1
10
23.8561493482247
20
1.50351382837221
30
0
41
1
10
24.0487109582553
20
1.36204508491386
30
0
41
1
10
24.1449136681322
20
1.29090634835916
30
0
41
1
10
24.6256960647095
20
0.933404331315188
30
0
41
1
10
25.0095355572824
20
0.641568485716306
30
0
41
1
10
25.4910172710475
20
0.272892012818772
30
0
41
1
10
25.5874419394258
20
0.198933927562848
30
0
41
1
10
25.7799786457792
20
0.0511616182640751
30
0
41
1
10
25.8761549774542
20
-0.0227018632959926
30
0
41
1
10
26.1645200143528
20
-0.24407989334324
30
0
41
1
10
26.3565452479505
20
-0.391380972159396
30
0
41
1
10
26.7407540342865
20
-0.68464513215244
30
0
41
1
10
26.9329377416102
20
-0.830608502850282
30
0
41
1
10
27.2217709196044
20
-1.04797367456987
30
0
41
1
10
27.3182122114729
20
-1.12021815393609
30
0
41
1
10
27.5108773460036
20
-1.26373745997068
30
0
41
1
10
27.6071206171678
20
-1.33502809621754
30
0
41
1
10
28.0880503439285
20
-1.68895760390316
30
0
41
1
10
28.4718464480615
20
-1.96409264498928
30
0
41
1
10
28.953091155197
20
-2.2946503652293
30
0
41
1
10
29.0494786997006
20
-2.36013136546302
30
0
41
1
10
29.2421712419207
20
-2.48946128999475
30
0
41
1
10
29.5308936771078
20
-2.68088215466551
30
0
41
1
10
29.8189929219719
20
-2.86427094164228
30
0
41
1
10
30.2031658503518
20
-3.10101896515917
30
0
41
1
10
30.3952736456864
20
-3.21550176375189
30
0
41
1
10
30.6839205779551
20
-3.38089696497784
30
0
41
1
10
30.7802312595201
20
-3.43498423851381
30
0
41
1
10
30.9730251122303
20
-3.54094897314738
30
0
41
1
10
31.0693223221302
20
-3.59272453054766
30
0
41
1
10
31.5504782499033
20
-3.84545479913331
30
0
41
1
10
31.9343254518296
20
-4.02798924716711
30
0
41
1
10
32.3191688900303
20
-4.18912430285297
30
0
0
SPLINE
5
1DD
100
AcDbEntity
8
1
62
256
6
ByLayer
370
18
48
1
60
0
100
AcDbSpline
70
4
71
3
72
16
73
12
40
0
40
0
40
0
40
0
40
0.125
40
0.125
40
0.25
40
0.25
40
0.5
40
0.5
40
0.75
40
0.75
40
1
40
1
40
1
40
1
41
1
10
16.5119680726306
20
-0.447209772347776
30
0
41
1
10
16.5305362337414
20
-0.489683700715773
30
0
41
1
10
16.5479798435298
20
-0.532553818826358
30
0
41
1
10
16.5819409036557
20
-0.618598139507128
30
0
41
1
10
16.5984184230975
20
-0.661787103936945
30
0
41
1
10
16.6469980109855
20
-0.791612838196812
30
0
41
1
10
16.6782638276037
20
-0.878502259679777
30
0
41
1
10
16.7395684131006
20
-1.05258858272492
30
0
41
1
10
16.7695688816084
20
-1.13979961063191
30
0
41
1
10
16.8284596602499
20
-1.31449114072385
30
0
41
1
10
16.857342351345
20
-1.40197444176817
30
0
41
1
10
16.8856406460552
20
-1.489606662727
30
0
0
SPLINE
5
1DE
100
AcDbEntity
8
1
62
256
6
ByLayer
370
18
48
1
60
0
100
AcDbSpline
70
4
71
3
72
8
73
4
40
0
40
0
40
0
40
0
40
1
40
1
40
1
40
1
41
1
10
16.8856406460551
20
-1.48960666272703
30
0
41
1
10
16.9019269292835
20
-1.54004090921029
30
0
41
1
10
16.91875700936
20
-1.59024232667645
30
0
41
1
10
16.9360795500829
20
-1.64022627974873
30
0
0
SPLINE
5
1DF
100
AcDbEntity
8
1
62
256
6
ByLayer
370
18
48
1
60
0
100
AcDbSpline
70
4
71
2
72
6
73
3
40
0
40
0
40
0
40
1
40
1
40
1
41
1
10
17.3355165253927
20
-4.76768464103492
30
0
41
1
10
17.4532587121479
20
-4.6776372443841
30
0
41
1
10
17.5830449831239
20
-4.60616382082841
30
0
0
SPLINE
5
1E0
100
AcDbEntity
8
1
62
256
6
ByLayer
370
18
48
1
60
0
100
AcDbSpline
70
4
71
2
72
6
73
3
40
0
40
0
40
0
40
1
40
1
40
1
41
1
10
46.8911897426651
20
-0.458012391644587
30
0
41
1
10
46.9321765919077
20
-0.133126646889622
30
0
41
1
10
46.9731450230919
20
0.191611386032633
30
0
0
SPLINE
5
1E1
100
AcDbEntity
8
1
62
256
6
ByLayer
370
18
48
1
60
0
100
AcDbSpline
70
4
71
2
72
6
73
3
40
0
40
0
40
0
40
1
40
1
40
1
41
1
10
36.3077977153864
20
4.99929242842038
30
0
41
1
10
36.3078397892634
20
4.99929193741281
30
0
41
1
10
36.3078818632057
20
4.99929119671413
30
0
0
SPLINE
5
1E2
100
AcDbEntity
8
1
62
256
6
ByLayer
370
18
48
1
60
0
100
AcDbSpline
70
4
71
3
72
14
73
10
40
0
40
0
40
0
40
0
40
0.0897108876497365
40
0.189894812668585
40
0.298375386541885
40
0.423686716817034
40
0.562077022349857
40
0.708826706267703
40
1
40
1
40
1
40
1
41
1
10
38.1033267024882
20
4.88445933480938
30
0
41
1
10
38.0907776236546
20
4.85881994066833
30
0
41
1
10
38.0589378402542
20
4.80932214127543
30
0
41
1
10
37.9892989380425
20
4.74530162987537
30
0
41
1
10
37.894568783303
20
4.69812684523276
30
0
41
1
10
37.777445616376
20
4.68060706512537
30
0
41
1
10
37.6475007340853
20
4.70633610652067
30
0
41
1
10
37.5002021504551
20
4.81341966445035
30
0
41
1
10
37.3854943405911
20
4.88642253488229
30
0
41
1
10
37.3128575815146
20
4.94138003452758
30
0
0
SPLINE
5
1E3
100
AcDbEntity
8
1
62
256
6
ByLayer
370
18
48
1
60
0
100
AcDbSpline
70
4
71
2
72
6
73
3
40
0
40
0
40
0
40
1
40
1
40
1
41
1
10
36.1912429008235
20
-4.99928773766479
30
0
41
1
10
36.1911891115004
20
-4.99928760364637
30
0
41
1
10
36.1911353222537
20
-4.99928713197937
30
0
0
SPLINE
5
1E4
100
AcDbEntity
8
1
62
256
6
ByLayer
370
18
48
1
60
0
100
AcDbSpline
70
4
71
2
72
6
73
3
40
0
40
0
40
0
40
1
40
1
40
1
41
1
10
25.8429868986834
20
4.99930541883685
30
0
41
1
10
25.843034982442
20
4.99930488733602
30
0
41
1
10
25.8430830661876
20
4.9993040622341
30
0
0
SPLINE
5
1E5
100
AcDbEntity
8
1
62
256
6
ByLayer
370
18
48
1
60
0
100
AcDbSpline
70
4
71
1
72
4
73
2
40
0
40
0
40
1
40
1
41
1
10
45.4082438189104
20
3.01463529428796
30
0
41
1
10
45.2291976985333
20
3.08397328678703
30
0
0
SPLINE
5
1E6
100
AcDbEntity
8
1
62
256
6
ByLayer
370
18
48
1
60
0
100
AcDbSpline
70
4
71
3
72
9
73
5
40
0
40
0
40
0
40
0
40
0.898370041557974
40
1
40
1
40
1
40
1
41
1
10
42.843117852057
20
3.86602184795919
30
0
41
1
10
42.603463324273
20
3.922417679353
30
0
41
1
10
42.338988782412
20
3.98021510937255
30
0
41
1
10
42.0789154368481
20
4.03224645286809
30
0
41
1
10
42.0525209666376
20
4.03747589442932
30
0
0
SPLINE
5
1E7
100
AcDbEntity
8
1
62
256
6
ByLayer
370
18
48
1
60
0
100
AcDbSpline
70
4
71
3
72
18
73
14
40
0
40
0
40
0
40
0
40
0.167974881232618
40
0.295566371091693
40
0.388678089085153
40
0.481176550538507
40
0.578509831710309
40
0.655864330573682
40
0.719811708461558
40
0.777333236739232
40
0.847135671967324
40
0.945725019245552
40
1
40
1
40
1
40
1
41
1
10
17.4269703861166
20
-4.39113510673494
30
0
41
1
10
17.6019624305581
20
-4.38535168699116
30
0
41
1
10
17.9085445985388
20
-4.37062987593248
30
0
41
1
10
18.3107030949156
20
-4.34026837802841
30
0
41
1
10
18.6300208713743
20
-4.31014922877384
30
0
41
1
10
18.9197903632285
20
-4.2781930649918
30
0
41
1
10
19.1943430666742
20
-4.24352429749496
30
0
41
1
10
19.4401864608606
20
-4.20892175313199
30
0
41
1
10
19.645585660202
20
-4.17763825625235
30
0
41
1
10
19.8441878751722
20
-4.14540343821821
30
0
41
1
10
20.076786497628
20
-4.10528656571282
30
0
41
1
10
20.3057987431813
20
-4.06275684391514
30
0
41
1
10
20.4628505030745
20
-4.03171714017972
30
0
41
1
10
20.5185975283225
20
-4.02046704021998
30
0
0
SPLINE
5
1E8
100
AcDbEntity
8
1
62
256
6
ByLayer
370
18
48
1
60
0
100
AcDbSpline
70
4
71
3
72
11
73
7
40
0
40
0
40
0
40
0
40
0.314185561213606
40
0.502506376047051
40
0.689185012557337
40
1
40
1
40
1
40
1
41
1
10
36.9631959117922
20
2.26279646403907
30
0
41
1
10
36.8193183245586
20
2.30116879276943
30
0
41
1
10
36.5890571990595
20
2.36883866035109
30
0
41
1
10
36.272381385571
20
2.47571602490476
30
0
41
1
10
35.9581239547363
20
2.59182414735116
30
0
41
1
10
35.7293610039746
20
2.68573996250998
30
0
41
1
10
35.5863010580984
20
2.74816499760502
30
0
0
SPLINE
5
1E9
100
AcDbEntity
8
1
62
256
6
ByLayer
370
18
48
1
60
0
100
AcDbSpline
70
4
71
3
72
13
73
9
40
0
40
0
40
0
40
0
40
0.188192707782644
40
0.336035159645973
40
0.443681596389098
40
0.51577696913001
40
0.708727712540096
40
1
40
1
40
1
40
1
41
1
10
26.2452564220248
20
2.37187619525901
30
0
41
1
10
26.1330140568345
20
2.39761166613133
30
0
41
1
10
25.9324666832663
20
2.44783375980805
30
0
41
1
10
25.6673721494059
20
2.52423529583584
30
0
41
1
10
25.4714749794603
20
2.58626117976118
30
0
41
1
10
25.2488063184459
20
2.66117302192671
30
0
41
1
10
24.9167441933589
20
2.78255128660837
30
0
41
1
10
24.6268965836075
20
2.90331988183056
30
0
41
1
10
24.4523858988247
20
2.98144419852269
30
0
0
SPLINE
5
1EA
100
AcDbEntity
8
1
62
256
6
ByLayer
370
18
48
1
60
0
100
AcDbSpline
70
4
71
3
72
16
73
12
40
0
40
0
40
0
40
0
40
0.15774576738023
40
0.304830197535655
40
0.435424191809452
40
0.533472695606501
40
0.61200684472239
40
0.738308635193535
40
0.8629984246378
40
0.925074284034534
40
1
40
1
40
1
40
1
41
1
10
27.8654752160898
20
-4.39124547492173
30
0
41
1
10
28.0695732713782
20
-4.38456312296111
30
0
41
1
10
28.4607176474853
20
-4.36561033107128
30
0
41
1
10
29.011544993224
20
-4.3211417849989
30
0
41
1
10
29.4779886652111
20
-4.27084617075155
30
0
41
1
10
29.8628399766636
20
-4.2203664763058
30
0
41
1
10
30.2459179958695
20
-4.1634885715057
30
0
41
1
10
30.6625230670743
20
-4.09334291472769
30
0
41
1
10
31.0579467397551
20
-4.01739517209569
30
0
41
1
10
31.3880033541269
20
-3.9484715318263
30
0
41
1
10
31.5611540779377
20
-3.91023743481372
30
0
41
1
10
31.6558766160894
20
-3.88871482039158
30
0
0
SPLINE
5
1EB
100
AcDbEntity
8
1
62
256
6
ByLayer
370
18
48
1
60
0
100
AcDbSpline
70
4
71
3
72
10
73
6
40
0
40
0
40
0
40
0
40
0.519722578384628
40
0.911911155754171
40
1
40
1
40
1
40
1
41
1
10
22.1614323538051
20
3.80210239501
30
0
41
1
10
21.9801645550592
20
3.84961902697796
30
0
41
1
10
21.6632461458182
20
3.92818983725593
30
0
41
1
10
21.3161617273515
20
4.00554246957276
30
0
41
1
10
21.1510402861294
20
4.0401015618632
30
0
41
1
10
21.1207849177629
20
4.04635668054399
30
0
0
SPLINE
5
1EC
100
AcDbEntity
8
1
62
256
6
ByLayer
370
18
48
1
60
0
100
AcDbSpline
70
4
71
3
72
18
73
14
40
0
40
0
40
0
40
0
40
0.176746005927174
40
0.306611281335722
40
0.411874481095527
40
0.513980951293843
40
0.576910440671727
40
0.630730642827642
40
0.68177294830639
40
0.746491453868487
40
0.839359741922075
40
0.960375659190393
40
1
40
1
40
1
40
1
41
1
10
38.7664935918733
20
-4.39120091890305
30
0
41
1
10
38.9750364346834
20
-4.38400562316738
30
0
41
1
10
39.3343329747186
20
-4.3647497523848
30
0
41
1
10
39.8116315435489
20
-4.32270316900744
30
0
41
1
10
40.1981944871002
20
-4.27895029212348
30
0
41
1
10
40.5112738016856
20
-4.23658340643343
30
0
41
1
10
40.7656062056543
20
-4.19776437557439
30
0
41
1
10
40.961268439976
20
-4.16552965105518
30
0
41
1
10
41.1600325641431
20
-4.13059899224956
30
0
41
1
10
41.4022898046379
20
-4.08517233211305
30
0
41
1
10
41.7254925213711
20
-4.01945904372875
30
0
41
1
10
42.0190833045785
20
-3.95364493147051
30
0
41
1
10
42.2050706545712
20
-3.90924562053195
30
0
41
1
10
42.2509431570491
20
-3.89812903724663
30
0
0
SPLINE
5
1ED
100
AcDbEntity
8
1
62
256
6
ByLayer
370
18
48
1
60
0
100
AcDbSpline
70
4
71
3
72
14
73
10
40
0
40
0
40
0
40
0
40
0.268114052866471
40
0.476734698115649
40
0.625900670555597
40
0.724250935552828
40
0.820596161323918
40
0.922604415142186
40
1
40
1
40
1
40
1
41
1
10
33.8306839006158
20
3.41062299277576
30
0
41
1
10
33.6053075148347
20
3.48171251513909
30
0
41
1
10
33.2045845055136
20
3.60222668625727
30
0
41
1
10
32.6784962657746
20
3.74719589229952
30
0
41
1
10
32.2951603514114
20
3.84470148075343
30
0
41
1
10
32.0065792823088
20
3.91370156871071
30
0
41
1
10
31.757355071525
20
3.97018518025985
30
0
41
1
10
31.5256018456758
20
4.0197155450424
30
0
41
1
10
31.3746580079769
20
4.05017605144266
30
0
41
1
10
31.3094573937253
20
4.06299231458499
30
0
0
SPLINE
5
1EE
100
AcDbEntity
8
1
62
256
6
ByLayer
370
18
48
1
60
0
100
AcDbSpline
70
4
71
2
72
6
73
3
40
0
40
0
40
0
40
1
40
1
40
1
41
1
10
46.9729928198394
20
0.229119401435156
30
0
41
1
10
46.9310537546032
20
0.555287507399214
30
0
41
1
10
46.8890571189664
20
0.881908025248691
30
0
0
LINE
5
79
100
AcDbEntity
8
80
62
256
6
ByLayer
370
18
48
1
60
0
100
AcDbLine
10
0
20
0
30
0
11
-5
21
0
31
0
39
0
210
0
220
0
230
1
0
LINE
5
7A
100
AcDbEntity
8
4
62
256
6
ByLayer
370
18
48
0.05
60
0
100
AcDbLine
10
0
20
0
30
0
11
47
21
0
31
0
39
0
210
0
220
0
230
1
0
LINE
5
7C
100
AcDbEntity
8
81
62
256
6
ByLayer
370
18
48
1
60
0
100
AcDbLine
10
47
20
0
30
0
11
52
21
0
31
0
39
0
210
0
220
0
230
1
0
LINE
5
7D
100
AcDbEntity
8
SK4
62
256
6
ByLayer
370
18
48
0.05
60
0
100
AcDbLine
10
-40
20
0
30
0
11
47
21
0
31
0
39
0
210
0
220
0
230
1
0
LINE
5
7F
100
AcDbEntity
8
1
62
256
6
ByLayer
370
18
48
1
60
0
100
AcDbLine
10
0
20
5
30
0
11
0
21
0
31
0
39
0
210
0
220
0
230
1
0
LINE
5
80
100
AcDbEntity
8
1
62
256
6
ByLayer
370
18
48
1
60
0
100
AcDbLine
10
0
20
0
30
0
11
0
21
-5
31
0
39
0
210
0
220
0
230
1
0
LINE
5
81
100
AcDbEntity
8
1
62
256
6
ByLayer
370
18
48
1
60
0
100
AcDbLine
10
46.96499
20
0.192342
30
0
11
46.9729
21
0.192597
31
0
39
0
210
0
220
0
230
1
0
LINE
5
82
100
AcDbEntity
8
1
62
256
6
ByLayer
370
18
48
1
60
0
100
AcDbLine
10
46.891115
20
-0.455675
30
0
11
46.879564
21
-0.455031
31
0
39
0
210
0
220
0
230
1
0
LINE
5
83
100
AcDbEntity
8
1
62
256
6
ByLayer
370
18
48
1
60
0
100
AcDbLine
10
46.873709
20
-0.234298
30
0
11
46.900004
21
0.018753
31
0
39
0
210
0
220
0
230
1
0
LINE
5
84
100
AcDbEntity
8
1
62
256
6
ByLayer
370
18
48
1
60
0
100
AcDbLine
10
17.331825
20
-4.769787
30
0
11
17.338179
21
-4.765834
31
0
39
0
210
0
220
0
230
1
0
LINE
5
85
100
AcDbEntity
8
1
62
256
6
ByLayer
370
18
48
1
60
0
100
AcDbLine
10
46.866914
20
-0.015089
30
0
11
46.867793
21
0.017952
31
0
39
0
210
0
220
0
230
1
0
LINE
5
86
100
AcDbEntity
8
1
62
256
6
ByLayer
370
18
48
1
60
0
100
AcDbLine
10
46.890491
20
0.870804
30
0
11
46.9729
21
3.967292
31
0
39
0
210
0
220
0
230
1
0
LINE
5
87
100
AcDbEntity
8
1
62
256
6
ByLayer
370
18
48
1
60
0
100
AcDbLine
10
46.822433
20
-0.01353
30
0
11
46.866914
21
-0.015089
31
0
39
0
210
0
220
0
230
1
0
LINE
5
88
100
AcDbEntity
8
1
62
256
6
ByLayer
370
13
48
1
60
0
100
AcDbLine
10
45.929469
20
-4.948126
30
0
11
45.936917
21
-4.959772
31
0
39
0
210
0
220
0
230
1
0
LINE
5
89
100
AcDbEntity
8
1
62
256
6
ByLayer
370
18
48
1
60
0
100
AcDbLine
10
46.867404
20
0.003276
30
0
11
46.9729
21
-3.972669
31
0
39
0
210
0
220
0
230
1
0
LINE
5
8A
100
AcDbEntity
8
1
62
256
6
ByLayer
370
18
48
1
60
0
100
AcDbLine
10
46.845923
20
-0.059662
30
0
11
46.860136
21
-0.014853
31
0
39
0
210
0
220
0
230
1
0
LINE
5
8B
100
AcDbEntity
8
1
62
256
6
ByLayer
370
18
48
1
60
0
100
AcDbLine
10
46.844476
20
-0.058422
30
0
11
46.845923
21
-0.059662
31
0
39
0
210
0
220
0
230
1
0
LINE
5
8C
100
AcDbEntity
8
1
62
256
6
ByLayer
370
18
48
1
60
0
100
AcDbLine
10
46.844577
20
-0.014304
30
0
11
46.844476
21
-0.058422
31
0
39
0
210
0
220
0
230
1
0
LINE
5
8D
100
AcDbEntity
8
1
62
256
6
ByLayer
370
18
48
1
60
0
100
AcDbLine
10
46.827828
20
-0.261268
30
0
11
46.822433
21
-0.01353
31
0
39
0
210
0
220
0
230
1
0
LINE
5
8E
100
AcDbEntity
8
1
62
256
6
ByLayer
370
13
48
1
60
0
100
AcDbLine
10
16.885641
20
4.915932
30
0
11
16.885641
21
4.829478
31
0
39
0
210
0
220
0
230
1
0
LINE
5
8F
100
AcDbEntity
8
1
62
256
6
ByLayer
370
13
48
1
60
0
100
AcDbLine
10
46.580754
20
0.010341
30
0
11
46.827828
21
-0.261268
31
0
39
0
210
0
220
0
230
1
0
LINE
5
90
100
AcDbEntity
8
1
62
256
6
ByLayer
370
18
48
1
60
0
100
AcDbLine
10
37.313101
20
4.94121
30
0
11
37.314985
21
4.939221
31
0
39
0
210
0
220
0
230
1
0
LINE
5
91
100
AcDbEntity
8
1
62
256
6
ByLayer
370
13
48
1
60
0
100
AcDbLine
10
45.972384
20
-4.960688
30
0
11
45.968525
21
-4.954654
31
0
39
0
210
0
220
0
230
1
0
LINE
5
92
100
AcDbEntity
8
1
62
256
6
ByLayer
370
13
48
1
60
0
100
AcDbLine
10
16.691215
20
4.75603
30
0
11
17
21
4.562824
31
0
39
0
210
0
220
0
230
1
0
LINE
5
93
100
AcDbEntity
8
1
62
256
6
ByLayer
370
13
48
1
60
0
100
AcDbLine
10
14.060217
20
-4.476773
30
0
11
17
21
-4.500507
31
0
39
0
210
0
220
0
230
1
0
LINE
5
94
100
AcDbEntity
8
1
62
256
6
ByLayer
370
13
48
1
60
0
100
AcDbLine
10
13.436653
20
4.467784
30
0
11
17
21
2.238213
31
0
39
0
210
0
220
0
230
1
0
LINE
5
95
100
AcDbEntity
8
1
62
256
6
ByLayer
370
18
48
1
60
0
100
AcDbLine
10
13.964636
20
-4.372033
30
0
11
17
21
-4.396539
31
0
39
0
210
0
220
0
230
1
0
LINE
5
96
100
AcDbEntity
8
1
62
256
6
ByLayer
370
18
48
1
60
0
100
AcDbLine
10
46.891115
20
-3.844792
30
0
11
46.817074
21
-1.024454
31
0
39
0
210
0
220
0
230
1
0
LINE
5
97
100
AcDbEntity
8
1
62
256
6
ByLayer
370
18
48
1
60
0
100
AcDbLine
10
17
20
2.100797
30
0
11
17
21
2.238213
31
0
39
0
210
0
220
0
230
1
0
LINE
5
98
100
AcDbEntity
8
1
62
256
6
ByLayer
370
18
48
1
60
0
100
AcDbLine
10
46.020248
20
-2.1451
30
0
11
46.80906
21
-1.036275
31
0
39
0
210
0
220
0
230
1
0
LINE
5
99
100
AcDbEntity
8
1
62
256
6
ByLayer
370
13
48
1
60
0
100
AcDbLine
10
46.80906
20
-1.036275
30
0
11
44.251655
21
-0.560081
31
0
39
0
210
0
220
0
230
1
0
LINE
5
9A
100
AcDbEntity
8
1
62
256
6
ByLayer
370
18
48
1
60
0
100
AcDbLine
10
17
20
-4.396539
30
0
11
17
21
-4.095917
31
0
39
0
210
0
220
0
230
1
0
LINE
5
9B
100
AcDbEntity
8
1
62
256
6
ByLayer
370
18
48
1
60
0
100
AcDbLine
10
17
20
0.767648
30
0
11
17
21
2.100797
31
0
39
0
210
0
220
0
230
1
0
LINE
5
9C
100
AcDbEntity
8
1
62
256
6
ByLayer
370
13
48
1
60
0
100
AcDbLine
10
13.389667
20
4.359768
30
0
11
17
21
2.100797
31
0
39
0
210
0
220
0
230
1
0
LINE
5
9D
100
AcDbEntity
8
1
62
256
6
ByLayer
370
18
48
1
60
0
100
AcDbLine
10
17
20
-4.500507
30
0
11
17
21
-4.396539
31
0
39
0
210
0
220
0
230
1
0
LINE
5
9E
100
AcDbEntity
8
1
62
256
6
ByLayer
370
18
48
1
60
0
100
AcDbLine
10
14.440826
20
-4.075256
30
0
11
17
21
-4.095917
31
0
39
0
210
0
220
0
230
1
0
LINE
5
9F
100
AcDbEntity
8
1
62
256
6
ByLayer
370
18
48
1
60
0
100
AcDbLine
10
17
20
-4.095917
30
0
11
17
21
-2.187419
31
0
39
0
210
0
220
0
230
1
0
LINE
5
A0
100
AcDbEntity
8
1
62
256
6
ByLayer
370
13
48
1
60
0
100
AcDbLine
10
13.028846
20
-2.155358
30
0
11
17
21
-2.187419
31
0
39
0
210
0
220
0
230
1
0
LINE
5
A1
100
AcDbEntity
8
1
62
256
6
ByLayer
370
18
48
1
60
0
100
AcDbLine
10
17
20
-2.187419
30
0
11
17
21
-2.092747
31
0
39
0
210
0
220
0
230
1
0
LINE
5
A2
100
AcDbEntity
8
1
62
256
6
ByLayer
370
18
48
1
60
0
100
AcDbLine
10
17
20
-0.310399
30
0
11
17
21
0.767648
31
0
39
0
210
0
220
0
230
1
0
LINE
5
A3
100
AcDbEntity
8
1
62
256
6
ByLayer
370
18
48
1
60
0
100
AcDbLine
10
14.331411
20
2.437373
30
0
11
17
21
0.767648
31
0
39
0
210
0
220
0
230
1
0
LINE
5
A4
100
AcDbEntity
8
1
62
256
6
ByLayer
370
18
48
1
60
0
100
AcDbLine
10
17
20
-0.506557
30
0
11
17
21
-0.310399
31
0
39
0
210
0
220
0
230
1
0
LINE
5
A5
100
AcDbEntity
8
1
62
256
6
ByLayer
370
13
48
1
60
0
100
AcDbLine
10
13.926862
20
1.61245
30
0
11
17
21
-0.310399
31
0
39
0
210
0
220
0
230
1
0
LINE
5
A6
100
AcDbEntity
8
1
62
256
6
ByLayer
370
18
48
1
60
0
100
AcDbLine
10
17
20
2.238213
30
0
11
17
21
4.562824
31
0
39
0
210
0
220
0
230
1
0
LINE
5
A7
100
AcDbEntity
8
1
62
256
6
ByLayer
370
13
48
1
60
0
100
AcDbLine
10
13.0606
20
-2.014962
30
0
11
16.926075
21
-2.04617
31
0
39
0
210
0
220
0
230
1
0
LINE
5
A8
100
AcDbEntity
8
1
62
256
6
ByLayer
370
13
48
1
60
0
100
AcDbLine
10
16.385641
20
4.719494
30
0
11
16.385641
21
4.8
31
0
39
0
210
0
220
0
230
1
0
LINE
5
A9
100
AcDbEntity
8
1
62
256
6
ByLayer
370
13
48
1
60
0
100
AcDbLine
10
14.0275
20
1.353324
30
0
11
17
21
-0.506557
31
0
39
0
210
0
220
0
230
1
0
LINE
5
AA
100
AcDbEntity
8
1
62
256
6
ByLayer
370
18
48
1
60
0
100
AcDbLine
10
46.920813
20
0.019312
30
0
11
46.9729
21
0.223321
31
0
39
0
210
0
220
0
230
1
0
LINE
5
AB
100
AcDbEntity
8
1
62
256
6
ByLayer
370
13
48
1
60
0
100
AcDbLine
10
44.904395
20
0.289802
30
0
11
46.427092
21
0.006273
31
0
39
0
210
0
220
0
230
1
0
LINE
5
AC
100
AcDbEntity
8
1
62
256
6
ByLayer
370
18
48
1
60
0
100
AcDbLine
10
46.920813
20
0.019312
30
0
11
46.427092
21
0.006273
31
0
39
0
210
0
220
0
230
1
0
LINE
5
AD
100
AcDbEntity
8
1
62
256
6
ByLayer
370
13
48
1
60
0
100
AcDbLine
10
45.928787
20
0.845434
30
0
11
45.936863
21
0.782625
31
0
39
0
210
0
220
0
230
1
0
LINE
5
AE
100
AcDbEntity
8
1
62
256
6
ByLayer
370
18
48
1
60
0
100
AcDbLine
10
17
20
4.886837
30
0
11
17
21
4.562824
31
0
39
0
210
0
220
0
230
1
0
LINE
5
AF
100
AcDbEntity
8
1
62
256
6
ByLayer
370
18
48
1
60
0
100
AcDbLine
10
17
20
-4.500507
30
0
11
17
21
-4.792602
31
0
39
0
210
0
220
0
230
1
0
LINE
5
B0
100
AcDbEntity
8
1
62
256
6
ByLayer
370
18
48
1
60
0
100
AcDbLine
10
17
20
-0.506557
30
0
11
17
21
-0.737742
31
0
39
0
210
0
220
0
230
1
0
LINE
5
B1
100
AcDbEntity
8
1
62
256
6
ByLayer
370
13
48
1
60
0
100
AcDbLine
10
16.385641
20
-1.777295
30
0
11
16.385641
21
-0.362716
31
0
39
0
210
0
220
0
230
1
0
LINE
5
B2
100
AcDbEntity
8
1
62
256
6
ByLayer
370
13
48
1
60
0
100
AcDbLine
10
16.885641
20
-1.489607
30
0
11
16.885641
21
-2.018699
31
0
39
0
210
0
220
0
230
1
0
LINE
5
B3
100
AcDbEntity
8
1
62
256
6
ByLayer
370
13
48
1
60
0
100
AcDbLine
10
1.997679
20
-4.8
30
0
11
1.997679
21
0
31
0
39
0
210
0
220
0
230
1
0
LINE
5
B4
100
AcDbEntity
8
1
62
256
6
ByLayer
370
13
48
1
60
0
100
AcDbLine
10
1.997679
20
0
30
0
11
1.997679
21
4.8
31
0
39
0
210
0
220
0
230
1
0
LINE
5
B5
100
AcDbEntity
8
1
62
256
6
ByLayer
370
13
48
1
60
0
100
AcDbLine
10
1.497679
20
4.933975
30
0
11
1.497679
21
0
31
0
39
0
210
0
220
0
230
1
0
LINE
5
B6
100
AcDbEntity
8
1
62
256
6
ByLayer
370
13
48
1
60
0
100
AcDbLine
10
1.497679
20
0
30
0
11
1.497679
21
-4.933975
31
0
39
0
210
0
220
0
230
1
0
LINE
5
B7
100
AcDbEntity
8
1
62
256
6
ByLayer
370
18
48
1
60
0
100
AcDbLine
10
1.38332
20
5
30
0
11
1.38332
21
0
31
0
39
0
210
0
220
0
230
1
0
LINE
5
B8
100
AcDbEntity
8
1
62
256
6
ByLayer
370
18
48
1
60
0
100
AcDbLine
10
1.38332
20
0
30
0
11
1.38332
21
-5
31
0
39
0
210
0
220
0
230
1
0
LINE
5
B9
100
AcDbEntity
8
SK1
62
256
6
ByLayer
370
18
48
1
60
0
100
AcDbLine
10
0
20
5
30
0
11
0
21
0
31
0
39
0
210
0
220
0
230
1
0
LINE
5
BB
100
AcDbEntity
8
SK1
62
256
6
ByLayer
370
18
48
1
60
0
100
AcDbLine
10
0
20
0
30
0
11
0
21
-5
31
0
39
0
210
0
220
0
230
1
0
LINE
5
BC
100
AcDbEntity
8
SK1
62
256
6
ByLayer
370
18
48
1
60
0
100
AcDbLine
10
-25
20
5
30
0
11
-23.5
21
3.5
31
0
39
0
210
0
220
0
230
1
0
LINE
5
BD
100
AcDbEntity
8
SK1
62
256
6
ByLayer
370
18
48
1
60
0
100
AcDbLine
10
-16.5
20
3.5
30
0
11
-15
21
5
31
0
39
0
210
0
220
0
230
1
0
LINE
5
BE
100
AcDbEntity
8
SK1
62
256
6
ByLayer
370
18
48
1
60
0
100
AcDbLine
10
-23.5
20
3.5
30
0
11
-16.5
21
3.5
31
0
39
0
210
0
220
0
230
1
0
LINE
5
BF
100
AcDbEntity
8
SK1
62
256
6
ByLayer
370
18
48
1
60
0
100
AcDbLine
10
-39.4
20
5
30
0
11
-39.4
21
-5
31
0
39
0
210
0
220
0
230
1
0
LINE
5
C0
100
AcDbEntity
8
SK1
62
256
6
ByLayer
370
18
48
1
60
0
100
AcDbLine
10
-40
20
-4.4
30
0
11
-40
21
4.4
31
0
39
0
210
0
220
0
230
1
0
LINE
5
C1
100
AcDbEntity
8
1
62
256
6
ByLayer
370
18
48
1
60
0
100
AcDbLine
10
1.38332
20
5
30
0
11
0
21
5
31
0
39
0
210
0
220
0
230
1
0
LINE
5
C2
100
AcDbEntity
8
1
62
256
6
ByLayer
370
18
48
1
60
0
100
AcDbLine
10
0
20
-5
30
0
11
1.38332
21
-5
31
0
39
0
210
0
220
0
230
1
0
LINE
5
C3
100
AcDbEntity
8
1
62
256
6
ByLayer
370
18
48
1
60
0
100
AcDbLine
10
16.385641
20
4.8
30
0
11
1.997679
21
4.8
31
0
39
0
210
0
220
0
230
1
0
LINE
5
C4
100
AcDbEntity
8
1
62
256
6
ByLayer
370
18
48
1
60
0
100
AcDbLine
10
1.997679
20
-4.8
30
0
11
16.385641
21
-4.8
31
0
39
0
210
0
220
0
230
1
0
LINE
5
C5
100
AcDbEntity
8
1
62
256
6
ByLayer
370
18
48
1
60
0
100
AcDbLine
10
1.497679
20
4.933975
30
0
11
1.38332
21
5
31
0
39
0
210
0
220
0
230
1
0
LINE
5
C6
100
AcDbEntity
8
1
62
256
6
ByLayer
370
18
48
1
60
0
100
AcDbLine
10
1.38332
20
-5
30
0
11
1.497679
21
-4.933975
31
0
39
0
210
0
220
0
230
1
0
LINE
5
C7
100
AcDbEntity
8
SK1
62
256
6
ByLayer
370
18
48
1
60
0
100
AcDbLine
10
0
20
5
30
0
11
-15
21
5
31
0
39
0
210
0
220
0
230
1
0
LINE
5
C8
100
AcDbEntity
8
SK1
62
256
6
ByLayer
370
18
48
1
60
0
100
AcDbLine
10
-25
20
5
30
0
11
-39.4
21
5
31
0
39
0
210
0
220
0
230
1
0
LINE
5
C9
100
AcDbEntity
8
SK1
62
256
6
ByLayer
370
18
48
1
60
0
100
AcDbLine
10
-39.4
20
-5
30
0
11
0
21
-5
31
0
39
0
210
0
220
0
230
1
0
LINE
5
CA
100
AcDbEntity
8
SK1
62
256
6
ByLayer
370
18
48
1
60
0
100
AcDbLine
10
-40
20
-4.4
30
0
11
-39.4
21
-5
31
0
39
0
210
0
220
0
230
1
0
LINE
5
CB
100
AcDbEntity
8
SK1
62
256
6
ByLayer
370
18
48
1
60
0
100
AcDbLine
10
-39.4
20
5
30
0
11
-40
21
4.4
31
0
39
0
210
0
220
0
230
1
0
LINE
5
CC
100
AcDbEntity
8
SK2
62
256
6
ByLayer
370
18
48
1
60
0
100
AcDbLine
10
-47.65
20
5
30
0
11
-47.65
21
-23.056066
31
0
39
0
210
0
220
0
230
1
0
LINE
5
CE
100
AcDbEntity
8
SK2
62
256
6
ByLayer
370
18
48
1
60
0
100
AcDbLine
10
-40.9875
20
5
30
0
11
-49.65
21
5
31
0
39
0
210
0
220
0
230
1
0
LINE
5
CF
100
AcDbEntity
8
SK2
62
256
6
ByLayer
370
18
48
1
60
0
100
AcDbLine
10
-40.9875
20
-5
30
0
11
-49.65
21
-5
31
0
39
0
210
0
220
0
230
1
0
LINE
5
D0
100
AcDbEntity
8
1
62
256
6
ByLayer
370
18
48
1
60
1
100
AcDbLine
10
-47.65
20
5
30
0
11
-47.189216
21
1.500002
31
0
39
0
210
0
220
0
230
1
0
LINE
5
D1
100
AcDbEntity
8
1
62
256
6
ByLayer
370
18
48
1
60
1
100
AcDbLine
10
-47.189216
20
1.500002
30
0
11
-48.110784
21
1.499998
31
0
39
0
210
0
220
0
230
1
0
LINE
5
D2
100
AcDbEntity
8
1
62
256
6
ByLayer
370
18
48
1
60
1
100
AcDbLine
10
-48.110784
20
1.499998
30
0
11
-47.65
21
5
31
0
39
0
210
0
220
0
230
1
0
LINE
5
D3
100
AcDbEntity
8
1
62
256
6
ByLayer
370
18
48
1
60
1
100
AcDbLine
10
-47.65
20
-5
30
0
11
-48.110784
21
-1.500002
31
0
39
0
210
0
220
0
230
1
0
LINE
5
D4
100
AcDbEntity
8
1
62
256
6
ByLayer
370
18
48
1
60
1
100
AcDbLine
10
-48.110784
20
-1.500002
30
0
11
-47.189216
21
-1.499998
31
0
39
0
210
0
220
0
230
1
0
LINE
5
D5
100
AcDbEntity
8
1
62
256
6
ByLayer
370
18
48
1
60
1
100
AcDbLine
10
-47.189216
20
-1.499998
30
0
11
-47.65
21
-5
31
0
39
0
210
0
220
0
230
1
0
LINE
5
D6
100
AcDbEntity
8
SK2
62
256
6
ByLayer
370
13
48
1
60
0
100
AcDbLine
10
10.64166
20
-4.8
30
0
11
10.64166
21
29.148932
31
0
39
0
210
0
220
0
230
1
0
LINE
5
D7
100
AcDbEntity
8
SK2
62
256
6
ByLayer
370
13
48
1
60
0
100
AcDbLine
10
14.798141
20
4.8
30
0
11
8.64166
21
4.8
31
0
39
0
210
0
220
0
230
1
0
LINE
5
D8
100
AcDbEntity
8
SK2
62
256
6
ByLayer
370
13
48
1
60
0
100
AcDbLine
10
14.798141
20
-4.8
30
0
11
8.64166
21
-4.8
31
0
39
0
210
0
220
0
230
1
0
LINE
5
D9
100
AcDbEntity
8
1
62
256
6
ByLayer
370
18
48
1
60
1
100
AcDbLine
10
10.64166
20
4.8
30
0
11
11.102444
21
1.300002
31
0
39
0
210
0
220
0
230
1
0
LINE
5
DA
100
AcDbEntity
8
1
62
256
6
ByLayer
370
18
48
1
60
1
100
AcDbLine
10
11.102444
20
1.300002
30
0
11
10.180876
21
1.299998
31
0
39
0
210
0
220
0
230
1
0
LINE
5
DB
100
AcDbEntity
8
1
62
256
6
ByLayer
370
18
48
1
60
1
100
AcDbLine
10
10.180876
20
1.299998
30
0
11
10.64166
21
4.8
31
0
39
0
210
0
220
0
230
1
0
LINE
5
DC
100
AcDbEntity
8
1
62
256
6
ByLayer
370
18
48
1
60
1
100
AcDbLine
10
10.64166
20
-4.8
30
0
11
10.180876
21
-1.300002
31
0
39
0
210
0
220
0
230
1
0
LINE
5
DD
100
AcDbEntity
8
1
62
256
6
ByLayer
370
18
48
1
60
1
100
AcDbLine
10
10.180876
20
-1.300002
30
0
11
11.102444
21
-1.299998
31
0
39
0
210
0
220
0
230
1
0
LINE
5
DE
100
AcDbEntity
8
1
62
256
6
ByLayer
370
18
48
1
60
1
100
AcDbLine
10
11.102444
20
-1.299998
30
0
11
10.64166
21
-4.8
31
0
39
0
210
0
220
0
230
1
0
LINE
5
DF
100
AcDbEntity
8
2
62
256
6
ByLayer
370
18
48
1
60
0
100
AcDbLine
10
59
20
-5
30
0
11
59
21
23.056066
31
0
39
0
210
0
220
0
230
1
0
LINE
5
E1
100
AcDbEntity
8
2
62
256
6
ByLayer
370
18
48
1
60
0
100
AcDbLine
10
48.5875
20
5
30
0
11
61
21
5
31
0
39
0
210
0
220
0
230
1
0
LINE
5
E2
100
AcDbEntity
8
2
62
256
6
ByLayer
370
18
48
1
60
0
100
AcDbLine
10
48.5875
20
-5
30
0
11
61
21
-5
31
0
39
0
210
0
220
0
230
1
0
LINE
5
E3
100
AcDbEntity
8
1
62
256
6
ByLayer
370
18
48
1
60
1
100
AcDbLine
10
59
20
5
30
0
11
59.460784
21
1.500002
31
0
39
0
210
0
220
0
230
1
0
LINE
5
E4
100
AcDbEntity
8
1
62
256
6
ByLayer
370
18
48
1
60
1
100
AcDbLine
10
59.460784
20
1.500002
30
0
11
58.539216
21
1.499998
31
0
39
0
210
0
220
0
230
1
0
LINE
5
E5
100
AcDbEntity
8
1
62
256
6
ByLayer
370
18
48
1
60
1
100
AcDbLine
10
58.539216
20
1.499998
30
0
11
59
21
5
31
0
39
0
210
0
220
0
230
1
0
LINE
5
E6
100
AcDbEntity
8
1
62
256
6
ByLayer
370
18
48
1
60
1
100
AcDbLine
10
59
20
-5
30
0
11
58.539216
21
-1.500002
31
0
39
0
210
0
220
0
230
1
0
LINE
5
E7
100
AcDbEntity
8
1
62
256
6
ByLayer
370
18
48
1
60
1
100
AcDbLine
10
58.539216
20
-1.500002
30
0
11
59.460784
21
-1.499998
31
0
39
0
210
0
220
0
230
1
0
LINE
5
E8
100
AcDbEntity
8
1
62
256
6
ByLayer
370
18
48
1
60
1
100
AcDbLine
10
59.460784
20
-1.499998
30
0
11
59
21
-5
31
0
39
0
210
0
220
0
230
1
0
LINE
5
E9
100
AcDbEntity
8
SK2
62
256
6
ByLayer
370
18
48
1
60
0
100
AcDbLine
10
47
20
-51.678891
30
0
11
-40
21
-51.678891
31
0
39
0
210
0
220
0
230
1
0
LINE
5
EA
100
AcDbEntity
8
SK2
62
256
6
ByLayer
370
18
48
1
60
0
100
AcDbLine
10
-40
20
-5.9875
30
0
11
-40
21
-53.678891
31
0
39
0
210
0
220
0
230
1
0
LINE
5
EB
100
AcDbEntity
8
SK2
62
256
6
ByLayer
370
18
48
1
60
0
100
AcDbLine
10
47
20
-6.5875
30
0
11
47
21
-53.678891
31
0
39
0
210
0
220
0
230
1
0
LINE
5
EC
100
AcDbEntity
8
1
62
256
6
ByLayer
370
18
48
1
60
1
100
AcDbLine
10
-40
20
-51.678891
30
0
11
-36.500002
21
-51.218107
31
0
39
0
210
0
220
0
230
1
0
LINE
5
ED
100
AcDbEntity
8
1
62
256
6
ByLayer
370
18
48
1
60
1
100
AcDbLine
10
-36.500002
20
-51.218107
30
0
11
-36.499998
21
-52.139674
31
0
39
0
210
0
220
0
230
1
0
LINE
5
EE
100
AcDbEntity
8
1
62
256
6
ByLayer
370
18
48
1
60
1
100
AcDbLine
10
-36.499998
20
-52.139674
30
0
11
-40
21
-51.678891
31
0
39
0
210
0
220
0
230
1
0
LINE
5
EF
100
AcDbEntity
8
1
62
256
6
ByLayer
370
18
48
1
60
1
100
AcDbLine
10
47
20
-51.678891
30
0
11
43.500002
21
-52.139674
31
0
39
0
210
0
220
0
230
1
0
LINE
5
F0
100
AcDbEntity
8
1
62
256
6
ByLayer
370
18
48
1
60
1
100
AcDbLine
10
43.500002
20
-52.139674
30
0
11
43.499998
21
-51.218107
31
0
39
0
210
0
220
0
230
1
0
LINE
5
F1
100
AcDbEntity
8
1
62
256
6
ByLayer
370
18
48
1
60
1
100
AcDbLine
10
43.499998
20
-51.218107
30
0
11
47
21
-51.678891
31
0
39
0
210
0
220
0
230
1
0
LINE
5
1F3
100
AcDbEntity
8
1
62
256
6
ByLayer
370
18
48
1
60
1
100
AcDbLine
10
-47.65
20
5
30
0
11
-47.189216
21
1.500002
31
0
39
0
210
0
220
0
230
1
0
LINE
5
1F4
100
AcDbEntity
8
1
62
256
6
ByLayer
370
18
48
1
60
1
100
AcDbLine
10
-47.189216
20
1.500002
30
0
11
-48.110784
21
1.499998
31
0
39
0
210
0
220
0
230
1
0
LINE
5
1F5
100
AcDbEntity
8
1
62
256
6
ByLayer
370
18
48
1
60
1
100
AcDbLine
10
-48.110784
20
1.499998
30
0
11
-47.65
21
5
31
0
39
0
210
0
220
0
230
1
0
LINE
5
1F7
100
AcDbEntity
8
1
62
256
6
ByLayer
370
18
48
1
60
1
100
AcDbLine
10
-47.65
20
-5
30
0
11
-48.110784
21
-1.500002
31
0
39
0
210
0
220
0
230
1
0
LINE
5
1F8
100
AcDbEntity
8
1
62
256
6
ByLayer
370
18
48
1
60
1
100
AcDbLine
10
-48.110784
20
-1.500002
30
0
11
-47.189216
21
-1.499998
31
0
39
0
210
0
220
0
230
1
0
LINE
5
1F9
100
AcDbEntity
8
1
62
256
6
ByLayer
370
18
48
1
60
1
100
AcDbLine
10
-47.189216
20
-1.499998
30
0
11
-47.65
21
-5
31
0
39
0
210
0
220
0
230
1
0
LINE
5
1FD
100
AcDbEntity
8
1
62
256
6
ByLayer
370
18
48
1
60
1
100
AcDbLine
10
10.64166
20
4.8
30
0
11
11.102444
21
1.300002
31
0
39
0
210
0
220
0
230
1
0
LINE
5
1FE
100
AcDbEntity
8
1
62
256
6
ByLayer
370
18
48
1
60
1
100
AcDbLine
10
11.102444
20
1.300002
30
0
11
10.180876
21
1.299998
31
0
39
0
210
0
220
0
230
1
0
LINE
5
1FF
100
AcDbEntity
8
1
62
256
6
ByLayer
370
18
48
1
60
1
100
AcDbLine
10
10.180876
20
1.299998
30
0
11
10.64166
21
4.8
31
0
39
0
210
0
220
0
230
1
0
LINE
5
201
100
AcDbEntity
8
1
62
256
6
ByLayer
370
18
48
1
60
1
100
AcDbLine
10
10.64166
20
-4.8
30
0
11
10.180876
21
-1.300002
31
0
39
0
210
0
220
0
230
1
0
LINE
5
202
100
AcDbEntity
8
1
62
256
6
ByLayer
370
18
48
1
60
1
100
AcDbLine
10
10.180876
20
-1.300002
30
0
11
11.102444
21
-1.299998
31
0
39
0
210
0
220
0
230
1
0
LINE
5
203
100
AcDbEntity
8
1
62
256
6
ByLayer
370
18
48
1
60
1
100
AcDbLine
10
11.102444
20
-1.299998
30
0
11
10.64166
21
-4.8
31
0
39
0
210
0
220
0
230
1
0
LINE
5
207
100
AcDbEntity
8
1
62
256
6
ByLayer
370
18
48
1
60
1
100
AcDbLine
10
59
20
5
30
0
11
59.460784
21
1.500002
31
0
39
0
210
0
220
0
230
1
0
LINE
5
208
100
AcDbEntity
8
1
62
256
6
ByLayer
370
18
48
1
60
1
100
AcDbLine
10
59.460784
20
1.500002
30
0
11
58.539216
21
1.499998
31
0
39
0
210
0
220
0
230
1
0
LINE
5
209
100
AcDbEntity
8
1
62
256
6
ByLayer
370
18
48
1
60
1
100
AcDbLine
10
58.539216
20
1.499998
30
0
11
59
21
5
31
0
39
0
210
0
220
0
230
1
0
LINE
5
20B
100
AcDbEntity
8
1
62
256
6
ByLayer
370
18
48
1
60
1
100
AcDbLine
10
59
20
-5
30
0
11
58.539216
21
-1.500002
31
0
39
0
210
0
220
0
230
1
0
LINE
5
20C
100
AcDbEntity
8
1
62
256
6
ByLayer
370
18
48
1
60
1
100
AcDbLine
10
58.539216
20
-1.500002
30
0
11
59.460784
21
-1.499998
31
0
39
0
210
0
220
0
230
1
0
LINE
5
20D
100
AcDbEntity
8
1
62
256
6
ByLayer
370
18
48
1
60
1
100
AcDbLine
10
59.460784
20
-1.499998
30
0
11
59
21
-5
31
0
39
0
210
0
220
0
230
1
0
LINE
5
210
100
AcDbEntity
8
1
62
256
6
ByLayer
370
18
48
1
60
1
100
AcDbLine
10
-40
20
-51.678891
30
0
11
-36.500002
21
-51.218107
31
0
39
0
210
0
220
0
230
1
0
LINE
5
211
100
AcDbEntity
8
1
62
256
6
ByLayer
370
18
48
1
60
1
100
AcDbLine
10
-36.500002
20
-51.218107
30
0
11
-36.499998
21
-52.139674
31
0
39
0
210
0
220
0
230
1
0
LINE
5
212
100
AcDbEntity
8
1
62
256
6
ByLayer
370
18
48
1
60
1
100
AcDbLine
10
-36.499998
20
-52.139674
30
0
11
-40
21
-51.678891
31
0
39
0
210
0
220
0
230
1
0
LINE
5
214
100
AcDbEntity
8
1
62
256
6
ByLayer
370
18
48
1
60
1
100
AcDbLine
10
47
20
-51.678891
30
0
11
43.500002
21
-52.139674
31
0
39
0
210
0
220
0
230
1
0
LINE
5
215
100
AcDbEntity
8
1
62
256
6
ByLayer
370
18
48
1
60
1
100
AcDbLine
10
43.500002
20
-52.139674
30
0
11
43.499998
21
-51.218107
31
0
39
0
210
0
220
0
230
1
0
LINE
5
216
100
AcDbEntity
8
1
62
256
6
ByLayer
370
18
48
1
60
1
100
AcDbLine
10
43.499998
20
-51.218107
30
0
11
47
21
-51.678891
31
0
39
0
210
0
220
0
230
1
0
MTEXT
5
1EF
100
AcDbEntity
8
SK2
62
256
6
ByLayer
370
18
48
1
60
0
100
AcDbMText
10
-49.214634
20
-21.121222
30
0
210
0
220
0
230
1
1
%%c
40
3.5
41
0
44
1.084337
50
90
71
7
72
5
7
iso_b_vert
0
MTEXT
5
1F2
100
AcDbEntity
8
SK2
62
256
6
ByLayer
370
18
48
1
60
0
100
AcDbMText
10
-49.214634
20
-14.148566
30
0
210
0
220
0
230
1
1
\W0.5321;10
40
3.5
41
0
44
1.084337
50
90
71
7
72
5
7
iso_b_vert
0
MTEXT
5
1FB
100
AcDbEntity
8
SK2
62
256
6
ByLayer
370
18
48
1
60
0
100
AcDbMText
10
9.077026
20
16.734844
30
0
210
0
220
0
230
1
1
%%c
40
3.5
41
0
44
1.084337
50
90
71
7
72
5
7
iso_b_vert
0
MTEXT
5
1FC
100
AcDbEntity
8
SK2
62
256
6
ByLayer
370
18
48
1
60
0
100
AcDbMText
10
9.077026
20
23.7075
30
0
210
0
220
0
230
1
1
\W0.7121;9.6
40
3.5
41
0
44
1.084337
50
90
71
7
72
5
7
iso_b_vert
0
MTEXT
5
205
100
AcDbEntity
8
2
62
256
6
ByLayer
370
18
48
1
60
0
100
AcDbMText
10
57.435366
20
12.934844
30
0
210
0
220
0
230
1
1
%%c
40
3.5
41
0
44
1.084337
50
90
71
7
72
5
7
iso_b_vert
0
MTEXT
5
206
100
AcDbEntity
8
2
62
256
6
ByLayer
370
18
48
1
60
0
100
AcDbMText
10
57.435366
20
19.9075
30
0
210
0
220
0
230
1
1
\W0.5321;10
40
3.5
41
0
44
1.084337
50
90
71
7
72
5
7
iso_b_vert
0
MTEXT
5
20F
100
AcDbEntity
8
SK2
62
256
6
ByLayer
370
18
48
1
60
0
100
AcDbMText
10
1.595034
20
-50.646257
30
0
210
0
220
0
230
1
1
\W0.6740;87
40
3.5
41
0
44
1.084337
50
0
71
7
72
5
7
iso_b_vert
0
MTEXT
5
218
100
AcDbEntity
8
SK6
62
256
6
ByLayer
370
18
48
1
60
0
100
AcDbMText
10
-21.434266
20
-62.097944
30
0
210
0
220
0
230
1
1
\W0.7028;1K354-1000-100-XD   1730
40
3
41
0
44
1.084337
50
0
71
7
72
5
7
iso_b_vert
0
HATCH
5
1F6
100
AcDbEntity
8
SK2
62
256
6
ByLayer
370
13
48
1
60
0
100
AcDbHatch
10
0
20
0
30
0
210
0
220
0
230
1
2
ANSI31
70
0
71
0
91
1
92
5
93
3
72
1
10
-47.65
20
4.99999999999997
11
-47.1892162584473
21
1.50000169255315
72
1
10
-47.1892162584473
20
1.50000169255315
11
-48.1107837415528
21
1.49999830744679
72
1
10
-48.1107837415528
20
1.49999830744679
11
-47.65
21
4.99999999999997
97
0
75
0
76
1
52
0
41
0.0062
77
0
78
1
53
45
43
0
44
0
45
-0.0139193969876572
46
0.0139193969876572
79
0
47
0
98
1
10
0
20
0
0
HATCH
5
1FA
100
AcDbEntity
8
SK2
62
256
6
ByLayer
370
13
48
1
60
0
100
AcDbHatch
10
0
20
0
30
0
210
0
220
0
230
1
2
ANSI31
70
0
71
0
91
1
92
5
93
3
72
1
10
-47.65
20
-5.00000000000003
11
-48.1107837415528
21
-1.50000169255321
72
1
10
-48.1107837415528
20
-1.50000169255321
11
-47.1892162584473
21
-1.49999830744685
72
1
10
-47.1892162584473
20
-1.49999830744685
11
-47.65
21
-5.00000000000003
97
0
75
0
76
1
52
0
41
0.0062
77
0
78
1
53
45
43
0
44
0
45
-0.0139193969876572
46
0.0139193969876572
79
0
47
0
98
1
10
0
20
0
0
HATCH
5
200
100
AcDbEntity
8
SK2
62
256
6
ByLayer
370
13
48
1
60
0
100
AcDbHatch
10
0
20
0
30
0
210
0
220
0
230
1
2
ANSI31
70
0
71
0
91
1
92
5
93
3
72
1
10
10.641659784108
20
4.79999999999993
11
11.1024435256608
21
1.30000169255311
72
1
10
11.1024435256608
20
1.30000169255311
11
10.1808760425552
21
1.29999830744674
72
1
10
10.1808760425552
20
1.29999830744674
11
10.641659784108
21
4.79999999999993
97
0
75
0
76
1
52
0
41
0.0062
77
0
78
1
53
45
43
0
44
0
45
-0.0139193969876572
46
0.0139193969876572
79
0
47
0
98
1
10
0
20
0
0
HATCH
5
204
100
AcDbEntity
8
SK2
62
256
6
ByLayer
370
13
48
1
60
0
100
AcDbHatch
10
0
20
0
30
0
210
0
220
0
230
1
2
ANSI31
70
0
71
0
91
1
92
5
93
3
72
1
10
10.641659784108
20
-4.80000000000007
11
10.1808760425552
21
-1.30000169255325
72
1
10
10.1808760425552
20
-1.30000169255325
11
11.1024435256608
21
-1.29999830744688
72
1
10
11.1024435256608
20
-1.29999830744688
11
10.641659784108
21
-4.80000000000007
97
0
75
0
76
1
52
0
41
0.0062
77
0
78
1
53
45
43
0
44
0
45
-0.0139193969876572
46
0.0139193969876572
79
0
47
0
98
1
10
0
20
0
0
HATCH
5
20A
100
AcDbEntity
8
2
62
256
6
ByLayer
370
13
48
1
60
0
100
AcDbHatch
10
0
20
0
30
0
210
0
220
0
230
1
2
ANSI31
70
0
71
0
91
1
92
5
93
3
72
1
10
59
20
4.9999999999998
11
59.4607837415528
21
1.50000169255299
72
1
10
59.4607837415528
20
1.50000169255299
11
58.5392162584472
21
1.49999830744662
72
1
10
58.5392162584472
20
1.49999830744662
11
59
21
4.9999999999998
97
0
75
0
76
1
52
0
41
0.0062
77
0
78
1
53
45
43
0
44
0
45
-0.0139193969876572
46
0.0139193969876572
79
0
47
0
98
1
10
0
20
0
0
HATCH
5
20E
100
AcDbEntity
8
2
62
256
6
ByLayer
370
13
48
1
60
0
100
AcDbHatch
10
0
20
0
30
0
210
0
220
0
230
1
2
ANSI31
70
0
71
0
91
1
92
5
93
3
72
1
10
59
20
-5.0000000000002
11
58.5392162584472
21
-1.50000169255338
72
1
10
58.5392162584472
20
-1.50000169255338
11
59.4607837415528
21
-1.49999830744701
72
1
10
59.4607837415528
20
-1.49999830744701
11
59
21
-5.0000000000002
97
0
75
0
76
1
52
0
41
0.0062
77
0
78
1
53
45
43
0
44
0
45
-0.0139193969876572
46
0.0139193969876572
79
0
47
0
98
1
10
0
20
0
0
HATCH
5
213
100
AcDbEntity
8
SK2
62
256
6
ByLayer
370
13
48
1
60
0
100
AcDbHatch
10
0
20
0
30
0
210
0
220
0
230
1
2
ANSI31
70
0
71
0
91
1
92
5
93
3
72
1
10
-40
20
-51.6788905263619
11
-36.5000016925532
21
-51.2181067848091
72
1
10
-36.5000016925532
20
-51.2181067848091
11
-36.4999983074468
21
-52.1396742679146
72
1
10
-36.4999983074468
20
-52.1396742679146
11
-40
21
-51.6788905263619
97
0
75
0
76
1
52
0
41
0.0062
77
0
78
1
53
45
43
0
44
0
45
-0.0139193969876572
46
0.0139193969876572
79
0
47
0
98
1
10
0
20
0
0
HATCH
5
217
100
AcDbEntity
8
SK2
62
256
6
ByLayer
370
13
48
1
60
0
100
AcDbHatch
10
0
20
0
30
0
210
0
220
0
230
1
2
ANSI31
70
0
71
0
91
1
92
5
93
3
72
1
10
47
20
-51.6788905263619
11
43.5000016925532
21
-52.1396742679146
72
1
10
43.5000016925532
20
-52.1396742679146
11
43.4999983074468
21
-51.2181067848091
72
1
10
43.4999983074468
20
-51.2181067848091
11
47
21
-51.6788905263619
97
0
75
0
76
1
52
0
41
0.0062
77
0
78
1
53
45
43
0
44
0
45
-0.0139193969876572
46
0.0139193969876572
79
0
47
0
98
1
10
0
20
0
0
DIMENSION
5
21B
100
AcDbEntity
8
2
62
256
6
ByLayer
370
18
48
1
60
0
100
AcDbDimension
2
_U0
10
17
20
-19.678891
30
0
11
32
21
-19.678891
31
0
70
32
71
1
72
1
41
1
210
0
220
0
230
1
3
Standard
100
AcDbAlignedDimension
13
47
23
-5
33
0
14
17
24
-5
34
0
50
0
100
AcDbRotatedDimension
1001
ACAD
1000
DSTYLE
1002
{
1070
   371
1070
    13
1070
   372
1070
    13
1070
   170
1070
     0
1070
   144
1040
1.0
1070
   277
1070
     2
1070
   284
1070
     8
1070
   278
1070
    46
1070
   146
1040
1.0
1070
   345
1005
16
1070
   347
1005
16
1070
   346
1005
16
1070
   344
1005
0
1070
   343
1005
0
1070
   172
1070
     1
1070
    76
1070
     0
1070
    75
1070
     0
1070
   282
1070
     0
1070
   281
1070
     0
1070
    71
1070
     0
1070
    74
1070
     0
1070
   279
1070
     0
1070
   173
1070
     1
1070
   340
1005
1F0
1070
   271
1070
     2
1070
   272
1070
     2
1070
    77
1070
     1
1070
    73
1070
     1
1070
   171
1070
     3
1070
   274
1070
     4
1070
   177
1070
     2
1070
   176
1070
     2
1070
   178
1070
     2
1070
    78
1070
     8
1070
    48
1040
-0.1
1070
    41
1040
3.5
1070
   147
1040
1.75
1070
    42
1040
1.5875
1070
    44
1040
2.0
1070
   140
1040
3.5
1002
}
1001
ACAD_DSTYLE_DIM_LINETYPE
1070
   380
1005
16
1001
ACAD_DSTYLE_DIM_EXT1_LINETYPE
1070
   381
1005
16
1001
ACAD_DSTYLE_DIM_EXT2_LINETYPE
1070
   382
1005
16
0
DIMENSION
5
234
100
AcDbEntity
8
SK2
62
256
6
ByLayer
370
18
48
1
60
0
100
AcDbDimension
2
_U1
10
1.997679
20
-34.678891
30
0
11
24.498839
21
-34.678891
31
0
70
32
71
1
72
1
41
1
210
0
220
0
230
1
3
Standard
100
AcDbAlignedDimension
13
47
23
-5
33
0
14
1.997679
24
-4.8
34
0
50
0
100
AcDbRotatedDimension
1001
ACAD
1000
DSTYLE
1002
{
1070
   371
1070
    13
1070
   372
1070
    13
1070
   170
1070
     0
1070
   144
1040
1.0
1070
   277
1070
     2
1070
   284
1070
     8
1070
   278
1070
    46
1070
   146
1040
1.0
1070
   345
1005
16
1070
   347
1005
16
1070
   346
1005
16
1070
   344
1005
0
1070
   343
1005
0
1070
   172
1070
     1
1070
    76
1070
     0
1070
    75
1070
     0
1070
   282
1070
     0
1070
   281
1070
     0
1070
    71
1070
     0
1070
    74
1070
     0
1070
   279
1070
     0
1070
   173
1070
     1
1070
   340
1005
1F0
1070
   271
1070
     2
1070
   272
1070
     2
1070
    77
1070
     1
1070
    73
1070
     1
1070
   171
1070
     3
1070
   274
1070
     4
1070
   177
1070
     2
1070
   176
1070
     2
1070
   178
1070
     2
1070
    78
1070
     8
1070
    48
1040
-0.1
1070
    41
1040
3.5
1070
   147
1040
1.75
1070
    42
1040
1.5875
1070
    44
1040
2.0
1070
   140
1040
3.5
1002
}
1001
ACAD_DSTYLE_DIM_LINETYPE
1070
   380
1005
16
1001
ACAD_DSTYLE_DIM_EXT1_LINETYPE
1070
   381
1005
16
1001
ACAD_DSTYLE_DIM_EXT2_LINETYPE
1070
   382
1005
16
0
ENDSEC
0
SECTION
2
OBJECTS
0
DICTIONARY
5
2bc
330
0
100
AcDbDictionary
280
0
281
1
3
ACAD_GROUP
350
2bd
3
ACAD_MLINESTYLE
350
2be
0
DICTIONARY
5
2bd
330
0
100
AcDbDictionary
280
0
281
1
0
DICTIONARY
5
2be
330
0
100
AcDbDictionary
280
0
281
1
3
Standard
350
18
0
MLINESTYLE
5
18
330
2be
100
AcDbMlineStyle
2
Standard
70
0
3

62
256
51
90
52
90
71
2
49
-0.5
62
256
6
ByLayer
49
0.5
62
256
6
ByLayer
0
RASTERVARIABLES
5
2aa
330

100
AcDbRasterVariables
90
0
70
1
71
1
72
1
0
ENDSEC
0
EOF
