0
SECTION
2
HEADER
9
$ACADVER
1
AC1015
9
$DWGCODEPAGE
3
ANSI_1252
9
$HANDSEED
5
2ca
9
$ANGBASE
50
0
9
$ANGDIR
70
0
9
$ATTMODE
70
1
9
$AUNITS
70
0
9
$AUPREC
70
0
9
$CECOLOR
62
256
9
$CELTSCALE
40
1
9
$CELTYPE
6
ByLayer
9
$CELWEIGHT
370
18
9
$CLAYER
8
0
9
$CMLJUST
70
0
9
$CMLSCALE
40
1
9
$CMLSTYLE
2
Standard
9
$DIMSTYLE
2
Standard
9
$TEXTSIZE
40
0.2
9
$TEXTSTYLE
7
Standard
9
$LUNITS
70
2
9
$LUPREC
70
4
9
$EXTNAMES
290
1
9
$INSUNITS
70
4
9
$LTSCALE
40
1
9
$LWDISPLAY
290
1
9
$PDMODE
70
0
9
$PDSIZE
40
0
9
$PLINEGEN
70
0
0
ENDSEC
0
SECTION
2
CLASSES
0
CLASS
1
RASTERVARIABLES
2
AcDbRasterVariables
3
ISM
90
0
280
0
281
0
0
ENDSEC
0
SECTION
2
TABLES
0
TABLE
2
VPORT
5
2c0
100
AcDbSymbolTable
0
VPORT
5
1
100
AcDbSymbolTableRecord
100
AcDbViewportTableRecord
2
*Active
70
0
10
0
20
0
11
1
21
1
12
-1
22
1
13
0
23
0
14
0.5
24
0.5
15
10
25
10
16
0
26
0
36
1
17
0
27
0
37
0
0
ENDTAB
0
TABLE
2
LTYPE
5
2c1
100
AcDbSymbolTable
0
LTYPE
5
14
100
AcDbSymbolTableRecord
100
AcDbLinetypeTableRecord
70
0
2
ByBlock
3

72
65
73
0
40
0
0
LTYPE
5
15
100
AcDbSymbolTableRecord
100
AcDbLinetypeTableRecord
70
0
2
ByLayer
3

72
65
73
0
40
0
0
LTYPE
5
16
100
AcDbSymbolTableRecord
100
AcDbLinetypeTableRecord
70
0
2
Continuous
3
Solid line
72
65
73
0
40
0
0
LTYPE
5
6E
100
AcDbSymbolTableRecord
100
AcDbLinetypeTableRecord
70
0
2
CENTER
3
____ _ ____ _ ____ _ ____
72
65
73
4
40
47.5
49
22
74
0
49
-8.5
74
0
49
8.5
74
0
49
-8.5
74
0
0
LTYPE
5
6F
100
AcDbSymbolTableRecord
100
AcDbLinetypeTableRecord
70
0
2
DASHED
3
__ __ __ __ __ __ __ __ __
72
65
73
2
40
25.72
49
12.86
74
0
49
-12.86
74
0
0
ENDTAB
0
TABLE
2
LAYER
5
2c2
100
AcDbSymbolTable
0
LAYER
5
10
100
AcDbSymbolTableRecord
100
AcDbLayerTableRecord
2
0
70
0
62
7
6
Continuous
290
1
370
-3
390
0
0
LAYER
5
71
100
AcDbSymbolTableRecord
100
AcDbLayerTableRecord
2
81
70
0
62
-3
6
Continuous
290
1
370
-3
390
0
0
LAYER
5
73
100
AcDbSymbolTableRecord
100
AcDbLayerTableRecord
2
80
70
0
62
-6
6
Continuous
290
1
370
-3
390
0
0
LAYER
5
75
100
AcDbSymbolTableRecord
100
AcDbLayerTableRecord
2
1
70
0
62
4
6
Continuous
290
1
370
-3
390
0
0
LAYER
5
7B
100
AcDbSymbolTableRecord
100
AcDbLayerTableRecord
2
4
70
0
62
-2
6
CENTER
290
1
370
-3
390
0
0
LAYER
5
DD
100
AcDbSymbolTableRecord
100
AcDbLayerTableRecord
2
2
70
0
62
7
6
Continuous
290
1
370
-3
390
0
0
LAYER
5
21F
100
AcDbSymbolTableRecord
100
AcDbLayerTableRecord
2
Defpoints
70
0
62
7
6
Continuous
290
0
370
-3
390
0
0
LAYER
5
2ac
100
AcDbSymbolTableRecord
100
AcDbLayerTableRecord
2
SK4
70
0
62
2
6
CENTER
290
1
370
-3
390
0
0
LAYER
5
2ad
100
AcDbSymbolTableRecord
100
AcDbLayerTableRecord
2
SK1
70
0
62
4
6
Continuous
290
1
370
-3
390
0
0
LAYER
5
2ae
100
AcDbSymbolTableRecord
100
AcDbLayerTableRecord
2
SK2
70
0
62
7
6
Continuous
290
1
370
-3
390
0
0
LAYER
5
2af
100
AcDbSymbolTableRecord
100
AcDbLayerTableRecord
2
SK6
70
0
62
5
6
Continuous
290
1
370
-3
390
0
0
ENDTAB
0
TABLE
2
STYLE
5
2c3
100
AcDbSymbolTable
0
STYLE
5
11
100
AcDbSymbolTableRecord
100
AcDbTextStyleTableRecord
2
Standard
3
txt
70
0
71
0
40
0
41
1
42
0
50
0
0
STYLE
5
1F1
100
AcDbSymbolTableRecord
100
AcDbTextStyleTableRecord
2
iso_b_vert
3
simplex.shx
70
0
71
0
40
0
41
1
42
0
50
0
0
STYLE
5
1F2
100
AcDbSymbolTableRecord
100
AcDbTextStyleTableRecord
2
DWGDirectTextStyle
3
simplex
70
0
71
0
40
0
41
1
42
0
50
0
0
ENDTAB
0
TABLE
2
DIMSTYLE
5
2c4
100
AcDbSymbolTable
100
AcDbDimStyleTable
0
DIMSTYLE
105
27
100
AcDbSymbolTableRecord
100
AcDbDimStyleTableRecord
2
Standard
70
0
3
<>
41
0.18
42
0.0625
44
0.18
140
0.18
147
0.09
73
0
74
0
77
1
271
2
275
0
278
52
280
0
340
11
0
ENDTAB
0
TABLE
2
VIEW
5
2c5
100
AcDbSymbolTable
0
ENDTAB
0
TABLE
2
UCS
5
2c6
100
AcDbSymbolTable
0
ENDTAB
0
TABLE
2
APPID
5
2c7
100
AcDbSymbolTable
0
APPID
5
12
100
AcDbSymbolTableRecord
100
AcDbRegAppTableRecord
2
ACAD
70
0
0
APPID
5
21B
100
AcDbSymbolTableRecord
100
AcDbRegAppTableRecord
2
ACAD_DSTYLE_DIMBREAK
70
0
0
APPID
5
26B
100
AcDbSymbolTableRecord
100
AcDbRegAppTableRecord
2
ACAD_DSTYLE_DIM_LINETYPE
70
0
0
APPID
5
26C
100
AcDbSymbolTableRecord
100
AcDbRegAppTableRecord
2
ACAD_DSTYLE_DIM_EXT1_LINETYPE
70
0
0
APPID
5
26D
100
AcDbSymbolTableRecord
100
AcDbRegAppTableRecord
2
ACAD_DSTYLE_DIM_EXT2_LINETYPE
70
0
0
APPID
5
2A8
100
AcDbSymbolTableRecord
100
AcDbRegAppTableRecord
2
ACAD_MLEADERVER
70
0
0
ENDTAB
0
TABLE
2
BLOCK_RECORD
5
2c8
100
AcDbSymbolTable
0
BLOCK_RECORD
5
1F
100
AcDbSymbolTableRecord
100
AcDbBlockTableRecord
2
*Model_Space
340
0
70
0
0
BLOCK_RECORD
5
1B
100
AcDbSymbolTableRecord
100
AcDbBlockTableRecord
2
*Paper_Space
340
0
70
0
0
BLOCK_RECORD
5
23
100
AcDbSymbolTableRecord
100
AcDbBlockTableRecord
2
*Paper_Space0
340
0
70
0
0
BLOCK_RECORD
5
220
100
AcDbSymbolTableRecord
100
AcDbBlockTableRecord
2
*D1
340
0
70
0
0
BLOCK_RECORD
5
22C
100
AcDbSymbolTableRecord
100
AcDbBlockTableRecord
2
_U0
340
0
70
0
0
BLOCK_RECORD
5
238
100
AcDbSymbolTableRecord
100
AcDbBlockTableRecord
2
*D3
340
0
70
0
0
BLOCK_RECORD
5
244
100
AcDbSymbolTableRecord
100
AcDbBlockTableRecord
2
_U1
340
0
70
0
0
ENDTAB
0
ENDSEC
0
SECTION
2
BLOCKS
0
BLOCK
5
20
100
AcDbEntity
8
0
100
AcDbBlockBegin
2
*Model_Space
70
0
10
0
20
0
30
0
3
*Model_Space
0
ENDBLK
5
21
100
AcDbEntity
8
0
100
AcDbBlockEnd
0
BLOCK
5
1C
100
AcDbEntity
8
0
100
AcDbBlockBegin
2
*Paper_Space
70
0
10
0
20
0
30
0
3
*Paper_Space
0
ENDBLK
5
1D
100
AcDbEntity
8
0
100
AcDbBlockEnd
0
BLOCK
5
24
100
AcDbEntity
8
0
100
AcDbBlockBegin
2
*Paper_Space0
70
0
10
0
20
0
30
0
3
*Paper_Space0
0
ENDBLK
5
25
100
AcDbEntity
8
0
100
AcDbBlockEnd
0
BLOCK
5
221
100
AcDbEntity
8
0
100
AcDbBlockBegin
2
*D1
70
1
10
0
20
0
30
0
3
*D1
0
LINE
5
223
100
AcDbEntity
8
0
62
256
6
ByLayer
370
-2
48
1
60
0
100
AcDbLine
10
78
20
-9.5875
30
0
11
78
21
-25.088585
31
0
39
0
210
0
220
0
230
1
0
LINE
5
224
100
AcDbEntity
8
0
62
256
6
ByLayer
370
-2
48
1
60
0
100
AcDbLine
10
30
20
-9.5875
30
0
11
30
21
-25.088585
31
0
39
0
210
0
220
0
230
1
0
LINE
5
225
100
AcDbEntity
8
0
62
256
6
ByLayer
370
-2
48
1
60
0
100
AcDbLine
10
74.5
20
-23.088585
30
0
11
33.5
21
-23.088585
31
0
39
0
210
0
220
0
230
1
0
SOLID
5
226
100
AcDbEntity
8
0
62
256
6
ByLayer
370
-1
48
1
60
0
100
AcDbTrace
10
74.5
20
-23.671919
30
0
11
74.5
21
-22.505252
31
0
12
78
22
-23.088585
32
0
13
78
23
-23.088585
33
0
39
0
210
0
220
0
230
1
0
SOLID
5
227
100
AcDbEntity
8
0
62
256
6
ByLayer
370
-1
48
1
60
0
100
AcDbTrace
10
33.5
20
-22.505252
30
0
11
33.5
21
-23.671919
31
0
12
30
22
-23.088585
32
0
13
30
23
-23.088585
33
0
39
0
210
0
220
0
230
1
0
MTEXT
5
228
100
AcDbEntity
8
0
62
256
6
ByLayer
370
18
48
1
60
0
100
AcDbMText
10
54
20
-16.088585
30
0
210
0
220
0
230
1
1
\A1;48
40
3.5
41
0
44
1
50
0
71
5
72
5
7
iso_b_vert
0
POINT
5
229
100
AcDbEntity
8
Defpoints
62
0
6
ByLayer
370
-1
48
1
60
0
100
AcDbPoint
10
78
20
-8
30
0
39
0
210
0
220
0
230
1
50
360
0
POINT
5
22A
100
AcDbEntity
8
Defpoints
62
0
6
ByLayer
370
-1
48
1
60
0
100
AcDbPoint
10
30
20
-8
30
0
39
0
210
0
220
0
230
1
50
360
0
POINT
5
22B
100
AcDbEntity
8
Defpoints
62
0
6
ByLayer
370
-1
48
1
60
0
100
AcDbPoint
10
30
20
-23.088585
30
0
39
0
210
0
220
0
230
1
50
360
0
ENDBLK
5
222
100
AcDbEntity
8
0
100
AcDbBlockEnd
0
BLOCK
5
233
100
AcDbEntity
8
0
100
AcDbBlockBegin
2
_U0
70
0
10
0
20
0
30
0
3
_U0
0
MTEXT
5
22D
100
AcDbEntity
8
2
62
256
6
ByLayer
370
18
48
1
60
0
100
AcDbMText
10
51.910767
20
-22.055952
30
0
210
0
220
0
230
1
1
\W0.7361;48
40
3.5
41
0
44
1.084337
50
0
71
7
72
5
7
iso_b_vert
0
LINE
5
22E
100
AcDbEntity
8
2
62
256
6
ByLayer
370
13
48
1
60
0
100
AcDbLine
10
78
20
-9.5875
30
0
11
78
21
-25.088585
31
0
39
0
210
0
220
0
230
1
0
LINE
5
22F
100
AcDbEntity
8
2
62
256
6
ByLayer
370
13
48
1
60
0
100
AcDbLine
10
30
20
-9.5875
30
0
11
30
21
-25.088585
31
0
39
0
210
0
220
0
230
1
0
LINE
5
230
100
AcDbEntity
8
2
62
256
6
ByLayer
370
13
48
1
60
0
100
AcDbLine
10
78
20
-23.088585
30
0
11
30
21
-23.088585
31
0
39
0
210
0
220
0
230
1
0
SOLID
5
231
100
AcDbEntity
8
2
62
256
6
ByLayer
370
18
48
1
60
0
100
AcDbTrace
10
78
20
-23.088585
30
0
11
74.500002
21
-23.549369
31
0
12
74.499998
22
-22.627801
32
0
13
74.499998
23
-22.627801
33
0
39
0
210
0
220
0
230
1
0
SOLID
5
232
100
AcDbEntity
8
2
62
256
6
ByLayer
370
18
48
1
60
0
100
AcDbTrace
10
30
20
-23.088585
30
0
11
33.499998
21
-22.627801
31
0
12
33.500002
22
-23.549369
32
0
13
33.500002
23
-23.549369
33
0
39
0
210
0
220
0
230
1
0
ENDBLK
5
234
100
AcDbEntity
8
0
100
AcDbBlockEnd
0
BLOCK
5
239
100
AcDbEntity
8
0
100
AcDbBlockBegin
2
*D3
70
1
10
0
20
0
30
0
3
*D3
0
LINE
5
23B
100
AcDbEntity
8
0
62
256
6
ByLayer
370
-2
48
1
60
0
100
AcDbLine
10
78
20
-9.5875
30
0
11
78
21
-40.088585
31
0
39
0
210
0
220
0
230
1
0
LINE
5
23C
100
AcDbEntity
8
0
62
256
6
ByLayer
370
-2
48
1
60
0
100
AcDbLine
10
5.997679
20
-9.2675
30
0
11
5.997679
21
-40.088585
31
0
39
0
210
0
220
0
230
1
0
LINE
5
23D
100
AcDbEntity
8
0
62
256
6
ByLayer
370
-2
48
1
60
0
100
AcDbLine
10
74.5
20
-38.088585
30
0
11
9.497679
21
-38.088585
31
0
39
0
210
0
220
0
230
1
0
SOLID
5
23E
100
AcDbEntity
8
0
62
256
6
ByLayer
370
-1
48
1
60
0
100
AcDbTrace
10
74.5
20
-38.671919
30
0
11
74.5
21
-37.505252
31
0
12
78
22
-38.088585
32
0
13
78
23
-38.088585
33
0
39
0
210
0
220
0
230
1
0
SOLID
5
23F
100
AcDbEntity
8
0
62
256
6
ByLayer
370
-1
48
1
60
0
100
AcDbTrace
10
9.497679
20
-37.505252
30
0
11
9.497679
21
-38.671919
31
0
12
5.997679
22
-38.088585
32
0
13
5.997679
23
-38.088585
33
0
39
0
210
0
220
0
230
1
0
MTEXT
5
240
100
AcDbEntity
8
0
62
256
6
ByLayer
370
18
48
1
60
0
100
AcDbMText
10
41.998839
20
-31.088585
30
0
210
0
220
0
230
1
1
\A1;72
40
3.5
41
0
44
1
50
0
71
5
72
5
7
iso_b_vert
0
POINT
5
241
100
AcDbEntity
8
Defpoints
62
0
6
ByLayer
370
-1
48
1
60
0
100
AcDbPoint
10
78
20
-8
30
0
39
0
210
0
220
0
230
1
50
360
0
POINT
5
242
100
AcDbEntity
8
Defpoints
62
0
6
ByLayer
370
-1
48
1
60
0
100
AcDbPoint
10
5.997679
20
-7.68
30
0
39
0
210
0
220
0
230
1
50
360
0
POINT
5
243
100
AcDbEntity
8
Defpoints
62
0
6
ByLayer
370
-1
48
1
60
0
100
AcDbPoint
10
5.997679
20
-38.088585
30
0
39
0
210
0
220
0
230
1
50
360
0
ENDBLK
5
23A
100
AcDbEntity
8
0
100
AcDbBlockEnd
0
BLOCK
5
24B
100
AcDbEntity
8
0
100
AcDbBlockBegin
2
_U1
70
0
10
0
20
0
30
0
3
_U1
0
MTEXT
5
245
100
AcDbEntity
8
SK2
62
256
6
ByLayer
370
18
48
1
60
0
100
AcDbMText
10
40.093873
20
-37.055952
30
0
210
0
220
0
230
1
1
\W0.6740;72
40
3.5
41
0
44
1.084337
50
0
71
7
72
5
7
iso_b_vert
0
LINE
5
246
100
AcDbEntity
8
SK2
62
256
6
ByLayer
370
13
48
1
60
0
100
AcDbLine
10
78
20
-9.5875
30
0
11
78
21
-40.088585
31
0
39
0
210
0
220
0
230
1
0
LINE
5
247
100
AcDbEntity
8
SK2
62
256
6
ByLayer
370
13
48
1
60
0
100
AcDbLine
10
5.997679
20
-9.2675
30
0
11
5.997679
21
-40.088585
31
0
39
0
210
0
220
0
230
1
0
LINE
5
248
100
AcDbEntity
8
SK2
62
256
6
ByLayer
370
13
48
1
60
0
100
AcDbLine
10
78
20
-38.088585
30
0
11
5.997679
21
-38.088585
31
0
39
0
210
0
220
0
230
1
0
SOLID
5
249
100
AcDbEntity
8
SK2
62
256
6
ByLayer
370
18
48
1
60
0
100
AcDbTrace
10
78
20
-38.088585
30
0
11
74.500002
21
-38.549369
31
0
12
74.499998
22
-37.627801
32
0
13
74.499998
23
-37.627801
33
0
39
0
210
0
220
0
230
1
0
SOLID
5
24A
100
AcDbEntity
8
SK2
62
256
6
ByLayer
370
18
48
1
60
0
100
AcDbTrace
10
5.997679
20
-38.088585
30
0
11
9.497677
21
-37.627801
31
0
12
9.497681
22
-38.549369
32
0
13
9.497681
23
-38.549369
33
0
39
0
210
0
220
0
230
1
0
ENDBLK
5
24C
100
AcDbEntity
8
0
100
AcDbBlockEnd
0
ENDSEC
0
SECTION
2
ENTITIES
0
ARC
5
EF
100
AcDbEntity
8
1
62
256
6
ByLayer
370
18
48
1
60
0
100
AcDbCircle
39
0
10
29.177795
20
8.68
30
0
40
1
210
0
220
0
230
1
100
AcDbArc
50
270
51
296.042341
0
ARC
5
F0
100
AcDbEntity
8
1
62
256
6
ByLayer
370
18
48
1
60
0
100
AcDbCircle
39
0
10
5.997679
20
8.68
30
0
40
1
210
0
220
0
230
1
100
AcDbArc
50
240
51
270
0
ARC
5
F1
100
AcDbEntity
8
1
62
256
6
ByLayer
370
18
48
1
60
0
100
AcDbCircle
39
0
10
5.997679
20
-8.68
30
0
40
1
210
0
220
0
230
1
100
AcDbArc
50
90
51
120
0
ELLIPSE
5
F2
100
AcDbEntity
8
1
62
256
6
ByLayer
370
18
48
1
60
0
100
AcDbEllipse
10
77.618684
20
-0.322712
30
0
11
0.0387609412235662
21
-1.37164760024182
31
0
210
0
220
0
230
1
40
0.078733
41
0.845992160045423
42
1.48808525505992
0
ELLIPSE
5
F3
100
AcDbEntity
8
1
62
256
6
ByLayer
370
18
48
1
60
0
100
AcDbEllipse
10
77.476133
20
-0.991634
30
0
11
0.552407173495153
21
-0.92534966419189
31
0
210
0
220
0
230
1
40
0.508864
41
2.84775019139689
42
-2.48389945411979
0
ELLIPSE
5
F4
100
AcDbEntity
8
1
62
256
6
ByLayer
370
18
48
1
60
0
100
AcDbEllipse
10
77.55103
20
-1.003988
30
0
11
0.0584740283187238
21
-0.916970668906402
31
0
210
0
220
0
230
1
40
0.179612
41
0.765587517804468
42
1.31052622062989
0
ELLIPSE
5
F5
100
AcDbEntity
8
1
62
256
6
ByLayer
370
18
48
1
60
0
100
AcDbEllipse
10
37.728475
20
0
30
0
11
14.7029155242303
21
5.27532992288557
31
0
210
0
220
0
230
1
40
0.37962
41
-2.6926484494462
42
-2.32029300030701
0
ELLIPSE
5
F6
100
AcDbEntity
8
1
62
256
6
ByLayer
370
18
48
1
60
0
100
AcDbEllipse
10
37.897768
20
0
30
0
11
15.0565698817016
21
-6.41402065103791
31
0
210
0
220
0
230
1
40
0.280546
41
-2.43898999136584
42
-2.0645208368908
0
POINT
5
70
100
AcDbEntity
8
81
62
256
6
ByLayer
370
18
48
1
60
0
100
AcDbPoint
10
78
20
0
30
0
39
0
210
0
220
0
230
1
50
360
0
POINT
5
72
100
AcDbEntity
8
80
62
256
6
ByLayer
370
18
48
1
60
0
100
AcDbPoint
10
0
20
0
30
0
39
0
210
0
220
0
230
1
50
360
0
POINT
5
74
100
AcDbEntity
8
1
62
256
6
ByLayer
370
18
48
1
60
1
100
AcDbPoint
10
78
20
-8
30
0
39
0
210
0
220
0
230
1
50
360
0
POINT
5
76
100
AcDbEntity
8
1
62
256
6
ByLayer
370
18
48
1
60
1
100
AcDbPoint
10
30
20
-8
30
0
39
0
210
0
220
0
230
1
50
360
0
POINT
5
77
100
AcDbEntity
8
1
62
256
6
ByLayer
370
18
48
1
60
1
100
AcDbPoint
10
78
20
-8
30
0
39
0
210
0
220
0
230
1
50
360
0
POINT
5
78
100
AcDbEntity
8
1
62
256
6
ByLayer
370
18
48
1
60
1
100
AcDbPoint
10
5.997679
20
-7.68
30
0
39
0
210
0
220
0
230
1
50
360
0
SPLINE
5
F7
100
AcDbEntity
8
1
62
256
6
ByLayer
370
18
48
1
60
0
100
AcDbSpline
70
4
71
5
72
12
73
6
40
0
40
0
40
0
40
0
40
0
40
0
40
1
40
1
40
1
40
1
40
1
40
1
41
1
10
61.9432911978332
20
1.10964728018305
30
0
41
1
10
62.5246649427947
20
1.52031497077459
30
0
41
1
10
63.1060269043699
20
1.92723099372728
30
0
41
1
10
63.6873954780369
20
2.32815200965811
30
0
41
1
10
64.2687498259651
20
2.72083809600827
30
0
41
1
10
64.8501191963359
20
3.10306523230418
30
0
0
SPLINE
5
F8
100
AcDbEntity
8
1
62
256
6
ByLayer
370
18
48
1
60
0
100
AcDbSpline
70
4
71
3
72
10
73
6
40
0
40
0
40
0
40
0
40
0.232769318488609
40
0.499357280732221
40
1
40
1
40
1
40
1
41
1
10
52.001161665146
20
-5.46840523479463
30
0
41
1
10
52.4252578644661
20
-5.70590684427003
30
0
41
1
10
53.3345518393821
20
-6.18589080747546
30
0
41
1
10
55.1532472454934
20
-7.00639311190628
30
0
41
1
10
56.5461055852982
20
-7.45130153409437
30
0
41
1
10
57.4548082492014
20
-7.65421382145342
30
0
0
SPLINE
5
F9
100
AcDbEntity
8
1
62
256
6
ByLayer
370
18
48
1
60
0
100
AcDbSpline
70
4
71
5
72
16
73
10
40
0
40
0
40
0
40
0
40
0
40
0
40
0.208154651903262
40
0.33
40
0.753891415683746
40
0.83510724850811
40
1
40
1
40
1
40
1
40
1
40
1
41
1
10
30
20
-7.5063481963125
30
0
41
1
10
30.6129017819747
20
-7.35233990041814
30
0
41
1
10
31.5848056708083
20
-7.0619893233779
30
0
41
1
10
33.8048159230502
20
-6.23766664528225
30
0
41
1
10
36.2640778058596
20
-4.94794303105721
30
0
41
1
10
39.2089198668506
20
-3.03597484111276
30
0
41
1
10
41.5407154176556
20
-1.36056797535772
30
0
41
1
10
43.5137800001508
20
0.0775725835201513
30
0
41
1
10
44.2385229101029
20
0.603821447808343
30
0
41
1
10
44.7241010522761
20
0.954100236969254
30
0
0
SPLINE
5
FA
100
AcDbEntity
8
1
62
256
6
ByLayer
370
18
48
1
60
0
100
AcDbSpline
70
4
71
5
72
13
73
7
40
0
40
0
40
0
40
0
40
0
40
0
40
0.607822775542935
40
1
40
1
40
1
40
1
40
1
40
1
41
1
10
30
20
-3.3540836646294
30
0
41
1
10
30.8619258613365
20
-3.91265173174759
30
0
41
1
10
32.2803918172931
20
-4.78964840548556
30
0
41
1
10
33.6987761672813
20
-5.58233627031927
30
0
41
1
10
35.1168815485932
20
-6.26046955653516
30
0
41
1
10
36.5352529060884
20
-6.80572204069128
30
0
41
1
10
37.0914680436873
20
-6.99799302409389
30
0
0
SPLINE
5
FB
100
AcDbEntity
8
1
62
256
6
ByLayer
370
18
48
1
60
0
100
AcDbSpline
70
4
71
3
72
8
73
4
40
0
40
0
40
0
40
0
40
1
40
1
40
1
40
1
41
1
10
51.872616699649
20
-5.39600597265149
30
0
41
1
10
51.8561887860423
20
-5.38669997006355
30
0
41
1
10
51.8397605129457
20
-5.37737354877373
30
0
41
1
10
51.8233318805006
20
-5.3680267961422
30
0
0
SPLINE
5
FC
100
AcDbEntity
8
1
62
256
6
ByLayer
370
18
48
1
60
0
100
AcDbSpline
70
4
71
5
72
12
73
6
40
0
40
0
40
0
40
0
40
0
40
0
40
1
40
1
40
1
40
1
40
1
40
1
41
1
10
57.3300588682993
20
-2.15057127699629
30
0
41
1
10
58.2526949623184
20
-1.5167159875196
30
0
41
1
10
59.1753968315481
20
-0.864611322035472
30
0
41
1
10
60.0979750824338
20
-0.203266499230978
30
0
41
1
10
61.0206323690753
20
0.457901839723945
30
0
41
1
10
61.9432911978332
20
1.10964728018305
30
0
0
SPLINE
5
FD
100
AcDbEntity
8
1
62
256
6
ByLayer
370
18
48
1
60
0
100
AcDbSpline
70
4
71
5
72
13
73
7
40
0
40
0
40
0
40
0
40
0
40
0
40
0.501804381939807
40
1
40
1
40
1
40
1
40
1
40
1
41
1
10
46.146256424186
20
-1.51898285609013
30
0
41
1
10
46.7160245604052
20
-1.94821455885861
30
0
41
1
10
47.851425040422
20
-2.79223189492859
30
0
41
1
10
48.9868049752624
20
-3.60345827156681
30
0
41
1
10
50.1222943053374
20
-4.36031432346911
30
0
41
1
10
51.257659418027
20
-5.04618255429122
30
0
41
1
10
51.8233318805357
20
-5.3680230211379
30
0
0
SPLINE
5
FE
100
AcDbEntity
8
1
62
256
6
ByLayer
370
18
48
1
60
0
100
AcDbSpline
70
4
71
5
72
15
73
9
40
0
40
0
40
0
40
0
40
0
40
0
40
0.148137
40
0.2211
40
0.33
40
1
40
1
40
1
40
1
40
1
40
1
41
1
10
61.8385214820595
20
-7.93728876109367
30
0
41
1
10
62.1429869288451
20
-7.90810121881216
30
0
41
1
10
62.5974577421615
20
-7.85183479259229
30
0
41
1
10
63.2756353787422
20
-7.73963702449305
30
0
41
1
10
65.3309999047255
20
-7.2765962877609
30
0
41
1
10
67.3862030469875
20
-6.4472313180224
30
0
41
1
10
69.1371309453399
20
-5.5078700683938
30
0
41
1
10
70.7379571277617
20
-4.49660145788894
30
0
41
1
10
72.115
20
-3.54971121464507
30
0
0
SPLINE
5
FF
100
AcDbEntity
8
1
62
256
6
ByLayer
370
18
48
1
60
0
100
AcDbSpline
70
4
71
3
72
14
73
10
40
0
40
0
40
0
40
0
40
0.0654298203455185
40
0.185156047914858
40
0.304864176108698
40
0.544582839505615
40
0.664614157982348
40
0.784761313842224
40
1
40
1
40
1
40
1
41
1
10
45.2057477946699
20
-7.81137587025268
30
0
41
1
10
45.4703982802375
20
-7.77059688352668
30
0
41
1
10
46.2196117455883
20
-7.6366748802993
30
0
41
1
10
47.4544366915112
20
-7.33141260163143
30
0
41
1
10
49.3954885989275
20
-6.6871811321613
30
0
41
1
10
51.3349496884492
20
-5.81250077111227
30
0
41
1
10
53.2734305455402
20
-4.75132685376852
30
0
41
1
10
55.1112480760209
20
-3.64482911918069
30
0
41
1
10
56.4628227479424
20
-2.74636516771176
30
0
41
1
10
57.3300588686056
20
-2.15057021251377
30
0
0
SPLINE
5
100
100
AcDbEntity
8
1
62
256
6
ByLayer
370
18
48
1
60
0
100
AcDbSpline
70
4
71
5
72
15
73
9
40
0
40
0
40
0
40
0
40
0
40
0
40
0.235347169431301
40
0.405462945652689
40
0.714166331198871
40
1
40
1
40
1
40
1
40
1
40
1
41
1
10
30
20
7.8189607214515
30
0
41
1
10
30.7598736714659
20
7.69560868815088
30
0
41
1
10
32.0695081951657
20
7.39373930061518
30
0
41
1
10
34.3753943818213
20
6.59699927736651
30
0
41
1
10
37.6049606969706
20
4.88654626104483
30
0
41
1
10
40.8339927304542
20
2.57340473687859
30
0
41
1
10
43.3033479012666
20
0.653732987540621
30
0
41
1
10
45.2232046237601
20
-0.823606841086303
30
0
41
1
10
46.146256424186
20
-1.51898285609013
30
0
0
SPLINE
5
101
100
AcDbEntity
8
1
62
256
6
ByLayer
370
18
48
1
60
0
100
AcDbSpline
70
4
71
5
72
16
73
10
40
0
40
0
40
0
40
0
40
0
40
0
40
0.0717101782467656
40
0.117112578563545
40
0.207683582123542
40
0.372119912418341
40
1
40
1
40
1
40
1
40
1
40
1
41
1
10
30
20
2.10980902859077
30
0
41
1
10
30.2325231816321
20
2.27735952075906
30
0
41
1
10
30.6124525396941
20
2.54908042907653
30
0
41
1
10
31.285954262584
20
3.02359791631497
30
0
41
1
10
32.4929685863566
20
3.84992107654966
30
0
41
1
10
35.7361304543819
20
5.91437556033301
30
0
41
1
10
38.7471730078066
20
7.37294702316771
30
0
41
1
10
41.6103862260055
20
8.09476898560391
30
0
41
1
10
44.1802749638987
20
8.14134913779182
30
0
41
1
10
46.2166826313603
20
7.8245994057441
30
0
0
SPLINE
5
102
100
AcDbEntity
8
1
62
256
6
ByLayer
370
18
48
1
60
0
100
AcDbSpline
70
4
71
5
72
12
73
6
40
0
40
0
40
0
40
0
40
0
40
0
40
1
40
1
40
1
40
1
40
1
40
1
41
1
10
57.6361077070918
20
-7.69353232173216
30
0
41
1
10
58.4765799480696
20
-7.8704177002065
30
0
41
1
10
59.3171716698682
20
-7.98461633682496
30
0
41
1
10
60.157457448071
20
-8.03355381524517
30
0
41
1
10
60.9980228651381
20
-8.0178204631479
30
0
41
1
10
61.8385214820595
20
-7.93728876109367
30
0
0
SPLINE
5
103
100
AcDbEntity
8
1
62
256
6
ByLayer
370
18
48
1
60
0
100
AcDbSpline
70
4
71
3
72
11
73
7
40
0
40
0
40
0
40
0
40
0.291690456355991
40
0.623843790388514
40
0.955941323231566
40
1
40
1
40
1
40
1
41
1
10
44.7241010522761
20
0.954100236969282
30
0
41
1
10
45.1491085641068
20
1.26068524253151
30
0
41
1
10
46.0587389450061
20
1.912320723883
30
0
41
1
10
47.4544240240181
20
2.8826765149247
30
0
41
1
10
48.4887355260128
20
3.56617996272883
30
0
41
1
10
49.0376919881784
20
3.91457309175777
30
0
41
1
10
49.1019860533392
20
3.95517408297809
30
0
0
SPLINE
5
104
100
AcDbEntity
8
1
62
256
6
ByLayer
370
18
48
1
60
0
100
AcDbSpline
70
4
71
5
72
14
73
8
40
0
40
0
40
0
40
0
40
0
40
0
40
0.67
40
0.7789
40
1
40
1
40
1
40
1
40
1
40
1
41
1
10
37.0914680436873
20
-6.99799302409389
30
0
41
1
10
38.1787972135126
20
-7.37382799116759
30
0
41
1
10
39.4427825586052
20
-7.71492294781623
30
0
41
1
10
41.0657505791891
20
-7.99842293636402
30
0
41
1
10
42.6884792384645
20
-8.07011643246838
30
0
41
1
10
44.3114059575988
20
-7.93425178643201
30
0
41
1
10
44.8469513635994
20
-7.86666071165527
30
0
41
1
10
45.2057477946699
20
-7.81137587025268
30
0
0
SPLINE
5
105
100
AcDbEntity
8
1
62
256
6
ByLayer
370
18
48
1
60
0
100
AcDbSpline
70
4
71
3
72
14
73
10
40
0
40
0
40
0
40
0
40
0.119097544135278
40
0.119097544135278
40
0.29527803530822
40
0.29527803530822
40
0.64763901765411
40
0.64763901765411
40
1
40
1
40
1
40
1
41
1
10
77.8077599416848
20
-0.692096061043088
30
0
41
1
10
77.8102549170771
20
-0.685266240484907
30
0
41
1
10
77.8126701761909
20
-0.678633940528954
30
0
41
1
10
77.8184334358472
20
-0.66274771892131
30
0
41
1
10
77.8216890247797
20
-0.653717847514912
30
0
41
1
10
77.8305910667052
20
-0.62880785538249
30
0
41
1
10
77.8353464417198
20
-0.615189019551678
30
0
41
1
10
77.8415198063627
20
-0.596406668605539
30
0
41
1
10
77.8427373533009
20
-0.591835989696136
30
0
41
1
10
77.8419274533147
20
-0.592502549410796
30
0
0
SPLINE
5
106
100
AcDbEntity
8
1
62
256
6
ByLayer
370
13
48
1
60
0
100
AcDbSpline
70
4
71
3
72
8
73
4
40
0
40
0
40
0
40
0
40
1
40
1
40
1
40
1
41
1
10
77.9729536209015
20
0.44886404086688
30
0
41
1
10
77.969522390044
20
0.421593387649295
30
0
41
1
10
77.9660911591865
20
0.394322734431711
30
0
41
1
10
77.9626599283289
20
0.367052081214126
30
0
0
SPLINE
5
107
100
AcDbEntity
8
1
62
256
6
ByLayer
370
13
48
1
60
0
100
AcDbSpline
70
4
71
3
72
8
73
4
40
0
40
0
40
0
40
0
40
1
40
1
40
1
40
1
41
1
10
77.9386779518251
20
0.176448711210327
30
0
41
1
10
77.9064277856559
20
-0.079868375668525
30
0
41
1
10
77.8741776194866
20
-0.336185462547377
30
0
41
1
10
77.8419274533173
20
-0.5925025494262
30
0
0
SPLINE
5
108
100
AcDbEntity
8
1
62
256
6
ByLayer
370
18
48
1
60
0
100
AcDbSpline
70
4
71
3
72
16
73
12
40
0
40
0
40
0
40
0
40
0.125
40
0.125
40
0.25
40
0.25
40
0.5
40
0.5
40
0.75
40
0.75
40
1
40
1
40
1
40
1
41
1
10
29.3393162762419
20
-7.69124648271213
30
0
41
1
10
29.3558702649928
20
-7.69292976629143
30
0
41
1
10
29.3716642717107
20
-7.69448525784779
30
0
41
1
10
29.4024577936804
20
-7.69731484866799
30
0
41
1
10
29.4174418464636
20
-7.69858963204649
30
0
41
1
10
29.4616057104192
20
-7.70198258955267
30
0
41
1
10
29.4900157903813
20
-7.70366846690277
30
0
41
1
10
29.545620835243
20
-7.70589388131296
30
0
41
1
10
29.5727900470189
20
-7.70643434043239
30
0
41
1
10
29.6260828003581
20
-7.70640926549001
30
0
41
1
10
29.6522000868532
20
-7.70584388015183
30
0
41
1
10
29.6777945491496
20
-7.70475439308748
30
0
0
SPLINE
5
109
100
AcDbEntity
8
1
62
256
6
ByLayer
370
18
48
1
60
0
100
AcDbSpline
70
4
71
3
72
8
73
4
40
0
40
0
40
0
40
0
40
1
40
1
40
1
40
1
41
1
10
29.6777945491468
20
-7.70475439308902
30
0
41
1
10
29.7429158801653
20
-7.70198235408557
30
0
41
1
10
29.8171749783671
20
-7.69396456736328
30
0
41
1
10
29.8981716923359
20
-7.68003742484322
30
0
0
SPLINE
5
10A
100
AcDbEntity
8
1
62
256
6
ByLayer
370
18
48
1
60
0
100
AcDbSpline
70
4
71
3
72
8
73
4
40
0
40
0
40
0
40
0
40
1
40
1
40
1
40
1
41
1
10
29.8981716923359
20
-7.68003742484322
30
0
41
1
10
29.9098106786403
20
-7.67790198863577
30
0
41
1
10
29.9214500712322
20
-7.67575364373903
30
0
41
1
10
29.9330898715637
20
-7.67359239994391
30
0
0
SPLINE
5
10B
100
AcDbEntity
8
1
62
256
6
ByLayer
370
18
48
1
60
0
100
AcDbSpline
70
4
71
3
72
30
73
26
40
0
40
0
40
0
40
0
40
0.124999999999998
40
0.124999999999998
40
0.249999999999996
40
0.249999999999996
40
0.312499999999994
40
0.312499999999994
40
0.374999999999992
40
0.374999999999992
40
0.499999999999987
40
0.499999999999987
40
0.624999999999983
40
0.624999999999983
40
0.687500000000002
40
0.687500000000002
40
0.75000000000002
40
0.75000000000002
40
0.875000000000008
40
0.875000000000008
40
0.937499999999972
40
0.937499999999972
40
0.968749999999986
40
0.968749999999986
40
1
40
1
40
1
40
1
41
1
10
77.9729536208937
20
6.96797599664151
30
0
41
1
10
77.9742212343859
20
7.01570770592863
30
0
41
1
10
77.9721742534613
20
7.06293491555314
30
0
41
1
10
77.9618838736718
20
7.15644620558984
30
0
41
1
10
77.9536331117764
20
7.20272916531269
30
0
41
1
10
77.9366000091131
20
7.27144478976462
30
0
41
1
10
77.930143557263
20
7.29423146769648
30
0
41
1
10
77.9156377542541
20
7.33956237544419
30
0
41
1
10
77.9076547664807
20
7.36189418370586
30
0
41
1
10
77.8816374122542
20
7.42772734889579
30
0
41
1
10
77.8615180517228
20
7.47015561814746
30
0
41
1
10
77.8157931275097
20
7.55212415405671
30
0
41
1
10
77.790188709978
20
7.59166502406114
30
0
41
1
10
77.7474595492344
20
7.64870089552076
30
0
41
1
10
77.7326049330907
20
7.66717803426872
30
0
41
1
10
77.7018475852283
20
7.70288464009533
30
0
41
1
10
77.6859207225856
20
7.72014643983118
30
0
41
1
10
77.6365052366943
20
7.77016776159599
30
0
41
1
10
77.6013903607395
20
7.80117253453443
30
0
41
1
10
77.5453486952466
20
7.84404411715494
30
0
41
1
10
77.526104496868
20
7.85772646589612
30
0
41
1
10
77.4963575505185
20
7.87729975683109
30
0
41
1
10
77.4862905529436
20
7.88366700140725
30
0
41
1
10
77.4660321794131
20
7.89597329328382
30
0
41
1
10
77.4558198519763
20
7.90192655906887
30
0
41
1
10
77.4455250439024
20
7.90768153150228
30
0
0
SPLINE
5
10C
100
AcDbEntity
8
1
62
256
6
ByLayer
370
18
48
1
60
0
100
AcDbSpline
70
4
71
3
72
12
73
8
40
0
40
0
40
0
40
0
40
0.263288225005529
40
0.263288225005529
40
0.526576542332044
40
0.526576542332044
40
1
40
1
40
1
40
1
41
1
10
76.9732099089666
20
-7.98311003155595
30
0
41
1
10
76.966982945056
20
-7.98299524625062
30
0
41
1
10
76.9607518248375
20
-7.98288141957295
30
0
41
1
10
76.9482809093814
20
-7.98265593502379
30
0
41
1
10
76.9420410914153
20
-7.98254427666959
30
0
41
1
10
76.9245686816345
20
-7.98223525915597
30
0
41
1
10
76.9133258157186
20
-7.9820406150649
30
0
41
1
10
76.9020669410145
20
-7.98185079706363
30
0
0
SPLINE
5
10D
100
AcDbEntity
8
1
62
256
6
ByLayer
370
18
48
1
60
0
100
AcDbSpline
70
4
71
3
72
8
73
4
40
0
40
0
40
0
40
0
40
1
40
1
40
1
40
1
41
1
10
76.9000238328808
20
-7.98166897714299
30
0
41
1
10
76.8862120227524
20
-7.96256950276637
30
0
41
1
10
76.872400212624
20
-7.94347002838973
30
0
41
1
10
76.8585884024956
20
-7.92437055401311
30
0
0
SPLINE
5
10E
100
AcDbEntity
8
1
62
256
6
ByLayer
370
18
48
1
60
0
100
AcDbSpline
70
4
71
3
72
8
73
4
40
0
40
0
40
0
40
0
40
1
40
1
40
1
40
1
41
1
10
44.4572613862529
20
-7.91970913060851
30
0
41
1
10
44.4583311002946
20
-7.92131989894872
30
0
41
1
10
44.4602932179272
20
-7.92292178397474
30
0
41
1
10
44.4620737733755
20
-7.92462037058365
30
0
0
SPLINE
5
10F
100
AcDbEntity
8
1
62
256
6
ByLayer
370
13
48
1
60
0
100
AcDbSpline
70
4
71
3
72
12
73
8
40
0
40
0
40
0
40
0
40
0.185812517645732
40
0.392120002487753
40
0.598427487329775
40
0.804734972171796
40
1
40
1
40
1
40
1
41
1
10
44.2972007851449
20
-7.69981537138486
30
0
41
1
10
44.3116329563151
20
-7.70840198771251
30
0
41
1
10
44.341260256946
20
-7.72893078987684
30
0
41
1
10
44.3819397531079
20
-7.76788376912396
30
0
41
1
10
44.4169001129063
20
-7.81517110304998
30
0
41
1
10
44.4426001925304
20
-7.86660054538123
30
0
41
1
10
44.4534348694171
20
-7.90234521913885
30
0
41
1
10
44.4572613862464
20
-7.91970913057949
30
0
0
SPLINE
5
110
100
AcDbEntity
8
1
62
256
6
ByLayer
370
18
48
1
60
0
100
AcDbSpline
70
4
71
3
72
8
73
4
40
0
40
0
40
0
40
0
40
1
40
1
40
1
40
1
41
1
10
29.5274963849985
20
7.59618407428007
30
0
41
1
10
29.5795049970934
20
7.61248339498059
30
0
41
1
10
29.6296080521917
20
7.63277058846131
30
0
41
1
10
29.6777945491487
20
7.65706867747389
30
0
0
SPLINE
5
111
100
AcDbEntity
8
1
62
256
6
ByLayer
370
18
48
1
60
0
100
AcDbSpline
70
4
71
3
72
10
73
6
40
0
40
0
40
0
40
0
40
0.513354561703409
40
0.960377514273191
40
1
40
1
40
1
40
1
41
1
10
62.2483926260041
20
7.9298372902168
30
0
41
1
10
62.4489305251986
20
7.92207608550572
30
0
41
1
10
62.8239497106758
20
7.90016293324496
30
0
41
1
10
63.2140979094526
20
7.86314604841144
30
0
41
1
10
63.4038598436019
20
7.84167753684653
30
0
41
1
10
63.4193095268725
20
7.83990666700254
30
0
0
SPLINE
5
112
100
AcDbEntity
8
1
62
256
6
ByLayer
370
18
48
1
60
0
100
AcDbSpline
70
4
71
3
72
14
73
10
40
0
40
0
40
0
40
0
40
0.25
40
0.25
40
0.5
40
0.5
40
0.75
40
0.75
40
1
40
1
40
1
40
1
41
1
10
44.4620737733755
20
-7.92462037058354
30
0
41
1
10
44.4601054965774
20
-7.90006500967863
30
0
41
1
10
44.4575787680904
20
-7.87553854885979
30
0
41
1
10
44.4532858180979
20
-7.82621262978736
30
0
41
1
10
44.451507138293
20
-7.80141908673323
30
0
41
1
10
44.4496345154179
20
-7.75157059803439
30
0
41
1
10
44.4495441219961
20
-7.72652080493111
30
0
41
1
10
44.4511507314446
20
-7.67633435356581
30
0
41
1
10
44.4528526099289
20
-7.65120287602977
30
0
41
1
10
44.4550036048157
20
-7.62612939701779
30
0
0
SPLINE
5
113
100
AcDbEntity
8
1
62
256
6
ByLayer
370
18
48
1
60
0
100
AcDbSpline
70
4
71
3
72
13
73
9
40
0
40
0
40
0
40
0
40
0.0404229491443344
40
0.27613024779589
40
0.511837546447446
40
0.747544845099002
40
0.983252143750557
40
1
40
1
40
1
40
1
41
1
10
44.4620737733755
20
-7.92462037058365
30
0
41
1
10
44.4919480169957
20
-7.92325638077529
30
0
41
1
10
44.6960103885861
20
-7.9133635651269
30
0
41
1
10
45.0741457681974
20
-7.88773864436934
30
0
41
1
10
45.5962956395403
20
-7.83526361991991
30
0
41
1
10
46.1182358070116
20
-7.76575552788736
30
0
41
1
10
46.4784322915039
20
-7.70625269388543
30
0
41
1
10
46.6646842785521
20
-7.67230436523911
30
0
41
1
10
46.6770401135646
20
-7.67003827226887
30
0
0
SPLINE
5
114
100
AcDbEntity
8
1
62
256
6
ByLayer
370
18
48
1
60
0
100
AcDbSpline
70
4
71
3
72
8
73
4
40
0
40
0
40
0
40
0
40
1
40
1
40
1
40
1
41
1
10
63.4548496681446
20
7.81681749045777
30
0
41
1
10
63.4444344498177
20
7.8240858723683
30
0
41
1
10
63.4326281044898
20
7.831752337399
30
0
41
1
10
63.4193095268727
20
7.83990666700251
30
0
0
SPLINE
5
115
100
AcDbEntity
8
1
62
256
6
ByLayer
370
13
48
1
60
0
100
AcDbSpline
70
4
71
3
72
8
73
4
40
0
40
0
40
0
40
0
40
1
40
1
40
1
40
1
41
1
10
77.9729536208833
20
-6.97353900452467
30
0
41
1
10
77.9292782316917
20
-6.91314308472849
30
0
41
1
10
77.8856028425
20
-6.85274716493234
30
0
41
1
10
77.8419274533084
20
-6.79235124513616
30
0
0
SPLINE
5
116
100
AcDbEntity
8
1
62
256
6
ByLayer
370
13
48
1
60
0
100
AcDbSpline
70
4
71
3
72
8
73
4
40
0
40
0
40
0
40
0
40
1
40
1
40
1
40
1
41
1
10
76.9732099089667
20
-7.98311003155595
30
0
41
1
10
76.9619199601606
20
-7.96749787891775
30
0
41
1
10
76.9506300113546
20
-7.95188572627956
30
0
41
1
10
76.9393400625485
20
-7.93627357364133
30
0
0
SPLINE
5
117
100
AcDbEntity
8
1
62
256
6
ByLayer
370
18
48
1
60
0
100
AcDbSpline
70
4
71
3
72
16
73
12
40
0
40
0
40
0
40
0
40
0.250000000000001
40
0.250000000000001
40
0.500000000000001
40
0.500000000000001
40
0.750000000000002
40
0.750000000000002
40
0.875000000000001
40
0.875000000000001
40
1
40
1
40
1
40
1
41
1
10
77.1196692229353
20
-7.99116619413175
30
0
41
1
10
77.1096784648478
20
-7.99041339572759
30
0
41
1
10
77.099384373515
20
-7.98965349380643
30
0
41
1
10
77.0779281084659
20
-7.98813939294971
30
0
41
1
10
77.0667737553934
20
-7.98738452562074
30
0
41
1
10
77.0430988488121
20
-7.98592005774739
30
0
41
1
10
77.0305802739286
20
-7.9852084473309
30
0
41
1
10
77.0104601309233
20
-7.98427277729644
30
0
41
1
10
77.0035132740048
20
-7.98398249835674
30
0
41
1
10
76.9889137139845
20
-7.98347543623532
30
0
41
1
10
76.9812239982916
20
-7.9832577599999
30
0
41
1
10
76.9732099089678
20
-7.98311003155575
30
0
0
SPLINE
5
118
100
AcDbEntity
8
1
62
256
6
ByLayer
370
18
48
1
60
0
100
AcDbSpline
70
4
71
3
72
28
73
24
40
0
40
0
40
0
40
0
40
0.124999999999984
40
0.124999999999984
40
0.249999999999968
40
0.249999999999968
40
0.312499999999959
40
0.312499999999959
40
0.374999999999951
40
0.374999999999951
40
0.499999999999935
40
0.624999999999919
40
0.624999999999919
40
0.687499999999933
40
0.687499999999933
40
0.749999999999946
40
0.749999999999946
40
0.874999999999973
40
0.874999999999973
40
0.937499999999986
40
0.968749999999993
40
0.968749999999993
40
1
40
1
40
1
40
1
41
1
10
77.9729536208938
20
-6.97353900453712
30
0
41
1
10
77.9741820080415
20
-7.01989627703998
30
0
41
1
10
77.9723094406251
20
-7.06578963067702
30
0
41
1
10
77.9627767371107
20
-7.15671048767808
30
0
41
1
10
77.9551103912116
20
-7.20173706202846
30
0
41
1
10
77.9392778275979
20
-7.26862867760525
30
0
41
1
10
77.9332758120527
20
-7.29081749469015
30
0
41
1
10
77.9197955416886
20
-7.33497427581534
30
0
41
1
10
77.9123272506918
20
-7.35688985727072
30
0
41
1
10
77.8880326188572
20
-7.42138952299655
30
0
41
1
10
77.8504440928211
20
-7.50466460547264
30
0
41
1
10
77.8026474383387
20
-7.58258682958922
30
0
41
1
10
77.7628185683475
20
-7.63894077330411
30
0
41
1
10
77.7488356329305
20
-7.65741904960999
30
0
41
1
10
77.7199141850281
20
-7.69314151470556
30
0
41
1
10
77.7049377956906
20
-7.71044585033167
30
0
41
1
10
77.6584782553667
20
-7.76070611950078
30
0
41
1
10
77.6254721253266
20
-7.7920172997419
30
0
41
1
10
77.5728472462006
20
-7.83561926239844
30
0
41
1
10
77.5457531703704
20
-7.85657610944378
30
0
41
1
10
77.5174475168928
20
-7.87622450360462
30
0
41
1
10
77.4983013958054
20
-7.88902570437347
30
0
41
1
10
77.4885719307659
20
-7.89528848670793
30
0
41
1
10
77.4787754523181
20
-7.90135369376208
30
0
0
SPLINE
5
119
100
AcDbEntity
8
1
62
256
6
ByLayer
370
18
48
1
60
0
100
AcDbSpline
70
4
71
3
72
8
73
4
40
0
40
0
40
0
40
0
40
1
40
1
40
1
40
1
41
1
10
30.0000000000001
20
-7.66730057567491
30
0
41
1
10
29.7786329307158
20
-7.67876963975704
30
0
41
1
10
29.5583613222865
20
-7.68688538073167
30
0
41
1
10
29.3393162762586
20
-7.69124648271094
30
0
0
SPLINE
5
11A
100
AcDbEntity
8
1
62
256
6
ByLayer
370
18
48
1
60
0
100
AcDbSpline
70
4
71
3
72
10
73
6
40
0
40
0
40
0
40
0
40
0.5
40
0.5
40
1
40
1
40
1
40
1
41
1
10
29.3393162762564
20
-7.6912464827146
30
0
41
1
10
29.3132785081532
20
-7.68741168738654
30
0
41
1
10
29.286669297237
20
-7.68446801942798
30
0
41
1
10
29.2328092156475
20
-7.68058612119526
30
0
41
1
10
29.2055060089701
20
-7.67963665928008
30
0
41
1
10
29.1777945491469
20
-7.67977191005596
30
0
0
SPLINE
5
11B
100
AcDbEntity
8
1
62
256
6
ByLayer
370
18
48
1
60
0
100
AcDbSpline
70
4
71
3
72
10
73
6
40
0
40
0
40
0
40
0
40
0.5
40
0.5
40
1
40
1
40
1
40
1
41
1
10
29.1777945491471
20
7.54730811044374
30
0
41
1
10
29.2385518385869
20
7.54571548962144
30
0
41
1
10
29.2980991819906
20
7.54930076696786
30
0
41
1
10
29.4147189339948
20
7.5658029161348
30
0
41
1
10
29.4717912294437
20
7.57872626953417
30
0
41
1
10
29.5274963849985
20
7.59618407428007
30
0
0
SPLINE
5
11C
100
AcDbEntity
8
1
62
256
6
ByLayer
370
18
48
1
60
0
100
AcDbSpline
70
4
71
3
72
35
73
31
40
0
40
0
40
0
40
0
40
0.124999999999996
40
0.124999999999996
40
0.249999999999992
40
0.249999999999992
40
0.374999999999988
40
0.374999999999988
40
0.499999999999984
40
0.499999999999984
40
0.562499999999982
40
0.562499999999982
40
0.624999999999981
40
0.624999999999981
40
0.687499999999979
40
0.687499999999979
40
0.749999999999977
40
0.749999999999977
40
0.812499999999975
40
0.812499999999975
40
0.843749999999974
40
0.843749999999974
40
0.874999999999973
40
0.874999999999973
40
0.937499999999981
40
0.937499999999981
40
0.953124999999986
40
0.953124999999986
40
0.968749999999991
40
1
40
1
40
1
40
1
41
1
10
77.4132866652955
20
-7.35072829835758
30
0
41
1
10
77.4347439097293
20
-7.34477461230935
30
0
41
1
10
77.4561521160379
20
-7.3379006789049
30
0
41
1
10
77.4987481195234
20
-7.32198258908522
30
0
41
1
10
77.5199422123791
20
-7.31294064675023
30
0
41
1
10
77.5620726796126
20
-7.2921709217357
30
0
41
1
10
77.5830324055904
20
-7.28043451103235
30
0
41
1
10
77.6245008069732
20
-7.25353436810059
30
0
41
1
10
77.644992791777
20
-7.23839927514632
30
0
41
1
10
77.6752265796353
20
-7.21218914538093
30
0
41
1
10
77.6852197429445
20
-7.20286274461262
30
0
41
1
10
77.7049980948557
20
-7.18276312694971
30
0
41
1
10
77.7147956165873
20
-7.17197769893039
30
0
41
1
10
77.7340725092072
20
-7.14863038289471
30
0
41
1
10
77.7435198843621
20
-7.13611252843879
30
0
41
1
10
77.7619203156667
20
-7.10889280413534
30
0
41
1
10
77.7708751812505
20
-7.09419892878552
30
0
41
1
10
77.7881063864956
20
-7.06181329404066
30
0
41
1
10
77.7964073347169
20
-7.04405234683497
30
0
41
1
10
77.8078245049219
20
-7.01480371210127
30
0
41
1
10
77.8114668419237
20
-7.00459938294563
30
0
41
1
10
77.8183530073121
20
-6.98308148034491
30
0
41
1
10
77.8216077922331
20
-6.9717269840724
30
0
41
1
10
77.8305499707205
20
-6.93585084592161
30
0
41
1
10
77.8353179577546
20
-6.91003760941626
30
0
41
1
10
77.8391853934172
20
-6.87444706605899
30
0
41
1
10
77.8398475859699
20
-6.86719531148947
30
0
41
1
10
77.8409250070354
20
-6.8526076874094
30
0
41
1
10
77.8421800849031
20
-6.83051817769498
30
0
41
1
10
77.8423322834291
20
-6.80779308371939
30
0
41
1
10
77.8419274533146
20
-6.79235124514284
30
0
0
SPLINE
5
11D
100
AcDbEntity
8
1
62
256
6
ByLayer
370
18
48
1
60
0
100
AcDbSpline
70
4
71
3
72
47
73
43
40
0
40
0
40
0
40
0
40
0.0625000000000153
40
0.0625000000000153
40
0.125000000000031
40
0.125000000000031
40
0.156250000000038
40
0.156250000000038
40
0.187500000000046
40
0.187500000000046
40
0.250000000000054
40
0.250000000000054
40
0.375000000000071
40
0.375000000000071
40
0.437500000000079
40
0.437500000000079
40
0.500000000000087
40
0.500000000000087
40
0.562500000000095
40
0.562500000000095
40
0.625000000000103
40
0.625000000000103
40
0.687500000000111
40
0.687500000000111
40
0.718750000000099
40
0.718750000000099
40
0.750000000000087
40
0.750000000000087
40
0.781250000000076
40
0.781250000000076
40
0.812500000000064
40
0.812500000000064
40
0.843750000000052
40
0.843750000000052
40
0.87500000000004
40
0.87500000000004
40
0.937500000000046
40
0.937500000000046
40
0.953125000000035
40
0.953125000000035
40
0.968750000000023
40
1
40
1
40
1
40
1
41
1
10
76.7511112755585
20
-0.431142886911943
30
0
41
1
10
76.7497795772049
20
-0.46115390379029
30
0
41
1
10
76.7519123231344
20
-0.490847193640832
30
0
41
1
10
76.7613162131967
20
-0.549713464793996
30
0
41
1
10
76.7686067430517
20
-0.578885130572331
30
0
41
1
10
76.7826602187
20
-0.622289447133937
30
0
41
1
10
76.7878685258852
20
-0.636698319842822
30
0
41
1
10
76.7992444887045
20
-0.665400333706856
30
0
41
1
10
76.8054226594037
20
-0.679715519050433
30
0
41
1
10
76.8252215413806
20
-0.722340850535971
30
0
41
1
10
76.8399820606617
20
-0.750101174892336
30
0
41
1
10
76.888077859495
20
-0.831679667883179
30
0
41
1
10
76.9251785115034
20
-0.883825696915295
30
0
41
1
10
76.9865345247233
20
-0.958995649350442
30
0
41
1
10
77.0079533677931
20
-0.98353583342427
30
0
41
1
10
77.052560688363
20
-1.03153075361087
30
0
41
1
10
77.0757988692416
20
-1.05503077084171
30
0
41
1
10
77.1236031957965
20
-1.10048614245568
30
0
41
1
10
77.1481844996502
20
-1.12246647102859
30
0
41
1
10
77.1986097248434
20
-1.16469365563637
30
0
41
1
10
77.224453145127
20
-1.18494569572718
30
0
41
1
10
77.2773640861784
20
-1.22323312597081
30
0
41
1
10
77.3044292616281
20
-1.24128135893147
30
0
41
1
10
77.3459861574555
20
-1.26595724124743
30
0
41
1
10
77.3600335781517
20
-1.27379492378233
30
0
41
1
10
77.3882618146403
20
-1.2883357173352
30
0
41
1
10
77.4024434899378
20
-1.29504305046703
30
0
41
1
10
77.4309191504554
20
-1.30704546899636
30
0
41
1
10
77.445212816601
20
-1.31234169732676
30
0
41
1
10
77.4738979733509
20
-1.32112675091639
30
0
41
1
10
77.4883713056231
20
-1.324623097753
30
0
41
1
10
77.516837938008
20
-1.32919943711787
30
0
41
1
10
77.5308575099142
20
-1.33029682969527
30
0
41
1
10
77.5584331892669
20
-1.32975954674225
30
0
41
1
10
77.5720041570704
20
-1.32811904215976
30
0
41
1
10
77.6119820103936
20
-1.31868766289884
30
0
41
1
10
77.6363482601239
20
-1.30669058336346
30
0
41
1
10
77.665317609258
20
-1.28603626984739
30
0
41
1
10
77.6710542529136
20
-1.28160987198169
30
0
41
1
10
77.6823306112499
20
-1.27230380040453
30
0
41
1
10
77.6989287501986
20
-1.25768725913764
30
0
41
1
10
77.714807620087
20
-1.24133405844236
30
0
41
1
10
77.7252298009914
20
-1.2298140760827
30
0
0
SPLINE
5
11E
100
AcDbEntity
8
1
62
256
6
ByLayer
370
18
48
1
60
0
100
AcDbSpline
70
4
71
3
72
18
73
14
40
0
40
0
40
0
40
0
40
0.250000000000009
40
0.250000000000009
40
0.375000000000012
40
0.375000000000012
40
0.500000000000016
40
0.500000000000016
40
0.62500000000002
40
0.62500000000002
40
0.750000000000023
40
0.750000000000023
40
1
40
1
40
1
40
1
41
1
10
73.4264619741132
20
-0.654388213163088
30
0
41
1
10
73.4367131473214
20
-0.606026506414565
30
0
41
1
10
73.4507684021965
20
-0.557389984794355
30
0
41
1
10
73.4765805104259
20
-0.483489447839844
30
0
41
1
10
73.4860167214893
20
-0.458638134184213
30
0
41
1
10
73.5063171337864
20
-0.408979100029853
30
0
41
1
10
73.5171782073703
20
-0.38416778269945
30
0
41
1
10
73.5403087558915
20
-0.33456513303895
30
0
41
1
10
73.5526203144347
20
-0.309696943392993
30
0
41
1
10
73.5784504151862
20
-0.26044578177067
30
0
41
1
10
73.5919636596904
20
-0.236062054635198
30
0
41
1
10
73.6343267976201
20
-0.163659668352466
30
0
41
1
10
73.6649782249847
20
-0.11637774166087
30
0
41
1
10
73.6983746503026
20
-0.0702856231806663
30
0
0
SPLINE
5
11F
100
AcDbEntity
8
1
62
256
6
ByLayer
370
18
48
1
60
0
100
AcDbSpline
70
4
71
2
72
6
73
3
40
0
40
0
40
0
40
1
40
1
40
1
41
0.50000029834497
10
77.7073183920472
20
-1.65782364868328
30
0
41
0.49999970165503
10
77.7067036498516
20
-1.65873532647323
30
0
41
0.50000029834497
10
77.7060859319633
20
-1.65964351193213
30
0
0
SPLINE
5
120
100
AcDbEntity
8
1
62
256
6
ByLayer
370
18
48
1
60
0
100
AcDbSpline
70
4
71
3
72
10
73
6
40
0
40
0
40
0
40
0
40
0.0361445028715138
40
0.0361445028715138
40
1
40
1
40
1
40
1
41
1
10
75.3311552242481
20
4.86715030466908
30
0
41
1
10
75.3384704796602
20
4.86419968679746
30
0
41
1
10
75.3457869973511
20
4.86124025075006
30
0
41
1
10
75.5482458648301
20
4.77911931704884
30
0
41
1
10
75.7442813670015
20
4.693718329679
30
0
41
1
10
75.9411484284693
20
4.60250813687466
30
0
0
SPLINE
5
121
100
AcDbEntity
8
1
62
256
6
ByLayer
370
13
48
1
60
0
100
AcDbSpline
70
4
71
3
72
8
73
4
40
0
40
0
40
0
40
0
40
1
40
1
40
1
40
1
41
1
10
30.3493482160664
20
-3.58474378559629
30
0
41
1
10
30.2328988107109
20
-3.55699277653994
30
0
41
1
10
30.1164494053555
20
-3.52866216416223
30
0
41
1
10
30
20
-3.49976293370889
30
0
0
SPLINE
5
122
100
AcDbEntity
8
1
62
256
6
ByLayer
370
18
48
1
60
0
100
AcDbSpline
70
4
71
3
72
23
73
19
40
0
40
0
40
0
40
0
40
0.0107920914651539
40
0.0990359201148152
40
0.187279748764477
40
0.231401663089307
40
0.275523577414137
40
0.319645491738968
40
0.363767406063798
40
0.452011234713459
40
0.540255063363121
40
0.584376977687951
40
0.628498892012782
40
0.716742720662443
40
0.804986549312104
40
0.893230377961765
40
0.981474206611426
40
1
40
1
40
1
40
1
41
1
10
45.4647559199446
20
7.92999385129895
30
0
41
1
10
45.4860831689139
20
7.92915831152843
30
0
41
1
10
45.6818076872211
20
7.92105627230868
30
0
41
1
10
46.0521094203026
20
7.89819089247158
30
0
41
1
10
46.4886705907656
20
7.85550330195721
30
0
41
1
10
46.8381351305213
20
7.81199325606198
30
0
41
1
10
47.100337530007
20
7.77468710193878
30
0
41
1
10
47.3626421922223
20
7.73270505389132
30
0
41
1
10
47.7125087354645
20
7.67046987728642
30
0
41
1
10
48.1500726109456
20
7.58105725578815
30
0
41
1
10
48.5879076729959
20
7.47640668983359
30
0
41
1
10
48.9383276134044
20
7.38377870624612
30
0
41
1
10
49.2888372707711
20
7.28519174464719
30
0
41
1
10
49.7271394685985
20
7.1508597464921
30
0
41
1
10
50.2533259397946
20
6.97225100784567
30
0
41
1
10
50.7796915996487
20
6.77680315778218
30
0
41
1
10
51.167546319431
20
6.62084149840737
30
0
41
1
10
51.3799257364619
20
6.5315381489275
30
0
41
1
10
51.4167768980464
20
6.51592612195998
30
0
0
SPLINE
5
123
100
AcDbEntity
8
1
62
256
6
ByLayer
370
18
48
1
60
0
100
AcDbSpline
70
4
71
3
72
14
73
10
40
0
40
0
40
0
40
0
40
0.249999999999999
40
0.249999999999999
40
0.499999999999998
40
0.499999999999998
40
0.749999999999999
40
0.749999999999999
40
1
40
1
40
1
40
1
41
1
10
51.4900308599475
20
7.00878499694869
30
0
41
1
10
51.5026093946347
20
6.96569947136615
30
0
41
1
10
51.5113525420657
20
6.92246362291257
30
0
41
1
10
51.5202011980926
20
6.83652498134734
30
0
41
1
10
51.5203096304152
20
6.79381843439222
30
0
41
1
10
51.5103796613926
20
6.71001011702734
30
0
41
1
10
51.5003435873792
20
6.66890492601169
30
0
41
1
10
51.468221894551
20
6.58969890823397
30
0
41
1
10
51.4461593028183
20
6.55158856424006
30
0
41
1
10
51.4167768980467
20
6.51592612195981
30
0
0
SPLINE
5
124
100
AcDbEntity
8
1
62
256
6
ByLayer
370
13
48
1
60
0
100
AcDbSpline
70
4
71
3
72
13
73
9
40
0
40
0
40
0
40
0
40
0.0062994309025459
40
0.208145397777842
40
0.409991364653138
40
0.611837331528435
40
0.813683298403731
40
1
40
1
40
1
40
1
41
1
10
52.2909206066742
20
5.56530663052376
30
0
41
1
10
52.291424484519
20
5.56557582801514
30
0
41
1
10
52.3080586506907
20
5.57451312809525
30
0
41
1
10
52.3398876117755
20
5.59489591797436
30
0
41
1
10
52.381961479631
20
5.63280819950754
30
0
41
1
10
52.4169232230178
20
5.67730860495612
30
0
41
1
10
52.442420589135
20
5.72532283771295
30
0
41
1
10
52.4531989801924
20
5.75853697762577
30
0
41
1
10
52.457000913236
20
5.77447414136768
30
0
0
SPLINE
5
125
100
AcDbEntity
8
1
62
256
6
ByLayer
370
18
48
1
60
0
100
AcDbSpline
70
4
71
3
72
14
73
10
40
0
40
0
40
0
40
0
40
0.25
40
0.25
40
0.5
40
0.5
40
0.75
40
0.75
40
1
40
1
40
1
40
1
41
1
10
56.4619458506475
20
-7.05482089890012
30
0
41
1
10
56.4598669653881
20
-6.96970992568734
30
0
41
1
10
56.4572594897204
20
-6.88462052090765
30
0
41
1
10
56.4528435350078
20
-6.71420701168452
30
0
41
1
10
56.4510227027139
20
-6.62888491766998
30
0
41
1
10
56.4491023458767
20
-6.45802447980483
30
0
41
1
10
56.4490066482261
20
-6.37249281809702
30
0
41
1
10
56.4506432474995
20
-6.20136250566381
30
0
41
1
10
56.4523807961163
20
-6.11576804513214
30
0
41
1
10
56.4545888740841
20
-6.0302229422968
30
0
0
SPLINE
5
126
100
AcDbEntity
8
1
62
256
6
ByLayer
370
18
48
1
60
0
100
AcDbSpline
70
4
71
3
72
21
73
17
40
0
40
0
40
0
40
0
40
0.0073678466016244
40
0.0752693295836362
40
0.143170812565648
40
0.278973778529672
40
0.346875261511684
40
0.414776744493695
40
0.482678227475707
40
0.550579710457719
40
0.618481193439731
40
0.686382676421743
40
0.822185642385766
40
0.890087125367778
40
0.95798860834979
40
1
40
1
40
1
40
1
41
1
10
56.4619458506481
20
-7.0548208989004
30
0
41
1
10
56.4808665489462
20
-7.06143545646245
30
0
41
1
10
56.6741646415243
20
-7.12865545053847
30
0
41
1
10
57.0419486145706
20
-7.24962073063608
30
0
41
1
10
57.7399670537987
20
-7.45512960016518
30
0
41
1
10
58.4383342449988
20
-7.62301957107499
30
0
41
1
10
59.1367851004222
20
-7.75234748607258
30
0
41
1
10
59.660614615653
20
-7.82996835810206
30
0
41
1
10
60.1843675093859
20
-7.88762072501513
30
0
41
1
10
60.7079681777816
20
-7.9253059722819
30
0
41
1
10
61.2313194562651
20
-7.94307713170474
30
0
41
1
10
61.9286911494472
20
-7.94036751559702
30
0
41
1
10
62.6253054590424
20
-7.8972926983825
30
0
41
1
10
63.3208234492396
20
-7.81501127917556
30
0
41
1
10
63.77558978529
20
-7.74434478011139
30
0
41
1
10
64.056460137115
20
-7.69223204362217
30
0
41
1
10
64.1637916001854
20
-7.67109280028626
30
0
0
SPLINE
5
127
100
AcDbEntity
8
1
62
256
6
ByLayer
370
18
48
1
60
0
100
AcDbSpline
70
4
71
3
72
8
73
4
40
0
40
0
40
0
40
0
40
1
40
1
40
1
40
1
41
1
10
76.8913771985971
20
-7.975680841702
30
0
41
1
10
76.8942627749473
20
-7.9777215578026
30
0
41
1
10
76.8971473015548
20
-7.97974395305064
30
0
41
1
10
76.9000307743935
20
-7.9817480416686
30
0
0
SPLINE
5
128
100
AcDbEntity
8
1
62
256
6
ByLayer
370
18
48
1
60
0
100
AcDbSpline
70
4
71
3
72
8
73
4
40
0
40
0
40
0
40
0
40
1
40
1
40
1
40
1
41
1
10
68.4560886937455
20
-5.19428769961544
30
0
41
1
10
68.4554228307494
20
-5.21053018172515
30
0
41
1
10
68.4547384823654
20
-5.22677492434201
30
0
41
1
10
68.4540417374268
20
-5.2430221907639
30
0
0
SPLINE
5
129
100
AcDbEntity
8
1
62
256
6
ByLayer
370
18
48
1
60
0
100
AcDbSpline
70
4
71
3
72
8
73
4
40
0
40
0
40
0
40
0
40
1
40
1
40
1
40
1
41
1
10
68.4570072095726
20
-5.04112796850876
30
0
41
1
10
68.4565574224672
20
-5.09218375645821
30
0
41
1
10
68.4562426298841
20
-5.143238757045
30
0
41
1
10
68.4560886937455
20
-5.19428769961544
30
0
0
SPLINE
5
12A
100
AcDbEntity
8
1
62
256
6
ByLayer
370
18
48
1
60
0
100
AcDbSpline
70
4
71
3
72
8
73
4
40
0
40
0
40
0
40
0
40
1
40
1
40
1
40
1
41
1
10
76.8585884024956
20
-7.92437055401314
30
0
41
1
10
76.8695288347951
20
-7.94171950608654
30
0
41
1
10
76.8804584237976
20
-7.95882272093627
30
0
41
1
10
76.8913771978347
20
-7.97568084063056
30
0
0
SPLINE
5
12B
100
AcDbEntity
8
1
62
256
6
ByLayer
370
18
48
1
60
0
100
AcDbSpline
70
4
71
3
72
8
73
4
40
0
40
0
40
0
40
0
40
1
40
1
40
1
40
1
41
1
10
76.8585884024956
20
-7.92437055401311
30
0
41
1
10
76.8875878239886
20
-7.92790398182848
30
0
41
1
10
76.9148503649535
20
-7.93182848666376
30
0
41
1
10
76.9393400625418
20
-7.93627357364304
30
0
0
SPLINE
5
12C
100
AcDbEntity
8
1
62
256
6
ByLayer
370
18
48
1
60
0
100
AcDbSpline
70
4
71
3
72
31
73
27
40
0
40
0
40
0
40
0
40
0.0312500000001335
40
0.0312500000001335
40
0.062500000000267
40
0.062500000000267
40
0.0781250000002933
40
0.0781250000002933
40
0.0937500000003196
40
0.0937500000003196
40
0.109375000000346
40
0.109375000000346
40
0.125000000000372
40
0.125000000000372
40
0.156250000000371
40
0.156250000000371
40
0.187500000000369
40
0.250000000000339
40
0.250000000000339
40
0.375000000000279
40
0.375000000000279
40
0.500000000000219
40
0.500000000000219
40
0.75000000000011
40
0.75000000000011
40
1
40
1
40
1
40
1
41
1
10
76.9393400625482
20
-7.93627357364119
30
0
41
1
10
76.9421791110256
20
-7.93678888492155
30
0
41
1
10
76.9451515427727
20
-7.93726662827851
30
0
41
1
10
76.9516136926965
20
-7.93808087414629
30
0
41
1
10
76.9551063669311
20
-7.93842731638273
30
0
41
1
10
76.9610973130024
20
-7.93866121410895
30
0
41
1
10
76.9631875079445
20
-7.93868800872283
30
0
41
1
10
76.9676365938221
20
-7.93856298417808
30
0
41
1
10
76.9700070978631
20
-7.93840231167064
30
0
41
1
10
76.9745440990158
20
-7.93785199927157
30
0
41
1
10
76.9766358816796
20
-7.93747358275246
30
0
41
1
10
76.9802576865899
20
-7.93663512703219
30
0
41
1
10
76.9818290260079
20
-7.93617119356176
30
0
41
1
10
76.9859467672716
20
-7.93476339660245
30
0
41
1
10
76.9880051522779
20
-7.93378485318897
30
0
41
1
10
76.9915091138771
20
-7.93185004459312
30
0
41
1
10
76.9957858766962
20
-7.92897275531112
30
0
41
1
10
76.9985767810176
20
-7.92613455762083
30
0
41
1
10
77.0033275895304
20
-7.92048287594909
30
0
41
1
10
77.0053321902317
20
-7.9167941357876
30
0
41
1
10
77.0085649627645
20
-7.909468957744
30
0
41
1
10
77.0097299505107
20
-7.90583667820886
30
0
41
1
10
77.0125220445565
20
-7.89498416483121
30
0
41
1
10
77.013455104403
20
-7.88780558436591
30
0
41
1
10
77.0145687540913
20
-7.87349507773231
30
0
41
1
10
77.0147153469787
20
-7.86636414869815
30
0
41
1
10
77.0146406402447
20
-7.85924015270419
30
0
0
SPLINE
5
12D
100
AcDbEntity
8
1
62
256
6
ByLayer
370
18
48
1
60
0
100
AcDbSpline
70
4
71
3
72
16
73
12
40
0
40
0
40
0
40
0
40
0.124999999999999
40
0.124999999999999
40
0.249999999999999
40
0.249999999999999
40
0.499999999999999
40
0.499999999999999
40
0.749999999999999
40
0.749999999999999
40
1
40
1
40
1
40
1
41
1
10
76.6614767442516
20
4.18974539399093
30
0
41
1
10
76.6796896399342
20
4.15055067607264
30
0
41
1
10
76.698517460703
20
4.10950691688455
30
0
41
1
10
76.7373527394968
20
4.02387230306576
30
0
41
1
10
76.7573898997031
20
3.97921346969417
30
0
41
1
10
76.8188235696884
20
3.84096322268329
30
0
41
1
10
76.861631095069
20
3.74291359105416
30
0
41
1
10
76.9506794901811
20
3.53588462691709
30
0
41
1
10
76.9964300350538
20
3.4280453989121
30
0
41
1
10
77.0902007818467
20
3.20436293786821
30
0
41
1
10
77.1382220655363
20
3.08851588994767
30
0
41
1
10
77.187352259187
20
2.96875824199501
30
0
0
SPLINE
5
12E
100
AcDbEntity
8
1
62
256
6
ByLayer
370
18
48
1
60
0
100
AcDbSpline
70
4
71
3
72
8
73
4
40
0
40
0
40
0
40
0
40
1
40
1
40
1
40
1
41
1
10
75.9411484332816
20
4.60250813194432
30
0
41
1
10
76.1821138152519
20
4.47241689649289
30
0
41
1
10
76.4222112970261
20
4.33472463024384
30
0
41
1
10
76.6614767442515
20
4.18974539399096
30
0
0
SPLINE
5
12F
100
AcDbEntity
8
1
62
256
6
ByLayer
370
18
48
1
60
0
100
AcDbSpline
70
4
71
3
72
10
73
6
40
0
40
0
40
0
40
0
40
0.201367131644894
40
0.843243983341916
40
1
40
1
40
1
40
1
41
1
10
75.9411484357748
20
4.60250813457611
30
0
41
1
10
75.6274322905165
20
4.74160944681739
30
0
41
1
10
74.3137161452583
20
5.30067089501904
30
0
41
1
10
72.7557849044663
20
5.8363520491535
30
0
41
1
10
71.5115698089326
20
6.14802173833763
30
0
41
1
10
71.2673547133989
20
6.20461923328324
30
0
0
SPLINE
5
130
100
AcDbEntity
8
1
62
256
6
ByLayer
370
18
48
1
60
0
100
AcDbSpline
70
4
71
3
72
10
73
6
40
0
40
0
40
0
40
0
40
0.328266019350655
40
0.731306407740262
40
1
40
1
40
1
40
1
41
1
10
35.5825670697424
20
-6.4268572636841
30
0
41
1
10
34.9717113798282
20
-6.53362671123102
30
0
41
1
10
33.6108556899141
20
-6.7053165033154
30
0
41
1
10
31.75
20
-6.73250878525315
30
0
41
1
10
30.5
20
-6.61888322286302
30
0
41
1
10
30
20
-6.55370791102251
30
0
0
SPLINE
5
131
100
AcDbEntity
8
1
62
256
6
ByLayer
370
18
48
1
60
0
100
AcDbSpline
70
4
71
3
72
8
73
4
40
0
40
0
40
0
40
0
40
1
40
1
40
1
40
1
41
1
10
76.4041882157803
20
-3.57372856118695
30
0
41
1
10
76.4136979807183
20
-3.92421077252902
30
0
41
1
10
76.4302748284583
20
-4.27457238293673
30
0
41
1
10
76.454506345034
20
-4.62480336515887
30
0
0
SPLINE
5
132
100
AcDbEntity
8
1
62
256
6
ByLayer
370
18
48
1
60
0
100
AcDbSpline
70
4
71
3
72
22
73
18
40
0
40
0
40
0
40
0
40
0.125000000000005
40
0.125000000000005
40
0.25000000000001
40
0.25000000000001
40
0.312500000000012
40
0.312500000000012
40
0.375000000000015
40
0.375000000000015
40
0.500000000000012
40
0.500000000000012
40
0.625000000000009
40
0.625000000000009
40
0.750000000000006
40
0.750000000000006
40
1
40
1
40
1
40
1
41
1
10
73.5112453426659
20
-0.967717183072978
30
0
41
1
10
73.6123599128442
20
-1.09366247812756
30
0
41
1
10
73.7174062345436
20
-1.21745083426279
30
0
41
1
10
73.9345128248947
20
-1.4611797308518
30
0
41
1
10
74.0465744984911
20
-1.58111950055999
30
0
41
1
10
74.2194269348315
20
-1.75841788391915
30
0
41
1
10
74.2778643429074
20
-1.81710636391165
30
0
41
1
10
74.396154047481
20
-1.93354722060343
30
0
41
1
10
74.4556977115361
20
-1.99099741520942
30
0
41
1
10
74.6354367950563
20
-2.16120791837656
30
0
41
1
10
74.7567369860133
20
-2.27183455800991
30
0
41
1
10
75.0019101664822
20
-2.48811893612876
30
0
41
1
10
75.1257846960282
20
-2.59377370031348
30
0
41
1
10
75.3758239281404
20
-2.80066016830489
30
0
41
1
10
75.5019891046136
20
-2.9018909568446
30
0
41
1
10
75.8835931664627
20
-3.1995797469699
30
0
41
1
10
76.1421225186548
20
-3.39006906356744
30
0
41
1
10
76.4041882157802
20
-3.57372856118698
30
0
0
SPLINE
5
133
100
AcDbEntity
8
1
62
256
6
ByLayer
370
18
48
1
60
0
100
AcDbSpline
70
4
71
3
72
18
73
14
40
0
40
0
40
0
40
0
40
0.250000000000013
40
0.250000000000013
40
0.375000000000019
40
0.375000000000019
40
0.500000000000026
40
0.500000000000026
40
0.75000000000001
40
0.75000000000001
40
0.875000000000005
40
0.875000000000005
40
1
40
1
40
1
40
1
41
1
10
73.5112453426659
20
-0.967717183072978
30
0
41
1
10
73.4924898993253
20
-0.944355961824215
30
0
41
1
10
73.4760911449571
20
-0.920013263444218
30
0
41
1
10
73.455626485203
20
-0.881774066903944
30
0
41
1
10
73.4494960979424
20
-0.868739141229923
30
0
41
1
10
73.4387527636288
20
-0.842034335062692
30
0
41
1
10
73.4342407457438
20
-0.828606028847901
30
0
41
1
10
73.4232929999494
20
-0.78828147353579
30
0
41
1
10
73.4194068140296
20
-0.761263524258084
30
0
41
1
10
73.4185286626146
20
-0.720518836881666
30
0
41
1
10
73.4190690539124
20
-0.707040226772051
30
0
41
1
10
73.4216633138798
20
-0.68047937101025
30
0
41
1
10
73.4237164445129
20
-0.667360914737486
30
0
41
1
10
73.4264619741123
20
-0.65438821316269
30
0
0
SPLINE
5
134
100
AcDbEntity
8
1
62
256
6
ByLayer
370
13
48
1
60
0
100
AcDbSpline
70
4
71
3
72
12
73
8
40
0
40
0
40
0
40
0
40
0.124070853806641
40
0.385004946810645
40
0.645939039814649
40
0.841639609567652
40
1
40
1
40
1
40
1
41
1
10
73.4264619741132
20
-0.654388213163088
30
0
41
1
10
72.9509746494088
20
-0.45962174675222
30
0
41
1
10
71.4754873247044
20
0.150856144018178
30
0
41
1
10
69
20
1.1861565042754
30
0
41
1
10
66.25
20
2.25637660338364
30
0
41
1
10
63.8931019568611
20
3.06514682021526
30
0
41
1
10
62.5362039137222
20
3.46200260342539
30
0
41
1
10
61.9293058705834
20
3.62356120999942
30
0
0
SPLINE
5
135
100
AcDbEntity
8
1
62
256
6
ByLayer
370
13
48
1
60
0
100
AcDbSpline
70
4
71
3
72
16
73
12
40
0
40
0
40
0
40
0
40
0.0101437829258591
40
0.0862865688546391
40
0.162429354783419
40
0.276643533676589
40
0.390857712569759
40
0.54314328442732
40
0.69542885628488
40
0.84771442814244
40
1
40
1
40
1
40
1
41
1
10
49.6998308073863
20
-4.06755051244298
30
0
41
1
10
49.6332205382575
20
-4.05321221251501
30
0
41
1
10
49.0666102691288
20
-3.92908755539494
30
0
41
1
10
48.0000000000001
20
-3.66126574307711
30
0
41
0.999999999999999
10
46.25
20
-3.12886190809766
30
0
41
1
10
44.25
20
-2.4070571268694
30
0
41
1
10
41.75
20
-1.38728630193944
30
0
41
1
10
39.0000000000001
20
-0.161410685982958
30
0
41
1
10
36
20
1.17038304669919
30
0
41
1
10
33
20
2.39998326229372
30
0
41
1
10
31
20
3.07374220553265
30
0
41
1
10
30
20
3.36127465195025
30
0
0
SPLINE
5
136
100
AcDbEntity
8
1
62
256
6
ByLayer
370
13
48
1
60
0
100
AcDbSpline
70
4
71
3
72
23
73
19
40
0
40
0
40
0
40
0
40
0.103086102306459
40
0.2094763760129
40
0.280403225150526
40
0.351330074288153
40
0.404525211141373
40
0.457720347994593
40
0.493183772563407
40
0.52864719713222
40
0.58184233398544
40
0.63503747083866
40
0.705964319976287
40
0.776891169113914
40
0.847818018251541
40
0.918744867389167
40
0.989671716526794
40
1
40
1
40
1
40
1
41
1
10
65.930121566653
20
-3.69161781514106
30
0
41
1
10
65.2034143777687
20
-3.51989880757162
30
0
41
1
10
63.7267071888843
20
-3.11861468372243
30
0
41
0.999999999999999
10
61.7499999999999
20
-2.46439647554578
30
0
41
1
10
60.0000000000001
20
-1.81907016640167
30
0
41
1
10
58.625
20
-1.27742103525406
30
0
41
1
10
57.3750000000001
20
-0.767139851814192
30
0
41
1
10
56.3749999999999
20
-0.351788789856158
30
0
41
1
10
55.5000000000001
20
0.0134621430074731
30
0
41
0.999999999999999
10
54.625
20
0.378568232837324
30
0
41
1
10
53.625
20
0.793597306750768
30
0
41
1
10
52.3749999999999
20
1.30463672282451
30
0
41
1
10
51
20
1.84776031174627
30
0
41
1
10
49.5
20
2.40387871737226
30
0
41
1
10
48.0000000000001
20
2.91327741389898
30
0
41
1
10
46.5
20
3.36851681194238
30
0
41
1
10
45.4271905942617
20
3.64772491809984
30
0
41
1
10
44.8543811885234
20
3.78080384094647
30
0
41
1
10
44.7815717827851
20
3.79745814595523
30
0
0
SPLINE
5
137
100
AcDbEntity
8
1
62
256
6
ByLayer
370
18
48
1
60
0
100
AcDbSpline
70
4
71
3
72
18
73
14
40
0
40
0
40
0
40
0
40
0.249999999999981
40
0.249999999999981
40
0.375000000000002
40
0.375000000000002
40
0.500000000000022
40
0.500000000000022
40
0.75000000000001
40
0.75000000000001
40
0.875000000000005
40
0.875000000000005
40
1
40
1
40
1
40
1
41
1
10
77.1873522586725
20
2.96875824190454
30
0
41
1
10
77.2001568054728
20
2.93754644022761
30
0
41
1
10
77.2126104193951
20
2.907601068329
30
0
41
1
10
77.2307071789544
20
2.8647892934078
30
0
41
1
10
77.2366239437086
20
2.85091473197812
30
0
41
1
10
77.2480864269826
20
2.82429995004011
30
0
41
1
10
77.2536504753624
20
2.81151616040623
30
0
41
1
10
77.2698015916874
20
2.77485913848673
30
0
41
1
10
77.2798625286073
20
2.75263359763596
30
0
41
1
10
77.2935455231877
20
2.72370602496608
30
0
41
1
10
77.2978133182237
20
2.71492822406304
30
0
41
1
10
77.3055872709628
20
2.69952879058846
30
0
41
1
10
77.3091102250002
20
2.69287080376176
30
0
41
1
10
77.3122039521082
20
2.68744114387633
30
0
0
SPLINE
5
138
100
AcDbEntity
8
1
62
256
6
ByLayer
370
13
48
1
60
0
100
AcDbSpline
70
4
71
3
72
9
73
5
40
0
40
0
40
0
40
0
40
0.557230688099954
40
1
40
1
40
1
40
1
41
1
10
77.1873522584502
20
2.96875824156697
30
0
41
1
10
76.4582348389668
20
3.3910461240167
30
0
41
1
10
75.1497688211143
20
4.11380961297129
30
0
41
1
10
73.8413028032617
20
4.74783444309855
30
0
41
1
10
73.2619542048924
20
5.00781301717922
30
0
0
SPLINE
5
139
100
AcDbEntity
8
1
62
256
6
ByLayer
370
13
48
1
60
0
100
AcDbSpline
70
4
71
3
72
8
73
4
40
0
40
0
40
0
40
0
40
1
40
1
40
1
40
1
41
1
10
30.689377925987
20
-7.02454855897574
30
0
41
1
10
30.4595852839913
20
-7.03243747886597
30
0
41
1
10
30.2297926419956
20
-7.03574555456061
30
0
41
1
10
29.9999999999999
20
-7.0344732219134
30
0
0
SPLINE
5
13A
100
AcDbEntity
8
1
62
256
6
ByLayer
370
18
48
1
60
0
100
AcDbSpline
70
4
71
3
72
49
73
45
40
0
40
0
40
0
40
0
40
0.0491050588579785
40
0.0491050588579785
40
0.098210117715957
40
0.098210117715957
40
0.147315176573936
40
0.147315176573936
40
0.171867706002925
40
0.171867706002925
40
0.196420235431915
40
0.196420235431915
40
0.245525294289893
40
0.245525294289893
40
0.270077823718884
40
0.270077823718884
40
0.28235408843338
40
0.28235408843338
40
0.294630353147875
40
0.39284047086382
40
0.39284047086382
40
0.417393000292809
40
0.417393000292809
40
0.441945529721798
40
0.441945529721798
40
0.491050588579763
40
0.491050588579763
40
0.540155647437727
40
0.540155647437727
40
0.564708176866701
40
0.564708176866701
40
0.589260706295676
40
0.589260706295676
40
0.68747082401159
40
0.68747082401159
40
0.785680941727505
40
0.785680941727505
40
0.834786000585457
40
0.834786000585457
40
0.883891059443409
40
0.883891059443409
40
0.982101177159314
40
0.982101177159314
40
1
40
1
40
1
40
1
41
1
10
77.616664404047
20
7.44067806858888
30
0
41
1
10
77.6404227053031
20
7.38027799330618
30
0
41
1
10
77.6618569657085
20
7.31928159666671
30
0
41
1
10
77.6995054886264
20
7.19594940941718
30
0
41
1
10
77.7157221538098
20
7.13361423632617
30
0
41
1
10
77.742164563319
20
7.00740668817517
30
0
41
1
10
77.7523942238567
20
6.94353531797046
30
0
41
1
10
77.762447254984
20
6.8463705344557
30
0
41
1
10
77.7648952691048
20
6.8138858699102
30
0
41
1
10
77.7678648753507
20
6.74915606700293
30
0
41
1
10
77.7683935807883
20
6.71684583491481
30
0
41
1
10
77.7669860729185
20
6.62008631314075
30
0
41
1
10
77.7620620357342
20
6.55580786628587
30
0
41
1
10
77.7480997894557
20
6.4597662205114
30
0
41
1
10
77.7423482823352
20
6.42781508900504
30
0
41
1
10
77.7319863737802
20
6.37998757836615
30
0
41
1
10
77.7282341830154
20
6.36402804449395
30
0
41
1
10
77.7201909445908
20
6.33235430525733
30
0
41
1
10
77.6815730872972
20
6.19088565851143
30
0
41
1
10
77.62143622405
20
6.05885815413345
30
0
41
1
10
77.534903314605
20
5.92081022570258
30
0
41
1
10
77.5165466345364
20
5.89355506885835
30
0
41
1
10
77.4784373894652
20
5.84061628700121
30
0
41
1
10
77.458644998577
20
5.81485643557789
30
0
41
1
10
77.3972273467584
20
5.73953928666705
30
0
41
1
10
77.3535672182284
20
5.69193899769641
30
0
41
1
10
77.2615766992914
20
5.60122998582654
30
0
41
1
10
77.2132444981706
20
5.55812300435872
30
0
41
1
10
77.1376907305628
20
5.49640108837681
30
0
41
1
10
77.1119390994384
20
5.47627656306727
30
0
41
1
10
77.0598190520764
20
5.43719821490077
30
0
41
1
10
77.0334509551844
20
5.41823941706394
30
0
41
1
10
76.9002138853531
20
5.32607644202406
30
0
41
1
10
76.7892136273002
20
5.26065515428257
30
0
41
1
10
76.560948095994
20
5.14161518245368
30
0
41
1
10
76.4436590920624
20
5.08804120436972
30
0
41
1
10
76.2641438164596
20
5.01442789975681
30
0
41
1
10
76.2035971628723
20
4.99098901473332
30
0
41
1
10
76.082200191419
20
4.94639375046194
30
0
41
1
10
76.0212982563037
20
4.92521153540619
30
0
41
1
10
75.8380625161068
20
4.86457027318369
30
0
41
1
10
75.7152024668869
20
4.82799637452499
30
0
41
1
10
75.5693019140393
20
4.78831625855494
30
0
41
1
10
75.5467922537764
20
4.7822996773462
30
0
41
1
10
75.5242649205878
20
4.77637998845705
30
0
0
SPLINE
5
13B
100
AcDbEntity
8
1
62
256
6
ByLayer
370
18
48
1
60
0
100
AcDbSpline
70
4
71
3
72
18
73
14
40
0
40
0
40
0
40
0
40
0.0373822152032245
40
0.101556734189676
40
0.165731253176128
40
0.22990577216258
40
0.294080291149031
40
0.390342069628709
40
0.486603848108387
40
0.61495288608129
40
0.743301924054193
40
0.871650962027097
40
1
40
1
40
1
40
1
41
1
10
53.3737630400732
20
-6.2026030233578
30
0
41
1
10
53.0825086933821
20
-6.25677067013979
30
0
41
1
10
52.291254346691
20
-6.38704197190276
30
0
41
1
10
51
20
-6.52261100398522
30
0
41
1
10
49.5
20
-6.56248779075812
30
0
41
1
10
48.0000000000001
20
-6.48563770746194
30
0
41
0.999999999999999
10
46.25
20
-6.26103751705108
30
0
41
1
10
44.25
20
-5.81667292996996
30
0
41
1
10
41.75
20
-5.00177029887192
30
0
41
1
10
39.0000000000001
20
-3.81447407862586
30
0
41
1
10
36
20
-2.24781511565934
30
0
41
1
10
33
20
-0.52128944668641
30
0
41
1
10
31
20
0.654145441630163
30
0
41
1
10
30
20
1.22824464667932
30
0
0
SPLINE
5
13C
100
AcDbEntity
8
1
62
256
6
ByLayer
370
18
48
1
60
0
100
AcDbSpline
70
4
71
3
72
28
73
24
40
0
40
0
40
0
40
0
40
0.0422697525538717
40
0.135458925212203
40
0.205350804705951
40
0.275242684199699
40
0.321837270528864
40
0.36843185685803
40
0.403377796604904
40
0.438323736351778
40
0.461621029516361
40
0.484918322680943
40
0.519864262427817
40
0.554810202174691
40
0.601404788503857
40
0.647999374833022
40
0.694593961162188
40
0.741188547491353
40
0.787783133820519
40
0.834377720149684
40
0.904269599643432
40
0.950864185972597
40
1
40
1
40
1
40
1
41
1
10
70.3607724378727
20
-6.24158782254949
30
0
41
1
10
69.9071816252485
20
-6.34379280177782
30
0
41
1
10
68.4535908126242
20
-6.61471919242862
30
0
41
1
10
66.25
20
-6.73635582695806
30
0
41
1
10
63.75
20
-6.46945674945567
30
0
41
0.999999999999999
10
61.7499999999999
20
-5.99029141975121
30
0
41
1
10
60
20
-5.3919830010129
30
0
41
1
10
58.625
20
-4.81969680728844
30
0
41
1
10
57.375
20
-4.22811561766787
30
0
41
1
10
56.3749999999999
20
-3.71135424347236
30
0
41
1
10
55.5
20
-3.23158957337068
30
0
41
0.999999999999999
10
54.625
20
-2.73170750741244
30
0
41
1
10
53.625
20
-2.13566170485356
30
0
41
1
10
52.3749999999999
20
-1.36587019085962
30
0
41
1
10
51
20
-0.492112152239457
30
0
41
1
10
49.5
20
0.468987898002126
30
0
41
1
10
48
20
1.42176123947689
30
0
41
1
10
46.5
20
2.34453012718319
30
0
41
1
10
45.0000000000001
20
3.21882909416911
30
0
41
1
10
43.25
20
4.1615428240741
30
0
41
1
10
41.5000000000001
20
4.98278814276153
30
0
41
1
10
39.7227304403963
20
5.66058212827079
30
0
41
1
10
38.6954608807924
20
5.97071046134912
30
0
41
1
10
38.1681913211886
20
6.10641140418579
30
0
0
SPLINE
5
13D
100
AcDbEntity
8
1
62
256
6
ByLayer
370
18
48
1
60
0
100
AcDbSpline
70
4
71
3
72
28
73
24
40
0
40
0
40
0
40
0
40
0.125000000000009
40
0.125000000000009
40
0.250000000000019
40
0.250000000000019
40
0.375000000000028
40
0.375000000000028
40
0.406250000000029
40
0.406250000000029
40
0.43750000000003
40
0.43750000000003
40
0.500000000000026
40
0.500000000000026
40
0.625000000000019
40
0.625000000000019
40
0.750000000000013
40
0.750000000000013
40
0.812500000000009
40
0.812500000000009
40
0.875000000000006
40
0.875000000000006
40
1
40
1
40
1
40
1
41
1
10
76.454506345035
20
-4.62480336515955
30
0
41
1
10
76.4719160550885
20
-4.73133402063033
30
0
41
1
10
76.4915574229014
20
-4.83383189508012
30
0
41
1
10
76.5347443032022
20
-5.0317725476178
30
0
41
1
10
76.5582934541664
20
-5.12720875069212
30
0
41
1
10
76.6089864366842
20
-5.31158528640859
30
0
41
1
10
76.6361319077126
20
-5.40052265639093
30
0
41
1
10
76.6722182825776
20
-5.5078009527877
30
0
41
1
10
76.6795436318509
20
-5.52906131330994
30
0
41
1
10
76.6944094669476
20
-5.57119326569457
30
0
41
1
10
76.7019587177633
20
-5.59208733557168
30
0
41
1
10
76.7247889374358
20
-5.65381796208899
30
0
41
1
10
76.7402893330513
20
-5.69381384225451
30
0
41
1
10
76.7875871875945
20
-5.81050998929385
30
0
41
1
10
76.8201786598744
20
-5.88392972933806
30
0
41
1
10
76.8873228716614
20
-6.02266608402962
30
0
41
1
10
76.9218763381963
20
-6.08797969490584
30
0
41
1
10
76.9751184104338
20
-6.18011685238358
30
0
41
1
10
76.993101615811
20
-6.20985481432388
30
0
41
1
10
77.0295356952878
20
-6.26739852914599
30
0
41
1
10
77.0480089775163
20
-6.29523605766025
30
0
41
1
10
77.103969930562
20
-6.37562479847591
30
0
41
1
10
77.1418729295452
20
-6.42489612145789
30
0
41
1
10
77.1803532211155
20
-6.46997977823656
30
0
0
SPLINE
5
13E
100
AcDbEntity
8
1
62
256
6
ByLayer
370
18
48
1
60
0
100
AcDbSpline
70
4
71
3
72
17
73
13
40
0
40
0
40
0
40
0
40
0.074239098386628
40
0.227361355926995
40
0.380483613467363
40
0.53360587100773
40
0.648447564163006
40
0.763289257318281
40
0.839850386088465
40
0.916411514858649
40
0.973832361436287
40
1
40
1
40
1
40
1
41
1
10
76.4545063450437
20
-4.62480336516293
30
0
41
1
10
75.9696708966958
20
-4.42363419952011
30
0
41
1
10
74.484835448348
20
-3.76410708226385
30
0
41
1
10
72.0000000000001
20
-2.4674746779759
30
0
41
1
10
69
20
-0.709686060992595
30
0
41
1
10
66.25
20
0.952618150686618
30
0
41
1
10
63.75
20
2.39982794550417
30
0
41
0.999999999999999
10
61.75
20
3.46587353134049
30
0
41
1
10
60
20
4.29476225863857
30
0
41
1
10
58.625
20
4.86894815253254
30
0
41
1
10
57.5791062384787
20
5.24750261385154
30
0
41
1
10
57.0332124769574
20
5.42446570033414
30
0
41
1
10
56.862318715436
20
5.47777530835103
30
0
0
SPLINE
5
13F
100
AcDbEntity
8
1
62
256
6
ByLayer
370
13
48
1
60
0
100
AcDbSpline
70
4
71
3
72
14
73
10
40
0
40
0
40
0
40
0
40
0.051712917534241
40
0.181024792415935
40
0.31033666729763
40
0.482752500473222
40
0.655168333648815
40
0.827584166824408
40
1
40
1
40
1
40
1
41
1
10
47.3997941183553
20
-7.02547422550316
30
0
41
1
10
47.0998627455701
20
-7.03512858490396
30
0
41
1
10
46.049931372785
20
-7.04255702448723
30
0
41
1
10
44.2499999999999
20
-6.89655200016457
30
0
41
1
10
41.7499999999999
20
-6.38601154470797
30
0
41
1
10
39.0000000000001
20
-5.45608223992181
30
0
41
1
10
36
20
-4.053694808437
30
0
41
1
10
32.9999999999999
20
-2.36240771377638
30
0
41
1
10
31
20
-1.12237065630862
30
0
41
1
10
29.9999999999999
20
-0.496629349863241
30
0
0
SPLINE
5
140
100
AcDbEntity
8
1
62
256
6
ByLayer
370
18
48
1
60
0
100
AcDbSpline
70
4
71
3
72
27
73
23
40
0
40
0
40
0
40
0
40
0.0524361880151796
40
0.107704308849511
40
0.162972429683842
40
0.273508671352504
40
0.328776792186835
40
0.384044913021166
40
0.439313033855497
40
0.494581154689829
40
0.522215215106994
40
0.54984927552416
40
0.605117396358491
40
0.660385517192822
40
0.715653638027153
40
0.743287698444319
40
0.770921758861484
40
0.826189879695815
40
0.881458000530146
40
0.936726121364478
40
0.991994242198809
40
1
40
1
40
1
40
1
41
1
10
29.8984141091618
20
7.88732744773307
30
0
41
1
10
30.0636043222496
20
7.87267066616712
30
0
41
1
10
30.4031010814613
20
7.83646399890031
30
0
41
1
10
30.9174561376663
20
7.762781484062
30
0
41
1
10
31.6160745972058
20
7.63640975698937
30
0
41
1
10
32.3160997267194
20
7.47103413672099
30
0
41
1
10
33.0176998594739
20
7.26759034135998
30
0
41
1
10
33.5445503740813
20
7.09605232497162
30
0
41
1
10
34.0718717090543
20
6.90629024250686
30
0
41
1
10
34.5115751340251
20
6.73343332125148
30
0
41
1
10
34.863414751113
20
6.58653969595588
30
0
41
1
10
35.2152775174116
20
6.43405143789897
30
0
41
1
10
35.6550858862846
20
6.2328628829579
30
0
41
1
10
36.1826281467557
20
5.9756437889848
30
0
41
1
10
36.6219130753898
20
5.74880177006085
30
0
41
1
10
36.9730459663304
20
5.56023972423208
30
0
41
1
10
37.3239751053782
20
5.36705513285125
30
0
41
1
10
37.7622767275163
20
5.11705999049778
30
0
41
1
10
38.2876668673793
20
4.80440620399139
30
0
41
1
10
38.8125196430096
20
4.47993997911581
30
0
41
1
10
39.1873996028422
20
4.24008238372451
30
0
41
1
10
39.3873933856704
20
4.1098226008825
30
0
41
1
10
39.4126960188269
20
4.09330618819578
30
0
0
SPLINE
5
141
100
AcDbEntity
8
1
62
256
6
ByLayer
370
18
48
1
60
0
100
AcDbSpline
70
4
71
3
72
27
73
23
40
0
40
0
40
0
40
0
40
0.0421162733629605
40
0.097679657421554
40
0.153243041480148
40
0.264369809597335
40
0.319933193655928
40
0.375496577714522
40
0.431059961773115
40
0.486623345831709
40
0.514405037861005
40
0.542186729890302
40
0.597750113948895
40
0.653313498007489
40
0.708876882066082
40
0.736658574095379
40
0.764440266124676
40
0.820003650183269
40
0.875567034241863
40
0.931130418300456
40
0.98669380235905
40
1
40
1
40
1
40
1
41
1
10
29.9985284761057
20
7.83184169220604
30
0
41
1
10
30.1305339596862
20
7.81124003919714
30
0
41
1
10
30.4368334312317
20
7.75907112358394
30
0
41
1
10
30.9179016214034
20
7.66131462410854
30
0
41
1
10
31.6165238843653
20
7.49354979105422
30
0
41
1
10
32.3165638531488
20
7.2873783753989
30
0
41
1
10
33.0181473312823
20
7.04383790603154
30
0
41
1
10
33.5449962527591
20
6.84295426276441
30
0
41
1
10
34.0723256270573
20
6.62445788532474
30
0
41
1
10
34.51203382288
20
6.42817033260746
30
0
41
1
10
34.8638726614981
20
6.26285833820535
30
0
41
1
10
35.2157313378149
20
6.09223746917735
30
0
41
1
10
35.655533747727
20
5.86906601290087
30
0
41
1
10
36.1830765049704
20
5.58641036239592
30
0
41
1
10
36.6223649780843
20
5.33916061978096
30
0
41
1
10
36.9735000822378
20
5.13475426328054
30
0
41
1
10
37.3244292992294
20
4.92611752611649
30
0
41
1
10
37.7627253281366
20
4.65758059517347
30
0
41
1
10
38.2881141930922
20
4.32387109745622
30
0
41
1
10
38.8129705849222
20
3.97954298508407
30
0
41
1
10
39.2043906798731
20
3.71522866600685
30
0
41
1
10
39.4209043293198
20
3.56667900245077
30
0
41
1
10
39.4627320295661
20
3.53789570436808
30
0
0
SPLINE
5
142
100
AcDbEntity
8
1
62
256
6
ByLayer
370
13
48
1
60
0
100
AcDbSpline
70
4
71
3
72
26
73
22
40
0
40
0
40
0
40
0
40
0.0428672694942918
40
0.132116381566092
40
0.191615789613958
40
0.251115197661825
40
0.295739753697724
40
0.340364309733624
40
0.370114013757558
40
0.399863717781491
40
0.444488273817391
40
0.489112829853291
40
0.548612237901157
40
0.608111645949024
40
0.66761105399689
40
0.727110462044757
40
0.786609870092623
40
0.84610927814049
40
0.93535839021229
40
0.994857798260156
40
1
40
1
40
1
40
1
41
1
10
64.8306982178663
20
-7.02589354661913
30
0
41
1
10
64.4704654785775
20
-7.03820212428167
30
0
41
1
10
63.3602327392887
20
-7.03737666860539
30
0
41
0.999999999999999
10
61.7499999999999
20
-6.86169383912412
30
0
41
1
10
60
20
-6.46602712589254
30
0
41
1
10
58.625
20
-6.03297007049108
30
0
41
1
10
57.375
20
-5.54843397467021
30
0
41
1
10
56.3749999999999
20
-5.10324500546449
30
0
41
1
10
55.5
20
-4.67581654484061
30
0
41
0.999999999999999
10
54.625
20
-4.22064851336984
30
0
41
1
10
53.6249999999999
20
-3.66350781459718
30
0
41
1
10
52.3749999999999
20
-2.91877178308286
30
0
41
1
10
50.9999999999999
20
-2.05057749812502
30
0
41
1
10
49.5
20
-1.06099573989744
30
0
41
1
10
48
20
-0.0493277913086274
30
0
41
1
10
46.5
20
0.96335780772219
30
0
41
1
10
45
20
1.95581595706892
30
0
41
1
10
43.25
20
3.06692852982101
30
0
41
1
10
41.5
20
4.09038748263572
30
0
41
1
10
40.2067877907651
20
4.75207906014663
30
0
41
1
10
39.6635755815301
20
5.00991728605644
30
0
41
1
10
39.6203633722951
20
5.03029937409389
30
0
0
SPLINE
5
143
100
AcDbEntity
8
1
62
256
6
ByLayer
370
18
48
1
60
0
100
AcDbSpline
70
4
71
3
72
20
73
16
40
0
40
0
40
0
40
0
40
0.250000000000023
40
0.250000000000023
40
0.375000000000035
40
0.375000000000035
40
0.500000000000046
40
0.500000000000046
40
0.750000000000068
40
0.750000000000068
40
0.812500000000052
40
0.812500000000052
40
0.875000000000036
40
0.875000000000036
40
1
40
1
40
1
40
1
41
1
10
77.1803532196994
20
-6.46997977868193
30
0
41
1
10
77.1932227655171
20
-6.4850577877319
30
0
41
1
10
77.2057414637987
20
-6.50241921236818
30
0
41
1
10
77.2239349055919
20
-6.53226610135985
30
0
41
1
10
77.2298882583539
20
-6.54283963355707
30
0
41
1
10
77.2414210950155
20
-6.56506239541065
30
0
41
1
10
77.2470199666378
20
-6.57674185758248
30
0
41
1
10
77.2632736672405
20
-6.61362104059893
30
0
41
1
10
77.2734007029495
20
-6.64061028899229
30
0
41
1
10
77.2848782232042
20
-6.67835205980418
30
0
41
1
10
77.2871112021808
20
-6.6861011482377
30
0
41
1
10
77.2913881962261
20
-6.70183539611506
30
0
41
1
10
77.293439588333
20
-6.70984403434505
30
0
41
1
10
77.2993158802751
20
-6.73432141162041
30
0
41
1
10
77.3028653327479
20
-6.75123765437743
30
0
41
1
10
77.3059792275404
20
-6.76886152196352
30
0
0
SPLINE
5
144
100
AcDbEntity
8
1
62
256
6
ByLayer
370
13
48
1
60
0
100
AcDbSpline
70
4
71
3
72
17
73
13
40
0
40
0
40
0
40
0
40
0.104381234010121
40
0.248001863591225
40
0.391622493172329
40
0.535243122753433
40
0.642958594939261
40
0.750674067125089
40
0.822484381915641
40
0.894294696706193
40
0.948152432799107
40
1
40
1
40
1
40
1
41
1
10
77.1803532190584
20
-6.46997977892656
30
0
41
1
10
76.4535688127056
20
-6.28258221543203
30
0
41
1
10
74.7267844063528
20
-5.73103138591855
30
0
41
1
10
71.9999999999999
20
-4.50265387756369
30
0
41
1
10
68.9999999999999
20
-2.80028176089203
30
0
41
1
10
66.25
20
-1.03915199311703
30
0
41
1
10
63.75
20
0.609212986865628
30
0
41
0.999999999999999
10
61.75
20
1.90779951525758
30
0
41
1
10
60
20
2.98245331341943
30
0
41
1
10
58.625
20
3.77354514513073
30
0
41
1
10
57.3889963798925
20
4.43123219858791
30
0
41
1
10
56.652992759785
20
4.79150245298297
30
0
41
1
10
56.2919891396775
20
4.95969391019562
30
0
0
SPLINE
5
145
100
AcDbEntity
8
1
62
256
6
ByLayer
370
18
48
1
60
0
100
AcDbSpline
70
4
71
3
72
13
73
9
40
0
40
0
40
0
40
0
40
0.249999999999997
40
0.249999999999997
40
0.499999999999994
40
0.499999999999994
40
0.749999999999997
40
1
40
1
40
1
40
1
41
1
10
76.2971344883566
20
7.67092651724352
30
0
41
1
10
76.3155295756524
20
7.68659197209124
30
0
41
1
10
76.3328288808409
20
7.70362179556821
30
0
41
1
10
76.3651178970176
20
7.74055485245512
30
0
41
1
10
76.3801525227207
20
7.76048209036836
30
0
41
1
10
76.4075045963712
20
7.80339557236127
30
0
41
1
10
76.4315511601974
20
7.84838976352822
30
0
41
1
10
76.4483156571551
20
7.89800267850492
30
0
41
1
10
76.4544608366871
20
7.92424321796358
30
0
0
SPLINE
5
146
100
AcDbEntity
8
1
62
256
6
ByLayer
370
18
48
1
60
0
100
AcDbSpline
70
4
71
3
72
30
73
26
40
0
40
0
40
0
40
0
40
0.125000000000124
40
0.125000000000124
40
0.156250000000147
40
0.156250000000147
40
0.18750000000017
40
0.18750000000017
40
0.250000000000248
40
0.312500000000326
40
0.312500000000326
40
0.343750000000348
40
0.343750000000348
40
0.375000000000371
40
0.437500000000416
40
0.437500000000416
40
0.453125000000427
40
0.453125000000427
40
0.468750000000439
40
0.468750000000439
40
0.500000000000431
40
0.500000000000431
40
0.750000000000215
40
0.750000000000215
40
1
40
1
40
1
40
1
41
1
10
76.2971344883566
20
7.67092651724354
30
0
41
1
10
76.2674483604687
20
7.64564549036365
30
0
41
1
10
76.2358182949518
20
7.62482873775949
30
0
41
1
10
76.1939971837308
20
7.60415588118343
30
0
41
1
10
76.1855154883926
20
7.60029682761282
30
0
41
1
10
76.1683061600746
20
7.59316026962148
30
0
41
1
10
76.1595566154238
20
7.58987425946643
30
0
41
1
10
76.1332334522399
20
7.58102188422583
30
0
41
1
10
76.0977944756488
20
7.57183198015207
30
0
41
1
10
76.0616791467513
20
7.5681007954677
30
0
41
1
10
76.03432193495
20
7.56761772013454
30
0
41
1
10
76.0251162496025
20
7.56784667734084
30
0
41
1
10
76.0068932736285
20
7.56912851174079
30
0
41
1
10
75.9798029589892
20
7.57227957058404
30
0
41
1
10
75.9534742029967
20
7.57920319741777
30
0
41
1
10
75.9320160152639
20
7.58730130015783
30
0
41
1
10
75.9277477349942
20
7.5890334912219
30
0
41
1
10
75.9192674054125
20
7.59276913741078
30
0
41
1
10
75.9150600992281
20
7.59479631828219
30
0
41
1
10
75.902455860461
20
7.60094774408347
30
0
41
1
10
75.8940580410171
20
7.60504747884599
30
0
41
1
10
75.8184883082295
20
7.64181569117395
30
0
41
1
10
75.7514694813596
20
7.6739860106803
30
0
41
1
10
75.6178007418651
20
7.73752699599046
30
0
41
1
10
75.5511328322313
20
7.76884294239107
30
0
41
1
10
75.4846184400662
20
7.79968623550479
30
0
0
SPLINE
5
147
100
AcDbEntity
8
1
62
256
6
ByLayer
370
18
48
1
60
0
100
AcDbSpline
70
4
71
3
72
22
73
18
40
0
40
0
40
0
40
0
40
0.0267165407161513
40
0.0267165407161513
40
0.0753807136803427
40
0.0753807136803427
40
0.124044886644534
40
0.221373232572916
40
0.221373232572916
40
0.610686616286449
40
0.610686616286449
40
0.708014962214834
40
0.756679135179026
40
0.756679135179026
40
0.805343308143219
40
0.805343308143219
40
1
40
1
40
1
40
1
41
1
10
70.6593473813677
20
6.34707356205641
30
0
41
1
10
70.7023945230047
20
6.3657593530522
30
0
41
1
10
70.7454525608299
20
6.38430915766057
30
0
41
1
10
70.8669742624809
20
6.43626095217695
30
0
41
1
10
70.945462247544
20
6.46934364761404
30
0
41
1
10
71.1023070599367
20
6.53449783696388
30
0
41
1
10
71.3374601706172
20
6.63074800940015
30
0
41
1
10
71.5723212392244
20
6.72252636463296
30
0
41
1
10
72.3547538885754
20
7.01840078324534
30
0
41
1
10
72.9792492612457
20
7.22298732081865
30
0
41
1
10
73.7616772410046
20
7.43615797942985
30
0
41
1
10
73.9965440593043
20
7.49691316048546
30
0
41
1
10
74.2317269931186
20
7.55279853329964
30
0
41
1
10
74.3885981227634
20
7.58896446900926
30
0
41
1
10
74.4670604215305
20
7.60649812028404
30
0
41
1
10
74.8590292056155
20
7.69129731376481
30
0
41
1
10
75.1719549052962
20
7.75006190804274
30
0
41
1
10
75.4846184400699
20
7.79968623551162
30
0
0
SPLINE
5
148
100
AcDbEntity
8
1
62
256
6
ByLayer
370
18
48
1
60
0
100
AcDbSpline
70
4
71
3
72
12
73
8
40
0
40
0
40
0
40
0
40
0.405484308401163
40
0.405484308401163
40
0.810968616802326
40
0.810968616802326
40
1
40
1
40
1
40
1
41
1
10
44.2972007851356
20
-7.69981537137932
30
0
41
1
10
44.3155765171137
20
-7.71116343329288
30
0
41
1
10
44.3328580303869
20
-7.72399973488933
30
0
41
1
10
44.3651147960861
20
-7.75280599577937
30
0
41
1
10
44.3801339265138
20
-7.76878861102657
30
0
41
1
10
44.4001689671203
20
-7.79471066117739
30
0
41
1
10
44.4061808593027
20
-7.80323315001581
30
0
41
1
10
44.411817295099
20
-7.81205096581076
30
0
0
SPLINE
5
149
100
AcDbEntity
8
1
62
256
6
ByLayer
370
18
48
1
60
0
100
AcDbSpline
70
4
71
3
72
30
73
26
40
0
40
0
40
0
40
0
40
0.125000000000006
40
0.125000000000006
40
0.15625
40
0.15625
40
0.187499999999994
40
0.187499999999994
40
0.249999999999982
40
0.31249999999997
40
0.31249999999997
40
0.343749999999964
40
0.343749999999964
40
0.374999999999958
40
0.43749999999998
40
0.43749999999998
40
0.453124999999985
40
0.453124999999985
40
0.46874999999999
40
0.46874999999999
40
0.499999999999998
40
0.499999999999998
40
0.749999999999999
40
0.749999999999999
40
1
40
1
40
1
40
1
41
1
10
44.2972007851356
20
-7.69981537137932
30
0
41
1
10
44.2675202822724
20
-7.6814859690536
30
0
41
1
10
44.2358948402847
20
-7.66772948051741
30
0
41
1
10
44.1940779910307
20
-7.65603108038559
30
0
41
1
10
44.185597095836
20
-7.6539746065026
30
0
41
1
10
44.1683892063911
20
-7.65046039057722
30
0
41
1
10
44.159640387276
20
-7.64899872502147
30
0
41
1
10
44.1333193335899
20
-7.64558437334301
30
0
41
1
10
44.0978822735483
20
-7.64358229642363
30
0
41
1
10
44.0617669748617
20
-7.64692297009137
30
0
41
1
10
44.0344089644448
20
-7.65170159290531
30
0
41
1
10
44.0252028725644
20
-7.65368521403556
30
0
41
1
10
44.0069787519852
20
-7.65840845750944
30
0
41
1
10
43.9798863143785
20
-7.6666275537608
30
0
41
1
10
43.9535541268243
20
-7.67833482233428
30
0
41
1
10
43.932092387814
20
-7.69024937941322
30
0
41
1
10
43.9278233566314
20
-7.69273662741375
30
0
41
1
10
43.9193413747279
20
-7.69796226746357
30
0
41
1
10
43.9151332411993
20
-7.70072295384429
30
0
41
1
10
43.9025272606833
20
-7.70907472027747
30
0
41
1
10
43.8941284550954
20
-7.71464433980054
30
0
41
1
10
43.8185489304188
20
-7.76466753235701
30
0
41
1
10
43.7515204268556
20
-7.80880174571124
30
0
41
1
10
43.6178305560126
20
-7.8966065435406
30
0
41
1
10
43.551151169674
20
-7.94022780558794
30
0
41
1
10
43.4846244254046
20
-7.98354886924562
30
0
0
SPLINE
5
14A
100
AcDbEntity
8
1
62
256
6
ByLayer
370
13
48
1
60
0
100
AcDbSpline
70
4
71
3
72
10
73
6
40
0
40
0
40
0
40
0
40
0.423833811227291
40
0.909758345310933
40
1
40
1
40
1
40
1
41
1
10
77.6166644087639
20
7.44067806790866
30
0
41
1
10
76.7444429391759
20
7.41278985675643
30
0
41
1
10
74.872221469588
20
7.20580959652904
30
0
41
1
10
72.8142887457633
20
6.65412240830907
30
0
41
1
10
71.6285774915266
20
6.22692113612126
30
0
41
1
10
71.4428662372898
20
6.15744283570245
30
0
0
SPLINE
5
14B
100
AcDbEntity
8
1
62
256
6
ByLayer
370
18
48
1
60
0
100
AcDbSpline
70
4
71
3
72
8
73
4
40
0
40
0
40
0
40
0
40
1
40
1
40
1
40
1
41
1
10
77.4455250439026
20
7.90768153150225
30
0
41
1
10
77.499103477974
20
7.75073601370408
30
0
41
1
10
77.5559577505828
20
7.59499738843661
30
0
41
1
10
77.6166644343703
20
7.44067807997629
30
0
0
SPLINE
5
14C
100
AcDbEntity
8
1
62
256
6
ByLayer
370
18
48
1
60
0
100
AcDbSpline
70
4
71
3
72
14
73
10
40
0
40
0
40
0
40
0
40
0.500000000000001
40
0.500000000000001
40
0.625000000000044
40
0.625000000000044
40
0.750000000000086
40
0.750000000000086
40
1
40
1
40
1
40
1
41
1
10
77.1229673958815
20
7.97561043749076
30
0
41
1
10
77.1769184395195
20
7.97380914994548
30
0
41
1
10
77.2308537943192
20
7.96767413649809
30
0
41
1
10
77.2983660581377
20
7.95378532325054
30
0
41
1
10
77.3118732547063
20
7.95069373691072
30
0
41
1
10
77.3389004090764
20
7.94385000720493
30
0
41
1
10
77.3524397268889
20
7.94009079504039
30
0
41
1
10
77.3927471542921
20
7.92787149144385
30
0
41
1
10
77.4193001727164
20
7.91845191298785
30
0
41
1
10
77.4455250439025
20
7.90768153150225
30
0
0
SPLINE
5
14D
100
AcDbEntity
8
1
62
256
6
ByLayer
370
18
48
1
60
0
100
AcDbSpline
70
4
71
3
72
8
73
4
40
0
40
0
40
0
40
0
40
1
40
1
40
1
40
1
41
1
10
76.9009786305538
20
7.96169183164054
30
0
41
1
10
76.9749569299757
20
7.96685087342206
30
0
41
1
10
77.0489516427959
20
7.97149080459616
30
0
41
1
10
77.1229673958815
20
7.97561043748931
30
0
0
SPLINE
5
14E
100
AcDbEntity
8
1
62
256
6
ByLayer
370
18
48
1
60
0
100
AcDbSpline
70
4
71
3
72
8
73
4
40
0
40
0
40
0
40
0
40
1
40
1
40
1
40
1
41
1
10
76.9000198288291
20
7.96158643250305
30
0
41
1
10
76.9003394293708
20
7.96162156807486
30
0
41
1
10
76.9006590299511
20
7.96165670112117
30
0
41
1
10
76.9009786305697
20
7.96169183164201
30
0
0
SPLINE
5
14F
100
AcDbEntity
8
1
62
256
6
ByLayer
370
18
48
1
60
0
100
AcDbSpline
70
4
71
3
72
8
73
4
40
0
40
0
40
0
40
0
40
1
40
1
40
1
40
1
41
1
10
76.4544608366871
20
7.92424321796358
30
0
41
1
10
76.6029385143253
20
7.93879078571766
30
0
41
1
10
76.7514439245491
20
7.95125459761357
30
0
41
1
10
76.9000155291033
20
7.96162463821977
30
0
0
SPLINE
5
150
100
AcDbEntity
8
1
62
256
6
ByLayer
370
18
48
1
60
0
100
AcDbSpline
70
4
71
3
72
8
73
4
40
0
40
0
40
0
40
0
40
1
40
1
40
1
40
1
41
1
10
68.4570072095725
20
-5.04112796850879
30
0
41
1
10
68.4580970407239
20
-4.91742013541062
30
0
41
1
10
68.4600412233441
20
-4.79371557390354
30
0
41
1
10
68.4618373796094
20
-4.67006317015247
30
0
0
SPLINE
5
151
100
AcDbEntity
8
1
62
256
6
ByLayer
370
13
48
1
60
0
100
AcDbSpline
70
4
71
3
72
13
73
9
40
0
40
0
40
0
40
0
40
0.0037844877431363
40
0.206113744770215
40
0.408443001797294
40
0.610772258824373
40
0.813101515851452
40
1
40
1
40
1
40
1
41
1
10
68.291523406856
20
-4.9664312335174
30
0
41
1
10
68.2918251818298
20
-4.96648915033643
30
0
41
1
10
68.3082519771123
20
-4.96965247575397
30
0
41
1
10
68.3398850571878
20
-4.97689663896821
30
0
41
1
10
68.3819590447843
20
-4.99045439351147
30
0
41
1
10
68.4169209287194
20
-5.00636815367668
30
0
41
1
10
68.4424242957363
20
-5.02354246112114
30
0
41
1
10
68.4532044585528
20
-5.0354245306674
30
0
41
1
10
68.457007209566
20
-5.04112796849901
30
0
0
SPLINE
5
152
100
AcDbEntity
8
1
62
256
6
ByLayer
370
18
48
1
60
0
100
AcDbSpline
70
4
71
3
72
8
73
4
40
0
40
0
40
0
40
0
40
1
40
1
40
1
40
1
41
1
10
43.4708518921644
20
-7.9871251502976
30
0
41
1
10
43.4755579777787
20
-7.98596173223817
30
0
41
1
10
43.4801501013093
20
-7.9847689922286
30
0
41
1
10
43.4846244253971
20
-7.98354886925242
30
0
0
SPLINE
5
153
100
AcDbEntity
8
1
62
256
6
ByLayer
370
13
48
1
60
0
100
AcDbSpline
70
4
71
3
72
13
73
9
40
0
40
0
40
0
40
0
40
0.0681917036598881
40
0.240064492196781
40
0.411937280733674
40
0.641100998782865
40
0.870264716832055
40
1
40
1
40
1
40
1
41
1
10
60.6072971204991
20
4.05610166053421
30
0
41
1
10
60.9048647469994
20
4.01007127549176
30
0
41
1
10
61.9524323734997
20
3.83245187594582
30
0
41
1
10
63.75
20
3.43622922070787
30
0
41
1
10
66.25
20
2.72475344702812
30
0
41
1
10
69
20
1.77962067313953
30
0
41
1
10
71.5661248834342
20
0.781217337859118
30
0
41
1
10
73.1322497668684
20
0.155635392183086
30
0
41
1
10
73.6983746503026
20
-0.0702856231806663
30
0
0
SPLINE
5
154
100
AcDbEntity
8
1
62
256
6
ByLayer
370
18
48
1
60
0
100
AcDbSpline
70
4
71
3
72
30
73
26
40
0
40
0
40
0
40
0
40
0.125000000000076
40
0.125000000000076
40
0.250000000000152
40
0.250000000000152
40
0.281250000000171
40
0.281250000000171
40
0.31250000000019
40
0.31250000000019
40
0.375000000000199
40
0.375000000000199
40
0.500000000000185
40
0.500000000000185
40
0.562500000000162
40
0.562500000000162
40
0.625000000000139
40
0.625000000000139
40
0.750000000000092
40
0.750000000000092
40
0.875000000000046
40
0.875000000000046
40
0.937500000000023
40
0.937500000000023
40
1
40
1
40
1
40
1
41
1
10
73.6983746503026
20
-0.0702856231806663
30
0
41
1
10
73.7267366178646
20
-0.0311400849328436
30
0
41
1
10
73.7574312794941
20
0.0054856521081774
30
0
41
1
10
73.8230927123348
20
0.0741316122408193
30
0
41
1
10
73.8580646003364
20
0.10614651301654
30
0
41
1
10
73.9044589177954
20
0.143299590916968
30
0
41
1
10
73.9138725562614
20
0.150586123382226
30
0
41
1
10
73.9329725647683
20
0.164868399883261
30
0
41
1
10
73.9426725789625
20
0.171872926550577
30
0
41
1
10
73.9719740554629
20
0.192299659779962
30
0
41
1
10
73.9918331325188
20
0.205180685656131
30
0
41
1
10
74.0523706412392
20
0.241685159727268
30
0
41
1
10
74.0940055530528
20
0.26317768003085
30
0
41
1
10
74.1583990957707
20
0.291266665851225
30
0
41
1
10
74.1801881574068
20
0.299935942453828
30
0
41
1
10
74.2244308391791
20
0.315884302814197
30
0
41
1
10
74.2469335437363
20
0.323173057280371
30
0
41
1
10
74.314604309223
20
0.342707301438082
30
0
41
1
10
74.3601794146544
20
0.352729631539404
30
0
41
1
10
74.4522997785481
20
0.367182955250968
30
0
41
1
10
74.4988451854505
20
0.371611775990971
30
0
41
1
10
74.5694398083163
20
0.374233064664395
30
0
41
1
10
74.5931383253475
20
0.374433183075013
30
0
41
1
10
74.6404997053172
20
0.37351842845348
30
0
41
1
10
74.6641870940828
20
0.372406648408003
30
0
41
1
10
74.68788595102
20
0.370665087457383
30
0
0
SPLINE
5
155
100
AcDbEntity
8
1
62
256
6
ByLayer
370
13
48
1
60
0
100
AcDbSpline
70
4
71
3
72
23
73
19
40
0
40
0
40
0
40
0
40
0.0543794813339673
40
0.124580075394771
40
0.194780669455574
40
0.264981263516377
40
0.33518185757718
40
0.405382451637984
40
0.458032897183586
40
0.510683342729189
40
0.54578363975959
40
0.580883936789992
40
0.633534382335594
40
0.686184827881197
40
0.756385421942
40
0.826586016002803
40
0.931886907094008
40
1
40
1
40
1
40
1
41
1
10
43.8380551034896
20
4.06225264868243
30
0
41
1
10
44.2253700689931
20
4.0011843207977
30
0
41
1
10
45.1126850344966
20
3.84299342614815
30
0
41
1
10
46.5
20
3.53297972843438
30
0
41
1
10
48.0000000000001
20
3.12853081472266
30
0
41
1
10
49.5
20
2.66421956491871
30
0
41
1
10
51
20
2.14717452481048
30
0
41
1
10
52.3749999999999
20
1.6337844538065
30
0
41
1
10
53.625
20
1.14441276273581
30
0
41
0.999999999999999
10
54.625
20
0.742699583697772
30
0
41
1
10
55.5000000000001
20
0.386391773761261
30
0
41
1
10
56.3749999999999
20
0.0276434095013372
30
0
41
1
10
57.3750000000001
20
-0.383496467755094
30
0
41
1
10
58.625
20
-0.893301234977344
30
0
41
1
10
60.0000000000001
20
-1.44058553775744
30
0
41
0.999999999999999
10
61.7499999999999
20
-2.10227008211544
30
0
41
1
10
63.4851318839766
20
-2.70299554002034
30
0
41
1
10
64.7202637679532
20
-3.07534806639018
30
0
41
1
10
65.2053956519299
20
-3.21166248542312
30
0
0
SPLINE
5
156
100
AcDbEntity
8
1
62
256
6
ByLayer
370
18
48
1
60
0
100
AcDbSpline
70
4
71
3
72
10
73
6
40
0
40
0
40
0
40
0
40
0.5
40
0.5
40
1
40
1
40
1
40
1
41
1
10
43.4213689056644
20
-7.93805117010075
30
0
41
1
10
43.4356761114605
20
-7.94643147298635
30
0
41
1
10
43.4472740662678
20
-7.95453064136061
30
0
41
1
10
43.4641271453918
20
-7.97069794771937
30
0
41
1
10
43.4693731723963
20
-7.97875697614191
30
0
41
1
10
43.4708518921644
20
-7.9871251502976
30
0
0
SPLINE
5
157
100
AcDbEntity
8
1
62
256
6
ByLayer
370
18
48
1
60
0
100
AcDbSpline
70
4
71
3
72
14
73
10
40
0
40
0
40
0
40
0
40
0.25
40
0.25
40
0.5
40
0.5
40
0.75
40
0.75
40
1
40
1
40
1
40
1
41
1
10
39.485301998706
20
5.1053220306907
30
0
41
1
10
39.4979656807758
20
5.01901885632739
30
0
41
1
10
39.5068131882265
20
4.93267445990656
30
0
41
1
10
39.5158750787736
20
4.76057802659034
30
0
41
1
10
39.516097615841
20
4.67482240290838
30
0
41
1
10
39.5063637674759
20
4.50478098863789
30
0
41
1
10
39.4964101909472
20
4.42049217291671
30
0
41
1
10
39.4643348366107
20
4.25454199287412
30
0
41
1
10
39.4422377798481
20
4.17287209150408
30
0
41
1
10
39.4126960188274
20
4.09330618819544
30
0
0
SPLINE
5
158
100
AcDbEntity
8
1
62
256
6
ByLayer
370
18
48
1
60
0
100
AcDbSpline
70
4
71
3
72
10
73
6
40
0
40
0
40
0
40
0
40
0.5
40
0.5
40
1
40
1
40
1
40
1
41
1
10
39.4126960188269
20
4.09330618819573
30
0
41
1
10
39.4271185487177
20
4.00134062472443
30
0
41
1
10
39.4388411260146
20
3.90895776428368
30
0
41
1
10
39.4559045891455
20
3.72358877826153
30
0
41
1
10
39.4612366800739
20
3.63068788138278
30
0
41
1
10
39.4627320295653
20
3.53789570436859
30
0
0
SPLINE
5
159
100
AcDbEntity
8
1
62
256
6
ByLayer
370
18
48
1
60
0
100
AcDbSpline
70
4
71
3
72
8
73
4
40
0
40
0
40
0
40
0
40
1
40
1
40
1
40
1
41
1
10
39.4627320295653
20
3.53789570436859
30
0
41
1
10
39.4675472594122
20
3.51514410683274
30
0
41
1
10
39.4722457479318
20
3.49235905766955
30
0
41
1
10
39.4768233065081
20
3.46954085437358
30
0
0
SPLINE
5
15A
100
AcDbEntity
8
1
62
256
6
ByLayer
370
13
48
1
60
0
100
AcDbSpline
70
4
71
3
72
15
73
11
40
0
40
0
40
0
40
0
40
0.162478682130176
40
0.324957364260352
40
0.487436046390528
40
0.649914728520703
40
0.771773740118335
40
0.893632751715967
40
0.974872092781055
40
1
40
1
40
1
40
1
41
1
10
30
20
3.58114018139284
30
0
41
1
10
31
20
3.33626542876399
30
0
41
1
10
33
20
2.74730437867453
30
0
41
1
10
36
20
1.6343286604743
30
0
41
1
10
39.0000000000001
20
0.392395260705598
30
0
41
1
10
41.75
20
-0.781542200378141
30
0
41
1
10
44.25
20
-1.79009827987849
30
0
41
0.999999999999999
10
46.25
20
-2.52652209319075
30
0
41
1
10
47.6546535637138
20
-2.98012900849392
30
0
41
1
10
48.3093071274275
20
-3.17289896088278
30
0
41
1
10
48.4639606911412
20
-3.21736673216134
30
0
0
SPLINE
5
15B
100
AcDbEntity
8
1
62
256
6
ByLayer
370
13
48
1
60
0
100
AcDbSpline
70
4
71
3
72
13
73
9
40
0
40
0
40
0
40
0
40
0.0201227762886684
40
0.21960674297921
40
0.419090709669752
40
0.618574676360294
40
0.818058643050836
40
1
40
1
40
1
40
1
41
1
10
40.2875088524158
20
2.85173408523761
30
0
41
1
10
40.2891442908918
20
2.85235819543982
30
0
41
1
10
40.3069366023863
20
2.85927565245856
30
0
41
1
10
40.3398574964772
20
2.87472525868907
30
0
41
1
10
40.3819318760416
20
2.90250914117902
30
0
41
1
10
40.4168942200598
20
2.93512135658432
30
0
41
1
10
40.4422962482099
20
2.97017643731999
30
0
41
1
10
40.4530475246895
20
2.99437169402324
30
0
41
1
10
40.4568366621309
20
3.00591225133809
30
0
0
SPLINE
5
15C
100
AcDbEntity
8
1
62
256
6
ByLayer
370
18
48
1
60
0
100
AcDbSpline
70
4
71
3
72
36
73
32
40
0
40
0
40
0
40
0
40
0.250000000000025
40
0.250000000000025
40
0.375000000000013
40
0.375000000000013
40
0.5
40
0.5
40
0.562499999999994
40
0.562499999999994
40
0.624999999999988
40
0.624999999999988
40
0.687499999999981
40
0.687499999999981
40
0.749999999999975
40
0.749999999999975
40
0.78124999999997
40
0.78124999999997
40
0.812499999999965
40
0.812499999999965
40
0.828124999999948
40
0.828124999999948
40
0.843749999999932
40
0.843749999999932
40
0.874999999999945
40
0.874999999999945
40
0.906249999999959
40
0.906249999999959
40
0.937499999999972
40
0.937499999999972
40
1
40
1
40
1
40
1
41
1
10
25.3516984514801
20
-7.17503392781987
30
0
41
1
10
25.3158351612114
20
-7.16303408737829
30
0
41
1
10
25.2808649814881
20
-7.15052888254627
30
0
41
1
10
25.2307180164859
20
-7.13061376439535
30
0
41
1
10
25.2143925172511
20
-7.12378029880836
30
0
41
1
10
25.1828838356524
20
-7.10957678065148
30
0
41
1
10
25.1677025873897
20
-7.10221491449747
30
0
41
1
10
25.1465485486435
20
-7.09067016997443
30
0
41
1
10
25.1397635767174
20
-7.08673424928145
30
0
41
1
10
25.1269334087671
20
-7.07862792966284
30
0
41
1
10
25.12086638915
20
-7.07444547519387
30
0
41
1
10
25.1099424072711
20
-7.06580930121893
30
0
41
1
10
25.1050653758304
20
-7.06135230108541
30
0
41
1
10
25.0973960215869
20
-7.05209419593308
30
0
41
1
10
25.094609028143
20
-7.04735833728418
30
0
41
1
10
25.0934644818463
20
-7.03997256299013
30
0
41
1
10
25.093621703493
20
-7.03747836207106
30
0
41
1
10
25.0953869454819
20
-7.0325846548906
30
0
41
1
10
25.0970398527541
20
-7.03013578233197
30
0
41
1
10
25.1007272498592
20
-7.02673551107168
30
0
41
1
10
25.1021559168728
20
-7.02564054065672
30
0
41
1
10
25.1054254844289
20
-7.02353072383991
30
0
41
1
10
25.1072850977247
20
-7.02250803412386
30
0
41
1
10
25.1133255427605
20
-7.01964439324305
30
0
41
1
10
25.1179757578107
20
-7.01798943897572
30
0
41
1
10
25.1282169274469
20
-7.01511263005673
30
0
41
1
10
25.1336403869377
20
-7.01393285802575
30
0
41
1
10
25.1449084430637
20
-7.01193489030996
30
0
41
1
10
25.1507849402753
20
-7.01111535063663
30
0
41
1
10
25.1686618896085
20
-7.00909449326849
30
0
41
1
10
25.1808399029921
20
-7.0083154422513
30
0
41
1
10
25.1931645718449
20
-7.00785838519798
30
0
0
SPLINE
5
15D
100
AcDbEntity
8
1
62
256
6
ByLayer
370
18
48
1
60
0
100
AcDbSpline
70
4
71
3
72
38
73
34
40
0
40
0
40
0
40
0
40
0.12499999999996
40
0.12499999999996
40
0.187499999999941
40
0.187499999999941
40
0.218749999999931
40
0.218749999999931
40
0.249999999999921
40
0.249999999999921
40
0.374999999999958
40
0.374999999999958
40
0.406249999999956
40
0.406249999999956
40
0.437499999999954
40
0.49999999999997
40
0.53124999999997
40
0.53124999999997
40
0.56249999999997
40
0.56249999999997
40
0.624999999999969
40
0.624999999999969
40
0.656249999999973
40
0.656249999999973
40
0.687499999999978
40
0.687499999999978
40
0.749999999999982
40
0.749999999999982
40
0.874999999999989
40
0.874999999999989
40
0.937499999999994
40
0.937499999999994
40
1
40
1
40
1
40
1
41
1
10
25.1931645718448
20
-7.00785838519798
30
0
41
1
10
25.2546187060942
20
-7.00557937503959
30
0
41
1
10
25.3154020014409
20
-7.00206195738832
30
0
41
1
10
25.4051511153065
20
-6.99409926008303
30
0
41
1
10
25.4348278040251
20
-6.99099292816351
30
0
41
1
10
25.4789021880594
20
-6.98548949458896
30
0
41
1
10
25.4935199536634
20
-6.98351380529269
30
0
41
1
10
25.5225907231473
20
-6.97924388790818
30
0
41
1
10
25.5370706598464
20
-6.97694502434607
30
0
41
1
10
25.6087011442049
20
-6.96459819971219
30
0
41
1
10
25.662629060546
20
-6.95221214642058
30
0
41
1
10
25.7242596826308
20
-6.93218616030887
30
0
41
1
10
25.7363420678808
20
-6.92793034484205
30
0
41
1
10
25.7595007369814
20
-6.9190576778696
30
0
41
1
10
25.7928198702302
20
-6.90518672489952
30
0
41
1
10
25.83155359861
20
-6.88438753126857
30
0
41
1
10
25.8563284467592
20
-6.86696970477405
30
0
41
1
10
25.8718960126775
20
-6.85494316305213
30
0
41
1
10
25.8792010756282
20
-6.84871915125549
30
0
41
1
10
25.8993741325718
20
-6.82975463616387
30
0
41
1
10
25.9106513946037
20
-6.81661602003874
30
0
41
1
10
25.9247693029783
20
-6.79620893171722
30
0
41
1
10
25.9290077837782
20
-6.78928989893319
30
0
41
1
10
25.9366140112506
20
-6.77522436580773
30
0
41
1
10
25.9399874918208
20
-6.76805980700138
30
0
41
1
10
25.9488058972588
20
-6.74645699680721
30
0
41
1
10
25.9529937487843
20
-6.73185917386454
30
0
41
1
10
25.9614766082062
20
-6.68749434598453
30
0
41
1
10
25.9617426257345
20
-6.65715695037244
30
0
41
1
10
25.9565001123255
20
-6.61054730292693
30
0
41
1
10
25.9537904137062
20
-6.59480989270881
30
0
41
1
10
25.9467762115904
20
-6.56317218570985
30
0
41
1
10
25.9424701896594
20
-6.5472482052576
30
0
41
1
10
25.9374822238415
20
-6.53121426652771
30
0
0
SPLINE
5
15E
100
AcDbEntity
8
1
62
256
6
ByLayer
370
18
48
1
60
0
100
AcDbSpline
70
4
71
3
72
22
73
18
40
0
40
0
40
0
40
0
40
0.249999999999991
40
0.249999999999991
40
0.499999999999982
40
0.499999999999982
40
0.531249999999981
40
0.531249999999981
40
0.562499999999979
40
0.562499999999979
40
0.624999999999981
40
0.624999999999981
40
0.749999999999987
40
0.749999999999987
40
0.874999999999994
40
0.874999999999994
40
1
40
1
40
1
40
1
41
1
10
25.9374822238415
20
-6.53121426652771
30
0
41
1
10
25.6815770740112
20
-6.36668295468718
30
0
41
1
10
25.4421519775373
20
-6.18166287512742
30
0
41
1
10
24.9955871647535
20
-5.76563075980991
30
0
41
1
10
24.7884310290407
20
-5.53465771681999
30
0
41
1
10
24.5731272461505
20
-5.24515617595972
30
0
41
1
10
24.549451284546
20
-5.21257575522054
30
0
41
1
10
24.5025918090847
20
-5.1465712380251
30
0
41
1
10
24.4793932718209
20
-5.11312489022438
30
0
41
1
10
24.4106360584346
20
-5.01164348000532
30
0
41
1
10
24.3660710625439
20
-4.94270015233448
30
0
41
1
10
24.2360789794894
20
-4.73197871417551
30
0
41
1
10
24.1543511163095
20
-4.58631286370357
30
0
41
1
10
24.0002233623881
20
-4.28440233343864
30
0
41
1
10
23.9278227644966
20
-4.12815891050309
30
0
41
1
10
23.7919353587067
20
-3.80475248100947
30
0
41
1
10
23.7284475482204
20
-3.63759130058836
30
0
41
1
10
23.6692850309304
20
-3.46471056969273
30
0
0
SPLINE
5
15F
100
AcDbEntity
8
1
62
256
6
ByLayer
370
18
48
1
60
0
100
AcDbSpline
70
4
71
3
72
17
73
13
40
0
40
0
40
0
40
0
40
0.250000000000006
40
0.250000000000006
40
0.375000000000004
40
0.375000000000004
40
0.500000000000003
40
0.625000000000001
40
0.625000000000001
40
0.749999999999999
40
0.749999999999999
40
1
40
1
40
1
40
1
41
1
10
23.6692850309304
20
-3.4647105696927
30
0
41
1
10
23.6627223069031
20
-3.44553341871119
30
0
41
1
10
23.658193651635
20
-3.42602691833673
30
0
41
1
10
23.6553146849257
20
-3.39614383917041
30
0
41
1
10
23.6550193039853
20
-3.38600028000596
30
0
41
1
10
23.6559385507482
20
-3.36593317337059
30
0
41
1
10
23.6583411961399
20
-3.34609443621221
30
0
41
1
10
23.6638462870247
20
-3.32673848224798
30
0
41
1
10
23.6710022482243
20
-3.30764238281049
30
0
41
1
10
23.6754352498091
20
-3.29820944087578
30
0
41
1
10
23.6907061601459
20
-3.271365557308
30
0
41
1
10
23.7036161615932
20
-3.25501976863541
30
0
41
1
10
23.7189292515166
20
-3.24004952764403
30
0
0
SPLINE
5
160
100
AcDbEntity
8
1
62
256
6
ByLayer
370
18
48
1
60
0
100
AcDbSpline
70
4
71
3
72
39
73
35
40
0
40
0
40
0
40
0
40
0.0312499999999848
40
0.0312499999999848
40
0.0624999999999695
40
0.0624999999999695
40
0.124999999999945
40
0.124999999999945
40
0.140624999999942
40
0.140624999999942
40
0.156249999999939
40
0.187499999999933
40
0.187499999999933
40
0.249999999999928
40
0.249999999999928
40
0.312499999999924
40
0.312499999999924
40
0.343749999999925
40
0.343749999999925
40
0.374999999999926
40
0.374999999999926
40
0.437499999999928
40
0.437499999999928
40
0.499999999999931
40
0.499999999999931
40
0.624999999999942
40
0.624999999999942
40
0.749999999999954
40
0.749999999999954
40
0.812499999999964
40
0.812499999999964
40
0.874999999999974
40
0.874999999999974
40
1
40
1
40
1
40
1
41
1
10
23.7189292515166
20
-3.240049527644
30
0
41
1
10
23.7602055397646
20
-3.19969738543151
30
0
41
1
10
23.8036241387034
20
-3.16197057642825
30
0
41
1
10
23.8939386445927
20
-3.09082487589504
30
0
41
1
10
23.9408390461031
20
-3.05741122012563
30
0
41
1
10
24.0859470540778
20
-2.96268754052912
30
0
41
1
10
24.1885176293473
20
-2.90684333659246
30
0
41
1
10
24.3223431846021
20
-2.84421509846138
30
0
41
1
10
24.3494310314397
20
-2.83203642488019
30
0
41
1
10
24.4039650062906
20
-2.80845061934283
30
0
41
1
10
24.4861448667215
20
-2.77429470147075
30
0
41
1
10
24.5693737240174
20
-2.74353663311274
30
0
41
1
10
24.7370527677553
20
-2.68600333937906
30
0
41
1
10
24.8504581575476
20
-2.65293032920152
30
0
41
1
10
25.0798879420261
20
-2.59543158095443
30
0
41
1
10
25.1959174080584
20
-2.57102145498411
30
0
41
1
10
25.3716527656081
20
-2.54004314363613
30
0
41
1
10
25.4305145156931
20
-2.5306609418455
30
0
41
1
10
25.5487717462653
20
-2.51368178188025
30
0
41
1
10
25.6081723995177
20
-2.50608800349278
30
0
41
1
10
25.7860056449309
20
-2.48596804212053
30
0
41
1
10
25.9044597343532
20
-2.4760336280757
30
0
41
1
10
26.1411895371127
20
-2.46230933245553
30
0
41
1
10
26.2594651259249
20
-2.45852348965701
30
0
41
1
10
26.6140487301144
20
-2.45555530244337
30
0
41
1
10
26.8501150501388
20
-2.4647167514197
30
0
41
1
10
27.3216795852766
20
-2.50257339165265
30
0
41
1
10
27.5571768857108
20
-2.53129883835806
30
0
41
1
10
27.9100241462761
20
-2.58791802588613
30
0
41
1
10
28.0271648323042
20
-2.60898873519156
30
0
41
1
10
28.2602140705457
20
-2.65522911305752
30
0
41
1
10
28.3761767248711
20
-2.68040788565287
30
0
41
1
10
28.7224439910791
20
-2.76180322129781
30
0
41
1
10
28.9511296893803
20
-2.82387455829706
30
0
41
1
10
29.177794549147
20
-2.89301080671041
30
0
0
SPLINE
5
161
100
AcDbEntity
8
1
62
256
6
ByLayer
370
18
48
1
60
0
100
AcDbSpline
70
4
71
3
72
44
73
40
40
0
40
0
40
0
40
0
40
0.062500000000025
40
0.062500000000025
40
0.12500000000005
40
0.12500000000005
40
0.187500000000075
40
0.187500000000075
40
0.218750000000097
40
0.218750000000097
40
0.25000000000012
40
0.281250000000142
40
0.296875000000153
40
0.296875000000153
40
0.312500000000164
40
0.312500000000164
40
0.375000000000162
40
0.375000000000162
40
0.406250000000161
40
0.406250000000161
40
0.43750000000016
40
0.43750000000016
40
0.500000000000147
40
0.500000000000147
40
0.531250000000138
40
0.531250000000138
40
0.562500000000129
40
0.562500000000129
40
0.62500000000011
40
0.62500000000011
40
0.687500000000091
40
0.687500000000091
40
0.718750000000082
40
0.718750000000082
40
0.750000000000073
40
0.750000000000073
40
0.875000000000037
40
0.875000000000037
40
1
40
1
40
1
40
1
41
1
10
25.0833395464227
20
2.57992818570653
30
0
41
1
10
25.1239486683249
20
2.58327710960947
30
0
41
1
10
25.1642777403339
20
2.58782518281726
30
0
41
1
10
25.2442400050151
20
2.59989550719524
30
0
41
1
10
25.2838742056726
20
2.60741358895683
30
0
41
1
10
25.3622528604663
20
2.62624202241068
30
0
41
1
10
25.4009993526654
20
2.63754396949162
30
0
41
1
10
25.4582298501017
20
2.65827247198172
30
0
41
1
10
25.4771066422454
20
2.66580374504622
30
0
41
1
10
25.51395658023
20
2.68207124050451
30
0
41
1
10
25.5500256400013
20
2.69958653460642
30
0
41
1
10
25.5929496647334
20
2.72492482509287
30
0
41
1
10
25.617620032906
20
2.74184819819203
30
0
41
1
10
25.6338117225223
20
2.75353464329521
30
0
41
1
10
25.6418028492999
20
2.75959886499294
30
0
41
1
10
25.6807071154336
20
2.79067951691414
30
0
41
1
10
25.708566488667
20
2.8180171061459
30
0
41
1
10
25.7453990567481
20
2.86272780392093
30
0
41
1
10
25.7568508896267
20
2.87824834331843
30
0
41
1
10
25.7780974804851
20
2.91051780940964
30
0
41
1
10
25.7879113293529
20
2.92732709106903
30
0
41
1
10
25.8143168607289
20
2.97838837112343
30
0
41
1
10
25.8281402155222
20
3.01360355282046
30
0
41
1
10
25.8441990649902
20
3.06781955508731
30
0
41
1
10
25.8487818016183
20
3.08619510616751
30
0
41
1
10
25.8564308270593
20
3.12291635673802
30
0
41
1
10
25.8595091179236
20
3.1412758080678
30
0
41
1
10
25.866809174953
20
3.19633669154871
30
0
41
1
10
25.8691101556396
20
3.23302002120835
30
0
41
1
10
25.8697384672034
20
3.30628530028801
30
0
41
1
10
25.8680589822081
20
3.34286755868212
30
0
41
1
10
25.8631309896913
20
3.39763812259253
30
0
41
1
10
25.8610874445653
20
3.41583538687843
30
0
41
1
10
25.8563083200696
20
3.45195944158445
30
0
41
1
10
25.8535703693977
20
3.46991207002264
30
0
41
1
10
25.8383307673932
20
3.55917195381804
30
0
41
1
10
25.8212691646549
20
3.62898956384885
30
0
41
1
10
25.7805281869029
20
3.76616122712187
30
0
41
1
10
25.7568087027661
20
3.8335063230667
30
0
41
1
10
25.7305689403098
20
3.89980401574837
30
0
0
SPLINE
5
162
100
AcDbEntity
8
1
62
256
6
ByLayer
370
18
48
1
60
0
100
AcDbSpline
70
4
71
3
72
27
73
23
40
0
40
0
40
0
40
0
40
0.250000000000009
40
0.250000000000009
40
0.375000000000014
40
0.375000000000014
40
0.437500000000015
40
0.437500000000015
40
0.468750000000013
40
0.468750000000013
40
0.500000000000012
40
0.62500000000001
40
0.62500000000001
40
0.750000000000007
40
0.750000000000007
40
0.875000000000005
40
0.875000000000005
40
0.906250000000003
40
0.906250000000003
40
0.937500000000002
40
0.937500000000002
40
1
40
1
40
1
40
1
41
1
10
25.7305689403098
20
3.89980401574837
30
0
41
1
10
25.5107790966401
20
4.20331111797518
30
0
41
1
10
25.3158937394497
20
4.50208503417667
30
0
41
1
10
25.0582585530996
20
4.93821053550829
30
0
41
1
10
24.9781650861668
20
5.08157126497269
30
0
41
1
10
24.8664415551503
20
5.29287322529876
30
0
41
1
10
24.8306039128013
20
5.36268319490023
30
0
41
1
10
24.7789288337831
20
5.46636353242573
30
0
41
1
10
24.7620287611513
20
5.50079728026512
30
0
41
1
10
24.7290628559935
20
5.56900343399946
30
0
41
1
10
24.6487072903249
20
5.73791524403947
30
0
41
1
10
24.5783593537664
20
5.89874287387264
30
0
41
1
10
24.4775249458874
20
6.14526237199988
30
0
41
1
10
24.4329690952765
20
6.2631212076443
30
0
41
1
10
24.3548183538671
20
6.48745255734823
30
0
41
1
10
24.3212229797886
20
6.59392710094471
30
0
41
1
10
24.2858078412558
20
6.71942937613113
30
0
41
1
10
24.2790545958175
20
6.74414975934835
30
0
41
1
10
24.266204284406
20
6.79281618536794
30
0
41
1
10
24.260108730767
20
6.81675828928903
30
0
41
1
10
24.2428562208081
20
6.88717123009604
30
0
41
1
10
24.232710679706
20
6.93231062421441
30
0
41
1
10
24.2238836477613
20
6.97562924438068
30
0
0
SPLINE
5
163
100
AcDbEntity
8
1
62
256
6
ByLayer
370
18
48
1
60
0
100
AcDbSpline
70
4
71
3
72
14
73
10
40
0
40
0
40
0
40
0
40
0.500000000000009
40
0.500000000000009
40
0.625000000000014
40
0.625000000000014
40
0.750000000000019
40
0.750000000000019
40
1
40
1
40
1
40
1
41
1
10
24.2238836477613
20
6.97562924438068
30
0
41
1
10
24.2174402682362
20
7.00725010085694
30
0
41
1
10
24.2201031781075
20
7.03754553907638
30
0
41
1
10
24.2357011104481
20
7.07380553934507
30
0
41
1
10
24.2394363080548
20
7.08097701773769
30
0
41
1
10
24.2481695505788
20
7.09515988441416
30
0
41
1
10
24.253164764847
20
7.10215934723416
30
0
41
1
10
24.2698691384367
20
7.12268723074959
30
0
41
1
10
24.2833405279943
20
7.13582425345297
30
0
41
1
10
24.2990566877663
20
7.14845589756106
30
0
0
SPLINE
5
164
100
AcDbEntity
8
1
62
256
6
ByLayer
370
18
48
1
60
0
100
AcDbSpline
70
4
71
3
72
42
73
38
40
0
40
0
40
0
40
0
40
0.0312499999999934
40
0.0312499999999934
40
0.0624999999999867
40
0.0624999999999867
40
0.0937499999999801
40
0.0937499999999801
40
0.109374999999977
40
0.109374999999977
40
0.124999999999973
40
0.124999999999973
40
0.187499999999972
40
0.187499999999972
40
0.24999999999997
40
0.24999999999997
40
0.281249999999969
40
0.281249999999969
40
0.312499999999968
40
0.312499999999968
40
0.374999999999973
40
0.374999999999973
40
0.437499999999978
40
0.437499999999978
40
0.499999999999983
40
0.499999999999983
40
0.531249999999985
40
0.531249999999985
40
0.562499999999988
40
0.562499999999988
40
0.624999999999993
40
0.624999999999993
40
0.749999999999995
40
0.749999999999995
40
0.874999999999998
40
0.874999999999998
40
1
40
1
40
1
40
1
41
1
10
24.2990566877662
20
7.14845589756106
30
0
41
1
10
24.3226701061842
20
7.16743485310482
30
0
41
1
10
24.3492907675254
20
7.18514914175415
30
0
41
1
10
24.407750013903
20
7.21846553725067
30
0
41
1
10
24.4395911193575
20
7.23406636788539
30
0
41
1
10
24.5079014174938
20
7.26347078857148
30
0
41
1
10
24.5443721744576
20
7.27727358401503
30
0
41
1
10
24.6022116663172
20
7.29681492756797
30
0
41
1
10
24.6220588481192
20
7.30314684777076
30
0
41
1
10
24.662402912908
20
7.31534624134417
30
0
41
1
10
24.6829252864524
20
7.32122395958584
30
0
41
1
10
24.7871507403515
20
7.34961108893367
30
0
41
1
10
24.875636630461
20
7.36916042246443
30
0
41
1
10
25.060396784382
20
7.40386090217106
30
0
41
1
10
25.1566943188469
20
7.41899401217412
30
0
41
1
10
25.3059608361197
20
7.43923173889971
30
0
41
1
10
25.3562630597167
20
7.4455270318918
30
0
41
1
10
25.4575481224381
20
7.45731815361438
30
0
41
1
10
25.5085813854003
20
7.46282046599964
30
0
41
1
10
25.6627391311076
20
7.47831628732936
30
0
41
1
10
25.7669159870201
20
7.48730656667664
30
0
41
1
10
25.9776519592008
20
7.50324828088947
30
0
41
1
10
26.0842136421854
20
7.51019603670926
30
0
41
1
10
26.2994501349886
20
7.52247062894841
30
0
41
1
10
26.4081262831926
20
7.52779556410243
30
0
41
1
10
26.5725942358412
20
7.53478187784395
30
0
41
1
10
26.6276938199252
20
7.53694414951107
30
0
41
1
10
26.7382166547966
20
7.54095514872625
30
0
41
1
10
26.7934919824087
20
7.54279875820038
30
0
41
1
10
26.959357688807
20
7.54788838189924
30
0
41
1
10
27.0699876967489
20
7.55069541021933
30
0
41
1
10
27.4020243921274
20
7.5576186147172
30
0
41
1
10
27.623576875443
20
7.5602592991753
30
0
41
1
10
28.0670371310465
20
7.56226484432369
30
0
41
1
10
28.2889453053896
20
7.56162272836428
30
0
41
1
10
28.7331081468207
20
7.55706020359841
30
0
41
1
10
28.9553629918666
20
7.55313867222313
30
0
41
1
10
29.1777945491472
20
7.5473081104432
30
0
0
SPLINE
5
165
100
AcDbEntity
8
1
62
256
6
ByLayer
370
18
48
1
60
0
100
AcDbSpline
70
4
71
3
72
48
73
44
40
0
40
0
40
0
40
0
40
0.0625000000000029
40
0.0625000000000029
40
0.125000000000006
40
0.125000000000006
40
0.156250000000008
40
0.156250000000008
40
0.18750000000001
40
0.218750000000012
40
0.218750000000012
40
0.234375000000015
40
0.234375000000015
40
0.250000000000018
40
0.312500000000029
40
0.312500000000029
40
0.328125000000032
40
0.328125000000032
40
0.343750000000035
40
0.343750000000035
40
0.37500000000003
40
0.37500000000003
40
0.437500000000009
40
0.437500000000009
40
0.453125000000007
40
0.453125000000007
40
0.468750000000006
40
0.468750000000006
40
0.500000000000001
40
0.500000000000001
40
0.5625
40
0.5625
40
0.624999999999999
40
0.624999999999999
40
0.656250000000003
40
0.656250000000003
40
0.687500000000006
40
0.687500000000006
40
0.750000000000005
40
0.750000000000005
40
0.875000000000003
40
0.875000000000003
40
1
40
1
40
1
40
1
41
1
10
77.6246946341486
20
0.351007959452488
30
0
41
1
10
77.6610264983221
20
0.339957103295262
30
0
41
1
10
77.6918061170193
20
0.329278999919296
30
0
41
1
10
77.739995226754
20
0.308820446131222
30
0
41
1
10
77.7574316803205
20
0.299038175831868
30
0
41
1
10
77.7708383000959
20
0.285220640080297
30
0
41
1
10
77.7731083459909
20
0.280811791053765
30
0
41
1
10
77.772943149614
20
0.272441597994032
30
0
41
1
10
77.7680816476748
20
0.264509973189206
30
0
41
1
10
77.7531552878748
20
0.25751826319393
30
0
41
1
10
77.7378851975046
20
0.252655057767072
30
0
41
1
10
77.7320974594339
20
0.251093504474511
30
0
41
1
10
77.7191916459794
20
0.248121864336014
30
0
41
1
10
77.6837249854284
20
0.241093925395461
30
0
41
1
10
77.6325321830225
20
0.236036152329177
30
0
41
1
10
77.569485612751
20
0.232463415398712
30
0
41
1
10
77.5562830993997
20
0.23182318382527
30
0
41
1
10
77.5287080652733
20
0.230689298823222
30
0
41
1
10
77.5142945580377
20
0.230194768041343
30
0
41
1
10
77.4697805194839
20
0.228939294641037
30
0
41
1
10
77.4383408266314
20
0.2284009575516
30
0
41
1
10
77.339349283409
20
0.227577143783663
30
0
41
1
10
77.2671507683629
20
0.228078495842794
30
0
41
1
10
77.1706941127911
20
0.229756485249681
30
0
41
1
10
77.1510902341659
20
0.230145007407117
30
0
41
1
10
77.111288371375
20
0.231022652764665
30
0
41
1
10
77.0910578387728
20
0.231512695025344
30
0
41
1
10
77.0298599419229
20
0.23311711915386
30
0
41
1
10
76.9883391049872
20
0.234365867955745
30
0
41
1
10
76.8619081252173
20
0.238575539770324
30
0
41
1
10
76.7751431797791
20
0.241996498604976
30
0
41
1
10
76.5977929078279
20
0.249785963007497
30
0
41
1
10
76.5072008148948
20
0.254156146810828
30
0
41
1
10
76.3690093585251
20
0.26128270072806
30
0
41
1
10
76.3225593901681
20
0.263753993115017
30
0
41
1
10
76.2289602036004
20
0.268870008733046
30
0
41
1
10
76.1817437097815
20
0.271518659612298
30
0
41
1
10
76.039724494999
20
0.279667767266204
30
0
41
1
10
75.9445734644003
20
0.285368095612341
30
0
41
1
10
75.6579779078468
20
0.303117388145495
30
0
41
1
10
75.4654051441544
20
0.315806586506767
30
0
41
1
10
75.0781302838504
20
0.342393302767988
30
0
41
1
10
74.8834192206171
20
0.356295908902325
30
0
41
1
10
74.68788595102
20
0.370665087457354
30
0
0
SPLINE
5
166
100
AcDbEntity
8
1
62
256
6
ByLayer
370
18
48
1
60
0
100
AcDbSpline
70
4
71
3
72
8
73
4
40
0
40
0
40
0
40
0
40
1
40
1
40
1
40
1
41
1
10
76.8543774204514
20
1.15452192795499
30
0
41
1
10
76.8667321710371
20
1.05936594973713
30
0
41
1
10
76.8790737316463
20
0.964136789160193
30
0
41
1
10
76.8914021407561
20
0.868834659712007
30
0
0
SPLINE
5
167
100
AcDbEntity
8
1
62
256
6
ByLayer
370
18
48
1
60
0
100
AcDbSpline
70
4
71
3
72
8
73
4
40
0
40
0
40
0
40
0
40
1
40
1
40
1
40
1
41
1
10
76.8543774204541
20
1.15452192795675
30
0
41
1
10
76.8833087497896
20
1.12911436147633
30
0
41
1
10
76.9104036413301
20
1.10198522818825
30
0
41
1
10
76.934799196096
20
1.07232937175743
30
0
0
SPLINE
5
168
100
AcDbEntity
8
1
62
256
6
ByLayer
370
18
48
1
60
0
100
AcDbSpline
70
4
71
3
72
8
73
4
40
0
40
0
40
0
40
0
40
1
40
1
40
1
40
1
41
1
10
76.9731722310966
20
0.772350809656899
30
0
41
1
10
76.9491188818288
20
0.78077688640218
30
0
41
1
10
76.9250105788732
20
0.789044002393695
30
0
41
1
10
76.9008339983812
20
0.797113918889465
30
0
0
SPLINE
5
169
100
AcDbEntity
8
1
62
256
6
ByLayer
370
18
48
1
60
0
100
AcDbSpline
70
4
71
3
72
8
73
4
40
0
40
0
40
0
40
0
40
1
40
1
40
1
40
1
41
1
10
40.4568366621375
20
3.0059122513581
30
0
41
1
10
40.4579601240896
20
3.13359912665794
30
0
41
1
10
40.459909519895
20
3.26127740505956
30
0
41
1
10
40.4617157553211
20
3.38900391953618
30
0
0
SPLINE
5
16A
100
AcDbEntity
8
1
62
256
6
ByLayer
370
18
48
1
60
0
100
AcDbSpline
70
4
71
3
72
8
73
4
40
0
40
0
40
0
40
0
40
1
40
1
40
1
40
1
41
1
10
40.4568366621375
20
3.0059122513581
30
0
41
1
10
40.45634866318
20
2.95044881362438
30
0
41
1
10
40.4560057502102
20
2.89498372722753
30
0
41
1
10
40.4558376654683
20
2.83951141242554
30
0
0
SPLINE
5
16B
100
AcDbEntity
8
1
62
256
6
ByLayer
370
18
48
1
60
0
100
AcDbSpline
70
4
71
3
72
10
73
6
40
0
40
0
40
0
40
0
40
0.5
40
0.5
40
1
40
1
40
1
40
1
41
1
10
55.4129342798743
20
-6.65296350413541
30
0
41
1
10
55.4273334270718
20
-6.71766314696114
30
0
41
1
10
55.439034914926
20
-6.78225819476253
30
0
41
1
10
55.4560594216326
20
-6.91175967175005
30
0
41
1
10
55.4613736784474
20
-6.97660420471661
30
0
41
1
10
55.462851887215
20
-7.04177104392369
30
0
0
SPLINE
5
16C
100
AcDbEntity
8
1
62
256
6
ByLayer
370
18
48
1
60
0
100
AcDbSpline
70
4
71
3
72
10
73
6
40
0
40
0
40
0
40
0
40
0.5
40
0.5
40
1
40
1
40
1
40
1
41
1
10
67.4165494874107
20
-4.02220488677503
30
0
41
1
10
67.4308734886748
20
-4.11993208732599
30
0
41
1
10
67.4424920681354
20
-4.21775967490311
30
0
41
1
10
67.4593584027503
20
-4.41395889446355
30
0
41
1
10
67.4645972804978
20
-4.51223800065654
30
0
41
1
10
67.466024340042
20
-4.61074522581714
30
0
0
SPLINE
5
16D
100
AcDbEntity
8
1
62
256
6
ByLayer
370
18
48
1
60
0
100
AcDbSpline
70
4
71
3
72
8
73
4
40
0
40
0
40
0
40
0
40
1
40
1
40
1
40
1
41
1
10
52.4570009132424
20
5.77447414139499
30
0
41
1
10
52.4580859754481
20
5.86389889100261
30
0
41
1
10
52.4600268992274
20
5.95331296523005
30
0
41
1
10
52.461822766218
20
6.04280510129462
30
0
0
SPLINE
5
16E
100
AcDbEntity
8
1
62
256
6
ByLayer
370
18
48
1
60
0
100
AcDbSpline
70
4
71
3
72
8
73
4
40
0
40
0
40
0
40
0
40
1
40
1
40
1
40
1
41
1
10
52.4570009132424
20
5.77447414139499
30
0
41
1
10
52.456553300642
20
5.73758441791753
30
0
41
1
10
52.4562408083717
20
5.70069223473826
30
0
41
1
10
52.4560891452083
20
5.66378966057451
30
0
0
SPLINE
5
16F
100
AcDbEntity
8
1
62
256
6
ByLayer
370
18
48
1
60
0
100
AcDbSpline
70
4
71
3
72
37
73
33
40
0
40
0
40
0
40
0
40
0.250000000000013
40
0.250000000000013
40
0.37500000000002
40
0.37500000000002
40
0.437500000000023
40
0.437500000000023
40
0.500000000000026
40
0.500000000000026
40
0.625000000000033
40
0.625000000000033
40
0.687500000000027
40
0.687500000000027
40
0.750000000000022
40
0.750000000000022
40
0.812500000000016
40
0.812500000000016
40
0.843750000000014
40
0.843750000000014
40
0.875000000000011
40
0.875000000000011
40
0.906250000000008
40
0.906250000000008
40
0.921875000000007
40
0.921875000000007
40
0.937500000000006
40
0.968750000000003
40
0.968750000000003
40
0.984375000000001
40
0.984375000000001
40
1
40
1
40
1
40
1
41
1
10
77.4162554970952
20
2.50243832246812
30
0
41
1
10
77.4588881921002
20
2.38917944849157
30
0
41
1
10
77.5012215094382
20
2.27616741442009
30
0
41
1
10
77.5640500078841
20
2.10720300333213
30
0
41
1
10
77.5848507029753
20
2.05105220344552
30
0
41
1
10
77.6157315265542
20
1.967274938088
30
0
41
1
10
77.6259733330724
20
1.9394193579177
30
0
41
1
10
77.6463356723831
20
1.88387248632455
30
0
41
1
10
77.6564663506558
20
1.85615342228934
30
0
41
1
10
77.6865602792979
20
1.77351193849844
30
0
41
1
10
77.7062159266603
20
1.7191422466305
30
0
41
1
10
77.7347664594436
20
1.63924884549405
30
0
41
1
10
77.7441259451699
20
1.6128978954155
30
0
41
1
10
77.7624289004876
20
1.56093672986555
30
0
41
1
10
77.7714059025844
20
1.53523007219221
30
0
41
1
10
77.7885377616311
20
1.48554759961144
30
0
41
1
10
77.7967104505741
20
1.46152599482698
30
0
41
1
10
77.8081100722573
20
1.42728485987945
30
0
41
1
10
77.811751933246
20
1.41621115015553
30
0
41
1
10
77.8185678054065
20
1.39515202798088
30
0
41
1
10
77.8217546110238
20
1.38512856430049
30
0
41
1
10
77.8275965500538
20
1.36629846576898
30
0
41
1
10
77.830252304992
20
1.3574904084455
30
0
41
1
10
77.8337426952829
20
1.34540719702488
30
0
41
1
10
77.8348278061556
20
1.34155251265108
30
0
41
1
10
77.836783736566
20
1.33437378258117
30
0
41
1
10
77.8394012097805
20
1.324387146444
30
0
41
1
10
77.8410295019842
20
1.31684346115182
30
0
41
1
10
77.8419287564612
20
1.31110025859258
30
0
41
1
10
77.8421063533146
20
1.30948390863199
30
0
41
1
10
77.8422057091441
20
1.30691416350823
30
0
41
1
10
77.842128921308
20
1.30595445953691
30
0
41
1
10
77.8419274533144
20
1.30531533304063
30
0
0
SPLINE
5
170
100
AcDbEntity
8
1
62
256
6
ByLayer
370
18
48
1
60
0
100
AcDbSpline
70
4
71
3
72
32
73
28
40
0
40
0
40
0
40
0
40
0.031249999999997
40
0.031249999999997
40
0.062499999999994
40
0.062499999999994
40
0.0781249999999925
40
0.0781249999999925
40
0.093749999999991
40
0.093749999999991
40
0.109374999999989
40
0.109374999999989
40
0.124999999999988
40
0.124999999999988
40
0.156249999999988
40
0.156249999999988
40
0.187499999999988
40
0.187499999999988
40
0.249999999999991
40
0.249999999999991
40
0.374999999999994
40
0.374999999999994
40
0.499999999999996
40
0.499999999999996
40
0.749999999999998
40
0.749999999999998
40
1
40
1
40
1
40
1
41
1
10
76.934799196096
20
1.07232937175718
30
0
41
1
10
76.937452751779
20
1.06910364202389
30
0
41
1
10
76.9402354886324
20
1.06600289316026
30
0
41
1
10
76.946317522005
20
1.06030181237918
30
0
41
1
10
76.9496594667532
20
1.05762109236028
30
0
41
1
10
76.9553467993779
20
1.05487775607912
30
0
41
1
10
76.9573966241268
20
1.05418089501111
30
0
41
1
10
76.9615987173835
20
1.05368702064356
30
0
41
1
10
76.9637364405862
20
1.05391436298018
30
0
41
1
10
76.967708158107
20
1.05538633467853
30
0
41
1
10
76.9694642125023
20
1.05657619365258
30
0
41
1
10
76.9725117317608
20
1.05936512750125
30
0
41
1
10
76.973822764934
20
1.06096682616112
30
0
41
1
10
76.9773387059279
20
1.06606030519131
30
0
41
1
10
76.9790910077923
20
1.06972561359422
30
0
41
1
10
76.9821444784499
20
1.07726206947842
30
0
41
1
10
76.983421957283
20
1.08115977578493
30
0
41
1
10
76.9867937770297
20
1.09289978712681
30
0
41
1
10
76.9884575472786
20
1.10082420566806
30
0
41
1
10
76.9927154120051
20
1.12472042736869
30
0
41
1
10
76.994552279076
20
1.14081913198021
30
0
41
1
10
76.9975159363805
20
1.17313545246114
30
0
41
1
10
76.9985916619014
20
1.18934892314243
30
0
41
1
10
77.0011733107307
20
1.23797171927674
30
0
41
1
10
77.0020478854836
20
1.270422643134
30
0
41
1
10
77.0031069016569
20
1.3353510162778
30
0
41
1
10
77.0032601481756
20
1.36782983231166
30
0
41
1
10
77.0032089391857
20
1.40031542360978
30
0
0
SPLINE
5
171
100
AcDbEntity
8
1
62
256
6
ByLayer
370
13
48
1
60
0
100
AcDbSpline
70
4
71
3
72
8
73
4
40
0
40
0
40
0
40
0
40
1
40
1
40
1
40
1
41
1
10
76.9731722310964
20
0.772350809656871
30
0
41
1
10
76.9603812194296
20
0.872343663690373
30
0
41
1
10
76.9475902077627
20
0.972336517723903
30
0
41
1
10
76.9347991960959
20
1.0723293717574
30
0
0
SPLINE
5
172
100
AcDbEntity
8
1
62
256
6
ByLayer
370
18
48
1
60
0
100
AcDbSpline
70
4
71
3
72
28
73
24
40
0
40
0
40
0
40
0
40
0.125000000000027
40
0.125000000000027
40
0.250000000000054
40
0.250000000000054
40
0.312500000000068
40
0.312500000000068
40
0.375000000000082
40
0.375000000000082
40
0.500000000000111
40
0.500000000000111
40
0.62500000000014
40
0.62500000000014
40
0.687500000000134
40
0.687500000000134
40
0.750000000000128
40
0.750000000000128
40
0.875000000000065
40
0.875000000000065
40
0.937500000000032
40
0.937500000000032
40
1
40
1
40
1
40
1
41
1
10
77.9729536208935
20
0.281027279010743
30
0
41
1
10
77.9742052537961
20
0.284846100396067
30
0
41
1
10
77.9722301879706
20
0.288907249741925
30
0
41
1
10
77.9622518616222
20
0.297482271246423
30
0
41
1
10
77.9542417235793
20
0.301996659913158
30
0
41
1
10
77.9377030713694
20
0.309107957689292
30
0
41
1
10
77.9314338128799
20
0.311535194676708
30
0
41
1
10
77.9173505505266
20
0.316505680410728
30
0
41
1
10
77.9095765406027
20
0.319033799892594
30
0
41
1
10
77.8842670953508
20
0.326690990895202
30
0
41
1
10
77.8646923327278
20
0.331914440380302
30
0
41
1
10
77.8202144181553
20
0.342595347351249
30
0
41
1
10
77.7953121634209
20
0.348052765433891
30
0
41
1
10
77.7537782093584
20
0.356422491620719
30
0
41
1
10
77.7392627982054
20
0.359236403264589
30
0
41
1
10
77.7092588296333
20
0.364842188886172
30
0
41
1
10
77.6937221145276
20
0.367643904840463
30
0
41
1
10
77.6455204363196
20
0.376045549995439
30
0
41
1
10
77.6112720425446
20
0.381641994319978
30
0
41
1
10
77.5566360396843
20
0.390029478561559
30
0
41
1
10
77.5378781708444
20
0.392824105274684
30
0
41
1
10
77.4992290894465
20
0.398410864393753
30
0
41
1
10
77.4792948240878
20
0.401208172677599
30
0
41
1
10
77.4591137234368
20
0.403957746886903
30
0
0
SPLINE
5
173
100
AcDbEntity
8
1
62
256
6
ByLayer
370
18
48
1
60
0
100
AcDbSpline
70
4
71
3
72
14
73
10
40
0
40
0
40
0
40
0
40
0.25
40
0.25
40
0.5
40
0.5
40
0.75
40
0.75
40
1
40
1
40
1
40
1
41
1
10
68.4618373796094
20
-4.6700631701525
30
0
41
1
10
68.4597793712371
20
-4.55180056190079
30
0
41
1
10
68.4571791053181
20
-4.43355469335683
30
0
41
1
10
68.4527640730405
20
-4.19694419470216
30
0
41
1
10
68.450936805562
20
-4.07857743968401
30
0
41
1
10
68.4489970060696
20
-3.84174040767383
30
0
41
1
10
68.4488882636377
20
-3.72327620735928
30
0
41
1
10
68.4504970844624
20
-3.48632040578156
30
0
41
1
10
68.4522198046524
20
-3.36783079738524
30
0
41
1
10
68.4544139160652
20
-3.24936529727683
30
0
0
SPLINE
5
174
100
AcDbEntity
8
1
62
256
6
ByLayer
370
18
48
1
60
0
100
AcDbSpline
70
4
71
3
72
17
73
13
40
0
40
0
40
0
40
0
40
0.0796113355367851
40
0.208179918152374
40
0.336748500767964
40
0.465317083383553
40
0.593885665999143
40
0.658169957306937
40
0.722454248614732
40
0.851022831230321
40
0.97959141384591
40
1
40
1
40
1
40
1
41
1
10
68.4618373796094
20
-4.6700631701525
30
0
41
1
10
68.679650390661
20
-4.80064351248106
30
0
41
1
10
69.2504257042457
20
-5.13526229106296
30
0
41
1
10
70.1795943462081
20
-5.64498577695355
30
0
41
1
10
71.2535348072302
20
-6.17764341081889
30
0
41
1
10
72.3388443671861
20
-6.6530414214395
30
0
41
1
10
73.2539326627995
20
-6.99597861970273
30
0
41
1
10
73.9934628084367
20
-7.23538183068024
30
0
41
1
10
74.7380830734787
20
-7.45033639662313
30
0
41
1
10
75.6790357605349
20
-7.67113192976109
30
0
41
1
10
76.505042571343
20
-7.80226911839799
30
0
41
1
10
76.953161490164
20
-7.85270912517979
30
0
41
1
10
77.0146406402491
20
-7.85924015270464
30
0
0
SPLINE
5
175
100
AcDbEntity
8
1
62
256
6
ByLayer
370
18
48
1
60
0
100
AcDbSpline
70
4
71
3
72
33
73
29
40
0
40
0
40
0
40
0
40
0.031249999999951
40
0.0468749999999264
40
0.0468749999999264
40
0.0624999999999019
40
0.0624999999999019
40
0.0937499999999051
40
0.0937499999999051
40
0.124999999999908
40
0.124999999999908
40
0.156249999999911
40
0.156249999999911
40
0.187499999999915
40
0.187499999999915
40
0.249999999999921
40
0.249999999999921
40
0.312499999999927
40
0.312499999999927
40
0.374999999999934
40
0.374999999999934
40
0.499999999999947
40
0.499999999999947
40
0.62499999999996
40
0.62499999999996
40
0.749999999999974
40
0.749999999999974
40
1
40
1
40
1
40
1
41
1
10
77.0146406402446
20
-7.85924015270419
30
0
41
1
10
77.028939266906
20
-7.85679598143159
30
0
41
1
10
77.0499251456429
20
-7.85219190075574
30
0
41
1
10
77.0702049950376
20
-7.84617519286883
30
0
41
1
10
77.0835662490653
20
-7.84184871715189
30
0
41
1
10
77.0900397473617
20
-7.83956880407661
30
0
41
1
10
77.1087858420207
20
-7.83246380390253
30
0
41
1
10
77.1204460489756
20
-7.82735637006795
30
0
41
1
10
77.1424222104209
20
-7.81656210907667
30
0
41
1
10
77.1524644724243
20
-7.81101175896032
30
0
41
1
10
77.1710900145497
20
-7.79976303611252
30
0
41
1
10
77.179691998344
20
-7.79405191322411
30
0
41
1
10
77.1958223423231
20
-7.78250553216466
30
0
41
1
10
77.2033469637995
20
-7.7766666829952
30
0
41
1
10
77.2243054698955
20
-7.75931604188011
30
0
41
1
10
77.236330792418
20
-7.7478483780219
30
0
41
1
10
77.2580164918426
20
-7.72505157507103
30
0
41
1
10
77.2676515572442
20
-7.71372312574115
30
0
41
1
10
77.285259556609
20
-7.6911705229742
30
0
41
1
10
77.2932334775532
20
-7.6799325726644
30
0
41
1
10
77.3152284089829
20
-7.64643387321536
30
0
41
1
10
77.3272825825966
20
-7.62452801890151
30
0
41
1
10
77.3483075141589
20
-7.58121871005861
30
0
41
1
10
77.3572400990623
20
-7.55982078996996
30
0
41
1
10
77.3729600748911
20
-7.51735784203066
30
0
41
1
10
77.3797357726898
20
-7.49629457765499
30
0
41
1
10
77.3976657951587
20
-7.43344473896417
30
0
41
1
10
77.4064657059984
20
-7.39199050267041
30
0
41
1
10
77.4132866652955
20
-7.35072829835764
30
0
0
SPLINE
5
176
100
AcDbEntity
8
1
62
256
6
ByLayer
370
18
48
1
60
0
100
AcDbSpline
70
4
71
3
72
8
73
4
40
0
40
0
40
0
40
0
40
1
40
1
40
1
40
1
41
1
10
77.4132866652955
20
-7.35072829835764
30
0
41
1
10
77.4126692244631
20
-7.35016309204434
30
0
41
1
10
77.4120517992619
20
-7.34959764680565
30
0
41
1
10
77.4114343896914
20
-7.34903196264807
30
0
0
SPLINE
5
177
100
AcDbEntity
8
1
62
256
6
ByLayer
370
18
48
1
60
0
100
AcDbSpline
70
4
71
3
72
16
73
12
40
0
40
0
40
0
40
0
40
0.25000000000001
40
0.25000000000001
40
0.500000000000021
40
0.500000000000021
40
0.625000000000029
40
0.625000000000029
40
0.750000000000037
40
0.750000000000037
40
1
40
1
40
1
40
1
41
1
10
68.2915234068323
20
-4.96643123351282
30
0
41
1
10
68.3103738412009
20
-4.98738583722914
30
0
41
1
10
68.3281008722382
20
-5.00892546765829
30
0
41
1
10
68.361203528397
20
-5.05323024664671
30
0
41
1
10
68.3765938439475
20
-5.07598793612024
30
0
41
1
10
68.3977078001687
20
-5.11114947270587
30
0
41
1
10
68.4044466335304
20
-5.12310034947564
30
0
41
1
10
68.4170081466432
20
-5.14703180834721
30
0
41
1
10
68.4228311079109
20
-5.15900853922614
30
0
41
1
10
68.4388561708957
20
-5.19496835366289
30
0
41
1
10
68.4476246427009
20
-5.21898155578253
30
0
41
1
10
68.4540417374268
20
-5.24302219076384
30
0
0
SPLINE
5
178
100
AcDbEntity
8
1
62
256
6
ByLayer
370
18
48
1
60
0
100
AcDbSpline
70
4
71
3
72
32
73
28
40
0
40
0
40
0
40
0
40
0.12499999999992
40
0.12499999999992
40
0.156249999999893
40
0.156249999999893
40
0.187499999999866
40
0.187499999999866
40
0.249999999999811
40
0.249999999999811
40
0.312499999999756
40
0.312499999999756
40
0.343749999999728
40
0.343749999999728
40
0.3749999999997
40
0.3749999999997
40
0.437499999999644
40
0.437499999999644
40
0.453124999999639
40
0.453124999999639
40
0.468749999999633
40
0.468749999999633
40
0.49999999999965
40
0.49999999999965
40
0.749999999999825
40
0.749999999999825
40
1
40
1
40
1
40
1
41
1
10
68.2915234068323
20
-4.96643123351285
30
0
41
1
10
68.2616334547454
20
-4.9332048319971
30
0
41
1
10
68.229869207177
20
-4.90264969094471
30
0
41
1
10
68.1879788950467
20
-4.86759461089096
30
0
41
1
10
68.1794869430426
20
-4.86074732236844
30
0
41
1
10
68.1622680668576
20
-4.84739160466023
30
0
41
1
10
68.1535267052176
20
-4.84087308715482
30
0
41
1
10
68.1272485614411
20
-4.82206460804952
30
0
41
1
10
68.1095666895074
20
-4.81044947741091
30
0
41
1
10
68.073881282128
20
-4.78913475288289
30
0
41
1
10
68.0558769280854
20
-4.77943965488603
30
0
41
1
10
68.0286132073447
20
-4.76651415451514
30
0
41
1
10
68.0194424198891
20
-4.76246045941764
30
0
41
1
10
68.0012971220039
20
-4.75506245334611
30
0
41
1
10
67.9923059177705
20
-4.75170728093778
30
0
41
1
10
67.9655874856776
20
-4.74269751158937
30
0
41
1
10
67.9481168930909
20
-4.73810515603921
30
0
41
1
10
67.9267665076061
20
-4.73431677542047
30
0
41
1
10
67.9225227806344
20
-4.73366498449215
30
0
41
1
10
67.9140904241065
20
-4.73258129376342
30
0
41
1
10
67.9098954037005
20
-4.73212229397959
30
0
41
1
10
67.8972990459519
20
-4.73067765365786
30
0
41
1
10
67.8889045815222
20
-4.72970031339125
30
0
41
1
10
67.8133769497834
20
-4.72078502586902
30
0
41
1
10
67.7464118134829
20
-4.71208930727263
30
0
41
1
10
67.6128643697791
20
-4.69333227550595
30
0
41
1
10
67.5462664748626
20
-4.683226683714
30
0
41
1
10
67.479830935675
20
-4.67238488258309
30
0
0
SPLINE
5
179
100
AcDbEntity
8
1
62
256
6
ByLayer
370
18
48
1
60
0
100
AcDbSpline
70
4
71
3
72
16
73
12
40
0
40
0
40
0
40
0
40
0.249999999999991
40
0.249999999999991
40
0.499999999999982
40
0.499999999999982
40
0.624999999999974
40
0.624999999999974
40
0.749999999999966
40
0.749999999999966
40
1
40
1
40
1
40
1
41
1
10
52.2909206066492
20
5.56530663051041
30
0
41
1
10
52.3098398389395
20
5.56365784332817
30
0
41
1
10
52.3276318365888
20
5.56339795970513
30
0
41
1
10
52.3608577402525
20
5.56577652860318
30
0
41
1
10
52.3763059027574
20
5.56839622009264
30
0
41
1
10
52.3975002386017
20
5.57477287930067
30
0
41
1
10
52.4042649843672
20
5.57732303180379
30
0
41
1
10
52.4168708884456
20
5.58325110523819
30
0
41
1
10
52.4227140535525
20
5.58662693216735
30
0
41
1
10
52.4387934897548
20
5.59806532012851
30
0
41
1
10
52.447590339425
20
5.60742744948769
30
0
41
1
10
52.4540261652109
20
5.61897419013783
30
0
0
SPLINE
5
17A
100
AcDbEntity
8
1
62
256
6
ByLayer
370
13
48
1
60
0
100
AcDbSpline
70
4
71
3
72
23
73
19
40
0
40
0
40
0
40
0
40
0.0203238727254386
40
0.073666106149849
40
0.127008339574259
40
0.162569828523866
40
0.198131317473473
40
0.251473550897884
40
0.304815784322294
40
0.375938762221508
40
0.447061740120722
40
0.518184718019936
40
0.58930769591915
40
0.660430673818364
40
0.731553651717578
40
0.838238118566399
40
0.909361096465612
40
1
40
1
40
1
40
1
41
1
10
58.9286351610777
20
1.38808052018098
30
0
41
1
10
58.7857567740518
20
1.48563254755612
30
0
41
1
10
58.267878387026
20
1.8378929318132
30
0
41
1
10
57.3750000000001
20
2.43521968602113
30
0
41
1
10
56.375
20
3.08075406853058
30
0
41
1
10
55.5
20
3.62320993439627
30
0
41
0.999999999999999
10
54.625
20
4.14494937432127
30
0
41
1
10
53.6249999999999
20
4.70747461071755
30
0
41
1
10
52.375
20
5.35164198180988
30
0
41
1
10
51
20
5.97790515990269
30
0
41
1
10
49.5
20
6.54590211001306
30
0
41
1
10
48
20
6.98634434508932
30
0
41
1
10
46.5
20
7.28651886931175
30
0
41
1
10
45
20
7.44490517067575
30
0
41
1
10
43.25
20
7.46260974579656
30
0
41
1
10
41.5000000000001
20
7.26771024562754
30
0
41
1
10
39.6128015431045
20
6.82948857466212
30
0
41
1
10
38.4756030862089
20
6.45192590045386
30
0
41
1
10
37.8384046293134
20
6.20767422985364
30
0
0
SPLINE
5
17B
100
AcDbEntity
8
1
62
256
6
ByLayer
370
18
48
1
60
0
100
AcDbSpline
70
4
71
3
72
14
73
10
40
0
40
0
40
0
40
0
40
0.500000000000074
40
0.500000000000074
40
0.625000000000093
40
0.625000000000093
40
0.750000000000112
40
0.750000000000112
40
1
40
1
40
1
40
1
41
1
10
77.1196692229318
20
-7.99116619413346
30
0
41
1
10
77.1798573787317
20
-7.98809296849782
30
0
41
1
10
77.2400613737286
20
-7.97966120580446
30
0
41
1
10
77.3155132143206
20
-7.9612421175998
30
0
41
1
10
77.3306460295877
20
-7.95714970950195
30
0
41
1
10
77.3607680913843
20
-7.948168600461
30
0
41
1
10
77.3757383772831
20
-7.94328756450008
30
0
41
1
10
77.420374450279
20
-7.9274381081907
30
0
41
1
10
77.4497664505502
20
-7.91526770128408
30
0
41
1
10
77.4787754523182
20
-7.90135369376208
30
0
0
SPLINE
5
17C
100
AcDbEntity
8
1
62
256
6
ByLayer
370
18
48
1
60
0
100
AcDbSpline
70
4
71
3
72
25
73
21
40
0
40
0
40
0
40
0
40
0.25
40
0.25
40
0.281249999999999
40
0.281249999999999
40
0.312499999999999
40
0.312499999999999
40
0.375
40
0.375
40
0.5
40
0.5
40
0.625
40
0.625
40
0.65625
40
0.65625
40
0.6875
40
0.75
40
0.75
40
1
40
1
40
1
40
1
41
1
10
68.4540417374268
20
-5.24302219076381
30
0
41
1
10
69.1587674939449
20
-5.64073632527271
30
0
41
1
10
69.8610745670707
20
-6.00304418676583
30
0
41
1
10
70.6541819777378
20
-6.36553357481918
30
0
41
1
10
70.7423462649646
20
-6.40518404675467
30
0
41
1
10
70.9187761261518
20
-6.4832145730586
30
0
41
1
10
71.0070766464339
20
-6.52160930405483
30
0
41
1
10
71.2717974897789
20
-6.63470731328104
30
0
41
1
10
71.4480847811997
20
-6.70734735158794
30
0
41
1
10
71.9765790391667
20
-6.91688671249051
30
0
41
1
10
72.328409243156
20
-7.04541626312835
30
0
41
1
10
73.0322074872551
20
-7.27944394903918
30
0
41
1
10
73.3841786351392
20
-7.38494198348172
30
0
41
1
10
73.8250161840483
20
-7.50186907143825
30
0
41
1
10
73.9132516663487
20
-7.52451303132784
30
0
41
1
10
74.089724278807
20
-7.56826537946398
30
0
41
1
10
74.3542130723545
20
-7.63153677269514
30
0
41
1
10
74.6181341192894
20
-7.68773454780487
30
0
41
1
10
75.4970142184854
20
-7.85930757495973
30
0
41
1
10
76.1974086951636
20
-7.94624028615132
30
0
41
1
10
76.9000307743929
20
-7.9817480416686
30
0
0
SPLINE
5
17D
100
AcDbEntity
8
1
62
256
6
ByLayer
370
18
48
1
60
0
100
AcDbSpline
70
4
71
3
72
8
73
4
40
0
40
0
40
0
40
0
40
1
40
1
40
1
40
1
41
1
10
67.4660243400419
20
-4.61074522581708
30
0
41
1
10
67.4707415434021
20
-4.63129102195344
30
0
41
1
10
67.4753450563818
20
-4.6518369843792
30
0
41
1
10
67.479830935668
20
-4.67238488260273
30
0
0
SPLINE
5
17E
100
AcDbEntity
8
1
62
256
6
ByLayer
370
18
48
1
60
0
100
AcDbSpline
70
4
71
3
72
28
73
24
40
0
40
0
40
0
40
0
40
0.0284957006248233
40
0.063356696753303
40
0.133078689010262
40
0.167939685138742
40
0.202800681267222
40
0.272522673524181
40
0.307383669652661
40
0.34224466578114
40
0.4119666580381
40
0.446827654166579
40
0.481688650295059
40
0.516549646423539
40
0.551410642552018
40
0.586271638680498
40
0.621132634808978
40
0.690854627065937
40
0.830298611579856
40
0.865159607708336
40
0.900020603836815
40
0.969742596093775
40
1
40
1
40
1
40
1
41
1
10
52.4560891452082
20
5.66378966057451
30
0
41
1
10
52.5996083528447
20
5.58811817823744
30
0
41
1
10
52.9187133525294
20
5.41648294167871
30
0
41
1
10
53.5889803492746
20
5.04079937578308
30
0
41
1
10
54.2912380741156
20
4.6222682325764
30
0
41
1
10
54.993276520873
20
4.18211131351001
30
0
41
1
10
55.6951151601713
20
3.728624556076
30
0
41
1
10
56.3965891046804
20
3.25678120416674
30
0
41
1
10
57.097535775274
20
2.77023333978337
30
0
41
1
10
57.7980775093221
20
2.27508483032108
30
0
41
1
10
58.4979122637394
20
1.76888416924717
30
0
41
1
10
59.1967280992603
20
1.25558674298503
30
0
41
1
10
59.720249907266
20
0.86804148651936
30
0
41
1
10
60.2431277018803
20
0.478890886233302
30
0
41
1
10
60.7653398141275
20
0.0890930115692186
30
0
41
1
10
61.2868540235826
20
-0.300389790592561
30
0
41
1
10
61.9812029834603
20
-0.817990530213365
30
0
41
1
10
63.1940505882165
20
-1.71639611261551
30
0
41
1
10
64.4050682862659
20
-2.58948847021719
30
0
41
1
10
65.4455233605556
20
-3.30478636243299
30
0
41
1
10
66.1400523520443
20
-3.77189736367018
30
0
41
1
10
66.8133264242692
20
-4.20793114545927
30
0
41
1
10
67.3142486281535
20
-4.51814274044659
30
0
41
1
10
67.4660243400421
20
-4.6107452258172
30
0
0
SPLINE
5
17F
100
AcDbEntity
8
1
62
256
6
ByLayer
370
18
48
1
60
0
100
AcDbSpline
70
4
71
3
72
8
73
4
40
0
40
0
40
0
40
0
40
1
40
1
40
1
40
1
41
1
10
52.4560891452083
20
5.66378966057451
30
0
41
1
10
52.4554181469206
20
5.64884768963691
30
0
41
1
10
52.4547284060519
20
5.63390918445026
30
0
41
1
10
52.4540261652109
20
5.61897419013772
30
0
0
SPLINE
5
180
100
AcDbEntity
8
1
62
256
6
ByLayer
370
18
48
1
60
0
100
AcDbSpline
70
4
71
3
72
8
73
4
40
0
40
0
40
0
40
0
40
1
40
1
40
1
40
1
41
1
10
76.8914021419042
20
0.868834650817575
30
0
41
1
10
76.8942771385438
20
0.845125057965788
30
0
41
1
10
76.8971511356683
20
0.821413258406977
30
0
41
1
10
76.9000241295014
20
0.797699293242601
30
0
0
SPLINE
5
181
100
AcDbEntity
8
1
62
256
6
ByLayer
370
13
48
1
60
0
100
AcDbSpline
70
4
71
3
72
19
73
15
40
0
40
0
40
0
40
0
40
0.0496033836127606
40
0.187692848180112
40
0.325782312747464
40
0.463871777314815
40
0.567438875740329
40
0.671005974165842
40
0.740050706449518
40
0.809095438733194
40
0.860878987945951
40
0.912662537158708
40
0.964446086371464
40
1
40
1
40
1
40
1
41
1
10
76.0776358015764
20
1.38938266517198
30
0
41
1
10
75.7184238677176
20
1.62809468171895
30
0
41
1
10
74.3592119338588
20
2.52303227299097
30
0
41
1
10
72
20
3.99400010131612
30
0
41
1
10
69
20
5.56459470085704
30
0
41
1
10
66.25
20
6.63550147228048
30
0
41
1
10
63.75
20
7.23953476188952
30
0
41
0.999999999999999
10
61.75
20
7.45894872842468
30
0
41
1
10
60
20
7.45045874151771
30
0
41
1
10
58.625
20
7.31411051734119
30
0
41
1
10
57.375
20
7.09196874544475
30
0
41
1
10
56.2499999999999
20
6.81909497984259
30
0
41
1
10
55.2425298610584
20
6.51184355614117
30
0
41
1
10
54.6100597221167
20
6.2869268345525
30
0
41
1
10
54.3525895831751
20
6.19020024898777
30
0
0
SPLINE
5
182
100
AcDbEntity
8
1
62
256
6
ByLayer
370
18
48
1
60
0
100
AcDbSpline
70
4
71
3
72
8
73
4
40
0
40
0
40
0
40
0
40
1
40
1
40
1
40
1
41
1
10
77.4591137234368
20
0.403957746886903
30
0
41
1
10
77.5109880535828
20
0.386499312964901
30
0
41
1
10
77.5659986773858
20
0.368859938965471
30
0
41
1
10
77.6246946639801
20
0.351007947969947
30
0
0
SPLINE
5
183
100
AcDbEntity
8
1
62
256
6
ByLayer
370
18
48
1
60
0
100
AcDbSpline
70
4
71
3
72
36
73
32
40
0
40
0
40
0
40
0
40
0.0147737975441551
40
0.0299420164742267
40
0.0451102354042982
40
0.0646122311715331
40
0.0992824458688395
40
0.133952660566146
40
0.151287767914799
40
0.168622875263452
40
0.185957982612105
40
0.203293089960759
40
0.237963304658065
40
0.272633519355372
40
0.307303734052678
40
0.341973948749984
40
0.376644163447291
40
0.411314378144597
40
0.445984592841904
40
0.515325022236516
40
0.549995236933823
40
0.584665451631129
40
0.654005881025742
40
0.688676095723048
40
0.723346310420355
40
0.792686739814968
40
0.827356954512274
40
0.86202716920958
40
0.931367598604193
40
0.9660378133015
40
1
40
1
40
1
40
1
41
1
10
40.4558376654674
20
2.83951141242616
30
0
41
1
10
40.5301409689889
20
2.7862162858502
30
0
41
1
10
40.6807043010561
20
2.67778424175685
30
0
41
1
10
40.9074599770359
20
2.51321880293665
30
0
41
1
10
41.1578932207972
20
2.33014324541014
30
0
41
1
10
41.5061809912025
20
2.07356368413545
30
0
41
1
10
41.95214484816
20
1.74145687774129
30
0
41
1
10
42.3868761273513
20
1.41408792184634
30
0
41
1
10
42.7344503199731
20
1.15066509589641
30
0
41
1
10
42.9950254443605
20
0.952467204413921
30
0
41
1
10
43.2554929334432
20
0.753750202333265
30
0
41
1
10
43.602647893277
20
0.488268703433448
30
0
41
1
10
44.0363512148622
20
0.155736957676226
30
0
41
1
10
44.5564376186797
20
-0.243438147888355
30
0
41
1
10
45.0762100167733
20
-0.641726478159001
30
0
41
1
10
45.5956955117522
20
-1.03821703199705
30
0
41
1
10
46.114952661516
20
-1.43195651934045
30
0
41
1
10
46.6340274401155
20
-1.82202347240323
30
0
41
1
10
47.3259515678467
20
-2.33595905529481
30
0
41
1
10
48.0177209033596
20
-2.83881816720171
30
0
41
1
10
48.7095283928945
20
-3.32704708925621
30
0
41
1
10
49.4014206322975
20
-3.80437010832893
30
0
41
1
10
50.0935454862096
20
-4.26355062471518
30
0
41
1
10
50.7860454442276
20
-4.70129070860281
30
0
41
1
10
51.4788397876739
20
-5.12367870485011
30
0
41
1
10
52.1721546536005
20
-5.52138168403374
30
0
41
1
10
52.8660676852291
20
-5.89147680426782
30
0
41
1
10
53.5604021614099
20
-6.24224311457365
30
0
41
1
10
54.2554217631448
20
-6.56254972469102
30
0
41
1
10
54.9476551970525
20
-6.84852569544387
30
0
41
1
10
55.2922608392241
20
-6.97968173736211
30
0
41
1
10
55.4628518872149
20
-7.04177104392366
30
0
0
SPLINE
5
184
100
AcDbEntity
8
1
62
256
6
ByLayer
370
18
48
1
60
0
100
AcDbSpline
70
4
71
3
72
8
73
4
40
0
40
0
40
0
40
0
40
1
40
1
40
1
40
1
41
1
10
40.4558376654683
20
2.83951141242554
30
0
41
1
10
40.4551552120298
20
2.81961425603197
30
0
41
1
10
40.4544539305916
20
2.79971928908242
30
0
41
1
10
40.4537400888775
20
2.77982644046639
30
0
0
SPLINE
5
185
100
AcDbEntity
8
1
62
256
6
ByLayer
370
18
48
1
60
0
100
AcDbSpline
70
4
71
3
72
16
73
12
40
0
40
0
40
0
40
0
40
0.250000000000012
40
0.250000000000012
40
0.500000000000024
40
0.500000000000024
40
0.625000000000029
40
0.625000000000029
40
0.750000000000035
40
0.750000000000035
40
1
40
1
40
1
40
1
41
1
10
40.2875088523921
20
2.85173408522854
30
0
41
1
10
40.3067051531273
20
2.84109752458076
30
0
41
1
10
40.3247744689719
20
2.83146473453024
30
0
41
1
10
40.3585626299814
20
2.81428327128472
30
0
41
1
10
40.3742913750458
20
2.80672495019087
30
0
41
1
10
40.3959016778812
20
2.7971611902959
30
0
41
1
10
40.4028048581053
20
2.79425813488817
30
0
41
1
10
40.4156850769181
20
2.78919379778094
30
0
41
1
10
40.4216605352638
20
2.78703245931271
30
0
41
1
10
40.4381144908028
20
2.78173728841327
30
0
41
1
10
40.4471360910112
20
2.77977759905318
30
0
41
1
10
40.4537400888752
20
2.77982644045039
30
0
0
SPLINE
5
186
100
AcDbEntity
8
1
62
256
6
ByLayer
370
18
48
1
60
0
100
AcDbSpline
70
4
71
3
72
31
73
27
40
0
40
0
40
0
40
0
40
0.0625000000000627
40
0.0625000000000627
40
0.125000000000126
40
0.125000000000126
40
0.156250000000142
40
0.156250000000142
40
0.187500000000158
40
0.187500000000158
40
0.25000000000019
40
0.25000000000019
40
0.312500000000222
40
0.312500000000222
40
0.343750000000223
40
0.343750000000223
40
0.375000000000224
40
0.437500000000226
40
0.437500000000226
40
0.468750000000227
40
0.468750000000227
40
0.500000000000227
40
0.500000000000227
40
0.750000000000114
40
0.750000000000114
40
1
40
1
40
1
40
1
41
1
10
40.2875088523921
20
2.85173408522854
30
0
41
1
10
40.2725017765254
20
2.86004942029246
30
0
41
1
10
40.257031563662
20
2.86886680649533
30
0
41
1
10
40.2252140171834
20
2.88747302751142
30
0
41
1
10
40.2088795119443
20
2.8972459973659
30
0
41
1
10
40.183719925194
20
2.91265721290708
30
0
41
1
10
40.1752217850288
20
2.91792206704255
30
0
41
1
10
40.1579970440278
20
2.92871840253721
30
0
41
1
10
40.1492693784501
20
2.93425091895128
30
0
41
1
10
40.1230405471353
20
2.95107265107961
30
0
41
1
10
40.1053946735392
20
2.9626476315556
30
0
41
1
10
40.0697873411907
20
2.98658235476759
30
0
41
1
10
40.0518247088171
20
2.99894475489697
30
0
41
1
10
40.0246282544091
20
3.01818365535246
30
0
41
1
10
40.0154855046025
20
3.0247390288896
30
0
41
1
10
39.9974137178825
20
3.0378894167489
30
0
41
1
10
39.9705483921916
20
3.05772712173427
30
0
41
1
10
39.944444761303
20
3.07792820116879
30
0
41
1
10
39.9189343067622
20
3.09842604118089
30
0
41
1
10
39.9105628715172
20
3.10532357614724
30
0
41
1
10
39.8937832617833
20
3.11911131537784
30
0
41
1
10
39.8853967110442
20
3.12601100059575
30
0
41
1
10
39.8099417462441
20
3.18816722117319
30
0
41
1
10
39.7430529072108
20
3.24385057941677
30
0
41
1
10
39.6096700742369
20
3.35606623374332
30
0
41
1
10
39.5431619966532
20
3.41259746978383
30
0
41
1
10
39.476823306515
20
3.46954085438671
30
0
0
SPLINE
5
187
100
AcDbEntity
8
1
62
256
6
ByLayer
370
13
48
1
60
0
100
AcDbSpline
70
4
71
3
72
12
73
8
40
0
40
0
40
0
40
0
40
0.0271958168919365
40
0.270396862668953
40
0.513597908445968
40
0.756798954222984
40
1
40
1
40
1
40
1
41
1
10
42.3354732723913
20
1.38894907047103
30
0
41
1
10
42.2236488482609
20
1.46740708136338
30
0
41
1
10
41.1118244241304
20
2.24503266442929
30
0
41
1
10
39.0000000000001
20
3.66793382328575
30
0
41
1
10
36
20
5.39409533613079
30
0
41
1
10
33
20
6.66698192601433
30
0
41
1
10
31
20
7.1582968916779
30
0
41
1
10
30
20
7.30051904492876
30
0
0
SPLINE
5
188
100
AcDbEntity
8
1
62
256
6
ByLayer
370
18
48
1
60
0
100
AcDbSpline
70
4
71
3
72
8
73
4
40
0
40
0
40
0
40
0
40
1
40
1
40
1
40
1
41
1
10
77.41625549709
20
2.50243832246756
30
0
41
1
10
77.414711738203
20
2.50304306380519
30
0
41
1
10
77.4131630130811
20
2.50365304451697
30
0
41
1
10
77.4116093332967
20
2.50426825209101
30
0
0
SPLINE
5
189
100
AcDbEntity
8
1
62
256
6
ByLayer
370
18
48
1
60
0
100
AcDbSpline
70
4
71
3
72
8
73
4
40
0
40
0
40
0
40
0
40
1
40
1
40
1
40
1
41
1
10
77.3122039556563
20
2.68744114055937
30
0
41
1
10
77.3461192352706
20
2.62791877799259
30
0
41
1
10
77.380787407094
20
2.56629492070363
30
0
41
1
10
77.4162554970971
20
2.50243832246378
30
0
0
SPLINE
5
18A
100
AcDbEntity
8
1
62
256
6
ByLayer
370
13
48
1
60
0
100
AcDbSpline
70
4
71
3
72
8
73
4
40
0
40
0
40
0
40
0
40
1
40
1
40
1
40
1
41
1
10
77.3122039566679
20
2.68744114206382
30
0
41
1
10
76.5554549879529
20
3.1468445355224
30
0
41
1
10
75.7987060192378
20
3.58717184429142
30
0
41
1
10
75.0419570505228
20
3.99904156388649
30
0
0
SPLINE
5
18B
100
AcDbEntity
8
1
62
256
6
ByLayer
370
13
48
1
60
0
100
AcDbSpline
70
4
71
3
72
9
73
5
40
0
40
0
40
0
40
0
40
0.508222304403618
40
1
40
1
40
1
40
1
41
1
10
33.0501586660635
20
-6.86053422116856
30
0
41
1
10
32.533439110709
20
-6.96380101055072
30
0
41
1
10
31.5167195553545
20
-7.12242963548704
30
0
41
1
10
30.5
20
-7.18981908735574
30
0
41
1
10
30.0000000000001
20
-7.20077098259674
30
0
0
SPLINE
5
18C
100
AcDbEntity
8
1
62
256
6
ByLayer
370
18
48
1
60
0
100
AcDbSpline
70
4
71
3
72
10
73
6
40
0
40
0
40
0
40
0
40
0.5
40
0.5
40
1
40
1
40
1
40
1
41
1
10
31.4908529913494
20
-7.51969737824354
30
0
41
1
10
31.2432900569495
20
-7.55580128970556
30
0
41
1
10
30.9953257923506
20
-7.58625672621699
30
0
41
1
10
30.4984643285397
20
-7.63544304152222
30
0
41
1
10
30.2495448932265
20
-7.65426812275925
30
0
41
1
10
30.0000000000001
20
-7.66730057567491
30
0
0
SPLINE
5
18D
100
AcDbEntity
8
1
62
256
6
ByLayer
370
18
48
1
60
0
100
AcDbSpline
70
4
71
3
72
49
73
45
40
0
40
0
40
0
40
0
40
0.24999999999961
40
0.24999999999961
40
0.312499999999519
40
0.312499999999519
40
0.343749999999473
40
0.359374999999463
40
0.359374999999463
40
0.374999999999452
40
0.374999999999452
40
0.390624999999442
40
0.390624999999442
40
0.406249999999432
40
0.406249999999432
40
0.437499999999411
40
0.437499999999411
40
0.46874999999939
40
0.46874999999939
40
0.484374999999393
40
0.484374999999393
40
0.499999999999395
40
0.499999999999395
40
0.562499999999477
40
0.562499999999477
40
0.593749999999519
40
0.593749999999519
40
0.62499999999956
40
0.62499999999956
40
0.687499999999663
40
0.687499999999663
40
0.718749999999705
40
0.718749999999705
40
0.749999999999747
40
0.749999999999747
40
0.812499999999816
40
0.812499999999816
40
0.874999999999885
40
0.874999999999885
40
0.906249999999914
40
0.906249999999914
40
0.937499999999943
40
0.937499999999943
40
1
40
1
40
1
40
1
41
1
10
31.4908529913495
20
-7.51969737824382
30
0
41
1
10
31.5869410915434
20
-7.45167534728566
30
0
41
1
10
31.6832013038639
20
-7.38350780232608
30
0
41
1
10
31.8038064941687
20
-7.29824153747711
30
0
41
1
10
31.8279426693496
20
-7.28118926046534
30
0
41
1
10
31.8641630496725
20
-7.25559887201223
30
0
41
1
10
31.8822768420101
20
-7.24279985365874
30
0
41
1
10
31.9003933358496
20
-7.22998969703363
30
0
41
1
10
31.9124712524837
20
-7.22144642432411
30
0
41
1
10
31.9185044675489
20
-7.21716172983216
30
0
41
1
10
31.9308298373209
20
-7.20909271655407
30
0
41
1
10
31.9370931593323
20
-7.20525235628648
30
0
41
1
10
31.9498015686137
20
-7.19792274024462
30
0
41
1
10
31.9562769942414
20
-7.19442543019329
30
0
41
1
10
31.9757914374641
20
-7.18457920235937
30
0
41
1
10
31.9887583381625
20
-7.17893361326944
30
0
41
1
10
32.0146111392747
20
-7.16918593683329
30
0
41
1
10
32.027496685877
20
-7.16509085178245
30
0
41
1
10
32.046764416226
20
-7.15997197613996
30
0
41
1
10
32.0531980401732
20
-7.15843318711987
30
0
41
1
10
32.0658967992815
20
-7.15571512724114
30
0
41
1
10
32.0721704960468
20
-7.15453289327377
30
0
41
1
10
32.1031914018412
20
-7.14942476456577
30
0
41
1
10
32.1269190920542
20
-7.1478503392145
30
0
41
1
10
32.1611959570947
20
-7.14839356132313
30
0
41
1
10
32.172432412171
20
-7.14907013162386
30
0
41
1
10
32.1941382575343
20
-7.15128579545654
30
0
41
1
10
32.2046497136517
20
-7.15282440203202
30
0
41
1
10
32.235292342886
20
-7.15854935727441
30
0
41
1
10
32.2545461662651
20
-7.16382547518018
30
0
41
1
10
32.2817882078068
20
-7.1737470424205
30
0
41
1
10
32.2905963380391
20
-7.17738818602365
30
0
41
1
10
32.3077111239553
20
-7.18527923347972
30
0
41
1
10
32.3160066361856
20
-7.1895310238213
30
0
41
1
10
32.3398581910949
20
-7.20303230837109
30
0
41
1
10
32.3544794939863
20
-7.21307823747472
30
0
41
1
10
32.3813289438746
20
-7.2351307290717
30
0
41
1
10
32.3935502387698
20
-7.24714327259164
30
0
41
1
10
32.4100422943708
20
-7.26669096275526
30
0
41
1
10
32.4152302972715
20
-7.27346412406223
30
0
41
1
10
32.4249528924611
20
-7.28755985153674
30
0
41
1
10
32.4294959858282
20
-7.29489571697599
30
0
41
1
10
32.4419680743896
20
-7.31757269681052
30
0
41
1
10
32.4487751100596
20
-7.33363531013924
30
0
41
1
10
32.4539072704366
20
-7.35077993315886
30
0
0
SPLINE
5
18E
100
AcDbEntity
8
1
62
256
6
ByLayer
370
18
48
1
60
0
100
AcDbSpline
70
4
71
3
72
16
73
12
40
0
40
0
40
0
40
0
40
0.0362219040083269
40
0.0362219040083269
40
0.357481269338884
40
0.357481269338884
40
0.678740634669442
40
0.678740634669442
40
0.839370317334721
40
0.839370317334721
40
1
40
1
40
1
40
1
41
1
10
35.378270009449
20
-6.50094343282163
30
0
41
1
10
35.3427521052295
20
-6.51419056497696
30
0
41
1
10
35.3072473260987
20
-6.52733049537559
30
0
41
1
10
34.9569713152234
20
-6.65594556090332
30
0
41
1
10
34.6432601108934
20
-6.76290727679546
30
0
41
1
10
34.0167250083158
20
-6.96029058039687
30
0
41
1
10
33.7039543864115
20
-7.0506457587812
30
0
41
1
10
33.2350903155155
20
-7.17316751570996
30
0
41
1
10
33.07885292211
20
-7.21182950514316
30
0
41
1
10
32.7664077544031
20
-7.28463952797708
30
0
41
1
10
32.610193655049
20
-7.31880093772798
30
0
41
1
10
32.4539072704387
20
-7.35077993315198
30
0
0
SPLINE
5
18F
100
AcDbEntity
8
1
62
256
6
ByLayer
370
18
48
1
60
0
100
AcDbSpline
70
4
71
3
72
12
73
8
40
0
40
0
40
0
40
0
40
0.423108849736605
40
0.423108849736605
40
0.84621769947321
40
0.84621769947321
40
1
40
1
40
1
40
1
41
1
10
64.4620250112652
20
7.68538894834933
30
0
41
1
10
64.4600374754937
20
7.68480309661936
30
0
41
1
10
64.4575004619912
20
7.68424331679151
30
0
41
1
10
64.4531940927855
20
7.68284166782198
30
0
41
1
10
64.4514123463032
20
7.68200685386046
30
0
41
1
10
64.450132931056
20
7.68068391241505
30
0
41
1
10
64.4499037602976
20
7.68031394671701
30
0
41
1
10
64.449788713645
20
7.67993077882804
30
0
0
SPLINE
5
190
100
AcDbEntity
8
1
62
256
6
ByLayer
370
18
48
1
60
0
100
AcDbSpline
70
4
71
3
72
20
73
16
40
0
40
0
40
0
40
0
40
0.0394506171064371
40
0.211772554970277
40
0.297933523902197
40
0.384094492834116
40
0.470255461766036
40
0.556416430697956
40
0.642577399629876
40
0.728738368561796
40
0.771818853027756
40
0.814899337493716
40
0.901060306425636
40
0.987221275357555
40
1
40
1
40
1
40
1
41
1
10
64.462025011266
20
7.68538894834919
30
0
41
1
10
64.6214273812668
20
7.65643382229959
30
0
41
1
10
65.476986685992
20
7.48800151508499
30
0
41
1
10
66.680840290815
20
7.15413190078624
30
0
41
1
10
68.080708657742
20
6.63867590370322
30
0
41
1
10
69.1358419983353
20
6.18913463247756
30
0
41
1
10
70.1980983912215
20
5.67928737325576
30
0
41
1
10
71.2691829256347
20
5.11172861261298
30
0
41
1
10
72.3511915726222
20
4.48947956738959
30
0
41
1
10
73.2634154762437
20
3.9280172327291
30
0
41
1
10
74.0007152784046
20
3.45507899222312
30
0
41
1
10
74.743198623635
20
2.96690493991187
30
0
41
1
10
75.6817835149715
20
2.32981352302036
30
0
41
1
10
76.5023378508428
20
1.7552899725363
30
0
41
1
10
76.9458438443821
20
1.4410221185654
30
0
41
1
10
77.0032089391835
20
1.40031542360359
30
0
0
SPLINE
5
191
100
AcDbEntity
8
1
62
256
6
ByLayer
370
18
48
1
60
0
100
AcDbSpline
70
4
71
3
72
37
73
33
40
0
40
0
40
0
40
0
40
0.0312500000001183
40
0.0312500000001183
40
0.0468750000001488
40
0.0468750000001488
40
0.0625000000001793
40
0.0781250000002098
40
0.0781250000002098
40
0.0937500000002403
40
0.0937500000002403
40
0.125000000000255
40
0.125000000000255
40
0.15625000000027
40
0.15625000000027
40
0.187500000000284
40
0.187500000000284
40
0.250000000000284
40
0.250000000000284
40
0.281250000000272
40
0.281250000000272
40
0.31250000000026
40
0.31250000000026
40
0.375000000000236
40
0.375000000000236
40
0.500000000000189
40
0.500000000000189
40
0.625000000000141
40
0.625000000000141
40
0.750000000000094
40
0.750000000000094
40
1
40
1
40
1
40
1
41
1
10
77.0032089391712
20
1.40031542361243
30
0
41
1
10
77.0176089771157
20
1.39842418246599
30
0
41
1
10
77.0318235729161
20
1.3981319946017
30
0
41
1
10
77.0528493764796
20
1.40030033659926
30
0
41
1
10
77.0598584666011
20
1.40147185051146
30
0
41
1
10
77.073471173439
20
1.40464356136266
30
0
41
1
10
77.0866872407013
20
1.40862717706497
30
0
41
1
10
77.0991768050951
20
1.4141033123023
30
0
41
1
10
77.1113320833614
20
1.42026853249664
30
0
41
1
10
77.1172354573872
20
1.42369744001536
30
0
41
1
10
77.1341305618047
20
1.43467607156748
30
0
41
1
10
77.1444611281739
20
1.44297908503336
30
0
41
1
10
77.1637485456063
20
1.46104166607813
30
0
41
1
10
77.1727439556651
20
1.47086364327254
30
0
41
1
10
77.1893640987288
20
1.49125499883749
30
0
41
1
10
77.1970205231312
20
1.50184264579866
30
0
41
1
10
77.2185343976566
20
1.53448228656626
30
0
41
1
10
77.2309615121478
20
1.55739617978887
30
0
41
1
10
77.2478034624477
20
1.59285864561429
30
0
41
1
10
77.253109841652
20
1.60487284088592
30
0
41
1
10
77.2631333620848
20
1.62901083864247
30
0
41
1
10
77.2678635504975
20
1.6411620129559
30
0
41
1
10
77.2813606699096
20
1.67781856788483
30
0
41
1
10
77.2894417389311
20
1.70252482139355
30
0
41
1
10
77.3117133960631
20
1.77722334500626
30
0
41
1
10
77.3239694521619
20
1.82778468452415
30
0
41
1
10
77.3453712601525
20
1.92982189429375
30
0
41
1
10
77.3544814380237
20
1.981307896544
30
0
41
1
10
77.3705236312072
20
2.08491293367845
30
0
41
1
10
77.377447861508
20
2.13706912850228
30
0
41
1
10
77.3957367981511
20
2.29387728982809
30
0
41
1
10
77.4046814790061
20
2.39893145525633
30
0
41
1
10
77.4116093332967
20
2.50426825209101
30
0
0
SPLINE
5
192
100
AcDbEntity
8
1
62
256
6
ByLayer
370
18
48
1
60
0
100
AcDbSpline
70
4
71
3
72
36
73
32
40
0
40
0
40
0
40
0
40
0.125865322521817
40
0.125865322521817
40
0.188797983782726
40
0.188797983782726
40
0.204531149097955
40
0.204531149097955
40
0.220264314413184
40
0.251730645043641
40
0.251730645043641
40
0.314663306304557
40
0.314663306304557
40
0.377595967565472
40
0.377595967565472
40
0.5034612900873
40
0.5034612900873
40
0.629326612609129
40
0.629326612609129
40
0.660792943239585
40
0.676526108554813
40
0.676526108554813
40
0.692259273870041
40
0.692259273870041
40
0.755191935130951
40
0.755191935130951
40
0.818124596391861
40
0.818124596391861
40
0.881057257652772
40
0.881057257652772
40
1
40
1
40
1
40
1
41
1
10
77.4116093332967
20
2.50426825209101
30
0
41
1
10
76.8684032417408
20
2.86286156350249
30
0
41
1
10
76.3264250759809
20
3.21156229681856
30
0
41
1
10
75.5122351879571
20
3.71599006833645
30
0
41
1
10
75.2406333003082
20
3.88102768081615
30
0
41
1
10
74.9005659245167
20
4.08302248970139
30
0
41
1
10
74.8325268279657
20
4.12320454279774
30
0
41
1
10
74.6966178480296
20
4.20299319228951
30
0
41
1
10
74.4929211145497
20
4.32186482109867
30
0
41
1
10
74.2896930109158
20
4.43827361448302
30
0
41
1
10
73.8837739188762
20
4.66772643872784
30
0
41
1
10
73.6138825252821
20
4.81620350107886
30
0
41
1
10
73.0749945911402
20
5.10378309807984
30
0
41
1
10
72.8060023508264
20
5.24288422321413
30
0
41
1
10
71.9996767397766
20
5.6453619067498
30
0
41
1
10
71.4629379002939
20
5.89382670889404
30
0
41
1
10
70.3874486832375
20
6.34811357365535
30
0
41
1
10
69.848800131939
20
6.55390237054391
30
0
41
1
10
69.1720914592998
20
6.78192478503513
30
0
41
1
10
68.9688178454611
20
6.84813969546585
30
0
41
1
10
68.7650756574438
20
6.91098076888076
30
0
41
1
10
68.6291346078191
20
6.95211418339107
30
0
41
1
10
68.5611061886982
20
6.97230047191547
30
0
41
1
10
68.221456496574
20
7.07107832092049
30
0
41
1
10
67.9506832554126
20
7.14338822714299
30
0
41
1
10
67.4104171883986
20
7.2745459914845
30
0
41
1
10
67.1409024871252
20
7.33341171772244
30
0
41
1
10
66.6026237172147
20
7.43786172310755
30
0
41
1
10
66.3338697639697
20
7.48343525335261
30
0
41
1
10
65.5577250072838
20
7.59577301484808
30
0
41
1
10
65.0508373228732
20
7.64534539355506
30
0
41
1
10
64.5434887903311
20
7.67025850899981
30
0
0
SPLINE
5
193
100
AcDbEntity
8
1
62
256
6
ByLayer
370
18
48
1
60
0
100
AcDbSpline
70
4
71
3
72
34
73
30
40
0
40
0
40
0
40
0
40
0.146775516551673
40
0.146775516551673
40
0.220163274827511
40
0.220163274827511
40
0.293551033103349
40
0.293551033103349
40
0.366938791379187
40
0.366938791379187
40
0.385285730948148
40
0.385285730948148
40
0.403632670517108
40
0.403632670517108
40
0.440326549655032
40
0.440326549655032
40
0.513714307930884
40
0.513714307930884
40
0.587102066206736
40
0.587102066206736
40
0.660489824482588
40
0.660489824482588
40
0.73387758275844
40
0.73387758275844
40
0.807265341034291
40
0.807265341034291
40
0.880653099310143
40
0.880653099310143
40
1
40
1
40
1
40
1
41
1
10
39.4853019987061
20
5.10532203069062
30
0
41
1
10
39.0915780282618
20
5.3225309961617
30
0
41
1
10
38.6981535866169
20
5.52870301650432
30
0
41
1
10
38.1068439433877
20
5.82011977844869
30
0
41
1
10
37.909543158001
20
5.91429230111504
30
0
41
1
10
37.5143138530533
20
6.09641245725183
30
0
41
1
10
37.3163887595696
20
6.18433965536011
30
0
41
1
10
36.9197418884376
20
6.35354622216664
30
0
41
1
10
36.7209911608197
20
6.43491244387172
30
0
41
1
10
36.4718776453877
20
6.53248297315668
30
0
41
1
10
36.4220213639105
20
6.55178955312107
30
0
41
1
10
36.3222383549066
20
6.58998402462285
30
0
41
1
10
36.2722883124231
20
6.60888053208561
30
0
41
1
10
36.1225674259642
20
6.6648470476662
30
0
41
1
10
36.0228945723436
20
6.70120735370526
30
0
41
1
10
35.7242664736813
20
6.80742066575598
30
0
41
1
10
35.5256883989963
20
6.8744355912489
30
0
41
1
10
35.1294920808734
20
7.00050955576495
30
0
41
1
10
34.9319329156237
20
7.0594325245973
30
0
41
1
10
34.5373341899466
20
7.16967403978992
30
0
41
1
10
34.3403289920931
20
7.22092849061841
30
0
41
1
10
33.9466721635631
20
7.31570402914355
30
0
41
1
10
33.7500164400851
20
7.35923887825973
30
0
41
1
10
33.3568713802191
20
7.43842968203026
30
0
41
1
10
33.1603832119636
20
7.47408469259884
30
0
41
1
10
32.7674329472033
20
7.53709651898592
30
0
41
1
10
32.5709553076696
20
7.56448662141884
30
0
41
1
10
32.0544718041844
20
7.6260264606955
30
0
41
1
10
31.7341690686133
20
7.65361494849682
30
0
41
1
10
31.4129711780592
20
7.67032665926547
30
0
0
SPLINE
5
194
100
AcDbEntity
8
1
62
256
6
ByLayer
370
18
48
1
60
0
100
AcDbSpline
70
4
71
3
72
47
73
43
40
0
40
0
40
0
40
0
40
0.25000000000021
40
0.25000000000021
40
0.312500000000263
40
0.312500000000263
40
0.343750000000278
40
0.359375000000274
40
0.359375000000274
40
0.37500000000027
40
0.37500000000027
40
0.390625000000267
40
0.390625000000267
40
0.406250000000263
40
0.406250000000263
40
0.437500000000256
40
0.437500000000256
40
0.468750000000249
40
0.468750000000249
40
0.500000000000242
40
0.500000000000242
40
0.562500000000227
40
0.562500000000227
40
0.59375000000021
40
0.59375000000021
40
0.625000000000192
40
0.625000000000192
40
0.687500000000156
40
0.687500000000156
40
0.718750000000138
40
0.718750000000138
40
0.75000000000012
40
0.75000000000012
40
0.812500000000085
40
0.812500000000085
40
0.875000000000049
40
0.875000000000049
40
0.906250000000037
40
0.906250000000037
40
0.937500000000025
40
0.937500000000025
40
1
40
1
40
1
40
1
41
1
10
39.4853019987061
20
5.10532203069002
30
0
41
1
10
39.5825448661951
20
5.03841113628184
30
0
41
1
10
39.6800160123183
20
4.97261026970054
30
0
41
1
10
39.8022077070244
20
4.8918553439174
30
0
41
1
10
39.8266642735559
20
4.87577971919728
30
0
41
1
10
39.8633709694527
20
4.85178159336411
30
0
41
1
10
39.8817293310763
20
4.8398113975496
30
0
41
1
10
39.9000926393285
20
4.82788515137719
30
0
41
1
10
39.9123356146607
20
4.81994417277809
30
0
41
1
10
39.9184443873905
20
4.81597996466471
30
0
41
1
10
39.9309046999273
20
4.80803822903414
30
0
41
1
10
39.9372327796676
20
4.80406271722552
30
0
41
1
10
39.9500616111138
20
4.79610236790487
30
0
41
1
10
39.956590899889
20
4.79210214976953
30
0
41
1
10
39.9760790404403
20
4.78030389124274
30
0
41
1
10
39.9890338709612
20
4.7726444987282
30
0
41
1
10
40.0148709337852
20
4.75765897875991
30
0
41
1
10
40.02775284429
20
4.75033442042022
30
0
41
1
10
40.0534424881603
20
4.7359671237017
30
0
41
1
10
40.0661009052113
20
4.72900884466205
30
0
41
1
10
40.1031055586415
20
4.70895305322992
30
0
41
1
10
40.1267288016682
20
4.69652699847484
30
0
41
1
10
40.1608892623533
20
4.6789396791834
30
0
41
1
10
40.1720574867953
20
4.67325752996229
30
0
41
1
10
40.1936355925134
20
4.66239158128678
30
0
41
1
10
40.204095476395
20
4.65718233430141
30
0
41
1
10
40.2346115685314
20
4.64212597524499
30
0
41
1
10
40.2538203130842
20
4.6328379730117
30
0
41
1
10
40.2810401275542
20
4.61992966205938
30
0
41
1
10
40.289847151793
20
4.61579814729762
30
0
41
1
10
40.3069709926351
20
4.6078446800594
30
0
41
1
10
40.3152658017533
20
4.60403365412958
30
0
41
1
10
40.3391481700618
20
4.59318430016984
30
0
41
1
10
40.3538212564736
20
4.58668980133177
30
0
41
1
10
40.380813962315
20
4.57510024742928
30
0
41
1
10
40.3931284278464
20
4.57000856499164
30
0
41
1
10
40.4097816198995
20
4.56347713052452
30
0
41
1
10
40.4150275211185
20
4.56148580111275
30
0
41
1
10
40.42487131686
20
4.55790478163942
30
0
41
1
10
40.429479445569
20
4.55631137313173
30
0
41
1
10
40.442155387207
20
4.55222114011644
30
0
41
1
10
40.4491030912278
20
4.55040353398644
30
0
41
1
10
40.4543638476633
20
4.54964881790769
30
0
0
SPLINE
5
195
100
AcDbEntity
8
1
62
256
6
ByLayer
370
18
48
1
60
0
100
AcDbSpline
70
4
71
3
72
49
73
45
40
0
40
0
40
0
40
0
40
0.24999999999994
40
0.24999999999994
40
0.312499999999926
40
0.312499999999926
40
0.343749999999919
40
0.359374999999915
40
0.359374999999915
40
0.374999999999911
40
0.374999999999911
40
0.390624999999908
40
0.390624999999908
40
0.406249999999904
40
0.406249999999904
40
0.437499999999921
40
0.437499999999921
40
0.468749999999938
40
0.468749999999938
40
0.484374999999934
40
0.484374999999934
40
0.499999999999931
40
0.499999999999931
40
0.562499999999942
40
0.562499999999942
40
0.593749999999948
40
0.593749999999948
40
0.624999999999954
40
0.624999999999954
40
0.687499999999945
40
0.687499999999945
40
0.71874999999995
40
0.71874999999995
40
0.749999999999954
40
0.749999999999954
40
0.812499999999964
40
0.812499999999964
40
0.874999999999973
40
0.874999999999973
40
0.906249999999978
40
0.906249999999978
40
0.937499999999983
40
0.937499999999983
40
1
40
1
40
1
40
1
41
1
10
55.4856422949623
20
-5.56159182176722
30
0
41
1
10
55.5828817614552
20
-5.5382863851699
30
0
41
1
10
55.6803457998175
20
-5.51307070293549
30
0
41
1
10
55.8025238937108
20
-5.47924973193383
30
0
41
1
10
55.8269775584867
20
-5.47237677647408
30
0
41
1
10
55.8636796237731
20
-5.46187963039483
30
0
41
1
10
55.8820356023487
20
-5.45658248441779
30
0
41
1
10
55.900396431797
20
-5.45120200239651
30
0
41
1
10
55.9126377339883
20
-5.44759514870279
30
0
41
1
10
55.9187461873681
20
-5.44573497552102
30
0
41
1
10
55.9312061983378
20
-5.44289258365799
30
0
41
1
10
55.9375338781635
20
-5.44182244279062
30
0
41
1
10
55.950361722035
20
-5.4403047736472
30
0
41
1
10
55.9568909408616
20
-5.4398701909931
30
0
41
1
10
55.9763794970075
20
-5.43953539349076
30
0
41
1
10
55.9893333656417
20
-5.44056311160969
30
0
41
1
10
56.0151664189973
20
-5.44473920205866
30
0
41
1
10
56.0280452741552
20
-5.44789737502956
30
0
41
1
10
56.0473065528878
20
-5.45405568349494
30
0
41
1
10
56.0537069028
20
-5.45634482792036
30
0
41
1
10
56.0663187431259
20
-5.46130636447907
30
0
41
1
10
56.0725520479992
20
-5.4639862275292
30
0
41
1
10
56.103383766854
20
-5.47829699830098
30
0
41
1
10
56.1270003076257
20
-5.49259795455242
30
0
41
1
10
56.161148659803
20
-5.51742716275186
30
0
41
1
10
56.1723157018709
20
-5.52627807715479
30
0
41
1
10
56.1938910022082
20
-5.5447162166133
30
0
41
1
10
56.2043492169455
20
-5.55434156113762
30
0
41
1
10
56.2348597590787
20
-5.58427665948028
30
0
41
1
10
56.2540640503106
20
-5.60562509880404
30
0
41
1
10
56.281276624936
20
-5.63958836934617
30
0
41
1
10
56.290081152447
20
-5.65123381224345
30
0
41
1
10
56.3071999096845
20
-5.67511938048929
30
0
41
1
10
56.315495789283
20
-5.68734242161653
30
0
41
1
10
56.339378303216
20
-5.72446825245873
30
0
41
1
10
56.3540508677409
20
-5.74996350995602
30
0
41
1
10
56.381041881464
20
-5.80235884263189
30
0
41
1
10
56.3933551635537
20
-5.82926205448069
30
0
41
1
10
56.4100064243446
20
-5.87070644877349
30
0
41
1
10
56.415251655076
20
-5.88470412359371
30
0
41
1
10
56.4250941215547
20
-5.91308898907707
30
0
41
1
10
56.4297020993986
20
-5.92750859611294
30
0
41
1
10
56.442379741427
20
-5.97100772252108
30
0
41
1
10
56.4493279981591
20
-6.00039633533433
30
0
41
1
10
56.4545888740816
20
-6.03022294228953
30
0
0
SPLINE
5
196
100
AcDbEntity
8
1
62
256
6
ByLayer
370
18
48
1
60
0
100
AcDbSpline
70
4
71
3
72
44
73
40
40
0
40
0
40
0
40
0
40
0.125252856682858
40
0.125252856682858
40
0.198148451959287
40
0.198148451959287
40
0.234596249597502
40
0.234596249597502
40
0.25282014841661
40
0.25282014841661
40
0.271044047235718
40
0.271044047235718
40
0.416835237788581
40
0.416835237788581
40
0.453283035426796
40
0.453283035426796
40
0.48973083306501
40
0.48973083306501
40
0.562626428341439
40
0.562626428341439
40
0.599074225979652
40
0.599074225979652
40
0.635522023617865
40
0.635522023617865
40
0.708417618894292
40
0.708417618894292
40
0.726641517713398
40
0.726641517713398
40
0.744865416532505
40
0.744865416532505
40
0.781313214170718
40
0.781313214170718
40
0.854208809447145
40
0.854208809447145
40
0.927104404723571
40
0.927104404723571
40
0.963552202361786
40
0.963552202361786
40
1
40
1
40
1
40
1
41
1
10
69.3428716800921
20
-6.48666636757784
30
0
41
1
10
68.8069806061131
20
-6.69898465244609
30
0
41
1
10
68.2714491732602
20
-6.88544394807593
30
0
41
1
10
67.4214011973036
20
-7.13679166336709
30
0
41
1
10
67.1080634717657
20
-7.21992242530084
30
0
41
1
10
66.6363880363813
20
-7.33015205170295
30
0
41
1
10
66.4788853125596
20
-7.36448054924762
30
0
41
1
10
66.2421226525212
20
-7.412268047037
30
0
41
1
10
66.1631002941987
20
-7.42758270105404
30
0
41
1
10
66.0049395657011
20
-7.45694937788784
30
0
41
1
10
65.9259450911531
20
-7.4709748502639
30
0
41
1
10
65.2157111132123
20
-7.59129611306139
30
0
41
1
10
64.5895336192715
20
-7.65631818961995
30
0
41
1
10
63.80931310805
20
-7.68528590772075
30
0
41
1
10
63.6533981770213
20
-7.68844060973103
30
0
41
1
10
63.341653311024
20
-7.68966757174141
30
0
41
1
10
63.1858134661285
20
-7.68777309473202
30
0
41
1
10
62.718230849211
20
-7.67456128517242
30
0
41
1
10
62.4064563352436
20
-7.65563215298889
30
0
41
1
10
61.9381153562246
20
-7.61146702487594
30
0
41
1
10
61.7818896083398
20
-7.59410357642975
30
0
41
1
10
61.4690817652031
20
-7.55406178375321
30
0
41
1
10
61.3124876545871
20
-7.53142406176789
30
0
41
1
10
60.8418963825325
20
-7.45613129747852
30
0
41
1
10
60.5271332658298
20
-7.39597405780728
30
0
41
1
10
60.1319726074889
20
-7.30760141907763
30
0
41
1
10
60.0528514873801
20
-7.2892663646833
30
0
41
1
10
59.8949111628917
20
-7.25138655583154
30
0
41
1
10
59.8160313616494
20
-7.23182857920088
30
0
41
1
10
59.5796481248629
20
-7.1713034998931
30
0
41
1
10
59.4224091752074
20
-7.12846101533751
30
0
41
1
10
58.951405695838
20
-6.99306547171463
30
0
41
1
10
58.6382965778317
20
-6.89383620812066
30
0
41
1
10
58.0133408919505
20
-6.67727176422281
30
0
41
1
10
57.7014943483132
20
-6.5599181734689
30
0
41
1
10
57.2340127889171
20
-6.37057849072042
30
0
41
1
10
57.0782131202032
20
-6.30531315666991
30
0
41
1
10
56.7664917999516
20
-6.17081965070878
30
0
41
1
10
56.6105816012448
20
-6.10155366606222
30
0
41
1
10
56.4545888740786
20
-6.03022294230027
30
0
0
SPLINE
5
197
100
AcDbEntity
8
1
62
256
6
ByLayer
370
18
48
1
60
0
100
AcDbSpline
70
4
71
3
72
25
73
21
40
0
40
0
40
0
40
0
40
0.0371897857803752
40
0.12508505773094
40
0.212980329681505
40
0.271577177648548
40
0.330174025615591
40
0.374121661590874
40
0.418069297566156
40
0.447367721549678
40
0.476666145533199
40
0.520613781508482
40
0.564561417483764
40
0.623158265450807
40
0.681755113417851
40
0.740351961384894
40
0.798948809351937
40
0.85754565731898
40
0.916142505286023
40
1
40
1
40
1
40
1
41
1
10
66.9520081814288
20
-6.89114257375041
30
0
41
1
10
66.6346721209526
20
-6.95515939423535
30
0
41
1
10
65.5673360604763
20
-7.13838297022232
30
0
41
1
10
63.75
20
-7.26076918391118
30
0
41
1
10
61.7500000000001
20
-7.09524682326352
30
0
41
1
10
60.0000000000001
20
-6.73842798249896
30
0
41
1
10
58.6250000000001
20
-6.33074538707461
30
0
41
1
10
57.3750000000001
20
-5.86475666428987
30
0
41
1
10
56.3750000000001
20
-5.43113124670475
30
0
41
1
10
55.5000000000001
20
-5.01133984028812
30
0
41
1
10
54.6250000000001
20
-4.56178908695264
30
0
41
1
10
53.6250000000001
20
-4.00813172135182
30
0
41
1
10
52.375
20
-3.26329043677001
30
0
41
1
10
51
20
-2.38926118175823
30
0
41
1
10
49.5000000000001
20
-1.38632784091064
30
0
41
1
10
48.0000000000001
20
-0.354569594377296
30
0
41
1
10
46.5000000000001
20
0.684504652470963
30
0
41
1
10
45.0000000000001
20
1.70910861004239
30
0
41
1
10
43.2844538774413
20
2.84095333761505
30
0
41
1
10
42.0689077548824
20
3.58797785735499
30
0
41
1
10
41.3533616323235
20
3.99923441730488
30
0
0
SPLINE
5
198
100
AcDbEntity
8
1
62
256
6
ByLayer
370
18
48
1
60
0
100
AcDbSpline
70
4
71
3
72
14
73
10
40
0
40
0
40
0
40
0
40
0.25
40
0.25
40
0.5
40
0.5
40
0.75
40
0.75
40
1
40
1
40
1
40
1
41
1
10
40.4617157553211
20
3.38900391953618
30
0
41
1
10
40.4596352533281
20
3.48595949925422
30
0
41
1
10
40.4570279751158
20
3.58292168224944
30
0
41
1
10
40.4526133014596
20
3.77665931742945
30
0
41
1
10
40.4507936007353
20
3.87344343692871
30
0
41
1
10
40.4488752719954
20
4.06682506394989
30
0
41
1
10
40.4487804800306
20
4.16342180119122
30
0
41
1
10
40.4504181646897
20
4.35654597252577
30
0
41
1
10
40.452155891902
20
4.45307705633232
30
0
41
1
10
40.4543638476655
20
4.54964881791344
30
0
0
SPLINE
5
199
100
AcDbEntity
8
1
62
256
6
ByLayer
370
18
48
1
60
0
100
AcDbSpline
70
4
71
3
72
36
73
32
40
0
40
0
40
0
40
0
40
0.0144077290228865
40
0.0296323095651366
40
0.0448568901073867
40
0.0644313508045655
40
0.0992303920439943
40
0.134029433283423
40
0.151428953903137
40
0.168828474522852
40
0.186227995142566
40
0.203627515762281
40
0.23842655700171
40
0.273225598241139
40
0.308024639480567
40
0.342823680719996
40
0.377622721959425
40
0.412421763198854
40
0.447220804438283
40
0.51681888691714
40
0.551617928156569
40
0.586416969395998
40
0.656015051874856
40
0.690814093114285
40
0.725613134353713
40
0.795211216832571
40
0.830010258072
40
0.864809299311429
40
0.934407381790286
40
0.969206423029715
40
1
40
1
40
1
40
1
41
1
10
40.4617157553202
20
3.38900391953678
30
0
41
1
10
40.5339087383254
20
3.33927404555354
30
0
41
1
10
40.6823617347467
20
3.2365138184467
30
0
41
1
10
40.9070075096467
20
3.07953416102691
30
0
41
1
10
41.1574393862357
20
2.90291021576021
30
0
41
1
10
41.5057280413698
20
2.65480214104593
30
0
41
1
10
41.9516967270123
20
2.33254910697127
30
0
41
1
10
42.3864274547649
20
2.01356206036749
30
0
41
1
10
42.7340002054029
20
1.75609770475322
30
0
41
1
10
42.9945735843845
20
1.56200485000022
30
0
41
1
10
43.2550398644885
20
1.36700195049889
30
0
41
1
10
43.6021955974019
20
1.10595004751929
30
0
41
1
10
44.035902928299
20
0.777984671650842
30
0
41
1
10
44.5559874882642
20
0.382726256440066
30
0
41
1
10
45.0757573751149
20
-0.0131614462533207
30
0
41
1
10
45.5952429435222
20
-0.408840091956336
30
0
41
1
10
46.114503644707
20
-0.803325912741457
30
0
41
1
10
46.6335774746386
20
-1.19569657474477
30
0
41
1
10
47.3254955795957
20
-1.71478551509247
30
0
41
1
10
48.0172703661275
20
-2.22587251970788
30
0
41
1
10
48.7090771436618
20
-2.72531672208007
30
0
41
1
10
49.4009660194598
20
-3.21591154515548
30
0
41
1
10
50.0930957119088
20
-3.69125926257522
30
0
41
1
10
50.7855927114631
20
-4.14795222232138
30
0
41
1
10
51.478385014463
20
-4.5912443993966
30
0
41
1
10
52.1717047745139
20
-5.01245621408691
30
0
41
1
10
52.8656144209808
20
-5.40853973757791
30
0
41
1
10
53.5599497603838
20
-5.78706792526816
30
0
41
1
10
54.2549726441039
20
-6.13735229704088
30
0
41
1
10
54.9307313127772
20
-6.44767166586067
30
0
41
1
10
55.2588428044904
20
-6.58885555822818
30
0
41
1
10
55.4129342798742
20
-6.65296350413541
30
0
0
SPLINE
5
19A
100
AcDbEntity
8
1
62
256
6
ByLayer
370
18
48
1
60
0
100
AcDbSpline
70
4
71
3
72
14
73
10
40
0
40
0
40
0
40
0
40
0.25
40
0.25
40
0.5
40
0.5
40
0.75
40
0.75
40
1
40
1
40
1
40
1
41
1
10
55.4856422949622
20
-5.56159182176722
30
0
41
1
10
55.498299428056
20
-5.6519848555711
30
0
41
1
10
55.5071421873093
20
-5.7420812643559
30
0
41
1
10
55.5161946626789
20
-5.92223784020021
30
0
41
1
10
55.5164126775243
20
-6.0122952323878
30
0
41
1
10
55.5066669172366
20
-6.19308106186932
30
0
41
1
10
55.4967059886089
20
-6.28380687415645
30
0
41
1
10
55.4646089405899
20
-6.46686600421322
30
0
41
1
10
55.4424977872289
20
-6.55919300310651
30
0
41
1
10
55.4129342798747
20
-6.65296350413561
30
0
0
SPLINE
5
19B
100
AcDbEntity
8
1
62
256
6
ByLayer
370
18
48
1
60
0
100
AcDbSpline
70
4
71
3
72
59
73
55
40
0
40
0
40
0
40
0
40
0.0312500000000006
40
0.0312500000000006
40
0.0625000000000012
40
0.0625000000000012
40
0.0781250000000006
40
0.0781250000000006
40
0.09375
40
0.09375
40
0.124999999999999
40
0.124999999999999
40
0.187499999999997
40
0.187499999999997
40
0.249999999999994
40
0.249999999999994
40
0.281249999999992
40
0.281249999999992
40
0.31249999999999
40
0.31249999999999
40
0.374999999999986
40
0.374999999999986
40
0.406249999999984
40
0.406249999999984
40
0.437499999999981
40
0.437499999999981
40
0.468749999999979
40
0.468749999999979
40
0.484374999999979
40
0.484374999999979
40
0.499999999999979
40
0.499999999999979
40
0.562499999999982
40
0.562499999999982
40
0.593749999999984
40
0.593749999999984
40
0.624999999999987
40
0.624999999999987
40
0.687499999999989
40
0.687499999999989
40
0.749999999999992
40
0.749999999999992
40
0.812499999999995
40
0.812499999999995
40
0.843749999999996
40
0.843749999999996
40
0.874999999999996
40
0.874999999999996
40
0.890624999999997
40
0.890624999999997
40
0.906249999999999
40
0.937499999999999
40
0.937499999999999
40
1
40
1
40
1
40
1
41
1
10
55.4856422949623
20
-5.56159182176725
30
0
41
1
10
55.3292040666689
20
-5.48186948084947
30
0
41
1
10
55.1725693978426
20
-5.40010557882079
30
0
41
1
10
54.8587556240954
20
-5.2328537871575
30
0
41
1
10
54.7015734217136
20
-5.1473900265465
30
0
41
1
10
54.4653383524636
20
-5.01636652090457
30
0
41
1
10
54.3865166494484
20
-4.97221847956314
30
0
41
1
10
54.2287088123936
20
-4.8829691375075
30
0
41
1
10
54.1496646756618
20
-4.83783526392304
30
0
41
1
10
53.912870204858
20
-4.70136131726969
30
0
41
1
10
53.7553730265907
20
-4.60890341765111
30
0
41
1
10
53.2838218466327
20
-4.32728658067447
30
0
41
1
10
52.9707265658822
20
-4.13382106595782
30
0
41
1
10
52.3455901781579
20
-3.73784071722511
30
0
41
1
10
52.0336554918114
20
-3.53510704865235
30
0
41
1
10
51.5662335461867
20
-3.22435530744283
30
0
41
1
10
51.4105023078274
20
-3.11966994275349
30
0
41
1
10
51.0990840503673
20
-2.90821712732981
30
0
41
1
10
50.943391166929
20
-2.80146176297737
30
0
41
1
10
50.4760909831589
20
-2.47859154862172
30
0
41
1
10
50.1642900887001
20
-2.259820110862
30
0
41
1
10
49.6957145382138
20
-1.92671337425136
30
0
41
1
10
49.5393716184188
20
-1.81486626525975
30
0
41
1
10
49.2262817828435
20
-1.58965500479539
30
0
41
1
10
49.0695385611153
20
-1.47627749239513
30
0
41
1
10
48.7555093174802
20
-1.24822028175356
30
0
41
1
10
48.5982173583446
20
-1.13356329024103
30
0
41
1
10
48.3617782177058
20
-0.960736846576282
30
0
41
1
10
48.28288239943
20
-0.902984786493249
30
0
41
1
10
48.1249124380053
20
-0.787200924819018
30
0
41
1
10
48.0460151457795
20
-0.729298532287203
30
0
41
1
10
47.651952294763
20
-0.439803397474407
30
0
41
1
10
47.3380382861337
20
-0.208235210261677
30
0
41
1
10
46.8685093519694
20
0.13817789398459
30
0
41
1
10
46.7122133375397
20
0.253482626795602
30
0
41
1
10
46.3998792600557
20
0.483560174858212
30
0
41
1
10
46.2438470165828
20
0.598338473287697
30
0
41
1
10
45.7760524407335
20
0.941733222936506
30
0
41
1
10
45.4646195019869
20
1.16943297792926
30
0
41
1
10
44.8417594256023
20
1.62120230816478
30
0
41
1
10
44.5303001445387
20
1.84524592676112
30
0
41
1
10
43.9064177332201
20
2.28845248788366
30
0
41
1
10
43.5939891814761
20
2.50761699133432
30
0
41
1
10
43.1240374469958
20
2.83180510089051
30
0
41
1
10
42.9671669051717
20
2.93910578383682
30
0
41
1
10
42.6528321647922
20
3.15201090245998
30
0
41
1
10
42.4953705367558
20
3.25761697799368
30
0
41
1
10
42.2586502450676
20
3.4146363762172
30
0
41
1
10
42.1796318273999
20
3.46675966837688
30
0
41
1
10
42.0218736987845
20
3.57021637977005
30
0
41
1
10
41.7854859835315
20
3.72432882700616
30
0
41
1
10
41.5497935479044
20
3.87515603335422
30
0
41
1
10
41.0791972262964
20
4.17222874373545
30
0
41
1
10
40.7665476134802
20
4.36411331175694
30
0
41
1
10
40.4543638476605
20
4.54964881791028
30
0
0
SPLINE
5
19C
100
AcDbEntity
8
1
62
256
6
ByLayer
370
18
48
1
60
0
100
AcDbSpline
70
4
71
3
72
14
73
10
40
0
40
0
40
0
40
0
40
0.25
40
0.25
40
0.5
40
0.5
40
0.75
40
0.75
40
1
40
1
40
1
40
1
41
1
10
67.4895178470718
20
-2.60961832138162
30
0
41
1
10
67.5021298798097
20
-2.72773424486317
30
0
41
1
10
67.5109034094247
20
-2.8456105480449
30
0
41
1
10
67.5198079972207
20
-3.08106682268669
30
0
41
1
10
67.5199420831904
20
-3.19864590057799
30
0
41
1
10
67.5100592668492
20
-3.43372930335761
30
0
41
1
10
67.500044660277
20
-3.55123279556182
30
0
41
1
10
67.4679616937315
20
-3.78645796490886
30
0
41
1
10
67.4459163044921
20
-3.90417818075309
30
0
41
1
10
67.416549487411
20
-4.02220488677528
30
0
0
SPLINE
5
19D
100
AcDbEntity
8
1
62
256
6
ByLayer
370
18
48
1
60
0
100
AcDbSpline
70
4
71
3
72
14
73
10
40
0
40
0
40
0
40
0
40
0.25
40
0.25
40
0.5
40
0.5
40
0.75
40
0.75
40
1
40
1
40
1
40
1
41
1
10
52.4618227662179
20
6.04280510129459
30
0
41
1
10
52.4597577628025
20
6.09757316265384
30
0
41
1
10
52.4571495789147
20
6.15235833389099
30
0
41
1
10
52.4527182820153
20
6.2616664197858
30
0
41
1
10
52.4508826413759
20
6.31619806185313
30
0
41
1
10
52.4489277315175
20
6.42500414445595
30
0
41
1
10
52.4488122678431
20
6.47928057251082
30
0
41
1
10
52.4504120031731
20
6.58774074392923
30
0
41
1
10
52.4521323723238
20
6.64192946249869
30
0
41
1
10
52.4543276979919
20
6.69617311585392
30
0
0
SPLINE
5
19E
100
AcDbEntity
8
1
62
256
6
ByLayer
370
18
48
1
60
0
100
AcDbSpline
70
4
71
3
72
28
73
24
40
0
40
0
40
0
40
0
40
0.0281961343703815
40
0.0631854601441665
40
0.133164111691737
40
0.168153437465522
40
0.203142763239307
40
0.273121414786877
40
0.308110740560662
40
0.343100066334447
40
0.413078717882017
40
0.448068043655802
40
0.483057369429587
40
0.518046695203372
40
0.553036020977157
40
0.588025346750942
40
0.623014672524727
40
0.692993324072297
40
0.832950627167437
40
0.867939952941222
40
0.902929278715007
40
0.972907930262577
40
1
40
1
40
1
40
1
41
1
10
52.4618227662234
20
6.04280510129198
30
0
41
1
10
52.6033121232367
20
5.97474892450927
30
0
41
1
10
52.9203855354105
20
5.81870417421183
30
0
41
1
10
53.5886163407604
20
5.47385445765198
30
0
41
1
10
54.2908824522831
20
5.0842891059778
30
0
41
1
10
54.9929213234842
20
4.67084502130663
30
0
41
1
10
55.6947584377801
20
4.24262804901829
30
0
41
1
10
56.3962391826657
20
3.79343468458566
30
0
41
1
10
57.0971781390081
20
3.32696285457621
30
0
41
1
10
57.7977029792043
20
2.85019239280049
30
0
41
1
10
58.4975519182231
20
2.35945414682334
30
0
41
1
10
59.1963739707958
20
1.858803750585
30
0
41
1
10
59.7198985044678
20
1.47932857739201
30
0
41
1
10
60.2427819206256
20
1.09674710995608
30
0
41
1
10
60.7649974584763
20
0.712042815083521
30
0
41
1
10
61.286502938623
20
0.326188643252522
30
0
41
1
10
61.980828282326
20
-0.188560966577853
30
0
41
1
10
63.1936914022683
20
-1.08726133670248
30
0
41
1
10
64.4046996475146
20
-1.97087022023149
30
0
41
1
10
65.4451593016259
20
-2.70241626424129
30
0
41
1
10
66.1397067494567
20
-3.18236604860263
30
0
41
1
10
66.7966702177644
20
-3.62258702503772
30
0
41
1
10
67.2811836468186
20
-3.93569262440269
30
0
41
1
10
67.4165494874106
20
-4.02220488677503
30
0
0
SPLINE
5
19F
100
AcDbEntity
8
1
62
256
6
ByLayer
370
18
48
1
60
0
100
AcDbSpline
70
4
71
3
72
58
73
54
40
0
40
0
40
0
40
0
40
0.0625000000000044
40
0.0625000000000044
40
0.0937500000000065
40
0.0937500000000065
40
0.125000000000009
40
0.125000000000009
40
0.187500000000011
40
0.187500000000011
40
0.250000000000014
40
0.250000000000014
40
0.312500000000016
40
0.312500000000016
40
0.328125000000016
40
0.328125000000016
40
0.343750000000017
40
0.343750000000017
40
0.375000000000015
40
0.375000000000015
40
0.406250000000014
40
0.406250000000014
40
0.437500000000012
40
0.437500000000012
40
0.500000000000007
40
0.500000000000007
40
0.562500000000003
40
0.562500000000003
40
0.624999999999998
40
0.624999999999998
40
0.656249999999995
40
0.656249999999995
40
0.687499999999993
40
0.687499999999993
40
0.718749999999991
40
0.718749999999991
40
0.73437499999999
40
0.73437499999999
40
0.74999999999999
40
0.74999999999999
40
0.781249999999991
40
0.781249999999991
40
0.812499999999992
40
0.812499999999992
40
0.843749999999994
40
0.843749999999994
40
0.874999999999995
40
0.874999999999995
40
0.937499999999998
40
0.937499999999998
40
0.968749999999999
40
0.968749999999999
40
1
40
1
40
1
40
1
41
1
10
67.4895178470717
20
-2.60961832138159
30
0
41
1
10
67.1759499530686
20
-2.39796941739524
30
0
41
1
10
66.8631940497336
20
-2.18351870815715
30
0
41
1
10
66.3946665480494
20
-1.85848014618284
30
0
41
1
10
66.2385935039694
20
-1.74957008923255
30
0
41
1
10
65.9265553134074
20
-1.53075060922836
30
0
41
1
10
65.7705939284962
20
-1.42083259748469
30
0
41
1
10
65.3026695917652
20
-1.08989704490378
30
0
41
1
10
64.9906302345055
20
-0.867775845282551
30
0
41
1
10
64.3657826016468
20
-0.421301748183225
30
0
41
1
10
64.0529714064479
20
-0.196953867208009
30
0
41
1
10
63.4258468258553
20
0.252997519832775
30
0
41
1
10
63.1115353401217
20
0.478604196566351
30
0
41
1
10
62.7171497932979
20
0.760660882168594
30
0
41
1
10
62.6381975599813
20
0.817074221194105
30
0
41
1
10
62.480127603751
20
0.929884732206688
30
0
41
1
10
62.4010293716916
20
0.986267843444409
30
0
41
1
10
62.1641574666169
20
1.15486860453316
30
0
41
1
10
62.0065798203912
20
1.26669964226636
30
0
41
1
10
61.69198307708
20
1.48906565211834
30
0
41
1
10
61.5349665387852
20
1.59959953819634
30
0
41
1
10
61.2212835803251
20
1.81919224492017
30
0
41
1
10
61.0646125292555
20
1.92825370076596
30
0
41
1
10
60.5950134521626
20
2.25309602958038
30
0
41
1
10
60.2825134015049
20
2.46654611370647
30
0
41
1
10
59.6581417328265
20
2.88632352759953
30
0
41
1
10
59.3462920000477
20
3.09263378916995
30
0
41
1
10
58.722186523637
20
3.4971662028278
30
0
41
1
10
58.4099767394214
20
3.69540495671271
30
0
41
1
10
57.9409592492491
20
3.98586794209083
30
0
41
1
10
57.7845005261864
20
4.08153708005187
30
0
41
1
10
57.4712473246028
20
4.27039837310514
30
0
41
1
10
57.3144515981691
20
4.36358733253306
30
0
41
1
10
57.0003438925667
20
4.54738889203784
30
0
41
1
10
56.8430296654393
20
4.63800881747972
30
0
41
1
10
56.6066059654351
20
4.7718937748372
30
0
41
1
10
56.5277228184337
20
4.81618070602698
30
0
41
1
10
56.3697937691981
20
4.90404965112467
30
0
41
1
10
56.290700190888
20
4.94765772757106
30
0
41
1
10
56.0534987036689
20
5.07720466186748
30
0
41
1
10
55.8957012516493
20
5.1617425912923
30
0
41
1
10
55.5806921145858
20
5.32705848544521
30
0
41
1
10
55.4234895805746
20
5.40782439874474
30
0
41
1
10
55.1095261287035
20
5.56555215088727
30
0
41
1
10
54.95274627479
20
5.64253262612039
30
0
41
1
10
54.6394801013044
20
5.79274850294749
30
0
41
1
10
54.4830082394182
20
5.86596887149452
30
0
41
1
10
54.0140308099937
20
6.07978412683426
30
0
41
1
10
53.7019666316973
20
6.21456835357625
30
0
41
1
10
53.2341677289528
20
6.4043624885141
30
0
41
1
10
53.0782786815623
20
6.46556360041987
30
0
41
1
10
52.7663979358118
20
6.58392608031625
30
0
41
1
10
52.6104037167987
20
6.64109863178106
30
0
41
1
10
52.4543276979969
20
6.6961731158556
30
0
0
SPLINE
5
1A0
100
AcDbEntity
8
1
62
256
6
ByLayer
370
18
48
1
60
0
100
AcDbSpline
70
4
71
3
72
49
73
45
40
0
40
0
40
0
40
0
40
0.249999999999814
40
0.249999999999814
40
0.312499999999773
40
0.312499999999773
40
0.343749999999753
40
0.359374999999755
40
0.359374999999755
40
0.374999999999756
40
0.374999999999756
40
0.390624999999757
40
0.390624999999757
40
0.406249999999759
40
0.406249999999759
40
0.437499999999761
40
0.437499999999761
40
0.468749999999764
40
0.468749999999764
40
0.484374999999765
40
0.484374999999765
40
0.499999999999766
40
0.499999999999766
40
0.562499999999819
40
0.562499999999819
40
0.593749999999835
40
0.593749999999835
40
0.62499999999985
40
0.62499999999985
40
0.68749999999986
40
0.68749999999986
40
0.718749999999865
40
0.718749999999865
40
0.74999999999987
40
0.74999999999987
40
0.812499999999895
40
0.812499999999895
40
0.87499999999992
40
0.87499999999992
40
0.906249999999938
40
0.906249999999938
40
0.937499999999956
40
0.937499999999956
40
1
40
1
40
1
40
1
41
1
10
67.4895178470719
20
-2.60961832138233
30
0
41
1
10
67.5860716066483
20
-2.61687054973885
30
0
41
1
10
67.6828246878066
20
-2.62201432189991
30
0
41
1
10
67.8040814032584
20
-2.62583838766545
30
0
41
1
10
67.8283493778744
20
-2.62647823713462
30
0
41
1
10
67.8647700645566
20
-2.62722695181463
30
0
41
1
10
67.8829846601419
20
-2.62754719523309
30
0
41
1
10
67.9012029940328
20
-2.62777701273723
30
0
41
1
10
67.9133490420726
20
-2.62790893787698
30
0
41
1
10
67.9194167450979
20
-2.62794636889291
30
0
41
1
10
67.931806368293
20
-2.62880132747014
30
0
41
1
10
67.9380996570502
20
-2.62952895713579
30
0
41
1
10
67.9508639055382
20
-2.63152863833338
30
0
41
1
10
67.957369763706
20
-2.63281841585248
30
0
41
1
10
67.9768232816756
20
-2.63745296642679
30
0
41
1
10
67.9897568192029
20
-2.64154339287552
30
0
41
1
10
68.0155545933115
20
-2.65143342708154
30
0
41
1
10
68.0284185347367
20
-2.65724061977906
30
0
41
1
10
68.0476612927443
20
-2.66710381306905
30
0
41
1
10
68.0540682857067
20
-2.67058714381474
30
0
41
1
10
68.0666908007647
20
-2.67782240394985
30
0
41
1
10
68.0729291899787
20
-2.68158626611827
30
0
41
1
10
68.1037855629007
20
-2.70107648128928
30
0
41
1
10
68.1274188902935
20
-2.71877031227584
30
0
41
1
10
68.161589222952
20
-2.7478317202187
30
0
41
1
10
68.1727687206293
20
-2.75795275461684
30
0
41
1
10
68.1943616428832
20
-2.77862877854611
30
0
41
1
10
68.2048259127566
20
-2.78922772715055
30
0
41
1
10
68.2353482794071
20
-2.82170956233387
30
0
41
1
10
68.2545510788988
20
-2.84426564303814
30
0
41
1
10
68.2817497555698
20
-2.87936567864179
30
0
41
1
10
68.2905482574874
20
-2.89127677254126
30
0
41
1
10
68.3076523208848
20
-2.91548807117354
30
0
41
1
10
68.3159297849862
20
-2.92775571403715
30
0
41
1
10
68.3397583166805
20
-2.96471539129618
30
0
41
1
10
68.3543880481229
20
-2.98968881957933
30
0
41
1
10
68.3812868994285
20
-3.04026065616162
30
0
41
1
10
68.3935502099077
20
-3.06586049876316
30
0
41
1
10
68.4101247979382
20
-3.10473503720206
30
0
41
1
10
68.4153440045877
20
-3.11777287275521
30
0
41
1
10
68.4251346348547
20
-3.1440153226938
30
0
41
1
10
68.4297135571111
20
-3.15724139283341
30
0
41
1
10
68.4422991407818
20
-3.19680086602619
30
0
41
1
10
68.4491926240761
20
-3.22312112251731
30
0
41
1
10
68.4544139160641
20
-3.24936529727523
30
0
0
SPLINE
5
1A1
100
AcDbEntity
8
1
62
256
6
ByLayer
370
18
48
1
60
0
100
AcDbSpline
70
4
71
3
72
31
73
27
40
0
40
0
40
0
40
0
40
0.124999999999995
40
0.124999999999995
40
0.249999999999991
40
0.249999999999991
40
0.28124999999999
40
0.28124999999999
40
0.31249999999999
40
0.374999999999989
40
0.374999999999989
40
0.437499999999989
40
0.437499999999989
40
0.499999999999988
40
0.499999999999988
40
0.624999999999989
40
0.624999999999989
40
0.749999999999991
40
0.749999999999991
40
0.874999999999992
40
0.874999999999992
40
0.937499999999995
40
0.937499999999995
40
0.968749999999997
40
0.968749999999997
40
1
40
1
40
1
40
1
41
1
10
77.41143438968
20
-7.34903196264691
30
0
41
1
10
77.0363152954095
20
-7.26981820094747
30
0
41
1
10
76.6617932661754
20
-7.17715616619151
30
0
41
1
10
75.9125049429016
20
-6.96596576912543
30
0
41
1
10
75.5377368772043
20
-6.84744940266691
30
0
41
1
10
75.0682308572719
20
-6.68356847924295
30
0
41
1
10
74.9742315030714
20
-6.64998671897521
30
0
41
1
10
74.7863225279986
20
-6.58132847396467
30
0
41
1
10
74.5048137993196
20
-6.47618142666849
30
0
41
1
10
74.2242864923132
20
-6.36463739719608
30
0
41
1
10
73.8509561822052
20
-6.21040247257602
30
0
41
1
10
73.6646459498474
20
-6.13052375561077
30
0
41
1
10
73.292512287778
20
-5.9655706264889
30
0
41
1
10
73.1066870873213
20
-5.8805028755875
30
0
41
1
10
72.5497041990915
20
-5.61773146111875
30
0
41
1
10
72.1790556917009
20
-5.43240549025009
30
0
41
1
10
71.4377107590155
20
-5.04288966584136
30
0
41
1
10
71.0669994722572
20
-4.83879768408681
30
0
41
1
10
70.3242433425032
20
-4.41314576729761
30
0
41
1
10
69.9522308638414
20
-4.19144488303408
30
0
41
1
10
69.3921497333901
20
-3.84670828206043
30
0
41
1
10
69.2051072776223
20
-3.72978585584548
30
0
41
1
10
68.9238722542775
20
-3.55157209399903
30
0
41
1
10
68.8300156532507
20
-3.49169412181536
30
0
41
1
10
68.6420595940883
20
-3.37100417466229
30
0
41
1
10
68.5481764497164
20
-3.31033102528554
30
0
41
1
10
68.4544139160627
20
-3.24936529727893
30
0
0
SPLINE
5
1A2
100
AcDbEntity
8
1
62
256
6
ByLayer
370
18
48
1
60
0
100
AcDbSpline
70
4
71
3
72
8
73
4
40
0
40
0
40
0
40
0
40
1
40
1
40
1
40
1
41
1
10
77.3059792293774
20
-6.76886152031327
30
0
41
1
10
77.3403167394503
20
-6.96320362311658
30
0
41
1
10
77.3754511511203
20
-7.15661400634463
30
0
41
1
10
77.4114343896919
20
-7.34903196264233
30
0
0
SPLINE
5
1A3
100
AcDbEntity
8
1
62
256
6
ByLayer
370
13
48
1
60
0
100
AcDbSpline
70
4
71
3
72
16
73
12
40
0
40
0
40
0
40
0
40
0.118942644730391
40
0.273682951825531
40
0.428423258920672
40
0.583163566015812
40
0.699218796337167
40
0.815274026658522
40
0.892644180206092
40
0.970014333753663
40
1
40
1
40
1
40
1
41
1
10
77.3059792299093
20
-6.76886152013338
30
0
41
1
10
76.5373194866062
20
-6.59174954323578
30
0
41
1
10
74.7686597433032
20
-6.06361620704359
30
0
41
1
10
72.0000000000001
20
-4.84539743104446
30
0
41
1
10
69.0000000000001
20
-3.14777123014
30
0
41
1
10
66.2500000000001
20
-1.36615864396583
30
0
41
1
10
63.7500000000001
20
0.319238874751733
30
0
41
1
10
61.7500000000001
20
1.65882375252741
30
0
41
1
10
60.0000000000001
20
2.77625952719731
30
0
41
1
10
58.8062194213698
20
3.4954904559759
30
0
41
1
10
58.1124388427394
20
3.8907384341899
30
0
41
1
10
57.918658264109
20
3.99918809218514
30
0
0
SPLINE
5
1A4
100
AcDbEntity
8
1
62
256
6
ByLayer
370
18
48
1
60
0
100
AcDbSpline
70
4
71
3
72
20
73
16
40
0
40
0
40
0
40
0
40
0.24920566784114
40
0.24920566784114
40
0.373808501761713
40
0.373808501761713
40
0.436109918722
40
0.436109918722
40
0.498411335682287
40
0.498411335682287
40
0.747617003523449
40
0.747617003523449
40
0.996822671364611
40
0.996822671364611
40
1
40
1
40
1
40
1
41
1
10
51.4900308599678
20
7.00878499694269
30
0
41
1
10
51.1772336176134
20
7.10104504095611
30
0
41
1
10
50.863789233883
20
7.18435690531365
30
0
41
1
10
50.3918344201888
20
7.29603914722483
30
0
41
1
10
50.2342260941992
20
7.33102304731975
30
0
41
1
10
49.9973080482046
20
7.37998977493839
30
0
41
1
10
49.9182825579139
20
7.39571990252577
30
0
41
1
10
49.760506975239
20
7.42590536229955
30
0
41
1
10
49.6817034455369
20
7.44037082600281
30
0
41
1
10
49.2880751971136
20
7.50956069067226
30
0
41
1
10
48.9744346714065
20
7.55481371643739
30
0
41
1
10
48.3484790466441
20
7.6261699264241
30
0
41
1
10
48.0361779403987
20
7.65229488345517
30
0
41
1
10
47.7203313998344
20
7.66870617078303
30
0
41
1
10
47.7163551758608
20
7.66891116952726
30
0
41
1
10
47.7123790182352
20
7.6691145596921
30
0
0
SPLINE
5
1A5
100
AcDbEntity
8
1
62
256
6
ByLayer
370
18
48
1
60
0
100
AcDbSpline
70
4
71
3
72
49
73
45
40
0
40
0
40
0
40
0
40
0.250000000000118
40
0.250000000000118
40
0.312500000000142
40
0.312500000000142
40
0.343750000000166
40
0.359375000000166
40
0.359375000000166
40
0.375000000000167
40
0.375000000000167
40
0.390625000000168
40
0.390625000000168
40
0.406250000000168
40
0.406250000000168
40
0.43750000000017
40
0.43750000000017
40
0.468750000000172
40
0.468750000000172
40
0.484375000000186
40
0.484375000000186
40
0.500000000000199
40
0.500000000000199
40
0.562500000000182
40
0.562500000000182
40
0.593750000000173
40
0.593750000000173
40
0.625000000000164
40
0.625000000000164
40
0.687500000000148
40
0.687500000000148
40
0.718750000000139
40
0.718750000000139
40
0.750000000000131
40
0.750000000000131
40
0.812500000000099
40
0.812500000000099
40
0.875000000000066
40
0.875000000000066
40
0.90625000000005
40
0.90625000000005
40
0.937500000000034
40
0.937500000000034
40
1
40
1
40
1
40
1
41
1
10
51.4900308599475
20
7.00878499694875
30
0
41
1
10
51.5865195970246
20
6.93835903235322
30
0
41
1
10
51.6832080739061
20
6.86819952122986
30
0
41
1
10
51.8043831969722
20
6.78095945178035
30
0
41
1
10
51.8286348189536
20
6.76353734458343
30
0
41
1
10
51.8650308088642
20
6.73743449590071
30
0
41
1
10
51.8832330193599
20
6.72439007351232
30
0
41
1
10
51.9014389094967
20
6.71135257653717
30
0
41
1
10
51.9135766480569
20
6.70266199191619
30
0
41
1
10
51.9196424848947
20
6.69831279829592
30
0
41
1
10
51.9320292002694
20
6.68996154565951
30
0
41
1
10
51.9383205506821
20
6.68591933580822
30
0
41
1
10
51.9510809888039
20
6.67807684759453
30
0
41
1
10
51.9575840458126
20
6.67426367554697
30
0
41
1
10
51.9770219658861
20
6.66338737390785
30
0
41
1
10
51.9899455706065
20
6.65683269297355
30
0
41
1
10
52.0157242331778
20
6.64489367327943
30
0
41
1
10
52.0285790036289
20
6.63951448610334
30
0
41
1
10
52.0478085144997
20
6.63222047372778
30
0
41
1
10
52.0542091322193
20
6.62992017910889
30
0
41
1
10
52.0668193042725
20
6.62562358860063
30
0
41
1
10
52.0730517412301
20
6.62361878491404
30
0
41
1
10
52.1038793784391
20
6.6142468438056
30
0
41
1
10
52.1274927457796
20
6.6087895550553
30
0
41
1
10
52.1616361059923
20
6.60296206962641
30
0
41
1
10
52.172805095859
20
6.60141994973136
30
0
41
1
10
52.1943783675
20
6.59909783375818
30
0
41
1
10
52.2048335758878
20
6.59830971684835
30
0
41
1
10
52.235330599868
20
6.59690620007007
30
0
41
1
10
52.2545188997157
20
6.59723331375827
30
0
41
1
10
52.2816988734086
20
6.59946425401782
30
0
41
1
10
52.2904916355901
20
6.6004982597776
30
0
41
1
10
52.3075851166488
20
6.60309482818249
30
0
41
1
10
52.3158564981426
20
6.60465710429852
30
0
41
1
10
52.3396698844679
20
6.61006678130482
30
0
41
1
10
52.3542919266523
20
6.61465394228344
30
0
41
1
10
52.3811796371791
20
6.62567882797825
30
0
41
1
10
52.3934395680929
20
6.63212139641891
30
0
41
1
10
52.4100124961561
20
6.64323587846343
30
0
41
1
10
52.4152317695856
20
6.64718444244437
30
0
41
1
10
52.4250237821352
20
6.65560490383004
30
0
41
1
10
52.4296039623671
20
6.66008385862216
30
0
41
1
10
52.4421954880111
20
6.67422821348185
30
0
41
1
10
52.4490958712734
20
6.68463572131668
30
0
41
1
10
52.4543276979942
20
6.69617311586199
30
0
0
SPLINE
5
1A6
100
AcDbEntity
8
1
62
256
6
ByLayer
370
18
48
1
60
0
100
AcDbSpline
70
4
71
3
72
14
73
10
40
0
40
0
40
0
40
0
40
0.25
40
0.25
40
0.5
40
0.5
40
0.75
40
0.75
40
1
40
1
40
1
40
1
41
1
10
43.4930706335133
20
-7.51438002697483
30
0
41
1
10
43.5056994992788
20
-7.54830398788553
30
0
41
1
10
43.5144674945018
20
-7.58196647611661
30
0
41
1
10
43.5233696757236
20
-7.64955161099354
30
0
41
1
10
43.5234994287696
20
-7.68347134652504
30
0
41
1
10
43.5136830353172
20
-7.75256024951125
30
0
41
1
10
43.5037383486862
20
-7.787726664882
30
0
41
1
10
43.4720094583467
20
-7.86058174036447
30
0
41
1
10
43.4502454337178
20
-7.89826280369056
30
0
41
1
10
43.4213689056645
20
-7.93805117010075
30
0
0
SPLINE
5
1A7
100
AcDbEntity
8
1
62
256
6
ByLayer
370
18
48
1
60
0
100
AcDbSpline
70
4
71
3
72
8
73
4
40
0
40
0
40
0
40
0
40
1
40
1
40
1
40
1
41
1
10
30.0000000000001
20
-1.18073497304837
30
0
41
1
10
29.7785373320286
20
-1.05211516710557
30
0
41
1
10
29.5581085667096
20
-0.921592998180444
30
0
41
1
10
29.3388377992111
20
-0.788940133312252
30
0
0
SPLINE
5
1A8
100
AcDbEntity
8
1
62
256
6
ByLayer
370
18
48
1
60
0
100
AcDbSpline
70
4
71
3
72
30
73
26
40
0
40
0
40
0
40
0
40
0.0333277761179704
40
0.0722465379774151
40
0.11116529983686
40
0.189002823555749
40
0.227921585415194
40
0.266840347274638
40
0.344677870993527
40
0.383596632852972
40
0.422515394712417
40
0.500352918431306
40
0.539271680290751
40
0.578190442150195
40
0.61710920400964
40
0.656027965869085
40
0.694946727728529
40
0.733865489587974
40
0.772784251447418
40
0.811703013306863
40
0.850621775166308
40
0.889540537025753
40
0.928459298885197
40
0.967378060744642
40
1
40
1
40
1
40
1
41
1
10
29.8981093109843
20
-2.62455799649939
30
0
41
1
10
30.0477832185248
20
-2.7245785608676
30
0
41
1
10
30.3723779718835
20
-2.93997274892609
30
0
41
1
10
30.8723091626755
20
-3.26606911128786
30
0
41
1
10
31.57312025463
20
-3.7136184963224
30
0
41
1
10
32.2750158984399
20
-4.14601360315524
30
0
41
1
10
32.9780740506406
20
-4.56037888439002
30
0
41
1
10
33.6817854018569
20
-4.96158091525916
30
0
41
1
10
34.3862222642139
20
-5.34168569533915
30
0
41
1
10
35.0909308575611
20
-5.69789613011656
30
0
41
1
10
35.7956293475028
20
-6.03706080116547
30
0
41
1
10
36.5000396912665
20
-6.34972528256097
30
0
41
1
10
37.2036177246794
20
-6.63368542463823
30
0
41
1
10
37.7308733847131
20
-6.83169727544947
30
0
41
1
10
38.2577093391706
20
-7.01452012241202
30
0
41
1
10
38.7841464405878
20
-7.18179382839
30
0
41
1
10
39.3102014563634
20
-7.33306666447751
30
0
41
1
10
39.835888951552
20
-7.46816662129456
30
0
41
1
10
40.3612131565732
20
-7.58675946717509
30
0
41
1
10
40.8861920463949
20
-7.68871734227895
30
0
41
1
10
41.4108379692987
20
-7.77373865436493
30
0
41
1
10
41.9351555932875
20
-7.84167011137842
30
0
41
1
10
42.4591286103372
20
-7.89248033027405
30
0
41
1
10
42.9545260695298
20
-7.92427579436389
30
0
41
1
10
43.2751871147273
20
-7.93513333679593
30
0
41
1
10
43.4213689056635
20
-7.93805117010075
30
0
0
SPLINE
5
1A9
100
AcDbEntity
8
1
62
256
6
ByLayer
370
13
48
1
60
0
100
AcDbSpline
70
4
71
3
72
18
73
14
40
0
40
0
40
0
40
0
40
0.0199487200545293
40
0.0852854720508939
40
0.150622224047259
40
0.215958976043623
40
0.281295728039988
40
0.379300856034535
40
0.477305984029082
40
0.607979488021812
40
0.738652992014541
40
0.869326496007271
40
1
40
1
40
1
40
1
41
1
10
52.95798236318
20
-5.99064746635329
30
0
41
1
10
52.8053215754533
20
-6.04514511679605
30
0
41
1
10
52.1526607877267
20
-6.2710230789657
30
0
41
1
10
51.0000000000001
20
-6.61442854896134
30
0
41
1
10
49.5000000000001
20
-6.94347677457577
30
0
41
1
10
48.0000000000002
20
-7.14839942400857
30
0
41
1
10
46.2500000000001
20
-7.23850880713681
30
0
41
1
10
44.2500000000001
20
-7.12635794631387
30
0
41
1
10
41.7500000000001
20
-6.6681947438091
30
0
41
1
10
39.0000000000001
20
-5.77999850889267
30
0
41
1
10
36.0000000000001
20
-4.4001047374359
30
0
41
1
10
33.0000000000001
20
-2.70666409254866
30
0
41
1
10
31.0000000000001
20
-1.44889656051515
30
0
41
1
10
30.0000000000001
20
-0.810482114339351
30
0
0
SPLINE
5
1AA
100
AcDbEntity
8
1
62
256
6
ByLayer
370
18
48
1
60
0
100
AcDbSpline
70
4
71
3
72
49
73
45
40
0
40
0
40
0
40
0
40
0.0624999999999992
40
0.0624999999999992
40
0.124999999999999
40
0.124999999999999
40
0.140624999999998
40
0.140624999999998
40
0.156249999999998
40
0.187499999999998
40
0.187499999999998
40
0.249999999999997
40
0.249999999999997
40
0.312499999999996
40
0.312499999999996
40
0.374999999999995
40
0.374999999999995
40
0.437499999999995
40
0.437499999999995
40
0.468749999999993
40
0.468749999999993
40
0.499999999999992
40
0.499999999999992
40
0.562499999999991
40
0.562499999999991
40
0.624999999999991
40
0.624999999999991
40
0.64062499999999
40
0.64062499999999
40
0.65624999999999
40
0.65624999999999
40
0.68749999999999
40
0.68749999999999
40
0.749999999999989
40
0.749999999999989
40
0.781249999999989
40
0.781249999999989
40
0.81249999999999
40
0.81249999999999
40
0.874999999999993
40
0.874999999999993
40
0.937499999999997
40
0.937499999999997
40
1
40
1
40
1
40
1
41
1
10
43.4930706335133
20
-7.51438002697483
30
0
41
1
10
43.2130786472059
20
-7.47372312201045
30
0
41
1
10
42.9326697077203
20
-7.42583900732615
30
0
41
1
10
42.3704074757332
20
-7.31605688639033
30
0
41
1
10
42.0885517562373
20
-7.25418578511565
30
0
41
1
10
41.7350083921269
20
-7.1680155992108
30
0
41
1
10
41.6642039962649
20
-7.15032929607219
30
0
41
1
10
41.522634416573
20
-7.11410536327708
30
0
41
1
10
41.3104733267606
20
-7.05852646341509
30
0
41
1
10
41.0988625516104
20
-6.99923701872936
30
0
41
1
10
40.6762524239892
20
-6.87587569310838
30
0
41
1
10
40.3953179461404
20
-6.78728347819751
30
0
41
1
10
39.8344746541114
20
-6.59814116297468
30
0
41
1
10
39.55460098595
20
-6.49749157879077
30
0
41
1
10
38.9954686235516
20
-6.28441006708226
30
0
41
1
10
38.7162024898931
20
-6.17198560156692
30
0
41
1
10
38.1577495327033
20
-5.93599615029891
30
0
41
1
10
37.8785529006597
20
-5.81248067235373
30
0
41
1
10
37.4594821743617
20
-5.61912734689764
30
0
41
1
10
37.3197481723731
20
-5.55331969976183
30
0
41
1
10
37.0401476490036
20
-5.41895911356869
30
0
41
1
10
36.9002790907871
20
-5.35041227158248
30
0
41
1
10
36.4803219959199
20
-5.14097388874535
30
0
41
1
10
36.1998728435049
20
-4.99634059366551
30
0
41
1
10
35.6375444794451
20
-4.69734481431521
30
0
41
1
10
35.3556675855078
20
-4.54301139563728
30
0
41
1
10
35.0021862187037
20
-4.34383331633779
30
0
41
1
10
34.9314053509474
20
-4.30366892641854
30
0
41
1
10
34.7898440814257
20
-4.22281694235593
30
0
41
1
10
34.7191118091433
20
-4.18215709974001
30
0
41
1
10
34.5070346594252
20
-4.05952290277389
30
0
41
1
10
34.3658045088964
20
-3.97690529219867
30
0
41
1
10
33.9424873970172
20
-3.72659415686056
30
0
41
1
10
33.6607782760226
20
-3.55643458886263
30
0
41
1
10
33.2386597597685
20
-3.29661268662889
30
0
41
1
10
33.0980293807364
20
-3.20923725027183
30
0
41
1
10
32.8168786666309
20
-3.03297326169678
30
0
41
1
10
32.6763563773193
20
-2.94408903229339
30
0
41
1
10
32.2547884796614
20
-2.6754785067001
30
0
41
1
10
31.9737285136934
20
-2.493834795287
30
0
41
1
10
31.411144355947
20
-2.12593549512718
30
0
41
1
10
31.1296210839642
20
-1.93967902345599
30
0
41
1
10
30.5656709612322
20
-1.56300034133628
30
0
41
1
10
30.2832237442154
20
-1.37263110798554
30
0
41
1
10
30.0000000000001
20
-1.18073497304837
30
0
0
SPLINE
5
1AB
100
AcDbEntity
8
1
62
256
6
ByLayer
370
18
48
1
60
0
100
AcDbSpline
70
4
71
3
72
45
73
41
40
0
40
0
40
0
40
0
40
0.250000000000011
40
0.250000000000011
40
0.312500000000027
40
0.312500000000027
40
0.343750000000047
40
0.359375000000056
40
0.359375000000056
40
0.375000000000066
40
0.375000000000066
40
0.406250000000061
40
0.406250000000061
40
0.437500000000057
40
0.437500000000057
40
0.468750000000052
40
0.468750000000052
40
0.500000000000047
40
0.500000000000047
40
0.562500000000038
40
0.562500000000038
40
0.593750000000034
40
0.593750000000034
40
0.625000000000029
40
0.625000000000029
40
0.687500000000019
40
0.687500000000019
40
0.718750000000024
40
0.718750000000024
40
0.750000000000028
40
0.750000000000028
40
0.812500000000022
40
0.812500000000022
40
0.875000000000016
40
0.875000000000016
40
0.906250000000012
40
0.906250000000012
40
0.937500000000009
40
0.937500000000009
40
1
40
1
40
1
40
1
41
1
10
43.4930706335134
20
-7.51438002697532
30
0
41
1
10
43.5888185144167
20
-7.45808508421939
30
0
41
1
10
43.6847243747703
20
-7.40085386731303
30
0
41
1
10
43.8048687781085
20
-7.3282613125989
30
0
41
1
10
43.8289120255101
20
-7.31369541382307
30
0
41
1
10
43.8649917224793
20
-7.29175448386283
30
0
41
1
10
43.8830348479212
20
-7.28075977328007
30
0
41
1
10
43.9010801540539
20
-7.26972046304692
30
0
41
1
10
43.9131104926872
20
-7.26234995581947
30
0
41
1
10
43.9191169153278
20
-7.25863390434412
30
0
41
1
10
43.9375258033608
20
-7.24858211578362
30
0
41
1
10
43.9501976951325
20
-7.2429874412571
30
0
41
1
10
43.9762763639653
20
-7.23392510103383
30
0
41
1
10
43.9892680268745
20
-7.23060868150648
30
0
41
1
10
44.0151624990382
20
-7.22601910060817
30
0
41
1
10
44.0280649047018
20
-7.22475549131929
30
0
41
1
10
44.0537822912982
20
-7.22404103472883
30
0
41
1
10
44.0666200493554
20
-7.22460825805098
30
0
41
1
10
44.1040000942675
20
-7.22867803016234
30
0
41
1
10
44.1278037049623
20
-7.23445328514521
30
0
41
1
10
44.1621692567037
20
-7.24667163124786
30
0
41
1
10
44.1734425753352
20
-7.25136659822493
30
0
41
1
10
44.1952404151994
20
-7.26170915103995
30
0
41
1
10
44.2057908452846
20
-7.26736229454161
30
0
41
1
10
44.2365344096385
20
-7.28556417175204
30
0
41
1
10
44.2558340864836
20
-7.2993346749669
30
0
41
1
10
44.2831211938863
20
-7.32224108737088
30
0
41
1
10
44.2919406905514
20
-7.33025054878794
30
0
41
1
10
44.3090719154031
20
-7.34695249093778
30
0
41
1
10
44.3173830160584
20
-7.35565488801183
30
0
41
1
10
44.3412660018061
20
-7.38245774600168
30
0
41
1
10
44.3558910622977
20
-7.4013582167787
30
0
41
1
10
44.3827245692332
20
-7.44108619461932
30
0
41
1
10
44.3949256316125
20
-7.46191986492985
30
0
41
1
10
44.4113739598511
20
-7.49466311654589
30
0
41
1
10
44.4165449205957
20
-7.50582884298228
30
0
41
1
10
44.4262297360238
20
-7.52869403314185
30
0
41
1
10
44.4307528522704
20
-7.54041682765197
30
0
41
1
10
44.4431622946709
20
-7.57610986872646
30
0
41
1
10
44.4499209205445
20
-7.60068050973044
30
0
41
1
10
44.4550036048147
20
-7.62612939701413
30
0
0
SPLINE
5
1AC
100
AcDbEntity
8
1
62
256
6
ByLayer
370
18
48
1
60
0
100
AcDbSpline
70
4
71
3
72
28
73
24
40
0
40
0
40
0
40
0
40
0.0336705518950053
40
0.0336705518950053
40
0.15446173290813
40
0.15446173290813
40
0.275252913921254
40
0.275252913921254
40
0.396044094934378
40
0.396044094934378
40
0.456439685440941
40
0.456439685440941
40
0.486637480694222
40
0.486637480694222
40
0.516835275947503
40
0.516835275947503
40
0.637626456960627
40
0.637626456960627
40
0.758417637973752
40
0.758417637973752
40
0.879208818986876
40
0.879208818986876
40
1
40
1
40
1
40
1
41
1
10
52.235694515926
20
-6.48945723379248
30
0
41
1
10
52.1486879709286
20
-6.52146017449539
30
0
41
1
10
52.0616942648347
20
-6.55287089383407
30
0
41
1
10
51.6626507393178
20
-6.6942044603413
30
0
41
1
10
51.3506987486661
20
-6.7969725718408
30
0
41
1
10
50.726328251206
20
-6.98655740182414
30
0
41
1
10
50.4138430290562
20
-7.07359847855727
30
0
41
1
10
49.7877153803899
20
-7.23125134244924
30
0
41
1
10
49.4740660477389
20
-7.30185232515481
30
0
41
1
10
49.0021526648572
20
-7.39479687296324
30
0
41
1
10
48.8446063684792
20
-7.4236310263791
30
0
41
1
10
48.6078381091704
20
-7.4637072236458
30
0
41
1
10
48.5288410102059
20
-7.47653514082143
30
0
41
1
10
48.3706885428622
20
-7.50111116448295
30
0
41
1
10
48.2915506056621
20
-7.51285565370884
30
0
41
1
10
47.8964880847796
20
-7.56869326263458
30
0
41
1
10
47.5816488769387
20
-7.60420978361324
30
0
41
1
10
46.9537071923695
20
-7.65699339775784
30
0
41
1
10
46.640574747721
20
-7.67432981685954
30
0
41
1
10
46.0152266393144
20
-7.69118946655965
30
0
41
1
10
45.702997928233
20
-7.69078689571026
30
0
41
1
10
45.0789468843356
20
-7.67182506758016
30
0
41
1
10
44.7670851713333
20
-7.65337618010381
30
0
41
1
10
44.4550036048156
20
-7.62612939701845
30
0
0
SPLINE
5
1AD
100
AcDbEntity
8
1
62
256
6
ByLayer
370
18
48
1
60
0
100
AcDbSpline
70
4
71
3
72
8
73
4
40
0
40
0
40
0
40
0
40
1
40
1
40
1
40
1
41
1
10
29.6777945491469
20
7.65706867747764
30
0
41
1
10
29.7851059258042
20
7.71118054587953
30
0
41
1
10
29.8925106418446
20
7.76514140971881
30
0
41
1
10
30.0000021798462
20
7.81896181288815
30
0
0
SPLINE
5
1AE
100
AcDbEntity
8
1
62
256
6
ByLayer
370
18
48
1
60
0
100
AcDbSpline
70
4
71
3
72
9
73
5
40
0
40
0
40
0
40
0
40
0.432656059932648
40
1
40
1
40
1
40
1
41
1
10
60.9033650665583
20
7.9986977230275
30
0
41
1
10
61.0283223128095
20
7.99779235861763
30
0
41
1
10
61.3170977018538
20
7.99213574113304
30
0
41
1
10
61.6057629378332
20
7.97824001780177
30
0
41
1
10
61.769491693902
20
7.96771174599556
30
0
0
SPLINE
5
1AF
100
AcDbEntity
8
1
62
256
6
ByLayer
370
18
48
1
60
0
100
AcDbSpline
70
4
71
3
72
10
73
6
40
0
40
0
40
0
40
0
40
0.600285375752013
40
0.938284857725672
40
1
40
1
40
1
40
1
41
1
10
61.9198828932107
20
7.95729689879138
30
0
41
1
10
62.2301400275749
20
7.93427687449932
30
0
41
1
10
62.7148323164766
20
7.88348515557433
30
0
41
1
10
63.2308256245287
20
7.80515243669859
30
0
41
1
10
63.4369555670818
20
7.76976830036079
30
0
41
1
10
63.4687788797381
20
7.76420815898945
30
0
0
SPLINE
5
1B0
100
AcDbEntity
8
1
62
256
6
ByLayer
370
18
48
1
60
0
100
AcDbSpline
70
4
71
3
72
10
73
6
40
0
40
0
40
0
40
0
40
0.5
40
0.5
40
1
40
1
40
1
40
1
41
1
10
63.4193095268726
20
7.83990666700254
30
0
41
1
10
63.433618588643
20
7.82759863132134
30
0
41
1
10
63.44522148772
20
7.8149509880144
30
0
41
1
10
63.4620765905413
20
7.7894984701926
30
0
41
1
10
63.4673198053978
20
7.77670382569676
30
0
41
1
10
63.4687788797381
20
7.76420815898945
30
0
0
SPLINE
5
1B1
100
AcDbEntity
8
1
62
256
6
ByLayer
370
18
48
1
60
0
100
AcDbSpline
70
4
71
3
72
8
73
4
40
0
40
0
40
0
40
0
40
1
40
1
40
1
40
1
41
1
10
63.4687788797381
20
7.76420815898945
30
0
41
1
10
63.4735430523393
20
7.75833943945435
30
0
41
1
10
63.4781908508064
20
7.75243686323734
30
0
41
1
10
63.4827182646903
20
7.7465022760455
30
0
0
SPLINE
5
1B2
100
AcDbEntity
8
1
62
256
6
ByLayer
370
13
48
1
60
0
100
AcDbSpline
70
4
71
3
72
12
73
8
40
0
40
0
40
0
40
0
40
0.195690099648215
40
0.399803399441904
40
0.603916699235593
40
0.808029999029281
40
1
40
1
40
1
40
1
41
1
10
64.2944212384546
20
7.36882306634897
30
0
41
1
10
64.3098369926198
20
7.3780390170713
30
0
41
1
10
64.3404638168257
20
7.39958131254409
30
0
41
1
10
64.3819590447844
20
7.44034332477111
30
0
41
1
10
64.4169209287194
20
7.48885610633278
30
0
41
1
10
64.4425706020642
20
7.5415119916037
30
0
41
1
10
64.4533919833156
20
7.57806566051067
30
0
41
1
10
64.4572129964975
20
7.59576780636741
30
0
0
SPLINE
5
1B3
100
AcDbEntity
8
1
62
256
6
ByLayer
370
18
48
1
60
0
100
AcDbSpline
70
4
71
3
72
8
73
4
40
0
40
0
40
0
40
0
40
1
40
1
40
1
40
1
41
1
10
56.456082597339
20
-7.3707729720733
30
0
41
1
10
56.4554073352739
20
-7.37918011627755
30
0
41
1
10
56.4547135864817
20
-7.38759106108205
30
0
41
1
10
56.4540074551476
20
-7.39600607934372
30
0
0
SPLINE
5
1B4
100
AcDbEntity
8
1
62
256
6
ByLayer
370
18
48
1
60
0
100
AcDbSpline
70
4
71
3
72
8
73
4
40
0
40
0
40
0
40
0
40
1
40
1
40
1
40
1
41
1
10
56.457078364635
20
-7.27503777826988
30
0
41
1
10
56.4565914859375
20
-7.30695418669356
30
0
41
1
10
56.4562496614419
20
-7.33886918055566
30
0
41
1
10
56.456082597339
20
-7.3707729720733
30
0
0
SPLINE
5
1B5
100
AcDbEntity
8
1
62
256
6
ByLayer
370
18
48
1
60
0
100
AcDbSpline
70
4
71
3
72
18
73
14
40
0
40
0
40
0
40
0
40
0.0114199934783938
40
0.106129501858307
40
0.200839010238221
40
0.390258026998047
40
0.484967535377961
40
0.579677043757874
40
0.674386552137787
40
0.769096060517701
40
0.863805568897614
40
0.958515077277528
40
1
40
1
40
1
40
1
41
1
10
56.4560825973395
20
-7.37077297207344
30
0
41
1
10
56.4771080838443
20
-7.37704002646194
30
0
41
1
10
56.6725109752436
20
-7.43486631632268
30
0
41
1
10
57.0424035738497
20
-7.5369700552763
30
0
41
1
10
57.7404225765071
20
-7.70435072258525
30
0
41
1
10
58.4387823549488
20
-7.83304405195804
30
0
41
1
10
59.1372377715191
20
-7.92215074188181
30
0
41
1
10
59.6610684424351
20
-7.96898070739209
30
0
41
1
10
60.1848185894998
20
-7.9956437813255
30
0
41
1
10
60.7084157557326
20
-8.00214775451286
30
0
41
1
10
61.2317725477633
20
-7.98853306310406
30
0
41
1
10
61.65683235227
20
-7.96113531994405
30
0
41
1
10
61.9074107905496
20
-7.93807460864647
30
0
41
1
10
61.9837235689525
20
-7.9304138141546
30
0
0
SPLINE
5
1B6
100
AcDbEntity
8
1
62
256
6
ByLayer
370
18
48
1
60
0
100
AcDbSpline
70
4
71
3
72
26
73
22
40
0
40
0
40
0
40
0
40
0.0177579306184795
40
0.056117907558711
40
0.0944778844989426
40
0.132837861439174
40
0.209557815319638
40
0.286277769200101
40
0.324637746140333
40
0.362997723080564
40
0.401357700020796
40
0.439717676961028
40
0.516437630841491
40
0.593157584721954
40
0.631517561662186
40
0.669877538602418
40
0.746597492482881
40
0.823317446363345
40
0.900037400243808
40
0.976757354124271
40
1
40
1
40
1
40
1
41
1
10
44.6238670209658
20
7.98788135467052
30
0
41
1
10
44.6641727962111
20
7.98628966242663
30
0
41
1
10
44.791559230617
20
7.98072360742938
30
0
41
1
10
45.0060940702555
20
7.9684983907668
30
0
41
1
10
45.2675269362884
20
7.94882761748713
30
0
41
1
10
45.6162597722062
20
7.91628681608566
30
0
41
1
10
46.0524621183703
20
7.86376926372336
30
0
41
1
10
46.4890273849804
20
7.79555949273896
30
0
41
1
10
46.8384926481033
20
7.73165857615689
30
0
41
1
10
47.100694277725
20
7.67907120828866
30
0
41
1
10
47.3629969827841
20
7.6218570039446
30
0
41
1
10
47.7128623609325
20
7.53943869383048
30
0
41
1
10
48.1504259226434
20
7.42502049058371
30
0
41
1
10
48.5882647260689
20
7.29566870300388
30
0
41
1
10
48.9386852272343
20
7.18343205460761
30
0
41
1
10
49.2891952148666
20
7.06536073161911
30
0
41
1
10
49.7274949360555
20
6.90702835499394
30
0
41
1
10
50.2536794285758
20
6.7002811832329
30
0
41
1
10
50.7800484647418
20
6.47733405392353
30
0
41
1
10
51.1842298507268
20
6.29414047442464
30
0
41
1
10
51.4129382908441
20
6.18620134314978
30
0
41
1
10
51.4661176588168
20
6.16087511369952
30
0
0
SPLINE
5
1B7
100
AcDbEntity
8
1
62
256
6
ByLayer
370
18
48
1
60
0
100
AcDbSpline
70
4
71
3
72
8
73
4
40
0
40
0
40
0
40
0
40
1
40
1
40
1
40
1
41
1
10
56.457078364635
20
-7.27503777826988
30
0
41
1
10
56.4581985996431
20
-7.20160289965247
30
0
41
1
10
56.4601436415653
20
-7.12816943872878
30
0
41
1
10
56.4619458506477
20
-7.05482089890026
30
0
0
SPLINE
5
1B8
100
AcDbEntity
8
1
62
256
6
ByLayer
370
13
48
1
60
0
100
AcDbSpline
70
4
71
3
72
13
73
9
40
0
40
0
40
0
40
0
40
0.0176704574123517
40
0.217583925420586
40
0.417497393428821
40
0.617410861437056
40
0.817324329445291
40
1
40
1
40
1
40
1
41
1
10
56.2883367913308
20
-7.11084171042782
30
0
41
1
10
56.2897687337017
20
-7.11142701732297
30
0
41
1
10
56.3073531858167
20
-7.11873254231602
30
0
41
1
10
56.3400783969606
20
-7.13510622146123
30
0
41
1
10
56.3821526618246
20
-7.1647276734046
30
0
41
1
10
56.4171148712103
20
-7.19949657756783
30
0
41
1
10
56.4425317028421
20
-7.23689170679154
30
0
41
1
10
56.4532871976319
20
-7.26271104441941
30
0
41
1
10
56.4570783646284
20
-7.27503777824856
30
0
0
SPLINE
5
1B9
100
AcDbEntity
8
1
62
256
6
ByLayer
370
18
48
1
60
0
100
AcDbSpline
70
4
71
3
72
10
73
6
40
0
40
0
40
0
40
0
40
0.5
40
0.5
40
1
40
1
40
1
40
1
41
1
10
51.4167768980464
20
6.51592612195995
30
0
41
1
10
51.4310769518309
20
6.4572529172151
30
0
41
1
10
51.4426728214105
20
6.39816187627829
30
0
41
1
10
51.4594948711496
20
6.27956027362416
30
0
41
1
10
51.4647122090232
20
6.22010357122576
30
0
41
1
10
51.4661176588161
20
6.1608751136998
30
0
0
SPLINE
5
1BA
100
AcDbEntity
8
1
62
256
6
ByLayer
370
18
48
1
60
0
100
AcDbSpline
70
4
71
3
72
8
73
4
40
0
40
0
40
0
40
0
40
1
40
1
40
1
40
1
41
1
10
51.4661176588161
20
6.16087511369983
30
0
41
1
10
51.4708941063471
20
6.14487275460786
30
0
41
1
10
51.4755538199731
20
6.12883314100861
30
0
41
1
10
51.4800926851908
20
6.11275745949629
30
0
0
SPLINE
5
1BB
100
AcDbEntity
8
1
62
256
6
ByLayer
370
18
48
1
60
0
100
AcDbSpline
70
4
71
3
72
17
73
13
40
0
40
0
40
0
40
0
40
0.0814109445520341
40
0.211667184687169
40
0.341923424822304
40
0.47217966495744
40
0.602435905092575
40
0.667564025160142
40
0.73269214522771
40
0.862948385362845
40
0.99320462549798
40
1
40
1
40
1
40
1
41
1
10
68.4560886937456
20
-5.19428769961547
30
0
41
1
10
68.6759368680752
20
-5.31912463092553
30
0
41
1
10
69.2487565321648
20
-5.63586251553286
30
0
41
1
10
70.1799245855631
20
-6.11195215818515
30
0
41
1
10
71.2539188054753
20
-6.59999733534116
30
0
41
1
10
72.3391867247428
20
-7.02590935902623
30
0
41
1
10
73.2543273610596
20
-7.32397030730638
30
0
41
1
10
73.9937719498096
20
-7.52530216584805
30
0
41
1
10
74.7383844986935
20
-7.70090800738677
30
0
41
1
10
75.6794820096744
20
-7.87027487228022
30
0
41
1
10
76.4647632500511
20
-7.95041508787114
30
0
41
1
10
76.8712148130227
20
-7.97452717666269
30
0
41
1
10
76.8913771996988
20
-7.97568084168284
30
0
0
SPLINE
5
1BC
100
AcDbEntity
8
1
62
256
6
ByLayer
370
18
48
1
60
0
100
AcDbSpline
70
4
71
3
72
41
73
37
40
0
40
0
40
0
40
0
40
0.128404735469574
40
0.128404735469574
40
0.160505919336968
40
0.160505919336968
40
0.192607103204362
40
0.192607103204362
40
0.25680947093915
40
0.25680947093915
40
0.385214206408725
40
0.385214206408725
40
0.417315390276118
40
0.417315390276118
40
0.449416574143511
40
0.449416574143511
40
0.513618941878297
40
0.513618941878297
40
0.642023677347868
40
0.642023677347868
40
0.658074269281564
40
0.658074269281564
40
0.67412486121526
40
0.67412486121526
40
0.706226045082651
40
0.706226045082651
40
0.770428412817436
40
0.770428412817436
40
0.898833148287005
40
0.898833148287005
40
0.914883740220701
40
0.914883740220701
40
0.930934332154397
40
0.963035516021791
40
0.963035516021791
40
1
40
1
40
1
40
1
41
1
10
30.0000000000001
20
-3.35408615768404
30
0
41
1
10
30.5630355017913
20
-3.71871648691567
30
0
41
1
10
31.1245827108648
20
-4.0697640824109
30
0
41
1
10
31.8273346562913
20
-4.4884250325797
30
0
41
1
10
31.9679266862059
20
-4.57114807323501
30
0
41
1
10
32.249264835802
20
-4.73448538241834
30
0
41
1
10
32.3900363794
20
-4.81511242995833
30
0
41
1
10
32.8118218534483
20
-5.05320504294917
30
0
41
1
10
33.0925888737332
20
-5.20705058399781
30
0
41
1
10
33.9344557439753
20
-5.65321197167219
30
0
41
1
10
34.4951260079707
20
-5.93017644624254
30
0
41
1
10
35.1979209292525
20
-6.24794622355887
30
0
41
1
10
35.3385764898847
20
-6.31008226054095
30
0
41
1
10
35.6201412294537
20
-6.43146166582218
30
0
41
1
10
35.760837658787
20
-6.49061316377382
30
0
41
1
10
36.1825694950369
20
-6.66332214190871
30
0
41
1
10
36.463324684222
20
-6.77217630645714
30
0
41
1
10
37.3051783583138
20
-7.07924509359358
30
0
41
1
10
37.8658578219528
20
-7.25803061929142
30
0
41
1
10
38.4984813470563
20
-7.42828948617372
30
0
41
1
10
38.5687989854496
20
-7.44677685114715
30
0
41
1
10
38.709495743278
20
-7.48288276379233
30
0
41
1
10
38.7798778677701
20
-7.5005015310409
30
0
41
1
10
38.990873814737
20
-7.5519822431263
30
0
41
1
10
39.131422391236
20
-7.58449251708598
30
0
41
1
10
39.5528270666207
20
-7.67660402465708
30
0
41
1
10
39.8334420838375
20
-7.73078993077163
30
0
41
1
10
40.6751491062356
20
-7.87138173995035
30
0
41
1
10
41.2361259848997
20
-7.93579710984
30
0
41
1
10
41.8693186801729
20
-7.9746340873312
30
0
41
1
10
41.9397230529992
20
-7.97848320258669
30
0
41
1
10
42.0804598019525
20
-7.98523761015107
30
0
41
1
10
42.2914706974494
20
-7.99395554943686
30
0
41
1
10
42.5022352859474
20
-7.99842990226946
30
0
41
1
10
42.8043777521306
20
-8.00079243688123
30
0
41
1
10
42.9659854681326
20
-7.99955902579504
30
0
41
1
10
43.1275437264794
20
-7.99583505744744
30
0
0
SPLINE
5
1BD
100
AcDbEntity
8
1
62
256
6
ByLayer
370
18
48
1
60
0
100
AcDbSpline
70
4
71
3
72
38
73
34
40
0
40
0
40
0
40
0
40
0.250000000000094
40
0.250000000000094
40
0.37500000000014
40
0.37500000000014
40
0.500000000000186
40
0.500000000000186
40
0.562500000000229
40
0.562500000000229
40
0.625000000000273
40
0.625000000000273
40
0.687500000000316
40
0.687500000000316
40
0.718750000000339
40
0.718750000000339
40
0.750000000000362
40
0.750000000000362
40
0.781250000000385
40
0.781250000000385
40
0.812500000000408
40
0.812500000000408
40
0.843750000000431
40
0.843750000000431
40
0.859375000000418
40
0.859375000000418
40
0.875000000000405
40
0.875000000000405
40
0.906250000000321
40
0.906250000000321
40
0.937500000000236
40
0.937500000000236
40
1
40
1
40
1
40
1
41
1
10
25.2443493222777
20
2.16532495373642
30
0
41
1
10
25.2078573787205
20
2.19750253013299
30
0
41
1
10
25.1722552251445
20
2.23044149066413
30
0
41
1
10
25.1211595070049
20
2.28187109214426
30
0
41
1
10
25.1045176330534
20
2.29935608513034
30
0
41
1
10
25.0723792277658
20
2.33534063447234
30
0
41
1
10
25.0568700511045
20
2.35383661383213
30
0
41
1
10
25.0352596804674
20
2.38253016137352
30
0
41
1
10
25.0283273508436
20
2.39226399896219
30
0
41
1
10
25.0152175461388
20
2.41220613137517
30
0
41
1
10
25.0090247418361
20
2.42242859295658
30
0
41
1
10
24.9978295570809
20
2.44352514326093
30
0
41
1
10
24.9928702341241
20
2.45428754833449
30
0
41
1
10
24.9870267350031
20
2.47097190089221
30
0
41
1
10
24.9853485662788
20
2.4766247675507
30
0
41
1
10
24.9827519311326
20
2.48818922732178
30
0
41
1
10
24.9818457847639
20
2.49406792318084
30
0
41
1
10
24.9811639405827
20
2.50583048845019
30
0
41
1
10
24.9813958472117
20
2.51181946197667
30
0
41
1
10
24.9833819384787
20
2.52339960845146
30
0
41
1
10
24.9851177464449
20
2.5290046910749
30
0
41
1
10
24.9904439902221
20
2.53975517625915
30
0
41
1
10
24.9939340739397
20
2.54465464383557
30
0
41
1
10
25.0001972454047
20
2.55118619663889
30
0
41
1
10
25.0024810571593
20
2.55325125663904
30
0
41
1
10
25.0072711702991
20
2.55705470944017
30
0
41
1
10
25.0097746023492
20
2.55879677582328
30
0
41
1
10
25.0175591090581
20
2.5636192115397
30
0
41
1
10
25.0231508162704
20
2.56631391121377
30
0
41
1
10
25.0346958663839
20
2.57083286129222
30
0
41
1
10
25.0405931184896
20
2.57264427204612
30
0
41
1
10
25.0585465608874
20
2.57713899808965
30
0
41
1
10
25.0709025966113
20
2.57890254426076
30
0
41
1
10
25.0833395464227
20
2.57992818570662
30
0
0
SPLINE
5
1BE
100
AcDbEntity
8
1
62
256
6
ByLayer
370
18
48
1
60
0
100
AcDbSpline
70
4
71
3
72
8
73
4
40
0
40
0
40
0
40
0
40
1
40
1
40
1
40
1
41
1
10
64.457212996504
20
7.59576780639719
30
0
41
1
10
64.4582944129268
20
7.62561536656142
30
0
41
1
10
64.4602484205108
20
7.6554543560988
30
0
41
1
10
64.4620250112652
20
7.68538894834933
30
0
0
SPLINE
5
1BF
100
AcDbEntity
8
1
62
256
6
ByLayer
370
18
48
1
60
0
100
AcDbSpline
70
4
71
3
72
8
73
4
40
0
40
0
40
0
40
0
40
1
40
1
40
1
40
1
41
1
10
64.4572129965077
20
7.59576780639338
30
0
41
1
10
64.4567887758056
20
7.58405913186115
30
0
41
1
10
64.4564885632685
20
7.57234801837708
30
0
41
1
10
64.4563357040769
20
7.56062603918301
30
0
0
SPLINE
5
1C0
100
AcDbEntity
8
1
62
256
6
ByLayer
370
18
48
1
60
0
100
AcDbSpline
70
4
71
3
72
16
73
12
40
0
40
0
40
0
40
0
40
0.250000000000127
40
0.250000000000127
40
0.500000000000253
40
0.500000000000253
40
0.75000000000038
40
0.75000000000038
40
0.875000000000279
40
0.875000000000279
40
1
40
1
40
1
40
1
41
1
10
77.1219585208968
20
0.637138261860116
30
0
41
1
10
77.1118113261522
20
0.65073712732061
30
0
41
1
10
77.1013529119089
20
0.664065944477471
30
0
41
1
10
77.0795466036784
20
0.689954115170366
30
0
41
1
10
77.068206669681
20
0.702520299037843
30
0
41
1
10
77.0441290191919
20
0.726446760703652
30
0
41
1
10
77.0314049239014
20
0.737811106224456
30
0
41
1
10
77.0109587867041
20
0.752803600035463
30
0
41
1
10
77.0039000850297
20
0.757467331015221
30
0
41
1
10
76.9890706305069
20
0.765818987635299
30
0
41
1
10
76.9812769287307
20
0.769511670567738
30
0
41
1
10
76.973172231099
20
0.772350809661731
30
0
0
SPLINE
5
1C1
100
AcDbEntity
8
1
62
256
6
ByLayer
370
18
48
1
60
0
100
AcDbSpline
70
4
71
3
72
32
73
28
40
0
40
0
40
0
40
0
40
0.125000000000073
40
0.125000000000073
40
0.156250000000085
40
0.156250000000085
40
0.187500000000096
40
0.187500000000096
40
0.250000000000151
40
0.250000000000151
40
0.312500000000205
40
0.312500000000205
40
0.343750000000217
40
0.343750000000217
40
0.375000000000229
40
0.375000000000229
40
0.437500000000253
40
0.437500000000253
40
0.453125000000251
40
0.453125000000251
40
0.468750000000249
40
0.468750000000249
40
0.500000000000216
40
0.500000000000216
40
0.750000000000108
40
0.750000000000108
40
1
40
1
40
1
40
1
41
1
10
52.2909206066492
20
5.56530663051041
30
0
41
1
10
52.2610287812952
20
5.56791166530996
30
0
41
1
10
52.2292708386628
20
5.57401104241282
30
0
41
1
10
52.1873985409237
20
5.58585342853388
30
0
41
1
10
52.1789106021476
20
5.58844270946761
30
0
41
1
10
52.1617008950788
20
5.59408244372352
30
0
41
1
10
52.1529651169201
20
5.5971383522664
30
0
41
1
10
52.1267054688327
20
5.60691476302765
30
0
41
1
10
52.1090375489012
20
5.61427270123224
30
0
41
1
10
52.0733834257467
20
5.63076992873471
30
0
41
1
10
52.0553963545494
20
5.63991357648428
30
0
41
1
10
52.0281613782139
20
5.65516686493521
30
0
41
1
10
52.0190009013402
20
5.66053344574883
30
0
41
1
10
52.0008778927911
20
5.67165866274323
30
0
41
1
10
51.9918980544627
20
5.6774245311623
30
0
41
1
10
51.9652144485437
20
5.69535340127624
30
0
41
1
10
51.9477679842801
20
5.70815123107263
30
0
41
1
10
51.9264491172301
20
5.72533784474123
30
0
41
1
10
51.9222121234914
20
5.7288404132197
30
0
41
1
10
51.9137922653542
20
5.73597693146544
30
0
41
1
10
51.9096025437416
20
5.73959377755534
30
0
41
1
10
51.897021906791
20
5.75041044161571
30
0
41
1
10
51.8886379377445
20
5.75762149003015
30
0
41
1
10
51.8132048820128
20
5.82253226996599
30
0
41
1
10
51.7463250940591
20
5.88036370076353
30
0
41
1
10
51.6129502875913
20
5.9963549836128
30
0
41
1
10
51.546439787293
20
6.05449316066827
30
0
41
1
10
51.4800926851907
20
6.11275745949621
30
0
0
SPLINE
5
1C2
100
AcDbEntity
8
1
62
256
6
ByLayer
370
18
48
1
60
0
100
AcDbSpline
70
4
71
3
72
47
73
43
40
0
40
0
40
0
40
0
40
0.0230717790950456
40
0.0230717790950456
40
0.0556360531252078
40
0.0719181901402899
40
0.0719181901402899
40
0.088200327155372
40
0.088200327155372
40
0.218457423276029
40
0.218457423276029
40
0.283585971336358
40
0.283585971336358
40
0.29986810835144
40
0.29986810835144
40
0.316150245366522
40
0.348714519396687
40
0.348714519396687
40
0.478971615517349
40
0.478971615517349
40
0.511535889547515
40
0.511535889547515
40
0.54410016357768
40
0.54410016357768
40
0.609228711638012
40
0.609228711638012
40
0.674357259698343
40
0.674357259698343
40
0.690639396713425
40
0.690639396713425
40
0.706921533728507
40
0.706921533728507
40
0.739485807758674
40
0.739485807758674
40
0.86974290387934
40
0.86974290387934
40
0.902307177909505
40
0.902307177909505
40
0.918589314924588
40
0.918589314924588
40
0.934871451939671
40
1
40
1
40
1
40
1
41
1
10
37.0596209532969
20
6.39300847834394
30
0
41
1
10
37.1704162035564
20
6.44274106090018
30
0
41
1
10
37.2812273243268
20
6.49145872929824
30
0
41
1
10
37.5485245262179
20
6.60645357934592
30
0
41
1
10
37.7833045059521
20
6.70433712000207
30
0
41
1
10
38.0183637163506
20
6.79749221053319
30
0
41
1
10
38.1751464671062
20
6.85853079336184
30
0
41
1
10
38.2535974171818
20
6.88852545416455
30
0
41
1
10
38.9591008533209
20
7.15326511190989
30
0
41
1
10
39.5836655434638
20
7.35203458262373
30
0
41
1
10
40.5221695093113
20
7.59288977702175
30
0
41
1
10
40.8352761525473
20
7.66361827331647
30
0
41
1
10
41.2275092215278
20
7.73974901292661
30
0
41
1
10
41.3059679339621
20
7.75435668980413
30
0
41
1
10
41.4627637878251
20
7.78230736935134
30
0
41
1
10
41.697845043191
20
7.82234979926073
30
0
41
1
10
41.9326455386164
20
7.8567295302467
30
0
41
1
10
42.7149479012423
20
7.95869727752091
30
0
41
1
10
43.3396076257283
20
7.99983405838225
30
0
41
1
10
44.1232185138584
20
8.00000258218782
30
0
41
1
10
44.2801443622538
20
7.99746088843904
30
0
41
1
10
44.5935064727947
20
7.98725458885912
30
0
41
1
10
44.7500450078423
20
7.97959381663139
30
0
41
1
10
45.2194092537017
20
7.94894727995788
30
0
41
1
10
45.5319867608285
20
7.91829842641286
30
0
41
1
10
46.1573657091875
20
7.83690985900981
30
0
41
1
10
46.470167468767
20
7.78615631913669
30
0
41
1
10
46.8618478067387
20
7.71021667898296
30
0
41
1
10
46.9402180066304
20
7.69440165237316
30
0
41
1
10
47.0970395060929
20
7.6615211676615
30
0
41
1
10
47.1755170013083
20
7.6444499307911
30
0
41
1
10
47.4107912833853
20
7.59143387935228
30
0
41
1
10
47.5674858719985
20
7.55367589032892
30
0
41
1
10
48.3504285869746
20
7.35300916295319
30
0
41
1
10
48.9750147841544
20
7.15449413759529
30
0
41
1
10
49.757787099018
20
6.86105367844729
30
0
41
1
10
49.914446001775
20
6.80010177880934
30
0
41
1
10
50.1496755708073
20
6.70532606558714
30
0
41
1
10
50.2281122992678
20
6.6731812144842
30
0
41
1
10
50.3848550642578
20
6.6078795466388
30
0
41
1
10
50.7765211202697
20
6.44204139938938
30
0
41
1
10
51.1674154180265
20
6.26342826500596
30
0
41
1
10
51.4800926851907
20
6.11275745949621
30
0
0
SPLINE
5
1C3
100
AcDbEntity
8
1
62
256
6
ByLayer
370
18
48
1
60
0
100
AcDbSpline
70
4
71
3
72
8
73
4
40
0
40
0
40
0
40
0
40
1
40
1
40
1
40
1
41
1
10
76.9020669410173
20
-7.98185079706298
30
0
41
1
10
76.9745759682715
20
-7.98550482969981
30
0
41
1
10
77.0471083619829
20
-7.98861048169294
30
0
41
1
10
77.1196692229317
20
-7.99116619413209
30
0
0
SPLINE
5
1C4
100
AcDbEntity
8
1
62
256
6
ByLayer
370
18
48
1
60
0
100
AcDbSpline
70
4
71
3
72
8
73
4
40
0
40
0
40
0
40
0
40
1
40
1
40
1
40
1
41
1
10
76.9000238328808
20
-7.98166897714299
30
0
41
1
10
76.900704868612
20
-7.98172959738184
30
0
41
1
10
76.9013859046592
20
-7.98179020402162
30
0
41
1
10
76.9020669410173
20
-7.98185079706218
30
0
0
SPLINE
5
1C5
100
AcDbEntity
8
1
62
256
6
ByLayer
370
18
48
1
60
0
100
AcDbSpline
70
4
71
3
72
20
73
16
40
0
40
0
40
0
40
0
40
0.0402639523420108
40
0.213948217862202
40
0.300790350622298
40
0.387632483382393
40
0.474474616142489
40
0.561316748902584
40
0.64815888166268
40
0.735001014422776
40
0.778422080802823
40
0.821843147182871
40
0.908685279942967
40
0.995527412703062
40
1
40
1
40
1
40
1
41
1
10
64.4563357040769
20
7.56062603918301
30
0
41
1
10
64.6177486152961
20
7.52232369226388
30
0
41
1
10
65.4753182502702
20
7.30586666646622
30
0
41
1
10
66.6812312373127
20
6.90638119963714
30
0
41
1
10
68.0810371456951
20
6.31985045487963
30
0
41
1
10
69.1361893059898
20
5.81979088387806
30
0
41
1
10
70.1984214085489
20
5.26249014216688
30
0
41
1
10
71.2695678927004
20
4.65103567935108
30
0
41
1
10
72.3515216453166
20
3.98878337781807
30
0
41
1
10
73.2637892694049
20
3.39773331693311
30
0
41
1
10
74.0010070281132
20
2.90355289475818
30
0
41
1
10
74.7434902157325
20
2.39588379649644
30
0
41
1
10
75.6822186743225
20
1.73781307488613
30
0
41
1
10
76.465842525057
20
1.17598499399068
30
0
41
1
10
76.8715222563345
20
0.883187317830192
30
0
41
1
10
76.8914021422437
20
0.868834650857934
30
0
0
SPLINE
5
1C6
100
AcDbEntity
8
1
62
256
6
ByLayer
370
18
48
1
60
0
100
AcDbSpline
70
4
71
3
72
8
73
4
40
0
40
0
40
0
40
0
40
1
40
1
40
1
40
1
41
1
10
64.4563357040769
20
7.56062603918301
30
0
41
1
10
64.4556715512682
20
7.55383830583406
30
0
41
1
10
64.4549880874593
20
7.54705467252751
30
0
41
1
10
64.4542915651624
20
7.54027530567078
30
0
0
SPLINE
5
1C7
100
AcDbEntity
8
1
62
256
6
ByLayer
370
18
48
1
60
0
100
AcDbSpline
70
4
71
3
72
14
73
10
40
0
40
0
40
0
40
0
40
0.25
40
0.25
40
0.5
40
0.5
40
0.75
40
0.75
40
1
40
1
40
1
40
1
41
1
10
64.2944212384392
20
7.36882306633979
30
0
41
1
10
64.3129780925291
20
7.37662824842195
30
0
41
1
10
64.3304510969767
20
7.3859566589168
30
0
41
1
10
64.3631057796455
20
7.40782895449502
30
0
41
1
10
64.3783319242722
20
7.42037903642148
30
0
41
1
10
64.4060792995111
20
7.44900060298468
30
0
41
1
10
64.4184272003422
20
7.46486447615547
30
0
41
1
10
64.4395116909012
20
7.50018003571932
30
0
41
1
10
64.4480643820472
20
7.51933553990244
30
0
41
1
10
64.4542915651604
20
7.54027530566094
30
0
0
SPLINE
5
1C8
100
AcDbEntity
8
1
62
256
6
ByLayer
370
18
48
1
60
0
100
AcDbSpline
70
4
71
3
72
32
73
28
40
0
40
0
40
0
40
0
40
0.124999999999981
40
0.124999999999981
40
0.15624999999997
40
0.15624999999997
40
0.187499999999958
40
0.187499999999958
40
0.249999999999966
40
0.249999999999966
40
0.312499999999974
40
0.312499999999974
40
0.343749999999994
40
0.343749999999994
40
0.375000000000014
40
0.375000000000014
40
0.437500000000022
40
0.437500000000022
40
0.453125000000031
40
0.453125000000031
40
0.468750000000041
40
0.468750000000041
40
0.500000000000028
40
0.500000000000028
40
0.750000000000014
40
0.750000000000014
40
1
40
1
40
1
40
1
41
1
10
64.2944212384392
20
7.36882306633979
30
0
41
1
10
64.2646425902255
20
7.35629789529827
30
0
41
1
10
64.232954794627
20
7.34820923924815
30
0
41
1
10
64.1911111069296
20
7.34342877709943
30
0
41
1
10
64.1826266728478
20
7.34274934449636
30
0
41
1
10
64.1654172717356
20
7.3419718032728
30
0
41
1
10
64.1566720365446
20
7.34187353721964
30
0
41
1
10
64.1303699397338
20
7.34247902984552
30
0
41
1
10
64.1126696089444
20
7.34407639070818
30
0
41
1
10
64.0769420001947
20
7.34977816840816
30
0
41
1
10
64.0589142639146
20
7.35388539792447
30
0
41
1
10
64.0316112083272
20
7.36218776822705
30
0
41
1
10
64.0224253359936
20
7.36532933184643
30
0
41
1
10
64.0042432124634
20
7.37229014316617
30
0
41
1
10
63.995234180766
20
7.37611078951485
30
0
41
1
10
63.9684629568013
20
7.38861995067998
30
0
41
1
10
63.950957751976
20
7.39836052857945
30
0
41
1
10
63.9295632269837
20
7.41248619377791
30
0
41
1
10
63.9253083868475
20
7.41540764809287
30
0
41
1
10
63.9168574390752
20
7.42148592849532
30
0
41
1
10
63.9126616489034
20
7.42464397424007
30
0
41
1
10
63.9000714221209
20
7.43409297312166
30
0
41
1
10
63.8916809676366
20
7.44038610444611
30
0
41
1
10
63.8161876968322
20
7.49698447307151
30
0
41
1
10
63.749244077486
20
7.54709193408087
30
0
41
1
10
63.6157318294113
20
7.64705668703314
30
0
41
1
10
63.5491463035265
20
7.69687234687689
30
0
41
1
10
63.4827182646902
20
7.74650227604556
30
0
0
SPLINE
5
1C9
100
AcDbEntity
8
1
62
256
6
ByLayer
370
18
48
1
60
0
100
AcDbSpline
70
4
71
3
72
34
73
30
40
0
40
0
40
0
40
0
40
0.0530078408282891
40
0.0530078408282891
40
0.14770705674546
40
0.14770705674546
40
0.242406272662631
40
0.242406272662631
40
0.337105488579802
40
0.337105488579802
40
0.360780292559095
40
0.384455096538388
40
0.384455096538388
40
0.431804704496974
40
0.431804704496974
40
0.62120313633132
40
0.62120313633132
40
0.668552744289906
40
0.668552744289906
40
0.692227548269198
40
0.692227548269198
40
0.71590235224849
40
0.81060156816566
40
0.81060156816566
40
0.90530078408283
40
0.90530078408283
40
0.952650392041415
40
0.952650392041415
40
1
40
1
40
1
40
1
41
1
10
53.5630149005058
20
6.37596463815271
30
0
41
1
10
53.7383734480234
20
6.45286738189955
30
0
41
1
10
53.9138654772686
20
6.52740468175455
30
0
41
1
10
54.4034280899166
20
6.72833703955322
30
0
41
1
10
54.7166838636169
20
6.8489125061962
30
0
41
1
10
55.3425378808728
20
7.07302447252547
30
0
41
1
10
55.6551713712176
20
7.17656308583474
30
0
41
1
10
56.2806652810618
20
7.36612129311862
30
0
41
1
10
56.5935244851394
20
7.45215458017469
30
0
41
1
10
56.9852584514677
20
7.54841730349199
30
0
41
1
10
57.1420182321584
20
7.58579419169519
30
0
41
1
10
57.2989367236823
20
7.62089229982467
30
0
41
1
10
57.5341254305453
20
7.67174937988582
30
0
41
1
10
57.6907753068814
20
7.70329146984633
30
0
41
1
10
58.473569501259
20
7.84915832947567
30
0
41
1
10
59.0983770525719
20
7.92806542175478
30
0
41
1
10
59.8813953798295
20
7.97850574345074
30
0
41
1
10
60.0380966348698
20
7.98618383718173
30
0
41
1
10
60.273361271418
20
7.99406560519125
30
0
41
1
10
60.3518449978479
20
7.99608699298943
30
0
41
1
10
60.5087159153089
20
7.99891195088489
30
0
41
1
10
60.9006929948613
20
8.00293264699567
30
0
41
1
10
61.2918174580618
20
7.9918021175211
30
0
41
1
10
61.9173333752167
20
7.95466916098405
30
0
41
1
10
62.2299509653242
20
7.92644147342904
30
0
41
1
10
62.6992805130859
20
7.86973494285979
30
0
41
1
10
62.8557909397868
20
7.84843779324078
30
0
41
1
10
63.169050489796
20
7.80105917396014
30
0
41
1
10
63.3258322094915
20
7.77497157703147
30
0
41
1
10
63.4827182646902
20
7.74650227604548
30
0
0
SPLINE
5
1CA
100
AcDbEntity
8
1
62
256
6
ByLayer
370
18
48
1
60
0
100
AcDbSpline
70
4
71
3
72
12
73
8
40
0
40
0
40
0
40
0
40
0.5
40
0.5
40
0.75
40
0.75
40
1
40
1
40
1
40
1
41
1
10
77.1219585208931
20
0.637138261854801
30
0
41
1
10
77.1783975724595
20
0.596746102616947
30
0
41
1
10
77.234832319338
20
0.556826389065748
30
0
41
1
10
77.3196408292901
20
0.497999586100264
30
0
41
1
10
77.3480544532047
20
0.478488821591384
30
0
41
1
10
77.4040966938368
20
0.44049042987217
30
0
41
1
10
77.4317802303199
20
0.421962807342282
30
0
41
1
10
77.4591137234368
20
0.403957746886874
30
0
0
SPLINE
5
1CB
100
AcDbEntity
8
1
62
256
6
ByLayer
370
18
48
1
60
0
100
AcDbSpline
70
4
71
3
72
8
73
4
40
0
40
0
40
0
40
0
40
1
40
1
40
1
40
1
41
1
10
76.9008339983848
20
0.797113918896486
30
0
41
1
10
76.9745349215221
20
0.74384259927723
30
0
41
1
10
77.0482414842065
20
0.69051516865116
30
0
41
1
10
77.121958520893
20
0.637138261855
30
0
0
SPLINE
5
1CC
100
AcDbEntity
8
1
62
256
6
ByLayer
370
18
48
1
60
0
100
AcDbSpline
70
4
71
3
72
8
73
4
40
0
40
0
40
0
40
0
40
1
40
1
40
1
40
1
41
1
10
76.900021341706
20
0.797703712624752
30
0
41
1
10
76.9002922272292
20
0.79750711491198
30
0
41
1
10
76.9005631127886
20
0.797310517002757
30
0
41
1
10
76.9008339983839
20
0.797113918897224
30
0
0
SPLINE
5
1CD
100
AcDbEntity
8
1
62
256
6
ByLayer
370
18
48
1
60
0
100
AcDbSpline
70
4
71
3
72
34
73
30
40
0
40
0
40
0
40
0
40
0.125000000000007
40
0.125000000000007
40
0.18750000000001
40
0.18750000000001
40
0.218750000000011
40
0.218750000000011
40
0.250000000000012
40
0.250000000000012
40
0.375000000000011
40
0.375000000000011
40
0.500000000000011
40
0.500000000000011
40
0.531250000000009
40
0.531250000000009
40
0.562500000000008
40
0.562500000000008
40
0.625000000000007
40
0.625000000000007
40
0.750000000000007
40
0.750000000000007
40
0.812500000000008
40
0.812500000000008
40
0.843750000000007
40
0.843750000000007
40
0.875000000000006
40
0.875000000000006
40
1
40
1
40
1
40
1
41
1
10
30.0000000000001
20
7.81896533944567
30
0
41
1
10
30.3957121012005
20
7.75474617711785
30
0
41
1
10
30.7905143447041
20
7.67375346122859
30
0
41
1
10
31.3827494337426
20
7.52776943308376
30
0
41
1
10
31.5801669160404
20
7.47502895294332
30
0
41
1
10
31.8764847520717
20
7.38986519125785
30
0
41
1
10
31.9752893868449
20
7.36046808900718
30
0
41
1
10
32.1729942593211
20
7.29966334658667
30
0
41
1
10
32.2719267462925
20
7.26824451748843
30
0
41
1
10
32.7661148831782
20
7.1064056865915
30
0
41
1
10
33.1604564331724
20
6.96159591784632
30
0
41
1
10
33.9490949147704
20
6.64302111408415
30
0
41
1
10
34.3433831224997
20
6.46928274639149
30
0
41
1
10
34.8374217258275
20
6.23462258379774
30
0
41
1
10
34.9362855833594
20
6.18683083134627
30
0
41
1
10
35.1341545507806
20
6.08953716278353
30
0
41
1
10
35.2330945322016
20
6.04005864947709
30
0
41
1
10
35.5296443774633
20
5.88933460437528
30
0
41
1
10
35.7271175801013
20
5.78574898513196
30
0
41
1
10
36.319160486556
20
5.46606451124265
30
0
41
1
10
36.7133429834371
20
5.24095959418415
30
0
41
1
10
37.305227653386
20
4.88666145066622
30
0
41
1
10
37.5026283793885
20
4.76577707711368
30
0
41
1
10
37.7990705240821
20
4.58045652754328
30
0
41
1
10
37.8979827481376
20
4.51799199326112
30
0
41
1
10
38.0957450554126
20
4.39189340431057
30
0
41
1
10
38.1945563432688
20
4.32828461563611
30
0
41
1
10
38.6883429252339
20
4.00753404308742
30
0
41
1
10
39.082514036925
20
3.7422622353923
30
0
41
1
10
39.476823306519
20
3.46954085438617
30
0
0
SPLINE
5
1CE
100
AcDbEntity
8
1
62
256
6
ByLayer
370
18
48
1
60
0
100
AcDbSpline
70
4
71
3
72
16
73
12
40
0
40
0
40
0
40
0
40
0.229647474581653
40
0.229647474581653
40
0.344471211872483
40
0.344471211872483
40
0.459294949163313
40
0.459294949163313
40
0.91858989832662
40
0.91858989832662
40
1
40
1
40
1
40
1
41
1
10
56.4540074551477
20
-7.39600607934366
30
0
41
1
10
56.7665560389972
20
-7.48748596869356
30
0
41
1
10
57.0790931536818
20
-7.56900714729642
30
0
41
1
10
57.5486373664459
20
-7.67590346482027
30
0
41
1
10
57.7052757931459
20
-7.70896782076855
30
0
41
1
10
58.0189246945337
20
-7.7698983899586
30
0
41
1
10
58.1756405962454
20
-7.79770807628373
30
0
41
1
10
58.9585083779635
20
-7.92340426847187
30
0
41
1
10
59.5830288617974
20
-7.98135888943995
30
0
41
1
10
60.3202367295703
20
-7.99878130027582
30
0
41
1
10
60.4312864889078
20
-8.00004939851684
30
0
41
1
10
60.5424103042751
20
-7.99995769665966
30
0
0
SPLINE
5
1CF
100
AcDbEntity
8
1
62
256
6
ByLayer
370
18
48
1
60
0
100
AcDbSpline
70
4
71
3
72
16
73
12
40
0
40
0
40
0
40
0
40
0.249999999999953
40
0.249999999999953
40
0.499999999999906
40
0.499999999999906
40
0.624999999999916
40
0.624999999999916
40
0.749999999999926
40
0.749999999999926
40
1
40
1
40
1
40
1
41
1
10
56.2883367913064
20
-7.11084171041784
30
0
41
1
10
56.3074704333301
20
-7.12978838831481
30
0
41
1
10
56.3254808365475
20
-7.14992819996402
30
0
41
1
10
56.3591554699453
20
-7.19269710049792
30
0
41
1
10
56.3748305371051
20
-7.21531436689995
30
0
41
1
10
56.3963650564364
20
-7.25134441788768
30
0
41
1
10
56.4032435355501
20
-7.2637695404681
30
0
41
1
10
56.4160805612034
20
-7.28904504456398
30
0
41
1
10
56.4220360475182
20
-7.30188458747077
30
0
41
1
10
56.4384352083739
20
-7.34104363077992
30
0
41
1
10
56.4474265513518
20
-7.36799686490556
30
0
41
1
10
56.4540074551476
20
-7.39600607934372
30
0
0
SPLINE
5
1D0
100
AcDbEntity
8
1
62
256
6
ByLayer
370
18
48
1
60
0
100
AcDbSpline
70
4
71
3
72
31
73
27
40
0
40
0
40
0
40
0
40
0.062499999999965
40
0.062499999999965
40
0.12499999999993
40
0.12499999999993
40
0.156249999999912
40
0.156249999999912
40
0.187499999999895
40
0.187499999999895
40
0.24999999999983
40
0.24999999999983
40
0.312499999999764
40
0.312499999999764
40
0.343749999999748
40
0.343749999999748
40
0.374999999999731
40
0.437499999999696
40
0.437499999999696
40
0.468749999999694
40
0.468749999999694
40
0.499999999999691
40
0.499999999999691
40
0.749999999999846
40
0.749999999999846
40
1
40
1
40
1
40
1
41
1
10
56.2883367913064
20
-7.11084171041787
30
0
41
1
10
56.2733284240892
20
-7.09597999725975
30
0
41
1
10
56.2578553428099
20
-7.08214183524774
30
0
41
1
10
56.2260263537125
20
-7.05642610707648
30
0
41
1
10
56.2096839194225
20
-7.04451727697958
30
0
41
1
10
56.1845100119325
20
-7.0281380668637
30
0
41
1
10
56.1760066446348
20
-7.02293040020515
30
0
41
1
10
56.1587703346686
20
-7.01303538897182
30
0
41
1
10
56.1500360321713
20
-7.00834911954746
30
0
41
1
10
56.1237862251845
20
-6.99525605615818
30
0
41
1
10
56.1061247818539
20
-6.98775694439215
30
0
41
1
10
56.0704830531385
20
-6.97533430499072
30
0
41
1
10
56.0525016220034
20
-6.97041950434786
30
0
41
1
10
56.0252742466049
20
-6.96524568804594
30
0
41
1
10
56.0161204979521
20
-6.96388737203955
30
0
41
1
10
55.9980258822016
20
-6.96201230796478
30
0
41
1
10
55.9711255942059
20
-6.96043491804144
30
0
41
1
10
55.944985569532
20
-6.96267464148627
30
0
41
1
10
55.9194367177655
20
-6.96779531478796
30
0
41
1
10
55.9110532651014
20
-6.97015692076616
30
0
41
1
10
55.8942522667183
20
-6.97464572868256
30
0
41
1
10
55.8858550060869
20
-6.9768766775654
30
0
41
1
10
55.8103034997793
20
-6.99684751867784
30
0
41
1
10
55.7433275001681
20
-7.01392759527351
30
0
41
1
10
55.6097681861801
20
-7.04691032172417
30
0
41
1
10
55.5431706956206
20
-7.06276513415619
30
0
41
1
10
55.4767414678495
20
-7.0779676611395
30
0
0
SPLINE
5
1D1
100
AcDbEntity
8
1
62
256
6
ByLayer
370
18
48
1
60
0
100
AcDbSpline
70
4
71
3
72
8
73
4
40
0
40
0
40
0
40
0
40
1
40
1
40
1
40
1
41
1
10
55.4628518872149
20
-7.04177104392366
30
0
41
1
10
55.4675965313972
20
-7.05385296198131
30
0
41
1
10
55.4722277328106
20
-7.06591776280632
30
0
41
1
10
55.4767414678446
20
-7.07796766114998
30
0
0
SPLINE
5
1D2
100
AcDbEntity
8
1
62
256
6
ByLayer
370
18
48
1
60
0
100
AcDbSpline
70
4
71
3
72
8
73
4
40
0
40
0
40
0
40
0
40
1
40
1
40
1
40
1
41
1
10
29.6226896934194
20
7.78440480501695
30
0
41
1
10
29.6413143453377
20
7.79368015407005
30
0
41
1
10
29.6596772713083
20
7.80267929159851
30
0
41
1
10
29.6777945491482
20
7.81141055954194
30
0
0
SPLINE
5
1D3
100
AcDbEntity
8
1
62
256
6
ByLayer
370
18
48
1
60
0
100
AcDbSpline
70
4
71
3
72
8
73
4
40
0
40
0
40
0
40
0
40
1
40
1
40
1
40
1
41
1
10
29.6777945491469
20
7.81141055954274
30
0
41
1
10
29.7430288360333
20
7.84284894907
30
0
41
1
10
29.8173831455002
20
7.86834974021266
30
0
41
1
10
29.8984141091619
20
7.88732744773307
30
0
0
SPLINE
5
1D4
100
AcDbEntity
8
1
62
256
6
ByLayer
370
18
48
1
60
0
100
AcDbSpline
70
4
71
3
72
10
73
6
40
0
40
0
40
0
40
0
40
0.5
40
0.5
40
1
40
1
40
1
40
1
41
1
10
29.8984141091618
20
7.88732744773304
30
0
41
1
10
29.9084991096955
20
7.8793496920112
30
0
41
1
10
29.9222784365456
20
7.87091257166836
30
0
41
1
10
29.9560223090056
20
7.8525682301696
30
0
41
1
10
29.9759807400711
20
7.84266710197704
30
0
41
1
10
29.9985284761058
20
7.83184169220604
30
0
0
SPLINE
5
1D5
100
AcDbEntity
8
1
62
256
6
ByLayer
370
18
48
1
60
0
100
AcDbSpline
70
4
71
3
72
8
73
4
40
0
40
0
40
0
40
0
40
1
40
1
40
1
40
1
41
1
10
29.9999999999999
20
7.81902094228943
30
0
41
1
10
29.9993618697737
20
7.82329869901452
30
0
41
1
10
29.9988697333141
20
7.82757138819704
30
0
41
1
10
29.9985284761057
20
7.83184169220601
30
0
0
SPLINE
5
1D6
100
AcDbEntity
8
1
62
256
6
ByLayer
370
18
48
1
60
0
100
AcDbSpline
70
4
71
3
72
30
73
26
40
0
40
0
40
0
40
0
40
0.0259985876944605
40
0.0650646094930835
40
0.104130631291706
40
0.182262674888953
40
0.221328696687576
40
0.260394718486199
40
0.338526762083445
40
0.377592783882068
40
0.416658805680691
40
0.494790849277937
40
0.53385687107656
40
0.572922892875183
40
0.611988914673806
40
0.651054936472429
40
0.690120958271052
40
0.729186980069675
40
0.768253001868298
40
0.807319023666921
40
0.846385045465544
40
0.885451067264167
40
0.92451708906279
40
0.963583110861413
40
1
40
1
40
1
40
1
41
1
10
29.9984990443216
20
-3.29365371526112
30
0
41
1
10
30.1148402196901
20
-3.36927062558848
30
0
41
1
10
30.4060944123922
20
-3.55724299062939
30
0
41
1
10
30.8726179671579
20
-3.85262185575897
30
0
41
1
10
31.5734300758395
20
-4.28506990944459
30
0
41
1
10
32.2753363446122
20
-4.69984009244513
30
0
41
1
10
32.9783840965703
20
-5.09402887412213
30
0
41
1
10
33.6820943442018
20
-5.47355387823924
30
0
41
1
10
34.3865424562176
20
-5.82969519492656
30
0
41
1
10
35.0912460177432
20
-6.15962342875275
30
0
41
1
10
35.7959386718023
20
-6.47129293445994
30
0
41
1
10
36.500353927881
20
-6.75454392161348
30
0
41
1
10
37.2039328497781
20
-7.00719586569309
30
0
41
1
10
37.731183495977
20
-7.18101977893846
30
0
41
1
10
38.2580188166366
20
-7.33889953492684
30
0
41
1
10
38.7844583214261
20
-7.48049342799291
30
0
41
1
10
39.3105143098325
20
-7.60544991153202
30
0
41
1
10
39.836199278281
20
-7.71367612553294
30
0
41
1
10
40.3615244477665
20
-7.80490451152443
30
0
41
1
10
40.8865059757059
20
-7.87897171845319
30
0
41
1
10
41.4111518648645
20
-7.93569747885797
30
0
41
1
10
41.9354652574961
20
-7.97506457230608
30
0
41
1
10
42.4594395567938
20
-7.99703702607937
30
0
41
1
10
42.9712439120319
20
-8.00143631553769
30
0
41
1
10
43.3082894128438
20
-7.99348051607387
30
0
41
1
10
43.4708518921643
20
-7.98712515029763
30
0
0
SPLINE
5
1D7
100
AcDbEntity
8
1
62
256
6
ByLayer
370
18
48
1
60
0
100
AcDbSpline
70
4
71
3
72
8
73
4
40
0
40
0
40
0
40
0
40
1
40
1
40
1
40
1
41
1
10
29.6777945491468
20
-3.13549633375561
30
0
41
1
10
29.7849759847819
20
-3.20851044520506
30
0
41
1
10
29.892383467732
20
-3.28136984183675
30
0
41
1
10
30.0000018329792
20
-3.35408490312798
30
0
0
SPLINE
5
1D8
100
AcDbEntity
8
1
62
256
6
ByLayer
370
18
48
1
60
0
100
AcDbSpline
70
4
71
3
72
8
73
4
40
0
40
0
40
0
40
0
40
1
40
1
40
1
40
1
41
1
10
30
20
-3.35386050492673
30
0
41
1
10
29.9993516857587
20
-3.33379655378175
30
0
41
1
10
29.99884984242
20
-3.31372731531945
30
0
41
1
10
29.9984990443216
20
-3.29365371526112
30
0
0
SPLINE
5
1D9
100
AcDbEntity
8
1
62
256
6
ByLayer
370
18
48
1
60
0
100
AcDbSpline
70
4
71
3
72
10
73
6
40
0
40
0
40
0
40
0
40
0.5
40
0.5
40
1
40
1
40
1
40
1
41
1
10
29.8981093109843
20
-2.62455799649939
30
0
41
1
10
29.908213405388
20
-2.73723622129498
30
0
41
1
10
29.9220067037638
20
-2.8494075611209
30
0
41
1
10
29.9558283319336
20
-3.07256379293398
30
0
41
1
10
29.9758496182685
20
-3.18348751848279
30
0
41
1
10
29.9984990443216
20
-3.29365371526112
30
0
0
SPLINE
5
1DA
100
AcDbEntity
8
1
62
256
6
ByLayer
370
18
48
1
60
0
100
AcDbSpline
70
4
71
3
72
10
73
6
40
0
40
0
40
0
40
0
40
0.5
40
0.5
40
1
40
1
40
1
40
1
41
1
10
29.3388377992094
20
-0.78894013331356
30
0
41
1
10
29.3128812426339
20
-0.769803025918634
30
0
41
1
10
29.286347227743
20
-0.751011133934213
30
0
41
1
10
29.2326396788704
20
-0.714616581088166
30
0
41
1
10
29.2054180600833
20
-0.696975310013869
30
0
41
1
10
29.1777945491469
20
-0.679941508333286
30
0
0
SPLINE
5
1DB
100
AcDbEntity
8
1
62
256
6
ByLayer
370
18
48
1
60
0
100
AcDbSpline
70
4
71
3
72
10
73
6
40
0
40
0
40
0
40
0
40
0.5
40
0.5
40
1
40
1
40
1
40
1
41
1
10
29.177794549147
20
-2.89301080671072
30
0
41
1
10
29.235408728156
20
-2.91058401235097
30
0
41
1
10
29.2918706250489
20
-2.9308051514102
30
0
41
1
10
29.4023482119727
20
-2.976907135098
30
0
41
1
10
29.4563635746809
20
-3.00278861179493
30
0
41
1
10
29.5090068149191
20
-3.0318625714593
30
0
0
SPLINE
5
1DC
100
AcDbEntity
8
1
62
256
6
ByLayer
370
18
48
1
60
0
100
AcDbSpline
70
4
71
3
72
8
73
4
40
0
40
0
40
0
40
0
40
1
40
1
40
1
40
1
41
1
10
29.5090068149191
20
-3.03186257145924
30
0
41
1
10
29.5676342267044
20
-3.06424148654429
30
0
41
1
10
29.623900529571
20
-3.09878266287981
30
0
41
1
10
29.6777945491476
20
-3.13549633375487
30
0
0
SPLINE
5
1DD
100
AcDbEntity
8
1
62
256
6
ByLayer
370
18
48
1
60
0
100
AcDbSpline
70
4
71
3
72
46
73
42
40
0
40
0
40
0
40
0
40
0.0312500000000004
40
0.0312500000000004
40
0.0625000000000009
40
0.0625000000000009
40
0.125000000000002
40
0.125000000000002
40
0.187500000000003
40
0.187500000000003
40
0.218750000000003
40
0.218750000000003
40
0.234375000000004
40
0.234375000000004
40
0.250000000000005
40
0.250000000000005
40
0.375000000000016
40
0.375000000000016
40
0.437500000000021
40
0.437500000000021
40
0.453125000000022
40
0.453125000000022
40
0.468750000000023
40
0.500000000000023
40
0.500000000000023
40
0.62500000000002
40
0.62500000000002
40
0.656250000000019
40
0.656250000000019
40
0.687500000000018
40
0.687500000000018
40
0.750000000000016
40
0.812500000000015
40
0.812500000000015
40
0.828125000000014
40
0.828125000000014
40
0.843750000000013
40
0.843750000000013
40
0.875000000000011
40
0.875000000000011
40
1
40
1
40
1
40
1
41
1
10
52.454026165211
20
5.61897419013778
30
0
41
1
10
52.6105443520881
20
5.53580294449844
30
0
41
1
10
52.7671656219622
20
5.45079305668517
30
0
41
1
10
53.0807196956838
20
5.27717879806906
30
0
41
1
10
53.2376944343345
20
5.18854786220314
30
0
41
1
10
53.7078812714535
20
4.9181658498407
30
0
41
1
10
54.0207890863638
20
4.731686630154
30
0
41
1
10
54.6462957011496
20
4.34724172835411
30
0
41
1
10
54.958891976831
20
4.14927015999982
30
0
41
1
10
55.4281913268561
20
3.84437678613338
30
0
41
1
10
55.5846932864517
20
3.7414230332065
30
0
41
1
10
55.8196344997337
20
3.5851002230587
30
0
41
1
10
55.8979795542632
20
3.53267743551518
30
0
41
1
10
56.0547463976197
20
3.42721725640325
30
0
41
1
10
56.1331891055632
20
3.37416549413288
30
0
41
1
10
56.8386162337729
20
2.89466372671222
30
0
41
1
10
57.4631130118298
20
2.45305171383089
30
0
41
1
10
58.4014727195909
20
1.77455353456924
30
0
41
1
10
58.7145220739181
20
1.5457080264305
30
0
41
1
10
59.1066920232836
20
1.2569712330945
30
0
41
1
10
59.1851383137966
20
1.1991120978393
30
0
41
1
10
59.341912510845
20
1.08330222080292
30
0
41
1
10
59.5769650883562
20
0.909399101235493
30
0
41
1
10
59.8117480090496
20
0.735007192162129
30
0
41
1
10
60.5939942923407
20
0.152931935645626
30
0
41
1
10
61.2185719273948
20
-0.315262317622199
30
0
41
1
10
62.0021327661601
20
-0.897821775527149
30
0
41
1
10
62.1590504328725
20
-1.01424109068262
30
0
41
1
10
62.4723972071099
20
-1.24599330331546
30
0
41
1
10
62.6289292751343
20
-1.36140295889359
30
0
41
1
10
63.0982728541713
20
-1.70601596265067
30
0
41
1
10
63.7233925200468
20
-2.16118977797939
30
0
41
1
10
64.3489527293531
20
-2.60545323704869
30
0
41
1
10
64.7406063139343
20
-2.87899536186544
30
0
41
1
10
64.818970891626
20
-2.93349765948827
30
0
41
1
10
64.9757810482583
20
-3.04207214761507
30
0
41
1
10
65.0542528277657
20
-3.09616216544785
30
0
41
1
10
65.2895098906227
20
-3.25755649746725
30
0
41
1
10
65.4461934220517
20
-3.36402479582117
30
0
41
1
10
66.2290864661956
20
-3.89045418043449
30
0
41
1
10
66.8536594721033
20
-4.2927533882127
30
0
41
1
10
67.479830935679
20
-4.67238488259045
30
0
0
SPLINE
5
1DE
100
AcDbEntity
8
1
62
256
6
ByLayer
370
18
48
1
60
0
100
AcDbSpline
70
4
71
3
72
36
73
32
40
0
40
0
40
0
40
0
40
0.124999999999999
40
0.124999999999999
40
0.15625
40
0.15625
40
0.1875
40
0.1875
40
0.250000000000001
40
0.375000000000002
40
0.375000000000002
40
0.406250000000002
40
0.406250000000002
40
0.437500000000003
40
0.437500000000003
40
0.500000000000003
40
0.500000000000003
40
0.625000000000004
40
0.625000000000004
40
0.656250000000004
40
0.656250000000004
40
0.687500000000004
40
0.687500000000004
40
0.750000000000005
40
0.750000000000005
40
0.875000000000006
40
0.875000000000006
40
0.906250000000004
40
0.906250000000004
40
0.937500000000003
40
1
40
1
40
1
40
1
41
1
10
64.4542915651544
20
7.54027530566739
30
0
41
1
10
64.9724488051162
20
7.41449446223831
30
0
41
1
10
65.4900594211291
20
7.26390640579166
30
0
41
1
10
66.1384328097714
20
7.0457687472732
30
0
41
1
10
66.2681742323874
20
7.00064314802617
30
0
41
1
10
66.527844969028
20
6.90741684416651
30
0
41
1
10
66.6578195768692
20
6.85929740481646
30
0
41
1
10
67.0472436757074
20
6.71084558518641
30
0
41
1
10
67.8248657036713
20
6.39729845452331
30
0
41
1
10
68.6008870083933
20
6.03565839814806
30
0
41
1
10
69.2490314234135
20
5.70961328590553
30
0
41
1
10
69.3787333671544
20
5.64316988703959
30
0
41
1
10
69.6383420765984
20
5.50786317651833
30
0
41
1
10
69.7682985643749
20
5.43897201787621
30
0
41
1
10
70.1577056298285
20
5.22920738284537
30
0
41
1
10
70.4169408505983
20
5.08511923680132
30
0
41
1
10
71.1942118679183
20
4.64091479303116
30
0
41
1
10
71.7118260232751
20
4.32888208307898
30
0
41
1
10
72.3601711295045
20
3.92124631292182
30
0
41
1
10
72.4899064802918
20
3.83883829508579
30
0
41
1
10
72.7495646035319
20
3.67231934663306
30
0
41
1
10
72.8795364963414
20
3.58817575974291
30
0
41
1
10
73.2690444256877
20
3.3337900286696
30
0
41
1
10
73.5283851752583
20
3.16145852098217
30
0
41
1
10
74.3061041991811
20
2.63714283759398
30
0
41
1
10
74.8241770345602
20
2.27784302591843
30
0
41
1
10
75.4736002132544
20
1.81952182918039
30
0
41
1
10
75.603455194913
20
1.72748312941869
30
0
41
1
10
75.8629725928278
20
1.54287219309569
30
0
41
1
10
76.2520502420505
20
1.2650908788863
30
0
41
1
10
76.6407922400953
20
0.985071789560351
30
0
41
1
10
76.9000241295014
20
0.797699293242601
30
0
0
SPLINE
5
1DF
100
AcDbEntity
8
1
62
256
6
ByLayer
370
18
48
1
60
0
100
AcDbSpline
70
4
71
3
72
54
73
50
40
0
40
0
40
0
40
0
40
0.015625
40
0.015625
40
0.03125
40
0.03125
40
0.0624999999999983
40
0.0624999999999983
40
0.124999999999995
40
0.124999999999995
40
0.187499999999991
40
0.187499999999991
40
0.20312499999999
40
0.20312499999999
40
0.218749999999989
40
0.218749999999989
40
0.249999999999988
40
0.249999999999988
40
0.374999999999981
40
0.374999999999981
40
0.39062499999998
40
0.39062499999998
40
0.406249999999979
40
0.406249999999979
40
0.437499999999979
40
0.437499999999979
40
0.49999999999998
40
0.49999999999998
40
0.562499999999982
40
0.562499999999982
40
0.578124999999982
40
0.578124999999982
40
0.593749999999983
40
0.593749999999983
40
0.624999999999985
40
0.624999999999985
40
0.749999999999988
40
0.749999999999988
40
0.781249999999989
40
0.781249999999989
40
0.812499999999991
40
0.812499999999991
40
0.874999999999994
40
0.874999999999994
40
0.937499999999997
40
0.937499999999997
40
0.968749999999999
40
0.968749999999999
40
1
40
1
40
1
40
1
41
1
10
40.4537400888689
20
2.7798264404561
30
0
41
1
10
40.5320537324051
20
2.72349375526892
30
0
41
1
10
40.610403872295
20
2.66690397335975
30
0
41
1
10
40.7671922836133
20
2.55322576233405
30
0
41
1
10
40.8456411483243
20
2.49612945241711
30
0
41
1
10
41.080786459964
20
2.3243774023278
30
0
41
1
10
41.2373968133613
20
2.20917606708954
30
0
41
1
10
41.7069330138698
20
1.86169151099193
30
0
41
1
10
42.0195624790978
20
1.62752720234627
30
0
41
1
10
42.6448567809763
20
1.15525233408991
30
0
41
1
10
42.9575272572692
20
0.917142450285809
30
0
41
1
10
43.3489846066475
20
0.617789365450705
30
0
41
1
10
43.4273072216209
20
0.557833157693636
30
0
41
1
10
43.5840300826437
20
0.437769053771206
30
0
41
1
10
43.6624560524663
20
0.377641426032653
30
0
41
1
10
43.897551096807
20
0.19730777647959
30
0
41
1
10
44.0541093428849
20
0.0770956015104503
30
0
41
1
10
44.8363526048908
20
-0.523511602411531
30
0
41
1
10
45.4604192119185
20
-1.00249675153353
30
0
41
1
10
46.1649840619799
20
-1.53391036491078
30
0
41
1
10
46.2433032568334
20
-1.59285339547756
30
0
41
1
10
46.4000251122787
20
-1.71051382770989
30
0
41
1
10
46.4784574809983
20
-1.76925338068978
30
0
41
1
10
46.7136456010062
20
-1.94491217303272
30
0
41
1
10
46.8702770106286
20
-2.06126015730896
30
0
41
1
10
47.3398619461784
20
-2.40782296838589
30
0
41
1
10
47.6525105242201
20
-2.63554992531746
30
0
41
1
10
48.2778269123951
20
-3.08339724881969
30
0
41
1
10
48.5904846147561
20
-3.30352917046781
30
0
41
1
10
48.9818786581652
20
-3.57323370335885
30
0
41
1
10
49.0601863249486
20
-3.62690106296091
30
0
41
1
10
49.2168747930425
20
-3.73366847848388
30
0
41
1
10
49.2952781668347
20
-3.78678348635111
30
0
41
1
10
49.530463397273
20
-3.94514182347581
30
0
41
1
10
49.6870722184452
20
-4.04930027944323
30
0
41
1
10
50.4695196318054
20
-4.56272831021909
30
0
41
1
10
51.0935672978329
20
-4.94994266043801
30
0
41
1
10
51.8762116551189
20
-5.39922503949964
30
0
41
1
10
52.0328774048005
20
-5.48735170174282
30
0
41
1
10
52.346552058265
20
-5.65998799534466
30
0
41
1
10
52.5032206766624
20
-5.74431002260917
30
0
41
1
10
52.9728964347565
20
-5.9911647463048
30
0
41
1
10
53.2855760029288
20
-6.14758632154249
30
0
41
1
10
53.9109357516102
20
-6.44342302085431
30
0
41
1
10
54.2236045206013
20
-6.58286439917356
30
0
41
1
10
54.6932310356187
20
-6.77877841483439
30
0
41
1
10
54.8498787678435
20
-6.84187224921402
30
0
41
1
10
55.1635053395599
20
-6.96352363883574
30
0
41
1
10
55.3202081865338
20
-7.02197303031798
30
0
41
1
10
55.4767414678521
20
-7.07796766114521
30
0
0
SPLINE
5
1E0
100
AcDbEntity
8
1
62
256
6
ByLayer
370
18
48
1
60
0
100
AcDbSpline
70
4
71
3
72
16
73
12
40
0
40
0
40
0
40
0
40
0.125
40
0.125
40
0.25
40
0.25
40
0.5
40
0.5
40
0.75
40
0.75
40
1
40
1
40
1
40
1
41
1
10
29.3388377991972
20
-0.788940133316629
30
0
41
1
10
29.3554567385592
20
-0.835120089439641
30
0
41
1
10
29.3712978355077
20
-0.881531296938022
30
0
41
1
10
29.402170428749
20
-0.974584893549832
30
0
41
1
10
29.4171859012572
20
-1.02123225962731
30
0
41
1
10
29.4614308610007
20
-1.16139342699796
30
0
41
1
10
29.4898777692473
20
-1.25512042881212
30
0
41
1
10
29.5455421677303
20
-1.44287945546705
30
0
41
1
10
29.5727332755585
20
-1.53691966033082
30
0
41
1
10
29.626060752609
20
-1.72525391914368
30
0
41
1
10
29.6521907293779
20
-1.81954995026908
30
0
41
1
10
29.6777945491501
20
-1.91397438726796
30
0
0
SPLINE
5
1E1
100
AcDbEntity
8
1
62
256
6
ByLayer
370
18
48
1
60
0
100
AcDbSpline
70
4
71
3
72
8
73
4
40
0
40
0
40
0
40
0
40
1
40
1
40
1
40
1
41
1
10
29.6777945491468
20
-1.91397438726349
30
0
41
1
10
29.7428815023116
20
-2.1540088416229
30
0
41
1
10
29.8171154670217
20
-2.3906502882065
30
0
41
1
10
29.8981093109843
20
-2.62455799649939
30
0
0
SPLINE
5
1E2
100
AcDbEntity
8
1
62
256
6
ByLayer
370
18
48
1
60
0
100
AcDbSpline
70
4
71
2
72
6
73
3
40
0
40
0
40
0
40
1
40
1
40
1
41
1
10
44.411115171136
20
-7.81397338102383
30
0
41
1
10
44.4459066762396
20
-7.86362146650166
30
0
41
1
10
44.4576037249602
20
-7.92310201682523
30
0
0
SPLINE
5
1E3
100
AcDbEntity
8
1
62
256
6
ByLayer
370
18
48
1
60
0
100
AcDbSpline
70
4
71
2
72
6
73
3
40
0
40
0
40
0
40
1
40
1
40
1
41
1
10
77.8417710466159
20
-0.596061588670011
30
0
41
1
10
77.8904643474809
20
-0.209057836541405
30
0
41
1
10
77.939151865769
20
0.177899172628713
30
0
0
SPLINE
5
1E4
100
AcDbEntity
8
1
62
256
6
ByLayer
370
18
48
1
60
0
100
AcDbSpline
70
4
71
2
72
6
73
3
40
0
40
0
40
0
40
1
40
1
40
1
41
1
10
77.9628088255084
20
0.365919109863995
30
0
41
1
10
77.9680073341274
20
0.407235620283728
30
0
41
1
10
77.9732057768186
20
0.448551597781631
30
0
0
SPLINE
5
1E5
100
AcDbEntity
8
1
62
256
6
ByLayer
370
18
48
1
60
0
100
AcDbSpline
70
4
71
3
72
17
73
13
40
0
40
0
40
0
40
0
40
0.0143143803445751
40
0.081382787650769
40
0.148071227853188
40
0.212546010152598
40
0.276309062550284
40
0.342728093653828
40
0.409868661484761
40
0.475804940273684
40
0.737392780509321
40
1
40
1
40
1
40
1
41
1
10
64.4482558476291
20
7.68066488695874
30
0
41
1
10
64.447123069759
20
7.67467566085045
30
0
41
1
10
64.4394994643929
20
7.64111066040692
30
0
41
1
10
64.4076885743109
20
7.58539362461045
30
0
41
1
10
64.3533858186163
20
7.52099861292922
30
0
41
1
10
64.2852683719232
20
7.47268522280797
30
0
41
1
10
64.2082407589035
20
7.44137964184364
30
0
41
1
10
64.1248021550472
20
7.42889019350542
30
0
41
1
10
64.039655620578
20
7.43646027984062
30
0
41
1
10
63.8814892092934
20
7.49517050330479
30
0
41
1
10
63.6898866002016
20
7.66251863617202
30
0
41
1
10
63.5035408776131
20
7.78188195059508
30
0
41
1
10
63.4128157878196
20
7.84622638607249
30
0
0
SPLINE
5
1E6
100
AcDbEntity
8
1
62
256
6
ByLayer
370
18
48
1
60
0
100
AcDbSpline
70
4
71
1
72
4
73
2
40
0
40
0
40
1
40
1
41
1
10
75.3366040417354
20
4.86679895111567
30
0
41
1
10
75.1665546927376
20
4.93429531167453
30
0
0
SPLINE
5
1E7
100
AcDbEntity
8
1
62
256
6
ByLayer
370
18
48
1
60
0
100
AcDbSpline
70
4
71
3
72
9
73
5
40
0
40
0
40
0
40
0
40
0.601224298222408
40
1
40
1
40
1
40
1
41
1
10
71.3488591653685
20
6.18556056289208
30
0
41
1
10
71.083762611046
20
6.24795618900797
30
0
41
1
10
70.6463160332151
20
6.34593412956565
30
0
41
1
10
70.2131256656258
20
6.43445817946468
30
0
41
1
10
70.0416699563021
20
6.46817685892717
30
0
0
SPLINE
5
1E8
100
AcDbEntity
8
1
62
256
6
ByLayer
370
18
48
1
60
0
100
AcDbSpline
70
4
71
3
72
19
73
15
40
0
40
0
40
0
40
0
40
0.137022770086015
40
0.248279685857707
40
0.333790401560638
40
0.404721020323078
40
0.478643842022546
40
0.555780539625191
40
0.633625797728564
40
0.715164514340312
40
0.787248863557633
40
0.864367910031481
40
0.951932613834581
40
1
40
1
40
1
40
1
41
1
10
30.6818104850387
20
-7.02480669782375
30
0
41
1
10
30.9108194438853
20
-7.01720281460473
30
0
41
1
10
31.3246542897695
20
-6.99842905528376
30
0
41
1
10
31.8794303016774
20
-6.96075793239058
30
0
41
1
10
32.321007198081
20
-6.92318154084626
30
0
41
1
10
32.6977287944232
20
-6.88607121034573
30
0
41
1
10
33.0629055498764
20
-6.84552133796674
30
0
41
1
10
33.4401728864854
20
-6.79875745077078
30
0
41
1
10
33.8310786538941
20
-6.74516105719886
30
0
41
1
10
34.2145072569348
20
-6.68748623304003
30
0
41
1
10
34.5997555303229
20
-6.6245556109148
30
0
41
1
10
34.9882588282195
20
-6.55653759955553
30
0
41
1
10
35.3289104289722
20
-6.49235973014757
30
0
41
1
10
35.5509690010105
20
-6.44825479553089
30
0
41
1
10
35.6300660350337
20
-6.43226047561609
30
0
0
SPLINE
5
1E9
100
AcDbEntity
8
1
62
256
6
ByLayer
370
18
48
1
60
0
100
AcDbSpline
70
4
71
3
72
16
73
12
40
0
40
0
40
0
40
0
40
0.216040655802345
40
0.360868161623131
40
0.418561247435169
40
0.464811432881081
40
0.509684351238674
40
0.574624764647902
40
0.667125333874788
40
0.808960385048924
40
1
40
1
40
1
40
1
41
1
10
61.9417055327621
20
3.6202581543304
30
0
41
1
10
61.7779543856865
20
3.66401971166962
30
0
41
1
10
61.5080071737392
20
3.74108487772142
30
0
41
1
10
61.1948146556997
20
3.84067221235571
30
0
41
1
10
61.0168162849136
20
3.90033460681923
30
0
41
1
10
60.91311190024
20
3.93596106360039
30
0
41
1
10
60.8033020403339
20
3.97448318004092
30
0
41
1
10
60.6622398123695
20
4.02518611385472
30
0
41
1
10
60.4439041864589
20
4.10645094260659
30
0
41
1
10
60.1276342913497
20
4.23042926611805
30
0
41
1
10
59.8782641107567
20
4.33513048153722
30
0
41
1
10
59.7340656363255
20
4.39792068771609
30
0
0
SPLINE
5
1EA
100
AcDbEntity
8
1
62
256
6
ByLayer
370
18
48
1
60
0
100
AcDbSpline
70
4
71
3
72
20
73
16
40
0
40
0
40
0
40
0
40
0.10950749565939
40
0.198262346585363
40
0.277442786222967
40
0.328252966362262
40
0.380728126163841
40
0.447081362829987
40
0.525065405214156
40
0.600875166003569
40
0.659430154981414
40
0.704900611164842
40
0.772798585577185
40
0.871202992672455
40
1
40
1
40
1
40
1
41
1
10
44.7900980436694
20
3.79550666881008
30
0
41
1
10
44.6860262798977
20
3.81934010992236
30
0
41
1
10
44.4973889186335
20
3.86487407441709
30
0
41
1
10
44.2328364316411
20
3.93464464232062
30
0
41
1
10
44.0239335120126
20
3.99366904964467
30
0
41
1
10
43.8482711977729
20
4.04586605816317
30
0
41
1
10
43.6852743398219
20
4.09618755493773
30
0
41
1
10
43.4967995193933
20
4.15686017676541
30
0
41
1
10
43.2862485519957
20
4.22797867102867
30
0
41
1
10
43.0828551560219
20
4.30009424886998
30
0
41
1
10
42.9103745255052
20
4.36376219408513
30
0
41
1
10
42.7450033143412
20
4.42666681339904
30
0
41
1
10
42.5425736255812
20
4.50612941009797
30
0
41
1
10
42.2606099639503
20
4.62177955430403
30
0
41
1
10
42.0434645409444
20
4.71595799909088
30
0
41
1
10
41.9203671325234
20
4.77100112226515
30
0
0
SPLINE
5
1EB
100
AcDbEntity
8
1
62
256
6
ByLayer
370
18
48
1
60
0
100
AcDbSpline
70
4
71
3
72
20
73
16
40
0
40
0
40
0
40
0
40
0.131018380454332
40
0.254180671111419
40
0.369251673423626
40
0.466678929729622
40
0.54223302469298
40
0.607101874424353
40
0.687520012324397
40
0.777199993347375
40
0.852385470912794
40
0.886712169237035
40
0.935090341165977
40
0.999794590234032
40
1
40
1
40
1
40
1
41
1
10
47.384903456927
20
-7.02594734579418
30
0
41
1
10
47.6559408283104
20
-7.01720582785117
30
0
41
1
10
48.1782658690385
20
-6.99341810890465
30
0
41
1
10
48.929729799928
20
-6.938560893154
30
0
41
1
10
49.5999790028433
20
-6.87415107188951
30
0
41
1
10
50.1747753462341
20
-6.80643795466497
30
0
41
1
10
50.6524247304806
20
-6.74191552732671
30
0
41
1
10
51.099517977449
20
-6.6753510184069
30
0
41
1
10
51.5747202710461
20
-6.59786922707039
30
0
41
1
10
52.0710972619011
20
-6.50889003098834
30
0
41
1
10
52.4743354899226
20
-6.43041632358046
30
0
41
1
10
52.7941329573362
20
-6.36499554960085
30
0
41
1
10
53.0923982192477
20
-6.30177518346866
30
0
41
1
10
53.3215516320921
20
-6.25094501397589
30
0
41
1
10
53.4528303989652
20
-6.22109975874594
30
0
41
1
10
53.4532458368198
20
-6.2210053047628
30
0
0
SPLINE
5
1EC
100
AcDbEntity
8
1
62
256
6
ByLayer
370
18
48
1
60
0
100
AcDbSpline
70
4
71
3
72
11
73
7
40
0
40
0
40
0
40
0
40
0.409448879069724
40
0.733726004983329
40
0.977205366833309
40
1
40
1
40
1
40
1
41
1
10
38.2551673431291
20
6.08381415135224
30
0
41
1
10
38.0236844870909
20
6.14446664303429
30
0
41
1
10
37.612300299307
20
6.24773195968424
30
0
41
1
10
37.0660311531793
20
6.37349690270622
30
0
41
1
10
36.7466707878044
20
6.44220455293575
30
0
41
1
10
36.602176586566
20
6.47211944532225
30
0
41
1
10
36.5898021057582
20
6.47467282033915
30
0
0
SPLINE
5
1ED
100
AcDbEntity
8
1
62
256
6
ByLayer
370
18
48
1
60
0
100
AcDbSpline
70
4
71
3
72
19
73
15
40
0
40
0
40
0
40
0
40
0.142075368075142
40
0.255055525783915
40
0.341550907315104
40
0.422279153350904
40
0.50178255429849
40
0.578328532494905
40
0.648097216921538
40
0.713408842955983
40
0.782664002430783
40
0.862180382890999
40
0.970388701843931
40
1
40
1
40
1
40
1
41
1
10
64.8256113901883
20
-7.02606651947457
30
0
41
1
10
65.0934783965672
20
-7.01688190342378
30
0
41
1
10
65.5719037285319
20
-6.99304823525813
30
0
41
1
10
66.210185788812
20
-6.94273738058209
30
0
41
1
10
66.7249586679115
20
-6.89119985315844
30
0
41
1
10
67.1799519211254
20
-6.83743565462637
30
0
41
1
10
67.6187008214786
20
-6.77812257325613
30
0
41
1
10
68.038884682519
20
-6.71444421728913
30
0
41
1
10
68.4344354400987
20
-6.64849165278142
30
0
41
1
10
68.8181742817323
20
-6.57905680573612
30
0
41
1
10
69.2111395371847
20
-6.5027389778198
30
0
41
1
10
69.6782488129257
20
-6.40503321634131
30
0
41
1
10
70.0838007502397
20
-6.31307431780115
30
0
41
1
10
70.3412580000627
20
-6.25142050214671
30
0
41
1
10
70.3966010531878
20
-6.23801665670396
30
0
0
SPLINE
5
1EE
100
AcDbEntity
8
1
62
256
6
ByLayer
370
18
48
1
60
0
100
AcDbSpline
70
4
71
3
72
13
73
9
40
0
40
0
40
0
40
0
40
0.218122780591659
40
0.405746125579716
40
0.570084139398418
40
0.717674943594691
40
0.866164529562571
40
1
40
1
40
1
40
1
41
1
10
56.9250188666414
20
5.45812263262368
30
0
41
1
10
56.6346202616974
20
5.5489751110768
30
0
41
1
10
56.1016074336172
20
5.71033203142113
30
0
41
1
10
55.3672219976938
20
5.91841995839471
30
0
41
1
10
54.744945439917
20
6.08334620243559
30
0
41
1
10
54.1527820937263
20
6.2287190697202
30
0
41
1
10
53.5954499970639
20
6.35602800461126
30
0
41
1
10
53.230767248299
20
6.43292504845829
30
0
41
1
10
53.0579268415167
20
6.46787766478849
30
0
0
SPLINE
5
1EF
100
AcDbEntity
8
1
62
256
6
ByLayer
370
18
48
1
60
0
100
AcDbSpline
70
4
71
2
72
6
73
3
40
0
40
0
40
0
40
1
40
1
40
1
41
1
10
77.973094317509
20
0.28550394659041
30
0
41
1
10
77.9074740042702
20
0.798483690299946
30
0
41
1
10
77.8418193548181
20
1.31173547033802
30
0
0
LINE
5
79
100
AcDbEntity
8
80
62
256
6
ByLayer
370
18
48
1
60
0
100
AcDbLine
10
0
20
0
30
0
11
-5
21
0
31
0
39
0
210
0
220
0
230
1
0
LINE
5
7A
100
AcDbEntity
8
4
62
256
6
ByLayer
370
18
48
0.05
60
0
100
AcDbLine
10
0
20
0
30
0
11
78
21
0
31
0
39
0
210
0
220
0
230
1
0
LINE
5
7C
100
AcDbEntity
8
81
62
256
6
ByLayer
370
18
48
1
60
0
100
AcDbLine
10
78
20
0
30
0
11
83
21
0
31
0
39
0
210
0
220
0
230
1
0
LINE
5
7D
100
AcDbEntity
8
SK4
62
256
6
ByLayer
370
18
48
0.05
60
0
100
AcDbLine
10
-48
20
0
30
0
11
78
21
0
31
0
39
0
210
0
220
0
230
1
0
LINE
5
7F
100
AcDbEntity
8
1
62
256
6
ByLayer
370
18
48
1
60
0
100
AcDbLine
10
0
20
8
30
0
11
0
21
0
31
0
39
0
210
0
220
0
230
1
0
LINE
5
80
100
AcDbEntity
8
1
62
256
6
ByLayer
370
18
48
1
60
0
100
AcDbLine
10
0
20
0
30
0
11
0
21
-8
31
0
39
0
210
0
220
0
230
1
0
LINE
5
81
100
AcDbEntity
8
1
62
256
6
ByLayer
370
18
48
1
60
0
100
AcDbLine
10
77.841927
20
-0.592503
30
0
11
77.804679
21
-0.623158
31
0
39
0
210
0
220
0
230
1
0
LINE
5
82
100
AcDbEntity
8
1
62
256
6
ByLayer
370
18
48
1
60
0
100
AcDbLine
10
77.954342
20
0.432083
30
0
11
77.972954
21
0.448864
31
0
39
0
210
0
220
0
230
1
0
LINE
5
83
100
AcDbEntity
8
1
62
256
6
ByLayer
370
18
48
1
60
0
100
AcDbLine
10
77.972954
20
0.448864
30
0
11
77.970356
21
0.450939
31
0
39
0
210
0
220
0
230
1
0
LINE
5
84
100
AcDbEntity
8
1
62
256
6
ByLayer
370
18
48
1
60
0
100
AcDbLine
10
44.457261
20
-7.919709
30
0
11
44.456498
21
-7.918147
31
0
39
0
210
0
220
0
230
1
0
LINE
5
85
100
AcDbEntity
8
1
62
256
6
ByLayer
370
18
48
1
60
0
100
AcDbLine
10
77.796761
20
-0.324334
30
0
11
77.828578
21
-0.02327
31
0
39
0
210
0
220
0
230
1
0
LINE
5
86
100
AcDbEntity
8
1
62
256
6
ByLayer
370
18
48
1
60
0
100
AcDbLine
10
77.824418
20
1.374905
30
0
11
77.972954
21
6.967976
31
0
39
0
210
0
220
0
230
1
0
LINE
5
87
100
AcDbEntity
8
1
62
256
6
ByLayer
370
18
48
1
60
0
100
AcDbLine
10
77.788786
20
-0.023376
30
0
11
77.972954
21
-6.973539
31
0
39
0
210
0
220
0
230
1
0
LINE
5
88
100
AcDbEntity
8
1
62
256
6
ByLayer
370
18
48
1
60
0
100
AcDbLine
10
77.755913
20
-0.095668
30
0
11
77.777414
21
-0.023349
31
0
39
0
210
0
220
0
230
1
0
LINE
5
89
100
AcDbEntity
8
1
62
256
6
ByLayer
370
18
48
1
60
0
100
AcDbLine
10
77.753598
20
-0.094113
30
0
11
77.755913
21
-0.095668
31
0
39
0
210
0
220
0
230
1
0
LINE
5
8A
100
AcDbEntity
8
1
62
256
6
ByLayer
370
18
48
1
60
0
100
AcDbLine
10
77.753759
20
-0.023389
30
0
11
77.753598
21
-0.094113
31
0
39
0
210
0
220
0
230
1
0
LINE
5
8B
100
AcDbEntity
8
1
62
256
6
ByLayer
370
18
48
1
60
0
100
AcDbLine
10
77.729511
20
-0.432991
30
0
11
77.720613
21
-0.023451
31
0
39
0
210
0
220
0
230
1
0
LINE
5
8C
100
AcDbEntity
8
1
62
256
6
ByLayer
370
13
48
1
60
0
100
AcDbLine
10
29.677795
20
7.811411
30
0
11
29.677795
21
7.657069
31
0
39
0
210
0
220
0
230
1
0
LINE
5
8D
100
AcDbEntity
8
1
62
256
6
ByLayer
370
13
48
1
60
0
100
AcDbLine
10
77.358986
20
-0.02403
30
0
11
77.729511
21
-0.432991
31
0
39
0
210
0
220
0
230
1
0
LINE
5
8E
100
AcDbEntity
8
1
62
256
6
ByLayer
370
13
48
1
60
0
100
AcDbLine
10
25.351698
20
-7.175034
30
0
11
30
21
-7.200771
31
0
39
0
210
0
220
0
230
1
0
LINE
5
8F
100
AcDbEntity
8
1
62
256
6
ByLayer
370
13
48
1
60
0
100
AcDbLine
10
24.299057
20
7.148456
30
0
11
30
21
3.58114
31
0
39
0
210
0
220
0
230
1
0
LINE
5
90
100
AcDbEntity
8
1
62
256
6
ByLayer
370
13
48
1
60
0
100
AcDbLine
10
29.527496
20
7.596184
30
0
11
30
21
7.300519
31
0
39
0
210
0
220
0
230
1
0
LINE
5
91
100
AcDbEntity
8
1
62
256
6
ByLayer
370
13
48
1
60
0
100
AcDbLine
10
25.193165
20
-7.007858
30
0
11
30
21
-7.034473
31
0
39
0
210
0
220
0
230
1
0
LINE
5
92
100
AcDbEntity
8
1
62
256
6
ByLayer
370
18
48
1
60
0
100
AcDbLine
10
77.841927
20
-6.792351
30
0
11
77.707318
21
-1.657824
31
0
39
0
210
0
220
0
230
1
0
LINE
5
93
100
AcDbEntity
8
1
62
256
6
ByLayer
370
18
48
1
60
0
100
AcDbLine
10
30
20
3.361275
30
0
11
30
21
3.58114
31
0
39
0
210
0
220
0
230
1
0
LINE
5
94
100
AcDbEntity
8
1
62
256
6
ByLayer
370
18
48
1
60
0
100
AcDbLine
10
76.404188
20
-3.573729
30
0
11
77.706086
21
-1.659644
31
0
39
0
210
0
220
0
230
1
0
LINE
5
95
100
AcDbEntity
8
1
62
256
6
ByLayer
370
13
48
1
60
0
100
AcDbLine
10
77.706086
20
-1.659644
30
0
11
73.511245
21
-0.967717
31
0
39
0
210
0
220
0
230
1
0
LINE
5
96
100
AcDbEntity
8
1
62
256
6
ByLayer
370
18
48
1
60
0
100
AcDbLine
10
30
20
-7.034473
30
0
11
30
21
-6.553708
31
0
39
0
210
0
220
0
230
1
0
LINE
5
97
100
AcDbEntity
8
1
62
256
6
ByLayer
370
18
48
1
60
0
100
AcDbLine
10
30
20
1.228245
30
0
11
30
21
3.361275
31
0
39
0
210
0
220
0
230
1
0
LINE
5
98
100
AcDbEntity
8
1
62
256
6
ByLayer
370
13
48
1
60
0
100
AcDbLine
10
24.223884
20
6.975629
30
0
11
30
21
3.361275
31
0
39
0
210
0
220
0
230
1
0
LINE
5
99
100
AcDbEntity
8
1
62
256
6
ByLayer
370
18
48
1
60
0
100
AcDbLine
10
30
20
-7.200771
30
0
11
30
21
-7.034473
31
0
39
0
210
0
220
0
230
1
0
LINE
5
9A
100
AcDbEntity
8
1
62
256
6
ByLayer
370
18
48
1
60
0
100
AcDbLine
10
25.937482
20
-6.531214
30
0
11
30
21
-6.553708
31
0
39
0
210
0
220
0
230
1
0
LINE
5
9B
100
AcDbEntity
8
1
62
256
6
ByLayer
370
18
48
1
60
0
100
AcDbLine
10
30
20
-6.553708
30
0
11
30
21
-3.499763
31
0
39
0
210
0
220
0
230
1
0
LINE
5
9C
100
AcDbEntity
8
1
62
256
6
ByLayer
370
13
48
1
60
0
100
AcDbLine
10
23.669285
20
-3.464711
30
0
11
30
21
-3.499763
31
0
39
0
210
0
220
0
230
1
0
LINE
5
9D
100
AcDbEntity
8
1
62
256
6
ByLayer
370
18
48
1
60
0
100
AcDbLine
10
30
20
-3.499763
30
0
11
30
21
-3.348385
31
0
39
0
210
0
220
0
230
1
0
LINE
5
9E
100
AcDbEntity
8
1
62
256
6
ByLayer
370
18
48
1
60
0
100
AcDbLine
10
30
20
-0.496629
30
0
11
30
21
1.228245
31
0
39
0
210
0
220
0
230
1
0
LINE
5
9F
100
AcDbEntity
8
1
62
256
6
ByLayer
370
18
48
1
60
0
100
AcDbLine
10
25.730569
20
3.899804
30
0
11
30
21
1.228245
31
0
39
0
210
0
220
0
230
1
0
LINE
5
A0
100
AcDbEntity
8
1
62
256
6
ByLayer
370
18
48
1
60
0
100
AcDbLine
10
30
20
-0.810482
30
0
11
30
21
-0.496629
31
0
39
0
210
0
220
0
230
1
0
LINE
5
A1
100
AcDbEntity
8
1
62
256
6
ByLayer
370
13
48
1
60
0
100
AcDbLine
10
25.08334
20
2.579928
30
0
11
30
21
-0.496629
31
0
39
0
210
0
220
0
230
1
0
LINE
5
A2
100
AcDbEntity
8
1
62
256
6
ByLayer
370
18
48
1
60
0
100
AcDbLine
10
30
20
3.58114
30
0
11
30
21
7.300519
31
0
39
0
210
0
220
0
230
1
0
LINE
5
A3
100
AcDbEntity
8
1
62
256
6
ByLayer
370
13
48
1
60
0
100
AcDbLine
10
23.718929
20
-3.24005
30
0
11
29.882132
21
-3.274174
31
0
39
0
210
0
220
0
230
1
0
LINE
5
A4
100
AcDbEntity
8
1
62
256
6
ByLayer
370
13
48
1
60
0
100
AcDbLine
10
29.177795
20
7.547308
30
0
11
29.177795
21
7.68
31
0
39
0
210
0
220
0
230
1
0
LINE
5
A5
100
AcDbEntity
8
1
62
256
6
ByLayer
370
13
48
1
60
0
100
AcDbLine
10
25.244349
20
2.165325
30
0
11
30
21
-0.810482
31
0
39
0
210
0
220
0
230
1
0
LINE
5
A6
100
AcDbEntity
8
1
62
256
6
ByLayer
370
18
48
1
60
0
100
AcDbLine
10
77.873247
20
-0.023186
30
0
11
77.972954
21
0.281027
31
0
39
0
210
0
220
0
230
1
0
LINE
5
A7
100
AcDbEntity
8
1
62
256
6
ByLayer
370
13
48
1
60
0
100
AcDbLine
10
74.687886
20
0.370665
30
0
11
77.083784
21
-0.024531
31
0
39
0
210
0
220
0
230
1
0
LINE
5
A8
100
AcDbEntity
8
1
62
256
6
ByLayer
370
18
48
1
60
0
100
AcDbLine
10
77.873247
20
-0.023186
30
0
11
77.083784
21
-0.024531
31
0
39
0
210
0
220
0
230
1
0
LINE
5
A9
100
AcDbEntity
8
1
62
256
6
ByLayer
370
18
48
1
60
0
100
AcDbLine
10
30
20
7.818965
30
0
11
30
21
7.300519
31
0
39
0
210
0
220
0
230
1
0
LINE
5
AA
100
AcDbEntity
8
1
62
256
6
ByLayer
370
18
48
1
60
0
100
AcDbLine
10
30
20
-7.200771
30
0
11
30
21
-7.667301
31
0
39
0
210
0
220
0
230
1
0
LINE
5
AB
100
AcDbEntity
8
1
62
256
6
ByLayer
370
18
48
1
60
0
100
AcDbLine
10
30
20
-0.810482
30
0
11
30
21
-1.180735
31
0
39
0
210
0
220
0
230
1
0
LINE
5
AC
100
AcDbEntity
8
1
62
256
6
ByLayer
370
13
48
1
60
0
100
AcDbLine
10
29.177795
20
-2.893011
30
0
11
29.177795
21
-0.679942
31
0
39
0
210
0
220
0
230
1
0
LINE
5
AD
100
AcDbEntity
8
1
62
256
6
ByLayer
370
18
48
1
60
0
100
AcDbLine
10
30
20
7.818961
30
0
11
30
21
7.819021
31
0
39
0
210
0
220
0
230
1
0
LINE
5
AE
100
AcDbEntity
8
1
62
256
6
ByLayer
370
18
48
1
60
0
100
AcDbLine
10
30
20
-3.354084
30
0
11
30
21
-3.353861
31
0
39
0
210
0
220
0
230
1
0
LINE
5
AF
100
AcDbEntity
8
1
62
256
6
ByLayer
370
13
48
1
60
0
100
AcDbLine
10
29.677795
20
-1.913974
30
0
11
29.677795
21
-3.135496
31
0
39
0
210
0
220
0
230
1
0
LINE
5
B0
100
AcDbEntity
8
1
62
256
6
ByLayer
370
13
48
1
60
0
100
AcDbLine
10
5.997679
20
-7.68
30
0
11
5.997679
21
0
31
0
39
0
210
0
220
0
230
1
0
LINE
5
B1
100
AcDbEntity
8
1
62
256
6
ByLayer
370
13
48
1
60
0
100
AcDbLine
10
5.997679
20
0
30
0
11
5.997679
21
7.68
31
0
39
0
210
0
220
0
230
1
0
LINE
5
B2
100
AcDbEntity
8
1
62
256
6
ByLayer
370
13
48
1
60
0
100
AcDbLine
10
5.497679
20
7.813975
30
0
11
5.497679
21
0
31
0
39
0
210
0
220
0
230
1
0
LINE
5
B3
100
AcDbEntity
8
1
62
256
6
ByLayer
370
13
48
1
60
0
100
AcDbLine
10
5.497679
20
0
30
0
11
5.497679
21
-7.813975
31
0
39
0
210
0
220
0
230
1
0
LINE
5
B4
100
AcDbEntity
8
1
62
256
6
ByLayer
370
18
48
1
60
0
100
AcDbLine
10
5.175473
20
8
30
0
11
5.175473
21
0
31
0
39
0
210
0
220
0
230
1
0
LINE
5
B5
100
AcDbEntity
8
1
62
256
6
ByLayer
370
18
48
1
60
0
100
AcDbLine
10
5.175473
20
0
30
0
11
5.175473
21
-8
31
0
39
0
210
0
220
0
230
1
0
LINE
5
B6
100
AcDbEntity
8
SK1
62
256
6
ByLayer
370
18
48
1
60
0
100
AcDbLine
10
-48
20
-7.2
30
0
11
-48
21
7.2
31
0
39
0
210
0
220
0
230
1
0
LINE
5
B8
100
AcDbEntity
8
SK1
62
256
6
ByLayer
370
18
48
1
60
0
100
AcDbLine
10
0
20
8
30
0
11
0
21
0
31
0
39
0
210
0
220
0
230
1
0
LINE
5
B9
100
AcDbEntity
8
SK1
62
256
6
ByLayer
370
18
48
1
60
0
100
AcDbLine
10
0
20
0
30
0
11
0
21
-8
31
0
39
0
210
0
220
0
230
1
0
LINE
5
BA
100
AcDbEntity
8
SK1
62
256
6
ByLayer
370
18
48
1
60
0
100
AcDbLine
10
-47.2
20
8
30
0
11
-47.2
21
-8
31
0
39
0
210
0
220
0
230
1
0
LINE
5
BB
100
AcDbEntity
8
SK1
62
256
6
ByLayer
370
18
48
1
60
0
100
AcDbLine
10
-29
20
6.2
30
0
11
-30.8
21
8
31
0
39
0
210
0
220
0
230
1
0
LINE
5
BC
100
AcDbEntity
8
SK1
62
256
6
ByLayer
370
18
48
1
60
0
100
AcDbLine
10
-17.2
20
8
30
0
11
-19
21
6.2
31
0
39
0
210
0
220
0
230
1
0
LINE
5
BD
100
AcDbEntity
8
SK1
62
256
6
ByLayer
370
18
48
1
60
0
100
AcDbLine
10
-29
20
6.2
30
0
11
-19
21
6.2
31
0
39
0
210
0
220
0
230
1
0
LINE
5
BE
100
AcDbEntity
8
1
62
256
6
ByLayer
370
18
48
1
60
0
100
AcDbLine
10
5.175473
20
8
30
0
11
0
21
8
31
0
39
0
210
0
220
0
230
1
0
LINE
5
BF
100
AcDbEntity
8
1
62
256
6
ByLayer
370
18
48
1
60
0
100
AcDbLine
10
0
20
-8
30
0
11
5.175473
21
-8
31
0
39
0
210
0
220
0
230
1
0
LINE
5
C0
100
AcDbEntity
8
1
62
256
6
ByLayer
370
18
48
1
60
0
100
AcDbLine
10
29.177795
20
7.68
30
0
11
5.997679
21
7.68
31
0
39
0
210
0
220
0
230
1
0
LINE
5
C1
100
AcDbEntity
8
1
62
256
6
ByLayer
370
18
48
1
60
0
100
AcDbLine
10
5.997679
20
-7.68
30
0
11
29.084583
21
-7.68
31
0
39
0
210
0
220
0
230
1
0
LINE
5
C2
100
AcDbEntity
8
1
62
256
6
ByLayer
370
18
48
1
60
0
100
AcDbLine
10
5.497679
20
7.813975
30
0
11
5.175473
21
8
31
0
39
0
210
0
220
0
230
1
0
LINE
5
C3
100
AcDbEntity
8
1
62
256
6
ByLayer
370
18
48
1
60
0
100
AcDbLine
10
5.175473
20
-8
30
0
11
5.497679
21
-7.813975
31
0
39
0
210
0
220
0
230
1
0
LINE
5
C4
100
AcDbEntity
8
SK1
62
256
6
ByLayer
370
18
48
1
60
0
100
AcDbLine
10
-48
20
-7.2
30
0
11
-47.2
21
-8
31
0
39
0
210
0
220
0
230
1
0
LINE
5
C5
100
AcDbEntity
8
SK1
62
256
6
ByLayer
370
18
48
1
60
0
100
AcDbLine
10
-47.2
20
8
30
0
11
-48
21
7.2
31
0
39
0
210
0
220
0
230
1
0
LINE
5
C6
100
AcDbEntity
8
SK1
62
256
6
ByLayer
370
18
48
1
60
0
100
AcDbLine
10
0
20
8
30
0
11
-17.2
21
8
31
0
39
0
210
0
220
0
230
1
0
LINE
5
C7
100
AcDbEntity
8
SK1
62
256
6
ByLayer
370
18
48
1
60
0
100
AcDbLine
10
-30.8
20
8
30
0
11
-47.2
21
8
31
0
39
0
210
0
220
0
230
1
0
LINE
5
C8
100
AcDbEntity
8
SK1
62
256
6
ByLayer
370
18
48
1
60
0
100
AcDbLine
10
-47.2
20
-8
30
0
11
0
21
-8
31
0
39
0
210
0
220
0
230
1
0
LINE
5
C9
100
AcDbEntity
8
SK2
62
256
6
ByLayer
370
18
48
1
60
0
100
AcDbLine
10
-55.45
20
8
30
0
11
-55.45
21
-26.056066
31
0
39
0
210
0
220
0
230
1
0
LINE
5
CB
100
AcDbEntity
8
SK2
62
256
6
ByLayer
370
18
48
1
60
0
100
AcDbLine
10
-48.7875
20
8
30
0
11
-57.45
21
8
31
0
39
0
210
0
220
0
230
1
0
LINE
5
CC
100
AcDbEntity
8
SK2
62
256
6
ByLayer
370
18
48
1
60
0
100
AcDbLine
10
-48.7875
20
-8
30
0
11
-57.45
21
-8
31
0
39
0
210
0
220
0
230
1
0
LINE
5
CD
100
AcDbEntity
8
1
62
256
6
ByLayer
370
18
48
1
60
1
100
AcDbLine
10
-55.45
20
8
30
0
11
-54.989216
21
4.500002
31
0
39
0
210
0
220
0
230
1
0
LINE
5
CE
100
AcDbEntity
8
1
62
256
6
ByLayer
370
18
48
1
60
1
100
AcDbLine
10
-54.989216
20
4.500002
30
0
11
-55.910784
21
4.499998
31
0
39
0
210
0
220
0
230
1
0
LINE
5
CF
100
AcDbEntity
8
1
62
256
6
ByLayer
370
18
48
1
60
1
100
AcDbLine
10
-55.910784
20
4.499998
30
0
11
-55.45
21
8
31
0
39
0
210
0
220
0
230
1
0
LINE
5
D0
100
AcDbEntity
8
1
62
256
6
ByLayer
370
18
48
1
60
1
100
AcDbLine
10
-55.45
20
-8
30
0
11
-55.910784
21
-4.500002
31
0
39
0
210
0
220
0
230
1
0
LINE
5
D1
100
AcDbEntity
8
1
62
256
6
ByLayer
370
18
48
1
60
1
100
AcDbLine
10
-55.910784
20
-4.500002
30
0
11
-54.989216
21
-4.499998
31
0
39
0
210
0
220
0
230
1
0
LINE
5
D2
100
AcDbEntity
8
1
62
256
6
ByLayer
370
18
48
1
60
1
100
AcDbLine
10
-54.989216
20
-4.499998
30
0
11
-55.45
21
-8
31
0
39
0
210
0
220
0
230
1
0
LINE
5
D3
100
AcDbEntity
8
SK2
62
256
6
ByLayer
370
13
48
1
60
0
100
AcDbLine
10
19.037737
20
-7.68
30
0
11
19.037737
21
36.384998
31
0
39
0
210
0
220
0
230
1
0
LINE
5
D4
100
AcDbEntity
8
SK2
62
256
6
ByLayer
370
13
48
1
60
0
100
AcDbLine
10
27.590295
20
7.68
30
0
11
17.037737
21
7.68
31
0
39
0
210
0
220
0
230
1
0
LINE
5
D5
100
AcDbEntity
8
SK2
62
256
6
ByLayer
370
13
48
1
60
0
100
AcDbLine
10
27.590295
20
-7.68
30
0
11
17.037737
21
-7.68
31
0
39
0
210
0
220
0
230
1
0
LINE
5
D6
100
AcDbEntity
8
1
62
256
6
ByLayer
370
18
48
1
60
1
100
AcDbLine
10
19.037737
20
7.68
30
0
11
19.49852
21
4.180002
31
0
39
0
210
0
220
0
230
1
0
LINE
5
D7
100
AcDbEntity
8
1
62
256
6
ByLayer
370
18
48
1
60
1
100
AcDbLine
10
19.49852
20
4.180002
30
0
11
18.576953
21
4.179998
31
0
39
0
210
0
220
0
230
1
0
LINE
5
D8
100
AcDbEntity
8
1
62
256
6
ByLayer
370
18
48
1
60
1
100
AcDbLine
10
18.576953
20
4.179998
30
0
11
19.037737
21
7.68
31
0
39
0
210
0
220
0
230
1
0
LINE
5
D9
100
AcDbEntity
8
1
62
256
6
ByLayer
370
18
48
1
60
1
100
AcDbLine
10
19.037737
20
-7.68
30
0
11
18.576953
21
-4.180002
31
0
39
0
210
0
220
0
230
1
0
LINE
5
DA
100
AcDbEntity
8
1
62
256
6
ByLayer
370
18
48
1
60
1
100
AcDbLine
10
18.576953
20
-4.180002
30
0
11
19.49852
21
-4.179998
31
0
39
0
210
0
220
0
230
1
0
LINE
5
DB
100
AcDbEntity
8
1
62
256
6
ByLayer
370
18
48
1
60
1
100
AcDbLine
10
19.49852
20
-4.179998
30
0
11
19.037737
21
-7.68
31
0
39
0
210
0
220
0
230
1
0
LINE
5
DC
100
AcDbEntity
8
2
62
256
6
ByLayer
370
18
48
1
60
0
100
AcDbLine
10
90
20
-8
30
0
11
90
21
26.056066
31
0
39
0
210
0
220
0
230
1
0
LINE
5
DE
100
AcDbEntity
8
2
62
256
6
ByLayer
370
18
48
1
60
0
100
AcDbLine
10
79.5875
20
8
30
0
11
92
21
8
31
0
39
0
210
0
220
0
230
1
0
LINE
5
DF
100
AcDbEntity
8
2
62
256
6
ByLayer
370
18
48
1
60
0
100
AcDbLine
10
79.5875
20
-8
30
0
11
92
21
-8
31
0
39
0
210
0
220
0
230
1
0
LINE
5
E0
100
AcDbEntity
8
1
62
256
6
ByLayer
370
18
48
1
60
1
100
AcDbLine
10
90
20
8
30
0
11
90.460784
21
4.500002
31
0
39
0
210
0
220
0
230
1
0
LINE
5
E1
100
AcDbEntity
8
1
62
256
6
ByLayer
370
18
48
1
60
1
100
AcDbLine
10
90.460784
20
4.500002
30
0
11
89.539216
21
4.499998
31
0
39
0
210
0
220
0
230
1
0
LINE
5
E2
100
AcDbEntity
8
1
62
256
6
ByLayer
370
18
48
1
60
1
100
AcDbLine
10
89.539216
20
4.499998
30
0
11
90
21
8
31
0
39
0
210
0
220
0
230
1
0
LINE
5
E3
100
AcDbEntity
8
1
62
256
6
ByLayer
370
18
48
1
60
1
100
AcDbLine
10
90
20
-8
30
0
11
89.539216
21
-4.500002
31
0
39
0
210
0
220
0
230
1
0
LINE
5
E4
100
AcDbEntity
8
1
62
256
6
ByLayer
370
18
48
1
60
1
100
AcDbLine
10
89.539216
20
-4.500002
30
0
11
90.460784
21
-4.499998
31
0
39
0
210
0
220
0
230
1
0
LINE
5
E5
100
AcDbEntity
8
1
62
256
6
ByLayer
370
18
48
1
60
1
100
AcDbLine
10
90.460784
20
-4.499998
30
0
11
90
21
-8
31
0
39
0
210
0
220
0
230
1
0
LINE
5
E6
100
AcDbEntity
8
SK2
62
256
6
ByLayer
370
18
48
1
60
0
100
AcDbLine
10
78
20
-55.088585
30
0
11
-48
21
-55.088585
31
0
39
0
210
0
220
0
230
1
0
LINE
5
E7
100
AcDbEntity
8
SK2
62
256
6
ByLayer
370
18
48
1
60
0
100
AcDbLine
10
-48
20
-8.7875
30
0
11
-48
21
-57.088585
31
0
39
0
210
0
220
0
230
1
0
LINE
5
E8
100
AcDbEntity
8
SK2
62
256
6
ByLayer
370
18
48
1
60
0
100
AcDbLine
10
78
20
-9.5875
30
0
11
78
21
-57.088585
31
0
39
0
210
0
220
0
230
1
0
LINE
5
E9
100
AcDbEntity
8
1
62
256
6
ByLayer
370
18
48
1
60
1
100
AcDbLine
10
-48
20
-55.088585
30
0
11
-44.500002
21
-54.627801
31
0
39
0
210
0
220
0
230
1
0
LINE
5
EA
100
AcDbEntity
8
1
62
256
6
ByLayer
370
18
48
1
60
1
100
AcDbLine
10
-44.500002
20
-54.627801
30
0
11
-44.499998
21
-55.549369
31
0
39
0
210
0
220
0
230
1
0
LINE
5
EB
100
AcDbEntity
8
1
62
256
6
ByLayer
370
18
48
1
60
1
100
AcDbLine
10
-44.499998
20
-55.549369
30
0
11
-48
21
-55.088585
31
0
39
0
210
0
220
0
230
1
0
LINE
5
EC
100
AcDbEntity
8
1
62
256
6
ByLayer
370
18
48
1
60
1
100
AcDbLine
10
78
20
-55.088585
30
0
11
74.500002
21
-55.549369
31
0
39
0
210
0
220
0
230
1
0
LINE
5
ED
100
AcDbEntity
8
1
62
256
6
ByLayer
370
18
48
1
60
1
100
AcDbLine
10
74.500002
20
-55.549369
30
0
11
74.499998
21
-54.627801
31
0
39
0
210
0
220
0
230
1
0
LINE
5
EE
100
AcDbEntity
8
1
62
256
6
ByLayer
370
18
48
1
60
1
100
AcDbLine
10
74.499998
20
-54.627801
30
0
11
78
21
-55.088585
31
0
39
0
210
0
220
0
230
1
0
LINE
5
1F4
100
AcDbEntity
8
1
62
256
6
ByLayer
370
18
48
1
60
1
100
AcDbLine
10
-55.45
20
8
30
0
11
-54.989216
21
4.500002
31
0
39
0
210
0
220
0
230
1
0
LINE
5
1F5
100
AcDbEntity
8
1
62
256
6
ByLayer
370
18
48
1
60
1
100
AcDbLine
10
-54.989216
20
4.500002
30
0
11
-55.910784
21
4.499998
31
0
39
0
210
0
220
0
230
1
0
LINE
5
1F6
100
AcDbEntity
8
1
62
256
6
ByLayer
370
18
48
1
60
1
100
AcDbLine
10
-55.910784
20
4.499998
30
0
11
-55.45
21
8
31
0
39
0
210
0
220
0
230
1
0
LINE
5
1F8
100
AcDbEntity
8
1
62
256
6
ByLayer
370
18
48
1
60
1
100
AcDbLine
10
-55.45
20
-8
30
0
11
-55.910784
21
-4.500002
31
0
39
0
210
0
220
0
230
1
0
LINE
5
1F9
100
AcDbEntity
8
1
62
256
6
ByLayer
370
18
48
1
60
1
100
AcDbLine
10
-55.910784
20
-4.500002
30
0
11
-54.989216
21
-4.499998
31
0
39
0
210
0
220
0
230
1
0
LINE
5
1FA
100
AcDbEntity
8
1
62
256
6
ByLayer
370
18
48
1
60
1
100
AcDbLine
10
-54.989216
20
-4.499998
30
0
11
-55.45
21
-8
31
0
39
0
210
0
220
0
230
1
0
LINE
5
1FE
100
AcDbEntity
8
1
62
256
6
ByLayer
370
18
48
1
60
1
100
AcDbLine
10
19.037737
20
7.68
30
0
11
19.49852
21
4.180002
31
0
39
0
210
0
220
0
230
1
0
LINE
5
1FF
100
AcDbEntity
8
1
62
256
6
ByLayer
370
18
48
1
60
1
100
AcDbLine
10
19.49852
20
4.180002
30
0
11
18.576953
21
4.179998
31
0
39
0
210
0
220
0
230
1
0
LINE
5
200
100
AcDbEntity
8
1
62
256
6
ByLayer
370
18
48
1
60
1
100
AcDbLine
10
18.576953
20
4.179998
30
0
11
19.037737
21
7.68
31
0
39
0
210
0
220
0
230
1
0
LINE
5
202
100
AcDbEntity
8
1
62
256
6
ByLayer
370
18
48
1
60
1
100
AcDbLine
10
19.037737
20
-7.68
30
0
11
18.576953
21
-4.180002
31
0
39
0
210
0
220
0
230
1
0
LINE
5
203
100
AcDbEntity
8
1
62
256
6
ByLayer
370
18
48
1
60
1
100
AcDbLine
10
18.576953
20
-4.180002
30
0
11
19.49852
21
-4.179998
31
0
39
0
210
0
220
0
230
1
0
LINE
5
204
100
AcDbEntity
8
1
62
256
6
ByLayer
370
18
48
1
60
1
100
AcDbLine
10
19.49852
20
-4.179998
30
0
11
19.037737
21
-7.68
31
0
39
0
210
0
220
0
230
1
0
LINE
5
208
100
AcDbEntity
8
1
62
256
6
ByLayer
370
18
48
1
60
1
100
AcDbLine
10
90
20
8
30
0
11
90.460784
21
4.500002
31
0
39
0
210
0
220
0
230
1
0
LINE
5
209
100
AcDbEntity
8
1
62
256
6
ByLayer
370
18
48
1
60
1
100
AcDbLine
10
90.460784
20
4.500002
30
0
11
89.539216
21
4.499998
31
0
39
0
210
0
220
0
230
1
0
LINE
5
20A
100
AcDbEntity
8
1
62
256
6
ByLayer
370
18
48
1
60
1
100
AcDbLine
10
89.539216
20
4.499998
30
0
11
90
21
8
31
0
39
0
210
0
220
0
230
1
0
LINE
5
20C
100
AcDbEntity
8
1
62
256
6
ByLayer
370
18
48
1
60
1
100
AcDbLine
10
90
20
-8
30
0
11
89.539216
21
-4.500002
31
0
39
0
210
0
220
0
230
1
0
LINE
5
20D
100
AcDbEntity
8
1
62
256
6
ByLayer
370
18
48
1
60
1
100
AcDbLine
10
89.539216
20
-4.500002
30
0
11
90.460784
21
-4.499998
31
0
39
0
210
0
220
0
230
1
0
LINE
5
20E
100
AcDbEntity
8
1
62
256
6
ByLayer
370
18
48
1
60
1
100
AcDbLine
10
90.460784
20
-4.499998
30
0
11
90
21
-8
31
0
39
0
210
0
220
0
230
1
0
LINE
5
211
100
AcDbEntity
8
1
62
256
6
ByLayer
370
18
48
1
60
1
100
AcDbLine
10
-48
20
-55.088585
30
0
11
-44.500002
21
-54.627801
31
0
39
0
210
0
220
0
230
1
0
LINE
5
212
100
AcDbEntity
8
1
62
256
6
ByLayer
370
18
48
1
60
1
100
AcDbLine
10
-44.500002
20
-54.627801
30
0
11
-44.499998
21
-55.549369
31
0
39
0
210
0
220
0
230
1
0
LINE
5
213
100
AcDbEntity
8
1
62
256
6
ByLayer
370
18
48
1
60
1
100
AcDbLine
10
-44.499998
20
-55.549369
30
0
11
-48
21
-55.088585
31
0
39
0
210
0
220
0
230
1
0
LINE
5
215
100
AcDbEntity
8
1
62
256
6
ByLayer
370
18
48
1
60
1
100
AcDbLine
10
78
20
-55.088585
30
0
11
74.500002
21
-55.549369
31
0
39
0
210
0
220
0
230
1
0
LINE
5
216
100
AcDbEntity
8
1
62
256
6
ByLayer
370
18
48
1
60
1
100
AcDbLine
10
74.500002
20
-55.549369
30
0
11
74.499998
21
-54.627801
31
0
39
0
210
0
220
0
230
1
0
LINE
5
217
100
AcDbEntity
8
1
62
256
6
ByLayer
370
18
48
1
60
1
100
AcDbLine
10
74.499998
20
-54.627801
30
0
11
78
21
-55.088585
31
0
39
0
210
0
220
0
230
1
0
MTEXT
5
1F0
100
AcDbEntity
8
SK2
62
256
6
ByLayer
370
18
48
1
60
0
100
AcDbMText
10
-57.014634
20
-24.121222
30
0
210
0
220
0
230
1
1
%%c
40
3.5
41
0
44
1.084337
50
90
71
7
72
5
7
iso_b_vert
0
MTEXT
5
1F3
100
AcDbEntity
8
SK2
62
256
6
ByLayer
370
18
48
1
60
0
100
AcDbMText
10
-57.014634
20
-17.148566
30
0
210
0
220
0
230
1
1
\W0.5321;16
40
3.5
41
0
44
1.084337
50
90
71
7
72
5
7
iso_b_vert
0
MTEXT
5
1FC
100
AcDbEntity
8
SK2
62
256
6
ByLayer
370
18
48
1
60
0
100
AcDbMText
10
17.473103
20
19.614844
30
0
210
0
220
0
230
1
1
%%c
40
3.5
41
0
44
1.084337
50
90
71
7
72
5
7
iso_b_vert
0
MTEXT
5
1FD
100
AcDbEntity
8
SK2
62
256
6
ByLayer
370
18
48
1
60
0
100
AcDbMText
10
17.473103
20
26.5875
30
0
210
0
220
0
230
1
1
\W0.6864;15.36
40
3.5
41
0
44
1.084337
50
90
71
7
72
5
7
iso_b_vert
0
MTEXT
5
206
100
AcDbEntity
8
2
62
256
6
ByLayer
370
18
48
1
60
0
100
AcDbMText
10
88.435366
20
15.934844
30
0
210
0
220
0
230
1
1
%%c
40
3.5
41
0
44
1.084337
50
90
71
7
72
5
7
iso_b_vert
0
MTEXT
5
207
100
AcDbEntity
8
2
62
256
6
ByLayer
370
18
48
1
60
0
100
AcDbMText
10
88.435366
20
22.9075
30
0
210
0
220
0
230
1
1
\W0.5321;16
40
3.5
41
0
44
1.084337
50
90
71
7
72
5
7
iso_b_vert
0
MTEXT
5
210
100
AcDbEntity
8
SK2
62
256
6
ByLayer
370
18
48
1
60
0
100
AcDbMText
10
12.224734
20
-54.055952
30
0
210
0
220
0
230
1
1
\W0.6217;126
40
3.5
41
0
44
1.084337
50
0
71
7
72
5
7
iso_b_vert
0
MTEXT
5
219
100
AcDbEntity
8
SK6
62
256
6
ByLayer
370
18
48
1
60
0
100
AcDbMText
10
-9.818356
20
-62.085476
30
0
210
0
220
0
230
1
1
\W0.7028;1K354-1600-100-XD   1730
40
3
41
0
44
1.084337
50
0
71
7
72
5
7
iso_b_vert
0
HATCH
5
1F7
100
AcDbEntity
8
SK2
62
256
6
ByLayer
370
13
48
1
60
0
100
AcDbHatch
10
0
20
0
30
0
210
0
220
0
230
1
2
ANSI31
70
0
71
0
91
1
92
5
93
3
72
1
10
-55.4500000000001
20
7.99999999999997
11
-54.9892162584473
21
4.50000169255316
72
1
10
-54.9892162584473
20
4.50000169255316
11
-55.9107837415528
21
4.49999830744679
72
1
10
-55.9107837415528
20
4.49999830744679
11
-55.4500000000001
21
7.99999999999997
97
0
75
0
76
1
52
0
41
0.0062
77
0
78
1
53
45
43
0
44
0
45
-0.0139193969876572
46
0.0139193969876572
79
0
47
0
98
1
10
0
20
0
0
HATCH
5
1FB
100
AcDbEntity
8
SK2
62
256
6
ByLayer
370
13
48
1
60
0
100
AcDbHatch
10
0
20
0
30
0
210
0
220
0
230
1
2
ANSI31
70
0
71
0
91
1
92
5
93
3
72
1
10
-55.4500000000001
20
-8.00000000000003
11
-55.9107837415528
21
-4.50000169255321
72
1
10
-55.9107837415528
20
-4.50000169255321
11
-54.9892162584473
21
-4.49999830744684
72
1
10
-54.9892162584473
20
-4.49999830744684
11
-55.4500000000001
21
-8.00000000000003
97
0
75
0
76
1
52
0
41
0.0062
77
0
78
1
53
45
43
0
44
0
45
-0.0139193969876572
46
0.0139193969876572
79
0
47
0
98
1
10
0
20
0
0
HATCH
5
201
100
AcDbEntity
8
SK2
62
256
6
ByLayer
370
13
48
1
60
0
100
AcDbHatch
10
0
20
0
30
0
210
0
220
0
230
1
2
ANSI31
70
0
71
0
91
1
92
5
93
3
72
1
10
19.0377367356538
20
7.67999999999989
11
19.4985204772066
21
4.18000169255308
72
1
10
19.4985204772066
20
4.18000169255308
11
18.576952994101
21
4.17999830744671
72
1
10
18.576952994101
20
4.17999830744671
11
19.0377367356538
21
7.67999999999989
97
0
75
0
76
1
52
0
41
0.0062
77
0
78
1
53
45
43
0
44
0
45
-0.0139193969876572
46
0.0139193969876572
79
0
47
0
98
1
10
0
20
0
0
HATCH
5
205
100
AcDbEntity
8
SK2
62
256
6
ByLayer
370
13
48
1
60
0
100
AcDbHatch
10
0
20
0
30
0
210
0
220
0
230
1
2
ANSI31
70
0
71
0
91
1
92
5
93
3
72
1
10
19.0377367356538
20
-7.68000000000012
11
18.576952994101
21
-4.1800016925533
72
1
10
18.576952994101
20
-4.1800016925533
11
19.4985204772066
21
-4.17999830744694
72
1
10
19.4985204772066
20
-4.17999830744694
11
19.0377367356538
21
-7.68000000000012
97
0
75
0
76
1
52
0
41
0.0062
77
0
78
1
53
45
43
0
44
0
45
-0.0139193969876572
46
0.0139193969876572
79
0
47
0
98
1
10
0
20
0
0
HATCH
5
20B
100
AcDbEntity
8
2
62
256
6
ByLayer
370
13
48
1
60
0
100
AcDbHatch
10
0
20
0
30
0
210
0
220
0
230
1
2
ANSI31
70
0
71
0
91
1
92
5
93
3
72
1
10
90
20
7.99999999999972
11
90.4607837415528
21
4.5000016925529
72
1
10
90.4607837415528
20
4.5000016925529
11
89.5392162584472
21
4.49999830744653
72
1
10
89.5392162584472
20
4.49999830744653
11
90
21
7.99999999999972
97
0
75
0
76
1
52
0
41
0.0062
77
0
78
1
53
45
43
0
44
0
45
-0.0139193969876572
46
0.0139193969876572
79
0
47
0
98
1
10
0
20
0
0
HATCH
5
20F
100
AcDbEntity
8
2
62
256
6
ByLayer
370
13
48
1
60
0
100
AcDbHatch
10
0
20
0
30
0
210
0
220
0
230
1
2
ANSI31
70
0
71
0
91
1
92
5
93
3
72
1
10
90
20
-8.00000000000031
11
89.5392162584472
21
-4.5000016925535
72
1
10
89.5392162584472
20
-4.5000016925535
11
90.4607837415528
21
-4.49999830744713
72
1
10
90.4607837415528
20
-4.49999830744713
11
90
21
-8.00000000000031
97
0
75
0
76
1
52
0
41
0.0062
77
0
78
1
53
45
43
0
44
0
45
-0.0139193969876572
46
0.0139193969876572
79
0
47
0
98
1
10
0
20
0
0
HATCH
5
214
100
AcDbEntity
8
SK2
62
256
6
ByLayer
370
13
48
1
60
0
100
AcDbHatch
10
0
20
0
30
0
210
0
220
0
230
1
2
ANSI31
70
0
71
0
91
1
92
5
93
3
72
1
10
-48
20
-55.0885851668209
11
-44.5000016925532
21
-54.6278014252681
72
1
10
-44.5000016925532
20
-54.6278014252681
11
-44.4999983074468
21
-55.5493689083737
72
1
10
-44.4999983074468
20
-55.5493689083737
11
-48
21
-55.0885851668209
97
0
75
0
76
1
52
0
41
0.0062
77
0
78
1
53
45
43
0
44
0
45
-0.0139193969876572
46
0.0139193969876572
79
0
47
0
98
1
10
0
20
0
0
HATCH
5
218
100
AcDbEntity
8
SK2
62
256
6
ByLayer
370
13
48
1
60
0
100
AcDbHatch
10
0
20
0
30
0
210
0
220
0
230
1
2
ANSI31
70
0
71
0
91
1
92
5
93
3
72
1
10
78
20
-55.0885851668209
11
74.5000016925532
21
-55.5493689083737
72
1
10
74.5000016925532
20
-55.5493689083737
11
74.4999983074468
21
-54.6278014252681
72
1
10
74.4999983074468
20
-54.6278014252681
11
78
21
-55.0885851668209
97
0
75
0
76
1
52
0
41
0.0062
77
0
78
1
53
45
43
0
44
0
45
-0.0139193969876572
46
0.0139193969876572
79
0
47
0
98
1
10
0
20
0
0
DIMENSION
5
21C
100
AcDbEntity
8
2
62
256
6
ByLayer
370
18
48
1
60
0
100
AcDbDimension
2
_U0
10
30
20
-23.088585
30
0
11
54
21
-23.088585
31
0
70
32
71
1
72
1
41
1
210
0
220
0
230
1
3
Standard
100
AcDbAlignedDimension
13
78
23
-8
33
0
14
30
24
-8
34
0
50
0
100
AcDbRotatedDimension
1001
ACAD
1000
DSTYLE
1002
{
1070
   371
1070
    13
1070
   372
1070
    13
1070
   170
1070
     0
1070
   144
1040
1.0
1070
   277
1070
     2
1070
   284
1070
     8
1070
   278
1070
    46
1070
   146
1040
1.0
1070
   345
1005
16
1070
   347
1005
16
1070
   346
1005
16
1070
   344
1005
0
1070
   343
1005
0
1070
   172
1070
     1
1070
    76
1070
     0
1070
    75
1070
     0
1070
   282
1070
     0
1070
   281
1070
     0
1070
    71
1070
     0
1070
    74
1070
     0
1070
   279
1070
     0
1070
   173
1070
     1
1070
   340
1005
1F1
1070
   271
1070
     2
1070
   272
1070
     2
1070
    77
1070
     1
1070
    73
1070
     1
1070
   171
1070
     3
1070
   274
1070
     4
1070
   177
1070
     2
1070
   176
1070
     2
1070
   178
1070
     2
1070
    78
1070
     8
1070
    48
1040
-0.1
1070
    41
1040
3.5
1070
   147
1040
1.75
1070
    42
1040
1.5875
1070
    44
1040
2.0
1070
   140
1040
3.5
1002
}
1001
ACAD_DSTYLE_DIM_LINETYPE
1070
   380
1005
16
1001
ACAD_DSTYLE_DIM_EXT1_LINETYPE
1070
   381
1005
16
1001
ACAD_DSTYLE_DIM_EXT2_LINETYPE
1070
   382
1005
16
0
DIMENSION
5
235
100
AcDbEntity
8
SK2
62
256
6
ByLayer
370
18
48
1
60
0
100
AcDbDimension
2
_U1
10
5.997679
20
-38.088585
30
0
11
41.998839
21
-38.088585
31
0
70
32
71
1
72
1
41
1
210
0
220
0
230
1
3
Standard
100
AcDbAlignedDimension
13
78
23
-8
33
0
14
5.997679
24
-7.68
34
0
50
0
100
AcDbRotatedDimension
1001
ACAD
1000
DSTYLE
1002
{
1070
   371
1070
    13
1070
   372
1070
    13
1070
   170
1070
     0
1070
   144
1040
1.0
1070
   277
1070
     2
1070
   284
1070
     8
1070
   278
1070
    46
1070
   146
1040
1.0
1070
   345
1005
16
1070
   347
1005
16
1070
   346
1005
16
1070
   344
1005
0
1070
   343
1005
0
1070
   172
1070
     1
1070
    76
1070
     0
1070
    75
1070
     0
1070
   282
1070
     0
1070
   281
1070
     0
1070
    71
1070
     0
1070
    74
1070
     0
1070
   279
1070
     0
1070
   173
1070
     1
1070
   340
1005
1F1
1070
   271
1070
     2
1070
   272
1070
     2
1070
    77
1070
     1
1070
    73
1070
     1
1070
   171
1070
     3
1070
   274
1070
     4
1070
   177
1070
     2
1070
   176
1070
     2
1070
   178
1070
     2
1070
    78
1070
     8
1070
    48
1040
-0.1
1070
    41
1040
3.5
1070
   147
1040
1.75
1070
    42
1040
1.5875
1070
    44
1040
2.0
1070
   140
1040
3.5
1002
}
1001
ACAD_DSTYLE_DIM_LINETYPE
1070
   380
1005
16
1001
ACAD_DSTYLE_DIM_EXT1_LINETYPE
1070
   381
1005
16
1001
ACAD_DSTYLE_DIM_EXT2_LINETYPE
1070
   382
1005
16
0
ENDSEC
0
SECTION
2
OBJECTS
0
DICTIONARY
5
2bd
330
0
100
AcDbDictionary
280
0
281
1
3
ACAD_GROUP
350
2be
3
ACAD_MLINESTYLE
350
2bf
0
DICTIONARY
5
2be
330
0
100
AcDbDictionary
280
0
281
1
0
DICTIONARY
5
2bf
330
0
100
AcDbDictionary
280
0
281
1
3
Standard
350
18
0
MLINESTYLE
5
18
330
2bf
100
AcDbMlineStyle
2
Standard
70
0
3

62
256
51
90
52
90
71
2
49
-0.5
62
256
6
ByLayer
49
0.5
62
256
6
ByLayer
0
RASTERVARIABLES
5
2ab
330

100
AcDbRasterVariables
90
0
70
1
71
1
72
1
0
ENDSEC
0
EOF
