0
SECTION
2
HEADER
9
$ACADVER
1
AC1015
9
$DWGCODEPAGE
3
ANSI_1252
9
$HANDSEED
5
2d8
9
$ANGBASE
50
0
9
$ANGDIR
70
0
9
$ATTMODE
70
1
9
$AUNITS
70
0
9
$AUPREC
70
0
9
$CECOLOR
62
256
9
$CELTSCALE
40
1
9
$CELTYPE
6
ByLayer
9
$CELWEIGHT
370
18
9
$CLAYER
8
0
9
$CMLJUST
70
0
9
$CMLSCALE
40
1
9
$CMLSTYLE
2
Standard
9
$DIMSTYLE
2
Standard
9
$TEXTSIZE
40
0.2
9
$TEXTSTYLE
7
Standard
9
$LUNITS
70
2
9
$LUPREC
70
4
9
$EXTNAMES
290
1
9
$INSUNITS
70
4
9
$LTSCALE
40
1
9
$LWDISPLAY
290
1
9
$PDMODE
70
0
9
$PDSIZE
40
0
9
$PLINEGEN
70
0
0
ENDSEC
0
SECTION
2
CLASSES
0
CLASS
1
RASTERVARIABLES
2
AcDbRasterVariables
3
ISM
90
0
280
0
281
0
0
ENDSEC
0
SECTION
2
TABLES
0
TABLE
2
VPORT
5
2ce
100
AcDbSymbolTable
0
VPORT
5
1
100
AcDbSymbolTableRecord
100
AcDbViewportTableRecord
2
*Active
70
0
10
0
20
0
11
1
21
1
12
-1
22
1
13
0
23
0
14
0.5
24
0.5
15
10
25
10
16
0
26
0
36
1
17
0
27
0
37
0
0
ENDTAB
0
TABLE
2
LTYPE
5
2cf
100
AcDbSymbolTable
0
LTYPE
5
14
100
AcDbSymbolTableRecord
100
AcDbLinetypeTableRecord
70
0
2
ByBlock
3

72
65
73
0
40
0
0
LTYPE
5
15
100
AcDbSymbolTableRecord
100
AcDbLinetypeTableRecord
70
0
2
ByLayer
3

72
65
73
0
40
0
0
LTYPE
5
16
100
AcDbSymbolTableRecord
100
AcDbLinetypeTableRecord
70
0
2
Continuous
3
Solid line
72
65
73
0
40
0
0
LTYPE
5
6E
100
AcDbSymbolTableRecord
100
AcDbLinetypeTableRecord
70
0
2
CENTER
3
____ _ ____ _ ____ _ ____
72
65
73
4
40
47.5
49
22
74
0
49
-8.5
74
0
49
8.5
74
0
49
-8.5
74
0
0
LTYPE
5
6F
100
AcDbSymbolTableRecord
100
AcDbLinetypeTableRecord
70
0
2
DASHED
3
__ __ __ __ __ __ __ __ __
72
65
73
2
40
25.72
49
12.86
74
0
49
-12.86
74
0
0
ENDTAB
0
TABLE
2
LAYER
5
2d0
100
AcDbSymbolTable
0
LAYER
5
10
100
AcDbSymbolTableRecord
100
AcDbLayerTableRecord
2
0
70
0
62
7
6
Continuous
290
1
370
-3
390
0
0
LAYER
5
71
100
AcDbSymbolTableRecord
100
AcDbLayerTableRecord
2
81
70
0
62
-3
6
Continuous
290
1
370
-3
390
0
0
LAYER
5
73
100
AcDbSymbolTableRecord
100
AcDbLayerTableRecord
2
80
70
0
62
-6
6
Continuous
290
1
370
-3
390
0
0
LAYER
5
75
100
AcDbSymbolTableRecord
100
AcDbLayerTableRecord
2
1
70
0
62
4
6
Continuous
290
1
370
-3
390
0
0
LAYER
5
7B
100
AcDbSymbolTableRecord
100
AcDbLayerTableRecord
2
4
70
0
62
-2
6
CENTER
290
1
370
-3
390
0
0
LAYER
5
E8
100
AcDbSymbolTableRecord
100
AcDbLayerTableRecord
2
2
70
0
62
7
6
Continuous
290
1
370
-3
390
0
0
LAYER
5
22D
100
AcDbSymbolTableRecord
100
AcDbLayerTableRecord
2
Defpoints
70
0
62
7
6
Continuous
290
0
370
-3
390
0
0
LAYER
5
2ba
100
AcDbSymbolTableRecord
100
AcDbLayerTableRecord
2
SK4
70
0
62
2
6
CENTER
290
1
370
-3
390
0
0
LAYER
5
2bb
100
AcDbSymbolTableRecord
100
AcDbLayerTableRecord
2
SK1
70
0
62
4
6
Continuous
290
1
370
-3
390
0
0
LAYER
5
2bc
100
AcDbSymbolTableRecord
100
AcDbLayerTableRecord
2
SK2
70
0
62
7
6
Continuous
290
1
370
-3
390
0
0
LAYER
5
2bd
100
AcDbSymbolTableRecord
100
AcDbLayerTableRecord
2
SK6
70
0
62
5
6
Continuous
290
1
370
-3
390
0
0
ENDTAB
0
TABLE
2
STYLE
5
2d1
100
AcDbSymbolTable
0
STYLE
5
11
100
AcDbSymbolTableRecord
100
AcDbTextStyleTableRecord
2
Standard
3
txt
70
0
71
0
40
0
41
1
42
0
50
0
0
STYLE
5
1FF
100
AcDbSymbolTableRecord
100
AcDbTextStyleTableRecord
2
iso_b_vert
3
simplex.shx
70
0
71
0
40
0
41
1
42
0
50
0
0
STYLE
5
200
100
AcDbSymbolTableRecord
100
AcDbTextStyleTableRecord
2
DWGDirectTextStyle
3
simplex
70
0
71
0
40
0
41
1
42
0
50
0
0
ENDTAB
0
TABLE
2
DIMSTYLE
5
2d2
100
AcDbSymbolTable
100
AcDbDimStyleTable
0
DIMSTYLE
105
27
100
AcDbSymbolTableRecord
100
AcDbDimStyleTableRecord
2
Standard
70
0
3
<>
41
0.18
42
0.0625
44
0.18
140
0.18
147
0.09
73
0
74
0
77
1
271
2
275
0
278
52
280
0
340
11
0
ENDTAB
0
TABLE
2
VIEW
5
2d3
100
AcDbSymbolTable
0
ENDTAB
0
TABLE
2
UCS
5
2d4
100
AcDbSymbolTable
0
ENDTAB
0
TABLE
2
APPID
5
2d5
100
AcDbSymbolTable
0
APPID
5
12
100
AcDbSymbolTableRecord
100
AcDbRegAppTableRecord
2
ACAD
70
0
0
APPID
5
229
100
AcDbSymbolTableRecord
100
AcDbRegAppTableRecord
2
ACAD_DSTYLE_DIMBREAK
70
0
0
APPID
5
279
100
AcDbSymbolTableRecord
100
AcDbRegAppTableRecord
2
ACAD_DSTYLE_DIM_LINETYPE
70
0
0
APPID
5
27A
100
AcDbSymbolTableRecord
100
AcDbRegAppTableRecord
2
ACAD_DSTYLE_DIM_EXT1_LINETYPE
70
0
0
APPID
5
27B
100
AcDbSymbolTableRecord
100
AcDbRegAppTableRecord
2
ACAD_DSTYLE_DIM_EXT2_LINETYPE
70
0
0
APPID
5
2B6
100
AcDbSymbolTableRecord
100
AcDbRegAppTableRecord
2
ACAD_MLEADERVER
70
0
0
ENDTAB
0
TABLE
2
BLOCK_RECORD
5
2d6
100
AcDbSymbolTable
0
BLOCK_RECORD
5
1F
100
AcDbSymbolTableRecord
100
AcDbBlockTableRecord
2
*Model_Space
340
0
70
0
0
BLOCK_RECORD
5
1B
100
AcDbSymbolTableRecord
100
AcDbBlockTableRecord
2
*Paper_Space
340
0
70
0
0
BLOCK_RECORD
5
23
100
AcDbSymbolTableRecord
100
AcDbBlockTableRecord
2
*Paper_Space0
340
0
70
0
0
BLOCK_RECORD
5
22E
100
AcDbSymbolTableRecord
100
AcDbBlockTableRecord
2
*D1
340
0
70
0
0
BLOCK_RECORD
5
23A
100
AcDbSymbolTableRecord
100
AcDbBlockTableRecord
2
_U0
340
0
70
0
0
BLOCK_RECORD
5
246
100
AcDbSymbolTableRecord
100
AcDbBlockTableRecord
2
*D3
340
0
70
0
0
BLOCK_RECORD
5
252
100
AcDbSymbolTableRecord
100
AcDbBlockTableRecord
2
_U1
340
0
70
0
0
ENDTAB
0
ENDSEC
0
SECTION
2
BLOCKS
0
BLOCK
5
20
100
AcDbEntity
8
0
100
AcDbBlockBegin
2
*Model_Space
70
0
10
0
20
0
30
0
3
*Model_Space
0
ENDBLK
5
21
100
AcDbEntity
8
0
100
AcDbBlockEnd
0
BLOCK
5
1C
100
AcDbEntity
8
0
100
AcDbBlockBegin
2
*Paper_Space
70
0
10
0
20
0
30
0
3
*Paper_Space
0
ENDBLK
5
1D
100
AcDbEntity
8
0
100
AcDbBlockEnd
0
BLOCK
5
24
100
AcDbEntity
8
0
100
AcDbBlockBegin
2
*Paper_Space0
70
0
10
0
20
0
30
0
3
*Paper_Space0
0
ENDBLK
5
25
100
AcDbEntity
8
0
100
AcDbBlockEnd
0
BLOCK
5
22F
100
AcDbEntity
8
0
100
AcDbBlockBegin
2
*D1
70
1
10
0
20
0
30
0
3
*D1
0
LINE
5
231
100
AcDbEntity
8
0
62
256
6
ByLayer
370
-2
48
1
60
0
100
AcDbLine
10
30
20
-4.5875
30
0
11
30
21
-19.541434
31
0
39
0
210
0
220
0
230
1
0
LINE
5
232
100
AcDbEntity
8
0
62
256
6
ByLayer
370
-2
48
1
60
0
100
AcDbLine
10
9
20
-4.5875
30
0
11
9
21
-19.541434
31
0
39
0
210
0
220
0
230
1
0
LINE
5
233
100
AcDbEntity
8
0
62
256
6
ByLayer
370
-2
48
1
60
0
100
AcDbLine
10
26.5
20
-17.541434
30
0
11
12.5
21
-17.541434
31
0
39
0
210
0
220
0
230
1
0
SOLID
5
234
100
AcDbEntity
8
0
62
256
6
ByLayer
370
-1
48
1
60
0
100
AcDbTrace
10
26.5
20
-18.124767
30
0
11
26.5
21
-16.958101
31
0
12
30
22
-17.541434
32
0
13
30
23
-17.541434
33
0
39
0
210
0
220
0
230
1
0
SOLID
5
235
100
AcDbEntity
8
0
62
256
6
ByLayer
370
-1
48
1
60
0
100
AcDbTrace
10
12.5
20
-16.958101
30
0
11
12.5
21
-18.124767
31
0
12
9
22
-17.541434
32
0
13
9
23
-17.541434
33
0
39
0
210
0
220
0
230
1
0
MTEXT
5
236
100
AcDbEntity
8
0
62
256
6
ByLayer
370
18
48
1
60
0
100
AcDbMText
10
19.5
20
-10.541434
30
0
210
0
220
0
230
1
1
\A1;21
40
3.5
41
0
44
1
50
0
71
5
72
5
7
iso_b_vert
0
POINT
5
237
100
AcDbEntity
8
Defpoints
62
0
6
ByLayer
370
-1
48
1
60
0
100
AcDbPoint
10
30
20
-3
30
0
39
0
210
0
220
0
230
1
50
360
0
POINT
5
238
100
AcDbEntity
8
Defpoints
62
0
6
ByLayer
370
-1
48
1
60
0
100
AcDbPoint
10
9
20
-3
30
0
39
0
210
0
220
0
230
1
50
360
0
POINT
5
239
100
AcDbEntity
8
Defpoints
62
0
6
ByLayer
370
-1
48
1
60
0
100
AcDbPoint
10
9
20
-17.541434
30
0
39
0
210
0
220
0
230
1
50
360
0
ENDBLK
5
230
100
AcDbEntity
8
0
100
AcDbBlockEnd
0
BLOCK
5
241
100
AcDbEntity
8
0
100
AcDbBlockBegin
2
_U0
70
0
10
0
20
0
30
0
3
_U0
0
MTEXT
5
23B
100
AcDbEntity
8
2
62
256
6
ByLayer
370
18
48
1
60
0
100
AcDbMText
10
18.032467
20
-16.5088
30
0
210
0
220
0
230
1
1
\W0.6351;21
40
3.5
41
0
44
1.084337
50
0
71
7
72
5
7
iso_b_vert
0
LINE
5
23C
100
AcDbEntity
8
2
62
256
6
ByLayer
370
13
48
1
60
0
100
AcDbLine
10
30
20
-4.5875
30
0
11
30
21
-19.541434
31
0
39
0
210
0
220
0
230
1
0
LINE
5
23D
100
AcDbEntity
8
2
62
256
6
ByLayer
370
13
48
1
60
0
100
AcDbLine
10
9
20
-4.5875
30
0
11
9
21
-19.541434
31
0
39
0
210
0
220
0
230
1
0
LINE
5
23E
100
AcDbEntity
8
2
62
256
6
ByLayer
370
13
48
1
60
0
100
AcDbLine
10
30
20
-17.541434
30
0
11
9
21
-17.541434
31
0
39
0
210
0
220
0
230
1
0
SOLID
5
23F
100
AcDbEntity
8
2
62
256
6
ByLayer
370
18
48
1
60
0
100
AcDbTrace
10
30
20
-17.541434
30
0
11
26.500002
21
-18.002218
31
0
12
26.499998
22
-17.08065
32
0
13
26.499998
23
-17.08065
33
0
39
0
210
0
220
0
230
1
0
SOLID
5
240
100
AcDbEntity
8
2
62
256
6
ByLayer
370
18
48
1
60
0
100
AcDbTrace
10
9
20
-17.541434
30
0
11
12.499998
21
-17.08065
31
0
12
12.500002
22
-18.002218
32
0
13
12.500002
23
-18.002218
33
0
39
0
210
0
220
0
230
1
0
ENDBLK
5
242
100
AcDbEntity
8
0
100
AcDbBlockEnd
0
BLOCK
5
247
100
AcDbEntity
8
0
100
AcDbBlockBegin
2
*D3
70
1
10
0
20
0
30
0
3
*D3
0
LINE
5
249
100
AcDbEntity
8
0
62
256
6
ByLayer
370
-2
48
1
60
0
100
AcDbLine
10
30
20
-4.5875
30
0
11
30
21
-34.541434
31
0
39
0
210
0
220
0
230
1
0
LINE
5
24A
100
AcDbEntity
8
0
62
256
6
ByLayer
370
-2
48
1
60
0
100
AcDbLine
10
2.996857
20
-4.4675
30
0
11
2.996857
21
-34.541434
31
0
39
0
210
0
220
0
230
1
0
LINE
5
24B
100
AcDbEntity
8
0
62
256
6
ByLayer
370
-2
48
1
60
0
100
AcDbLine
10
26.5
20
-32.541434
30
0
11
6.496857
21
-32.541434
31
0
39
0
210
0
220
0
230
1
0
SOLID
5
24C
100
AcDbEntity
8
0
62
256
6
ByLayer
370
-1
48
1
60
0
100
AcDbTrace
10
26.5
20
-33.124767
30
0
11
26.5
21
-31.958101
31
0
12
30
22
-32.541434
32
0
13
30
23
-32.541434
33
0
39
0
210
0
220
0
230
1
0
SOLID
5
24D
100
AcDbEntity
8
0
62
256
6
ByLayer
370
-1
48
1
60
0
100
AcDbTrace
10
6.496857
20
-31.958101
30
0
11
6.496857
21
-33.124767
31
0
12
2.996857
22
-32.541434
32
0
13
2.996857
23
-32.541434
33
0
39
0
210
0
220
0
230
1
0
MTEXT
5
24E
100
AcDbEntity
8
0
62
256
6
ByLayer
370
18
48
1
60
0
100
AcDbMText
10
16.498429
20
-25.541434
30
0
210
0
220
0
230
1
1
\A1;27
40
3.5
41
0
44
1
50
0
71
5
72
5
7
iso_b_vert
0
POINT
5
24F
100
AcDbEntity
8
Defpoints
62
0
6
ByLayer
370
-1
48
1
60
0
100
AcDbPoint
10
30
20
-3
30
0
39
0
210
0
220
0
230
1
50
360
0
POINT
5
250
100
AcDbEntity
8
Defpoints
62
0
6
ByLayer
370
-1
48
1
60
0
100
AcDbPoint
10
2.996857
20
-2.88
30
0
39
0
210
0
220
0
230
1
50
360
0
POINT
5
251
100
AcDbEntity
8
Defpoints
62
0
6
ByLayer
370
-1
48
1
60
0
100
AcDbPoint
10
2.996857
20
-32.541434
30
0
39
0
210
0
220
0
230
1
50
360
0
ENDBLK
5
248
100
AcDbEntity
8
0
100
AcDbBlockEnd
0
BLOCK
5
259
100
AcDbEntity
8
0
100
AcDbBlockBegin
2
_U1
70
0
10
0
20
0
30
0
3
_U1
0
MTEXT
5
253
100
AcDbEntity
8
SK2
62
256
6
ByLayer
370
18
48
1
60
0
100
AcDbMText
10
14.593462
20
-31.5088
30
0
210
0
220
0
230
1
1
\W0.6740;27
40
3.5
41
0
44
1.084337
50
0
71
7
72
5
7
iso_b_vert
0
LINE
5
254
100
AcDbEntity
8
SK2
62
256
6
ByLayer
370
13
48
1
60
0
100
AcDbLine
10
30
20
-4.5875
30
0
11
30
21
-34.541434
31
0
39
0
210
0
220
0
230
1
0
LINE
5
255
100
AcDbEntity
8
SK2
62
256
6
ByLayer
370
13
48
1
60
0
100
AcDbLine
10
2.996857
20
-4.4675
30
0
11
2.996857
21
-34.541434
31
0
39
0
210
0
220
0
230
1
0
LINE
5
256
100
AcDbEntity
8
SK2
62
256
6
ByLayer
370
13
48
1
60
0
100
AcDbLine
10
30
20
-32.541434
30
0
11
2.996857
21
-32.541434
31
0
39
0
210
0
220
0
230
1
0
SOLID
5
257
100
AcDbEntity
8
SK2
62
256
6
ByLayer
370
18
48
1
60
0
100
AcDbTrace
10
30
20
-32.541434
30
0
11
26.500002
21
-33.002218
31
0
12
26.499998
22
-32.08065
32
0
13
26.499998
23
-32.08065
33
0
39
0
210
0
220
0
230
1
0
SOLID
5
258
100
AcDbEntity
8
SK2
62
256
6
ByLayer
370
18
48
1
60
0
100
AcDbTrace
10
2.996857
20
-32.541434
30
0
11
6.496856
21
-32.08065
31
0
12
6.496859
22
-33.002218
32
0
13
6.496859
23
-33.002218
33
0
39
0
210
0
220
0
230
1
0
ENDBLK
5
25A
100
AcDbEntity
8
0
100
AcDbBlockEnd
0
ENDSEC
0
SECTION
2
ENTITIES
0
ARC
5
FA
100
AcDbEntity
8
1
62
256
6
ByLayer
370
18
48
1
60
0
100
AcDbCircle
39
0
10
2.996857
20
3.88
30
0
40
1
210
0
220
0
230
1
100
AcDbArc
50
241.642363
51
270
0
ARC
5
FB
100
AcDbEntity
8
1
62
256
6
ByLayer
370
18
48
1
60
0
100
AcDbCircle
39
0
10
2.996857
20
-3.88
30
0
40
1
210
0
220
0
230
1
100
AcDbArc
50
90
51
118.357637
0
ELLIPSE
5
FC
100
AcDbEntity
8
1
62
256
6
ByLayer
370
18
48
1
60
0
100
AcDbEllipse
10
29.963947
20
-0.019881
30
0
11
0.0156529633543164
21
0.842168507764397
31
0
210
0
220
0
230
1
40
0.051623
41
1.41746728834768
42
1.61206586458041
0
ELLIPSE
5
FD
100
AcDbEntity
8
1
62
256
6
ByLayer
370
18
48
1
60
0
100
AcDbEllipse
10
29.907416
20
0.106642
30
0
11
0.413151104995171
21
-0.0680235330954426
31
0
210
0
220
0
230
1
40
0.374881
41
-1.69977326603397
42
-1.47907836789239
0
ELLIPSE
5
FE
100
AcDbEntity
8
1
62
256
6
ByLayer
370
18
48
1
60
0
100
AcDbEllipse
10
29.817336
20
-0.383481
30
0
11
0.412299801535282
21
0.0220245517177203
31
0
210
0
220
0
230
1
40
0.665198
41
1.33331687312547
42
2.21009707712623
0
ELLIPSE
5
FF
100
AcDbEntity
8
1
62
256
6
ByLayer
370
18
48
1
60
0
100
AcDbEllipse
10
29.907416
20
0.106642
30
0
11
0.413151105333811
21
-0.0680235331518966
31
0
210
0
220
0
230
1
40
0.374881
41
2.42434486645779
42
2.63435517034835
0
ELLIPSE
5
100
100
AcDbEntity
8
1
62
256
6
ByLayer
370
18
48
1
60
0
100
AcDbEllipse
10
11.910441
20
0
30
0
11
5.54387805619435
21
2.36475630872057
31
0
210
0
220
0
230
1
40
0.296521
41
-2.68926318120287
42
-2.34742063879252
0
ELLIPSE
5
101
100
AcDbEntity
8
1
62
256
6
ByLayer
370
18
48
1
60
0
100
AcDbEllipse
10
12.074784
20
0
30
0
11
5.89659795686552
21
-0.601142397673802
31
0
210
0
220
0
230
1
40
0.477659
41
-2.50929550948018
42
-2.16725136151812
0
ELLIPSE
5
102
100
AcDbEntity
8
1
62
256
6
ByLayer
370
18
48
1
60
0
100
AcDbEllipse
10
11.851378
20
0
30
0
11
5.47048706563133
21
-2.85074806938124
31
0
210
0
220
0
230
1
40
0.074844
41
2.26280425183724
42
2.59671517133002
0
POINT
5
70
100
AcDbEntity
8
81
62
256
6
ByLayer
370
18
48
1
60
0
100
AcDbPoint
10
30
20
0
30
0
39
0
210
0
220
0
230
1
50
360
0
POINT
5
72
100
AcDbEntity
8
80
62
256
6
ByLayer
370
18
48
1
60
0
100
AcDbPoint
10
0
20
0
30
0
39
0
210
0
220
0
230
1
50
360
0
POINT
5
74
100
AcDbEntity
8
1
62
256
6
ByLayer
370
18
48
1
60
1
100
AcDbPoint
10
30
20
-3
30
0
39
0
210
0
220
0
230
1
50
360
0
POINT
5
76
100
AcDbEntity
8
1
62
256
6
ByLayer
370
18
48
1
60
1
100
AcDbPoint
10
9
20
-3
30
0
39
0
210
0
220
0
230
1
50
360
0
POINT
5
77
100
AcDbEntity
8
1
62
256
6
ByLayer
370
18
48
1
60
1
100
AcDbPoint
10
30
20
-3
30
0
39
0
210
0
220
0
230
1
50
360
0
POINT
5
78
100
AcDbEntity
8
1
62
256
6
ByLayer
370
18
48
1
60
1
100
AcDbPoint
10
2.996857
20
-2.88
30
0
39
0
210
0
220
0
230
1
50
360
0
SPLINE
5
103
100
AcDbEntity
8
1
62
256
6
ByLayer
370
18
48
1
60
0
100
AcDbSpline
70
4
71
5
72
15
73
9
40
0
40
0
40
0
40
0
40
0
40
0
40
0.219001566165861
40
0.592153932214883
40
0.774750306295905
40
1
40
1
40
1
40
1
40
1
40
1
41
1
10
11.1089147466929
20
1.59660367176869
30
0
41
1
10
11.3178128867554
20
1.73230541868446
30
0
41
1
10
11.8829702616417
20
2.08396143016193
30
0
41
1
10
12.621695615239
20
2.48145152279795
30
0
41
1
10
13.5762694183439
20
2.85786433017051
30
0
41
1
10
14.5298064700288
20
3.02054709291988
30
0
41
1
10
15.2752170323409
20
3.01059094203578
30
0
41
1
10
15.6641806114784
20
2.96826053397089
30
0
41
1
10
15.8791037765072
20
2.9337823005402
30
0
0
SPLINE
5
104
100
AcDbEntity
8
1
62
256
6
ByLayer
370
18
48
1
60
0
100
AcDbSpline
70
4
71
3
72
12
73
8
40
0
40
0
40
0
40
0
40
0.0597070545364469
40
0.383123290801954
40
0.544525206052552
40
0.705651252207082
40
1
40
1
40
1
40
1
41
1
10
21.3257296612804
20
-1.61575404005759
30
0
41
1
10
21.2474543282216
20
-1.66455613358542
30
0
41
1
10
20.7451981329296
20
-1.9718851033719
30
0
41
1
10
20.0312599189617
20
-2.35086917512899
30
0
41
1
10
19.1823705274091
20
-2.68102569905821
30
0
41
1
10
18.3702475595922
20
-2.91305506753088
30
0
41
1
10
17.7691400151018
20
-2.99049702624185
30
0
41
1
10
17.3799978459802
20
-2.99882300578238
30
0
0
SPLINE
5
105
100
AcDbEntity
8
1
62
256
6
ByLayer
370
18
48
1
60
0
100
AcDbSpline
70
4
71
5
72
13
73
7
40
0
40
0
40
0
40
0
40
0
40
0
40
0.546697076609999
40
1
40
1
40
1
40
1
40
1
40
1
41
1
10
9
20
0.0653302537664899
30
0
41
1
10
9.23044291060955
20
0.242412848004221
30
0
41
1
10
9.65231105790738
20
0.565366528811836
30
0
41
1
10
10.074350538259
20
0.882822954671553
30
0
41
1
10
10.495922171912
20
1.18782419487494
30
0
41
1
10
10.9177152743038
20
1.47239955756862
30
0
41
1
10
11.1089147466929
20
1.59660367176869
30
0
0
SPLINE
5
106
100
AcDbEntity
8
1
62
256
6
ByLayer
370
18
48
1
60
0
100
AcDbSpline
70
4
71
3
72
14
73
10
40
0
40
0
40
0
40
0
40
0.0128978164567888
40
0.165829236429472
40
0.242468315005985
40
0.396406223671358
40
0.628003060361153
40
0.780063513680435
40
1
40
1
40
1
40
1
41
1
10
17.3799978459802
20
-2.99882300578238
30
0
41
1
10
17.3442465660165
20
-2.99958793040159
30
0
41
1
10
16.8845131189221
20
-3.00489515082205
30
0
41
1
10
16.2109138575235
20
-2.92707006777934
30
0
41
1
10
15.1493888320722
20
-2.62719898123504
30
0
41
1
10
13.8753532199638
20
-2.06795092776397
30
0
41
1
10
12.406354589938
20
-1.11761838896353
30
0
41
1
10
10.7259256289636
20
0.124262078725138
30
0
41
1
10
9.65548369890359
20
0.917984460684636
30
0
41
1
10
9
20
1.35153544548913
30
0
0
SPLINE
5
107
100
AcDbEntity
8
1
62
256
6
ByLayer
370
18
48
1
60
0
100
AcDbSpline
70
4
71
3
72
8
73
4
40
0
40
0
40
0
40
0
40
1
40
1
40
1
40
1
41
1
10
29.7942815106191
20
2.99407951883512
30
0
41
1
10
29.8243673488106
20
2.9892473239218
30
0
41
1
10
29.8544844737085
20
2.98462007925198
30
0
41
1
10
29.8846320497975
20
2.98019231123061
30
0
0
SPLINE
5
108
100
AcDbEntity
8
1
62
256
6
ByLayer
370
18
48
1
60
0
100
AcDbSpline
70
4
71
3
72
8
73
4
40
0
40
0
40
0
40
0
40
1
40
1
40
1
40
1
41
1
10
29.7479641982272
20
2.99419406198911
30
0
41
1
10
29.7634027220361
20
2.99410662372358
30
0
41
1
10
29.7788419835727
20
2.99406847924701
30
0
41
1
10
29.7942815105939
20
2.99407951884894
30
0
0
SPLINE
5
109
100
AcDbEntity
8
1
62
256
6
ByLayer
370
18
48
1
60
0
100
AcDbSpline
70
4
71
3
72
8
73
4
40
0
40
0
40
0
40
0
40
1
40
1
40
1
40
1
41
1
10
9.00000000000006
20
-2.77993642137008
30
0
41
1
10
8.91611709657195
20
-2.79461794399367
30
0
41
1
10
8.83265303578966
20
-2.80821327143386
30
0
41
1
10
8.74963340911174
20
-2.82065603671683
30
0
0
SPLINE
5
10A
100
AcDbEntity
8
1
62
256
6
ByLayer
370
18
48
1
60
0
100
AcDbSpline
70
4
71
3
72
10
73
6
40
0
40
0
40
0
40
0
40
0.5
40
0.5
40
1
40
1
40
1
40
1
41
1
10
8.74963340911003
20
-2.8206560367197
30
0
41
1
10
8.71389246437943
20
-2.81933523893594
30
0
41
1
10
8.67737637480826
20
-2.81932790363331
30
0
41
1
10
8.60259702112538
20
-2.82227377419019
30
0
41
1
10
8.56433630611264
20
-2.82522266066877
30
0
41
1
10
8.52502631651845
20
-2.82994951524185
30
0
0
SPLINE
5
10B
100
AcDbEntity
8
1
62
256
6
ByLayer
370
18
48
1
60
0
100
AcDbSpline
70
4
71
3
72
8
73
4
40
0
40
0
40
0
40
0
40
1
40
1
40
1
40
1
41
1
10
10.5786558054445
20
-2.98583731707524
30
0
41
1
10
10.5776303780872
20
-2.98680824248532
30
0
41
1
10
10.5766309945064
20
-2.98778639774508
30
0
41
1
10
10.5756603910071
20
-2.98877119909454
30
0
0
SPLINE
5
10C
100
AcDbEntity
8
1
62
256
6
ByLayer
370
18
48
1
60
0
100
AcDbSpline
70
4
71
3
72
8
73
4
40
0
40
0
40
0
40
0
40
1
40
1
40
1
40
1
41
1
10
8.52502631651848
20
2.87060109259579
30
0
41
1
10
8.60335756040234
20
2.87377764119157
30
0
41
1
10
8.67958239522648
20
2.88548621168056
30
0
41
1
10
8.75276831774448
20
2.90426829988573
30
0
0
SPLINE
5
10D
100
AcDbEntity
8
1
62
256
6
ByLayer
370
18
48
1
60
0
100
AcDbSpline
70
4
71
3
72
8
73
4
40
0
40
0
40
0
40
0
40
1
40
1
40
1
40
1
41
1
10
9.92891434420073
20
-2.91020559566098
30
0
41
1
10
9.93094001107821
20
-2.9130346555435
30
0
41
1
10
9.93289897361197
20
-2.91585264251324
30
0
41
1
10
9.93478831807255
20
-2.9186607112662
30
0
0
SPLINE
5
10E
100
AcDbEntity
8
1
62
256
6
ByLayer
370
13
48
1
60
0
100
AcDbSpline
70
4
71
3
72
12
73
8
40
0
40
0
40
0
40
0
40
0.123907719001071
40
0.256676012607924
40
0.389444306214777
40
0.920517480642188
40
1
40
1
40
1
40
1
41
1
10
10.4107616904476
20
-2.8488988511761
30
0
41
1
10
10.4182883396052
20
-2.85093456855816
30
0
41
1
10
10.4336246720559
20
-2.85559047575825
30
0
41
1
10
10.4559653000804
20
-2.86393125006623
30
0
41
1
10
10.499157133662
20
-2.88326016920269
30
0
41
1
10
10.5374737412794
20
-2.90842861652678
30
0
41
1
10
10.5646415987035
20
-2.93385766258902
30
0
41
1
10
10.5681001754933
20
-2.93724329627673
30
0
0
SPLINE
5
10F
100
AcDbEntity
8
1
62
256
6
ByLayer
370
18
48
1
60
0
100
AcDbSpline
70
4
71
3
72
8
73
4
40
0
40
0
40
0
40
0
40
1
40
1
40
1
40
1
41
1
10
20.1779319434834
20
-2.66362951252347
30
0
41
1
10
20.1769263362752
20
-2.66794716779532
30
0
41
1
10
20.1759458979248
20
-2.67227213248194
30
0
41
1
10
20.1749931782452
20
-2.67660390902668
30
0
0
SPLINE
5
110
100
AcDbEntity
8
1
62
256
6
ByLayer
370
18
48
1
60
0
100
AcDbSpline
70
4
71
3
72
14
73
10
40
0
40
0
40
0
40
0
40
0.25
40
0.25
40
0.5
40
0.5
40
0.75
40
0.75
40
1
40
1
40
1
40
1
41
1
10
10.5681001754862
20
-2.93724329626954
30
0
41
1
10
10.5653819122171
20
-2.92100923240923
30
0
41
1
10
10.5634950185743
20
-2.90457978274301
30
0
41
1
10
10.5617272601368
20
-2.87145696954224
30
0
41
1
10
10.56185054637
20
-2.85476421995003
30
0
41
1
10
10.5642379884517
20
-2.82130085768918
30
0
41
1
10
10.5665020919764
20
-2.80456034791439
30
0
41
1
10
10.5729611333392
20
-2.77127189974382
30
0
41
1
10
10.5771532784336
20
-2.75472449214186
30
0
41
1
10
10.5820502775071
20
-2.73835509419024
30
0
0
SPLINE
5
111
100
AcDbEntity
8
1
62
256
6
ByLayer
370
18
48
1
60
0
100
AcDbSpline
70
4
71
3
72
8
73
4
40
0
40
0
40
0
40
0
40
1
40
1
40
1
40
1
41
1
10
10.5681001754867
20
-2.93724329626977
30
0
41
1
10
10.5708499342845
20
-2.95366545778163
30
0
41
1
10
10.5744457065916
20
-2.96987433868537
30
0
41
1
10
10.5786558054446
20
-2.98583731707524
30
0
0
SPLINE
5
112
100
AcDbEntity
8
1
62
256
6
ByLayer
370
18
48
1
60
0
100
AcDbSpline
70
4
71
3
72
14
73
10
40
0
40
0
40
0
40
0
40
0.13770754151916
40
0.351820817986803
40
0.458877456220624
40
0.565934094454445
40
0.780047370922088
40
0.994160647389731
40
1
40
1
40
1
40
1
41
1
10
10.5786558054446
20
-2.98583731707524
30
0
41
1
10
10.6454448863974
20
-2.99023085817998
30
0
41
1
10
10.8160539549892
20
-2.99877650014517
30
0
41
1
10
11.0385110381231
20
-3.00097882369241
30
0
41
1
10
11.2460855034725
20
-2.99545046853891
30
0
41
1
10
11.4536535727774
20
-2.98478205632705
30
0
41
1
10
11.7131218760372
20
-2.96194155042099
30
0
41
1
10
11.9235809857865
20
-2.93322746483193
30
0
41
1
10
12.0302499749456
20
-2.91607057490518
30
0
41
1
10
12.0330818646155
20
-2.91561325332825
30
0
0
SPLINE
5
113
100
AcDbEntity
8
1
62
256
6
ByLayer
370
18
48
1
60
0
100
AcDbSpline
70
4
71
3
72
8
73
4
40
0
40
0
40
0
40
0
40
1
40
1
40
1
40
1
41
1
10
15.3772084589352
20
-2.66736007797135
30
0
41
1
10
15.3761850397552
20
-2.67166711110085
30
0
41
1
10
15.3751872127502
20
-2.67598190981843
30
0
41
1
10
15.3742175909937
20
-2.68030394255234
30
0
0
SPLINE
5
114
100
AcDbEntity
8
1
62
256
6
ByLayer
370
18
48
1
60
0
100
AcDbSpline
70
4
71
3
72
8
73
4
40
0
40
0
40
0
40
0
40
1
40
1
40
1
40
1
41
1
10
24.9764599661714
20
-2.45139623143669
30
0
41
1
10
24.9754497379592
20
-2.45674736968789
30
0
41
1
10
24.9744651665947
20
-2.4621061487579
30
0
41
1
10
24.9735087703395
20
-2.4674720612326
30
0
0
SPLINE
5
115
100
AcDbEntity
8
1
62
256
6
ByLayer
370
18
48
1
60
0
100
AcDbSpline
70
4
71
3
72
12
73
8
40
0
40
0
40
0
40
0
40
0.249999999999976
40
0.249999999999976
40
0.499999999999952
40
0.499999999999952
40
1
40
1
40
1
40
1
41
1
10
28.6766034539115
20
0.402638528229062
30
0
41
1
10
28.678337396917
20
0.407777559066261
30
0
41
1
10
28.680078923789
20
0.413319087416539
30
0
41
1
10
28.6836519013131
20
0.425185899341329
30
0
41
1
10
28.6854926608539
20
0.431545741077741
30
0
41
1
10
28.691144179347
20
0.451538481559169
30
0
41
1
10
28.6951121373751
20
0.466129017289319
30
0
41
1
10
28.6991703697079
20
0.481468982889908
30
0
0
SPLINE
5
116
100
AcDbEntity
8
1
62
256
6
ByLayer
370
18
48
1
60
0
100
AcDbSpline
70
4
71
3
72
12
73
8
40
0
40
0
40
0
40
0
40
0.572101678640047
40
0.572101678640047
40
0.85815251796007
40
0.85815251796007
40
1
40
1
40
1
40
1
41
1
10
29.5595861271865
20
-0.176523228913822
30
0
41
1
10
29.5343826566565
20
-0.190708600975995
30
0
41
1
10
29.5117652975391
20
-0.207297690107254
30
0
41
1
10
29.4818908927721
20
-0.234899405564903
30
0
41
1
10
29.4726098342483
20
-0.244560201210476
30
0
41
1
10
29.4598022291552
20
-0.259667698045945
30
0
41
1
10
29.4557673672592
20
-0.264744540192368
30
0
41
1
10
29.4519483452897
20
-0.269879612320096
30
0
0
SPLINE
5
117
100
AcDbEntity
8
1
62
256
6
ByLayer
370
18
48
1
60
0
100
AcDbSpline
70
4
71
3
72
35
73
31
40
0
40
0
40
0
40
0
40
0.062500000000009
40
0.062500000000009
40
0.125000000000018
40
0.125000000000018
40
0.187500000000027
40
0.187500000000027
40
0.218750000000028
40
0.218750000000028
40
0.250000000000029
40
0.250000000000029
40
0.375000000000034
40
0.375000000000034
40
0.437500000000031
40
0.437500000000031
40
0.500000000000027
40
0.562500000000023
40
0.562500000000023
40
0.62500000000002
40
0.62500000000002
40
0.750000000000012
40
0.750000000000012
40
0.78125
40
0.78125
40
0.812499999999988
40
0.812499999999988
40
0.875000000000008
40
0.875000000000008
40
1
40
1
40
1
40
1
41
1
10
29.5586719251901
20
0.241337150269089
30
0
41
1
10
29.5486108166402
20
0.236719633544453
30
0
41
1
10
29.5401739263486
20
0.230832748153688
30
0
41
1
10
29.5260517198369
20
0.217292235836965
30
0
41
1
10
29.5203444363883
20
0.209549832470145
30
0
41
1
10
29.5117061365758
20
0.193387963508855
30
0
41
1
10
29.5087066159469
20
0.18493541363469
30
0
41
1
10
29.5058567014841
20
0.171982731174694
30
0
41
1
10
29.505184110524
20
0.167618143205317
30
0
41
1
10
29.5043626849408
20
0.15882997734272
30
0
41
1
10
29.5042160748167
20
0.154405223384288
30
0
41
1
10
29.5047168955891
20
0.132503279828512
30
0
41
1
10
29.5089324341877
20
0.115466672762409
30
0
41
1
10
29.5200532644994
20
0.0914280541406072
30
0
41
1
10
29.5246129245956
20
0.0836236062253022
30
0
41
1
10
29.5351952405971
20
0.0688793668038272
30
0
41
1
10
29.5472309457141
20
0.0549684567578481
30
0
41
1
10
29.562126957129
20
0.0427412308661417
30
0
41
1
10
29.5785061807654
20
0.0313388883386949
30
0
41
1
10
29.5874999075832
20
0.0260232438859305
30
0
41
1
10
29.6162904156432
20
0.011511131869355
30
0
41
1
10
29.6378913606128
20
0.0037087488375391
30
0
41
1
10
29.6680223843003
20
-0.0046899360131079
30
0
41
1
10
29.6742061445546
20
-0.0063034306889733
30
0
41
1
10
29.6868955140691
20
-0.0094293276642077
30
0
41
1
10
29.6934203380316
20
-0.0109457049427704
30
0
41
1
10
29.7132589493228
20
-0.0153461320428221
30
0
41
1
10
29.7268800907534
20
-0.0180941983587672
30
0
41
1
10
29.7688453785347
20
-0.0262666225238206
30
0
41
1
10
29.7982948189763
20
-0.0316064286443236
30
0
41
1
10
29.8289874392785
20
-0.0382049618875726
30
0
0
SPLINE
5
118
100
AcDbEntity
8
1
62
256
6
ByLayer
370
18
48
1
60
0
100
AcDbSpline
70
4
71
3
72
14
73
10
40
0
40
0
40
0
40
0
40
0.25
40
0.25
40
0.5
40
0.5
40
0.75
40
0.75
40
1
40
1
40
1
40
1
41
1
10
9.92804639964075
20
-2.56208098923122
30
0
41
1
10
9.93879229919133
20
-2.59083190353854
30
0
41
1
10
9.94750614710918
20
-2.61931436266713
30
0
41
1
10
9.96008182785314
20
-2.67623725419043
30
0
41
1
10
9.96394939647519
20
-2.70469600828898
30
0
41
1
10
9.96574256793014
20
-2.76216562245679
30
0
41
1
10
9.96366664186706
20
-2.79104391003057
30
0
41
1
10
9.95216209086169
20
-2.84985874993052
30
0
41
1
10
9.94276795689555
20
-2.87960274437864
30
0
41
1
10
9.92891434420073
20
-2.91020559566098
30
0
0
SPLINE
5
119
100
AcDbEntity
8
1
62
256
6
ByLayer
370
18
48
1
60
0
100
AcDbSpline
70
4
71
3
72
11
73
7
40
0
40
0
40
0
40
0
40
0.0003305813710392
40
0.333553720914026
40
0.666776860457013
40
1
40
1
40
1
40
1
41
1
10
12.9388020945966
20
-1.44812143830799
30
0
41
1
10
12.9383680630644
20
-1.44800893922437
30
0
41
1
10
12.5004340315322
20
-1.3344729807296
30
0
41
1
10
11.625
20
-1.05636598486575
30
0
41
1
10
10.3125
20
-0.525392122778754
30
0
41
1
10
9.43749999999997
20
-0.137588095387997
30
0
41
1
10
9
20
0.0549940102501125
30
0
0
SPLINE
5
11A
100
AcDbEntity
8
1
62
256
6
ByLayer
370
18
48
1
60
0
100
AcDbSpline
70
4
71
3
72
19
73
15
40
0
40
0
40
0
40
0
40
0.250000000000036
40
0.250000000000036
40
0.375000000000046
40
0.375000000000046
40
0.437500000000052
40
0.437500000000052
40
0.500000000000057
40
0.625000000000047
40
0.625000000000047
40
0.750000000000039
40
0.750000000000039
40
1
40
1
40
1
40
1
41
1
10
29.5353569064596
20
2.07450152603357
30
0
41
1
10
29.547077426632
20
2.07103253478445
30
0
41
1
10
29.5604540593515
20
2.06164756522406
30
0
41
1
10
29.5825855491826
20
2.04018803183215
30
0
41
1
10
29.590311452344
20
2.03178908528562
30
0
41
1
10
29.6024015202515
20
2.01740023159624
30
0
41
1
10
29.6065230755023
20
2.01229463728396
30
0
41
1
10
29.6148841320376
20
2.00155401245644
30
0
41
1
10
29.6276032818851
20
1.98465035328451
30
0
41
1
10
29.6408346787494
20
1.9654598169578
30
0
41
1
10
29.6589090411879
20
1.93794158107079
30
0
41
1
10
29.6681847033592
20
1.92317884366881
30
0
41
1
10
29.6964269744758
20
1.87643179324891
30
0
41
1
10
29.7158239273716
20
1.84199384972283
30
0
41
1
10
29.7357576367949
20
1.80446691074073
30
0
0
SPLINE
5
11B
100
AcDbEntity
8
1
62
256
6
ByLayer
370
18
48
1
60
0
100
AcDbSpline
70
4
71
3
72
8
73
4
40
0
40
0
40
0
40
0
40
1
40
1
40
1
40
1
41
1
10
29.5353569076923
20
2.07450152769923
30
0
41
1
10
29.4462633024864
20
2.10179479492064
30
0
41
1
10
29.3571696972804
20
2.12780964174507
30
0
41
1
10
29.2680760920745
20
2.15248330599402
30
0
0
SPLINE
5
11C
100
AcDbEntity
8
1
62
256
6
ByLayer
370
18
48
1
60
0
100
AcDbSpline
70
4
71
3
72
12
73
8
40
0
40
0
40
0
40
0
40
0.0544369229061035
40
0.290827692179578
40
0.527218461453052
40
0.763609230726526
40
1
40
1
40
1
40
1
41
1
10
14.5522472558207
20
-2.37056479946946
30
0
41
1
10
14.4514981705472
20
-2.38634943397915
30
0
41
1
10
13.9132490852735
20
-2.46058650948342
30
0
41
1
10
12.9375
20
-2.49541597837307
30
0
41
1
10
11.625
20
-2.31767697282976
30
0
41
1
10
10.3125
20
-1.93212294201487
30
0
41
1
10
9.43749999999997
20
-1.56042219281491
30
0
41
1
10
9
20
-1.35262823191457
30
0
0
SPLINE
5
11D
100
AcDbEntity
8
1
62
256
6
ByLayer
370
18
48
1
60
0
100
AcDbSpline
70
4
71
3
72
18
73
14
40
0
40
0
40
0
40
0
40
0.124999999999998
40
0.124999999999998
40
0.249999999999996
40
0.249999999999996
40
0.374999999999994
40
0.374999999999994
40
0.499999999999993
40
0.499999999999993
40
0.749999999999996
40
0.749999999999996
40
1
40
1
40
1
40
1
41
1
10
8.75198983411659
20
-2.11973420394503
30
0
41
1
10
8.7538087771328
20
-2.14613025168848
30
0
41
1
10
8.75848157470088
20
-2.17210839037654
30
0
41
1
10
8.77121290487122
20
-2.22332025230506
30
0
41
1
10
8.77927822936826
20
-2.24855657187123
30
0
41
1
10
8.79739039088892
20
-2.29838822555951
30
0
41
1
10
8.80744807727257
20
-2.32298366130166
30
0
41
1
10
8.82875060524265
20
-2.37160534951562
30
0
41
1
10
8.83998213143656
20
-2.39558649539094
30
0
41
1
10
8.87468700862547
20
-2.46662548014561
30
0
41
1
10
8.89915057582465
20
-2.51282173511487
30
0
41
1
10
8.94884892926848
20
-2.60324396244945
30
0
41
1
10
8.97411523831104
20
-2.64745799238392
30
0
41
1
10
8.99937146694805
20
-2.69081084562151
30
0
0
SPLINE
5
11E
100
AcDbEntity
8
1
62
256
6
ByLayer
370
13
48
1
60
0
100
AcDbSpline
70
4
71
3
72
8
73
4
40
0
40
0
40
0
40
0
40
1
40
1
40
1
40
1
41
1
10
29.7357576397283
20
1.80446691204585
30
0
41
1
10
29.6982820562794
20
1.82097405950498
30
0
41
1
10
29.6608064728305
20
1.83728855950238
30
0
41
1
10
29.6233308893815
20
1.85340373234789
30
0
0
SPLINE
5
11F
100
AcDbEntity
8
1
62
256
6
ByLayer
370
13
48
1
60
0
100
AcDbSpline
70
4
71
3
72
10
73
6
40
0
40
0
40
0
40
0
40
0.306280752896018
40
0.653140376448009
40
1
40
1
40
1
40
1
41
1
10
12.7839515206741
20
-2.6299927328441
30
0
41
1
10
12.397634347116
20
-2.64760290567256
30
0
41
1
10
11.573817173558
20
-2.61889139358701
30
0
41
1
10
10.3125
20
-2.36163127628311
30
0
41
1
10
9.43749999999994
20
-2.04165221808569
30
0
41
1
10
8.99999999999994
20
-1.85357777096675
30
0
0
SPLINE
5
120
100
AcDbEntity
8
1
62
256
6
ByLayer
370
13
48
1
60
0
100
AcDbSpline
70
4
71
3
72
12
73
8
40
0
40
0
40
0
40
0
40
0.135567174841467
40
0.268019910750972
40
0.400472646660478
40
0.9302835902985
40
1
40
1
40
1
40
1
41
1
10
20.0087264425655
20
-2.49940153627725
30
0
41
1
10
20.0170068248082
20
-2.50098425078929
30
0
41
1
10
20.0330888790482
20
-2.50448053877392
30
0
41
1
10
20.056116652578
20
-2.51070132565459
30
0
41
1
10
20.0993079655453
20
-2.52468731463495
30
0
41
1
10
20.1371290457283
20
-2.5426639656396
30
0
41
1
10
20.163935682451
20
-2.56072213220529
30
0
41
1
10
20.1669929792134
20
-2.56286450210473
30
0
0
SPLINE
5
121
100
AcDbEntity
8
1
62
256
6
ByLayer
370
13
48
1
60
0
100
AcDbSpline
70
4
71
3
72
12
73
8
40
0
40
0
40
0
40
0
40
0.15096292452544
40
0.282137038430621
40
0.413311152335802
40
0.938007607956525
40
1
40
1
40
1
40
1
41
1
10
15.2056020619486
20
-2.49936568816346
30
0
41
1
10
15.2149529475153
20
-2.5010939586528
30
0
41
1
10
15.2320916827193
20
-2.5047673979648
30
0
41
1
10
15.2560888870334
20
-2.51125302347668
30
0
41
1
10
15.2992792033461
20
-2.52524478351742
30
0
41
1
10
15.3367311409688
20
-2.54305324793685
30
0
41
1
10
15.3632671051879
20
-2.56086407979342
30
0
41
1
10
15.3660229982883
20
-2.56278051736086
30
0
0
SPLINE
5
122
100
AcDbEntity
8
1
62
256
6
ByLayer
370
18
48
1
60
0
100
AcDbSpline
70
4
71
3
72
14
73
10
40
0
40
0
40
0
40
0
40
0.25
40
0.25
40
0.5
40
0.5
40
0.75
40
0.75
40
1
40
1
40
1
40
1
41
1
10
15.3660229982661
20
-2.5627805173454
30
0
41
1
10
15.3635100521168
20
-2.53140884720426
30
0
41
1
10
15.3618101255964
20
-2.49987527788437
30
0
41
1
10
15.3603535694782
20
-2.43658790034846
30
0
41
1
10
15.3606008173365
20
-2.40483454692529
30
0
41
1
10
15.363162745736
20
-2.3412584425212
30
0
41
1
10
15.3654770562872
20
-2.30949162074012
30
0
41
1
10
15.3719751727762
20
-2.24616670256771
30
0
41
1
10
15.3761566232525
20
-2.21460879747272
30
0
41
1
10
15.3810262121661
20
-2.18321539248876
30
0
0
SPLINE
5
123
100
AcDbEntity
8
1
62
256
6
ByLayer
370
18
48
1
60
0
100
AcDbSpline
70
4
71
3
72
8
73
4
40
0
40
0
40
0
40
0
40
1
40
1
40
1
40
1
41
1
10
15.3660229982817
20
-2.56278051734841
30
0
41
1
10
15.3688352009088
20
-2.59788811047207
30
0
41
1
10
15.3726606674674
20
-2.63276077106553
30
0
41
1
10
15.3772084589352
20
-2.66736007797135
30
0
0
SPLINE
5
124
100
AcDbEntity
8
1
62
256
6
ByLayer
370
18
48
1
60
0
100
AcDbSpline
70
4
71
3
72
14
73
10
40
0
40
0
40
0
40
0
40
0.25
40
0.25
40
0.5
40
0.5
40
0.75
40
0.75
40
1
40
1
40
1
40
1
41
1
10
20.1669929792044
20
-2.56286450209714
30
0
41
1
10
20.1643452638832
20
-2.5310116821247
30
0
41
1
10
20.1625203720701
20
-2.49899557461632
30
0
41
1
10
20.1608498360578
20
-2.43473656928535
30
0
41
1
10
20.1610082371104
20
-2.40249411300729
30
0
41
1
10
20.1634373932096
20
-2.33793036498929
30
0
41
1
10
20.1657079097938
20
-2.30566709529521
30
0
41
1
10
20.1721599447891
20
-2.24134157350051
30
0
41
1
10
20.1763388456618
20
-2.20927958490182
30
0
41
1
10
20.1812201626807
20
-2.17737756570858
30
0
0
SPLINE
5
125
100
AcDbEntity
8
1
62
256
6
ByLayer
370
18
48
1
60
0
100
AcDbSpline
70
4
71
3
72
8
73
4
40
0
40
0
40
0
40
0
40
1
40
1
40
1
40
1
41
1
10
20.1669929792053
20
-2.56286450209737
30
0
41
1
10
20.1698035097705
20
-2.59667603776012
30
0
41
1
10
20.1735363269232
20
-2.63027472534489
30
0
41
1
10
20.1779319434834
20
-2.66362951252347
30
0
0
SPLINE
5
126
100
AcDbEntity
8
1
62
256
6
ByLayer
370
18
48
1
60
0
100
AcDbSpline
70
4
71
3
72
14
73
10
40
0
40
0
40
0
40
0
40
0.25
40
0.25
40
0.5
40
0.5
40
0.75
40
0.75
40
1
40
1
40
1
40
1
41
1
10
18.3220403734453
20
2.4322732821521
30
0
41
1
10
18.3327470719499
20
2.39936357929381
30
0
41
1
10
18.3414844768588
20
2.36594742163842
30
0
41
1
10
18.3541795017093
20
2.29852485466807
30
0
41
1
10
18.3581377918726
20
2.2644917955578
30
0
41
1
10
18.3600552138032
20
2.19653171653925
30
0
41
1
10
18.3580161299573
20
2.16276086462395
30
0
41
1
10
18.3463193186275
20
2.09677228197287
30
0
41
1
10
18.3367039531592
20
2.06478536182155
30
0
41
1
10
18.3223117593222
20
2.03459716299952
30
0
0
SPLINE
5
127
100
AcDbEntity
8
1
62
256
6
ByLayer
370
13
48
1
60
0
100
AcDbSpline
70
4
71
3
72
12
73
8
40
0
40
0
40
0
40
0
40
0.165705527757462
40
0.296059777500733
40
0.426414027244004
40
0.947831026217087
40
1
40
1
40
1
40
1
41
1
10
24.8026724463374
20
-2.27462620779912
30
0
41
1
10
24.8130424479674
20
-2.27614619807835
30
0
41
1
10
24.8311850824183
20
-2.27928998215452
30
0
41
1
10
24.8560992496814
20
-2.28481054006201
30
0
41
1
10
24.8992905700719
20
-2.29628221732722
30
0
41
1
10
24.9362483852994
20
-2.31069007688933
30
0
41
1
10
24.9624209740928
20
-2.32501417780296
30
0
41
1
10
24.9647672739898
20
-2.32633741968061
30
0
0
SPLINE
5
128
100
AcDbEntity
8
1
62
256
6
ByLayer
370
13
48
1
60
0
100
AcDbSpline
70
4
71
3
72
12
73
8
40
0
40
0
40
0
40
0
40
0.146616952687779
40
0.277983094554701
40
0.409349236421623
40
0.934813803889309
40
1
40
1
40
1
40
1
41
1
10
23.6064585033394
20
1.69484513455464
30
0
41
1
10
23.6155164320961
20
1.69707459556102
30
0
41
1
10
23.6323663596501
20
1.70185827315899
30
0
41
1
10
23.6560992496814
20
1.71032006945225
30
0
41
1
10
23.6992905700719
20
1.72877881850567
30
0
41
1
10
23.7369054451917
20
1.75237426208932
30
0
41
1
10
23.763561219965
20
1.77601837021922
30
0
41
1
10
23.7664499558073
20
1.77867779341455
30
0
0
SPLINE
5
129
100
AcDbEntity
8
1
62
256
6
ByLayer
370
13
48
1
60
0
100
AcDbSpline
70
4
71
3
72
12
73
8
40
0
40
0
40
0
40
0
40
0.169269443343868
40
0.299167970811295
40
0.429066498278722
40
0.948660608148431
40
1
40
1
40
1
40
1
41
1
10
18.8018811325998
20
1.66941602661637
30
0
41
1
10
18.8125223176094
20
1.67188643110831
30
0
41
1
10
18.8309316305341
20
1.67696546946917
30
0
41
1
10
18.8560884790145
20
1.685873878568
30
0
41
1
10
18.8992792949894
20
1.70420653059651
30
0
41
1
10
18.9362023793237
20
1.72720979112114
30
0
41
1
10
18.9623491618818
20
1.75006960920442
30
0
41
1
10
18.9646670341602
20
1.75215706554334
30
0
0
SPLINE
5
12A
100
AcDbEntity
8
1
62
256
6
ByLayer
370
13
48
1
60
0
100
AcDbSpline
70
4
71
3
72
18
73
14
40
0
40
0
40
0
40
0
40
0.0309280375202917
40
0.182168791299853
40
0.295599356634524
40
0.409029921969195
40
0.484650298858975
40
0.560270675748756
40
0.635891052638537
40
0.711511429528317
40
0.824941994862988
40
0.938372560197659
40
1
40
1
40
1
40
1
41
1
10
23.7059002045147
20
-1.81008695733607
30
0
41
1
10
23.6164334696765
20
-1.79305756415565
30
0
41
1
10
23.0894667348382
20
-1.68433228055389
30
0
41
1
10
22.234375
20
-1.43036697524397
30
0
41
1
10
21.140625
20
-0.989106694293411
30
0
41
1
10
20.265625
20
-0.585435519558644
30
0
41
1
10
19.5
20
-0.215870059074177
30
0
41
1
10
18.84375
20
0.106894415052238
30
0
41
1
10
18.1875
20
0.42416703674894
30
0
41
0.999999999999999
10
17.421875
20
0.77480610962428
30
0
41
1
10
16.5468750000001
20
1.13502575866192
30
0
41
1
10
15.7123529123534
20
1.41433997182872
30
0
41
1
10
15.2059558247068
20
1.54310976879467
30
0
41
1
10
15.0276837370602
20
1.58312156272524
30
0
0
SPLINE
5
12B
100
AcDbEntity
8
1
62
256
6
ByLayer
370
13
48
1
60
0
100
AcDbSpline
70
4
71
3
72
11
73
7
40
0
40
0
40
0
40
0
40
0.185877836834732
40
0.591137194026511
40
0.996396551218289
40
1
40
1
40
1
40
1
41
1
10
25.4605036326955
20
1.48463473277278
30
0
41
1
10
25.6611690884637
20
1.44297968411846
30
0
41
1
10
26.2993345442319
20
1.29554114164648
30
0
41
1
10
27.375
20
0.972563934065903
30
0
41
1
10
28.253890123236
20
0.65202638652849
30
0
41
1
10
28.695280246472
20
0.482959648255076
30
0
41
1
10
28.6991703697079
20
0.481468982889908
30
0
0
SPLINE
5
12C
100
AcDbEntity
8
1
62
256
6
ByLayer
370
18
48
1
60
0
100
AcDbSpline
70
4
71
3
72
22
73
18
40
0
40
0
40
0
40
0
40
0.125
40
0.125
40
0.25
40
0.25
40
0.375
40
0.375
40
0.5
40
0.5
40
0.625
40
0.625
40
0.75
40
0.75
40
0.875
40
0.875
40
1
40
1
40
1
40
1
41
1
10
28.6991703697082
20
0.481468982889737
30
0
41
1
10
28.7042582018662
20
0.500700788513001
30
0
41
1
10
28.7108030860164
20
0.519491846884648
30
0
41
1
10
28.7266119518845
20
0.556287621736459
30
0
41
1
10
28.7358815097522
20
0.574301171524553
30
0
41
1
10
28.757221329947
20
0.609482668822778
30
0
41
1
10
28.7689927380787
20
0.626160940232154
30
0
41
1
10
28.7946941740824
20
0.657731464722872
30
0
41
1
10
28.80863892908
20
0.672638770056153
30
0
41
1
10
28.8388390801907
20
0.700436010884061
30
0
41
1
10
28.8546824096628
20
0.712948985537736
30
0
41
1
10
28.8879578092975
20
0.735166192732095
30
0
41
1
10
28.9054180233285
20
0.74488504974417
30
0
41
1
10
28.9421027075528
20
0.761120555110892
30
0
41
1
10
28.9607788439139
20
0.767395870061108
30
0
41
1
10
28.9989336302387
20
0.776243019560184
30
0
41
1
10
29.0184117680664
20
0.77881483674679
30
0
41
1
10
29.0383887082595
20
0.779379037620402
30
0
0
SPLINE
5
12D
100
AcDbEntity
8
1
62
256
6
ByLayer
370
18
48
1
60
0
100
AcDbSpline
70
4
71
3
72
8
73
4
40
0
40
0
40
0
40
0
40
1
40
1
40
1
40
1
41
1
10
9.00000000000006
20
-2.21523199366757
30
0
41
1
10
8.91696537928942
20
-2.18461516419222
30
0
41
1
10
8.83428839914262
20
-2.15280566090854
30
0
41
1
10
8.75198983413597
20
-2.11973420394273
30
0
0
SPLINE
5
12E
100
AcDbEntity
8
1
62
256
6
ByLayer
370
18
48
1
60
0
100
AcDbSpline
70
4
71
3
72
12
73
8
40
0
40
0
40
0
40
0
40
0.500000000000031
40
0.500000000000031
40
0.750000000000015
40
0.750000000000015
40
1
40
1
40
1
40
1
41
1
10
8.75198983413347
20
-2.11973420394708
30
0
41
1
10
8.71593139250123
20
-2.09524314859559
30
0
41
1
10
8.67902327766654
20
-2.07222949746367
30
0
41
1
10
8.62221045943667
20
-2.04023139111089
30
0
41
1
10
8.60300625013261
20
-2.02997687232821
30
0
41
1
10
8.56428548007409
20
-2.01049626486315
30
0
41
1
10
8.54475036327656
20
-2.00125826676245
30
0
41
1
10
8.52502631651848
20
-1.99256339017981
30
0
0
SPLINE
5
12F
100
AcDbEntity
8
1
62
256
6
ByLayer
370
13
48
1
60
0
100
AcDbSpline
70
4
71
3
72
14
73
10
40
0
40
0
40
0
40
0
40
0.0212792477770014
40
0.162582165579937
40
0.303885083382873
40
0.492288973786786
40
0.6806928641907
40
0.869096754594614
40
1
40
1
40
1
40
1
41
1
10
17.6794901061222
20
-1.47043623071423
30
0
41
1
10
17.6300767374148
20
-1.45846720622308
30
0
41
0.999999999999999
10
17.2525383687074
20
-1.36473937162225
30
0
41
1
10
16.546875
20
-1.15777906272612
30
0
41
1
10
15.453125
20
-0.763564542639046
30
0
41
1
10
14.25
20
-0.271058743002783
30
0
41
1
10
12.9375
20
0.299021865971639
30
0
41
1
10
11.7585244836661
20
0.783923753916383
30
0
41
1
10
11.017048967332
20
1.05326980985032
30
0
41
1
10
10.7130734509981
20
1.15490195114782
30
0
0
SPLINE
5
130
100
AcDbEntity
8
1
62
256
6
ByLayer
370
18
48
1
60
0
100
AcDbSpline
70
4
71
3
72
21
73
17
40
0
40
0
40
0
40
0
40
0.0220662393698472
40
0.129357663781577
40
0.236649088193307
40
0.317117656502105
40
0.397586224810903
40
0.451231937016768
40
0.504877649222633
40
0.558523361428498
40
0.612169073634363
40
0.692637641943161
40
0.773106210251958
40
0.880397634663689
40
0.987689059075419
40
1
40
1
40
1
40
1
41
1
10
25.0199371299404
20
-2.50207537492579
30
0
41
1
10
24.9299580866269
20
-2.51340068878952
30
0
41
1
10
24.4024790433135
20
-2.56972971928502
30
0
41
1
10
23.4375
20
-2.5628438931038
30
0
41
1
10
22.234375
20
-2.3273073604922
30
0
41
1
10
21.140625
20
-1.95036453356977
30
0
41
1
10
20.265625
20
-1.55584292857418
30
0
41
1
10
19.5
20
-1.15536878906997
30
0
41
1
10
18.84375
20
-0.785477169102279
30
0
41
1
10
18.1875
20
-0.396212549625716
30
0
41
0.999999999999999
10
17.421875
20
0.0696148292486214
30
0
41
1
10
16.546875
20
0.601567935856991
30
0
41
1
10
15.453125
20
1.229933626719
30
0
41
1
10
14.25
20
1.83051311176288
30
0
41
1
10
13.324799933368
20
2.16753624162129
30
0
41
1
10
12.8370998667361
20
2.29902372327132
30
0
41
1
10
12.7868998001041
20
2.31206261834865
30
0
0
SPLINE
5
131
100
AcDbEntity
8
1
62
256
6
ByLayer
370
18
48
1
60
0
100
AcDbSpline
70
4
71
3
72
18
73
14
40
0
40
0
40
0
40
0
40
0.0435735784956134
40
0.103350229839638
40
0.163126881183662
40
0.222903532527686
40
0.312568509543722
40
0.402233486559758
40
0.521786789247807
40
0.641340091935855
40
0.760893394623903
40
0.880446697311952
40
1
40
1
40
1
40
1
41
1
10
19.9783667242111
20
-2.50379419310383
30
0
41
1
10
19.8189111494741
20
-2.53472356906752
30
0
41
1
10
19.440705574737
20
-2.59426828845835
30
0
41
1
10
18.84375
20
-2.63538157796975
30
0
41
1
10
18.1875
20
-2.61129881611768
30
0
41
0.999999999999999
10
17.421875
20
-2.50378499326323
30
0
41
1
10
16.546875
20
-2.27116603724059
30
0
41
1
10
15.453125
20
-1.83181548635238
30
0
41
1
10
14.25
20
-1.1916814397735
30
0
41
1
10
12.9375
20
-0.369448397012235
30
0
41
1
10
11.625
20
0.491121781754202
30
0
41
1
10
10.3125
20
1.30079974691054
30
0
41
1
10
9.4375
20
1.7504419354535
30
0
41
1
10
9
20
1.94144603790033
30
0
0
SPLINE
5
132
100
AcDbEntity
8
1
62
256
6
ByLayer
370
18
48
1
60
0
100
AcDbSpline
70
4
71
3
72
14
73
10
40
0
40
0
40
0
40
0
40
0.118634968902121
40
0.118634968902121
40
0.265529140751767
40
0.265529140751767
40
0.412423312601413
40
0.412423312601413
40
1
40
1
40
1
40
1
41
1
10
29.544580454957
20
-2.17785998593143
30
0
41
1
10
29.5492134898096
20
-2.19624681699551
30
0
41
1
10
29.553996053603
20
-2.21427085843095
30
0
41
1
10
29.5650378141776
20
-2.25379368687655
30
0
41
1
10
29.5713775211628
20
-2.27509713867744
30
0
41
1
10
29.5845258649736
20
-2.3165663168198
30
0
41
1
10
29.5913413121095
20
-2.33674951632838
30
0
41
1
10
29.6264790148145
20
-2.43442480043262
30
0
41
1
10
29.6580222615349
20
-2.50242791926078
30
0
41
1
10
29.6930542191219
20
-2.56012967760347
30
0
0
SPLINE
5
133
100
AcDbEntity
8
1
62
256
6
ByLayer
370
18
48
1
60
0
100
AcDbSpline
70
4
71
3
72
10
73
6
40
0
40
0
40
0
40
0
40
0.640115284576728
40
0.640115284576728
40
1
40
1
40
1
40
1
41
1
10
28.5396336758753
20
-1.82047419298198
30
0
41
1
10
28.7045858808813
20
-1.88422451842686
30
0
41
1
10
28.8691449221951
20
-1.93804675093523
30
0
41
1
10
29.1256948252376
20
-2.00881379018787
30
0
41
1
10
29.2179162715146
20
-2.03158127300068
30
0
41
1
10
29.3100339080559
20
-2.05172737259591
30
0
0
SPLINE
5
134
100
AcDbEntity
8
1
62
256
6
ByLayer
370
18
48
1
60
0
100
AcDbSpline
70
4
71
3
72
27
73
23
40
0
40
0
40
0
40
0
40
0.15930228465249
40
0.15930228465249
40
0.238953426978774
40
0.238953426978774
40
0.318604569305058
40
0.318604569305058
40
0.477906853957688
40
0.477906853957688
40
0.557557996283983
40
0.557557996283983
40
0.637209138610277
40
0.637209138610277
40
0.716860280936572
40
0.716860280936572
40
0.796511423262867
40
0.876162565589161
40
0.876162565589161
40
0.955813707915456
40
0.955813707915456
40
1
40
1
40
1
40
1
41
1
10
28.5396336758753
20
-1.82047419298115
30
0
41
1
10
28.5227920561933
20
-1.81396528492678
30
0
41
1
10
28.5070344543867
20
-1.80603951705513
30
0
41
1
10
28.4852455740736
20
-1.7916754659596
30
0
41
1
10
28.4782922540729
20
-1.78647265204063
30
0
41
1
10
28.4650700545292
20
-1.77514203363467
30
0
41
1
10
28.4589097965813
20
-1.76910367026662
30
0
41
1
10
28.4418920788801
20
-1.74994017734042
30
0
41
1
10
28.4324434703545
20
-1.73573671275466
30
0
41
1
10
28.4213346508724
20
-1.71211610523946
30
0
41
1
10
28.4181972120516
20
-1.70395219062098
30
0
41
1
10
28.4130839272939
20
-1.68729310044915
30
0
41
1
10
28.4110917064718
20
-1.67876353496374
30
0
41
1
10
28.4081878492138
20
-1.66132469183364
30
0
41
1
10
28.4072755524502
20
-1.65239481517869
30
0
41
1
10
28.4065098291117
20
-1.63425638214966
30
0
41
1
10
28.406805462073
20
-1.61605856455967
30
0
41
1
10
28.4090210046279
20
-1.59776262067399
30
0
41
1
10
28.4121258703153
20
-1.57942644805374
30
0
41
1
10
28.4141329207919
20
-1.57020320590462
30
0
41
1
10
28.4178704109903
20
-1.55597577489857
30
0
41
1
10
28.4193217901089
20
-1.55092946468031
30
0
41
1
10
28.4208854144931
20
-1.54591226342882
30
0
0
SPLINE
5
135
100
AcDbEntity
8
1
62
256
6
ByLayer
370
13
48
1
60
0
100
AcDbSpline
70
4
71
3
72
14
73
10
40
0
40
0
40
0
40
0
40
0.10223674150608
40
0.28059704207911
40
0.45895734265214
40
0.637317643225171
40
0.815677943798201
40
0.949448169227974
40
1
40
1
40
1
40
1
41
1
10
28.1273295419195
20
-1.37129595691832
30
0
41
1
10
27.8765530279463
20
-1.30472629324194
30
0
41
1
10
27.1882765139731
20
-1.10153987931091
30
0
41
1
10
26.0625
20
-0.688058555317923
30
0
41
1
10
24.75
20
-0.140557020085737
30
0
41
1
10
23.4375
20
0.426449371195133
30
0
41
1
10
22.234375
20
0.905725867444147
30
0
41
1
10
21.3447514089923
20
1.20779414745522
30
0
41
1
10
20.8926278179846
20
1.33863966276286
30
0
41
1
10
20.768629226977
20
1.37269750008946
30
0
0
SPLINE
5
136
100
AcDbEntity
8
1
62
256
6
ByLayer
370
18
48
1
60
0
100
AcDbSpline
70
4
71
3
72
12
73
8
40
0
40
0
40
0
40
0
40
0.499999999999999
40
0.499999999999999
40
0.749999999999999
40
0.749999999999999
40
1
40
1
40
1
40
1
41
1
10
24.964767273974
20
-2.32633741967038
30
0
41
1
10
24.9598286445799
20
-2.25507162998667
30
0
41
1
10
24.9581742747441
20
-2.18321030696717
30
0
41
1
10
24.9619571913997
20
-2.07518802027238
30
0
41
1
10
24.9642374180087
20
-2.03920889407647
30
0
41
1
10
24.9706558266783
20
-1.96745712253465
30
0
41
1
10
24.974791995738
20
-1.93168373179611
30
0
41
1
10
24.9796213260612
20
-1.89606386875846
30
0
0
SPLINE
5
137
100
AcDbEntity
8
1
62
256
6
ByLayer
370
18
48
1
60
0
100
AcDbSpline
70
4
71
3
72
8
73
4
40
0
40
0
40
0
40
0
40
1
40
1
40
1
40
1
41
1
10
24.9647672739704
20
-2.3263374196697
30
0
41
1
10
24.9676735880112
20
-2.36827633441467
30
0
41
1
10
24.9716806383553
20
-2.40997559974807
30
0
41
1
10
24.9764599661714
20
-2.45139623143669
30
0
0
SPLINE
5
138
100
AcDbEntity
8
1
62
256
6
ByLayer
370
18
48
1
60
0
100
AcDbSpline
70
4
71
3
72
8
73
4
40
0
40
0
40
0
40
0
40
1
40
1
40
1
40
1
41
1
10
29.7812931168864
20
-2.71064672808902
30
0
41
1
10
29.7838689636688
20
-2.70203802781592
30
0
41
1
10
29.7864007324895
20
-2.69338580490123
30
0
41
1
10
29.7888902437677
20
-2.68469190108365
30
0
0
SPLINE
5
139
100
AcDbEntity
8
1
62
256
6
ByLayer
370
18
48
1
60
0
100
AcDbSpline
70
4
71
3
72
8
73
4
40
0
40
0
40
0
40
0
40
1
40
1
40
1
40
1
41
1
10
29.6930542175214
20
-2.56012967901447
30
0
41
1
10
29.7040031790748
20
-2.55610151447542
30
0
41
1
10
29.7151217406721
20
-2.55078040626148
30
0
41
1
10
29.7263734247609
20
-2.54422450475317
30
0
0
SPLINE
5
13A
100
AcDbEntity
8
1
62
256
6
ByLayer
370
18
48
1
60
0
100
AcDbSpline
70
4
71
3
72
17
73
13
40
0
40
0
40
0
40
0
40
0.0954603687928916
40
0.220060049166158
40
0.344659729539424
40
0.46925940991269
40
0.593859090285956
40
0.718458770659222
40
0.811908530939171
40
0.905358291219121
40
0.967658131405754
40
1
40
1
40
1
40
1
41
1
10
29.6930542170359
20
-2.56012967874221
30
0
41
1
10
29.3578694780239
20
-2.61193114577347
30
0
41
1
10
28.585184739012
20
-2.66598846384045
30
0
41
1
10
27.375
20
-2.50777270501999
30
0
41
1
10
26.0625
20
-2.05503833008683
30
0
41
1
10
24.75
20
-1.37505400792887
30
0
41
1
10
23.4375
20
-0.538668338440999
30
0
41
1
10
22.234375
20
0.280726670284139
30
0
41
1
10
21.140625
20
0.998459998080903
30
0
41
1
10
20.2656250000001
20
1.51508518918823
30
0
41
1
10
19.605189776831
20
1.85069722643084
30
0
41
1
10
19.2728795536619
20
1.99893048399608
30
0
41
1
10
19.1593193304928
20
2.04696978303482
30
0
0
SPLINE
5
13B
100
AcDbEntity
8
1
62
256
6
ByLayer
370
18
48
1
60
0
100
AcDbSpline
70
4
71
3
72
16
73
12
40
0
40
0
40
0
40
0
40
0.125000000000001
40
0.125000000000001
40
0.250000000000002
40
0.500000000000004
40
0.500000000000004
40
0.625000000000005
40
0.625000000000005
40
0.750000000000006
40
1
40
1
40
1
40
1
41
1
10
29.5365967041108
20
-0.326130040526749
30
0
41
1
10
29.541551500974
20
-0.362090938601057
30
0
41
1
10
29.546777561276
20
-0.398433219384998
30
0
41
1
10
29.5577374796032
20
-0.471587786430035
30
0
41
1
10
29.5749418899238
20
-0.582053414671094
30
0
41
1
10
29.5944572042882
20
-0.694736985330024
30
0
41
1
10
29.6155525418076
20
-0.808937018944789
30
0
41
1
10
29.62284548875
20
-0.847241154466928
30
0
41
1
10
29.6379060461565
20
-0.924064697453616
30
0
41
1
10
29.661228550585
20
-1.03972914464722
30
0
41
1
10
29.6867483080695
20
-1.15668230852086
30
0
41
1
10
29.7047506393207
20
-1.23523123903709
30
0
0
SPLINE
5
13C
100
AcDbEntity
8
1
62
256
6
ByLayer
370
18
48
1
60
0
100
AcDbSpline
70
4
71
3
72
12
73
8
40
0
40
0
40
0
40
0
40
0.25000000000001
40
0.25000000000001
40
0.500000000000019
40
0.500000000000019
40
1
40
1
40
1
40
1
41
1
10
28.7999748642125
20
0.165830680519718
30
0
41
1
10
28.8608957677979
20
0.12613478448921
30
0
41
1
10
28.9220105768178
20
0.0860460716902764
30
0
41
1
10
29.0446084800279
20
0.0051225680312825
30
0
41
1
10
29.1061170215259
20
-0.0357292803424798
30
0
41
1
10
29.2910161744575
20
-0.159257454903866
30
0
41
1
10
29.4139566282158
20
-0.24235154806064
30
0
41
1
10
29.5365967041108
20
-0.326130040526749
30
0
0
SPLINE
5
13D
100
AcDbEntity
8
1
62
256
6
ByLayer
370
18
48
1
60
0
100
AcDbSpline
70
4
71
3
72
22
73
18
40
0
40
0
40
0
40
0
40
0.249999999999982
40
0.249999999999982
40
0.374999999999972
40
0.374999999999972
40
0.499999999999962
40
0.499999999999962
40
0.562499999999958
40
0.562499999999958
40
0.624999999999953
40
0.749999999999968
40
0.749999999999968
40
0.812499999999976
40
0.812499999999976
40
0.874999999999983
40
1
40
1
40
1
40
1
41
1
10
28.7999748642124
20
0.165830680519718
30
0
41
1
10
28.7754790964998
20
0.181792056518418
30
0
41
1
10
28.7533344283002
20
0.199375685979419
30
0
41
1
10
28.7244611438476
20
0.228644561623611
30
0
41
1
10
28.71576583474
20
0.23870603758121
30
0
41
1
10
28.7005107718661
20
0.259169182855516
30
0
41
1
10
28.6939090952003
20
0.269612378782199
30
0
41
1
10
28.6856237502741
20
0.285608589809812
30
0
41
1
10
28.6831328213594
20
0.291003649164566
30
0
41
1
10
28.6787924227113
20
0.301681682144192
30
0
41
1
10
28.6731980952069
20
0.317614456721657
30
0
41
1
10
28.6702285494766
20
0.33331040537837
30
0
41
1
10
28.6689209290981
20
0.348868564290285
30
0
41
1
10
28.6687661273673
20
0.354019054642123
30
0
41
1
10
28.6689891082626
20
0.364127132234813
30
0
41
1
10
28.6701182023902
20
0.379056991041438
30
0
41
1
10
28.6734700142587
20
0.393351575564026
30
0
41
1
10
28.6766034538906
20
0.402638528237276
30
0
0
SPLINE
5
13E
100
AcDbEntity
8
1
62
256
6
ByLayer
370
13
48
1
60
0
100
AcDbSpline
70
4
71
3
72
10
73
6
40
0
40
0
40
0
40
0
40
0.431998660980699
40
0.867613856095046
40
1
40
1
40
1
40
1
41
1
10
28.6766034539115
20
0.402638528229034
30
0
41
1
10
28.2427356359411
20
0.573057118504323
30
0
41
1
10
27.3713678179705
20
0.902637795264184
30
0
41
1
10
26.3670410522681
20
1.22512790150518
30
0
41
1
10
25.7965821045363
20
1.37489660064196
30
0
41
1
10
25.6636231568044
20
1.40787844374341
30
0
0
SPLINE
5
13F
100
AcDbEntity
8
1
62
256
6
ByLayer
370
18
48
1
60
0
100
AcDbSpline
70
4
71
3
72
8
73
4
40
0
40
0
40
0
40
0
40
1
40
1
40
1
40
1
41
1
10
29.7047506445867
20
-1.23523123967073
30
0
41
1
10
29.7134568420469
20
-1.25763478579609
30
0
41
1
10
29.7222645684803
20
-1.2796821876835
30
0
41
1
10
29.7311555854844
20
-1.30134309291043
30
0
0
SPLINE
5
140
100
AcDbEntity
8
1
62
256
6
ByLayer
370
18
48
1
60
0
100
AcDbSpline
70
4
71
3
72
12
73
8
40
0
40
0
40
0
40
0
40
0.181495018416234
40
0.415667601728615
40
0.649840185040996
40
0.884012768353377
40
1
40
1
40
1
40
1
41
1
10
29.7047506460909
20
-1.23523123775016
30
0
41
1
10
29.365667097394
20
-1.04434738294873
30
0
41
1
10
28.589083548697
20
-0.578438729954286
30
0
41
1
10
27.375
20
0.202511032768967
30
0
41
1
10
26.0625
20
1.02681745063117
30
0
41
1
10
24.9708033520508
20
1.62649620977515
30
0
41
1
10
24.3166067041015
20
1.92071600732544
30
0
41
1
10
24.0999100561524
20
2.00991093184439
30
0
0
SPLINE
5
141
100
AcDbEntity
8
1
62
256
6
ByLayer
370
18
48
1
60
0
100
AcDbSpline
70
4
71
3
72
8
73
4
40
0
40
0
40
0
40
0
40
1
40
1
40
1
40
1
41
1
10
8.52502631651851
20
1.42442571920856
30
0
41
1
10
8.61579578893009
20
1.40943484334011
30
0
41
1
10
8.70394923409296
20
1.39702905987019
30
0
41
1
10
8.78842582720856
20
1.38187358408121
30
0
0
SPLINE
5
142
100
AcDbEntity
8
1
62
256
6
ByLayer
370
18
48
1
60
0
100
AcDbSpline
70
4
71
3
72
8
73
4
40
0
40
0
40
0
40
0
40
1
40
1
40
1
40
1
41
1
10
23.9968524351108
20
-2.62516966460225
30
0
41
1
10
23.9572227089776
20
-2.62756406634617
30
0
41
1
10
23.9175929828445
20
-2.62961018559477
30
0
41
1
10
23.8779632567114
20
-2.63130671285506
30
0
0
SPLINE
5
143
100
AcDbEntity
8
1
62
256
6
ByLayer
370
13
48
1
60
0
100
AcDbSpline
70
4
71
3
72
19
73
15
40
0
40
0
40
0
40
0
40
0.0431902537723479
40
0.171889315982413
40
0.268413612639962
40
0.364937909297512
40
0.429287440402544
40
0.493636971507577
40
0.55798650261261
40
0.622336033717642
40
0.718860330375191
40
0.815384627032741
40
0.944083689242806
40
1
40
1
40
1
40
1
41
1
10
23.8779632567072
20
-2.63130671285526
30
0
41
1
10
23.7311421711381
20
-2.63759204455837
30
0
41
1
10
23.146821085569
20
-2.64350977229492
30
0
41
1
10
22.234375
20
-2.53242346562675
30
0
41
1
10
21.1406249999999
20
-2.22270411018471
30
0
41
1
10
20.265625
20
-1.86612527995999
30
0
41
1
10
19.5
20
-1.49110723522796
30
0
41
1
10
18.84375
20
-1.13260317434535
30
0
41
1
10
18.1874999999999
20
-0.746986782995947
30
0
41
0.999999999999999
10
17.421875
20
-0.275739316654182
30
0
41
1
10
16.546875
20
0.276728613981504
30
0
41
1
10
15.453125
20
0.950303348795672
30
0
41
1
10
14.4974179159803
20
1.48448298068016
30
0
41
1
10
13.8698358319605
20
1.78141800879445
30
0
41
1
10
13.6797537479408
20
1.86565725179173
30
0
0
SPLINE
5
144
100
AcDbEntity
8
1
62
256
6
ByLayer
370
13
48
1
60
0
100
AcDbSpline
70
4
71
3
72
8
73
4
40
0
40
0
40
0
40
0
40
1
40
1
40
1
40
1
41
1
10
11.2566221796319
20
2.58003983011869
30
0
41
1
10
11.2145088827913
20
2.58551170917849
30
0
41
1
10
11.1723955859506
20
2.59059644749402
30
0
41
1
10
11.13028228911
20
2.5952923726706
30
0
0
SPLINE
5
145
100
AcDbEntity
8
1
62
256
6
ByLayer
370
13
48
1
60
0
100
AcDbSpline
70
4
71
3
72
17
73
13
40
0
40
0
40
0
40
0
40
0.0479501850305947
40
0.111420172695222
40
0.174890160359849
40
0.270095141856789
40
0.36530012335373
40
0.492240098682984
40
0.619180074012238
40
0.746120049341492
40
0.873060024670746
40
1
40
1
40
1
40
1
41
1
10
19.3395324963288
20
-2.59773816918508
30
0
41
1
10
19.1742716642192
20
-2.61597402906378
30
0
41
1
10
18.7902608321096
20
-2.64336898498505
30
0
41
1
10
18.1874999999999
20
-2.63048349219423
30
0
41
0.999999999999999
10
17.4218749999999
20
-2.53397065397371
30
0
41
1
10
16.546875
20
-2.31258218993216
30
0
41
1
10
15.453125
20
-1.88485248918482
30
0
41
1
10
14.25
20
-1.25286630113206
30
0
41
1
10
12.9375
20
-0.433434476136796
30
0
41
1
10
11.625
20
0.431049529095958
30
0
41
1
10
10.3125
20
1.25093361665472
30
0
41
1
10
9.43749999999994
20
1.71151911066917
30
0
41
1
10
8.99999999999997
20
1.90768294419692
30
0
0
SPLINE
5
146
100
AcDbEntity
8
1
62
256
6
ByLayer
370
18
48
1
60
0
100
AcDbSpline
70
4
71
3
72
16
73
12
40
0
40
0
40
0
40
0
40
0.250000000000016
40
0.250000000000016
40
0.500000000000032
40
0.500000000000032
40
0.750000000000048
40
0.750000000000048
40
0.875000000000024
40
0.875000000000024
40
1
40
1
40
1
40
1
41
1
10
29.7263734276413
20
-2.54422450436798
30
0
41
1
10
29.731181457016
20
-2.54142216023558
30
0
41
1
10
29.7358677110379
20
-2.53953353129714
30
0
41
1
10
29.7449702241544
20
-2.53778221240208
30
0
41
1
10
29.7493470424485
20
-2.53793628193117
30
0
41
1
10
29.757550505363
20
-2.5405932071956
30
0
41
1
10
29.7614019354102
20
-2.54307816176632
30
0
41
1
10
29.7666842553307
20
-2.54909188238966
30
0
41
1
10
29.7683589722986
20
-2.55148866292245
30
0
41
1
10
29.7714253816263
20
-2.55706483047001
30
0
41
1
10
29.7728282934576
20
-2.56025379824206
30
0
41
1
10
29.77407749267
20
-2.56391570790112
30
0
0
SPLINE
5
147
100
AcDbEntity
8
1
62
256
6
ByLayer
370
18
48
1
60
0
100
AcDbSpline
70
4
71
3
72
17
73
13
40
0
40
0
40
0
40
0
40
0.0352777420173282
40
0.171717532443345
40
0.308157322869362
40
0.44459711329538
40
0.581036903721397
40
0.717476694147414
40
0.819806536966927
40
0.92213637978644
40
0.990356274999448
40
1
40
1
40
1
40
1
41
1
10
29.0268587475704
20
-2.62728859792486
30
0
41
1
10
28.9137391650469
20
-2.63398794706023
30
0
41
1
10
28.3631195825235
20
-2.65057208190496
30
0
41
1
10
27.3749999999999
20
-2.53874770930926
30
0
41
1
10
26.0625
20
-2.10467247694731
30
0
41
1
10
24.75
20
-1.44009077185186
30
0
41
1
10
23.4375
20
-0.607948457553249
30
0
41
1
10
22.234375
20
0.210243481974374
30
0
41
1
10
21.140625
20
0.934939295098103
30
0
41
1
10
20.265625
20
1.46260241457227
30
0
41
1
10
19.6878269849868
20
1.7624466603213
30
0
41
1
10
19.4381539699736
20
1.88093352348213
30
0
41
1
10
19.4072309549604
20
1.89543389509416
30
0
0
SPLINE
5
148
100
AcDbEntity
8
1
62
256
6
ByLayer
370
18
48
1
60
0
100
AcDbSpline
70
4
71
3
72
18
73
14
40
0
40
0
40
0
40
0
40
0.499999999999918
40
0.499999999999918
40
0.624999999999911
40
0.624999999999911
40
0.687499999999907
40
0.687499999999907
40
0.749999999999904
40
0.749999999999904
40
0.874999999999952
40
0.874999999999952
40
1
40
1
40
1
40
1
41
1
10
8.73373735024163
20
2.04555297495139
30
0
41
1
10
8.77717937326608
20
2.01944543582371
30
0
41
1
10
8.82060507781827
20
1.99333832536314
30
0
41
1
10
8.87489964073529
20
1.96070396375575
30
0
41
1
10
8.88575185621494
20
1.95417644426297
30
0
41
1
10
8.90201028077988
20
1.94438324212723
30
0
41
1
10
8.90742612719038
20
1.9411184907824
30
0
41
1
10
8.9183876275381
20
1.93460153197847
30
0
41
1
10
8.92394427693733
20
1.93135038706038
30
0
41
1
10
8.94084729579868
20
1.92161947497368
30
0
41
1
10
8.95241756811637
20
1.91516134454608
30
0
41
1
10
8.97613596959332
20
1.90230092459922
30
0
41
1
10
8.98807815909936
20
1.89601426138722
30
0
41
1
10
9.00000000001111
20
1.8899034673407
30
0
0
SPLINE
5
149
100
AcDbEntity
8
1
62
256
6
ByLayer
370
18
48
1
60
0
100
AcDbSpline
70
4
71
3
72
12
73
8
40
0
40
0
40
0
40
0
40
0.5
40
0.5
40
0.75
40
0.75
40
1
40
1
40
1
40
1
41
1
10
9.00000000002643
20
1.30854467289888
30
0
41
1
10
8.97256795674497
20
1.31801898561881
30
0
41
1
10
8.94667115983953
20
1.32807555839761
30
0
41
1
10
8.91011126130508
20
1.34402714298983
30
0
41
1
10
8.89836930325924
20
1.34951298594842
30
0
41
1
10
8.87467550753314
20
1.36040507256979
30
0
41
1
10
8.86281079425748
20
1.36584443377728
30
0
41
1
10
8.85094967974618
20
1.37128509198359
30
0
0
SPLINE
5
14A
100
AcDbEntity
8
1
62
256
6
ByLayer
370
18
48
1
60
0
100
AcDbSpline
70
4
71
3
72
16
73
12
40
0
40
0
40
0
40
0
40
0.250000000000015
40
0.250000000000015
40
0.50000000000003
40
0.50000000000003
40
0.750000000000045
40
0.750000000000045
40
0.875000000000022
40
0.875000000000022
40
1
40
1
40
1
40
1
41
1
10
29.7311555885896
20
-1.30134309161988
30
0
41
1
10
29.7359106874835
20
-1.31292747795305
30
0
41
1
10
29.7405438184666
20
-1.32489902716472
30
0
41
1
10
29.7495406317583
20
-1.3496974733805
30
0
41
1
10
29.7538565433395
20
-1.36239903436945
30
0
41
1
10
29.7619472618827
20
-1.38811253347217
30
0
41
1
10
29.7657437655981
20
-1.40117433023249
30
0
41
1
10
29.7709496403292
20
-1.42116984399635
30
0
41
1
10
29.7725936746727
20
-1.42787568890063
30
0
41
1
10
29.77560683319
20
-1.44110412719587
30
0
41
1
10
29.7769858478557
20
-1.44766290368997
30
0
41
1
10
29.7782154252838
20
-1.45415672972254
30
0
0
SPLINE
5
14B
100
AcDbEntity
8
1
62
256
6
ByLayer
370
13
48
1
60
0
100
AcDbSpline
70
4
71
3
72
12
73
8
40
0
40
0
40
0
40
0
40
0.199709406281314
40
0.450863712610915
40
0.702018018940515
40
0.953172325270116
40
1
40
1
40
1
40
1
41
1
10
29.7311555899632
20
-1.30134308988869
30
0
41
1
10
29.3832703933088
20
-1.10806767593891
30
0
41
1
10
28.5978851966544
20
-0.640236854716193
30
0
41
1
10
27.375
20
0.146290366117341
30
0
41
1
10
26.0625
20
0.976454423797861
30
0
41
1
10
25.1059282045818
20
1.50949237504994
30
0
41
1
10
24.5868564091635
20
1.75877021568366
30
0
41
1
10
24.5052846137453
20
1.79689505354003
30
0
0
SPLINE
5
14C
100
AcDbEntity
8
1
62
256
6
ByLayer
370
18
48
1
60
0
100
AcDbSpline
70
4
71
3
72
39
73
35
40
0
40
0
40
0
40
0
40
0.0625000000000044
40
0.0625000000000044
40
0.125000000000009
40
0.125000000000009
40
0.156250000000013
40
0.156250000000013
40
0.187500000000017
40
0.187500000000017
40
0.250000000000024
40
0.250000000000024
40
0.281250000000031
40
0.281250000000031
40
0.312500000000038
40
0.37500000000004
40
0.37500000000004
40
0.406250000000033
40
0.406250000000033
40
0.437500000000026
40
0.437500000000026
40
0.500000000000032
40
0.500000000000032
40
0.562500000000037
40
0.562500000000037
40
0.625000000000043
40
0.625000000000043
40
0.750000000000029
40
0.750000000000029
40
0.812500000000022
40
0.812500000000022
40
0.875000000000014
40
0.875000000000014
40
1
40
1
40
1
40
1
41
1
10
29.8014494163616
20
1.10730679352724
30
0
41
1
10
29.8122250754543
20
1.0949558962526
30
0
41
1
10
29.8215323473657
20
1.08256334294364
30
0
41
1
10
29.8367182445996
20
1.05768100842511
30
0
41
1
10
29.8426008590568
20
1.04519133162046
30
0
41
1
10
29.8483046875685
20
1.02636832241913
30
0
41
1
10
29.8496807274257
20
1.02006396019436
30
0
41
1
10
29.8512520602687
20
1.00764101838266
30
0
41
1
10
29.8514574359376
20
1.00149803115767
30
0
41
1
10
29.8502593393306
20
0.983283177169852
30
0
41
1
10
29.8470461713276
20
0.971424883730521
30
0
41
1
10
29.83823533537
20
0.954108455936279
30
0
41
1
10
29.8346246181222
20
0.948405272413368
30
0
41
1
10
29.8260259728726
20
0.937205443090988
30
0
41
1
10
29.8112549352103
20
0.920958237524445
30
0
41
1
10
29.7911427884318
20
0.906286610186299
30
0
41
1
10
29.7677746759247
20
0.892575462890818
30
0
41
1
10
29.7594112389106
20
0.888150905126253
30
0
41
1
10
29.7417857128968
20
0.879677381164441
30
0
41
1
10
29.7325746888711
20
0.875649270732509
30
0
41
1
10
29.7038772004401
20
0.864122594117049
30
0
41
1
10
29.6833316385646
20
0.857178896015768
30
0
41
1
10
29.63994087996
20
0.844496293533268
30
0
41
1
10
29.6170620477885
20
0.838751734540296
30
0
41
1
10
29.5695115641107
20
0.82829858457626
30
0
41
1
10
29.5451288793865
20
0.823649714487857
30
0
41
1
10
29.4705456940454
20
0.811067977067552
30
0
41
1
10
29.4189299639661
20
0.804481055183174
30
0
41
1
10
29.339579717284
20
0.796433002709364
30
0
41
1
10
29.3128021176437
20
0.794061802012237
30
0
41
1
10
29.2586882783954
20
0.789850691791173
30
0
41
1
10
29.2313049395388
20
0.788008899645575
30
0
41
1
10
29.1490135744987
20
0.7832059838872
30
0
41
1
10
29.0938230441591
20
0.780944647790875
30
0
41
1
10
29.0383887082595
20
0.779379037620373
30
0
0
SPLINE
5
14D
100
AcDbEntity
8
1
62
256
6
ByLayer
370
13
48
1
60
0
100
AcDbSpline
70
4
71
3
72
12
73
8
40
0
40
0
40
0
40
0
40
0.15076748900927
40
0.282029753863442
40
0.413292018717614
40
0.938341078134301
40
1
40
1
40
1
40
1
41
1
10
9.20533122385535
20
1.1831324427977
30
0
41
1
10
9.2146635518526
20
1.18505633576882
30
0
41
1
10
9.23178459119049
20
1.18914890946579
30
0
41
1
10
9.25576655209261
20
1.19637749824668
30
0
41
1
10
9.29896114875413
20
1.21198618549033
30
0
41
1
10
9.33639897466099
20
1.23184817721051
30
0
41
1
10
9.3629260299837
20
1.25171184670805
30
0
41
1
10
9.36566641778481
20
1.25383742134119
30
0
0
SPLINE
5
14E
100
AcDbEntity
8
1
62
256
6
ByLayer
370
18
48
1
60
0
100
AcDbSpline
70
4
71
3
72
32
73
28
40
0
40
0
40
0
40
0
40
0.192330735157456
40
0.192330735157456
40
0.240413418946818
40
0.240413418946818
40
0.28849610273618
40
0.28849610273618
40
0.384661470314905
40
0.384661470314905
40
0.432744154104265
40
0.432744154104265
40
0.480826837893624
40
0.480826837893624
40
0.576992205472326
40
0.576992205472326
40
0.625074889261666
40
0.625074889261666
40
0.673157573051006
40
0.673157573051006
40
0.769322940629686
40
0.769322940629686
40
0.865488308208366
40
0.865488308208366
40
0.961653675787045
40
0.961653675787045
40
1
40
1
40
1
40
1
41
1
10
29.8176382607676
20
2.78859526439609
30
0
41
1
10
29.8366265680082
20
2.73699080017531
30
0
41
1
10
29.8506393549418
20
2.68425779423626
30
0
41
1
10
29.8598116503769
20
2.61644902810926
30
0
41
1
10
29.8612225010115
20
2.60279119241923
30
0
41
1
10
29.8631125432927
20
2.57526420303739
30
0
41
1
10
29.8635831237797
20
2.56148294662725
30
0
41
1
10
29.8634976084506
20
2.52036301196316
30
0
41
1
10
29.8614558117819
20
2.4931346343273
30
0
41
1
10
29.8551446700984
20
2.45259470860731
30
0
41
1
10
29.8524987615708
20
2.43913191346323
30
0
41
1
10
29.8460671076592
20
2.41231251579481
30
0
41
1
10
29.84226455725
20
2.39892186908202
30
0
41
1
10
29.8293334096667
20
2.35966809343177
30
0
41
1
10
29.8186388489296
20
2.33448286023145
30
0
41
1
10
29.7996721790507
20
2.29809274932615
30
0
41
1
10
29.7928620911622
20
2.28619418870286
30
0
41
1
10
29.7782932064675
20
2.26284719988044
30
0
41
1
10
29.7705038597541
20
2.25135804638054
30
0
41
1
10
29.7459763339827
20
2.21785097727741
30
0
41
1
10
29.7282124410805
20
2.19693177673167
30
0
41
1
10
29.6903465607469
20
2.15744245770227
30
0
41
1
10
29.6702427215956
20
2.1388741996405
30
0
41
1
10
29.6280522297041
20
2.10372981504577
30
0
41
1
10
29.6058596900342
20
2.0870894380383
30
0
41
1
10
29.5741313915118
20
2.06534678389915
30
0
41
1
10
29.5650034035966
20
2.05931285345181
30
0
41
1
10
29.5557978019548
20
2.05343277119243
30
0
0
SPLINE
5
14F
100
AcDbEntity
8
1
62
256
6
ByLayer
370
13
48
1
60
0
100
AcDbSpline
70
4
71
3
72
10
73
6
40
0
40
0
40
0
40
0
40
0.360020883818025
40
0.720041767636049
40
1
40
1
40
1
40
1
41
1
10
9
20
0.174089273922192
30
0
41
1
10
9.43749999999997
20
-0.012411178450435
30
0
41
1
10
10.3125
20
-0.391583552714792
30
0
41
1
10
11.5277072828673
20
-0.882563574841697
30
0
41
1
10
12.3054145657347
20
-1.14487186265032
30
0
41
1
10
12.6456218486021
20
-1.24658206756436
30
0
0
SPLINE
5
150
100
AcDbEntity
8
1
62
256
6
ByLayer
370
13
48
1
60
0
100
AcDbSpline
70
4
71
3
72
17
73
13
40
0
40
0
40
0
40
0
40
0.0900109745418641
40
0.212940275847987
40
0.33586957715411
40
0.417822444691525
40
0.49977531222894
40
0.581728179766355
40
0.66368104730377
40
0.786610348609893
40
0.909539649916016
40
1
40
1
40
1
40
1
41
1
10
14.8417234876208
20
1.6561045751962
30
0
41
1
10
15.0819823250805
20
1.62336542389994
30
0
41
1
10
15.6503661625402
20
1.52374133427495
30
0
41
1
10
16.5468750000001
20
1.28814088846698
30
0
41
0.999999999999999
10
17.421875
20
0.988088141399659
30
0
41
1
10
18.1875
20
0.686150068695099
30
0
41
1
10
18.84375
20
0.407071639698444
30
0
41
1
10
19.5
20
0.116853919549186
30
0
41
1
10
20.265625
20
-0.223651635684291
30
0
41
1
10
21.140625
20
-0.6063190474799
30
0
41
1
10
22.0383333183662
20
-0.96487722006799
30
0
41
1
10
22.6079166367324
20
-1.1597044532127
30
0
41
1
10
22.8493749550986
20
-1.23525501419527
30
0
0
SPLINE
5
151
100
AcDbEntity
8
1
62
256
6
ByLayer
370
13
48
1
60
0
100
AcDbSpline
70
4
71
3
72
8
73
4
40
0
40
0
40
0
40
0
40
1
40
1
40
1
40
1
41
1
10
9.69969225569119
20
1.48401964126904
30
0
41
1
10
9.79838693534515
20
1.46272344755567
30
0
41
1
10
9.89708161499908
20
1.4402009598661
30
0
41
1
10
9.99577629465304
20
1.41649965457836
30
0
0
SPLINE
5
152
100
AcDbEntity
8
1
62
256
6
ByLayer
370
13
48
1
60
0
100
AcDbSpline
70
4
71
3
72
14
73
10
40
0
40
0
40
0
40
0
40
0.0148614891897916
40
0.199818479134696
40
0.3847754690796
40
0.569732459024504
40
0.754689448969407
40
0.893407191428085
40
1
40
1
40
1
40
1
41
1
10
10.2070392408937
20
1.36398211548419
30
0
41
1
10
10.2421928272625
20
1.3549494852775
30
0
41
1
10
10.7148464136312
20
1.23154924440411
30
0
41
1
10
11.625
20
0.944108055733892
30
0
41
1
10
12.9375
20
0.441166419184242
30
0
41
1
10
14.25
20
-0.107807708917306
30
0
41
1
10
15.453125
20
-0.597961242449145
30
0
41
1
10
16.4708862061748
20
-0.973585321416947
30
0
41
1
10
17.0511474123496
20
-1.15803883525248
30
0
41
0.999999999999999
10
17.3032836185244
20
-1.23158830256787
30
0
0
SPLINE
5
153
100
AcDbEntity
8
1
62
256
6
ByLayer
370
13
48
1
60
0
100
AcDbSpline
70
4
71
3
72
8
73
4
40
0
40
0
40
0
40
0
40
1
40
1
40
1
40
1
41
1
10
19.9522173822158
20
1.58208684831041
30
0
41
1
10
19.9829018555048
20
1.57671691357922
30
0
41
1
10
20.0135863287937
20
1.57121614604881
30
0
41
1
10
20.0442708020827
20
1.56558545671248
30
0
0
SPLINE
5
154
100
AcDbEntity
8
1
62
256
6
ByLayer
370
13
48
1
60
0
100
AcDbSpline
70
4
71
3
72
14
73
10
40
0
40
0
40
0
40
0
40
0.0731650899854896
40
0.208197899244126
40
0.388241644922309
40
0.568285390600492
40
0.748329136278674
40
0.928372881956857
40
1
40
1
40
1
40
1
41
1
10
20.6072591769095
20
1.44799495470932
30
0
41
1
10
20.7850477846063
20
1.40646617129761
30
0
41
1
10
21.2909613923031
20
1.27677079112649
30
0
41
1
10
22.234375
20
0.97870232409187
30
0
41
1
10
23.4375
20
0.519398585287803
30
0
41
1
10
24.75
20
-0.0372695370901965
30
0
41
1
10
26.0625
20
-0.586357034391597
30
0
41
1
10
27.1115513897099
20
-0.981223512050405
30
0
41
1
10
27.7231027794199
20
-1.17508158289067
30
0
41
1
10
27.8971541691299
20
-1.22698077433426
30
0
0
SPLINE
5
155
100
AcDbEntity
8
1
62
256
6
ByLayer
370
18
48
1
60
0
100
AcDbSpline
70
4
71
3
72
8
73
4
40
0
40
0
40
0
40
0
40
1
40
1
40
1
40
1
41
1
10
29.776768834473
20
1.19667350930277
30
0
41
1
10
29.8132297040294
20
1.19138386176434
30
0
41
1
10
29.8497261768643
20
1.18619893461687
30
0
41
1
10
29.8862570313094
20
1.18111513497007
30
0
0
SPLINE
5
156
100
AcDbEntity
8
1
62
256
6
ByLayer
370
18
48
1
60
0
100
AcDbSpline
70
4
71
3
72
8
73
4
40
0
40
0
40
0
40
0
40
1
40
1
40
1
40
1
41
1
10
29.8182797979216
20
1.47032325487493
30
0
41
1
10
29.83909708164
20
1.3747349551538
30
0
41
1
10
29.8616188281643
20
1.27836205506733
30
0
41
1
10
29.8862570312991
20
1.18111513497095
30
0
0
SPLINE
5
157
100
AcDbEntity
8
1
62
256
6
ByLayer
370
18
48
1
60
0
100
AcDbSpline
70
4
71
3
72
8
73
4
40
0
40
0
40
0
40
0
40
1
40
1
40
1
40
1
41
1
10
29.7835225526729
20
1.7701927467144
30
0
41
1
10
29.7960315153593
20
1.67087412123519
30
0
41
1
10
29.8075517125565
20
1.57087233298031
30
0
41
1
10
29.8182797979217
20
1.47032325487493
30
0
0
SPLINE
5
158
100
AcDbEntity
8
1
62
256
6
ByLayer
370
18
48
1
60
0
100
AcDbSpline
70
4
71
3
72
10
73
6
40
0
40
0
40
0
40
0
40
0.5
40
0.5
40
1
40
1
40
1
40
1
41
1
10
9.92804639964075
20
-2.56208098923122
30
0
41
1
10
9.77423525874065
20
-2.51364285648174
30
0
41
1
10
9.62013530320888
20
-2.46058062259928
30
0
41
1
10
9.31094349471192
20
-2.34501506790153
30
0
41
1
10
9.15585504077853
20
-2.28247333427203
30
0
41
1
10
9.00000000000006
20
-2.21523199366757
30
0
0
SPLINE
5
159
100
AcDbEntity
8
1
62
256
6
ByLayer
370
18
48
1
60
0
100
AcDbSpline
70
4
71
3
72
36
73
32
40
0
40
0
40
0
40
0
40
0.124999999999968
40
0.124999999999968
40
0.187499999999952
40
0.187499999999952
40
0.218749999999944
40
0.218749999999944
40
0.249999999999936
40
0.249999999999936
40
0.281249999999928
40
0.281249999999928
40
0.312499999999921
40
0.312499999999921
40
0.374999999999926
40
0.374999999999926
40
0.437499999999931
40
0.437499999999931
40
0.499999999999936
40
0.499999999999936
40
0.562499999999941
40
0.562499999999941
40
0.624999999999946
40
0.624999999999946
40
0.749999999999974
40
0.749999999999974
40
0.81249999999998
40
0.81249999999998
40
0.874999999999987
40
0.874999999999987
40
1
40
1
40
1
40
1
41
1
10
9.92804639964075
20
-2.56208098923122
30
0
41
1
10
9.95831283597803
20
-2.54805466883579
30
0
41
1
10
9.98861582561173
20
-2.53368772526667
30
0
41
1
10
10.034137091383
20
-2.51163043578154
30
0
41
1
10
10.0493260143883
20
-2.50420561445122
30
0
41
1
10
10.0721270141069
20
-2.4929404502171
30
0
41
1
10
10.0797284245873
20
-2.4891584823294
30
0
41
1
10
10.0949221964165
20
-2.48150569603851
30
0
41
1
10
10.1024889312377
20
-2.47755654546859
30
0
41
1
10
10.1178085236361
20
-2.47016344360864
30
0
41
1
10
10.1256197062652
20
-2.46689762534044
30
0
41
1
10
10.1415829607702
20
-2.46135852917288
30
0
41
1
10
10.1497524971716
20
-2.45905396945435
30
0
41
1
10
10.1741862918411
20
-2.45361615283048
30
0
41
1
10
10.19053965668
20
-2.45190547338589
30
0
41
1
10
10.2233150088139
20
-2.45177771807477
30
0
41
1
10
10.2398702971059
20
-2.45338063558077
30
0
41
1
10
10.2719921233884
20
-2.45934278489352
30
0
41
1
10
10.2876393630336
20
-2.46369628063792
30
0
41
1
10
10.3182085630074
20
-2.47468417169355
30
0
41
1
10
10.3331554819332
20
-2.48131372921756
30
0
41
1
10
10.3623131430498
20
-2.49648133775025
30
0
41
1
10
10.3763101634679
20
-2.5049064254753
30
0
41
1
10
10.4167599061053
20
-2.53235487548565
30
0
41
1
10
10.4417143572946
20
-2.55348319598232
30
0
41
1
10
10.4766593567984
20
-2.58852926872837
30
0
41
1
10
10.4879025454632
20
-2.6008366646212
30
0
41
1
10
10.509332109278
20
-2.62621779758456
30
0
41
1
10
10.5195472158467
20
-2.63931620516928
30
0
41
1
10
10.5487751115745
20
-2.67976501722706
30
0
41
1
10
10.5663564440699
20
-2.70828087445085
30
0
41
1
10
10.5820502775071
20
-2.73835509419024
30
0
0
SPLINE
5
15A
100
AcDbEntity
8
1
62
256
6
ByLayer
370
18
48
1
60
0
100
AcDbSpline
70
4
71
3
72
34
73
30
40
0
40
0
40
0
40
0
40
0.0162724911581666
40
0.0162724911581666
40
0.0572611373599077
40
0.0572611373599077
40
0.0982497835616487
40
0.0982497835616487
40
0.180227075965134
40
0.180227075965134
40
0.262204368368619
40
0.262204368368619
40
0.344181660772105
40
0.344181660772105
40
0.508136245579076
40
0.508136245579076
40
0.590113537982563
40
0.590113537982563
40
0.672090830386051
40
0.672090830386051
40
0.713079476587794
40
0.713079476587794
40
0.754068122789538
40
0.754068122789538
40
0.836045415193025
40
0.836045415193025
40
0.918022707596513
40
0.918022707596513
40
1
40
1
40
1
40
1
41
1
10
14.6602504694646
20
-2.41017237379097
30
0
41
1
10
14.6380399317396
20
-2.41842126809718
30
0
41
1
10
14.6158170073454
20
-2.42658280880909
30
0
41
1
10
14.5375714859225
20
-2.454991507426
30
0
41
1
10
14.4814806348897
20
-2.47476244316516
30
0
41
1
10
14.3691163979266
20
-2.51313697789325
30
0
41
1
10
14.3128359169691
20
-2.53174164031881
30
0
41
1
10
14.1444957764241
20
-2.58550489179908
30
0
41
1
10
14.0326701864809
20
-2.61870862988928
30
0
41
1
10
13.8096410285324
20
-2.6796916299102
30
0
41
1
10
13.6984408008871
20
-2.70745414460393
30
0
41
1
10
13.4763188457797
20
-2.75774932232596
30
0
41
1
10
13.3653989558044
20
-2.78028964731743
30
0
41
1
10
13.032843612117
20
-2.83971678121824
30
0
41
1
10
12.8113730026717
20
-2.86842402806471
30
0
41
1
10
12.4783892288977
20
-2.89439117262975
30
0
41
1
10
12.3672609664647
20
-2.90022760358556
30
0
41
1
10
12.1445056597999
20
-2.90643834452729
30
0
41
1
10
12.0328866721595
20
-2.90678627870332
30
0
41
1
10
11.8649704309493
20
-2.90300311888862
30
0
41
1
10
11.8089167929982
20
-2.90102426228182
30
0
41
1
10
11.6966223263288
20
-2.89559809697911
30
0
41
1
10
11.6403645985703
20
-2.89214524023416
30
0
41
1
10
11.4720871488333
20
-2.87963623166684
30
0
41
1
10
11.3602947259523
20
-2.86841976136017
30
0
41
1
10
11.1372715121056
20
-2.84042816025499
30
0
41
1
10
11.0260222042607
20
-2.82370527816556
30
0
41
1
10
10.8038254323338
20
-2.78503250905607
30
0
41
1
10
10.6928949888736
20
-2.76303238213919
30
0
41
1
10
10.5820502775067
20
-2.73835509419058
30
0
0
SPLINE
5
15B
100
AcDbEntity
8
1
62
256
6
ByLayer
370
18
48
1
60
0
100
AcDbSpline
70
4
71
3
72
28
73
24
40
0
40
0
40
0
40
0
40
0.22651983469765
40
0.22651983469765
40
0.283149793372058
40
0.283149793372058
40
0.339779752046467
40
0.339779752046467
40
0.453039669395285
40
0.453039669395285
40
0.566299586744102
40
0.566299586744102
40
0.679559504092919
40
0.679559504092919
40
0.792819421441736
40
0.792819421441736
40
0.849449380116145
40
0.849449380116145
40
0.87776435945335
40
0.87776435945335
40
0.906079338790554
40
0.906079338790554
40
1
40
1
40
1
40
1
41
1
10
29.7835225526738
20
1.77019274671375
30
0
41
1
10
29.481394443594
20
1.92962152101799
30
0
41
1
10
29.1808868940339
20
2.07632315657622
30
0
41
1
10
28.8033714303088
20
2.23987696532532
30
0
41
1
10
28.7277396476847
20
2.27160573844844
30
0
41
1
10
28.5768450612245
20
2.33273889036533
30
0
41
1
10
28.501505775088
20
2.36218645041859
30
0
41
1
10
28.2758022148868
20
2.4472381860495
30
0
41
1
10
28.1257600657126
20
2.49956097545134
30
0
41
1
10
27.8265665069623
20
2.59546076221363
30
0
41
1
10
27.677382055729
20
2.63898929451656
30
0
41
1
10
27.3790335994161
20
2.71655873578345
30
0
41
1
10
27.2298723159244
20
2.75058867791339
30
0
41
1
10
26.930664645004
20
2.80876235758322
30
0
41
1
10
26.7805892421879
20
2.83289382355844
30
0
41
1
10
26.5541869016962
20
2.86149337759349
30
0
41
1
10
26.4785337636606
20
2.86977189082344
30
0
41
1
10
26.3648600444177
20
2.88031266168758
30
0
41
1
10
26.3269081853641
20
2.88351546154809
30
0
41
1
10
26.2511421841859
20
2.88928065151799
30
0
41
1
10
26.2133214059141
20
2.8918444979297
30
0
41
1
10
26.0503239309923
20
2.90154123499457
30
0
41
1
10
25.9257650471562
20
2.90549350561093
30
0
41
1
10
25.8016931663722
20
2.90591312256629
30
0
0
SPLINE
5
15C
100
AcDbEntity
8
1
62
256
6
ByLayer
370
18
48
1
60
0
100
AcDbSpline
70
4
71
3
72
8
73
4
40
0
40
0
40
0
40
0
40
1
40
1
40
1
40
1
41
1
10
29.7859716555931
20
1.76499966952244
30
0
41
1
10
29.7960161463865
20
1.75851105476787
30
0
41
1
10
29.8060554515179
20
1.75208634072166
30
0
41
1
10
29.8160895220008
20
1.74572613102097
30
0
0
SPLINE
5
15D
100
AcDbEntity
8
1
62
256
6
ByLayer
370
13
48
1
60
0
100
AcDbSpline
70
4
71
3
72
8
73
4
40
0
40
0
40
0
40
0
40
1
40
1
40
1
40
1
41
1
10
14.4780603056984
20
-2.36428694579558
30
0
41
1
10
14.4020753812892
20
-2.38697899308124
30
0
41
1
10
14.32609045688
20
-2.40860108590721
30
0
41
1
10
14.2501055324708
20
-2.42912348631919
30
0
0
SPLINE
5
15E
100
AcDbEntity
8
1
62
256
6
ByLayer
370
13
48
1
60
0
100
AcDbSpline
70
4
71
3
72
11
73
7
40
0
40
0
40
0
40
0
40
0.143479784746878
40
0.428986523164585
40
0.714493261582293
40
1
40
1
40
1
40
1
41
1
10
13.5970893971678
20
-2.57789938305064
30
0
41
1
10
13.3772262647786
20
-2.61852465880563
30
0
41
1
10
12.7198631323893
20
-2.7108731258769
30
0
41
1
10
11.6250000000001
20
-2.71170543796211
30
0
41
1
10
10.3125000000001
20
-2.46961008787142
30
0
41
1
10
9.43750000000006
20
-2.16023004559835
30
0
41
1
10
9.00000000000009
20
-1.97560915989712
30
0
0
SPLINE
5
15F
100
AcDbEntity
8
1
62
256
6
ByLayer
370
18
48
1
60
0
100
AcDbSpline
70
4
71
3
72
28
73
24
40
0
40
0
40
0
40
0
40
0.249999999999893
40
0.249999999999893
40
0.499999999999786
40
0.499999999999786
40
0.62499999999976
40
0.62499999999976
40
0.687499999999769
40
0.687499999999769
40
0.749999999999778
40
0.749999999999778
40
0.812499999999787
40
0.812499999999787
40
0.843749999999807
40
0.843749999999807
40
0.874999999999828
40
0.874999999999828
40
0.906249999999848
40
0.906249999999848
40
0.937499999999868
40
0.937499999999868
40
1
40
1
40
1
40
1
41
1
10
7.23057051774498
20
-2.84541162982862
30
0
41
1
10
7.21748450740716
20
-2.84350463534872
30
0
41
1
10
7.20472515757928
20
-2.84147246663778
30
0
41
1
10
7.18032666666778
20
-2.8370532865851
30
0
41
1
10
7.16859298165838
20
-2.8346675139606
30
0
41
1
10
7.15310796057139
20
-2.8306483332521
30
0
41
1
10
7.14828964132175
20
-2.8292307969009
30
0
41
1
10
7.14229391022661
20
-2.8269512895767
30
0
41
1
10
7.14049830677118
20
-2.82616458748987
30
0
41
1
10
7.13759192955678
20
-2.82450801550394
30
0
41
1
10
7.13648570201269
20
-2.82364187482352
30
0
41
1
10
7.13566647230971
20
-2.82185845782499
30
0
41
1
10
7.13598583513178
20
-2.82092601899907
30
0
41
1
10
7.13831405123156
20
-2.81962674880864
30
0
41
1
10
7.13936971537265
20
-2.81922254236008
30
0
41
1
10
7.14205515614805
20
-2.81847545644845
30
0
41
1
10
7.14367344742899
20
-2.81813886752067
30
0
41
1
10
7.14722515013449
20
-2.8175589684443
30
0
41
1
10
7.1491861268438
20
-2.81731021463108
30
0
41
1
10
7.15322210548405
20
-2.8168937484734
30
0
41
1
10
7.15531798972341
20
-2.81672244377006
30
0
41
1
10
7.16177657911698
20
-2.81629031291385
30
0
41
1
10
7.16625615527013
20
-2.8161133737583
30
0
41
1
10
7.17076459532069
20
-2.81600283055602
30
0
0
SPLINE
5
160
100
AcDbEntity
8
1
62
256
6
ByLayer
370
18
48
1
60
0
100
AcDbSpline
70
4
71
3
72
8
73
4
40
0
40
0
40
0
40
0
40
1
40
1
40
1
40
1
41
1
10
7.17076459535946
20
-2.81600283049002
30
0
41
1
10
7.19360910160427
20
-2.81544270217952
30
0
41
1
10
7.21614123973322
20
-2.81455969642027
30
0
41
1
10
7.2381494214348
20
-2.81310414376023
30
0
0
SPLINE
5
161
100
AcDbEntity
8
1
62
256
6
ByLayer
370
18
48
1
60
0
100
AcDbSpline
70
4
71
3
72
16
73
12
40
0
40
0
40
0
40
0
40
0.25
40
0.25
40
0.5
40
0.5
40
0.75
40
0.75
40
0.875
40
0.875
40
1
40
1
40
1
40
1
41
1
10
7.2381494214348
20
-2.81310414376023
30
0
41
1
10
7.12470345364412
20
-2.79126865937482
30
0
41
1
10
7.01475780272818
20
-2.76368126896225
30
0
41
1
10
6.80194365832821
20
-2.69545855804662
30
0
41
1
10
6.69907545377487
20
-2.65482807733514
30
0
41
1
10
6.50040175315615
20
-2.55855393029452
30
0
41
1
10
6.40459599541686
20
-2.50292017071925
30
0
41
1
10
6.2661034601644
20
-2.40625983093256
30
0
41
1
10
6.22074215811853
20
-2.37176441881755
30
0
41
1
10
6.13257067327908
20
-2.29868383898261
30
0
41
1
10
6.0896624615155
20
-2.26003953328404
30
0
41
1
10
6.04789453685783
20
-2.21917382617957
30
0
0
SPLINE
5
162
100
AcDbEntity
8
1
62
256
6
ByLayer
370
18
48
1
60
0
100
AcDbSpline
70
4
71
3
72
28
73
24
40
0
40
0
40
0
40
0
40
0.250000000000067
40
0.250000000000067
40
0.312500000000061
40
0.312500000000061
40
0.375000000000055
40
0.375000000000055
40
0.43750000000005
40
0.43750000000005
40
0.500000000000044
40
0.500000000000044
40
0.562500000000038
40
0.562500000000038
40
0.625000000000033
40
0.625000000000033
40
0.687500000000027
40
0.687500000000027
40
0.750000000000022
40
0.750000000000022
40
0.87500000000001
40
0.87500000000001
40
1
40
1
40
1
40
1
41
1
10
6.04789453685783
20
-2.21917382617957
30
0
41
1
10
6.03815933042642
20
-2.20964890728817
30
0
41
1
10
6.02987914152209
20
-2.19962877654734
30
0
41
1
10
6.02291084558897
20
-2.18599776623844
30
0
41
1
10
6.0216941020044
20
-2.18321388633095
30
0
41
1
10
6.01970379299075
20
-2.17750329980129
30
0
41
1
10
6.018938471132
20
-2.17458827148468
30
0
41
1
10
6.01798918048127
20
-2.16875202482424
30
0
41
1
10
6.01779840015783
20
-2.16581423850059
30
0
41
1
10
6.0180950190632
20
-2.15989426917446
30
0
41
1
10
6.0185922106991
20
-2.1569073047676
30
0
41
1
10
6.02032272899751
20
-2.1511081771346
30
0
41
1
10
6.02155485038259
20
-2.14826951504605
30
0
41
1
10
6.0248043262855
20
-2.14272573109676
30
0
41
1
10
6.02684896636396
20
-2.1399992501799
30
0
41
1
10
6.03157118647761
20
-2.1349054085554
30
0
41
1
10
6.03425552089476
20
-2.13251325776361
30
0
41
1
10
6.04021537991466
20
-2.12801481789916
30
0
41
1
10
6.0435086172642
20
-2.12590347066174
30
0
41
1
10
6.05385394336216
20
-2.12014871994859
30
0
41
1
10
6.06146023669342
20
-2.11699290097113
30
0
41
1
10
6.07766769756489
20
-2.11168109100913
30
0
41
1
10
6.08608630274867
20
-2.10958548593831
30
0
41
1
10
6.09472793473037
20
-2.10789001655786
30
0
0
SPLINE
5
163
100
AcDbEntity
8
1
62
256
6
ByLayer
370
18
48
1
60
0
100
AcDbSpline
70
4
71
3
72
30
73
26
40
0
40
0
40
0
40
0
40
0.249999999999948
40
0.249999999999948
40
0.374999999999953
40
0.374999999999953
40
0.499999999999958
40
0.499999999999958
40
0.624999999999963
40
0.624999999999963
40
0.687499999999944
40
0.687499999999944
40
0.749999999999926
40
0.749999999999926
40
0.781249999999916
40
0.781249999999916
40
0.812499999999907
40
0.812499999999907
40
0.843749999999897
40
0.843749999999897
40
0.874999999999888
40
0.874999999999888
40
0.937499999999944
40
0.937499999999944
40
1
40
1
40
1
40
1
41
1
10
7.14846310406878
20
-1.17966223870263
30
0
41
1
10
7.13456006613544
20
-1.16843420014129
30
0
41
1
10
7.12097614702301
20
-1.15688154802874
30
0
41
1
10
7.1014236156785
20
-1.13873728866642
30
0
41
1
10
7.09504527396876
20
-1.13255147519456
30
0
41
1
10
7.0826950553371
20
-1.11978276073216
30
0
41
1
10
7.07672243097153
20
-1.11320524415211
30
0
41
1
10
7.06554922592937
20
-1.09954355176467
30
0
41
1
10
7.06029855806224
20
-1.09244151205724
30
0
41
1
10
7.05360891322402
20
-1.08107766296254
30
0
41
1
10
7.05159000560008
20
-1.07718472068459
30
0
41
1
10
7.04828451870861
20
-1.06908981719081
30
0
41
1
10
7.04700845285993
20
-1.06495388264918
30
0
41
1
10
7.04618216099766
20
-1.05849832102661
30
0
41
1
10
7.04609951845265
20
-1.05630618552698
30
0
41
1
10
7.0464735487854
20
-1.05199070061613
30
0
41
1
10
7.04694336997409
20
-1.0498180258264
30
0
41
1
10
7.0485162539309
20
-1.04575717643328
30
0
41
1
10
7.04963078161879
20
-1.04382990964135
30
0
41
1
10
7.05245531659386
20
-1.04034461729239
30
0
41
1
10
7.05411958182589
20
-1.0388263497093
30
0
41
1
10
7.05972174900663
20
-1.03482335712749
30
0
41
1
10
7.06399655570027
20
-1.03304013795315
30
0
41
1
10
7.07289729942767
20
-1.03042876529665
30
0
41
1
10
7.07746754220838
20
-1.02962643570859
30
0
41
1
10
7.08210444639633
20
-1.02910429467897
30
0
0
SPLINE
5
164
100
AcDbEntity
8
1
62
256
6
ByLayer
370
18
48
1
60
0
100
AcDbSpline
70
4
71
3
72
33
73
29
40
0
40
0
40
0
40
0
40
0.125000000000019
40
0.125000000000019
40
0.15625000000004
40
0.15625000000004
40
0.187500000000061
40
0.187500000000061
40
0.250000000000104
40
0.250000000000104
40
0.281250000000111
40
0.281250000000111
40
0.312500000000118
40
0.375000000000109
40
0.375000000000109
40
0.4375000000001
40
0.4375000000001
40
0.500000000000091
40
0.500000000000091
40
0.562500000000081
40
0.562500000000081
40
0.625000000000072
40
0.625000000000072
40
0.750000000000048
40
0.750000000000048
40
0.875000000000024
40
0.875000000000024
40
1
40
1
40
1
40
1
41
1
10
7.0821044463963
20
-1.02910429467897
30
0
41
1
10
7.10693541712016
20
-1.02630819018887
30
0
41
1
10
7.13135346548592
20
-1.02195212239221
30
0
41
1
10
7.16100016071164
20
-1.01318121097967
30
0
41
1
10
7.16688445403662
20
-1.0112558977622
30
0
41
1
10
7.1785472235668
20
-1.00700255863558
30
0
41
1
10
7.18433186127317
20
-1.00466968638901
30
0
41
1
10
7.20123385292712
20
-0.997079972392982
30
0
41
1
10
7.21198614492687
20
-0.991210310228524
30
0
41
1
10
7.22712683054814
20
-0.980846291990247
30
0
41
1
10
7.23203879777992
20
-0.97710255622178
30
0
41
1
10
7.24130760544654
20
-0.969172146673884
30
0
41
1
10
7.25437208688786
20
-0.956637921853485
30
0
41
1
10
7.26487523415608
20
-0.942145150704675
30
0
41
1
10
7.27652747657669
20
-0.921004354139541
30
0
41
1
10
7.28095982241368
20
-0.909924928045996
30
0
41
1
10
7.28749638104085
20
-0.887033091857575
30
0
41
1
10
7.28960062112549
20
-0.875140610174071
30
0
41
1
10
7.2918702534927
20
-0.851490796863942
30
0
41
1
10
7.29207251123955
20
-0.839632788368931
30
0
41
1
10
7.2910703453455
20
-0.815855169258953
30
0
41
1
10
7.28985607299501
20
-0.803893906290881
30
0
41
1
10
7.28458277281632
20
-0.768215806199947
30
0
41
1
10
7.27899301367955
20
-0.744932175989163
30
0
41
1
10
7.26529096313698
20
-0.698930408099244
30
0
41
1
10
7.25714994305756
20
-0.676220079866823
30
0
41
1
10
7.23905672706144
20
-0.631174833305721
30
0
41
1
10
7.22909520523069
20
-0.608848672995066
30
0
41
1
10
7.21850232053455
20
-0.58679008080739
30
0
0
SPLINE
5
165
100
AcDbEntity
8
1
62
256
6
ByLayer
370
18
48
1
60
0
100
AcDbSpline
70
4
71
3
72
22
73
18
40
0
40
0
40
0
40
0
40
0.249999999999993
40
0.249999999999993
40
0.374999999999991
40
0.374999999999991
40
0.437499999999993
40
0.437499999999993
40
0.499999999999994
40
0.499999999999994
40
0.749999999999996
40
0.749999999999996
40
0.874999999999997
40
0.874999999999997
40
0.937499999999999
40
0.937499999999999
40
1
40
1
40
1
40
1
41
1
10
7.21850232053399
20
-0.586790080807674
30
0
41
1
10
7.14804051785086
20
-0.465815568971351
30
0
41
1
10
7.08697968077945
20
-0.340348892640719
30
0
41
1
10
7.00832412707314
20
-0.145737756277725
30
0
41
1
10
6.98426281801193
20
-0.0797980211735307
30
0
41
1
10
6.95128920524112
20
0.0206906915229581
30
0
41
1
10
6.94081801340599
20
0.0544502705180889
30
0
41
1
10
6.92090033528621
20
0.122494265815163
30
0
41
1
10
6.91144375783784
20
0.156828798350347
30
0
41
1
10
6.86713478636256
20
0.327996173600326
30
0
41
1
10
6.84071252064797
20
0.464630532781058
30
0
41
1
10
6.81243146012332
20
0.668673728824672
30
0
41
1
10
6.80491130754149
20
0.736537861719086
30
0
41
1
10
6.79634635261698
20
0.838058001388845
30
0
41
1
10
6.79394316681856
20
0.871880787118499
30
0
41
1
10
6.79003710630991
20
0.939298902524001
30
0
41
1
10
6.78853824722034
20
0.972810241972581
30
0
41
1
10
6.78747877348442
20
1.0061224820578
30
0
0
SPLINE
5
166
100
AcDbEntity
8
1
62
256
6
ByLayer
370
18
48
1
60
0
100
AcDbSpline
70
4
71
3
72
12
73
8
40
0
40
0
40
0
40
0
40
0.499999999999977
40
0.499999999999977
40
0.749999999999989
40
0.749999999999989
40
1
40
1
40
1
40
1
41
1
10
6.78747877348442
20
1.00612248205775
30
0
41
1
10
6.78688028842515
20
1.02494020004849
30
0
41
1
10
6.7890593826283
20
1.04332567397125
30
0
41
1
10
6.79688898652486
20
1.07021833129141
30
0
41
1
10
6.80026944917603
20
1.07904177388164
30
0
41
1
10
6.80833876264381
20
1.09593655834539
30
0
41
1
10
6.81304505806756
20
1.1040775320237
30
0
41
1
10
6.81838745988625
20
1.11193058205853
30
0
0
SPLINE
5
167
100
AcDbEntity
8
1
62
256
6
ByLayer
370
18
48
1
60
0
100
AcDbSpline
70
4
71
3
72
34
73
30
40
0
40
0
40
0
40
0
40
0.062499999999985
40
0.062499999999985
40
0.0937499999999775
40
0.0937499999999775
40
0.12499999999997
40
0.12499999999997
40
0.187499999999964
40
0.187499999999964
40
0.249999999999958
40
0.249999999999958
40
0.312499999999952
40
0.312499999999952
40
0.374999999999946
40
0.374999999999946
40
0.499999999999946
40
0.499999999999946
40
0.562499999999945
40
0.562499999999945
40
0.624999999999945
40
0.624999999999945
40
0.749999999999956
40
0.749999999999956
40
0.812499999999967
40
0.812499999999967
40
0.874999999999978
40
0.874999999999978
40
1
40
1
40
1
40
1
41
1
10
6.81838745988625
20
1.11193058205853
30
0
41
1
10
6.838856800732
20
1.14201943783863
30
0
41
1
10
6.86292425343783
20
1.16879326073385
30
0
41
1
10
6.90295460704121
20
1.20539971463953
30
0
41
1
10
6.91696333951145
20
1.21699948333182
30
0
41
1
10
6.9461582120031
20
1.23914287955091
30
0
41
1
10
6.96139014121817
20
1.2497094773716
30
0
41
1
10
7.00790789310707
20
1.27953378870907
30
0
41
1
10
7.04021948210575
20
1.29712148476799
30
0
41
1
10
7.10679458811143
20
1.32890827618135
30
0
41
1
10
7.14106473835886
20
1.34309505697161
30
0
41
1
10
7.21119809386511
20
1.36874714218521
30
0
41
1
10
7.24711056774052
20
1.38021226964753
30
0
41
1
10
7.31945436493817
20
1.40063277607595
30
0
41
1
10
7.35599410148058
20
1.40962855804864
30
0
41
1
10
7.46655546923841
20
1.4335481529321
30
0
41
1
10
7.54163764690526
20
1.4454389205678
30
0
41
1
10
7.65467507801748
20
1.45835346188892
30
0
41
1
10
7.69246942628681
20
1.46183841258644
30
0
41
1
10
7.76827011285187
20
1.46731005752019
30
0
41
1
10
7.80630170911522
20
1.46929604618916
30
0
41
1
10
7.92029577401723
20
1.47314034180408
30
0
41
1
10
7.99627273002562
20
1.47291010628285
30
0
41
1
10
8.11021232336591
20
1.46878226369853
30
0
41
1
10
8.14821651265504
20
1.46677007084298
30
0
41
1
10
8.22406019109496
20
1.46152214426169
30
0
41
1
10
8.26189009390359
20
1.4582881553473
30
0
41
1
10
8.37511307211909
20
1.4468039638559
30
0
41
1
10
8.45024004354383
20
1.43677691730451
30
0
41
1
10
8.52502631651859
20
1.42442571920847
30
0
0
SPLINE
5
168
100
AcDbEntity
8
1
62
256
6
ByLayer
370
18
48
1
60
0
100
AcDbSpline
70
4
71
3
72
12
73
8
40
0
40
0
40
0
40
0
40
0.5
40
0.5
40
0.75
40
0.75
40
1
40
1
40
1
40
1
41
1
10
7.21279486552422
20
2.70902011100662
30
0
41
1
10
7.22274159187225
20
2.70994865465056
30
0
41
1
10
7.23233735913803
20
2.71115652225655
30
0
41
1
10
7.24592404526751
20
2.7135942512912
30
0
41
1
10
7.25033445213381
20
2.71451900630501
30
0
41
1
10
7.25856341679912
20
2.71657080747136
30
0
41
1
10
7.26241022109241
20
2.71770167016564
30
0
41
1
10
7.2659469064225
20
2.71895118617604
30
0
0
SPLINE
5
169
100
AcDbEntity
8
1
62
256
6
ByLayer
370
18
48
1
60
0
100
AcDbSpline
70
4
71
3
72
16
73
12
40
0
40
0
40
0
40
0
40
0.353833533372601
40
0.353833533372601
40
0.707667066745203
40
0.707667066745203
40
0.884583833431508
40
0.884583833431508
40
0.973042216774657
40
0.973042216774657
40
1
40
1
40
1
40
1
41
1
10
7.26594690640533
20
2.7189511861979
30
0
41
1
10
7.16369342257556
20
2.75331610005733
30
0
41
1
10
7.06594637743868
20
2.78327102707095
30
0
41
1
10
6.87965598566655
20
2.83237405726939
30
0
41
1
10
6.79111143221351
20
2.8515304666538
30
0
41
1
10
6.66527292203244
20
2.87017972964563
30
0
41
1
10
6.6244892015782
20
2.87470939369177
30
0
41
1
10
6.5650644058191
20
2.87865717274897
30
0
41
1
10
6.54551923262306
20
2.87949777832131
30
0
41
1
10
6.52053602835815
20
2.87993519523582
30
0
41
1
10
6.51473627272546
20
2.87999065815387
30
0
41
1
10
6.50897190715614
20
2.87999892823143
30
0
0
SPLINE
5
16A
100
AcDbEntity
8
1
62
256
6
ByLayer
370
18
48
1
60
0
100
AcDbSpline
70
4
71
3
72
22
73
18
40
0
40
0
40
0
40
0
40
0.0166497765721501
40
0.0166497765721501
40
0.106045251429223
40
0.106045251429223
40
0.195440726286295
40
0.195440726286295
40
0.284836201143368
40
0.284836201143368
40
0.463627150857526
40
0.463627150857526
40
0.642418100571684
40
0.642418100571684
40
0.821209050285842
40
0.821209050285842
40
1
40
1
40
1
40
1
41
1
10
7.00004987424072
20
2.79559987153758
30
0
41
1
10
7.00893548133214
20
2.79574379638635
30
0
41
1
10
7.01782068128477
20
2.7958990762028
30
0
41
1
10
7.07440950335675
20
2.79695801285169
30
0
41
1
10
7.12202016188994
20
2.7981663858551
30
0
41
1
10
7.21679318493923
20
2.8010942805837
30
0
41
1
10
7.26400201203495
20
2.80281483726978
30
0
41
1
10
7.3580993770812
20
2.80666536409785
30
0
41
1
10
7.40502226696682
20
2.80879723150733
30
0
41
1
10
7.54503971049692
20
2.81564463142374
30
0
41
1
10
7.63739222127171
20
2.8208091333353
30
0
41
1
10
7.82041274676092
20
2.83157708582087
30
0
41
1
10
7.91088767145993
20
2.83716946983759
30
0
41
1
10
8.08982888804542
20
2.84803871306167
30
0
41
1
10
8.17833056873027
20
2.85331704050679
30
0
41
1
10
8.35313449484082
20
2.86286199168495
30
0
41
1
10
8.43951266425313
20
2.86713327747432
30
0
41
1
10
8.52502631651848
20
2.87060109259579
30
0
0
SPLINE
5
16B
100
AcDbEntity
8
1
62
256
6
ByLayer
370
18
48
1
60
0
100
AcDbSpline
70
4
71
3
72
12
73
8
40
0
40
0
40
0
40
0
40
0.25
40
0.25
40
0.5
40
0.5
40
1
40
1
40
1
40
1
41
1
10
10.410761690465
20
-2.84889885118082
30
0
41
1
10
10.4266694123962
20
-2.85696001349402
30
0
41
1
10
10.4420930136082
20
-2.8659838012058
30
0
41
1
10
10.471996999767
20
-2.88585522190965
30
0
41
1
10
10.4865091280641
20
-2.89677971741682
30
0
41
1
10
10.5280808901856
20
-2.93195336802108
30
0
41
1
10
10.5533188501515
20
-2.95852391195629
30
0
41
1
10
10.5756603910071
20
-2.98877119909451
30
0
0
SPLINE
5
16C
100
AcDbEntity
8
1
62
256
6
ByLayer
370
18
48
1
60
0
100
AcDbSpline
70
4
71
3
72
28
73
24
40
0
40
0
40
0
40
0
40
0.124999999999987
40
0.124999999999987
40
0.249999999999974
40
0.249999999999974
40
0.312499999999967
40
0.312499999999967
40
0.37499999999996
40
0.37499999999996
40
0.499999999999917
40
0.499999999999917
40
0.56249999999991
40
0.56249999999991
40
0.59374999999992
40
0.59374999999992
40
0.624999999999931
40
0.624999999999931
40
0.687499999999951
40
0.687499999999951
40
0.749999999999972
40
0.749999999999972
40
1
40
1
40
1
40
1
41
1
10
10.410761690465
20
-2.84889885118082
30
0
41
1
10
10.391617302083
20
-2.83919752352327
30
0
41
1
10
10.3720423061004
20
-2.83104114062567
30
0
41
1
10
10.3320750133907
20
-2.8178632820053
30
0
41
1
10
10.3116887185762
20
-2.81281461842423
30
0
41
1
10
10.2804717257193
20
-2.8079014446044
30
0
41
1
10
10.2699535488514
20
-2.8067226926787
30
0
41
1
10
10.2490304369115
20
-2.80535024913948
30
0
41
1
10
10.2385852330148
20
-2.80514618622288
30
0
41
1
10
10.2073151664922
20
-2.80602617375899
30
0
41
1
10
10.1865543434872
20
-2.80858198726011
30
0
41
1
10
10.155631660686
20
-2.81598123723401
30
0
41
1
10
10.1454034900364
20
-2.81903207344635
30
0
41
1
10
10.1304324724679
20
-2.82445865013631
30
0
41
1
10
10.1254933150794
20
-2.8264137183771
30
0
41
1
10
10.1157226304373
20
-2.83062872314707
30
0
41
1
10
10.1108976140621
20
-2.83290841053685
30
0
41
1
10
10.0965154815245
20
-2.83999134909317
30
0
41
1
10
10.0869847916143
20
-2.84483618933294
30
0
41
1
10
10.0678824010417
20
-2.8542992035112
30
0
41
1
10
10.0583338886366
20
-2.8589880134675
30
0
41
1
10
10.0106479677685
20
-2.88235130967792
30
0
41
1
10
9.97265666057763
20
-2.90071057786514
30
0
41
1
10
9.93478831807681
20
-2.91866071125878
30
0
0
SPLINE
5
16D
100
AcDbEntity
8
1
62
256
6
ByLayer
370
13
48
1
60
0
100
AcDbSpline
70
4
71
3
72
13
73
9
40
0
40
0
40
0
40
0
40
0.160626979840818
40
0.349884146339845
40
0.539141312838872
40
0.728398479337899
40
0.917655645836925
40
1
40
1
40
1
40
1
41
1
10
29.8014494209967
20
1.10730680006395
30
0
41
1
10
29.4301329473311
20
1.3253160218126
30
0
41
1
10
28.6213164736656
20
1.77338845288224
30
0
41
1
10
27.375
20
2.32951309352074
30
0
41
1
10
26.0625
20
2.70143562036404
30
0
41
1
10
24.75
20
2.83685433147727
30
0
41
1
10
23.6846470764475
20
2.7350415125527
30
0
41
1
10
23.056794152895
20
2.59354287837007
30
0
41
1
10
22.8664412293426
20
2.5434488519405
30
0
0
SPLINE
5
16E
100
AcDbEntity
8
1
62
256
6
ByLayer
370
18
48
1
60
0
100
AcDbSpline
70
4
71
3
72
8
73
4
40
0
40
0
40
0
40
0
40
1
40
1
40
1
40
1
41
1
10
29.725866755637
20
1.20090537983538
30
0
41
1
10
29.749273503101
20
1.16956909818114
30
0
41
1
10
29.7743513424856
20
1.13836066242794
30
0
41
1
10
29.8014494479056
20
1.10730678683666
30
0
0
SPLINE
5
16F
100
AcDbEntity
8
1
62
256
6
ByLayer
370
18
48
1
60
0
100
AcDbSpline
70
4
71
3
72
10
73
6
40
0
40
0
40
0
40
0
40
0.284649839627956
40
0.284649839627956
40
1
40
1
40
1
40
1
41
1
10
20.0794809806762
20
1.48999150605093
30
0
41
1
10
20.0837842587414
20
1.49255907470172
30
0
41
1
10
20.088087769742
20
1.49512462873128
30
0
41
1
10
20.1032072238659
20
1.50413053880706
30
0
41
1
10
20.1140256459611
20
1.5105608289341
30
0
41
1
10
20.1248458244692
20
1.51697827265019
30
0
0
SPLINE
5
170
100
AcDbEntity
8
1
62
256
6
ByLayer
370
18
48
1
60
0
100
AcDbSpline
70
4
71
3
72
8
73
4
40
0
40
0
40
0
40
0
40
1
40
1
40
1
40
1
41
1
10
29.7258667556566
20
1.20090537983606
30
0
41
1
10
29.742833585057
20
1.19947354566958
30
0
41
1
10
29.7598010923002
20
1.19806293465834
30
0
41
1
10
29.776768834444
20
1.19667350899906
30
0
0
SPLINE
5
171
100
AcDbEntity
8
1
62
256
6
ByLayer
370
18
48
1
60
0
100
AcDbSpline
70
4
71
3
72
8
73
4
40
0
40
0
40
0
40
0
40
1
40
1
40
1
40
1
41
1
10
24.3224307386953
20
-2.1293246383994
30
0
41
1
10
24.3244872547085
20
-2.13757867110965
30
0
41
1
10
24.3264762677225
20
-2.1458295428603
30
0
41
1
10
24.3283946092569
20
-2.15407781506829
30
0
0
SPLINE
5
172
100
AcDbEntity
8
1
62
256
6
ByLayer
370
18
48
1
60
0
100
AcDbSpline
70
4
71
3
72
8
73
4
40
0
40
0
40
0
40
0
40
1
40
1
40
1
40
1
41
1
10
18.976372061749
20
1.63906340989149
30
0
41
1
10
18.9753387776992
20
1.63123568053379
30
0
41
1
10
18.9743323297068
20
1.62340966165942
30
0
41
1
10
18.9733554124307
20
1.61558496682875
30
0
0
SPLINE
5
173
100
AcDbEntity
8
1
62
256
6
ByLayer
370
18
48
1
60
0
100
AcDbSpline
70
4
71
3
72
14
73
10
40
0
40
0
40
0
40
0
40
0.25
40
0.25
40
0.5
40
0.5
40
0.75
40
0.75
40
1
40
1
40
1
40
1
41
1
10
24.8026724463627
20
-2.27462620780281
30
0
41
1
10
24.8190282687947
20
-2.28784664019801
30
0
41
1
10
24.834905473563
20
-2.30183210453305
30
0
41
1
10
24.8657221717465
20
-2.33127075700966
30
0
41
1
10
24.8806881331065
20
-2.34677548321713
30
0
41
1
10
24.9094195386177
20
-2.37909597919031
30
0
41
1
10
24.9232166140793
20
-2.39591901302469
30
0
41
1
10
24.9494762785358
20
-2.43081224219958
30
0
41
1
10
24.9618864702041
20
-2.44882918992136
30
0
41
1
10
24.9735087703393
20
-2.46747206123254
30
0
0
SPLINE
5
174
100
AcDbEntity
8
1
62
256
6
ByLayer
370
18
48
1
60
0
100
AcDbSpline
70
4
71
3
72
28
73
24
40
0
40
0
40
0
40
0
40
0.125000000000004
40
0.125000000000004
40
0.250000000000008
40
0.250000000000008
40
0.31250000000001
40
0.31250000000001
40
0.375000000000012
40
0.375000000000012
40
0.500000000000044
40
0.500000000000044
40
0.562500000000059
40
0.562500000000059
40
0.593750000000054
40
0.593750000000054
40
0.625000000000049
40
0.625000000000049
40
0.687500000000038
40
0.687500000000038
40
0.750000000000026
40
0.750000000000026
40
1
40
1
40
1
40
1
41
1
10
24.8026724463627
20
-2.27462620780281
30
0
41
1
10
24.7835261113834
20
-2.25915020047194
30
0
41
1
10
24.7640076978005
20
-2.24496703450362
30
0
41
1
10
24.7242916358217
20
-2.21913668492135
30
0
41
1
10
24.7040966712056
20
-2.2074763677366
30
0
41
1
10
24.6732858646247
20
-2.19211877566937
30
0
41
1
10
24.6629279108996
20
-2.18736116641628
30
0
41
1
10
24.642037275194
20
-2.1786061471812
30
0
41
1
10
24.6315161661926
20
-2.17461868837503
30
0
41
1
10
24.6003398107192
20
-2.1640899559348
30
0
41
1
10
24.5798621103317
20
-2.15888851659406
30
0
41
1
10
24.5497343271682
20
-2.15411687064201
30
0
41
1
10
24.5397884811227
20
-2.15302309971403
30
0
41
1
10
24.5250385944435
20
-2.15220714829087
30
0
41
1
10
24.5201506784298
20
-2.15207581854261
30
0
41
1
10
24.5104355746036
20
-2.15210323435795
30
0
41
1
10
24.5056098367605
20
-2.15226970322803
30
0
41
1
10
24.4911528053302
20
-2.15279181448011
30
0
41
1
10
24.4815348084544
20
-2.15312482041728
30
0
41
1
10
24.462296859693
20
-2.15362453100383
30
0
41
1
10
24.4526846366056
20
-2.15382200174881
30
0
41
1
10
24.4046893633303
20
-2.15465126986362
30
0
41
1
10
24.366469865703
20
-2.15470121990612
30
0
41
1
10
24.3283946092569
20
-2.15407781507039
30
0
0
SPLINE
5
175
100
AcDbEntity
8
1
62
256
6
ByLayer
370
18
48
1
60
0
100
AcDbSpline
70
4
71
3
72
14
73
10
40
0
40
0
40
0
40
0
40
0.25
40
0.25
40
0.5
40
0.5
40
0.75
40
0.75
40
1
40
1
40
1
40
1
41
1
10
18.8018811326258
20
1.6694160266224
30
0
41
1
10
18.8182947387443
20
1.66241575049031
30
0
41
1
10
18.8342293349892
20
1.65606244790038
30
0
41
1
10
18.8651595204848
20
1.64454040840607
30
0
41
1
10
18.8801824657841
20
1.63937216425401
30
0
41
1
10
18.9090221663124
20
1.63031683653389
30
0
41
1
10
18.9228727336715
20
1.62640648318507
30
0
41
1
10
18.9492313265779
20
1.61992304475976
30
0
41
1
10
18.96168902728
20
1.61736962946239
30
0
41
1
10
18.9733554124307
20
1.61558496682875
30
0
0
SPLINE
5
176
100
AcDbEntity
8
1
62
256
6
ByLayer
370
18
48
1
60
0
100
AcDbSpline
70
4
71
3
72
28
73
24
40
0
40
0
40
0
40
0
40
0.125000000000017
40
0.125000000000017
40
0.250000000000034
40
0.250000000000034
40
0.312500000000042
40
0.312500000000042
40
0.375000000000051
40
0.375000000000051
40
0.500000000000068
40
0.500000000000068
40
0.562500000000063
40
0.562500000000063
40
0.59375000000006
40
0.59375000000006
40
0.625000000000058
40
0.625000000000058
40
0.687500000000053
40
0.687500000000053
40
0.750000000000048
40
0.750000000000048
40
1
40
1
40
1
40
1
41
1
10
18.8018811326258
20
1.6694160266224
30
0
41
1
10
18.782743423773
20
1.67757811149437
30
0
41
1
10
18.7632378485576
20
1.6865065058484
30
0
41
1
10
18.7235564933968
20
1.70596730749355
30
0
41
1
10
18.7033831742869
20
1.71649021531496
30
0
41
1
10
18.672611326332
20
1.73373234523425
30
0
41
1
10
18.662267565261
20
1.73972690428593
30
0
41
1
10
18.6414078440544
20
1.75225487536983
30
0
41
1
10
18.6309013106137
20
1.75878548152079
30
0
41
1
10
18.5997707092422
20
1.77885099782426
30
0
41
1
10
18.5793263279083
20
1.79298171664789
30
0
41
1
10
18.5492520413048
20
1.81553683211826
30
0
41
1
10
18.5393245939599
20
1.82327827456334
30
0
41
1
10
18.5246033890691
20
1.83527233653098
30
0
41
1
10
18.519725211623
20
1.83933535276407
30
0
41
1
10
18.5100297774331
20
1.84759705950739
30
0
41
1
10
18.5052133294049
20
1.8517975901147
30
0
41
1
10
18.4907825523505
20
1.86442662698991
30
0
41
1
10
18.4811810647446
20
1.87286442529029
30
0
41
1
10
18.4619774772754
20
1.88973933051884
30
0
41
1
10
18.4523825964922
20
1.8981867252588
30
0
41
1
10
18.404473946279
20
1.9405041543024
30
0
41
1
10
18.3663235840706
20
1.97458206380637
30
0
41
1
10
18.3283170086173
20
2.00884957783958
30
0
0
SPLINE
5
177
100
AcDbEntity
8
1
62
256
6
ByLayer
370
18
48
1
60
0
100
AcDbSpline
70
4
71
3
72
12
73
8
40
0
40
0
40
0
40
0
40
0.250000000000014
40
0.250000000000014
40
0.500000000000028
40
0.500000000000028
40
1
40
1
40
1
40
1
41
1
10
12.8023223845737
20
2.39516132000219
30
0
41
1
10
12.818748931608
20
2.40793203242205
30
0
41
1
10
12.8346946553343
20
2.42152056073934
30
0
41
1
10
12.8656437976393
20
2.45026261906037
30
0
41
1
10
12.8806885252554
20
2.46548482322515
30
0
41
1
10
12.9238754428965
20
2.51311804477484
30
0
41
1
10
12.9501973031385
20
2.54735801715916
30
0
41
1
10
12.9735616555971
20
2.58458649479519
30
0
0
SPLINE
5
178
100
AcDbEntity
8
1
62
256
6
ByLayer
370
18
48
1
60
0
100
AcDbSpline
70
4
71
3
72
12
73
8
40
0
40
0
40
0
40
0
40
0.463822011149295
40
0.463822011149295
40
0.92764402229859
40
0.92764402229859
40
1
40
1
40
1
40
1
41
1
10
12.8023223845737
20
2.39516132000219
30
0
41
1
10
12.7831755140919
20
2.38027570972571
30
0
41
1
10
12.7636587800799
20
2.36673723340479
30
0
41
1
10
12.7239506315204
20
2.34230908985791
30
0
41
1
10
12.7037617805789
20
2.3314059660124
30
0
41
1
10
12.6800262859503
20
2.32052677375327
30
0
41
1
10
12.6768147550004
20
2.31909556323404
30
0
41
1
10
12.6735947530087
20
2.31770187497392
30
0
0
SPLINE
5
179
100
AcDbEntity
8
1
62
256
6
ByLayer
370
13
48
1
60
0
100
AcDbSpline
70
4
71
3
72
17
73
13
40
0
40
0
40
0
40
0
40
0.0467368605956218
40
0.131626221970268
40
0.216515583344914
40
0.30140494471956
40
0.386294306094206
40
0.513628348156174
40
0.640962390218143
40
0.810741112967435
40
0.980519835716727
40
1
40
1
40
1
40
1
41
1
10
20.5175563435654
20
0.519187764737666
30
0
41
1
10
20.3971208957103
20
0.603781853374613
30
0
41
1
10
20.0579354478552
20
0.839947801635731
30
0
41
1
10
19.5
20
1.21396366278395
30
0
41
1
10
18.84375
20
1.61845561175696
30
0
41
1
10
18.1875
20
1.97800251360718
30
0
41
0.999999999999999
10
17.421875
20
2.33423945374261
30
0
41
1
10
16.546875
20
2.63425592043231
30
0
41
1
10
15.453125
20
2.81958592725479
30
0
41
1
10
14.25
20
2.7799799728781
30
0
41
1
10
13.3248018848538
20
2.52356743897349
30
0
41
1
10
12.8371037697077
20
2.33428129748529
30
0
41
1
10
12.7869056545616
20
2.3142389378699
30
0
0
SPLINE
5
17A
100
AcDbEntity
8
1
62
256
6
ByLayer
370
13
48
1
60
0
100
AcDbSpline
70
4
71
3
72
12
73
8
40
0
40
0
40
0
40
0
40
0.106856490276929
40
0.330142367707697
40
0.553428245138464
40
0.776714122569232
40
1
40
1
40
1
40
1
41
1
10
14.8781147070394
20
0.473322185281745
30
0
41
1
10
14.6687431380262
20
0.610377754712886
30
0
41
1
10
14.0218715690131
20
1.02824756737689
30
0
41
1
10
12.9375
20
1.67483794476775
30
0
41
1
10
11.625
20
2.29974136862356
30
0
41
1
10
10.3125
20
2.69686207586736
30
0
41
1
10
9.43749999999994
20
2.79245056771271
30
0
41
1
10
8.99999999999997
20
2.79341592374684
30
0
0
SPLINE
5
17B
100
AcDbEntity
8
1
62
256
6
ByLayer
370
18
48
1
60
0
100
AcDbSpline
70
4
71
3
72
12
73
8
40
0
40
0
40
0
40
0
40
0.250000000000001
40
0.250000000000001
40
0.500000000000002
40
0.500000000000002
40
1
40
1
40
1
40
1
41
1
10
20.0087264425849
20
-2.49940153628094
30
0
41
1
10
20.0247343256843
20
-2.51111337303186
30
0
41
1
10
20.0402607213592
20
-2.52365349204641
30
0
41
1
10
20.0703745802841
20
-2.55031560855582
30
0
41
1
10
20.0849961721377
20
-2.56451559099338
30
0
41
1
10
20.1269174433029
20
-2.60908224584131
30
0
41
1
10
20.152403878938
20
-2.64133853107123
30
0
41
1
10
20.1749931782451
20
-2.67660390902665
30
0
0
SPLINE
5
17C
100
AcDbEntity
8
1
62
256
6
ByLayer
370
18
48
1
60
0
100
AcDbSpline
70
4
71
3
72
28
73
24
40
0
40
0
40
0
40
0
40
0.124999999999989
40
0.124999999999989
40
0.249999999999979
40
0.249999999999979
40
0.312499999999974
40
0.312499999999974
40
0.374999999999969
40
0.374999999999969
40
0.499999999999987
40
0.499999999999987
40
0.562499999999982
40
0.562499999999982
40
0.59374999999998
40
0.59374999999998
40
0.624999999999977
40
0.624999999999977
40
0.687499999999972
40
0.687499999999972
40
0.749999999999967
40
0.749999999999967
40
1
40
1
40
1
40
1
41
1
10
20.0087264425849
20
-2.49940153628094
30
0
41
1
10
19.9895906783341
20
-2.48540124990779
30
0
41
1
10
19.9700272934953
20
-2.47278898328634
30
0
41
1
10
19.9300922180982
20
-2.45034670468758
30
0
41
1
10
19.9097258520595
20
-2.44049512813507
30
0
41
1
10
19.8785443774648
20
-2.42806419319902
30
0
41
1
10
19.8680501436458
20
-2.42432831520264
30
0
41
1
10
19.8471669179779
20
-2.41779511749738
30
0
41
1
10
19.8367392341752
20
-2.4149796902752
30
0
41
1
10
19.8055152311317
20
-2.40792727636472
30
0
41
1
10
19.7847765900299
20
-2.40506826346581
30
0
41
1
10
19.7538761949542
20
-2.40409224024901
30
0
41
1
10
19.7436606071087
20
-2.40431968436533
30
0
41
1
10
19.7286976779072
20
-2.4055305665488
30
0
41
1
10
19.7237605078458
20
-2.40608149744455
30
0
41
1
10
19.7139914047401
20
-2.40748681889116
30
0
41
1
10
19.7091664613332
20
-2.40836316397258
30
0
41
1
10
19.6947571092061
20
-2.41114962054121
30
0
41
1
10
19.6851908730489
20
-2.4130681911858
30
0
41
1
10
19.6660316302941
20
-2.41669240973965
30
0
41
1
10
19.6564560488075
20
-2.41845311758189
30
0
41
1
10
19.6086382574386
20
-2.42712704358021
30
0
41
1
10
19.5705468452229
20
-2.43355804759642
30
0
41
1
10
19.5325852035419
20
-2.43941085883929
30
0
0
SPLINE
5
17D
100
AcDbEntity
8
1
62
256
6
ByLayer
370
18
48
1
60
0
100
AcDbSpline
70
4
71
3
72
8
73
4
40
0
40
0
40
0
40
0
40
1
40
1
40
1
40
1
41
1
10
19.5267229760553
20
-2.41909778340675
30
0
41
1
10
19.528743347818
20
-2.42587360109229
30
0
41
1
10
19.5306983909734
20
-2.43264439930334
30
0
41
1
10
19.5325852035421
20
-2.43941085883813
30
0
0
SPLINE
5
17E
100
AcDbEntity
8
1
62
256
6
ByLayer
370
18
48
1
60
0
100
AcDbSpline
70
4
71
3
72
8
73
4
40
0
40
0
40
0
40
0
40
1
40
1
40
1
40
1
41
1
10
22.9507507196717
20
-0.501347127670158
30
0
41
1
10
23.0046325367091
20
-0.462006578767387
30
0
41
1
10
23.0585148238549
20
-0.422529004029485
30
0
41
1
10
23.1124137838807
20
-0.382936073888345
30
0
0
SPLINE
5
17F
100
AcDbEntity
8
1
62
256
6
ByLayer
370
18
48
1
60
0
100
AcDbSpline
70
4
71
3
72
12
73
8
40
0
40
0
40
0
40
0
40
0.25
40
0.25
40
0.5
40
0.5
40
1
40
1
40
1
40
1
41
1
10
15.205602061971
20
-2.49936568816762
30
0
41
1
10
15.221806222801
20
-2.51133389396003
30
0
41
1
10
15.2375292263961
20
-2.52414408090229
30
0
41
1
10
15.2680349309536
20
-2.55137200909633
30
0
41
1
10
15.2828551449275
20
-2.56586286132472
30
0
41
1
10
15.3253736076286
20
-2.61136343644779
30
0
41
1
10
15.351257414979
20
-2.64428788969178
30
0
41
1
10
15.3742175909937
20
-2.68030394255234
30
0
0
SPLINE
5
180
100
AcDbEntity
8
1
62
256
6
ByLayer
370
18
48
1
60
0
100
AcDbSpline
70
4
71
3
72
28
73
24
40
0
40
0
40
0
40
0
40
0.12499999999996
40
0.12499999999996
40
0.249999999999919
40
0.249999999999919
40
0.312499999999899
40
0.312499999999899
40
0.374999999999879
40
0.374999999999879
40
0.499999999999867
40
0.499999999999867
40
0.56249999999986
40
0.56249999999986
40
0.59374999999987
40
0.59374999999987
40
0.62499999999988
40
0.62499999999988
40
0.6874999999999
40
0.6874999999999
40
0.74999999999992
40
0.74999999999992
40
1
40
1
40
1
40
1
41
1
10
15.205602061971
20
-2.49936568816762
30
0
41
1
10
15.1864867681741
20
-2.48524735320493
30
0
41
1
10
15.1669515568945
20
-2.4725004743099
30
0
41
1
10
15.1270922108263
20
-2.44975048268728
30
0
41
1
10
15.1067724067663
20
-2.43972903814188
30
0
41
1
10
15.0756741133171
20
-2.42703272147148
30
0
41
1
10
15.0652208005262
20
-2.4232095771504
30
0
41
1
10
15.0444109230779
20
-2.41648936951691
30
0
41
1
10
15.0340185300963
20
-2.41357614049016
30
0
41
1
10
15.0028970059916
20
-2.40622398726092
30
0
41
1
10
14.9822223042166
20
-2.40316090384073
30
0
41
1
10
14.9514134445642
20
-2.40187883940473
30
0
41
1
10
14.9412300562715
20
-2.4020037493116
30
0
41
1
10
14.9263052313473
20
-2.4030734154708
30
0
41
1
10
14.9213798964513
20
-2.40357981313659
30
0
41
1
10
14.9116314411847
20
-2.40489696941069
30
0
41
1
10
14.9068133028102
20
-2.40572390114934
30
0
41
1
10
14.8923943111275
20
-2.40826787548917
30
0
41
1
10
14.8828065980284
20
-2.40997567558148
30
0
41
1
10
14.863618350192
20
-2.41321163416975
30
0
41
1
10
14.8540298693595
20
-2.41477937085943
30
0
41
1
10
14.8061504080236
20
-2.42248254998791
30
0
41
1
10
14.7680154597497
20
-2.42810417978396
30
0
41
1
10
14.7300170261666
20
-2.43311999873254
30
0
0
SPLINE
5
181
100
AcDbEntity
8
1
62
256
6
ByLayer
370
18
48
1
60
0
100
AcDbSpline
70
4
71
3
72
12
73
8
40
0
40
0
40
0
40
0
40
0.249999999999999
40
0.249999999999999
40
0.499999999999999
40
0.499999999999999
40
1
40
1
40
1
40
1
41
1
10
9.20533122387764
20
1.18313244280227
30
0
41
1
10
9.22152931211485
20
1.17427122663722
30
0
41
1
10
9.23724610183336
20
1.16587890658124
30
0
41
1
10
9.26773905627891
20
1.14994156196766
30
0
41
1
10
9.28255301610494
20
1.14238536339303
30
0
41
1
10
9.32504771525328
20
1.12123238615473
30
0
41
1
10
9.35091063999459
20
1.10902961360725
30
0
41
1
10
9.37384801814011
20
1.09912872664845
30
0
0
SPLINE
5
182
100
AcDbEntity
8
1
62
256
6
ByLayer
370
18
48
1
60
0
100
AcDbSpline
70
4
71
3
72
12
73
8
40
0
40
0
40
0
40
0
40
0.500000000000034
40
0.500000000000034
40
0.750000000000017
40
0.750000000000017
40
1
40
1
40
1
40
1
41
1
10
9.20533122387764
20
1.18313244280227
30
0
41
1
10
9.17313003080466
20
1.20074820882513
30
0
41
1
10
9.13975286983435
20
1.21980509334449
30
0
41
1
10
9.08801911730365
20
1.25108665219938
30
0
41
1
10
9.07041055374532
20
1.26203429165545
30
0
41
1
10
9.03523614046441
20
1.28466333019421
30
0
41
1
10
9.01762030627873
20
1.29636520248835
30
0
41
1
10
9.00000000000011
20
1.30854467290797
30
0
0
SPLINE
5
183
100
AcDbEntity
8
1
62
256
6
ByLayer
370
13
48
1
60
0
100
AcDbSpline
70
4
71
3
72
9
73
5
40
0
40
0
40
0
40
0
40
0.673986667094055
40
1
40
1
40
1
40
1
41
1
10
29.8176382655631
20
2.78859526370468
30
0
41
1
10
29.4409255103754
20
2.7731159053537
30
0
41
1
10
28.8819934519537
20
2.69537667646088
30
0
41
1
10
28.3230613935318
20
2.54403418191973
30
0
41
1
10
28.1408420902978
20
2.4872441517231
30
0
0
SPLINE
5
184
100
AcDbEntity
8
1
62
256
6
ByLayer
370
13
48
1
60
0
100
AcDbSpline
70
4
71
3
72
9
73
5
40
0
40
0
40
0
40
0
40
0.0751654811809907
40
1
40
1
40
1
40
1
41
1
10
23.1198882996214
20
-0.387662106564107
30
0
41
1
10
23.1163838664143
20
-0.390054150444655
30
0
41
1
10
23.0697609598346
20
-0.421872075746762
30
0
41
1
10
23.0231380532549
20
-0.453611694735798
30
0
41
1
10
22.9800195798822
20
-0.482883206554248
30
0
0
SPLINE
5
185
100
AcDbEntity
8
1
62
256
6
ByLayer
370
13
48
1
60
0
100
AcDbSpline
70
4
71
3
72
8
73
4
40
0
40
0
40
0
40
0
40
1
40
1
40
1
40
1
41
1
10
10.1365131499678
20
0.554625810574549
30
0
41
1
10
9.75767543331185
20
0.810570208261481
30
0
41
1
10
9.37883771665588
20
1.05938972743141
30
0
41
1
10
8.99999999999997
20
1.29092113705855
30
0
0
SPLINE
5
186
100
AcDbEntity
8
1
62
256
6
ByLayer
370
18
48
1
60
0
100
AcDbSpline
70
4
71
3
72
8
73
4
40
0
40
0
40
0
40
0
40
1
40
1
40
1
40
1
41
1
10
29.7479641982316
20
2.99419406199039
30
0
41
1
10
29.7695296713408
20
2.9250882921549
30
0
41
1
10
29.792642717916
20
2.85651681555848
30
0
41
1
10
29.8176382903756
20
2.788595274941
30
0
0
SPLINE
5
187
100
AcDbEntity
8
1
62
256
6
ByLayer
370
18
48
1
60
0
100
AcDbSpline
70
4
71
3
72
17
73
13
40
0
40
0
40
0
40
0
40
0.0699475478560544
40
0.0699475478560544
40
0.147451918868053
40
0.147451918868053
40
0.224956289880052
40
0.379965031904036
40
0.379965031904036
40
0.689982515952018
40
0.689982515952018
40
1
40
1
40
1
40
1
41
1
10
27.8354054889967
20
2.58232443286164
30
0
41
1
10
27.8802316084245
20
2.59920296993727
30
0
41
1
10
27.9250795700724
20
2.6156185912788
30
0
41
1
10
28.0196847010336
20
2.64923152711043
30
0
41
1
10
28.0694602825271
20
2.66632345118163
30
0
41
1
10
28.168784325465
20
2.69922485384464
30
0
41
1
10
28.3175509493171
20
2.7466976803214
30
0
41
1
10
28.4657741616897
20
2.78851869490251
30
0
41
1
10
28.7617971429587
20
2.86455190292338
30
0
41
1
10
28.9585838014509
20
2.905097180231
30
0
41
1
10
29.3525899953689
20
2.9653787962223
30
0
41
1
10
29.549814448441
20
2.98510764642185
30
0
41
1
10
29.7479641982274
20
2.99419406198894
30
0
0
SPLINE
5
188
100
AcDbEntity
8
1
62
256
6
ByLayer
370
18
48
1
60
0
100
AcDbSpline
70
4
71
3
72
8
73
4
40
0
40
0
40
0
40
0
40
1
40
1
40
1
40
1
41
1
10
14.7241758808362
20
-2.41274347046809
30
0
41
1
10
14.7261884939688
20
-2.41954071144002
30
0
41
1
10
14.7281365072797
20
-2.42633265549472
30
0
41
1
10
14.7300170261595
20
-2.43311999874942
30
0
0
SPLINE
5
189
100
AcDbEntity
8
1
62
256
6
ByLayer
370
18
48
1
60
0
100
AcDbSpline
70
4
71
3
72
8
73
4
40
0
40
0
40
0
40
0
40
1
40
1
40
1
40
1
41
1
10
9.37683668785894
20
1.12483388143107
30
0
41
1
10
9.37581397823152
20
1.11626546070258
30
0
41
1
10
9.37481689031358
20
1.10769716244081
30
0
41
1
10
9.37384801814014
20
1.09912872664845
30
0
0
SPLINE
5
18A
100
AcDbEntity
8
1
62
256
6
ByLayer
370
18
48
1
60
0
100
AcDbSpline
70
4
71
3
72
8
73
4
40
0
40
0
40
0
40
0
40
1
40
1
40
1
40
1
41
1
10
23.7775858451122
20
1.67362295377174
30
0
41
1
10
23.7765598989787
20
1.66584771511919
30
0
41
1
10
23.7755602662587
20
1.65807414180429
30
0
41
1
10
23.7745896394389
20
1.65030185961601
30
0
0
SPLINE
5
18B
100
AcDbEntity
8
1
62
256
6
ByLayer
370
18
48
1
60
0
100
AcDbSpline
70
4
71
3
72
8
73
4
40
0
40
0
40
0
40
0
40
1
40
1
40
1
40
1
41
1
10
29.7426769751972
20
-2.2788307199647
30
0
41
1
10
29.7584345494411
20
-2.27960032237783
30
0
41
1
10
29.7741928448378
20
-2.28040663793445
30
0
41
1
10
29.7899514003959
20
-2.28124955320448
30
0
0
SPLINE
5
18C
100
AcDbEntity
8
1
62
256
6
ByLayer
370
18
48
1
60
0
100
AcDbSpline
70
4
71
3
72
12
73
8
40
0
40
0
40
0
40
0
40
0.249999999999987
40
0.249999999999987
40
0.499999999999973
40
0.499999999999973
40
1
40
1
40
1
40
1
41
1
10
23.6064585033609
20
1.69484513455993
30
0
41
1
10
23.622632028655
20
1.68864442935654
30
0
41
1
10
23.638322790716
20
1.68308299239732
30
0
41
1
10
23.668761562812
20
1.67313358104741
30
0
41
1
10
23.6835463199742
20
1.66875154624557
30
0
41
1
10
23.7259403098919
20
1.6575249544224
30
0
41
1
10
23.7517292329319
20
1.65245809880301
30
0
41
1
10
23.7745896394389
20
1.65030185961598
30
0
0
SPLINE
5
18D
100
AcDbEntity
8
1
62
256
6
ByLayer
370
18
48
1
60
0
100
AcDbSpline
70
4
71
3
72
28
73
24
40
0
40
0
40
0
40
0
40
0.124999999999956
40
0.124999999999956
40
0.249999999999912
40
0.249999999999912
40
0.312499999999904
40
0.312499999999904
40
0.374999999999896
40
0.374999999999896
40
0.499999999999851
40
0.499999999999851
40
0.562499999999829
40
0.562499999999829
40
0.593749999999831
40
0.593749999999831
40
0.624999999999834
40
0.624999999999834
40
0.687499999999867
40
0.687499999999867
40
0.749999999999899
40
0.749999999999899
40
1
40
1
40
1
40
1
41
1
10
23.6064585033609
20
1.69484513455993
30
0
41
1
10
23.5873575840367
20
1.70216816200278
30
0
41
1
10
23.5678377135536
20
1.71029234811155
30
0
41
1
10
23.5280100328833
20
1.72823738074118
30
0
41
1
10
23.5077067877654
20
1.73804469865891
30
0
41
1
10
23.4766349332712
20
1.75429149368384
30
0
41
1
10
23.4661826848915
20
1.75996613471639
30
0
41
1
10
23.4453818904219
20
1.77170280152353
30
0
41
1
10
23.4349957468093
20
1.77778348562401
30
0
41
1
10
23.4038976899038
20
1.79670793173173
30
0
41
1
10
23.3832448699612
20
1.81022653325891
30
0
41
1
10
23.3524773004225
20
1.83223180119194
30
0
41
1
10
23.3423007301056
20
1.83982338168832
30
0
41
1
10
23.3273924945911
20
1.85146452349898
30
0
41
1
10
23.3224729915246
20
1.85539557898389
30
0
41
1
10
23.3127373444152
20
1.86336287372953
30
0
41
1
10
23.3079275741013
20
1.86740549666925
30
0
41
1
10
23.2935465001257
20
1.87958468388266
30
0
41
1
10
23.2839907064011
20
1.88773979856708
30
0
41
1
10
23.2648599756345
20
1.90403885314171
30
0
41
1
10
23.2552995028591
20
1.91219725886623
30
0
41
1
10
23.20755887823
20
1.9530708650729
30
0
41
1
10
23.1695326479991
20
1.98599948838543
30
0
41
1
10
23.1316398263609
20
2.01912265232883
30
0
0
SPLINE
5
18E
100
AcDbEntity
8
1
62
256
6
ByLayer
370
18
48
1
60
0
100
AcDbSpline
70
4
71
3
72
8
73
4
40
0
40
0
40
0
40
0
40
1
40
1
40
1
40
1
41
1
10
17.7434853313103
20
2.63696440631622
30
0
41
1
10
17.7544126806139
20
2.65129433283948
30
0
41
1
10
17.7648296783057
20
2.66615982209831
30
0
41
1
10
17.7746997037598
20
2.68160033714909
30
0
0
SPLINE
5
18F
100
AcDbEntity
8
1
62
256
6
ByLayer
370
13
48
1
60
0
100
AcDbSpline
70
4
71
3
72
16
73
12
40
0
40
0
40
0
40
0
40
0.0956971523526443
40
0.272410930158329
40
0.449124707964013
40
0.581660041318276
40
0.714195374672539
40
0.802552263575381
40
0.890909152478223
40
0.979266041381065
40
1
40
1
40
1
40
1
41
1
10
25.4607680794474
20
0.520418234709695
30
0
41
1
10
25.2238453862982
20
0.677927138486154
30
0
41
1
10
24.5494226931491
20
1.11885610940593
30
0
41
1
10
23.4375
20
1.77862934594441
30
0
41
1
10
22.234375
20
2.3335212943351
30
0
41
1
10
21.140625
20
2.6593090138235
30
0
41
1
10
20.265625
20
2.78901013925145
30
0
41
1
10
19.5
20
2.80055741690123
30
0
41
1
10
18.84375
20
2.73738755601011
30
0
41
1
10
18.3549178005052
20
2.6392018238426
30
0
41
1
10
18.0848356010106
20
2.5686352566515
30
0
41
1
10
18.0335034015159
20
2.55464189118277
30
0
0
SPLINE
5
190
100
AcDbEntity
8
1
62
256
6
ByLayer
370
18
48
1
60
0
100
AcDbSpline
70
4
71
3
72
28
73
24
40
0
40
0
40
0
40
0
40
0.160910736940783
40
0.160910736940783
40
0.201138421175981
40
0.201138421175981
40
0.241366105411179
40
0.241366105411179
40
0.321821473881575
40
0.321821473881575
40
0.482732210822371
40
0.482732210822371
40
0.643642947763166
40
0.643642947763166
40
0.804553684703962
40
0.804553684703962
40
0.885009053174361
40
0.885009053174361
40
0.925236737409561
40
0.925236737409561
40
0.965464421644761
40
0.965464421644761
40
1
40
1
40
1
40
1
41
1
10
13.5252815895331
20
1.94860020328807
30
0
41
1
10
13.3377085932926
20
2.04471112081543
30
0
41
1
10
13.1496905379378
20
2.13531292984769
30
0
41
1
10
12.9134736798273
20
2.24063305568546
30
0
41
1
10
12.8661693792506
20
2.26130046811016
30
0
41
1
10
12.7714229636379
20
2.30181633363901
30
0
41
1
10
12.7239301942632
20
2.3216853241245
30
0
41
1
10
12.5816288554141
20
2.37985532865619
30
0
41
1
10
12.4870836483641
20
2.41668248587243
30
0
41
1
10
12.2040553641187
20
2.52147373918515
30
0
41
1
10
12.0161652578087
20
2.58381462195317
30
0
41
1
10
11.6411417038464
20
2.69252081072946
30
0
41
1
10
11.4539845641767
20
2.73888497943432
30
0
41
1
10
11.0794073336176
20
2.814922997032
30
0
41
1
10
10.891954500428
20
2.84472834016898
30
0
41
1
10
10.60971959227
20
2.8766043719678
30
0
41
1
10
10.5154606856171
20
2.88510215916517
30
0
41
1
10
10.3736821065928
20
2.8946653317378
30
0
41
1
10
10.3263580959696
20
2.89731975926873
30
0
41
1
10
10.2315643779982
20
2.90154368242733
30
0
41
1
10
10.1840625420513
20
2.90311332089837
30
0
41
1
10
10.0958837081695
20
2.90499997071035
30
0
41
1
10
10.0551758344547
20
2.90546237359661
30
0
41
1
10
10.0144875225746
20
2.90551505919933
30
0
0
SPLINE
5
191
100
AcDbEntity
8
1
62
256
6
ByLayer
370
18
48
1
60
0
100
AcDbSpline
70
4
71
3
72
38
73
34
40
0
40
0
40
0
40
0
40
0.124999999999969
40
0.124999999999969
40
0.187499999999954
40
0.187499999999954
40
0.218749999999956
40
0.218749999999956
40
0.249999999999958
40
0.249999999999958
40
0.28124999999996
40
0.28124999999996
40
0.312499999999962
40
0.312499999999962
40
0.374999999999986
40
0.374999999999986
40
0.406249999999998
40
0.406249999999998
40
0.43750000000001
40
0.43750000000001
40
0.500000000000014
40
0.500000000000014
40
0.562500000000018
40
0.562500000000018
40
0.625000000000022
40
0.625000000000022
40
0.750000000000014
40
0.750000000000014
40
0.81250000000001
40
0.81250000000001
40
0.875000000000007
40
0.875000000000007
40
1
40
1
40
1
40
1
41
1
10
13.5252815895328
20
1.94860020328832
30
0
41
1
10
13.5556507438929
20
1.92854004660205
30
0
41
1
10
13.5860653966124
20
1.90876527135052
30
0
41
1
10
13.6317682359835
20
1.87955258728039
30
0
41
1
10
13.6470189203883
20
1.86988991719187
30
0
41
1
10
13.6699188875007
20
1.85551090256834
30
0
41
1
10
13.6775545168776
20
1.85073709680506
30
0
41
1
10
13.6928198211959
20
1.84122899840523
30
0
41
1
10
13.7004280335888
20
1.83649591470817
30
0
41
1
10
13.7157800270595
20
1.82706265205306
30
0
41
1
10
13.7235854160334
20
1.822359200329
30
0
41
1
10
13.7395301441484
20
1.81296488832618
30
0
41
1
10
13.7476783145202
20
1.80826132761985
30
0
41
1
10
13.7724062780648
20
1.79424379041006
30
0
41
1
10
13.7888574347366
20
1.78525470203368
30
0
41
1
10
13.8134577454273
20
1.77215511237674
30
0
41
1
10
13.8216452920994
20
1.76785253680023
30
0
41
1
10
13.8379912811502
20
1.75935627893475
30
0
41
1
10
13.8461808667065
20
1.75514683795217
30
0
41
1
10
13.8704668379555
20
1.74277805976701
30
0
41
1
10
13.8861693207366
20
1.73493264804202
30
0
41
1
10
13.9167405621719
20
1.71982728892141
30
0
41
1
10
13.9316149869246
20
1.71256319854123
30
0
41
1
10
13.9606327236667
20
1.69846997936256
30
0
41
1
10
13.9748101442885
20
1.69162532500471
30
0
41
1
10
14.0154632066515
20
1.67203273614331
30
0
41
1
10
14.0404118147132
20
1.66004285903708
30
0
41
1
10
14.0752542285812
20
1.64313911276986
30
0
41
1
10
14.0864172290721
20
1.63769944190341
30
0
41
1
10
14.1079118496929
20
1.62715707743109
30
0
41
1
10
14.1182437811342
20
1.62205401255065
30
0
41
1
10
14.1477070779497
20
1.60738821337875
30
0
41
1
10
14.1654154474776
20
1.5984151780552
30
0
41
1
10
14.1812141326196
20
1.59028096755424
30
0
0
SPLINE
5
192
100
AcDbEntity
8
1
62
256
6
ByLayer
370
18
48
1
60
0
100
AcDbSpline
70
4
71
3
72
38
73
34
40
0
40
0
40
0
40
0
40
0.124999999999983
40
0.124999999999983
40
0.187499999999984
40
0.187499999999984
40
0.218749999999994
40
0.218749999999994
40
0.250000000000004
40
0.250000000000004
40
0.281250000000014
40
0.281250000000014
40
0.312500000000023
40
0.312500000000023
40
0.375000000000043
40
0.375000000000043
40
0.406250000000042
40
0.406250000000042
40
0.437500000000042
40
0.437500000000042
40
0.50000000000004
40
0.50000000000004
40
0.562500000000039
40
0.562500000000039
40
0.625000000000038
40
0.625000000000038
40
0.750000000000018
40
0.750000000000018
40
0.812500000000017
40
0.812500000000017
40
0.875000000000015
40
0.875000000000015
40
1
40
1
40
1
40
1
41
1
10
19.5257225328926
20
-1.85295372284906
30
0
41
1
10
19.5560672084825
20
-1.84692920479949
30
0
41
1
10
19.5864575879963
20
-1.84042120736481
30
0
41
1
10
19.6321244036159
20
-1.82992835674082
30
0
41
1
10
19.647363182187
20
-1.8263186850202
30
0
41
1
10
19.6702452662548
20
-1.82072772347877
30
0
41
1
10
19.6778749254662
20
-1.81882907817337
30
0
41
1
10
19.6931282641292
20
-1.81492490097631
30
0
41
1
10
19.7007303853944
20
-1.81284636057319
30
0
41
1
10
19.7160713881058
20
-1.80906284898825
30
0
41
1
10
19.723871802294
20
-1.80756583452845
30
0
41
1
10
19.7398066336875
20
-1.80563349819641
30
0
41
1
10
19.747956527935
20
-1.8051483532162
30
0
41
1
10
19.7726421175046
20
-1.8051061402719
30
0
41
1
10
19.7890721821531
20
-1.80696008172799
30
0
41
1
10
19.8136496638677
20
-1.81211808076205
30
0
41
1
10
19.8218310622117
20
-1.81423174977792
30
0
41
1
10
19.8381674464646
20
-1.8191977990586
30
0
41
1
10
19.8463560367435
20
-1.82206429973192
30
0
41
1
10
19.8706091972899
20
-1.83162408821877
30
0
41
1
10
19.8862958095806
20
-1.83924124437579
30
0
41
1
10
19.916843501803
20
-1.85652613777401
30
0
41
1
10
19.9317102324073
20
-1.8661796974755
30
0
41
1
10
19.9607187756531
20
-1.88722430493541
30
0
41
1
10
19.9748846406691
20
-1.89865295186786
30
0
41
1
10
20.0155010909884
20
-1.9346054802769
30
0
41
1
10
20.0404371682564
20
-1.9609543015757
30
0
41
1
10
20.0752726999196
20
-2.00326816972515
30
0
41
1
10
20.0864354003996
20
-2.01786264750677
30
0
41
1
10
20.1079324252941
20
-2.04794804022845
30
0
41
1
10
20.1182590855922
20
-2.06343482959235
30
0
41
1
10
20.1477108044479
20
-2.11068837643953
30
0
41
1
10
20.1654176728609
20
-2.14342164652314
30
0
41
1
10
20.1812201626807
20
-2.17737756570858
30
0
0
SPLINE
5
193
100
AcDbEntity
8
1
62
256
6
ByLayer
370
18
48
1
60
0
100
AcDbSpline
70
4
71
3
72
31
73
27
40
0
40
0
40
0
40
0
40
0.0171829400987033
40
0.0171829400987033
40
0.0827040774254584
40
0.0827040774254584
40
0.213746352078966
40
0.213746352078966
40
0.344788626732474
40
0.344788626732474
40
0.475830901385981
40
0.475830901385981
40
0.508591470049358
40
0.508591470049358
40
0.541352038712735
40
0.606873176039486
40
0.606873176039486
40
0.737915450692991
40
0.737915450692991
40
0.868957725346495
40
0.868957725346495
40
0.934478862673249
40
0.934478862673249
40
0.967239431336624
40
0.967239431336624
40
1
40
1
40
1
40
1
41
1
10
25.2778610721333
20
-2.56609679973923
30
0
41
1
10
25.2484102237387
20
-2.57563212965869
30
0
41
1
10
25.2189610843444
20
-2.58497650330676
30
0
41
1
10
25.0774365810375
20
-2.62895241159586
30
0
41
1
10
24.9657414106015
20
-2.66084478274584
30
0
41
1
10
24.6314143852076
20
-2.74792493937071
30
0
41
1
10
24.4095437755804
20
-2.79453326120912
30
0
41
1
10
23.9662774095424
20
-2.86432281767472
30
0
41
1
10
23.7448769897889
20
-2.88752278956588
30
0
41
1
10
23.3007946883818
20
-2.90947809946482
30
0
41
1
10
23.0781303683158
20
-2.90804315970598
30
0
41
1
10
22.7977763515046
20
-2.89085224569894
30
0
41
1
10
22.7415514083811
20
-2.88663418280174
30
0
41
1
10
22.6294079479611
20
-2.87668153057683
30
0
41
1
10
22.4614913402531
20
-2.85947190817865
30
0
41
1
10
22.2943162814221
20
-2.83555563145441
30
0
41
1
10
21.9605685772812
20
-2.77911035187148
30
0
41
1
10
21.7388567394623
20
-2.73006874208903
30
0
41
1
10
21.2956288114509
20
-2.60963037649674
30
0
41
1
10
21.074127663155
20
-2.53819876429827
30
0
41
1
10
20.7406681169417
20
-2.41445252160554
30
0
41
1
10
20.6293051601245
20
-2.37043126432209
30
0
41
1
10
20.4616847209124
20
-2.30077736752366
30
0
41
1
10
20.4057168898088
20
-2.276951225532
30
0
41
1
10
20.2935685292789
20
-2.22806504590926
30
0
41
1
10
20.2373264381986
20
-2.20297537121201
30
0
41
1
10
20.1812201626807
20
-2.17737756570861
30
0
0
SPLINE
5
194
100
AcDbEntity
8
1
62
256
6
ByLayer
370
13
48
1
60
0
100
AcDbSpline
70
4
71
3
72
8
73
4
40
0
40
0
40
0
40
0
40
1
40
1
40
1
40
1
41
1
10
25.0593295586615
20
-2.49816792754754
30
0
41
1
10
25.0314072215408
20
-2.50498570370203
30
0
41
1
10
25.0034848844201
20
-2.51163859920439
30
0
41
1
10
24.9755625472994
20
-2.51812504250907
30
0
0
SPLINE
5
195
100
AcDbEntity
8
1
62
256
6
ByLayer
370
13
48
1
60
0
100
AcDbSpline
70
4
71
3
72
19
73
15
40
0
40
0
40
0
40
0
40
0.0087346803631894
40
0.133186379062246
40
0.257638077761301
40
0.350976851785594
40
0.444315625809886
40
0.506541475159414
40
0.568767324508942
40
0.63099317385847
40
0.693219023207998
40
0.78655779723229
40
0.879896571256582
40
1
40
1
40
1
40
1
41
1
10
24.8421182120978
20
-2.54785095349285
30
0
41
1
10
24.8114121413986
20
-2.55439647850378
30
0
41
1
10
24.3432060706993
20
-2.65108710248674
30
0
41
1
10
23.4375000000001
20
-2.74529177526367
30
0
41
1
10
22.2343750000001
20
-2.62695085820553
30
0
41
1
10
21.1406250000001
20
-2.33599388304185
30
0
41
1
10
20.2656250000001
20
-1.98891927315765
30
0
41
1
10
19.5000000000001
20
-1.61785563404675
30
0
41
1
10
18.8437500000001
20
-1.25965324344011
30
0
41
1
10
18.1875000000001
20
-0.871258605888784
30
0
41
1
10
17.4218750000001
20
-0.393241868530254
30
0
41
1
10
16.5468750000001
20
0.171762882657163
30
0
41
1
10
15.4684109954946
20
0.857642132034556
30
0
41
1
10
14.718071990989
20
1.29705564930964
30
0
41
1
10
14.2958579864835
20
1.52112854701872
30
0
0
SPLINE
5
196
100
AcDbEntity
8
1
62
256
6
ByLayer
370
18
48
1
60
0
100
AcDbSpline
70
4
71
3
72
14
73
10
40
0
40
0
40
0
40
0
40
0.25
40
0.25
40
0.5
40
0.5
40
0.75
40
0.75
40
1
40
1
40
1
40
1
41
1
10
19.5257225328926
20
-1.85295372284853
30
0
41
1
10
19.5364713355268
20
-1.8997512903675
30
0
41
1
10
19.5452113039316
20
-1.9464301997231
30
0
41
1
10
19.5578675599718
20
-2.03995704465072
30
0
41
1
10
19.561787067928
20
-2.08683295900786
30
0
41
1
10
19.5636730368304
20
-2.1811928823216
30
0
41
1
10
19.5616382600112
20
-2.22844852158497
30
0
41
1
10
19.5501377185091
20
-2.32360560895694
30
0
41
1
10
19.5407086549545
20
-2.37118363480553
30
0
41
1
10
19.5267229760553
20
-2.41909778340675
30
0
0
SPLINE
5
197
100
AcDbEntity
8
1
62
256
6
ByLayer
370
18
48
1
60
0
100
AcDbSpline
70
4
71
3
72
39
73
35
40
0
40
0
40
0
40
0
40
0.0624999999999989
40
0.0624999999999989
40
0.124999999999998
40
0.124999999999998
40
0.187499999999997
40
0.187499999999997
40
0.249999999999996
40
0.249999999999996
40
0.312499999999995
40
0.312499999999995
40
0.343749999999994
40
0.343749999999994
40
0.374999999999993
40
0.437499999999995
40
0.437499999999995
40
0.499999999999996
40
0.499999999999996
40
0.562499999999998
40
0.562499999999998
40
0.624999999999999
40
0.624999999999999
40
0.749999999999999
40
0.749999999999999
40
0.78125
40
0.78125
40
0.8125
40
0.8125
40
0.875
40
0.875
40
0.9375
40
0.9375
40
1
40
1
40
1
40
1
41
1
10
19.5257225328927
20
-1.85295372284853
30
0
41
1
10
19.4146264530444
20
-1.79373594607424
30
0
41
1
10
19.3037334072934
20
-1.73261414830918
30
0
41
1
10
19.0819804719542
20
-1.60724648537842
30
0
41
1
10
18.9711417745256
20
-1.54294537403874
30
0
41
1
10
18.7493692986576
20
-1.41121418000577
30
0
41
1
10
18.6384337275719
20
-1.34379121117291
30
0
41
1
10
18.4162928373883
20
-1.20593346995824
30
0
41
1
10
18.3050966972012
20
-1.13545866415521
30
0
41
1
10
18.0821773920538
20
-0.991815228441851
30
0
41
1
10
17.9704310379324
20
-0.918744984973785
30
0
41
1
10
17.8021970942129
20
-0.807592805149909
30
0
41
1
10
17.7459503143748
20
-0.770225912917056
30
0
41
1
10
17.6336090702359
20
-0.695211468894456
30
0
41
1
10
17.4653976609499
20
-0.58232213608855
30
0
41
1
10
17.2979810881563
20
-0.468487515957207
30
0
41
1
10
17.0753003137905
20
-0.3161150716316
30
0
41
1
10
16.9642450319128
20
-0.239612674871353
30
0
41
1
10
16.7423843372469
20
-0.0864393218290616
30
0
41
1
10
16.6315577136758
20
-0.0097972243512743
30
0
41
1
10
16.4099158078041
20
0.143306971091789
30
0
41
1
10
16.2991203886614
20
0.219795859001664
30
0
41
1
10
15.9663849313054
20
0.448460833455187
30
0
41
1
10
15.7440662896462
20
0.59980097982293
30
0
41
1
10
15.4646285678585
20
0.786210941765745
30
0
41
1
10
15.4086624106673
20
0.823352333629771
30
0
41
1
10
15.2965466363265
20
0.897314481875242
30
0
41
1
10
15.2403310533416
20
0.93417813685474
30
0
41
1
10
15.0718582290619
20
1.04390138049902
30
0
41
1
10
14.9600197592686
20
1.1157324334655
30
0
41
1
10
14.7368209159685
20
1.25652787859625
30
0
41
1
10
14.6254648912865
20
1.32550169314999
30
0
41
1
10
14.4031221549435
20
1.46031683034039
30
0
41
1
10
14.292130977885
20
1.52615579733731
30
0
41
1
10
14.1812141326196
20
1.59028096755424
30
0
0
SPLINE
5
198
100
AcDbEntity
8
1
62
256
6
ByLayer
370
18
48
1
60
0
100
AcDbSpline
70
4
71
3
72
43
73
39
40
0
40
0
40
0
40
0
40
0.124999999999972
40
0.124999999999972
40
0.187499999999958
40
0.187499999999958
40
0.218749999999952
40
0.218749999999952
40
0.249999999999945
40
0.249999999999945
40
0.281249999999938
40
0.281249999999938
40
0.312499999999931
40
0.312499999999931
40
0.343749999999924
40
0.343749999999924
40
0.374999999999918
40
0.374999999999918
40
0.437499999999924
40
0.437499999999924
40
0.468749999999928
40
0.468749999999928
40
0.499999999999931
40
0.499999999999931
40
0.562499999999936
40
0.562499999999936
40
0.624999999999942
40
0.624999999999942
40
0.656249999999945
40
0.656249999999945
40
0.687499999999948
40
0.749999999999953
40
0.749999999999953
40
0.874999999999977
40
0.874999999999977
40
0.937499999999988
40
0.937499999999988
40
1
40
1
40
1
40
1
41
1
10
24.3223075973511
20
-1.5007240822772
30
0
41
1
10
24.3528255322172
20
-1.49956429493273
30
0
41
1
10
24.3834082977858
20
-1.49785244833467
30
0
41
1
10
24.4293959595142
20
-1.49444224430331
30
0
41
1
10
24.4447457832347
20
-1.493171281305
30
0
41
1
10
24.4678051141727
20
-1.49106819468787
30
0
41
1
10
24.4754959917927
20
-1.49032941347031
30
0
41
1
10
24.4908774079118
20
-1.4887389153516
30
0
41
1
10
24.4985526456024
20
-1.48782786685791
30
0
41
1
10
24.5139902697491
20
-1.48622830754553
30
0
41
1
10
24.5218067160467
20
-1.48574850275134
30
0
41
1
10
24.5377459092462
20
-1.48588799978217
30
0
41
1
10
24.5458495889802
20
-1.48643375988297
30
0
41
1
10
24.5623066215661
20
-1.48843755558241
30
0
41
1
10
24.5706889698582
20
-1.48990891202888
30
0
41
1
10
24.5872663946597
20
-1.49366493970132
30
0
41
1
10
24.5955122660534
20
-1.49595422093651
30
0
41
1
10
24.6201275302443
20
-1.50391144594232
30
0
41
1
10
24.6363755500719
20
-1.51065833008334
30
0
41
1
10
24.6605032534731
20
-1.52265482227747
30
0
41
1
10
24.6685354011869
20
-1.5269882198746
30
0
41
1
10
24.6843180627364
20
-1.53614920465282
30
0
41
1
10
24.6920751915671
20
-1.54097893640878
30
0
41
1
10
24.7149859930603
20
-1.55612793117717
30
0
41
1
10
24.7297831302687
20
-1.56709900550905
30
0
41
1
10
24.7585547779078
20
-1.59050464619293
30
0
41
1
10
24.7725278962651
20
-1.60294207120549
30
0
41
1
10
24.7929025942827
20
-1.62261757174241
30
0
41
1
10
24.7996039562909
20
-1.62935560769381
30
0
41
1
10
24.8127030487976
20
-1.64302976367495
30
0
41
1
10
24.8319403460181
20
-1.66388100290348
30
0
41
1
10
24.8500346220977
20
-1.68567371416728
30
0
41
1
10
24.8848496263691
20
-1.73038474655874
30
0
41
1
10
24.906196368612
20
-1.76171962684225
30
0
41
1
10
24.935753368686
20
-1.81073041561859
30
0
41
1
10
24.945205551706
20
-1.82744426441883
30
0
41
1
10
24.9631443342119
20
-1.86138874125308
30
0
41
1
10
24.9716224262731
20
-1.87860654817482
30
0
41
1
10
24.9796213260612
20
-1.89606386875846
30
0
0
SPLINE
5
199
100
AcDbEntity
8
1
62
256
6
ByLayer
370
18
48
1
60
0
100
AcDbSpline
70
4
71
3
72
30
73
26
40
0
40
0
40
0
40
0
40
0.125000000000003
40
0.125000000000003
40
0.187500000000002
40
0.187500000000002
40
0.218750000000005
40
0.218750000000005
40
0.250000000000007
40
0.250000000000007
40
0.375000000000016
40
0.375000000000016
40
0.500000000000025
40
0.500000000000025
40
0.625000000000034
40
0.625000000000034
40
0.656250000000034
40
0.656250000000034
40
0.687500000000033
40
0.687500000000033
40
0.750000000000026
40
0.750000000000026
40
0.875000000000013
40
0.875000000000013
40
1
40
1
40
1
40
1
41
1
10
29.781293116887
20
-2.71064672808893
30
0
41
1
10
29.5799434440742
20
-2.76461575130676
30
0
41
1
10
29.3791841778885
20
-2.80748905350541
30
0
41
1
10
29.0775245744542
20
-2.85500806241259
30
0
41
1
10
28.9768849387901
20
-2.86804662443007
30
0
41
1
10
28.8256263437789
20
-2.88332581256975
30
0
41
1
10
28.7751943185639
20
-2.88769956905432
30
0
41
1
10
28.6745840665433
20
-2.89499939400696
30
0
41
1
10
28.6243599392903
20
-2.89793251773509
30
0
41
1
10
28.3735933766488
20
-2.90902217173686
30
0
41
1
10
28.1741469778865
20
-2.90638628237329
30
0
41
1
10
27.7759573369085
20
-2.8787921468118
30
0
41
1
10
27.5772378497979
20
-2.85375660227407
30
0
41
1
10
27.1788872515181
20
-2.78144859112129
30
0
41
1
10
26.9792666635855
20
-2.73417853555762
30
0
41
1
10
26.7280807128589
20
-2.66134367872999
30
0
41
1
10
26.6777595854
20
-2.64608971131517
30
0
41
1
10
26.5769187624344
20
-2.61421008391272
30
0
41
1
10
26.5265761408689
20
-2.59764022784643
30
0
41
1
10
26.3758159651101
20
-2.54611748583494
30
0
41
1
10
26.2756292309073
20
-2.50934206643026
30
0
41
1
10
25.9756676851513
20
-2.39209316426269
30
0
41
1
10
25.7764607952949
20
-2.30472009180571
30
0
41
1
10
25.3782449503728
20
-2.11291085802836
30
0
41
1
10
25.1792413655311
20
-2.00848544208441
30
0
41
1
10
24.9796213260612
20
-1.89606386875846
30
0
0
SPLINE
5
19A
100
AcDbEntity
8
1
62
256
6
ByLayer
370
18
48
1
60
0
100
AcDbSpline
70
4
71
3
72
8
73
4
40
0
40
0
40
0
40
0
40
1
40
1
40
1
40
1
41
1
10
29.7812931168869
20
-2.71064672808893
30
0
41
1
10
29.7762590283957
20
-2.70882386549974
30
0
41
1
10
29.7712162441536
20
-2.70698596346992
30
0
41
1
10
29.7661647389897
20
-2.70513297846583
30
0
0
SPLINE
5
19B
100
AcDbEntity
8
1
62
256
6
ByLayer
370
18
48
1
60
0
100
AcDbSpline
70
4
71
3
72
8
73
4
40
0
40
0
40
0
40
0
40
1
40
1
40
1
40
1
41
1
10
29.7661647389897
20
-2.70513297846577
30
0
41
1
10
29.78064321753
20
-2.69142232735561
30
0
41
1
10
29.7951190434569
20
-2.6777564261219
30
0
41
1
10
29.8095921683235
20
-2.66413609206634
30
0
0
SPLINE
5
19C
100
AcDbEntity
8
1
62
256
6
ByLayer
370
18
48
1
60
0
100
AcDbSpline
70
4
71
3
72
8
73
4
40
0
40
0
40
0
40
0
40
1
40
1
40
1
40
1
41
1
10
29.7740774924947
20
-2.5639157081273
30
0
41
1
10
29.7856875451918
20
-2.59794397807983
30
0
41
1
10
29.7975218533499
20
-2.6313614420155
30
0
41
1
10
29.8095921683235
20
-2.66413609206634
30
0
0
SPLINE
5
19D
100
AcDbEntity
8
1
62
256
6
ByLayer
370
13
48
1
60
0
100
AcDbSpline
70
4
71
3
72
16
73
12
40
0
40
0
40
0
40
0
40
0.112079798561548
40
0.247463364515596
40
0.382846930469645
40
0.518230496423694
40
0.653614062377743
40
0.788997628331791
40
0.890535302797328
40
0.992072977262864
40
1
40
1
40
1
40
1
41
1
10
29.7740774924408
20
-2.56391570809592
30
0
41
1
10
29.4118849949606
20
-2.64265176737746
30
0
41
1
10
28.6121924974804
20
-2.74303656239016
30
0
41
1
10
27.3750000000001
20
-2.63487866422949
30
0
41
1
10
26.0625000000001
20
-2.22388716979046
30
0
41
1
10
24.7500000000001
20
-1.56904331434637
30
0
41
1
10
23.4375000000001
20
-0.7322552105895
30
0
41
1
10
22.2343750000001
20
0.102898885586995
30
0
41
1
10
21.1406250000001
20
0.851665667111718
30
0
41
1
10
20.4587583572189
20
1.28142950832833
30
0
41
1
10
20.1050167144376
20
1.48585818502116
30
0
41
1
10
20.0794000716564
20
1.50056298689552
30
0
0
SPLINE
5
19E
100
AcDbEntity
8
1
62
256
6
ByLayer
370
18
48
1
60
0
100
AcDbSpline
70
4
71
3
72
20
73
16
40
0
40
0
40
0
40
0
40
0.148754179880496
40
0.148754179880496
40
0.223131269820744
40
0.223131269820744
40
0.297508359760992
40
0.297508359760992
40
0.595016719521985
40
0.595016719521985
40
0.743770899402481
40
0.743770899402481
40
0.892525079282977
40
0.892525079282977
40
1
40
1
40
1
40
1
41
1
10
18.3220403734487
20
2.43227328215042
30
0
41
1
10
18.2109785816934
20
2.4772951202888
30
0
41
1
10
18.0997414322602
20
2.51936195569746
30
0
41
1
10
17.9323072754335
20
2.57821193831811
30
0
41
1
10
17.8764023886084
20
2.59711129742703
30
0
41
1
10
17.7643740189328
20
2.63341267709433
30
0
41
1
10
17.7081751927192
20
2.65083505551942
30
0
41
1
10
17.4279002362691
20
2.7336450396981
30
0
41
1
10
17.2054256059037
20
2.78635142067876
30
0
41
1
10
16.8729062926231
20
2.84403818758366
30
0
41
1
10
16.7622280372588
20
2.85978545470368
30
0
41
1
10
16.5408377469266
20
2.88449818284153
30
0
41
1
10
16.4301518460383
20
2.89338172978981
30
0
41
1
10
16.2392917175834
20
2.90260298592102
30
0
41
1
10
16.159160832335
20
2.90467760222506
30
0
41
1
10
16.0788999966327
20
2.90497952779299
30
0
0
SPLINE
5
19F
100
AcDbEntity
8
1
62
256
6
ByLayer
370
18
48
1
60
0
100
AcDbSpline
70
4
71
3
72
43
73
39
40
0
40
0
40
0
40
0
40
0.124999999999986
40
0.124999999999986
40
0.187499999999979
40
0.187499999999979
40
0.218749999999976
40
0.218749999999976
40
0.249999999999972
40
0.249999999999972
40
0.281249999999969
40
0.281249999999969
40
0.312499999999965
40
0.312499999999965
40
0.343749999999962
40
0.343749999999962
40
0.374999999999958
40
0.374999999999958
40
0.437499999999951
40
0.437499999999951
40
0.468749999999947
40
0.468749999999947
40
0.499999999999944
40
0.499999999999944
40
0.562499999999956
40
0.562499999999956
40
0.624999999999967
40
0.624999999999967
40
0.656249999999973
40
0.656249999999973
40
0.687499999999979
40
0.749999999999992
40
0.749999999999992
40
0.875000000000002
40
0.875000000000002
40
0.937500000000001
40
0.937500000000001
40
1
40
1
40
1
40
1
41
1
10
18.3220403734453
20
2.43227328215192
30
0
41
1
10
18.3525725520422
20
2.40972553239595
30
0
41
1
10
18.3831683404282
20
2.38732619998302
30
0
41
1
10
18.4291725065939
20
2.35397212893105
30
0
41
1
10
18.4445272690118
20
2.3428965920624
30
0
41
1
10
18.4675932945991
20
2.32635175828091
30
0
41
1
10
18.4752862942734
20
2.32084688350756
30
0
41
1
10
18.4906716634577
20
2.30984816093604
30
0
41
1
10
18.4983489737332
20
2.30433925276927
30
0
41
1
10
18.5137880312636
20
2.29341791822091
30
0
41
1
10
18.5216037405705
20
2.28805955864647
30
0
41
1
10
18.5375440739201
20
2.27766098134231
30
0
41
1
10
18.5456490178796
20
2.27260103886556
30
0
41
1
10
18.5621098099879
20
2.26273779250206
30
0
41
1
10
18.570497298476
20
2.25791995831753
30
0
41
1
10
18.5870862842512
20
2.24876369603609
30
0
41
1
10
18.5953376655672
20
2.24439452365246
30
0
41
1
10
18.6199687526693
20
2.23182188349003
30
0
41
1
10
18.6362263928
20
2.2241476966748
30
0
41
1
10
18.6603674992118
20
2.21348709700794
30
0
41
1
10
18.6684040989588
20
2.21006471245602
30
0
41
1
10
18.6841961141735
20
2.20356616005458
30
0
41
1
10
18.6919574842567
20
2.20048695369451
30
0
41
1
10
18.7148799140022
20
2.19168308936821
30
0
41
1
10
18.7296833992902
20
2.18638588967988
30
0
41
1
10
18.7584659974312
20
2.17668256161912
30
0
41
1
10
18.7724437071197
20
2.17227884391036
30
0
41
1
10
18.7928244973848
20
2.16625681286644
30
0
41
1
10
18.799527310598
20
2.16434555595697
30
0
41
1
10
18.8126286285611
20
2.16073343793019
30
0
41
1
10
18.8318689094322
20
2.15561807485184
30
0
41
1
10
18.8499653390547
20
2.15131575931221
30
0
41
1
10
18.8847845554047
20
2.14363904698604
30
0
41
1
10
18.9061339050246
20
2.13978543954826
30
0
41
1
10
18.935695962571
20
2.13558530882244
30
0
41
1
10
18.9451501435902
20
2.13445496050099
30
0
41
1
10
18.9630914022364
20
2.13277745246009
30
0
41
1
10
18.9715709614495
20
2.1322325551975
30
0
41
1
10
18.9795715161912
20
2.13198026765102
30
0
0
SPLINE
5
1A0
100
AcDbEntity
8
1
62
256
6
ByLayer
370
18
48
1
60
0
100
AcDbSpline
70
4
71
3
72
14
73
10
40
0
40
0
40
0
40
0
40
0.25
40
0.25
40
0.5
40
0.5
40
0.75
40
0.75
40
1
40
1
40
1
40
1
41
1
10
24.3223075973512
20
-1.50072408227564
30
0
41
1
10
24.3330278972642
20
-1.55268714394808
30
0
41
1
10
24.341767436662
20
-1.60458841228066
30
0
41
1
10
24.3544499613644
20
-1.70863355521232
30
0
41
1
10
24.3583936456276
20
-1.76081214858169
30
0
41
1
10
24.3602722653017
20
-1.86578084880321
30
0
41
1
10
24.3582088128199
20
-1.91832162013586
30
0
41
1
10
24.3464661380555
20
-2.02389023933827
30
0
41
1
10
24.3368287631065
20
-2.07654226193264
30
0
41
1
10
24.3224307386953
20
-2.1293246383994
30
0
0
SPLINE
5
1A1
100
AcDbEntity
8
1
62
256
6
ByLayer
370
18
48
1
60
0
100
AcDbSpline
70
4
71
3
72
39
73
35
40
0
40
0
40
0
40
0
40
0.0625000000000032
40
0.0625000000000032
40
0.125000000000006
40
0.125000000000006
40
0.25000000000001
40
0.25000000000001
40
0.312500000000012
40
0.312500000000012
40
0.375000000000014
40
0.375000000000014
40
0.406250000000014
40
0.406250000000014
40
0.437500000000013
40
0.437500000000013
40
0.50000000000001
40
0.50000000000001
40
0.625000000000004
40
0.625000000000004
40
0.687500000000001
40
0.687500000000001
40
0.749999999999998
40
0.749999999999998
40
0.812499999999995
40
0.812499999999995
40
0.828124999999996
40
0.828124999999996
40
0.843749999999996
40
0.874999999999997
40
0.874999999999997
40
0.937499999999998
40
0.937499999999998
40
1
40
1
40
1
40
1
41
1
10
24.3223075973527
20
-1.50072408227661
30
0
41
1
10
24.2101985138005
20
-1.42928871356199
30
0
41
1
10
24.0985636854528
20
-1.35625792344828
30
0
41
1
10
23.8759243725438
20
-1.20740600842166
30
0
41
1
10
23.7649271308723
20
-1.13156810906329
30
0
41
1
10
23.4322497208255
20
-0.900782955187083
30
0
41
1
10
23.2108023014905
20
-0.742703408187481
30
0
41
1
10
22.8778613425674
20
-0.500797131279796
30
0
41
1
10
22.766757838838
20
-0.419354718095661
30
0
41
1
10
22.5440558720727
20
-0.255141194795414
30
0
41
1
10
22.4324464130979
20
-0.17239458941242
30
0
41
1
10
22.2643894429332
20
-0.0477146626633669
30
0
41
1
10
22.2082180018419
20
-0.006021017744132
30
0
41
1
10
22.0958414313578
20
0.0773711417317315
30
0
41
1
10
22.0397710080066
20
0.118969648403578
30
0
41
1
10
21.8718679682784
20
0.243413177271179
30
0
41
1
10
21.7603433636427
20
0.325906994061142
30
0
41
1
10
21.4266079402806
20
0.571458805474236
30
0
41
1
10
21.2052417189154
20
0.732601781363485
30
0
41
1
10
20.8731128669087
20
0.968054750407816
30
0
41
1
10
20.7624109306146
20
1.0454908332656
30
0
41
1
10
20.5405565092364
20
1.19781169469752
30
0
41
1
10
20.4293997541356
20
1.27270274396042
30
0
41
1
10
20.2063640883712
20
1.41957128492575
30
0
41
1
10
20.0944841604119
20
1.49154139652535
30
0
41
1
10
19.9540438546269
20
1.57945130337796
30
0
41
1
10
19.9259216927151
20
1.59693360874215
30
0
41
1
10
19.8697788817807
20
1.63158724443102
30
0
41
1
10
19.7856565245264
20
1.68313908136071
30
0
41
1
10
19.7017978706893
20
1.7333882360542
30
0
41
1
10
19.5343966170489
20
1.83209013976199
30
0
41
1
10
19.4232275713046
20
1.89548043668958
30
0
41
1
10
19.2012172469879
20
2.0174252610544
30
0
41
1
10
19.0903755856755
20
2.07599171519752
30
0
41
1
10
18.9795715161937
20
2.13198026764684
30
0
0
SPLINE
5
1A2
100
AcDbEntity
8
1
62
256
6
ByLayer
370
18
48
1
60
0
100
AcDbSpline
70
4
71
3
72
12
73
8
40
0
40
0
40
0
40
0
40
0.499999999999999
40
0.499999999999999
40
0.75
40
0.75
40
1
40
1
40
1
40
1
41
1
10
18.9646670341437
20
1.75215706552714
30
0
41
1
10
18.9597098917872
20
1.81605399321032
30
0
41
1
10
18.9580518267432
20
1.87933949879172
30
0
41
1
10
18.9618509633739
20
1.97413513736748
30
0
41
1
10
18.9641399135619
20
2.0056642066414
30
0
41
1
10
18.9705799023285
20
2.0687531109393
30
0
41
1
10
18.9747288551641
20
2.1003158443354
30
0
41
1
10
18.979571516184
20
2.13198026764471
30
0
0
SPLINE
5
1A3
100
AcDbEntity
8
1
62
256
6
ByLayer
370
18
48
1
60
0
100
AcDbSpline
70
4
71
3
72
8
73
4
40
0
40
0
40
0
40
0
40
1
40
1
40
1
40
1
41
1
10
18.9646670341412
20
1.75215706552621
30
0
41
1
10
18.9675775358341
20
1.71464107431766
30
0
41
1
10
18.971588490854
20
1.67695614527082
30
0
41
1
10
18.976372061749
20
1.63906340989149
30
0
0
SPLINE
5
1A4
100
AcDbEntity
8
1
62
256
6
ByLayer
370
18
48
1
60
0
100
AcDbSpline
70
4
71
3
72
14
73
10
40
0
40
0
40
0
40
0
40
0.250000000000001
40
0.250000000000001
40
0.5
40
0.5
40
0.75
40
0.75
40
1
40
1
40
1
40
1
41
1
10
14.7232733573991
20
-1.84420618209256
30
0
41
1
10
14.7340637304164
20
-1.89119429650535
30
0
41
1
10
14.7428513840768
20
-1.93805895460298
30
0
41
1
10
14.7556041601244
20
-2.03195456486725
30
0
41
1
10
14.7595708577537
20
-2.07901335606436
30
0
41
1
10
14.7615115302002
20
-2.17375582338826
30
0
41
1
10
14.7594851969498
20
-2.22120711560163
30
0
41
1
10
14.7478936868033
20
-2.31679038542805
30
0
41
1
10
14.738367253737
20
-2.36458737002178
30
0
41
1
10
14.7241758808362
20
-2.41274347046809
30
0
0
SPLINE
5
1A5
100
AcDbEntity
8
1
62
256
6
ByLayer
370
18
48
1
60
0
100
AcDbSpline
70
4
71
3
72
14
73
10
40
0
40
0
40
0
40
0
40
0.25
40
0.25
40
0.5
40
0.5
40
0.75
40
0.75
40
1
40
1
40
1
40
1
41
1
10
9.36566641777407
20
1.25383742133025
30
0
41
1
10
9.3631477381557
20
1.29226289884554
30
0
41
1
10
9.36144316298709
20
1.33057448901076
30
0
41
1
10
9.35998380333254
20
1.40705891648199
30
0
41
1
10
9.3602329548506
20
1.44523218732715
30
0
41
1
10
9.36280918931055
20
1.52156346931551
30
0
41
1
10
9.36513590695739
20
1.55965609444902
30
0
41
1
10
9.37167067578795
20
1.63583504558451
30
0
41
1
10
9.37587635237225
20
1.67392385219674
30
0
41
1
10
9.38077511346287
20
1.7120829582187
30
0
0
SPLINE
5
1A6
100
AcDbEntity
8
1
62
256
6
ByLayer
370
18
48
1
60
0
100
AcDbSpline
70
4
71
3
72
8
73
4
40
0
40
0
40
0
40
0
40
1
40
1
40
1
40
1
41
1
10
9.36566641777407
20
1.25383742133025
30
0
41
1
10
9.36847761737863
20
1.21094920176804
30
0
41
1
10
9.37229805102439
20
1.16795681306587
30
0
41
1
10
9.37683668785894
20
1.12483388143107
30
0
0
SPLINE
5
1A7
100
AcDbEntity
8
1
62
256
6
ByLayer
370
18
48
1
60
0
100
AcDbSpline
70
4
71
3
72
8
73
4
40
0
40
0
40
0
40
0
40
1
40
1
40
1
40
1
41
1
10
21.5696616252244
20
-2.01228837030453
30
0
41
1
10
21.5065997825799
20
-2.04488930330234
30
0
41
1
10
21.4436660170419
20
-2.07670152756793
30
0
41
1
10
21.3808401964379
20
-2.10770805986996
30
0
0
SPLINE
5
1A8
100
AcDbEntity
8
1
62
256
6
ByLayer
370
13
48
1
60
0
100
AcDbSpline
70
4
71
3
72
18
73
14
40
0
40
0
40
0
40
0
40
0.0497495870848131
40
0.113542391735226
40
0.177335196385638
40
0.241128001036051
40
0.33681720801167
40
0.432506414987289
40
0.560092024288114
40
0.687677633588939
40
0.815263242889764
40
0.942848852190589
40
1
40
1
40
1
40
1
41
1
10
20.0117844669682
20
-2.5117638556039
30
0
41
1
10
19.8411896446455
20
-2.55328044574531
30
0
41
1
10
19.4518448223228
20
-2.63273824860656
30
0
41
1
10
18.8437500000001
20
-2.70049852087817
30
0
41
1
10
18.1875000000001
20
-2.70288948761368
30
0
41
1
10
17.4218750000001
20
-2.62329339953121
30
0
41
1
10
16.5468750000001
20
-2.41745293962421
30
0
41
1
10
15.4531250000001
20
-2.0023305465001
30
0
41
1
10
14.2500000000001
20
-1.37446417279682
30
0
41
1
10
12.9375000000001
20
-0.546890039790924
30
0
41
1
10
11.6250000000001
20
0.337517105030656
30
0
41
1
10
10.5540247069898
20
1.03072593817939
30
0
41
1
10
9.92054941397964
20
1.39797796905688
30
0
41
1
10
9.72457412096944
20
1.50631346501572
30
0
0
SPLINE
5
1A9
100
AcDbEntity
8
1
62
256
6
ByLayer
370
18
48
1
60
0
100
AcDbSpline
70
4
71
3
72
22
73
18
40
0
40
0
40
0
40
0
40
0.124999999999996
40
0.124999999999996
40
0.187499999999995
40
0.187499999999995
40
0.249999999999994
40
0.249999999999994
40
0.374999999999992
40
0.374999999999992
40
0.499999999999989
40
0.499999999999989
40
0.624999999999987
40
0.624999999999987
40
0.749999999999985
40
0.749999999999985
40
1
40
1
40
1
40
1
41
1
10
9.00000000000009
20
1.88990346734636
30
0
41
1
10
9.02109363661125
20
1.87839220351665
30
0
41
1
10
9.04162747252832
20
1.86771492545543
30
0
41
1
10
9.07171662928738
20
1.85254444075883
30
0
41
1
10
9.08162512399213
20
1.84763313314826
30
0
41
1
10
9.10120876186531
20
1.83805989951122
30
0
41
1
10
9.11092057352971
20
1.83337958839547
30
0
41
1
10
9.13945978473217
20
1.81977535214881
30
0
41
1
10
9.1575949338505
20
1.81132689087042
30
0
41
1
10
9.19237007616687
20
1.79534008387202
30
0
41
1
10
9.20899644283571
20
1.78781332888258
30
0
41
1
10
9.24092024334857
20
1.77347692806074
30
0
41
1
10
9.25628115461063
20
1.76663831734078
30
0
41
1
10
9.2852591923326
20
1.75380108126259
30
0
41
1
10
9.29892571376445
20
1.74778115224359
30
0
41
1
10
9.33774700134992
20
1.73072621049479
30
0
41
1
10
9.36072651204924
20
1.72068902711317
30
0
41
1
10
9.38077511346287
20
1.7120829582187
30
0
0
SPLINE
5
1AA
100
AcDbEntity
8
1
62
256
6
ByLayer
370
18
48
1
60
0
100
AcDbSpline
70
4
71
3
72
40
73
36
40
0
40
0
40
0
40
0
40
0.0312499999999987
40
0.0312499999999987
40
0.0624999999999974
40
0.0624999999999974
40
0.124999999999997
40
0.124999999999997
40
0.187499999999997
40
0.187499999999997
40
0.249999999999997
40
0.249999999999997
40
0.374999999999994
40
0.374999999999994
40
0.437499999999991
40
0.437499999999991
40
0.468749999999991
40
0.468749999999991
40
0.499999999999991
40
0.499999999999991
40
0.624999999999993
40
0.624999999999993
40
0.687499999999996
40
0.687499999999996
40
0.749999999999998
40
0.749999999999998
40
0.812500000000001
40
0.812500000000001
40
0.875000000000003
40
0.875000000000003
40
0.906250000000003
40
0.906250000000003
40
0.937500000000003
40
0.937500000000003
40
1
40
1
40
1
40
1
41
1
10
14.7232733574014
20
-1.84420618209381
30
0
41
1
10
14.6672101969439
20
-1.81316798266317
30
0
41
1
10
14.6110362264595
20
-1.78156577672729
30
0
41
1
10
14.4990394195958
20
-1.7175661092607
30
0
41
1
10
14.4431429058841
20
-1.68512710120982
30
0
41
1
10
14.2757124614157
20
-1.58655125041318
30
0
41
1
10
14.1644340092079
20
-1.51916113663469
30
0
41
1
10
13.942349446762
20
-1.38128443359369
30
0
41
1
10
13.8315602835533
20
-1.31075823643007
30
0
41
1
10
13.6101531220216
20
-1.16706245738644
30
0
41
1
10
13.4995088180142
20
-1.09396085722275
30
0
41
1
10
13.1674221666798
20
-0.871316256978531
30
0
41
1
10
12.9458856078593
20
-0.7182817611654
30
0
41
1
10
12.6119295303726
20
-0.483392662523812
30
0
41
1
10
12.5003436461662
20
-0.404175524765293
30
0
41
1
10
12.3323095016932
20
-0.284424235911729
30
0
41
1
10
12.2761278206996
20
-0.244314265383395
30
0
41
1
10
12.1640587942607
20
-0.164214137735087
30
0
41
1
10
12.1081225212915
20
-0.124187836086406
30
0
41
1
10
11.8288795135271
20
0.0757412024540827
30
0
41
1
10
11.6068732985552
20
0.235019484563821
30
0
41
1
10
11.274570882899
20
0.470957412727699
30
0
41
1
10
11.1639228912895
20
0.549110356812776
30
0
41
1
10
10.94257832635
20
0.70406152066127
30
0
41
1
10
10.8318878556106
20
0.780864815023904
30
0
41
1
10
10.6102251876418
20
0.932772978070318
30
0
41
1
10
10.4992442834614
20
1.00787180732826
30
0
41
1
10
10.2766894277155
20
1.15598206415552
30
0
41
1
10
10.1651204156916
20
1.22899595271406
30
0
41
1
10
9.99715639297708
20
1.33668756240937
30
0
41
1
10
9.94101240964633
20
1.3723132493526
30
0
41
1
10
9.82881535251025
20
1.442700011217
30
0
41
1
10
9.77276185994108
20
1.47746219859266
30
0
41
1
10
9.60468461933425
20
1.58039697008826
30
0
41
1
10
9.49274578291997
20
1.64721563048011
30
0
41
1
10
9.38077511346287
20
1.7120829582187
30
0
0
SPLINE
5
1AB
100
AcDbEntity
8
1
62
256
6
ByLayer
370
18
48
1
60
0
100
AcDbSpline
70
4
71
3
72
38
73
34
40
0
40
0
40
0
40
0
40
0.124999999999976
40
0.124999999999976
40
0.187499999999973
40
0.187499999999973
40
0.218749999999973
40
0.218749999999973
40
0.249999999999972
40
0.249999999999972
40
0.281249999999971
40
0.281249999999971
40
0.31249999999997
40
0.31249999999997
40
0.343749999999969
40
0.343749999999969
40
0.374999999999968
40
0.374999999999968
40
0.437499999999966
40
0.437499999999966
40
0.468749999999965
40
0.468749999999965
40
0.499999999999964
40
0.499999999999964
40
0.562499999999962
40
0.562499999999962
40
0.624999999999961
40
0.624999999999961
40
0.749999999999974
40
0.749999999999974
40
0.874999999999987
40
0.874999999999987
40
1
40
1
40
1
40
1
41
1
10
14.7232733573991
20
-1.84420618209461
30
0
41
1
10
14.7537771777803
20
-1.8389835699175
30
0
41
1
10
14.7843358133665
20
-1.83325776936451
30
0
41
1
10
14.8302699645741
20
-1.82390638195309
30
0
41
1
10
14.8455995174245
20
-1.82066967365665
30
0
41
1
10
14.8686233290291
20
-1.81563617049142
30
0
41
1
10
14.8763013499193
20
-1.81392324656798
30
0
41
1
10
14.891654271596
20
-1.81038923723869
30
0
41
1
10
14.8993112502599
20
-1.80850221552788
30
0
41
1
10
14.9147299482213
20
-1.80501362299864
30
0
41
1
10
14.9225506549693
20
-1.8036283931157
30
0
41
1
10
14.9385154582056
20
-1.80197075545183
30
0
41
1
10
14.9466414918659
20
-1.8016321753145
30
0
41
1
10
14.9631647335198
20
-1.80190358076291
30
0
41
1
10
14.9715209710584
20
-1.80252018450764
30
0
41
1
10
14.9880775119243
20
-1.80463301864157
30
0
41
1
10
14.9963267073138
20
-1.80613010067705
30
0
41
1
10
15.0209878975887
20
-1.81179807284011
30
0
41
1
10
15.0373141234816
20
-1.81713503626349
30
0
41
1
10
15.0616187841757
20
-1.82719579984777
30
0
41
1
10
15.0696697945752
20
-1.83089010411354
30
0
41
1
10
15.085455366712
20
-1.83880866488667
30
0
41
1
10
15.0932219127803
20
-1.84304752875505
30
0
41
1
10
15.1161807964642
20
-1.8565051070081
30
0
41
1
10
15.1310357306353
20
-1.8664567845444
30
0
41
1
10
15.1599576420986
20
-1.88801551302402
30
0
41
1
10
15.1740701275963
20
-1.89966888477025
30
0
41
1
10
15.2149547988611
20
-1.93665396796155
30
0
41
1
10
15.2399487798832
20
-1.96358205933882
30
0
41
1
10
15.2863972426375
20
-2.020910131867
30
0
41
1
10
15.3077915857313
20
-2.05137380619286
30
0
41
1
10
15.3473092178298
20
-2.1154861516645
30
0
41
1
10
15.3651403497597
20
-2.14877676278323
30
0
41
1
10
15.3810262121661
20
-2.18321539248876
30
0
0
SPLINE
5
1AC
100
AcDbEntity
8
1
62
256
6
ByLayer
370
18
48
1
60
0
100
AcDbSpline
70
4
71
3
72
34
73
30
40
0
40
0
40
0
40
0
40
0.0139802729597744
40
0.0139802729597744
40
0.084410253462648
40
0.084410253462648
40
0.154840233965521
40
0.154840233965521
40
0.225270214468395
40
0.225270214468395
40
0.295700194971268
40
0.295700194971268
40
0.366130175474142
40
0.366130175474142
40
0.436560155977015
40
0.436560155977015
40
0.577420116982759
40
0.577420116982759
40
0.647850097485633
40
0.647850097485633
40
0.683065087737069
40
0.683065087737069
40
0.718280077988506
40
0.718280077988506
40
0.78871005849138
40
0.78871005849138
40
0.859140038994253
40
0.859140038994253
40
1
40
1
40
1
40
1
41
1
10
20.1244601545504
20
-2.61731837760289
30
0
41
1
10
20.1024151862393
20
-2.62418585768748
30
0
41
1
10
20.0803629153419
20
-2.63093922891977
30
0
41
1
10
19.9471668377834
20
-2.67101847955303
30
0
41
1
10
19.835834703286
20
-2.70154672768189
30
0
41
1
10
19.6125930782228
20
-2.75644518334968
30
0
41
1
10
19.5006922420782
20
-2.78076036164151
30
0
41
1
10
19.2759752285676
20
-2.82315180620117
30
0
41
1
10
19.1640011099254
20
-2.84114329913598
30
0
41
1
10
18.9406501665541
20
-2.87070227285366
30
0
41
1
10
18.8292716786489
20
-2.88224809296571
30
0
41
1
10
18.6069327470125
20
-2.89873291786162
30
0
41
1
10
18.4959760540756
20
-2.90367349912489
30
0
41
1
10
18.2742943828619
20
-2.90671307705688
30
0
41
1
10
18.1635753550967
20
-2.90475886266157
30
0
41
1
10
17.8310680392046
20
-2.88957309426937
30
0
41
1
10
17.6089569440311
20
-2.86715814337507
30
0
41
1
10
17.2740101851143
20
-2.81373415193755
30
0
41
1
10
17.1620603093812
20
-2.79263135717395
30
0
41
1
10
16.9934966447238
20
-2.75581275303682
30
0
41
1
10
16.9373562651374
20
-2.74271750980006
30
0
41
1
10
16.8253501198824
20
-2.71502412364805
30
0
41
1
10
16.769445892088
20
-2.70041997388191
30
0
41
1
10
16.6019583360254
20
-2.65444030095648
30
0
41
1
10
16.4906118037769
20
-2.62086606159437
30
0
41
1
10
16.2683638342349
20
-2.54787459548797
30
0
41
1
10
16.1574412341388
20
-2.50851772499593
30
0
41
1
10
15.824766112368
20
-2.38270010761454
30
0
41
1
10
15.6032079051322
20
-2.2882195262618
30
0
41
1
10
15.3810262121661
20
-2.18321539248876
30
0
0
SPLINE
5
1AD
100
AcDbEntity
8
1
62
256
6
ByLayer
370
18
48
1
60
0
100
AcDbSpline
70
4
71
3
72
8
73
4
40
0
40
0
40
0
40
0
40
1
40
1
40
1
40
1
41
1
10
29.7823925787676
20
-1.67821190272287
30
0
41
1
10
29.7774170907591
20
-1.67063509718346
30
0
41
1
10
29.7724335976266
20
-1.66306439578639
30
0
41
1
10
29.7674420778953
20
-1.6554998149073
30
0
0
SPLINE
5
1AE
100
AcDbEntity
8
1
62
256
6
ByLayer
370
18
48
1
60
0
100
AcDbSpline
70
4
71
3
72
8
73
4
40
0
40
0
40
0
40
0
40
1
40
1
40
1
40
1
41
1
10
29.7674420778992
20
-1.65549981491526
30
0
41
1
10
29.7826021875817
20
-1.64868836035799
30
0
41
1
10
29.7977548112004
20
-1.64169968631148
30
0
41
1
10
29.8128998202339
20
-1.63453075025896
30
0
0
SPLINE
5
1AF
100
AcDbEntity
8
1
62
256
6
ByLayer
370
18
48
1
60
0
100
AcDbSpline
70
4
71
3
72
8
73
4
40
0
40
0
40
0
40
0
40
1
40
1
40
1
40
1
41
1
10
29.7782154298862
20
-1.45415672906086
30
0
41
1
10
29.7895715523428
20
-1.51413090378261
30
0
41
1
10
29.8011297372487
20
-1.57425317650919
30
0
41
1
10
29.812899820234
20
-1.63453075025896
30
0
0
SPLINE
5
1B0
100
AcDbEntity
8
1
62
256
6
ByLayer
370
13
48
1
60
0
100
AcDbSpline
70
4
71
3
72
11
73
7
40
0
40
0
40
0
40
0
40
0.228324475384619
40
0.503076134126571
40
0.777827792868523
40
1
40
1
40
1
40
1
41
1
10
29.7782154312171
20
-1.45415672746171
30
0
41
1
10
29.4146436208115
20
-1.25374958658227
30
0
41
1
10
28.6135718104058
20
-0.774627930223119
30
0
41
1
10
27.3750000000001
20
0.0369891800453672
30
0
41
1
10
26.1462247359486
20
0.839345741207325
30
0
41
1
10
25.3549494718972
20
1.30666013140021
30
0
41
1
10
25.0011742078457
20
1.49911168410006
30
0
0
SPLINE
5
1B1
100
AcDbEntity
8
1
62
256
6
ByLayer
370
18
48
1
60
0
100
AcDbSpline
70
4
71
3
72
8
73
4
40
0
40
0
40
0
40
0
40
1
40
1
40
1
40
1
41
1
10
9.15068135420907
20
-2.74732715651649
30
0
41
1
10
9.10050710483102
20
-2.7587976927405
30
0
41
1
10
9.05028368928384
20
-2.76966957070894
30
0
41
1
10
9.00000000000006
20
-2.77993642137008
30
0
0
SPLINE
5
1B2
100
AcDbEntity
8
1
62
256
6
ByLayer
370
18
48
1
60
0
100
AcDbSpline
70
4
71
3
72
14
73
10
40
0
40
0
40
0
40
0
40
0.25
40
0.25
40
0.5
40
0.5
40
0.75
40
0.75
40
1
40
1
40
1
40
1
41
1
10
23.7664499557977
20
1.77867779340292
30
0
41
1
10
23.763846815682
20
1.81065512727199
30
0
41
1
10
23.7620604401259
20
1.84248595790277
30
0
41
1
10
23.7604495317457
20
1.90596281900733
30
0
41
1
10
23.760628984524
20
1.93760937092594
30
0
41
1
10
23.763082218059
20
2.00086994954168
30
0
41
1
10
23.7653557643347
20
2.0324301028372
30
0
41
1
10
23.7718011370936
20
2.09558108486525
30
0
41
1
10
23.775970486343
20
2.12717457948412
30
0
41
1
10
23.7808401809177
20
2.15886866285226
30
0
0
SPLINE
5
1B3
100
AcDbEntity
8
1
62
256
6
ByLayer
370
18
48
1
60
0
100
AcDbSpline
70
4
71
3
72
8
73
4
40
0
40
0
40
0
40
0
40
1
40
1
40
1
40
1
41
1
10
23.7664499557925
20
1.77867779340099
30
0
41
1
10
23.7692880420024
20
1.74381435028701
30
0
41
1
10
23.7730920621727
20
1.70880643366121
30
0
41
1
10
23.7775858451122
20
1.67362295377174
30
0
0
SPLINE
5
1B4
100
AcDbEntity
8
1
62
256
6
ByLayer
370
18
48
1
60
0
100
AcDbSpline
70
4
71
3
72
20
73
16
40
0
40
0
40
0
40
0
40
0.0247369055768358
40
0.0805900633397803
40
0.136443221102725
40
0.248149536628614
40
0.359855852154503
40
0.415709009917448
40
0.471562167680392
40
0.583268483206281
40
0.69497479873217
40
0.750827956495115
40
0.806681114258059
40
0.918387429783948
40
1
40
1
40
1
40
1
41
1
10
23.7775858451159
20
1.67362295376947
30
0
41
1
10
23.8231115872091
20
1.64617662891499
30
0
41
1
10
23.9715455417963
20
1.55570045498595
30
0
41
1
10
24.2235590938532
20
1.39688376437874
30
0
41
1
10
24.6381575881035
20
1.12508050278586
30
0
41
1
10
25.1606829016761
20
0.765324146640438
30
0
41
1
10
25.690829246978
20
0.385255188212
30
0
41
1
10
26.1210162649425
20
0.0732290688618491
30
0
41
1
10
26.5557592332923
20
-0.24276456869697
30
0
41
1
10
27.108667479327
20
-0.642312682578961
30
0
41
1
10
27.6772597428018
20
-1.03871631053067
30
0
41
1
10
28.1435043844345
20
-1.34776318558212
30
0
41
1
10
28.6179790128472
20
-1.64941025563016
30
0
41
1
10
29.1623673325472
20
-1.96863293892162
30
0
41
1
10
29.6013151814698
20
-2.19225465810959
30
0
41
1
10
29.7899514004446
20
-2.2812495528411
30
0
0
SPLINE
5
1B5
100
AcDbEntity
8
1
62
256
6
ByLayer
370
18
48
1
60
0
100
AcDbSpline
70
4
71
3
72
8
73
4
40
0
40
0
40
0
40
0
40
1
40
1
40
1
40
1
41
1
10
29.7899514004203
20
-2.28124955302693
30
0
41
1
10
29.8216221929186
20
-2.27921359586699
30
0
41
1
10
29.8533255683797
20
-2.27734176397183
30
0
41
1
10
29.88506060411
20
-2.27562940898812
30
0
0
SPLINE
5
1B6
100
AcDbEntity
8
1
62
256
6
ByLayer
370
18
48
1
60
0
100
AcDbSpline
70
4
71
3
72
8
73
4
40
0
40
0
40
0
40
0
40
1
40
1
40
1
40
1
41
1
10
29.8206006981872
20
-2.00772594186611
30
0
41
1
10
29.8403110981154
20
-2.09837796834322
30
0
41
1
10
29.8616654147453
20
-2.18782102313978
30
0
41
1
10
29.8850606041011
20
-2.27562940898909
30
0
0
SPLINE
5
1B7
100
AcDbEntity
8
1
62
256
6
ByLayer
370
18
48
1
60
0
100
AcDbSpline
70
4
71
3
72
8
73
4
40
0
40
0
40
0
40
0
40
1
40
1
40
1
40
1
41
1
10
29.7823925787659
20
-1.67821190272386
30
0
41
1
10
29.796290440223
20
-1.78864823323582
30
0
41
1
10
29.8089331729024
20
-1.89844007036149
30
0
41
1
10
29.8206006981872
20
-2.00772594186611
30
0
0
SPLINE
5
1B8
100
AcDbEntity
8
1
62
256
6
ByLayer
370
18
48
1
60
0
100
AcDbSpline
70
4
71
3
72
36
73
32
40
0
40
0
40
0
40
0
40
0.124999999999984
40
0.124999999999984
40
0.156249999999982
40
0.156249999999982
40
0.187499999999981
40
0.187499999999981
40
0.249999999999982
40
0.249999999999982
40
0.312499999999983
40
0.312499999999983
40
0.343749999999982
40
0.343749999999982
40
0.37499999999998
40
0.37499999999998
40
0.499999999999983
40
0.499999999999983
40
0.624999999999985
40
0.624999999999985
40
0.749999999999988
40
0.749999999999988
40
0.781249999999989
40
0.781249999999989
40
0.812499999999989
40
0.812499999999989
40
0.874999999999993
40
0.874999999999993
40
0.937499999999996
40
0.937499999999996
40
1
40
1
40
1
40
1
41
1
10
29.782392578766
20
-1.67821190272386
30
0
41
1
10
29.5309678287173
20
-1.53418363930038
30
0
41
1
10
29.2803930532891
20
-1.38082495206433
30
0
41
1
10
28.9662935274076
20
-1.180123413361
30
0
41
1
10
28.9034300786201
20
-1.13953086645839
30
0
41
1
10
28.7775683918387
20
-1.05750259856987
30
0
41
1
10
28.7146278278601
20
-1.01610441317763
30
0
41
1
10
28.526045097268
20
-0.891083065089504
30
0
41
1
10
28.4005054172645
20
-0.806547944787894
30
0
41
1
10
28.1494902054447
20
-0.635513193609967
30
0
41
1
10
28.0240205988218
20
-0.549000115959473
30
0
41
1
10
27.8356135952052
20
-0.418092719069847
30
0
41
1
10
27.7727766446816
20
-0.374269039912917
30
0
41
1
10
27.6469872274156
20
-0.286310559101423
30
0
41
1
10
27.5839874191198
20
-0.242141926424608
30
0
41
1
10
27.2698925120827
20
-0.0215966183015723
30
0
41
1
10
27.0206003089281
20
0.154475321337401
30
0
41
1
10
26.5233601660813
20
0.502233331917893
30
0
41
1
10
26.2754410972815
20
0.673935317055538
30
0
41
1
10
25.7780362830729
20
1.00888475130407
30
0
41
1
10
25.5285853309335
20
1.17219517552258
30
0
41
1
10
25.2142578291885
20
1.36880957985051
30
0
41
1
10
25.1512383354161
20
1.40776810499909
30
0
41
1
10
25.0256382359787
20
1.48441300485359
30
0
41
1
10
24.9629667259162
20
1.52215676376011
30
0
41
1
10
24.7752684089703
20
1.63358556312991
30
0
41
1
10
24.6505537952852
20
1.70546478464431
30
0
41
1
10
24.4016356876894
20
1.84408295327637
30
0
41
1
10
24.2774298658328
20
1.91082458985929
30
0
41
1
10
24.0291184217725
20
2.03896254186429
30
0
41
1
10
23.905024215958
20
2.10035099021297
30
0
41
1
10
23.7808401809177
20
2.15886866285226
30
0
0
SPLINE
5
1B9
100
AcDbEntity
8
1
62
256
6
ByLayer
370
18
48
1
60
0
100
AcDbSpline
70
4
71
3
72
11
73
7
40
0
40
0
40
0
40
0
40
0.236224296207286
40
0.572302809536455
40
0.908381322865624
40
1
40
1
40
1
40
1
41
1
10
8.99937146694759
20
-2.69081084562154
30
0
41
1
10
9.07266925428007
20
-2.71306586311465
30
0
41
1
10
9.25018405175254
20
-2.76420502598327
30
0
41
1
10
9.53171172234357
20
-2.8344740819598
30
0
41
1
10
9.76820504070224
20
-2.88253959133863
30
0
41
1
10
9.90056433502156
20
-2.90547739890457
30
0
41
1
10
9.92891434420073
20
-2.91020559566098
30
0
0
SPLINE
5
1BA
100
AcDbEntity
8
1
62
256
6
ByLayer
370
18
48
1
60
0
100
AcDbSpline
70
4
71
3
72
16
73
12
40
0
40
0
40
0
40
0
40
0.0439288470508379
40
0.135536003716089
40
0.22714316038134
40
0.318750317046592
40
0.501964630377094
40
0.685178943707596
40
0.776786100372847
40
0.868393257038098
40
1
40
1
40
1
40
1
41
1
10
19.7629294268449
20
2.99958579959079
30
0
41
1
10
19.812956838559
20
2.99933998871052
30
0
41
1
10
19.9671901450783
20
2.99654279611454
30
0
41
1
10
20.2250225570743
20
2.98139348305725
30
0
41
1
10
20.5358764205605
20
2.94628632909692
30
0
41
1
10
20.9485850463929
20
2.8775489578039
30
0
41
1
10
21.4614137288367
20
2.75152478113262
30
0
41
1
10
21.9718495222904
20
2.57577778372658
30
0
41
1
10
22.3797285599214
20
2.40761281776273
30
0
41
1
10
22.7301780008382
20
2.247989264144
30
0
41
1
10
22.9788954456218
20
2.1223139439345
30
0
41
1
10
23.1257345387942
20
2.04422996195876
30
0
0
SPLINE
5
1BB
100
AcDbEntity
8
1
62
256
6
ByLayer
370
18
48
1
60
0
100
AcDbSpline
70
4
71
3
72
15
73
11
40
0
40
0
40
0
40
0
40
0.151852547540764
40
0.264144529596753
40
0.376436511652741
40
0.48872849370873
40
0.601020475764719
40
0.825604439876696
40
0.937896421932685
40
1
40
1
40
1
40
1
41
1
10
15.3772084589357
20
-2.66736007797152
30
0
41
1
10
15.5198703122335
20
-2.71561402576634
30
0
41
1
10
15.7682969878867
20
-2.79101374133225
30
0
41
1
10
16.122844136768
20
-2.8762232938756
30
0
41
1
10
16.4404393307383
20
-2.93497054840995
30
0
41
1
10
16.758259954055
20
-2.97566536290034
30
0
41
1
10
17.1822066401743
20
-3.00549225219154
30
0
41
1
10
17.6062262409804
20
-2.99832642357799
30
0
41
1
10
17.9823963687324
20
-2.95959313872547
30
0
41
1
10
18.1466528605547
20
-2.93539142981794
30
0
41
1
10
18.2051210024283
20
-2.92585963293891
30
0
0
SPLINE
5
1BC
100
AcDbEntity
8
1
62
256
6
ByLayer
370
18
48
1
60
0
100
AcDbSpline
70
4
71
3
72
14
73
10
40
0
40
0
40
0
40
0
40
0.25
40
0.25
40
0.5
40
0.5
40
0.75
40
0.75
40
1
40
1
40
1
40
1
41
1
10
23.124850832657
20
2.43950290224726
30
0
41
1
10
23.1356123460661
20
2.4067940966097
30
0
41
1
10
23.144368000082
20
2.37360126342833
30
0
41
1
10
23.1570554806897
20
2.30665208434351
30
0
41
1
10
23.1609897145247
20
2.27287133279924
30
0
41
1
10
23.162886987559
20
2.20540147141111
30
0
41
1
10
23.1608491987289
20
2.17187225959199
30
0
41
1
10
23.1492952801648
20
2.10627008853427
30
0
41
1
10
23.1398169003341
20
2.07442048436826
30
0
41
1
10
23.1257345387942
20
2.04422996195876
30
0
0
SPLINE
5
1BD
100
AcDbEntity
8
1
62
256
6
ByLayer
370
18
48
1
60
0
100
AcDbSpline
70
4
71
3
72
8
73
4
40
0
40
0
40
0
40
0
40
1
40
1
40
1
40
1
41
1
10
23.1257345387942
20
2.04422996195876
30
0
41
1
10
23.1277703082061
20
2.03587968039923
30
0
41
1
10
23.1297397339924
20
2.02751005297418
30
0
41
1
10
23.1316398263611
20
2.01912265232912
30
0
0
SPLINE
5
1BE
100
AcDbEntity
8
1
62
256
6
ByLayer
370
18
48
1
60
0
100
AcDbSpline
70
4
71
3
72
15
73
11
40
0
40
0
40
0
40
0
40
0.0144810894759169
40
0.11491141913167
40
0.215341748787423
40
0.41620240809893
40
0.617063067410436
40
0.817923726721943
40
0.918354056377696
40
1
40
1
40
1
40
1
41
1
10
20.1779319434834
20
-2.66362951252347
30
0
41
1
10
20.1929137129805
20
-2.66854527278451
30
0
41
1
10
20.311769022472
20
-2.70714357138644
30
0
41
1
10
20.5340659431595
20
-2.77335644972098
30
0
41
1
10
20.9470505656861
20
-2.87622976730361
30
0
41
1
10
21.4603169448231
20
-2.96536554456159
30
0
41
1
10
22.073477351046
20
-3.00907725424014
30
0
41
1
10
22.5837485750016
20
-2.99259324306607
30
0
41
1
10
22.9733896042777
20
-2.94971594584268
30
0
41
1
10
23.1589130847425
20
-2.92068009588189
30
0
41
1
10
23.2421777395818
20
-2.90593149873317
30
0
0
SPLINE
5
1BF
100
AcDbEntity
8
1
62
256
6
ByLayer
370
18
48
1
60
0
100
AcDbSpline
70
4
71
3
72
16
73
12
40
0
40
0
40
0
40
0
40
0.0577934489691781
40
0.154915848326605
40
0.252038247684032
40
0.446283046398886
40
0.543405445756313
40
0.64052784511374
40
0.834772643828593
40
0.93189504318602
40
1
40
1
40
1
40
1
41
1
10
24.9764599661714
20
-2.45139623143669
30
0
41
1
10
25.0385411811281
20
-2.47884670553137
30
0
41
1
10
25.2052891568076
20
-2.55009165359877
30
0
41
1
10
25.4781760778263
20
-2.65536196436855
30
0
41
1
10
25.9022966967709
20
-2.79570021834917
30
0
41
1
10
26.3324207730108
20
-2.90100298092276
30
0
41
1
10
26.7704244183562
20
-2.96705042269784
30
0
41
1
10
27.2143125450469
20
-3.00556901251505
30
0
41
1
10
27.6680149447376
20
-3.00057929320758
30
0
41
1
10
28.0992722141763
20
-2.95164552286749
30
0
41
1
10
28.3007753922899
20
-2.91711544933753
30
0
41
1
10
28.384434223807
20
-2.90077299907605
30
0
0
SPLINE
5
1C0
100
AcDbEntity
8
1
62
256
6
ByLayer
370
18
48
1
60
0
100
AcDbSpline
70
4
71
3
72
20
73
16
40
0
40
0
40
0
40
0
40
0.0520905739958038
40
0.120863555022463
40
0.189636536049122
40
0.25840951707578
40
0.327182498102439
40
0.395955479129098
40
0.464728460155757
40
0.533501441182416
40
0.671047403235733
40
0.739820384262392
40
0.808593365289051
40
0.946139327342369
40
1
40
1
40
1
40
1
41
1
10
8.99940255834991
20
2.99962538003757
30
0
41
1
10
9.07861298974501
20
2.99929849166725
30
0
41
1
10
9.26227214436099
20
2.99482795156285
30
0
41
1
10
9.54991118113111
20
2.97439450071087
30
0
41
1
10
9.86214586979347
20
2.93576539350278
30
0
41
1
10
10.173807040774
20
2.88110526665437
30
0
41
1
10
10.4849957980187
20
2.81082333580937
30
0
41
1
10
10.7958291405326
20
2.72528564935794
30
0
41
1
10
11.1064200189331
20
2.62490369561618
30
0
41
1
10
11.5203553544504
20
2.47203357405303
30
0
41
1
10
11.9342231181967
20
2.29179035705658
30
0
41
1
10
12.3483824863713
20
2.08708776168916
30
0
41
1
10
12.7628522526783
20
1.86705581775874
30
0
41
1
10
13.1554683878842
20
1.63859037244293
30
0
41
1
10
13.4448839881677
20
1.4591403885585
30
0
41
1
10
13.5263749934154
20
1.40782205283054
30
0
0
SPLINE
5
1C1
100
AcDbEntity
8
1
62
256
6
ByLayer
370
18
48
1
60
0
100
AcDbSpline
70
4
71
3
72
8
73
4
40
0
40
0
40
0
40
0
40
1
40
1
40
1
40
1
41
1
10
18.3223117593222
20
2.03459716299952
30
0
41
1
10
18.3243826405655
20
2.02603469054515
30
0
41
1
10
18.3263854711673
20
2.01745159894506
30
0
41
1
10
18.3283170086175
20
2.00884957783981
30
0
0
SPLINE
5
1C2
100
AcDbEntity
8
1
62
256
6
ByLayer
370
18
48
1
60
0
100
AcDbSpline
70
4
71
3
72
23
73
19
40
0
40
0
40
0
40
0
40
4.8570034134E-06
40
0.059183502468931
40
0.118362147934449
40
0.177540793399966
40
0.295898084331002
40
0.355076729796519
40
0.414255375262037
40
0.532612666193072
40
0.59179131165859
40
0.650969957124108
40
0.710148602589626
40
0.769327248055143
40
0.887684538986179
40
0.946863184451696
40
0.976452507184455
40
1
40
1
40
1
40
1
41
1
10
12.9765780251528
20
2.56987474953615
30
0
41
1
10
12.9765873248731
20
2.5698784285581
30
0
41
1
10
13.0809060241057
20
2.61114727921563
30
0
41
1
10
13.2896762505634
20
2.68824384036125
30
0
41
1
10
13.6032574613837
20
2.78686238373749
30
0
41
1
10
14.0219919649076
20
2.89460351430031
30
0
41
1
10
14.4417283840605
20
2.96530949741799
30
0
41
1
10
14.8625550860097
20
2.9976333527066
30
0
41
1
10
15.2840944305596
20
3.00389638766859
30
0
41
1
10
15.706672847824
20
2.97049229287856
30
0
41
1
10
16.1299617486255
20
2.89835659511203
30
0
41
1
10
16.4477100527772
20
2.82512663348689
30
0
41
1
10
16.7656614379931
20
2.73307854012927
30
0
41
1
10
17.1897471217981
20
2.58614199642659
30
0
41
1
10
17.6138649694416
20
2.404389583767
30
0
41
1
10
17.9845124844552
20
2.21856245204126
30
0
41
1
10
18.1853169437452
20
2.11102898879318
30
0
41
1
10
18.2802540115169
20
2.0583089159378
30
0
41
1
10
18.3223117593222
20
2.03459716299952
30
0
0
SPLINE
5
1C3
100
AcDbEntity
8
1
62
256
6
ByLayer
370
18
48
1
60
0
100
AcDbSpline
70
4
71
3
72
14
73
10
40
0
40
0
40
0
40
0
40
0.25
40
0.25
40
0.5
40
0.5
40
0.75
40
0.75
40
1
40
1
40
1
40
1
41
1
10
13.5252815895328
20
1.94860020328872
30
0
41
1
10
13.5360533802181
20
1.90386937790603
30
0
41
1
10
13.5448090681776
20
1.85869298375255
30
0
41
1
10
13.5574879485392
20
1.76773973139447
30
0
41
1
10
13.5614144035594
20
1.72193118220181
30
0
41
1
10
13.5633097327767
20
1.63024261460777
30
0
41
1
10
13.5612772165833
20
1.58458038867218
30
0
41
1
10
13.5497808756315
20
1.49450913847104
30
0
41
1
10
13.5403532680097
20
1.45040379297745
30
0
41
1
10
13.5263749934155
20
1.40782205283054
30
0
0
SPLINE
5
1C4
100
AcDbEntity
8
1
62
256
6
ByLayer
370
18
48
1
60
0
100
AcDbSpline
70
4
71
3
72
8
73
4
40
0
40
0
40
0
40
0
40
1
40
1
40
1
40
1
41
1
10
13.5263749934155
20
1.40782205283051
30
0
41
1
10
13.5284270992523
20
1.39766976536583
30
0
41
1
10
13.5304118203435
20
1.38749941499663
30
0
41
1
10
13.5323261365585
20
1.37731240674029
30
0
0
SPLINE
5
1C5
100
AcDbEntity
8
1
62
256
6
ByLayer
370
18
48
1
60
0
100
AcDbSpline
70
4
71
3
72
17
73
13
40
0
40
0
40
0
40
0
40
0.0953371532718105
40
0.230167883037308
40
0.297583247920056
40
0.364998612802804
40
0.499829342568302
40
0.56724470745105
40
0.634660072333799
40
0.769490802099295
40
0.904321531864792
40
1
40
1
40
1
40
1
41
1
10
24.7364300013371
20
2.99963998034227
30
0
41
1
10
24.8839403310883
20
2.99902446058584
30
0
41
1
10
25.241579488756
20
2.98513267686676
30
0
41
1
10
25.7097739160268
20
2.92751779813807
30
0
41
1
10
26.1400213686391
20
2.84289459698897
30
0
41
1
10
26.5747121732224
20
2.73636511332603
30
0
41
1
10
27.0167747283161
20
2.59665016448332
30
0
41
1
10
27.4677608500691
20
2.42343641657439
30
0
41
1
10
27.9252082794376
20
2.22775191134681
30
0
41
1
10
28.510220880676
20
1.94157785736985
30
0
41
1
10
29.1672032704254
20
1.57335988525662
30
0
41
1
10
29.5960519252437
20
1.31075969346557
30
0
41
1
10
29.7767688345018
20
1.19667350960088
30
0
0
SPLINE
5
1C6
100
AcDbEntity
8
1
62
256
6
ByLayer
370
18
48
1
60
0
100
AcDbSpline
70
4
71
3
72
12
73
8
40
0
40
0
40
0
40
0
40
0.5
40
0.5
40
0.75
40
0.75
40
1
40
1
40
1
40
1
41
1
10
9.00000000000011
20
-2.70440359349183
30
0
41
1
10
9.15598282388805
20
-2.75079308524062
30
0
41
1
10
9.31168881464041
20
-2.7919241292922
30
0
41
1
10
9.54524863785539
20
-2.8455556940778
30
0
41
1
10
9.62310247981378
20
-2.86208708546911
30
0
41
1
10
9.77888358237146
20
-2.89242739367435
30
0
41
1
10
9.85685920119221
20
-2.90624785035783
30
0
41
1
10
9.9347883180796
20
-2.91866071126361
30
0
0
SPLINE
5
1C7
100
AcDbEntity
8
1
62
256
6
ByLayer
370
18
48
1
60
0
100
AcDbSpline
70
4
71
3
72
39
73
35
40
0
40
0
40
0
40
0
40
0.0312499999999995
40
0.0312499999999995
40
0.062499999999999
40
0.125
40
0.125
40
0.187500000000001
40
0.187500000000001
40
0.218750000000001
40
0.218750000000001
40
0.250000000000002
40
0.250000000000002
40
0.375000000000006
40
0.375000000000006
40
0.406250000000005
40
0.406250000000005
40
0.437500000000005
40
0.500000000000004
40
0.500000000000004
40
0.562500000000003
40
0.562500000000003
40
0.625
40
0.625
40
0.687499999999997
40
0.687499999999997
40
0.718749999999997
40
0.734374999999997
40
0.734374999999997
40
0.749999999999997
40
0.749999999999997
40
0.874999999999999
40
0.874999999999999
40
1
40
1
40
1
40
1
41
1
10
22.5757471407784
20
2.66213817638834
30
0
41
1
10
22.6503580348252
20
2.68577556024189
30
0
41
1
10
22.7250772490273
20
2.70828715084315
30
0
41
1
10
22.8744638294019
20
2.75090652468367
30
0
41
1
10
23.0982803118026
20
2.81118199384062
30
0
41
1
10
23.3216056727638
20
2.86037106407798
30
0
41
1
10
23.6194721790629
20
2.91585514178405
30
0
41
1
10
23.7684554082331
20
2.93854820519331
30
0
41
1
10
23.9924023480786
20
2.96482605258546
30
0
41
1
10
24.0671818542347
20
2.97229411431604
30
0
41
1
10
24.2165259528746
20
2.98458651421322
30
0
41
1
10
24.2911274308994
20
2.98941707684867
30
0
41
1
10
24.6639321523322
20
3.00701541738476
30
0
41
1
10
24.9615040904346
20
3.00016158283796
30
0
41
1
10
25.3349432356891
20
2.96538342834063
30
0
41
1
10
25.4096841730886
20
2.95711526470174
30
0
41
1
10
25.5589080055643
20
2.93802269855036
30
0
41
1
10
25.782531099612
20
2.90553482847761
30
0
41
1
10
26.0058166555357
20
2.86162546903108
30
0
41
1
10
26.3037666137095
20
2.79314500967143
30
0
41
1
10
26.4528598854674
20
2.75393874019804
30
0
41
1
10
26.7518103224741
20
2.66579932190297
30
0
41
1
10
26.9009567775184
20
2.61707960831697
30
0
41
1
10
27.199051055621
20
2.51078244467124
30
0
41
1
10
27.3480030139053
20
2.45320131232418
30
0
41
1
10
27.5716163945997
20
2.36045720789608
30
0
41
1
10
27.6834699171511
20
2.3124927685125
30
0
41
1
10
27.7954617678663
20
2.26219343298698
30
0
41
1
10
27.8701617387549
20
2.22814734163774
30
0
41
1
10
27.9075446680794
20
2.21086114736005
30
0
41
1
10
28.2435235928033
20
2.05332438653952
30
0
41
1
10
28.5398699634664
20
1.89890468319354
30
0
41
1
10
29.1321681513033
20
1.56640993436338
30
0
41
1
10
29.4281466188979
20
1.38834536136292
30
0
41
1
10
29.7258667556554
20
1.20090537982514
30
0
0
SPLINE
5
1C8
100
AcDbEntity
8
1
62
256
6
ByLayer
370
18
48
1
60
0
100
AcDbSpline
70
4
71
3
72
12
73
8
40
0
40
0
40
0
40
0
40
0.63744968258573
40
0.63744968258573
40
0.956174523878582
40
0.956174523878582
40
1
40
1
40
1
40
1
41
1
10
10.5756603910071
20
-2.98877119909451
30
0
41
1
10
10.6875471563151
20
-2.99540882585714
30
0
41
1
10
10.7994602518484
20
-2.99910161063448
30
0
41
1
10
10.9675291779245
20
-3.00020967879635
30
0
41
1
10
11.0235852272296
20
-2.99984099792354
30
0
41
1
10
11.0874011803238
20
-2.99858089065299
30
0
41
1
10
11.0951167140333
20
-2.99841457391418
30
0
41
1
10
11.1028332784603
20
-2.99823424307903
30
0
0
SPLINE
5
1C9
100
AcDbEntity
8
1
62
256
6
ByLayer
370
18
48
1
60
0
100
AcDbSpline
70
4
71
3
72
37
73
33
40
0
40
0
40
0
40
0
40
0.0312500000000012
40
0.0312500000000012
40
0.0625000000000025
40
0.125000000000003
40
0.125000000000003
40
0.187500000000003
40
0.187500000000003
40
0.218750000000003
40
0.218750000000003
40
0.250000000000003
40
0.250000000000003
40
0.375000000000003
40
0.375000000000003
40
0.406250000000003
40
0.406250000000003
40
0.437500000000003
40
0.437500000000003
40
0.5
40
0.5
40
0.624999999999998
40
0.624999999999998
40
0.749999999999995
40
0.749999999999995
40
0.812499999999994
40
0.812499999999994
40
0.843749999999995
40
0.843749999999995
40
0.874999999999995
40
0.874999999999995
40
1
40
1
40
1
40
1
41
1
10
12.9735616555971
20
2.58458649479519
30
0
41
1
10
13.0295593947559
20
2.60641550070844
30
0
41
1
10
13.0856344370655
20
2.62747387886981
30
0
41
1
10
13.1976191466872
20
2.66789534777652
30
0
41
1
10
13.3654559630792
20
2.72602857833701
30
0
41
1
10
13.5330535720383
20
2.77661082836616
30
0
41
1
10
13.7566153713612
20
2.83716110217142
30
0
41
1
10
13.8684456248763
20
2.86399108145614
30
0
41
1
10
14.0364819748001
20
2.89894019187852
30
0
41
1
10
14.0925753714555
20
2.90971457310752
30
0
41
1
10
14.2047308714828
20
2.92946115971424
30
0
41
1
10
14.2607509049468
20
2.93842727940316
30
0
41
1
10
14.5406411618634
20
2.97873392945411
30
0
41
1
10
14.7638628780645
20
2.99655827002101
30
0
41
1
10
15.0435510615981
20
3.00036247433565
30
0
41
1
10
15.0995229936609
20
3.000197963289
30
0
41
1
10
15.2115783864715
20
2.99800187067919
30
0
41
1
10
15.2675871316093
20
2.99596894174218
30
0
41
1
10
15.4351495304845
20
2.98712805018201
30
0
41
1
10
15.5464287697597
20
2.97757831182722
30
0
41
1
10
15.8794864358403
20
2.93831443612515
30
0
41
1
10
16.1005005203011
20
2.89801510619762
30
0
41
1
10
16.5428891494728
20
2.7901425967739
30
0
41
1
10
16.7642382166883
20
2.72253769341748
30
0
41
1
10
17.0981126067781
20
2.60112685072178
30
0
41
1
10
17.2097164606371
20
2.55731815999548
30
0
41
1
10
17.3778117246634
20
2.48666807672129
30
0
41
1
10
17.4338844285976
20
2.462324981053
30
0
41
1
10
17.5458373163961
20
2.41221993743702
30
0
41
1
10
17.6017638843879
20
2.38643834528722
30
0
41
1
10
17.8812464324971
20
2.25397034901229
30
0
41
1
10
18.1043410590431
20
2.13661610701811
30
0
41
1
10
18.3283170086172
20
2.00884957783961
30
0
0
SPLINE
5
1CA
100
AcDbEntity
8
1
62
256
6
ByLayer
370
18
48
1
60
0
100
AcDbSpline
70
4
71
3
72
15
73
11
40
0
40
0
40
0
40
0
40
0.490256260809735
40
0.490256260809735
40
0.735384391214608
40
0.735384391214608
40
0.857948456417045
40
0.857948456417045
40
0.980512521619481
40
1
40
1
40
1
40
1
41
1
10
24.9735087703393
20
-2.46747206123254
30
0
41
1
10
25.1735272491115
20
-2.55471395452943
30
0
41
1
10
25.3729023207506
20
-2.63207054445047
30
0
41
1
10
25.6723405409661
20
-2.73245660111547
30
0
41
1
10
25.7722170604925
20
-2.76330836115588
30
0
41
1
10
25.9223053979572
20
-2.8055439278105
30
0
41
1
10
25.9723479365175
20
-2.81893881863584
30
0
41
1
10
26.0723063595096
20
-2.84430350337877
30
0
41
1
10
26.1301894516031
20
-2.858185303581
30
0
41
1
10
26.1880438485836
20
-2.87111562053931
30
0
41
1
10
26.1959801765582
20
-2.87287155581058
30
0
0
SPLINE
5
1CB
100
AcDbEntity
8
1
62
256
6
ByLayer
370
18
48
1
60
0
100
AcDbSpline
70
4
71
3
72
28
73
24
40
0
40
0
40
0
40
0
40
0.124999999999996
40
0.124999999999996
40
0.249999999999991
40
0.249999999999991
40
0.312500000000003
40
0.312500000000003
40
0.375000000000015
40
0.375000000000015
40
0.500000000000039
40
0.500000000000039
40
0.562500000000052
40
0.562500000000052
40
0.593750000000044
40
0.593750000000044
40
0.625000000000036
40
0.625000000000036
40
0.687500000000021
40
0.687500000000021
40
0.750000000000006
40
0.750000000000006
40
1
40
1
40
1
40
1
41
1
10
14.0081071176302
20
1.04363891403224
30
0
41
1
10
13.9889763616487
20
1.05430183040917
30
0
41
1
10
13.9694198758926
20
1.06540941278726
30
0
41
1
10
13.9295031733474
20
1.08861005028987
30
0
41
1
10
13.9091481511998
20
1.10069381709252
30
0
41
1
10
13.8779872442091
20
1.11974746333971
30
0
41
1
10
13.8674993523898
20
1.12625476247601
30
0
41
1
10
13.8466303091795
20
1.13941637745873
30
0
41
1
10
13.8362103580375
20
1.14609378632241
30
0
41
1
10
13.8050115090839
20
1.16644922298144
30
0
41
1
10
13.7842922588456
20
1.18044582976384
30
0
41
1
10
13.7534251573105
20
1.20231199363639
30
0
41
1
10
13.7432189162298
20
1.20971278157805
30
0
41
1
10
13.7282706670362
20
1.22084105879884
30
0
41
1
10
13.7233384100488
20
1.22456258553112
30
0
41
1
10
13.7135790379646
20
1.23203204863538
30
0
41
1
10
13.7087588804094
20
1.23578113151172
30
0
41
1
10
13.6943616129613
20
1.24705494243463
30
0
41
1
10
13.6848023296422
20
1.25459886842461
30
0
41
1
10
13.6656581615941
20
1.26972558924041
30
0
41
1
10
13.6560902928858
20
1.27731108053021
30
0
41
1
10
13.6083116562597
20
1.31535502554507
30
0
41
1
10
13.5702532633084
20
1.34615824670379
30
0
41
1
10
13.5323261365584
20
1.37731240674
30
0
0
SPLINE
5
1CC
100
AcDbEntity
8
1
62
256
6
ByLayer
370
18
48
1
60
0
100
AcDbSpline
70
4
71
3
72
32
73
28
40
0
40
0
40
0
40
0
40
0.125000000000002
40
0.125000000000002
40
0.187500000000002
40
0.187500000000002
40
0.250000000000003
40
0.250000000000003
40
0.375000000000005
40
0.375000000000005
40
0.437500000000004
40
0.437500000000004
40
0.468750000000004
40
0.468750000000004
40
0.500000000000003
40
0.625000000000005
40
0.625000000000005
40
0.687500000000005
40
0.687500000000005
40
0.750000000000006
40
0.750000000000006
40
0.875000000000005
40
0.875000000000005
40
0.937500000000002
40
0.968750000000001
40
0.968750000000001
40
1
40
1
40
1
40
1
41
1
10
9.00000000000011
20
2.99965274317577
30
0
41
1
10
9.18924172606631
20
2.9975013414967
30
0
41
1
10
9.37803191276242
20
2.98623235968285
30
0
41
1
10
9.66139593454656
20
2.95579711240634
30
0
41
1
10
9.7558815067668
20
2.94339560325807
30
0
41
1
10
9.94506401785821
20
2.91411512599421
30
0
41
1
10
10.0395228202739
20
2.89727249789911
30
0
41
1
10
10.3226183735853
20
2.8403009712832
30
0
41
1
10
10.5110237814345
20
2.79372509747009
30
0
41
1
10
10.794056282635
20
2.71135694935904
30
0
41
1
10
10.8884712921888
20
2.68181544124451
30
0
41
1
10
11.030309402621
20
2.63442884327296
30
0
41
1
10
11.0776486512394
20
2.6181122078564
30
0
41
1
10
11.1722386986292
20
2.58452631901923
30
0
41
1
10
11.4085505791798
20
2.49816378739934
30
0
41
1
10
11.6442635310069
20
2.40001680527371
30
0
41
1
10
11.9272918128249
20
2.27164658802991
30
0
41
1
10
12.0216647514364
20
2.22709046031071
30
0
41
1
10
12.2106146326635
20
2.13455488141523
30
0
41
1
10
12.305283042104
20
2.08652514783762
30
0
41
1
10
12.5887312592917
20
1.93804118761184
30
0
41
1
10
12.7771844255532
20
1.83308281720213
30
0
41
1
10
13.0600280200871
20
1.66778546916623
30
0
41
1
10
13.201489915945
20
1.58317526035722
30
0
41
1
10
13.3431822422464
20
1.49581983318015
30
0
41
1
10
13.4377137441331
20
1.43699295175185
30
0
41
1
10
13.4850395840857
20
1.40726860380835
30
0
41
1
10
13.5323261365584
20
1.37731240674014
30
0
0
SPLINE
5
1CD
100
AcDbEntity
8
1
62
256
6
ByLayer
370
18
48
1
60
0
100
AcDbSpline
70
4
71
3
72
21
73
17
40
0
40
0
40
0
40
0
40
0.163900839375085
40
0.163900839375085
40
0.245851259062624
40
0.245851259062624
40
0.327801678750163
40
0.327801678750163
40
0.655603357500332
40
0.655603357500332
40
0.819504196875417
40
0.819504196875417
40
0.901454616562956
40
0.901454616562956
40
0.983405036250495
40
1
40
1
40
1
40
1
41
1
10
20.1749931782451
20
-2.67660390902668
30
0
41
1
10
20.2864718942998
20
-2.71254427938524
30
0
41
1
10
20.397961493023
20
-2.74569484622052
30
0
41
1
10
20.5654052657062
20
-2.79106911917324
30
0
41
1
10
20.6212550385764
20
-2.80546735316932
30
0
41
1
10
20.7330579930002
20
-2.83278514203963
30
0
41
1
10
20.7889688520781
20
-2.84569358049518
30
0
41
1
10
21.0681834440649
20
-2.90634248526746
30
0
41
1
10
21.2909261352692
20
-2.94252244775092
30
0
41
1
10
21.6255658727509
20
-2.97813470974467
30
0
41
1
10
21.7371979616616
20
-2.98689379441353
30
0
41
1
10
21.9049408372042
20
-2.99531345285476
30
0
41
1
10
21.9609116372009
20
-2.99733220617637
30
0
41
1
10
22.0726932314668
20
-2.99978237368171
30
0
41
1
10
22.1398484166357
20
-3.00030313260956
30
0
41
1
10
22.206956320067
20
-2.99968280378894
30
0
41
1
10
22.2182560222095
20
-2.99954598114002
30
0
0
SPLINE
5
1CE
100
AcDbEntity
8
1
62
256
6
ByLayer
370
18
48
1
60
0
100
AcDbSpline
70
4
71
3
72
13
73
9
40
0
40
0
40
0
40
0
40
0.216309761923776
40
0.216309761923776
40
0.432619523847553
40
0.865239047695106
40
0.865239047695106
40
1
40
1
40
1
40
1
41
1
10
15.3742175909937
20
-2.68030394255234
30
0
41
1
10
15.430198775882
20
-2.69891911589963
30
0
41
1
10
15.4862449476558
20
-2.71678706700419
30
0
41
1
10
15.5983572871221
20
-2.75096027027249
30
0
41
1
10
15.7663633935291
20
-2.79981855072143
30
0
41
1
10
15.9340521610646
20
-2.8414405872731
30
0
41
1
10
16.0806684498634
20
-2.87354299655834
30
0
41
1
10
16.1154919665256
20
-2.88085017138766
30
0
41
1
10
16.15031949352
20
-2.88783779596787
30
0
0
SPLINE
5
1CF
100
AcDbEntity
8
1
62
256
6
ByLayer
370
18
48
1
60
0
100
AcDbSpline
70
4
71
3
72
12
73
8
40
0
40
0
40
0
40
0
40
0.0477745535345998
40
0.0477745535345998
40
0.251502837840209
40
0.251502837840209
40
1
40
1
40
1
40
1
41
1
10
16.509937816899
20
-2.94851091843188
30
0
41
1
10
16.523074903444
20
-2.95030491092075
30
0
41
1
10
16.5362144234801
20
-2.9520526667936
30
0
41
1
10
16.605399521269
20
-2.96100961901763
30
0
41
1
10
16.661547199306
20
-2.96742813052273
30
0
41
1
10
16.9234081317962
20
-2.99337389784787
30
0
41
1
10
17.1277606483083
20
-3.00210449093282
30
0
41
1
10
17.3314446792881
20
-2.99953235712869
30
0
0
SPLINE
5
1D0
100
AcDbEntity
8
1
62
256
6
ByLayer
370
18
48
1
60
0
100
AcDbSpline
70
4
71
3
72
40
73
36
40
0
40
0
40
0
40
0
40
0.0312499999999998
40
0.0312499999999998
40
0.0624999999999997
40
0.0624999999999997
40
0.124999999999999
40
0.124999999999999
40
0.249999999999999
40
0.249999999999999
40
0.281249999999999
40
0.281249999999999
40
0.312499999999998
40
0.375000000000001
40
0.375000000000001
40
0.437500000000003
40
0.468750000000003
40
0.468750000000003
40
0.500000000000003
40
0.500000000000003
40
0.625000000000002
40
0.625000000000002
40
0.687500000000002
40
0.687500000000002
40
0.718750000000002
40
0.718750000000002
40
0.750000000000002
40
0.750000000000002
40
0.875000000000001
40
0.875000000000001
40
0.906250000000001
40
0.906250000000001
40
0.937500000000002
40
0.937500000000002
40
1
40
1
40
1
40
1
41
1
10
17.7746997037598
20
2.68160033714909
30
0
41
1
10
17.8304777984679
20
2.69979505116939
30
0
41
1
10
17.8862837869747
20
2.71726861715172
30
0
41
1
10
17.9979871150558
20
2.75073896037244
30
0
41
1
10
18.053918501199
20
2.76674358611336
30
0
41
1
10
18.2215140009243
20
2.81238804752724
30
0
41
1
10
18.333054926453
20
2.83968495021784
30
0
41
1
10
18.6675221015139
20
2.91206144115674
30
0
41
1
10
18.8902972131149
20
2.94769799800926
30
0
41
1
10
19.1697454840336
20
2.97612599854401
30
0
41
1
10
19.2257159613756
20
2.98100445146301
30
0
41
1
10
19.3375188016989
20
2.98910591970875
30
0
41
1
10
19.505082346867
20
2.99878563749599
30
0
41
1
10
19.6723386512351
20
3.00105885175273
30
0
41
1
10
19.8953105669819
20
2.99753377727259
30
0
41
1
10
20.0625123886084
20
2.98997667527956
30
0
41
1
10
20.229957058995
20
2.97507108941741
30
0
41
1
10
20.3416743468284
20
2.96349769618135
30
0
41
1
10
20.3976069821988
20
2.95688804768221
30
0
41
1
10
20.6768991192692
20
2.91982288392345
30
0
41
1
10
20.8995444456451
20
2.87725383034737
30
0
41
1
10
21.2339743452087
20
2.79475684935548
30
0
41
1
10
21.3455266691205
20
2.76415721384936
30
0
41
1
10
21.5131608368057
20
2.71369810611006
30
0
41
1
10
21.5691171323533
20
2.69610851448016
30
0
41
1
10
21.6808861223124
20
2.65951402321895
30
0
41
1
10
21.7367266180022
20
2.64050149418824
30
0
41
1
10
22.0157826407172
20
2.54192710838234
30
0
41
1
10
22.2385487855467
20
2.45184645573471
30
0
41
1
10
22.5175480020754
20
2.32598736056019
30
0
41
1
10
22.573376177313
20
2.30015265425533
30
0
41
1
10
22.6851222121132
20
2.24717769921199
30
0
41
1
10
22.7410644904149
20
2.22002429248244
30
0
41
1
10
22.9086504615897
20
2.13685622433562
30
0
41
1
10
23.0201764295297
20
2.07907895598186
30
0
41
1
10
23.1316398263608
20
2.01912265232883
30
0
0
SPLINE
5
1D1
100
AcDbEntity
8
1
62
256
6
ByLayer
370
18
48
1
60
0
100
AcDbSpline
70
4
71
3
72
20
73
16
40
0
40
0
40
0
40
0
40
0.141934547481085
40
0.141934547481085
40
0.212901821221627
40
0.212901821221627
40
0.28386909496217
40
0.28386909496217
40
0.567738189924333
40
0.567738189924333
40
0.851607284886496
40
0.851607284886496
40
0.993541832367577
40
0.993541832367577
40
1
40
1
40
1
40
1
41
1
10
23.1248508326576
20
2.43950290224703
30
0
41
1
10
23.013322366932
20
2.48215420728897
30
0
41
1
10
22.9014945147897
20
2.5222386192718
30
0
41
1
10
22.7331102929527
20
2.57827212489619
30
0
41
1
10
22.6769906142761
20
2.59622602931296
30
0
41
1
10
22.5650484527091
20
2.6305800839049
30
0
41
1
10
22.5091755219391
20
2.64699918995279
30
0
41
1
10
22.2301806271719
20
2.72537137623593
30
0
41
1
10
22.0080968457986
20
2.77625555682172
30
0
41
1
10
21.5646068952095
20
2.85374212530141
30
0
41
1
10
21.3432367457697
20
2.88036309063361
30
0
41
1
10
21.01045522014
20
2.90124364212502
30
0
41
1
10
20.8994038138063
20
2.9050167051011
30
0
41
1
10
20.7830218553371
20
2.90555042410836
30
0
41
1
10
20.7779562438675
20
2.90556700020741
30
0
41
1
10
20.7728900397974
20
2.90557693958655
30
0
0
SPLINE
5
1D2
100
AcDbEntity
8
1
62
256
6
ByLayer
370
18
48
1
60
0
100
AcDbSpline
70
4
71
3
72
40
73
36
40
0
40
0
40
0
40
0
40
0.125000000000003
40
0.125000000000003
40
0.187500000000005
40
0.187500000000005
40
0.218750000000005
40
0.218750000000005
40
0.250000000000006
40
0.250000000000006
40
0.281250000000006
40
0.281250000000006
40
0.312500000000006
40
0.312500000000006
40
0.374999999999987
40
0.374999999999987
40
0.406249999999977
40
0.406249999999977
40
0.437499999999966
40
0.437499999999966
40
0.499999999999966
40
0.499999999999966
40
0.562499999999966
40
0.562499999999966
40
0.593749999999966
40
0.593749999999966
40
0.624999999999966
40
0.624999999999966
40
0.749999999999983
40
0.749999999999983
40
0.812499999999984
40
0.812499999999984
40
0.874999999999985
40
0.874999999999985
40
1
40
1
40
1
40
1
41
1
10
23.124850832657
20
2.43950290224717
30
0
41
1
10
23.1553305291926
20
2.41752969736817
30
0
41
1
10
23.1858590159353
20
2.39571654649941
30
0
41
1
10
23.2317383253785
20
2.36325757820927
30
0
41
1
10
23.247048660605
20
2.35248381514217
30
0
41
1
10
23.2700398623148
20
2.33639298325585
30
0
41
1
10
23.2777062179639
20
2.33103957409074
30
0
41
1
10
23.2930336880498
20
2.32034448865309
30
0
41
1
10
23.3006735075911
20
2.31498476470691
30
0
41
1
10
23.3160876560991
20
2.30439606083786
30
0
41
1
10
23.3239232681432
20
2.29921910111014
30
0
41
1
10
23.33992473009
20
2.28915793111796
30
0
41
1
10
23.3481236438192
20
2.28423417789026
30
0
41
1
10
23.372761980931
20
2.27006120133527
30
0
41
1
10
23.3891736595116
20
2.26144206595822
30
0
41
1
10
23.4137389574873
20
2.24950040266248
30
0
41
1
10
23.4219188481359
20
2.24568378616112
30
0
41
1
10
23.4382567781036
20
2.23834725120284
30
0
41
1
10
23.4464463432886
20
2.23481500090955
30
0
41
1
10
23.4706051780307
20
2.22478163247274
30
0
41
1
10
23.4862445342242
20
2.21880438584415
30
0
41
1
10
23.5167192215412
20
2.20795472164619
30
0
41
1
10
23.5315600995785
20
2.20307440647673
30
0
41
1
10
23.5532894174623
20
2.19641202547157
30
0
41
1
10
23.5604618403995
20
2.19429699074007
30
0
41
1
10
23.5745134567606
20
2.19030709971767
30
0
41
1
10
23.581396713869
20
2.18843057676276
30
0
41
1
10
23.6151404525212
20
2.17958978078289
30
0
41
1
10
23.6400367280716
20
2.17419217405856
30
0
41
1
10
23.6748491693625
20
2.16789229953244
30
0
41
1
10
23.6860105685488
20
2.16611305652376
30
0
41
1
10
23.7075142114797
20
2.1631235792897
30
0
41
1
10
23.7178305182228
20
2.16191795238043
30
0
41
1
10
23.7472786116301
20
2.15914970111655
30
0
41
1
10
23.7650054231305
20
2.15842747322503
30
0
41
1
10
23.7808401809177
20
2.15886866285226
30
0
0
SPLINE
5
1D3
100
AcDbEntity
8
1
62
256
6
ByLayer
370
18
48
1
60
0
100
AcDbSpline
70
4
71
3
72
12
73
8
40
0
40
0
40
0
40
0
40
0.5
40
0.5
40
0.75
40
0.75
40
1
40
1
40
1
40
1
41
1
10
8.75276831774292
20
2.90426829988533
30
0
41
1
10
8.79536118113197
20
2.915199130427
30
0
41
1
10
8.83729415583929
20
2.92855947738198
30
0
41
1
10
8.89917550373787
20
2.95234839528931
30
0
41
1
10
8.91963228653901
20
2.96090515130351
30
0
41
1
10
8.96019211738735
20
2.97932101085584
30
0
41
1
10
8.98025023929716
20
2.98916174179416
30
0
41
1
10
9
20
2.99961391850445
30
0
0
SPLINE
5
1D4
100
AcDbEntity
8
1
62
256
6
ByLayer
370
18
48
1
60
0
100
AcDbSpline
70
4
71
3
72
10
73
6
40
0
40
0
40
0
40
0
40
0.5
40
0.5
40
1
40
1
40
1
40
1
41
1
10
8.73284850020184
20
-2.53653944025771
30
0
41
1
10
8.77926712513911
20
-2.55949948008924
30
0
41
1
10
8.8247459909656
20
-2.5849488774706
30
0
41
1
10
8.91381967311702
20
-2.64083839038366
30
0
41
1
10
8.95741489550679
20
-2.6712774302774
30
0
41
1
10
8.99999518953413
20
-2.70440494592262
30
0
0
SPLINE
5
1D5
100
AcDbEntity
8
1
62
256
6
ByLayer
370
18
48
1
60
0
100
AcDbSpline
70
4
71
3
72
8
73
4
40
0
40
0
40
0
40
0
40
1
40
1
40
1
40
1
41
1
10
8.99937146694762
20
-2.69081084562154
30
0
41
1
10
8.99948586212298
20
-2.69534329783579
30
0
41
1
10
8.99969351278347
20
-2.69987395867409
30
0
41
1
10
8.99999037905678
20
-2.70440120338085
30
0
0
SPLINE
5
1D6
100
AcDbEntity
8
1
62
256
6
ByLayer
370
18
48
1
60
0
100
AcDbSpline
70
4
71
3
72
8
73
4
40
0
40
0
40
0
40
0
40
1
40
1
40
1
40
1
41
1
10
8.52502631651851
20
-2.45632560706883
30
0
41
1
10
8.59614999089592
20
-2.47647372712581
30
0
41
1
10
8.66564923993235
20
-2.50330067684064
30
0
41
1
10
8.73284850020173
20
-2.53653944025771
30
0
0
SPLINE
5
1D7
100
AcDbEntity
8
1
62
256
6
ByLayer
370
18
48
1
60
0
100
AcDbSpline
70
4
71
3
72
8
73
4
40
0
40
0
40
0
40
0
40
1
40
1
40
1
40
1
41
1
10
8.78842582720853
20
1.38187358408126
30
0
41
1
10
8.80942278511355
20
1.37810663662947
30
0
41
1
10
8.83026481157148
20
1.37457600706131
30
0
41
1
10
8.85094967974612
20
1.37128509198362
30
0
0
SPLINE
5
1D8
100
AcDbEntity
8
1
62
256
6
ByLayer
370
18
48
1
60
0
100
AcDbSpline
70
4
71
3
72
10
73
6
40
0
40
0
40
0
40
0
40
0.5
40
0.5
40
1
40
1
40
1
40
1
41
1
10
8.73373735024092
20
2.04555297495162
30
0
41
1
10
8.70041074333506
20
2.05906979371252
30
0
41
1
10
8.66641463745276
20
2.07316909598515
30
0
41
1
10
8.59691785098238
20
2.10267672412721
30
0
41
1
10
8.56141899753368
20
2.11808346033249
30
0
41
1
10
8.52502631651848
20
2.13426785242388
30
0
0
SPLINE
5
1D9
100
AcDbEntity
8
1
62
256
6
ByLayer
370
18
48
1
60
0
100
AcDbSpline
70
4
71
3
72
8
73
4
40
0
40
0
40
0
40
0
40
1
40
1
40
1
40
1
41
1
10
8.99940255835202
20
2.99962538003754
30
0
41
1
10
8.99952374900587
20
2.99963537408397
30
0
41
1
10
8.99972400097693
20
2.99964421599424
30
0
41
1
10
8.9999999999992
20
2.99965040103908
30
0
0
SPLINE
5
1DA
100
AcDbEntity
8
1
62
256
6
ByLayer
370
18
48
1
60
0
100
AcDbSpline
70
4
71
3
72
14
73
10
40
0
40
0
40
0
40
0
40
0.25
40
0.25
40
0.375
40
0.375
40
0.499999999999999
40
0.499999999999999
40
1
40
1
40
1
40
1
41
1
10
8.85094967974618
20
1.37128509198365
30
0
41
1
10
8.84134751964933
20
1.43347253720222
30
0
41
1
10
8.83174994333905
20
1.4942784146611
30
0
41
1
10
8.81728980852978
20
1.58339926810064
30
0
41
1
10
8.81245892201088
20
1.61275791651499
30
0
41
1
10
8.80276570645304
20
1.67077345008198
30
0
41
1
10
8.79789881650873
20
1.69945867884826
30
0
41
1
10
8.77353782257109
20
1.84066654852469
30
0
41
1
10
8.75395354913906
20
1.94663344951431
30
0
41
1
10
8.73373735024174
20
2.0455529749525
30
0
0
SPLINE
5
1DB
100
AcDbEntity
8
1
62
256
6
ByLayer
370
13
48
1
60
0
100
AcDbSpline
70
4
71
3
72
12
73
8
40
0
40
0
40
0
40
0
40
0.137337044695019
40
0.26948921248235
40
0.401641380269681
40
0.930250051419007
40
1
40
1
40
1
40
1
41
1
10
14.0081071176105
20
1.04363891402826
30
0
41
1
10
14.0165191051983
20
1.04533250196897
30
0
41
1
10
14.0327310827019
20
1.04905341642859
30
0
41
1
10
14.0558781132912
20
1.0556661697099
30
0
41
1
10
14.0990683654682
20
1.07045555859989
30
0
41
1
10
14.1368980116914
20
1.08946789009494
30
0
41
1
10
14.1637105339073
20
1.1085674403744
30
0
41
1
10
14.1667757640695
20
1.11083897531572
30
0
0
SPLINE
5
1DC
100
AcDbEntity
8
1
62
256
6
ByLayer
370
18
48
1
60
0
100
AcDbSpline
70
4
71
3
72
26
73
22
40
0
40
0
40
0
40
0
40
0.0624999999999996
40
0.0624999999999996
40
0.124999999999999
40
0.124999999999999
40
0.187499999999999
40
0.187499999999999
40
0.249999999999998
40
0.249999999999998
40
0.374999999999997
40
0.374999999999997
40
0.499999999999996
40
0.499999999999996
40
0.562499999999996
40
0.562499999999996
40
0.624999999999996
40
0.624999999999996
40
0.749999999999995
40
0.749999999999995
40
1
40
1
40
1
40
1
41
1
10
6.09472793474734
20
-2.1078900165424
30
0
41
1
10
6.14657397675208
20
-2.09771793597457
30
0
41
1
10
6.1988594231147
20
-2.09037299107112
30
0
41
1
10
6.30402206385509
20
-2.07960976514559
30
0
41
1
10
6.35690410368846
20
-2.07621938359941
30
0
41
1
10
6.46313042768804
20
-2.07254758200088
30
0
41
1
10
6.51647626177095
20
-2.07227517900108
30
0
41
1
10
6.62355467597499
20
-2.07433361672563
30
0
41
1
10
6.67685329779374
20
-2.07665961288083
30
0
41
1
10
6.83566351306376
20
-2.08680482878802
30
0
41
1
10
6.94033752821085
20
-2.09776698206835
30
0
41
1
10
7.14784886563069
20
-2.12573760950261
30
0
41
1
10
7.25067798968914
20
-2.14277242914287
30
0
41
1
10
7.40376862017257
20
-2.17171420139425
30
0
41
1
10
7.45460548685057
20
-2.18192996695584
30
0
41
1
10
7.55592224435588
20
-2.20333077609169
30
0
41
1
10
7.60634228371504
20
-2.21450433247583
30
0
41
1
10
7.75638396695052
20
-2.24906392139945
30
0
41
1
10
7.85502225402013
20
-2.27353268705232
30
0
41
1
10
8.14745536468689
20
-2.34942109688868
30
0
41
1
10
8.33777237330276
20
-2.40327976878669
30
0
41
1
10
8.52502631651845
20
-2.45632560706875
30
0
0
SPLINE
5
1DD
100
AcDbEntity
8
1
62
256
6
ByLayer
370
18
48
1
60
0
100
AcDbSpline
70
4
71
3
72
24
73
20
40
0
40
0
40
0
40
0
40
0.24999999999998
40
0.24999999999998
40
0.49999999999996
40
0.49999999999996
40
0.62499999999998
40
0.62499999999998
40
0.75
40
0.75
40
0.812499999999998
40
0.812499999999998
40
0.843749999999997
40
0.843749999999997
40
0.874999999999997
40
0.874999999999997
40
0.937499999999998
40
0.937499999999998
40
1
40
1
40
1
40
1
41
1
10
7.28365609236431
20
2.65014813885466
30
0
41
1
10
7.27124792286907
20
2.65478363864511
30
0
41
1
10
7.2591348269174
20
2.65946382473737
30
0
41
1
10
7.23588568237196
20
2.66903082339064
30
0
41
1
10
7.22470382426465
20
2.67391436379151
30
0
41
1
10
7.2096937712941
20
2.68152569225711
30
0
41
1
10
7.20497796574102
20
2.68411343249508
30
0
41
1
10
7.19662448976987
20
2.68950529756665
30
0
41
1
10
7.19289582671269
20
2.6923299930256
30
0
41
1
10
7.1896278129577
20
2.69675771427112
30
0
41
1
10
7.18894661218599
20
2.69824414850538
30
0
41
1
10
7.18907437316079
20
2.70051302977345
30
0
41
1
10
7.18931791121378
20
2.70126368721864
30
0
41
1
10
7.19030962680927
20
2.70271830430585
30
0
41
1
10
7.19107619652374
20
2.70343337809379
30
0
41
1
10
7.19413182095036
20
2.70538880015354
30
0
41
1
10
7.19726696915961
20
2.7064751769918
30
0
41
1
10
7.20457697331284
20
2.70809021398929
30
0
41
1
10
7.20860468466665
20
2.70862895057192
30
0
41
1
10
7.21279486552422
20
2.70902011100662
30
0
0
SPLINE
5
1DE
100
AcDbEntity
8
1
62
256
6
ByLayer
370
18
48
1
60
0
100
AcDbSpline
70
4
71
3
72
42
73
38
40
0
40
0
40
0
40
0
40
0.0625000000000044
40
0.0625000000000044
40
0.0937500000000054
40
0.0937500000000054
40
0.125000000000006
40
0.125000000000006
40
0.250000000000006
40
0.250000000000006
40
0.281250000000005
40
0.281250000000005
40
0.312500000000004
40
0.312500000000004
40
0.375000000000002
40
0.375000000000002
40
0.437500000000001
40
0.437500000000001
40
0.46875
40
0.46875
40
0.499999999999999
40
0.499999999999999
40
0.625000000000001
40
0.625000000000001
40
0.687500000000003
40
0.687500000000003
40
0.718750000000002
40
0.718750000000002
40
0.750000000000002
40
0.750000000000002
40
0.875000000000001
40
0.875000000000001
40
0.90625
40
0.90625
40
0.937499999999999
40
0.937499999999999
40
1
40
1
40
1
40
1
41
1
10
18.9733554124307
20
1.61558496682875
30
0
41
1
10
19.0848286994018
20
1.54358238406166
30
0
41
1
10
19.1963239207419
20
1.46963949913345
30
0
41
1
10
19.3638096641209
20
1.35601038713088
30
0
41
1
10
19.419678706167
20
1.31768119815166
30
0
41
1
10
19.5315291590977
20
1.24015066185899
30
0
41
1
10
19.5874400522093
20
1.20099709878079
30
0
41
1
10
19.8666369959558
20
1.00366012593565
30
0
41
1
10
20.0892152153348
20
0.840508937301109
30
0
41
1
10
20.3679787793634
20
0.631897189603677
30
0
41
1
10
20.4237592061975
20
0.58994124668294
30
0
41
1
10
20.5354177831433
20
0.505610668004948
30
0
41
1
10
20.5913280848917
20
0.463211499928889
30
0
41
1
10
20.7588173556777
20
0.335807713815797
30
0
41
1
10
20.8702702680754
20
0.25051002458278
30
0
41
1
10
21.0930986925596
20
0.0796289027094019
30
0
41
1
10
21.2044739343064
20
-0.0059544785592038
30
0
41
1
10
21.3717124690959
20
-0.134236869812071
30
0
41
1
10
21.4274878486577
20
-0.17698235173421
30
0
41
1
10
21.5391348066072
20
-0.262393333493321
30
0
41
1
10
21.5950286240379
20
-0.305075759594303
30
0
41
1
10
21.874584977774
20
-0.517982720750922
30
0
41
1
10
22.0973730733941
20
-0.685817000208175
30
0
41
1
10
22.4318441612722
20
-0.931834534323713
30
0
41
1
10
22.5433850349499
20
-1.01287895534395
30
0
41
1
10
22.7110037180588
20
-1.13270044374218
30
0
41
1
10
22.7669103607959
20
-1.17233605995361
30
0
41
1
10
22.8785459368836
20
-1.25075015165368
30
0
41
1
10
22.9343138317736
20
-1.28955669243797
30
0
41
1
10
23.2130053201778
20
-1.4814787809627
30
0
41
1
10
23.4354839100135
20
-1.62827541252491
30
0
41
1
10
23.7146216304252
20
-1.80147808659768
30
0
41
1
10
23.7705414011155
20
-1.83562724241705
30
0
41
1
10
23.8822725634573
20
-1.9026966554386
30
0
41
1
10
23.9380892296943
20
-1.93562087640956
30
0
41
1
10
24.1054510684558
20
-2.03251456383822
30
0
41
1
10
24.2169089442133
20
-2.09460704790854
30
0
41
1
10
24.3283946092564
20
-2.15407781506863
30
0
0
SPLINE
5
1DF
100
AcDbEntity
8
1
62
256
6
ByLayer
370
18
48
1
60
0
100
AcDbSpline
70
4
71
3
72
12
73
8
40
0
40
0
40
0
40
0
40
0.249999999999986
40
0.249999999999986
40
0.499999999999973
40
0.499999999999973
40
1
40
1
40
1
40
1
41
1
10
14.0081071176302
20
1.04363891403224
30
0
41
1
10
14.0241456799117
20
1.03469949476931
30
0
41
1
10
14.0397019099754
20
1.02617259547418
30
0
41
1
10
14.0698736714655
20
1.00986092419544
30
0
41
1
10
14.084524013278
20
1.00206510065851
30
0
41
1
10
14.1265207308231
20
0.980044761548641
30
0
41
1
10
14.1520489013018
20
0.967077392287109
30
0
41
1
10
14.174671519085
20
0.956169143798178
30
0
0
SPLINE
5
1E0
100
AcDbEntity
8
1
62
256
6
ByLayer
370
18
48
1
60
0
100
AcDbSpline
70
4
71
3
72
8
73
4
40
0
40
0
40
0
40
0
40
1
40
1
40
1
40
1
41
1
10
14.1776423183919
20
0.982479547615014
30
0
41
1
10
14.1766258179534
20
0.973709819755868
30
0
41
1
10
14.1756346826194
20
0.964939760522327
30
0
41
1
10
14.174671519085
20
0.956169143798178
30
0
0
SPLINE
5
1E1
100
AcDbEntity
8
1
62
256
6
ByLayer
370
18
48
1
60
0
100
AcDbSpline
70
4
71
3
72
38
73
34
40
0
40
0
40
0
40
0
40
0.0624999999999992
40
0.0624999999999992
40
0.124999999999998
40
0.124999999999998
40
0.249999999999999
40
0.249999999999999
40
0.312500000000001
40
0.312500000000001
40
0.343750000000002
40
0.343750000000002
40
0.375000000000003
40
0.500000000000006
40
0.500000000000006
40
0.531250000000007
40
0.531250000000007
40
0.562500000000007
40
0.562500000000007
40
0.625000000000007
40
0.625000000000007
40
0.750000000000011
40
0.750000000000011
40
0.781250000000011
40
0.781250000000011
40
0.81250000000001
40
0.875000000000007
40
0.875000000000007
40
0.937500000000003
40
0.937500000000003
40
0.968750000000002
40
0.968750000000002
40
1
40
1
40
1
40
1
41
1
10
14.174671519085
20
0.956169143798178
30
0
41
1
10
14.2862151552014
20
0.880834758592727
30
0
41
1
10
14.3977859612011
20
0.804465633058157
30
0
41
1
10
14.6211964716169
20
0.649940421486946
30
0
41
1
10
14.7331517182197
20
0.571702116853288
30
0
41
1
10
15.0682048823573
20
0.335890962423179
30
0
41
1
10
15.290888433665
20
0.176955946318628
30
0
41
1
10
15.6254220182813
20
-0.0618747000893336
30
0
41
1
10
15.7370171331654
20
-0.141556783024043
30
0
41
1
10
15.9047270838192
20
-0.260919056907341
30
0
41
1
10
15.9606587249685
20
-0.300662147095977
30
0
41
1
10
16.0723796584467
20
-0.379853448464502
30
0
41
1
10
16.3514875194535
20
-0.577211465174827
30
0
41
1
10
16.6300067849526
20
-0.770938156756955
30
0
41
1
10
16.9091434384735
20
-0.960259482268071
30
0
41
1
10
16.9650018946696
20
-0.997903201597893
30
0
41
1
10
17.0768100604896
20
-1.07270916459788
30
0
41
1
10
17.1327774296659
20
-1.10988218013446
30
0
41
1
10
17.3004385351829
20
-1.2203442369586
30
0
41
1
10
17.4120234044648
20
-1.29266702005592
30
0
41
1
10
17.7465569097275
20
-1.50528284726894
30
0
41
1
10
17.9692721757284
20
-1.64124518879697
30
0
41
1
10
18.248587466025
20
-1.80224491443067
30
0
41
1
10
18.3045324647726
20
-1.83401673057446
30
0
41
1
10
18.4163140860828
20
-1.89649227567813
30
0
41
1
10
18.5838501512669
20
-1.98862200349726
30
0
41
1
10
18.7511202566103
20
-2.07590210707676
30
0
41
1
10
18.9741463861359
20
-2.18776659334622
30
0
41
1
10
19.0856587896168
20
-2.24144523968508
30
0
41
1
10
19.253094690806
20
-2.31840308605089
30
0
41
1
10
19.3089345603999
20
-2.34346144344096
30
0
41
1
10
19.4206969826862
20
-2.39235906644606
30
0
41
1
10
19.4766479307311
20
-2.41621067947853
30
0
41
1
10
19.5325852035417
20
-2.43941085883844
30
0
0
SPLINE
5
1E2
100
AcDbEntity
8
1
62
256
6
ByLayer
370
18
48
1
60
0
100
AcDbSpline
70
4
71
3
72
39
73
35
40
0
40
0
40
0
40
0
40
0.0624999999999969
40
0.0624999999999969
40
0.0937499999999953
40
0.0937499999999953
40
0.124999999999994
40
0.124999999999994
40
0.249999999999985
40
0.249999999999985
40
0.281249999999984
40
0.281249999999984
40
0.312499999999983
40
0.312499999999983
40
0.374999999999984
40
0.374999999999984
40
0.499999999999987
40
0.499999999999987
40
0.531249999999988
40
0.531249999999988
40
0.562499999999989
40
0.624999999999991
40
0.624999999999991
40
0.687499999999993
40
0.687499999999993
40
0.718749999999994
40
0.718749999999994
40
0.749999999999995
40
0.749999999999995
40
0.874999999999999
40
0.874999999999999
40
0.937499999999999
40
0.937499999999999
40
1
40
1
40
1
40
1
41
1
10
9.37384801814008
20
1.09912872664845
30
0
41
1
10
9.48544384954846
20
1.02225687331054
30
0
41
1
10
9.59701021517054
20
0.944133997050272
30
0
41
1
10
9.76452296489828
20
0.825335679238322
30
0
41
1
10
9.82041279105925
20
0.785449556768413
30
0
41
1
10
9.93216513213844
20
0.705268886287115
30
0
41
1
10
9.98798626700636
20
0.665004313457985
30
0
41
1
10
10.2669061881536
20
0.462932427118318
30
0
41
1
10
10.4894475026439
20
0.298881087491537
30
0
41
1
10
10.7683040971065
20
0.0927278555145108
30
0
41
1
10
10.8241093827343
20
0.0514426015028846
30
0
41
1
10
10.935822416961
20
-0.0311908530197513
30
0
41
1
10
10.9917678126026
20
-0.0725669185313791
30
0
41
1
10
11.1594374513413
20
-0.196448872507347
30
0
41
1
10
11.271030729305
20
-0.278733119664935
30
0
41
1
10
11.6056244134625
20
-0.524182541166027
30
0
41
1
10
11.8284158222885
20
-0.685978886499782
30
0
41
1
10
12.107777449886
20
-0.884309141426144
30
0
41
1
10
12.1637119690483
20
-0.923788748788468
30
0
41
1
10
12.2754075158267
20
-1.00209410849951
30
0
41
1
10
12.4427970757516
20
-1.11864700158313
30
0
41
1
10
12.6098862354427
20
-1.23228016426771
30
0
41
1
10
12.8326987446192
20
-1.38082369947111
30
0
41
1
10
12.9441182974647
20
-1.45361574429973
30
0
41
1
10
13.1114814591866
20
-1.56033525529045
30
0
41
1
10
13.1673081533674
20
-1.59549680314294
30
0
41
1
10
13.2790751282336
20
-1.66495279680291
30
0
41
1
10
13.3349761624997
20
-1.69922221182242
30
0
41
1
10
13.6141293033839
20
-1.86786269033854
30
0
41
1
10
13.8368353611274
20
-1.99440990368856
30
0
41
1
10
14.1715196692044
20
-2.17007392276358
30
0
41
1
10
14.2831959011307
20
-2.22629083886656
30
0
41
1
10
14.5069037282838
20
-2.33377244939058
30
0
41
1
10
14.6185156207019
20
-2.38483544571108
30
0
41
1
10
14.7300170261706
20
-2.43311999874029
30
0
0
SPLINE
5
1E3
100
AcDbEntity
8
1
62
256
6
ByLayer
370
18
48
1
60
0
100
AcDbSpline
70
4
71
3
72
38
73
34
40
0
40
0
40
0
40
0
40
0.0312500000000038
40
0.0312500000000038
40
0.0625000000000075
40
0.125000000000013
40
0.125000000000013
40
0.187500000000018
40
0.187500000000018
40
0.21875000000002
40
0.21875000000002
40
0.250000000000021
40
0.250000000000021
40
0.375000000000022
40
0.375000000000022
40
0.437500000000023
40
0.437500000000023
40
0.500000000000026
40
0.562500000000029
40
0.562500000000029
40
0.593750000000031
40
0.593750000000031
40
0.625000000000032
40
0.625000000000032
40
0.750000000000025
40
0.750000000000025
40
0.812500000000019
40
0.812500000000019
40
0.843750000000016
40
0.843750000000016
40
0.875000000000012
40
0.875000000000012
40
1
40
1
40
1
40
1
41
1
10
23.7745896394389
20
1.65030185961601
30
0
41
1
10
23.8368421153993
20
1.61252302421406
30
0
41
1
10
23.899194074775
20
1.57412792542971
30
0
41
1
10
24.0237333800652
20
1.49640857261087
30
0
41
1
10
24.2103801042963
20
1.37838543011998
30
0
41
1
10
24.3967405805105
20
1.25628772970225
30
0
41
1
10
24.6452926445724
20
1.09027950893469
30
0
41
1
10
24.7696023973419
20
1.00566729870377
30
0
41
1
10
24.956343142664
20
0.876621293812889
30
0
41
1
10
25.0186757026038
20
0.833224541409095
30
0
41
1
10
25.1432870454366
20
0.745909005900074
30
0
41
1
10
25.2055236469234
20
0.702020263504721
30
0
41
1
10
25.5164732229078
20
0.481575890258114
30
0
41
1
10
25.7644786974839
20
0.302011388339253
30
0
41
1
10
26.1375960735675
20
0.030905526779776
30
0
41
1
10
26.262306175673
20
-0.0598639398405965
30
0
41
1
10
26.5111334015539
20
-0.24049169445712
30
0
41
1
10
26.7596132162834
20
-0.420384349516922
30
0
41
1
10
27.0081097872811
20
-0.597847185297269
30
0
41
1
10
27.1947333977065
20
-0.729698299296558
30
0
41
1
10
27.2569828856972
20
-0.773441302759409
30
0
41
1
10
27.3816029794729
20
-0.860460115520823
30
0
41
1
10
27.4439659697567
20
-0.903730902890487
30
0
41
1
10
27.7552203470194
20
-1.11812213920419
30
0
41
1
10
28.003188409105
20
-1.28390030137689
30
0
41
1
10
28.3757076532659
20
-1.52134374458362
30
0
41
1
10
28.4999768362838
20
-1.59861941440926
30
0
41
1
10
28.6868060296582
20
-1.71136147179951
30
0
41
1
10
28.749113152173
20
-1.74838790636952
30
0
41
1
10
28.8735164993863
20
-1.82109286108724
30
0
41
1
10
28.9356584297533
20
-1.85679907040568
30
0
41
1
10
29.2461850365787
20
-2.03198611039315
30
0
41
1
10
29.4940411629944
20
-2.16140620948161
30
0
41
1
10
29.7426769751964
20
-2.27883071997121
30
0
0
SPLINE
5
1E4
100
AcDbEntity
8
1
62
256
6
ByLayer
370
18
48
1
60
0
100
AcDbSpline
70
4
71
3
72
14
73
10
40
0
40
0
40
0
40
0
40
0.25
40
0.25
40
0.5
40
0.5
40
0.75
40
0.75
40
1
40
1
40
1
40
1
41
1
10
14.1667757640596
20
1.11083897530838
30
0
41
1
10
14.164156058691
20
1.15101535360827
30
0
41
1
10
14.1623588709981
20
1.19108851819527
30
0
41
1
10
14.1607394991071
20
1.27111000636987
30
0
41
1
10
14.1609213245611
20
1.3110587500006
30
0
41
1
10
14.163389429577
20
1.39094424679811
30
0
41
1
10
14.1656754283592
20
1.43081267689485
30
0
41
1
10
14.1721483094394
20
1.51052664523928
30
0
41
1
10
14.1763325940022
20
1.55037499608326
30
0
41
1
10
14.1812141326196
20
1.59028096755424
30
0
0
SPLINE
5
1E5
100
AcDbEntity
8
1
62
256
6
ByLayer
370
18
48
1
60
0
100
AcDbSpline
70
4
71
3
72
8
73
4
40
0
40
0
40
0
40
0
40
1
40
1
40
1
40
1
41
1
10
14.1667757640596
20
1.11083897530838
30
0
41
1
10
14.1695599445126
20
1.06814017238122
30
0
41
1
10
14.1732683467332
20
1.02536053372574
30
0
41
1
10
14.1776423183919
20
0.982479547615014
30
0
0
SPLINE
5
1E6
100
AcDbEntity
8
1
62
256
6
ByLayer
370
18
48
1
60
0
100
AcDbSpline
70
4
71
3
72
21
73
17
40
0
40
0
40
0
40
0
40
0.0670870614953337
40
0.126230386072946
40
0.185373710650559
40
0.303660359805784
40
0.362803684383396
40
0.421947008961009
40
0.481090333538621
40
0.540233658116234
40
0.658520307271459
40
0.717663631849071
40
0.776806956426684
40
0.895093605581909
40
0.954236930159522
40
1
40
1
40
1
40
1
41
1
10
14.1776423183919
20
0.982479547615014
30
0
41
1
10
14.296120938424
20
0.902637009804067
30
0
41
1
10
14.5193068573151
20
0.750029968686079
30
0
41
1
10
14.8478546595136
20
0.520775764457682
30
0
41
1
10
15.2681394257496
20
0.223633493923586
30
0
41
1
10
15.6899370105796
20
-0.0779670741621601
30
0
41
1
10
16.1127927532384
20
-0.378563465307138
30
0
41
1
10
16.4303624693137
20
-0.602173554056122
30
0
41
1
10
16.7482422967955
20
-0.822589096220582
30
0
41
1
10
17.1722826090444
20
-1.11031389451662
30
0
41
1
10
17.5963273569899
20
-1.38610209020229
30
0
41
1
10
18.0197174120115
20
-1.6450007827417
30
0
41
1
10
18.4424376697061
20
-1.8910032917311
30
0
41
1
10
18.8639118355107
20
-2.11543478375401
30
0
41
1
10
19.2600575333912
20
-2.30356277035599
30
0
41
1
10
19.4457916524085
20
-2.38497382080485
30
0
41
1
10
19.5267229760553
20
-2.41909778340675
30
0
0
SPLINE
5
1E7
100
AcDbEntity
8
1
62
256
6
ByLayer
370
18
48
1
60
0
100
AcDbSpline
70
4
71
3
72
24
73
20
40
0
40
0
40
0
40
0
40
0.0020456328177332
40
0.0597255339174681
40
0.117405435017203
40
0.175085336116938
40
0.232765237216673
40
0.290445138316408
40
0.319285088866275
40
0.348125039416143
40
0.405804940515878
40
0.463484841615612
40
0.578844643815082
40
0.636524544914817
40
0.694204446014552
40
0.809564248214022
40
0.867244149313757
40
0.924924050413492
40
1
40
1
40
1
40
1
41
1
10
18.976372061749
20
1.63906340989149
30
0
41
1
10
18.9801052543431
20
1.63666435636892
30
0
41
1
10
19.0890971117162
20
1.56655813487558
30
0
41
1
10
19.3030767131897
20
1.42520720831601
30
0
41
1
10
19.6175626661844
20
1.20826385400272
30
0
41
1
10
19.9310626689639
20
0.984211498228575
30
0
41
1
10
20.2433557454643
20
0.754650743891915
30
0
41
1
10
20.5024905947425
20
0.560159970366584
30
0
41
1
10
20.7090109325198
20
0.403563054812849
30
0
41
1
10
20.9149736204398
20
0.246562200677317
30
0
41
1
10
21.171513124182
20
0.0499479029627139
30
0
41
1
10
21.5803730248547
20
-0.263849346129632
30
0
41
1
10
21.9873856144881
20
-0.574029460110779
30
0
41
1
10
22.3936749899224
20
-0.875797846858973
30
0
41
1
10
22.799856775639
20
-1.17038701679306
30
0
41
1
10
23.2064078761953
20
-1.451828982032
30
0
41
1
10
23.6142776237199
20
-1.71562233178264
30
0
41
1
10
23.9519186551626
20
-1.92243996965826
30
0
41
1
10
24.1883128795482
20
-2.05684348331459
30
0
41
1
10
24.3224307386993
20
-2.12932463840158
30
0
0
SPLINE
5
1E8
100
AcDbEntity
8
1
62
256
6
ByLayer
370
18
48
1
60
0
100
AcDbSpline
70
4
71
3
72
22
73
18
40
0
40
0
40
0
40
0
40
0.0315309651272057
40
0.0899407348050662
40
0.148350504482927
40
0.206760274160787
40
0.265170043838648
40
0.323579813516508
40
0.381989583194368
40
0.498809122550089
40
0.55721889222795
40
0.61562866190581
40
0.732448201261531
40
0.790857970939391
40
0.849267740617252
40
0.966087279972973
40
1
40
1
40
1
40
1
41
1
10
9.37683668785894
20
1.12483388143107
30
0
41
1
10
9.43317101498064
20
1.08619575896364
30
0
41
1
10
9.59377674309175
20
0.975111670250158
30
0
41
1
10
9.85826736737641
20
0.78826046970417
30
0
41
1
10
10.1701773849199
20
0.563241897038012
30
0
41
1
10
10.4816884746618
20
0.335188610576608
30
0
41
1
10
10.792921485577
20
0.105374003698046
30
0
41
1
10
11.1039933956461
20
-0.124955518002253
30
0
41
1
10
11.5186816270323
20
-0.431022394787249
30
0
41
1
10
11.933478096218
20
-0.732981389385543
30
0
41
1
10
12.3487610204735
20
-1.02579979973976
30
0
41
1
10
12.7644923515208
20
-1.31085509022961
30
0
41
1
10
13.1810770835098
20
-1.58175407014792
30
0
41
1
10
13.598596348816
20
-1.83369095998512
30
0
41
1
10
14.0167748733892
20
-2.07141670511339
30
0
41
1
10
14.3920470440075
20
-2.26304374640918
30
0
41
1
10
14.6631492675479
20
-2.38590580008554
30
0
41
1
10
14.7241758808362
20
-2.41274347046809
30
0
0
SPLINE
5
1E9
100
AcDbEntity
8
1
62
256
6
ByLayer
370
18
48
1
60
0
100
AcDbSpline
70
4
71
2
72
6
73
3
40
0
40
0
40
0
40
1
40
1
40
1
41
1
10
11.1026190417018
20
-2.99823394996287
30
0
41
1
10
11.1025652155904
20
-2.99850624486797
30
0
41
1
10
11.1025113895189
20
-2.99877827138241
30
0
0
SPLINE
5
1EA
100
AcDbEntity
8
1
62
256
6
ByLayer
370
18
48
1
60
0
100
AcDbSpline
70
4
71
2
72
6
73
3
40
0
40
0
40
0
40
1
40
1
40
1
41
1
10
27.4050787119869
20
-2.99960101346056
30
0
41
1
10
27.405065617708
20
-2.99959934685532
30
0
41
1
10
27.4050525235545
20
-2.99959757614451
30
0
0
SPLINE
5
1EB
100
AcDbEntity
8
1
62
256
6
ByLayer
370
18
48
1
60
0
100
AcDbSpline
70
4
71
3
72
9
73
5
40
0
40
0
40
0
40
0
40
0.598962425403567
40
1
40
1
40
1
40
1
41
1
10
29.3970187398042
20
2.1158444467346
30
0
41
1
10
29.2077234473157
20
2.17264657736607
30
0
41
1
10
28.891653605745
20
2.26017535716326
30
0
41
1
10
28.5752600616084
20
2.33591479644082
30
0
41
1
10
28.4484520930598
20
2.36419839150099
30
0
0
SPLINE
5
1EC
100
AcDbEntity
8
1
62
256
6
ByLayer
370
18
48
1
60
0
100
AcDbSpline
70
4
71
3
72
13
73
9
40
0
40
0
40
0
40
0
40
0.273278966472248
40
0.494012046853808
40
0.662189630998593
40
0.777830906672777
40
0.894593531276775
40
1
40
1
40
1
40
1
41
1
10
12.7525270565196
20
-2.6313566811933
30
0
41
1
10
12.9232280171153
20
-2.62422719660631
30
0
41
1
10
13.23185272453
20
-2.60380367242351
30
0
41
1
10
13.6456126170622
20
-2.55788062866384
30
0
41
1
10
13.9609936363138
20
-2.51232305706145
30
0
41
1
10
14.2115871310821
20
-2.47010984668495
30
0
41
1
10
14.4230030910452
20
-2.43039801594583
30
0
41
1
10
14.5620040655895
20
-2.40178335453442
30
0
41
1
10
14.62794709052
20
-2.38765488749453
30
0
0
SPLINE
5
1ED
100
AcDbEntity
8
1
62
256
6
ByLayer
370
18
48
1
60
0
100
AcDbSpline
70
4
71
2
72
6
73
3
40
0
40
0
40
0
40
1
40
1
40
1
41
1
10
19.7632471286708
20
2.99958422966961
30
0
41
1
10
19.7632772691157
20
2.99958406996421
30
0
41
1
10
19.7633074092881
20
2.99958368761764
30
0
0
SPLINE
5
1EE
100
AcDbEntity
8
1
62
256
6
ByLayer
370
18
48
1
60
0
100
AcDbSpline
70
4
71
2
72
6
73
3
40
0
40
0
40
0
40
1
40
1
40
1
41
1
10
15.1159086937369
20
1.56288703632327
30
0
41
1
10
14.4978618657202
20
1.70884948144467
30
0
41
1
10
13.8887920555146
20
1.95007931206575
30
0
0
SPLINE
5
1EF
100
AcDbEntity
8
1
62
256
6
ByLayer
370
18
48
1
60
0
100
AcDbSpline
70
4
71
2
72
6
73
3
40
0
40
0
40
0
40
1
40
1
40
1
41
1
10
10.7293322959934
20
1.14945755155082
30
0
41
1
10
10.2836685415105
20
1.29889076033589
30
0
41
1
10
9.82173311017061
20
1.54569500512702
30
0
0
SPLINE
5
1F0
100
AcDbEntity
8
1
62
256
6
ByLayer
370
18
48
1
60
0
100
AcDbSpline
70
4
71
3
72
12
73
8
40
0
40
0
40
0
40
0
40
0.354357877663457
40
0.620164983235176
40
0.797455779368688
40
0.974843214937927
40
1
40
1
40
1
40
1
41
1
10
23.878708415595
20
-2.63127477180453
30
0
41
1
10
24.0204473188915
20
-2.6251621862003
30
0
41
1
10
24.2685182914997
20
-2.60903634030174
30
0
41
1
10
24.5875469476402
20
-2.57603285288167
30
0
41
1
10
24.8357770995134
20
-2.54362988214615
30
0
41
1
10
24.9877281360436
20
-2.5205402592284
30
0
41
1
10
25.0687553628491
20
-2.50725894189836
30
0
41
1
10
25.0788192644071
20
-2.50559448236217
30
0
0
SPLINE
5
1F1
100
AcDbEntity
8
1
62
256
6
ByLayer
370
18
48
1
60
0
100
AcDbSpline
70
4
71
1
72
4
73
2
40
0
40
0
40
1
40
1
41
1
10
19.1446498577734
20
-2.61624559043696
30
0
41
1
10
19.2433242498215
20
-2.60650066226924
30
0
0
SPLINE
5
1F2
100
AcDbEntity
8
1
62
256
6
ByLayer
370
18
48
1
60
0
100
AcDbSpline
70
4
71
2
72
6
73
3
40
0
40
0
40
0
40
1
40
1
40
1
41
1
10
19.2433242498215
20
-2.60650066226924
30
0
41
1
10
19.3704835139011
20
-2.59614605064357
30
0
41
1
10
19.4976323459953
20
-2.5799980110373
30
0
0
SPLINE
5
1F3
100
AcDbEntity
8
1
62
256
6
ByLayer
370
18
48
1
60
0
100
AcDbSpline
70
4
71
2
72
6
73
3
40
0
40
0
40
0
40
1
40
1
40
1
41
1
10
19.5037315965158
20
-2.57922006607782
30
0
41
1
10
19.5861456031566
20
-2.56866331148996
30
0
41
1
10
19.6685552270545
20
-2.55567259022763
30
0
0
SPLINE
5
1F4
100
AcDbEntity
8
1
62
256
6
ByLayer
370
18
48
1
60
0
100
AcDbSpline
70
4
71
1
72
4
73
2
40
0
40
0
40
1
40
1
41
1
10
19.6685552270545
20
-2.55567259022763
30
0
41
1
10
19.7288235115517
20
-2.54742420936051
30
0
0
SPLINE
5
1F5
100
AcDbEntity
8
1
62
256
6
ByLayer
370
18
48
1
60
0
100
AcDbSpline
70
4
71
2
72
6
73
3
40
0
40
0
40
0
40
1
40
1
40
1
41
1
10
20.7830548461361
20
1.36872707679879
30
0
41
1
10
20.2837846905554
20
1.5067673880192
30
0
41
1
10
19.7806500023132
20
1.75929447228955
30
0
0
SPLINE
5
1F6
100
AcDbEntity
8
1
62
256
6
ByLayer
370
18
48
1
60
0
100
AcDbSpline
70
4
71
2
72
6
73
3
40
0
40
0
40
0
40
1
40
1
40
1
41
1
10
28.9500074153245
20
-2.63133304416408
30
0
41
1
10
29.1264718921651
20
-2.62320307391636
30
0
41
1
10
29.3029375204808
20
-2.60757014227497
30
0
0
SPLINE
5
1F7
100
AcDbEntity
8
1
62
256
6
ByLayer
370
18
48
1
60
0
100
AcDbSpline
70
4
71
2
72
6
73
3
40
0
40
0
40
0
40
1
40
1
40
1
41
1
10
25.6795925306526
20
1.40390782438965
30
0
41
1
10
25.1340266951634
20
1.54034820957884
30
0
41
1
10
24.5832922833788
20
1.79769885568638
30
0
0
SPLINE
5
1F8
100
AcDbEntity
8
1
62
256
6
ByLayer
370
18
48
1
60
0
100
AcDbSpline
70
4
71
3
72
8
73
4
40
0
40
0
40
0
40
0
40
1
40
1
40
1
40
1
41
1
10
11.1215888006477
20
2.58395743781372
30
0
41
1
10
11.1665952179029
20
2.58094284529614
30
0
41
1
10
11.2116197968392
20
2.57729977487651
30
0
41
1
10
11.2566602631868
20
2.57295133523107
30
0
0
SPLINE
5
1F9
100
AcDbEntity
8
1
62
256
6
ByLayer
370
18
48
1
60
0
100
AcDbSpline
70
4
71
3
72
8
73
4
40
0
40
0
40
0
40
0
40
1
40
1
40
1
40
1
41
1
10
14.2889690521909
20
1.52494347819439
30
0
41
1
10
14.3045587701733
20
1.51663569344777
30
0
41
1
10
14.3201469060947
20
1.50828715735369
30
0
41
1
10
14.3357333816932
20
1.49989772335727
30
0
0
SPLINE
5
1FA
100
AcDbEntity
8
1
62
256
6
ByLayer
370
18
48
1
60
0
100
AcDbSpline
70
4
71
2
72
6
73
3
40
0
40
0
40
0
40
1
40
1
40
1
41
1
10
14.3358418604082
20
1.49983978000512
30
0
41
1
10
14.3357485752139
20
1.4998817955408
30
0
41
1
10
14.3356552900219
20
1.49993466087256
30
0
0
SPLINE
5
1FB
100
AcDbEntity
8
1
62
256
6
ByLayer
370
18
48
1
60
0
100
AcDbSpline
70
4
71
1
72
4
73
2
40
0
40
0
40
1
40
1
41
1
10
20.0785074861796
20
1.50107532040721
30
0
41
1
10
20.0785184611184
20
1.50106551887333
30
0
0
SPLINE
5
1FC
100
AcDbEntity
8
1
62
256
6
ByLayer
370
18
48
1
60
0
100
AcDbSpline
70
4
71
2
72
6
73
3
40
0
40
0
40
0
40
1
40
1
40
1
41
1
10
9.72226193993595
20
1.5075913978232
30
0
41
1
10
9.72226609588199
20
1.50799205317551
30
0
41
1
10
9.72227025182818
20
1.50839220124723
30
0
0
SPLINE
5
1FD
100
AcDbEntity
8
1
62
256
6
ByLayer
370
18
48
1
60
0
100
AcDbSpline
70
4
71
2
72
6
73
3
40
0
40
0
40
0
40
1
40
1
40
1
41
1
10
24.9996591415583
20
1.49993576999373
30
0
41
1
10
24.9995895812339
20
1.49996995254273
30
0
41
1
10
24.9995200208971
20
1.50001237637468
30
0
0
LINE
5
79
100
AcDbEntity
8
80
62
256
6
ByLayer
370
18
48
1
60
0
100
AcDbLine
10
0
20
0
30
0
11
-5
21
0
31
0
39
0
210
0
220
0
230
1
0
LINE
5
7A
100
AcDbEntity
8
4
62
256
6
ByLayer
370
18
48
0.05
60
0
100
AcDbLine
10
0
20
0
30
0
11
30
21
0
31
0
39
0
210
0
220
0
230
1
0
LINE
5
7C
100
AcDbEntity
8
81
62
256
6
ByLayer
370
18
48
1
60
0
100
AcDbLine
10
30
20
0
30
0
11
35
21
0
31
0
39
0
210
0
220
0
230
1
0
LINE
5
7D
100
AcDbEntity
8
SK4
62
256
6
ByLayer
370
18
48
0.05
60
0
100
AcDbLine
10
-36
20
0
30
0
11
30
21
0
31
0
39
0
210
0
220
0
230
1
0
LINE
5
7F
100
AcDbEntity
8
1
62
256
6
ByLayer
370
18
48
1
60
0
100
AcDbLine
10
0
20
3
30
0
11
0
21
0
31
0
39
0
210
0
220
0
230
1
0
LINE
5
80
100
AcDbEntity
8
1
62
256
6
ByLayer
370
18
48
1
60
0
100
AcDbLine
10
0
20
0
30
0
11
0
21
-3
31
0
39
0
210
0
220
0
230
1
0
LINE
5
81
100
AcDbEntity
8
1
62
256
6
ByLayer
370
18
48
1
60
0
100
AcDbLine
10
29.969682
20
0.695482
30
0
11
29.996698
21
0.692204
31
0
39
0
210
0
220
0
230
1
0
LINE
5
82
100
AcDbEntity
8
1
62
256
6
ByLayer
370
18
48
1
60
0
100
AcDbLine
10
29.996698
20
0.692204
30
0
11
29.946199
21
0.290128
31
0
39
0
210
0
220
0
230
1
0
LINE
5
83
100
AcDbEntity
8
1
62
256
6
ByLayer
370
18
48
1
60
0
100
AcDbLine
10
29.959563
20
0.398722
30
0
11
29.996698
21
0.692204
31
0
39
0
210
0
220
0
230
1
0
LINE
5
84
100
AcDbEntity
8
1
62
256
6
ByLayer
370
18
48
1
60
0
100
AcDbLine
10
29.946199
20
0.290128
30
0
11
29.923379
21
0.109791
31
0
39
0
210
0
220
0
230
1
0
LINE
5
85
100
AcDbEntity
8
1
62
256
6
ByLayer
370
18
48
1
60
0
100
AcDbLine
10
29.923415
20
0.111167
30
0
11
29.959563
21
0.398722
31
0
39
0
210
0
220
0
230
1
0
LINE
5
86
100
AcDbEntity
8
1
62
256
6
ByLayer
370
18
48
1
60
0
100
AcDbLine
10
29.950888
20
0.39629
30
0
11
29.959563
21
0.398722
31
0
39
0
210
0
220
0
230
1
0
LINE
5
87
100
AcDbEntity
8
1
62
256
6
ByLayer
370
18
48
1
60
0
100
AcDbLine
10
29.701956
20
-0.513084
30
0
11
29.873873
21
-0.109525
31
0
39
0
210
0
220
0
230
1
0
LINE
5
88
100
AcDbEntity
8
1
62
256
6
ByLayer
370
18
48
1
60
0
100
AcDbLine
10
29.996698
20
-2.326527
30
0
11
29.946199
21
-2.462453
31
0
39
0
210
0
220
0
230
1
0
LINE
5
89
100
AcDbEntity
8
1
62
256
6
ByLayer
370
18
48
1
60
0
100
AcDbLine
10
29.953934
20
-0.988398
30
0
11
29.95673
21
-1.075878
31
0
39
0
210
0
220
0
230
1
0
LINE
5
8A
100
AcDbEntity
8
1
62
256
6
ByLayer
370
18
48
1
60
0
100
AcDbLine
10
29.992718
20
-2.201997
30
0
11
29.996698
21
-2.326527
31
0
39
0
210
0
220
0
230
1
0
LINE
5
8B
100
AcDbEntity
8
1
62
256
6
ByLayer
370
18
48
1
60
0
100
AcDbLine
10
29.923372
20
0.109541
30
0
11
29.929445
21
0.338137
31
0
39
0
210
0
220
0
230
1
0
LINE
5
8C
100
AcDbEntity
8
1
62
256
6
ByLayer
370
18
48
1
60
0
100
AcDbLine
10
29.956892
20
1.371197
30
0
11
29.996698
21
2.869427
31
0
39
0
210
0
220
0
230
1
0
LINE
5
8D
100
AcDbEntity
8
1
62
256
6
ByLayer
370
18
48
1
60
0
100
AcDbLine
10
29.884632
20
2.980192
30
0
11
29.996698
21
2.869427
31
0
39
0
210
0
220
0
230
1
0
LINE
5
8E
100
AcDbEntity
8
1
62
256
6
ByLayer
370
18
48
1
60
0
100
AcDbLine
10
29.902349
20
-0.111977
30
0
11
29.900091
21
-0.111736
31
0
39
0
210
0
220
0
230
1
0
LINE
5
8F
100
AcDbEntity
8
1
62
256
6
ByLayer
370
18
48
1
60
0
100
AcDbLine
10
29.902349
20
-0.111977
30
0
11
29.919862
21
-0.05382
31
0
39
0
210
0
220
0
230
1
0
LINE
5
90
100
AcDbEntity
8
1
62
256
6
ByLayer
370
18
48
1
60
0
100
AcDbLine
10
29.946199
20
-2.462453
30
0
11
29.809592
21
-2.664136
31
0
39
0
210
0
220
0
230
1
0
LINE
5
91
100
AcDbEntity
8
1
62
256
6
ByLayer
370
18
48
1
60
0
100
AcDbLine
10
29.946199
20
-2.462453
30
0
11
29.939135
21
-2.238645
31
0
39
0
210
0
220
0
230
1
0
LINE
5
92
100
AcDbEntity
8
1
62
256
6
ByLayer
370
13
48
1
60
0
100
AcDbLine
10
7.230571
20
-2.845412
30
0
11
8.885734
21
-2.632609
31
0
39
0
210
0
220
0
230
1
0
LINE
5
93
100
AcDbEntity
8
1
62
256
6
ByLayer
370
13
48
1
60
0
100
AcDbLine
10
8.752768
20
2.904268
30
0
11
9
21
2.793416
31
0
39
0
210
0
220
0
230
1
0
LINE
5
94
100
AcDbEntity
8
1
62
256
6
ByLayer
370
13
48
1
60
0
100
AcDbLine
10
29.83201
20
0.314022
30
0
11
29.923372
21
0.109541
31
0
39
0
210
0
220
0
230
1
0
LINE
5
95
100
AcDbEntity
8
1
62
256
6
ByLayer
370
13
48
1
60
0
100
AcDbLine
10
28.629302
20
-1.675624
30
0
11
28.539634
21
-1.820474
31
0
39
0
210
0
220
0
230
1
0
LINE
5
96
100
AcDbEntity
8
1
62
256
6
ByLayer
370
18
48
1
60
0
100
AcDbLine
10
7.265947
20
2.718951
30
0
11
9
21
1.941446
31
0
39
0
210
0
220
0
230
1
0
LINE
5
97
100
AcDbEntity
8
1
62
256
6
ByLayer
370
18
48
1
60
0
100
AcDbLine
10
7.238149
20
-2.813104
30
0
11
8.844324
21
-2.6066
31
0
39
0
210
0
220
0
230
1
0
LINE
5
98
100
AcDbEntity
8
1
62
256
6
ByLayer
370
13
48
1
60
0
100
AcDbLine
10
29.828987
20
-0.038205
30
0
11
29.900091
21
-0.111736
31
0
39
0
210
0
220
0
230
1
0
LINE
5
99
100
AcDbEntity
8
1
62
256
6
ByLayer
370
13
48
1
60
0
100
AcDbLine
10
7.212795
20
2.70902
30
0
11
7.789559
21
2.450414
31
0
39
0
210
0
220
0
230
1
0
LINE
5
9A
100
AcDbEntity
8
1
62
256
6
ByLayer
370
13
48
1
60
0
100
AcDbLine
10
8.855655
20
1.972403
30
0
11
9
21
1.907683
31
0
39
0
210
0
220
0
230
1
0
LINE
5
9B
100
AcDbEntity
8
1
62
256
6
ByLayer
370
13
48
1
60
0
100
AcDbLine
10
6.047895
20
-2.219174
30
0
11
6.943167
21
-2.10407
31
0
39
0
210
0
220
0
230
1
0
LINE
5
9C
100
AcDbEntity
8
1
62
256
6
ByLayer
370
18
48
1
60
0
100
AcDbLine
10
29.94858
20
-0.846806
30
0
11
29.996698
21
-2.199284
31
0
39
0
210
0
220
0
230
1
0
LINE
5
9D
100
AcDbEntity
8
1
62
256
6
ByLayer
370
18
48
1
60
0
100
AcDbLine
10
29.906695
20
-0.744585
30
0
11
29.94858
21
-0.846806
31
0
39
0
210
0
220
0
230
1
0
LINE
5
9E
100
AcDbEntity
8
1
62
256
6
ByLayer
370
18
48
1
60
0
100
AcDbLine
10
6.094728
20
-2.10789
30
0
11
6.395605
21
-2.069207
31
0
39
0
210
0
220
0
230
1
0
LINE
5
9F
100
AcDbEntity
8
1
62
256
6
ByLayer
370
18
48
1
60
0
100
AcDbLine
10
29.946199
20
-1.864683
30
0
11
29.906695
21
-0.744585
31
0
39
0
210
0
220
0
230
1
0
LINE
5
A0
100
AcDbEntity
8
1
62
256
6
ByLayer
370
18
48
1
60
0
100
AcDbLine
10
29.536597
20
-0.32613
30
0
11
29.906695
21
-0.744585
31
0
39
0
210
0
220
0
230
1
0
LINE
5
A1
100
AcDbEntity
8
1
62
256
6
ByLayer
370
18
48
1
60
0
100
AcDbLine
10
29.885061
20
-2.275629
30
0
11
29.996698
21
-2.199284
31
0
39
0
210
0
220
0
230
1
0
LINE
5
A2
100
AcDbEntity
8
1
62
256
6
ByLayer
370
18
48
1
60
0
100
AcDbLine
10
29.996698
20
-2.199284
30
0
11
29.946199
21
-1.864683
31
0
39
0
210
0
220
0
230
1
0
LINE
5
A3
100
AcDbEntity
8
1
62
256
6
ByLayer
370
18
48
1
60
0
100
AcDbLine
10
29.946199
20
-1.864683
30
0
11
29.8129
21
-1.634531
31
0
39
0
210
0
220
0
230
1
0
LINE
5
A4
100
AcDbEntity
8
1
62
256
6
ByLayer
370
18
48
1
60
0
100
AcDbLine
10
9
20
1.907683
30
0
11
9
21
1.941446
31
0
39
0
210
0
220
0
230
1
0
LINE
5
A5
100
AcDbEntity
8
1
62
256
6
ByLayer
370
13
48
1
60
0
100
AcDbLine
10
7.148463
20
-1.179662
30
0
11
9
21
-1.975609
31
0
39
0
210
0
220
0
230
1
0
LINE
5
A6
100
AcDbEntity
8
1
62
256
6
ByLayer
370
18
48
1
60
0
100
AcDbLine
10
9
20
-1.975609
30
0
11
9
21
-1.853578
31
0
39
0
210
0
220
0
230
1
0
LINE
5
A7
100
AcDbEntity
8
1
62
256
6
ByLayer
370
13
48
1
60
0
100
AcDbLine
10
8.788426
20
1.381874
30
0
11
9
21
1.290921
31
0
39
0
210
0
220
0
230
1
0
LINE
5
A8
100
AcDbEntity
8
1
62
256
6
ByLayer
370
18
48
1
60
0
100
AcDbLine
10
9
20
0.054994
30
0
11
9
21
0.174089
31
0
39
0
210
0
220
0
230
1
0
LINE
5
A9
100
AcDbEntity
8
1
62
256
6
ByLayer
370
13
48
1
60
0
100
AcDbLine
10
6.818387
20
1.111931
30
0
11
9
21
0.174089
31
0
39
0
210
0
220
0
230
1
0
LINE
5
AA
100
AcDbEntity
8
1
62
256
6
ByLayer
370
18
48
1
60
0
100
AcDbLine
10
9
20
1.907683
30
0
11
9
21
1.887601
31
0
39
0
210
0
220
0
230
1
0
LINE
5
AB
100
AcDbEntity
8
1
62
256
6
ByLayer
370
18
48
1
60
0
100
AcDbLine
10
29.996698
20
1.125588
30
0
11
29.946199
21
1.437163
31
0
39
0
210
0
220
0
230
1
0
LINE
5
AC
100
AcDbEntity
8
1
62
256
6
ByLayer
370
18
48
1
60
0
100
AcDbLine
10
29.946199
20
1.437163
30
0
11
29.81609
21
1.745726
31
0
39
0
210
0
220
0
230
1
0
LINE
5
AD
100
AcDbEntity
8
1
62
256
6
ByLayer
370
18
48
1
60
0
100
AcDbLine
10
29.886257
20
1.181115
30
0
11
29.996698
21
1.125588
31
0
39
0
210
0
220
0
230
1
0
LINE
5
AE
100
AcDbEntity
8
1
62
256
6
ByLayer
370
13
48
1
60
0
100
AcDbLine
10
29.038389
20
0.779379
30
0
11
29.558672
21
0.241337
31
0
39
0
210
0
220
0
230
1
0
LINE
5
AF
100
AcDbEntity
8
1
62
256
6
ByLayer
370
18
48
1
60
0
100
AcDbLine
10
29.947516
20
0.342595
30
0
11
29.61282
21
0.259712
31
0
39
0
210
0
220
0
230
1
0
LINE
5
B0
100
AcDbEntity
8
1
62
256
6
ByLayer
370
18
48
1
60
0
100
AcDbLine
10
29.947516
20
0.342595
30
0
11
29.996698
21
1.125588
31
0
39
0
210
0
220
0
230
1
0
LINE
5
B1
100
AcDbEntity
8
1
62
256
6
ByLayer
370
18
48
1
60
0
100
AcDbLine
10
9
20
0.174089
30
0
11
9
21
1.290921
31
0
39
0
210
0
220
0
230
1
0
LINE
5
B2
100
AcDbEntity
8
1
62
256
6
ByLayer
370
18
48
1
60
0
100
AcDbLine
10
9
20
1.94145
30
0
11
9
21
2.793416
31
0
39
0
210
0
220
0
230
1
0
LINE
5
B3
100
AcDbEntity
8
1
62
256
6
ByLayer
370
18
48
1
60
0
100
AcDbLine
10
9
20
-1.975609
30
0
11
9
21
-2.215232
31
0
39
0
210
0
220
0
230
1
0
LINE
5
B4
100
AcDbEntity
8
1
62
256
6
ByLayer
370
13
48
1
60
0
100
AcDbLine
10
7.082104
20
-1.029104
30
0
11
9
21
-1.853578
31
0
39
0
210
0
220
0
230
1
0
LINE
5
B5
100
AcDbEntity
8
1
62
256
6
ByLayer
370
18
48
1
60
0
100
AcDbLine
10
9
20
-1.853578
30
0
11
9
21
-1.352628
31
0
39
0
210
0
220
0
230
1
0
LINE
5
B6
100
AcDbEntity
8
1
62
256
6
ByLayer
370
18
48
1
60
0
100
AcDbLine
10
7.218502
20
-0.58679
30
0
11
9
21
-1.352628
31
0
39
0
210
0
220
0
230
1
0
LINE
5
B7
100
AcDbEntity
8
1
62
256
6
ByLayer
370
18
48
1
60
0
100
AcDbLine
10
9
20
-1.352628
30
0
11
9
21
0.054994
31
0
39
0
210
0
220
0
230
1
0
LINE
5
B8
100
AcDbEntity
8
1
62
256
6
ByLayer
370
13
48
1
60
0
100
AcDbLine
10
6.787479
20
1.006122
30
0
11
9
21
0.054994
31
0
39
0
210
0
220
0
230
1
0
LINE
5
B9
100
AcDbEntity
8
1
62
256
6
ByLayer
370
13
48
1
60
0
100
AcDbLine
10
8.525026
20
-2.456326
30
0
11
8.525026
21
-1.992563
31
0
39
0
210
0
220
0
230
1
0
LINE
5
BA
100
AcDbEntity
8
1
62
256
6
ByLayer
370
13
48
1
60
0
100
AcDbLine
10
8.525026
20
1.424426
30
0
11
8.525026
21
2.134268
31
0
39
0
210
0
220
0
230
1
0
LINE
5
BB
100
AcDbEntity
8
1
62
256
6
ByLayer
370
18
48
1
60
0
100
AcDbLine
10
9
20
2.999614
30
0
11
9
21
2.793416
31
0
39
0
210
0
220
0
230
1
0
LINE
5
BC
100
AcDbEntity
8
1
62
256
6
ByLayer
370
18
48
1
60
0
100
AcDbLine
10
9
20
1.308545
30
0
11
9
21
1.290921
31
0
39
0
210
0
220
0
230
1
0
LINE
5
BD
100
AcDbEntity
8
1
62
256
6
ByLayer
370
18
48
1
60
0
100
AcDbLine
10
9
20
-2.704403
30
0
11
9
21
-2.779936
31
0
39
0
210
0
220
0
230
1
0
LINE
5
BE
100
AcDbEntity
8
1
62
256
6
ByLayer
370
18
48
1
60
0
100
AcDbLine
10
9
20
2.999614
30
0
11
9
21
2.999653
31
0
39
0
210
0
220
0
230
1
0
LINE
5
BF
100
AcDbEntity
8
1
62
256
6
ByLayer
370
13
48
1
60
0
100
AcDbLine
10
2.996857
20
-2.88
30
0
11
2.996857
21
0
31
0
39
0
210
0
220
0
230
1
0
LINE
5
C0
100
AcDbEntity
8
1
62
256
6
ByLayer
370
13
48
1
60
0
100
AcDbLine
10
2.996857
20
0
30
0
11
2.996857
21
2.88
31
0
39
0
210
0
220
0
230
1
0
LINE
5
C1
100
AcDbEntity
8
1
62
256
6
ByLayer
370
18
48
1
60
0
100
AcDbLine
10
2.521884
20
3
30
0
11
2.521884
21
0
31
0
39
0
210
0
220
0
230
1
0
LINE
5
C2
100
AcDbEntity
8
1
62
256
6
ByLayer
370
18
48
1
60
0
100
AcDbLine
10
2.521884
20
0
30
0
11
2.521884
21
-3
31
0
39
0
210
0
220
0
230
1
0
LINE
5
C3
100
AcDbEntity
8
SK1
62
256
6
ByLayer
370
18
48
1
60
0
100
AcDbLine
10
0
20
3
30
0
11
0
21
0
31
0
39
0
210
0
220
0
230
1
0
LINE
5
C5
100
AcDbEntity
8
SK1
62
256
6
ByLayer
370
18
48
1
60
0
100
AcDbLine
10
0
20
0
30
0
11
0
21
-3
31
0
39
0
210
0
220
0
230
1
0
LINE
5
C6
100
AcDbEntity
8
SK1
62
256
6
ByLayer
370
18
48
1
60
0
100
AcDbLine
10
-21
20
3
30
0
11
-20.1
21
2.1
31
0
39
0
210
0
220
0
230
1
0
LINE
5
C7
100
AcDbEntity
8
SK1
62
256
6
ByLayer
370
18
48
1
60
0
100
AcDbLine
10
-15
20
3
30
0
11
-15.9
21
2.1
31
0
39
0
210
0
220
0
230
1
0
LINE
5
C8
100
AcDbEntity
8
SK1
62
256
6
ByLayer
370
18
48
1
60
0
100
AcDbLine
10
-20.1
20
2.1
30
0
11
-15.9
21
2.1
31
0
39
0
210
0
220
0
230
1
0
LINE
5
C9
100
AcDbEntity
8
SK1
62
256
6
ByLayer
370
18
48
1
60
0
100
AcDbLine
10
-35.6
20
3
30
0
11
-35.6
21
-3
31
0
39
0
210
0
220
0
230
1
0
LINE
5
CA
100
AcDbEntity
8
SK1
62
256
6
ByLayer
370
18
48
1
60
0
100
AcDbLine
10
-36
20
-2.6
30
0
11
-36
21
2.6
31
0
39
0
210
0
220
0
230
1
0
LINE
5
CB
100
AcDbEntity
8
1
62
256
6
ByLayer
370
18
48
1
60
0
100
AcDbLine
10
6.5125
20
2.88
30
0
11
2.996857
21
2.88
31
0
39
0
210
0
220
0
230
1
0
LINE
5
CC
100
AcDbEntity
8
1
62
256
6
ByLayer
370
18
48
1
60
0
100
AcDbLine
10
2.521884
20
3
30
0
11
0
21
3
31
0
39
0
210
0
220
0
230
1
0
LINE
5
CD
100
AcDbEntity
8
1
62
256
6
ByLayer
370
18
48
1
60
0
100
AcDbLine
10
0
20
-3
30
0
11
2.521884
21
-3
31
0
39
0
210
0
220
0
230
1
0
LINE
5
CE
100
AcDbEntity
8
1
62
256
6
ByLayer
370
18
48
1
60
0
100
AcDbLine
10
2.996857
20
-2.88
30
0
11
7.758623
21
-2.88
31
0
39
0
210
0
220
0
230
1
0
LINE
5
CF
100
AcDbEntity
8
SK1
62
256
6
ByLayer
370
18
48
1
60
0
100
AcDbLine
10
0
20
3
30
0
11
-15
21
3
31
0
39
0
210
0
220
0
230
1
0
LINE
5
D0
100
AcDbEntity
8
SK1
62
256
6
ByLayer
370
18
48
1
60
0
100
AcDbLine
10
-21
20
3
30
0
11
-35.6
21
3
31
0
39
0
210
0
220
0
230
1
0
LINE
5
D1
100
AcDbEntity
8
SK1
62
256
6
ByLayer
370
18
48
1
60
0
100
AcDbLine
10
-35.6
20
-3
30
0
11
0
21
-3
31
0
39
0
210
0
220
0
230
1
0
LINE
5
D2
100
AcDbEntity
8
SK1
62
256
6
ByLayer
370
18
48
1
60
0
100
AcDbLine
10
-36
20
-2.6
30
0
11
-35.6
21
-3
31
0
39
0
210
0
220
0
230
1
0
LINE
5
D3
100
AcDbEntity
8
SK1
62
256
6
ByLayer
370
18
48
1
60
0
100
AcDbLine
10
-35.6
20
3
30
0
11
-36
21
2.6
31
0
39
0
210
0
220
0
230
1
0
LINE
5
D4
100
AcDbEntity
8
SK2
62
256
6
ByLayer
370
18
48
1
60
0
100
AcDbLine
10
-43.85
20
11.75
30
0
11
-43.85
21
-19.315466
31
0
39
0
210
0
220
0
230
1
0
LINE
5
D6
100
AcDbEntity
8
SK2
62
256
6
ByLayer
370
18
48
1
60
0
100
AcDbLine
10
-37.1875
20
3
30
0
11
-45.85
21
3
31
0
39
0
210
0
220
0
230
1
0
LINE
5
D7
100
AcDbEntity
8
SK2
62
256
6
ByLayer
370
18
48
1
60
0
100
AcDbLine
10
-37.1875
20
-3
30
0
11
-45.85
21
-3
31
0
39
0
210
0
220
0
230
1
0
LINE
5
D8
100
AcDbEntity
8
1
62
256
6
ByLayer
370
18
48
1
60
1
100
AcDbLine
10
-43.85
20
3
30
0
11
-44.310784
21
6.499998
31
0
39
0
210
0
220
0
230
1
0
LINE
5
D9
100
AcDbEntity
8
1
62
256
6
ByLayer
370
18
48
1
60
1
100
AcDbLine
10
-44.310784
20
6.499998
30
0
11
-43.389216
21
6.500002
31
0
39
0
210
0
220
0
230
1
0
LINE
5
DA
100
AcDbEntity
8
1
62
256
6
ByLayer
370
18
48
1
60
1
100
AcDbLine
10
-43.389216
20
6.500002
30
0
11
-43.85
21
3
31
0
39
0
210
0
220
0
230
1
0
LINE
5
DB
100
AcDbEntity
8
1
62
256
6
ByLayer
370
18
48
1
60
1
100
AcDbLine
10
-43.85
20
-3
30
0
11
-43.389216
21
-6.499998
31
0
39
0
210
0
220
0
230
1
0
LINE
5
DC
100
AcDbEntity
8
1
62
256
6
ByLayer
370
18
48
1
60
1
100
AcDbLine
10
-43.389216
20
-6.499998
30
0
11
-44.310784
21
-6.500002
31
0
39
0
210
0
220
0
230
1
0
LINE
5
DD
100
AcDbEntity
8
1
62
256
6
ByLayer
370
18
48
1
60
1
100
AcDbLine
10
-44.310784
20
-6.500002
30
0
11
-43.85
21
-3
31
0
39
0
210
0
220
0
230
1
0
LINE
5
DE
100
AcDbEntity
8
SK2
62
256
6
ByLayer
370
13
48
1
60
0
100
AcDbLine
10
7.210942
20
29.844398
30
0
11
7.210942
21
-11.63
31
0
39
0
210
0
220
0
230
1
0
LINE
5
DF
100
AcDbEntity
8
SK2
62
256
6
ByLayer
370
13
48
1
60
0
100
AcDbLine
10
6.937526
20
2.88
30
0
11
5.210942
21
2.88
31
0
39
0
210
0
220
0
230
1
0
LINE
5
E0
100
AcDbEntity
8
SK2
62
256
6
ByLayer
370
13
48
1
60
0
100
AcDbLine
10
6.937526
20
-2.88
30
0
11
5.210942
21
-2.88
31
0
39
0
210
0
220
0
230
1
0
LINE
5
E1
100
AcDbEntity
8
1
62
256
6
ByLayer
370
18
48
1
60
1
100
AcDbLine
10
7.210942
20
2.88
30
0
11
6.750158
21
6.379998
31
0
39
0
210
0
220
0
230
1
0
LINE
5
E2
100
AcDbEntity
8
1
62
256
6
ByLayer
370
18
48
1
60
1
100
AcDbLine
10
6.750158
20
6.379998
30
0
11
7.671726
21
6.380002
31
0
39
0
210
0
220
0
230
1
0
LINE
5
E3
100
AcDbEntity
8
1
62
256
6
ByLayer
370
18
48
1
60
1
100
AcDbLine
10
7.671726
20
6.380002
30
0
11
7.210942
21
2.88
31
0
39
0
210
0
220
0
230
1
0
LINE
5
E4
100
AcDbEntity
8
1
62
256
6
ByLayer
370
18
48
1
60
1
100
AcDbLine
10
7.210942
20
-2.88
30
0
11
7.671726
21
-6.379998
31
0
39
0
210
0
220
0
230
1
0
LINE
5
E5
100
AcDbEntity
8
1
62
256
6
ByLayer
370
18
48
1
60
1
100
AcDbLine
10
7.671726
20
-6.379998
30
0
11
6.750158
21
-6.380002
31
0
39
0
210
0
220
0
230
1
0
LINE
5
E6
100
AcDbEntity
8
1
62
256
6
ByLayer
370
18
48
1
60
1
100
AcDbLine
10
6.750158
20
-6.380002
30
0
11
7.210942
21
-2.88
31
0
39
0
210
0
220
0
230
1
0
LINE
5
E7
100
AcDbEntity
8
2
62
256
6
ByLayer
370
18
48
1
60
0
100
AcDbLine
10
42
20
19.315466
30
0
11
42
21
-11.75
31
0
39
0
210
0
220
0
230
1
0
LINE
5
E9
100
AcDbEntity
8
2
62
256
6
ByLayer
370
18
48
1
60
0
100
AcDbLine
10
31.5875
20
3
30
0
11
44
21
3
31
0
39
0
210
0
220
0
230
1
0
LINE
5
EA
100
AcDbEntity
8
2
62
256
6
ByLayer
370
18
48
1
60
0
100
AcDbLine
10
31.5875
20
-3
30
0
11
44
21
-3
31
0
39
0
210
0
220
0
230
1
0
LINE
5
EB
100
AcDbEntity
8
1
62
256
6
ByLayer
370
18
48
1
60
1
100
AcDbLine
10
42
20
3
30
0
11
41.539216
21
6.499998
31
0
39
0
210
0
220
0
230
1
0
LINE
5
EC
100
AcDbEntity
8
1
62
256
6
ByLayer
370
18
48
1
60
1
100
AcDbLine
10
41.539216
20
6.499998
30
0
11
42.460784
21
6.500002
31
0
39
0
210
0
220
0
230
1
0
LINE
5
ED
100
AcDbEntity
8
1
62
256
6
ByLayer
370
18
48
1
60
1
100
AcDbLine
10
42.460784
20
6.500002
30
0
11
42
21
3
31
0
39
0
210
0
220
0
230
1
0
LINE
5
EE
100
AcDbEntity
8
1
62
256
6
ByLayer
370
18
48
1
60
1
100
AcDbLine
10
42
20
-3
30
0
11
42.460784
21
-6.499998
31
0
39
0
210
0
220
0
230
1
0
LINE
5
EF
100
AcDbEntity
8
1
62
256
6
ByLayer
370
18
48
1
60
1
100
AcDbLine
10
42.460784
20
-6.499998
30
0
11
41.539216
21
-6.500002
31
0
39
0
210
0
220
0
230
1
0
LINE
5
F0
100
AcDbEntity
8
1
62
256
6
ByLayer
370
18
48
1
60
1
100
AcDbLine
10
41.539216
20
-6.500002
30
0
11
42
21
-3
31
0
39
0
210
0
220
0
230
1
0
LINE
5
F1
100
AcDbEntity
8
SK2
62
256
6
ByLayer
370
18
48
1
60
0
100
AcDbLine
10
30
20
-49.541434
30
0
11
-36
21
-49.541434
31
0
39
0
210
0
220
0
230
1
0
LINE
5
F2
100
AcDbEntity
8
SK2
62
256
6
ByLayer
370
18
48
1
60
0
100
AcDbLine
10
-36
20
-4.1875
30
0
11
-36
21
-51.541434
31
0
39
0
210
0
220
0
230
1
0
LINE
5
F3
100
AcDbEntity
8
SK2
62
256
6
ByLayer
370
18
48
1
60
0
100
AcDbLine
10
30
20
-4.5875
30
0
11
30
21
-51.541434
31
0
39
0
210
0
220
0
230
1
0
LINE
5
F4
100
AcDbEntity
8
1
62
256
6
ByLayer
370
18
48
1
60
1
100
AcDbLine
10
-36
20
-49.541434
30
0
11
-32.500002
21
-49.08065
31
0
39
0
210
0
220
0
230
1
0
LINE
5
F5
100
AcDbEntity
8
1
62
256
6
ByLayer
370
18
48
1
60
1
100
AcDbLine
10
-32.500002
20
-49.08065
30
0
11
-32.499998
21
-50.002218
31
0
39
0
210
0
220
0
230
1
0
LINE
5
F6
100
AcDbEntity
8
1
62
256
6
ByLayer
370
18
48
1
60
1
100
AcDbLine
10
-32.499998
20
-50.002218
30
0
11
-36
21
-49.541434
31
0
39
0
210
0
220
0
230
1
0
LINE
5
F7
100
AcDbEntity
8
1
62
256
6
ByLayer
370
18
48
1
60
1
100
AcDbLine
10
30
20
-49.541434
30
0
11
26.500002
21
-50.002218
31
0
39
0
210
0
220
0
230
1
0
LINE
5
F8
100
AcDbEntity
8
1
62
256
6
ByLayer
370
18
48
1
60
1
100
AcDbLine
10
26.500002
20
-50.002218
30
0
11
26.499998
21
-49.08065
31
0
39
0
210
0
220
0
230
1
0
LINE
5
F9
100
AcDbEntity
8
1
62
256
6
ByLayer
370
18
48
1
60
1
100
AcDbLine
10
26.499998
20
-49.08065
30
0
11
30
21
-49.541434
31
0
39
0
210
0
220
0
230
1
0
LINE
5
202
100
AcDbEntity
8
1
62
256
6
ByLayer
370
18
48
1
60
1
100
AcDbLine
10
-43.85
20
3
30
0
11
-44.310784
21
6.499998
31
0
39
0
210
0
220
0
230
1
0
LINE
5
203
100
AcDbEntity
8
1
62
256
6
ByLayer
370
18
48
1
60
1
100
AcDbLine
10
-44.310784
20
6.499998
30
0
11
-43.389216
21
6.500002
31
0
39
0
210
0
220
0
230
1
0
LINE
5
204
100
AcDbEntity
8
1
62
256
6
ByLayer
370
18
48
1
60
1
100
AcDbLine
10
-43.389216
20
6.500002
30
0
11
-43.85
21
3
31
0
39
0
210
0
220
0
230
1
0
LINE
5
206
100
AcDbEntity
8
1
62
256
6
ByLayer
370
18
48
1
60
1
100
AcDbLine
10
-43.85
20
-3
30
0
11
-43.389216
21
-6.499998
31
0
39
0
210
0
220
0
230
1
0
LINE
5
207
100
AcDbEntity
8
1
62
256
6
ByLayer
370
18
48
1
60
1
100
AcDbLine
10
-43.389216
20
-6.499998
30
0
11
-44.310784
21
-6.500002
31
0
39
0
210
0
220
0
230
1
0
LINE
5
208
100
AcDbEntity
8
1
62
256
6
ByLayer
370
18
48
1
60
1
100
AcDbLine
10
-44.310784
20
-6.500002
30
0
11
-43.85
21
-3
31
0
39
0
210
0
220
0
230
1
0
LINE
5
20C
100
AcDbEntity
8
1
62
256
6
ByLayer
370
18
48
1
60
1
100
AcDbLine
10
7.210942
20
2.88
30
0
11
6.750158
21
6.379998
31
0
39
0
210
0
220
0
230
1
0
LINE
5
20D
100
AcDbEntity
8
1
62
256
6
ByLayer
370
18
48
1
60
1
100
AcDbLine
10
6.750158
20
6.379998
30
0
11
7.671726
21
6.380002
31
0
39
0
210
0
220
0
230
1
0
LINE
5
20E
100
AcDbEntity
8
1
62
256
6
ByLayer
370
18
48
1
60
1
100
AcDbLine
10
7.671726
20
6.380002
30
0
11
7.210942
21
2.88
31
0
39
0
210
0
220
0
230
1
0
LINE
5
210
100
AcDbEntity
8
1
62
256
6
ByLayer
370
18
48
1
60
1
100
AcDbLine
10
7.210942
20
-2.88
30
0
11
7.671726
21
-6.379998
31
0
39
0
210
0
220
0
230
1
0
LINE
5
211
100
AcDbEntity
8
1
62
256
6
ByLayer
370
18
48
1
60
1
100
AcDbLine
10
7.671726
20
-6.379998
30
0
11
6.750158
21
-6.380002
31
0
39
0
210
0
220
0
230
1
0
LINE
5
212
100
AcDbEntity
8
1
62
256
6
ByLayer
370
18
48
1
60
1
100
AcDbLine
10
6.750158
20
-6.380002
30
0
11
7.210942
21
-2.88
31
0
39
0
210
0
220
0
230
1
0
LINE
5
216
100
AcDbEntity
8
1
62
256
6
ByLayer
370
18
48
1
60
1
100
AcDbLine
10
42
20
3
30
0
11
41.539216
21
6.499998
31
0
39
0
210
0
220
0
230
1
0
LINE
5
217
100
AcDbEntity
8
1
62
256
6
ByLayer
370
18
48
1
60
1
100
AcDbLine
10
41.539216
20
6.499998
30
0
11
42.460784
21
6.500002
31
0
39
0
210
0
220
0
230
1
0
LINE
5
218
100
AcDbEntity
8
1
62
256
6
ByLayer
370
18
48
1
60
1
100
AcDbLine
10
42.460784
20
6.500002
30
0
11
42
21
3
31
0
39
0
210
0
220
0
230
1
0
LINE
5
21A
100
AcDbEntity
8
1
62
256
6
ByLayer
370
18
48
1
60
1
100
AcDbLine
10
42
20
-3
30
0
11
42.460784
21
-6.499998
31
0
39
0
210
0
220
0
230
1
0
LINE
5
21B
100
AcDbEntity
8
1
62
256
6
ByLayer
370
18
48
1
60
1
100
AcDbLine
10
42.460784
20
-6.499998
30
0
11
41.539216
21
-6.500002
31
0
39
0
210
0
220
0
230
1
0
LINE
5
21C
100
AcDbEntity
8
1
62
256
6
ByLayer
370
18
48
1
60
1
100
AcDbLine
10
41.539216
20
-6.500002
30
0
11
42
21
-3
31
0
39
0
210
0
220
0
230
1
0
LINE
5
21F
100
AcDbEntity
8
1
62
256
6
ByLayer
370
18
48
1
60
1
100
AcDbLine
10
-36
20
-49.541434
30
0
11
-32.500002
21
-49.08065
31
0
39
0
210
0
220
0
230
1
0
LINE
5
220
100
AcDbEntity
8
1
62
256
6
ByLayer
370
18
48
1
60
1
100
AcDbLine
10
-32.500002
20
-49.08065
30
0
11
-32.499998
21
-50.002218
31
0
39
0
210
0
220
0
230
1
0
LINE
5
221
100
AcDbEntity
8
1
62
256
6
ByLayer
370
18
48
1
60
1
100
AcDbLine
10
-32.499998
20
-50.002218
30
0
11
-36
21
-49.541434
31
0
39
0
210
0
220
0
230
1
0
LINE
5
223
100
AcDbEntity
8
1
62
256
6
ByLayer
370
18
48
1
60
1
100
AcDbLine
10
30
20
-49.541434
30
0
11
26.500002
21
-50.002218
31
0
39
0
210
0
220
0
230
1
0
LINE
5
224
100
AcDbEntity
8
1
62
256
6
ByLayer
370
18
48
1
60
1
100
AcDbLine
10
26.500002
20
-50.002218
30
0
11
26.499998
21
-49.08065
31
0
39
0
210
0
220
0
230
1
0
LINE
5
225
100
AcDbEntity
8
1
62
256
6
ByLayer
370
18
48
1
60
1
100
AcDbLine
10
26.499998
20
-49.08065
30
0
11
30
21
-49.541434
31
0
39
0
210
0
220
0
230
1
0
MTEXT
5
1FE
100
AcDbEntity
8
SK2
62
256
6
ByLayer
370
18
48
1
60
0
100
AcDbMText
10
-45.414634
20
-17.380622
30
0
210
0
220
0
230
1
1
%%c
40
3.5
41
0
44
1.084337
50
90
71
7
72
5
7
iso_b_vert
0
MTEXT
5
201
100
AcDbEntity
8
SK2
62
256
6
ByLayer
370
18
48
1
60
0
100
AcDbMText
10
-45.414634
20
-10.407966
30
0
210
0
220
0
230
1
1
\W0.5404;6
40
3.5
41
0
44
1.084337
50
90
71
7
72
5
7
iso_b_vert
0
MTEXT
5
20A
100
AcDbEntity
8
SK2
62
256
6
ByLayer
370
18
48
1
60
0
100
AcDbMText
10
5.646308
20
14.814844
30
0
210
0
220
0
230
1
1
%%c
40
3.5
41
0
44
1.084337
50
90
71
7
72
5
7
iso_b_vert
0
MTEXT
5
20B
100
AcDbEntity
8
SK2
62
256
6
ByLayer
370
18
48
1
60
0
100
AcDbMText
10
5.646308
20
21.7875
30
0
210
0
220
0
230
1
1
\W0.7346;5.76
40
3.5
41
0
44
1.084337
50
90
71
7
72
5
7
iso_b_vert
0
MTEXT
5
214
100
AcDbEntity
8
2
62
256
6
ByLayer
370
18
48
1
60
0
100
AcDbMText
10
40.435366
20
10.934844
30
0
210
0
220
0
230
1
1
%%c
40
3.5
41
0
44
1.084337
50
90
71
7
72
5
7
iso_b_vert
0
MTEXT
5
215
100
AcDbEntity
8
2
62
256
6
ByLayer
370
18
48
1
60
0
100
AcDbMText
10
40.435366
20
17.9075
30
0
210
0
220
0
230
1
1
\W0.5404;6
40
3.5
41
0
44
1.084337
50
90
71
7
72
5
7
iso_b_vert
0
MTEXT
5
21E
100
AcDbEntity
8
SK2
62
256
6
ByLayer
370
18
48
1
60
0
100
AcDbMText
10
-4.904966
20
-48.5088
30
0
210
0
220
0
230
1
1
\W0.6740;66
40
3.5
41
0
44
1.084337
50
0
71
7
72
5
7
iso_b_vert
0
MTEXT
5
227
100
AcDbEntity
8
SK6
62
256
6
ByLayer
370
18
48
1
60
0
100
AcDbMText
10
-27.677162
20
-62.109403
30
0
210
0
220
0
230
1
1
\W0.6978;1K365-0600-XD       1730
40
3
41
0
44
1.084337
50
0
71
7
72
5
7
iso_b_vert
0
HATCH
5
205
100
AcDbEntity
8
SK2
62
256
6
ByLayer
370
13
48
1
60
0
100
AcDbHatch
10
0
20
0
30
0
210
0
220
0
230
1
2
ANSI31
70
0
71
0
91
1
92
5
93
3
72
1
10
-43.85
20
3.00000000000003
11
-44.3107837415528
21
6.49999830744684
72
1
10
-44.3107837415528
20
6.49999830744684
11
-43.3892162584472
21
6.50000169255321
72
1
10
-43.3892162584472
20
6.50000169255321
11
-43.85
21
3.00000000000003
97
0
75
0
76
1
52
0
41
0.0062
77
0
78
1
53
45
43
0
44
0
45
-0.0139193969876572
46
0.0139193969876572
79
0
47
0
98
1
10
0
20
0
0
HATCH
5
209
100
AcDbEntity
8
SK2
62
256
6
ByLayer
370
13
48
1
60
0
100
AcDbHatch
10
0
20
0
30
0
210
0
220
0
230
1
2
ANSI31
70
0
71
0
91
1
92
5
93
3
72
1
10
-43.85
20
-3
11
-43.3892162584472
21
-6.49999830744682
72
1
10
-43.3892162584472
20
-6.49999830744682
11
-44.3107837415528
21
-6.50000169255318
72
1
10
-44.3107837415528
20
-6.50000169255318
11
-43.85
21
-3
97
0
75
0
76
1
52
0
41
0.0062
77
0
78
1
53
45
43
0
44
0
45
-0.0139193969876572
46
0.0139193969876572
79
0
47
0
98
1
10
0
20
0
0
HATCH
5
20F
100
AcDbEntity
8
SK2
62
256
6
ByLayer
370
13
48
1
60
0
100
AcDbHatch
10
0
20
0
30
0
210
0
220
0
230
1
2
ANSI31
70
0
71
0
91
1
92
5
93
3
72
1
10
7.2109418164107
20
2.88
11
6.75015807485792
21
6.37999830744681
72
1
10
6.75015807485792
20
6.37999830744681
11
7.67172555796347
21
6.38000169255318
72
1
10
7.67172555796347
20
6.38000169255318
11
7.2109418164107
21
2.88
97
0
75
0
76
1
52
0
41
0.0062
77
0
78
1
53
45
43
0
44
0
45
-0.0139193969876572
46
0.0139193969876572
79
0
47
0
98
1
10
0
20
0
0
HATCH
5
213
100
AcDbEntity
8
SK2
62
256
6
ByLayer
370
13
48
1
60
0
100
AcDbHatch
10
0
20
0
30
0
210
0
220
0
230
1
2
ANSI31
70
0
71
0
91
1
92
5
93
3
72
1
10
7.2109418164107
20
-2.88
11
7.67172555796347
21
-6.37999830744681
72
1
10
7.67172555796347
20
-6.37999830744681
11
6.75015807485792
21
-6.38000169255318
72
1
10
6.75015807485792
20
-6.38000169255318
11
7.2109418164107
21
-2.88
97
0
75
0
76
1
52
0
41
0.0062
77
0
78
1
53
45
43
0
44
0
45
-0.0139193969876572
46
0.0139193969876572
79
0
47
0
98
1
10
0
20
0
0
HATCH
5
219
100
AcDbEntity
8
2
62
256
6
ByLayer
370
13
48
1
60
0
100
AcDbHatch
10
0
20
0
30
0
210
0
220
0
230
1
2
ANSI31
70
0
71
0
91
1
92
5
93
3
72
1
10
42
20
2.99999999999992
11
41.5392162584472
21
6.49999830744673
72
1
10
41.5392162584472
20
6.49999830744673
11
42.4607837415528
21
6.5000016925531
72
1
10
42.4607837415528
20
6.5000016925531
11
42
21
2.99999999999992
97
0
75
0
76
1
52
0
41
0.0062
77
0
78
1
53
45
43
0
44
0
45
-0.0139193969876572
46
0.0139193969876572
79
0
47
0
98
1
10
0
20
0
0
HATCH
5
21D
100
AcDbEntity
8
2
62
256
6
ByLayer
370
13
48
1
60
0
100
AcDbHatch
10
0
20
0
30
0
210
0
220
0
230
1
2
ANSI31
70
0
71
0
91
1
92
5
93
3
72
1
10
42
20
-3.00000000000008
11
42.4607837415528
21
-6.4999983074469
72
1
10
42.4607837415528
20
-6.4999983074469
11
41.5392162584472
21
-6.50000169255327
72
1
10
41.5392162584472
20
-6.50000169255327
11
42
21
-3.00000000000008
97
0
75
0
76
1
52
0
41
0.0062
77
0
78
1
53
45
43
0
44
0
45
-0.0139193969876572
46
0.0139193969876572
79
0
47
0
98
1
10
0
20
0
0
HATCH
5
222
100
AcDbEntity
8
SK2
62
256
6
ByLayer
370
13
48
1
60
0
100
AcDbHatch
10
0
20
0
30
0
210
0
220
0
230
1
2
ANSI31
70
0
71
0
91
1
92
5
93
3
72
1
10
-36
20
-49.5414339855016
11
-32.5000016925532
21
-49.0806502439489
72
1
10
-32.5000016925532
20
-49.0806502439489
11
-32.4999983074468
21
-50.0022177270544
72
1
10
-32.4999983074468
20
-50.0022177270544
11
-36
21
-49.5414339855016
97
0
75
0
76
1
52
0
41
0.0062
77
0
78
1
53
45
43
0
44
0
45
-0.0139193969876572
46
0.0139193969876572
79
0
47
0
98
1
10
0
20
0
0
HATCH
5
226
100
AcDbEntity
8
SK2
62
256
6
ByLayer
370
13
48
1
60
0
100
AcDbHatch
10
0
20
0
30
0
210
0
220
0
230
1
2
ANSI31
70
0
71
0
91
1
92
5
93
3
72
1
10
30
20
-49.5414339855016
11
26.5000016925532
21
-50.0022177270544
72
1
10
26.5000016925532
20
-50.0022177270544
11
26.4999983074468
21
-49.0806502439489
72
1
10
26.4999983074468
20
-49.0806502439489
11
30
21
-49.5414339855016
97
0
75
0
76
1
52
0
41
0.0062
77
0
78
1
53
45
43
0
44
0
45
-0.0139193969876572
46
0.0139193969876572
79
0
47
0
98
1
10
0
20
0
0
DIMENSION
5
22A
100
AcDbEntity
8
2
62
256
6
ByLayer
370
18
48
1
60
0
100
AcDbDimension
2
_U0
10
9
20
-17.541434
30
0
11
19.5
21
-17.541434
31
0
70
32
71
1
72
1
41
1
210
0
220
0
230
1
3
Standard
100
AcDbAlignedDimension
13
30
23
-3
33
0
14
9
24
-3
34
0
50
0
100
AcDbRotatedDimension
1001
ACAD
1000
DSTYLE
1002
{
1070
   371
1070
    13
1070
   372
1070
    13
1070
   170
1070
     0
1070
   144
1040
1.0
1070
   277
1070
     2
1070
   284
1070
     8
1070
   278
1070
    46
1070
   146
1040
1.0
1070
   345
1005
16
1070
   347
1005
16
1070
   346
1005
16
1070
   344
1005
0
1070
   343
1005
0
1070
   172
1070
     1
1070
    76
1070
     0
1070
    75
1070
     0
1070
   282
1070
     0
1070
   281
1070
     0
1070
    71
1070
     0
1070
    74
1070
     0
1070
   279
1070
     0
1070
   173
1070
     1
1070
   340
1005
1FF
1070
   271
1070
     2
1070
   272
1070
     2
1070
    77
1070
     1
1070
    73
1070
     1
1070
   171
1070
     3
1070
   274
1070
     4
1070
   177
1070
     2
1070
   176
1070
     2
1070
   178
1070
     2
1070
    78
1070
     8
1070
    48
1040
-0.1
1070
    41
1040
3.5
1070
   147
1040
1.75
1070
    42
1040
1.5875
1070
    44
1040
2.0
1070
   140
1040
3.5
1002
}
1001
ACAD_DSTYLE_DIM_LINETYPE
1070
   380
1005
16
1001
ACAD_DSTYLE_DIM_EXT1_LINETYPE
1070
   381
1005
16
1001
ACAD_DSTYLE_DIM_EXT2_LINETYPE
1070
   382
1005
16
0
DIMENSION
5
243
100
AcDbEntity
8
SK2
62
256
6
ByLayer
370
18
48
1
60
0
100
AcDbDimension
2
_U1
10
2.996857
20
-32.541434
30
0
11
16.498429
21
-32.541434
31
0
70
32
71
1
72
1
41
1
210
0
220
0
230
1
3
Standard
100
AcDbAlignedDimension
13
30
23
-3
33
0
14
2.996857
24
-2.88
34
0
50
0
100
AcDbRotatedDimension
1001
ACAD
1000
DSTYLE
1002
{
1070
   371
1070
    13
1070
   372
1070
    13
1070
   170
1070
     0
1070
   144
1040
1.0
1070
   277
1070
     2
1070
   284
1070
     8
1070
   278
1070
    46
1070
   146
1040
1.0
1070
   345
1005
16
1070
   347
1005
16
1070
   346
1005
16
1070
   344
1005
0
1070
   343
1005
0
1070
   172
1070
     1
1070
    76
1070
     0
1070
    75
1070
     0
1070
   282
1070
     0
1070
   281
1070
     0
1070
    71
1070
     0
1070
    74
1070
     0
1070
   279
1070
     0
1070
   173
1070
     1
1070
   340
1005
1FF
1070
   271
1070
     2
1070
   272
1070
     2
1070
    77
1070
     1
1070
    73
1070
     1
1070
   171
1070
     3
1070
   274
1070
     4
1070
   177
1070
     2
1070
   176
1070
     2
1070
   178
1070
     2
1070
    78
1070
     8
1070
    48
1040
-0.1
1070
    41
1040
3.5
1070
   147
1040
1.75
1070
    42
1040
1.5875
1070
    44
1040
2.0
1070
   140
1040
3.5
1002
}
1001
ACAD_DSTYLE_DIM_LINETYPE
1070
   380
1005
16
1001
ACAD_DSTYLE_DIM_EXT1_LINETYPE
1070
   381
1005
16
1001
ACAD_DSTYLE_DIM_EXT2_LINETYPE
1070
   382
1005
16
0
ENDSEC
0
SECTION
2
OBJECTS
0
DICTIONARY
5
2cb
330
0
100
AcDbDictionary
280
0
281
1
3
ACAD_GROUP
350
2cc
3
ACAD_MLINESTYLE
350
2cd
0
DICTIONARY
5
2cc
330
0
100
AcDbDictionary
280
0
281
1
0
DICTIONARY
5
2cd
330
0
100
AcDbDictionary
280
0
281
1
3
Standard
350
18
0
MLINESTYLE
5
18
330
2cd
100
AcDbMlineStyle
2
Standard
70
0
3

62
256
51
90
52
90
71
2
49
-0.5
62
256
6
ByLayer
49
0.5
62
256
6
ByLayer
0
RASTERVARIABLES
5
2b9
330

100
AcDbRasterVariables
90
0
70
1
71
1
72
1
0
ENDSEC
0
EOF
