0
SECTION
2
HEADER
9
$ACADVER
1
AC1015
9
$DWGCODEPAGE
3
ANSI_1252
9
$HANDSEED
5
298
9
$ANGBASE
50
0
9
$ANGDIR
70
0
9
$ATTMODE
70
1
9
$AUNITS
70
0
9
$AUPREC
70
0
9
$CECOLOR
62
256
9
$CELTSCALE
40
1
9
$CELTYPE
6
ByLayer
9
$CELWEIGHT
370
18
9
$CLAYER
8
0
9
$CMLJUST
70
0
9
$CMLSCALE
40
1
9
$CMLSTYLE
2
Standard
9
$DIMSTYLE
2
Standard
9
$TEXTSIZE
40
0.2
9
$TEXTSTYLE
7
Standard
9
$LUNITS
70
2
9
$LUPREC
70
4
9
$EXTNAMES
290
1
9
$INSUNITS
70
4
9
$LTSCALE
40
1
9
$LWDISPLAY
290
1
9
$PDMODE
70
0
9
$PDSIZE
40
0
9
$PLINEGEN
70
0
0
ENDSEC
0
SECTION
2
CLASSES
0
CLASS
1
RASTERVARIABLES
2
AcDbRasterVariables
3
ISM
90
0
280
0
281
0
0
ENDSEC
0
SECTION
2
TABLES
0
TABLE
2
VPORT
5
28e
100
AcDbSymbolTable
0
VPORT
5
1
100
AcDbSymbolTableRecord
100
AcDbViewportTableRecord
2
*Active
70
0
10
0
20
0
11
1
21
1
12
-1
22
1
13
0
23
0
14
0.5
24
0.5
15
10
25
10
16
0
26
0
36
1
17
0
27
0
37
0
0
ENDTAB
0
TABLE
2
LTYPE
5
28f
100
AcDbSymbolTable
0
LTYPE
5
14
100
AcDbSymbolTableRecord
100
AcDbLinetypeTableRecord
70
0
2
ByBlock
3

72
65
73
0
40
0
0
LTYPE
5
15
100
AcDbSymbolTableRecord
100
AcDbLinetypeTableRecord
70
0
2
ByLayer
3

72
65
73
0
40
0
0
LTYPE
5
16
100
AcDbSymbolTableRecord
100
AcDbLinetypeTableRecord
70
0
2
Continuous
3
Solid line
72
65
73
0
40
0
0
LTYPE
5
6E
100
AcDbSymbolTableRecord
100
AcDbLinetypeTableRecord
70
0
2
CENTER
3
____ _ ____ _ ____ _ ____
72
65
73
4
40
47.5
49
22
74
0
49
-8.5
74
0
49
8.5
74
0
49
-8.5
74
0
0
LTYPE
5
6F
100
AcDbSymbolTableRecord
100
AcDbLinetypeTableRecord
70
0
2
DASHED
3
__ __ __ __ __ __ __ __ __
72
65
73
2
40
25.72
49
12.86
74
0
49
-12.86
74
0
0
ENDTAB
0
TABLE
2
LAYER
5
290
100
AcDbSymbolTable
0
LAYER
5
10
100
AcDbSymbolTableRecord
100
AcDbLayerTableRecord
2
0
70
0
62
7
6
Continuous
290
1
370
-3
390
0
0
LAYER
5
71
100
AcDbSymbolTableRecord
100
AcDbLayerTableRecord
2
80
70
0
62
-6
6
Continuous
290
1
370
-3
390
0
0
LAYER
5
73
100
AcDbSymbolTableRecord
100
AcDbLayerTableRecord
2
81
70
0
62
-3
6
Continuous
290
1
370
-3
390
0
0
LAYER
5
75
100
AcDbSymbolTableRecord
100
AcDbLayerTableRecord
2
1
70
0
62
4
6
Continuous
290
1
370
-3
390
0
0
LAYER
5
7B
100
AcDbSymbolTableRecord
100
AcDbLayerTableRecord
2
4
70
0
62
-2
6
CENTER
290
1
370
-3
390
0
0
LAYER
5
E0
100
AcDbSymbolTableRecord
100
AcDbLayerTableRecord
2
2
70
0
62
7
6
Continuous
290
1
370
-3
390
0
0
LAYER
5
1EC
100
AcDbSymbolTableRecord
100
AcDbLayerTableRecord
2
Defpoints
70
0
62
7
6
Continuous
290
0
370
-3
390
0
0
LAYER
5
27a
100
AcDbSymbolTableRecord
100
AcDbLayerTableRecord
2
SK4
70
0
62
2
6
CENTER
290
1
370
-3
390
0
0
LAYER
5
27b
100
AcDbSymbolTableRecord
100
AcDbLayerTableRecord
2
SK1
70
0
62
4
6
Continuous
290
1
370
-3
390
0
0
LAYER
5
27c
100
AcDbSymbolTableRecord
100
AcDbLayerTableRecord
2
SK2
70
0
62
7
6
Continuous
290
1
370
-3
390
0
0
LAYER
5
27d
100
AcDbSymbolTableRecord
100
AcDbLayerTableRecord
2
SK6
70
0
62
5
6
Continuous
290
1
370
-3
390
0
0
ENDTAB
0
TABLE
2
STYLE
5
291
100
AcDbSymbolTable
0
STYLE
5
11
100
AcDbSymbolTableRecord
100
AcDbTextStyleTableRecord
2
Standard
3
txt
70
0
71
0
40
0
41
1
42
0
50
0
0
STYLE
5
1BE
100
AcDbSymbolTableRecord
100
AcDbTextStyleTableRecord
2
iso_b_vert
3
simplex.shx
70
0
71
0
40
0
41
1
42
0
50
0
0
STYLE
5
1BF
100
AcDbSymbolTableRecord
100
AcDbTextStyleTableRecord
2
DWGDirectTextStyle
3
simplex
70
0
71
0
40
0
41
1
42
0
50
0
0
ENDTAB
0
TABLE
2
DIMSTYLE
5
292
100
AcDbSymbolTable
100
AcDbDimStyleTable
0
DIMSTYLE
105
27
100
AcDbSymbolTableRecord
100
AcDbDimStyleTableRecord
2
Standard
70
0
3
<>
41
0.18
42
0.0625
44
0.18
140
0.18
147
0.09
73
0
74
0
77
1
271
2
275
0
278
52
280
0
340
11
0
ENDTAB
0
TABLE
2
VIEW
5
293
100
AcDbSymbolTable
0
ENDTAB
0
TABLE
2
UCS
5
294
100
AcDbSymbolTable
0
ENDTAB
0
TABLE
2
APPID
5
295
100
AcDbSymbolTable
0
APPID
5
12
100
AcDbSymbolTableRecord
100
AcDbRegAppTableRecord
2
ACAD
70
0
0
APPID
5
1E8
100
AcDbSymbolTableRecord
100
AcDbRegAppTableRecord
2
ACAD_DSTYLE_DIMBREAK
70
0
0
APPID
5
239
100
AcDbSymbolTableRecord
100
AcDbRegAppTableRecord
2
ACAD_DSTYLE_DIM_LINETYPE
70
0
0
APPID
5
23A
100
AcDbSymbolTableRecord
100
AcDbRegAppTableRecord
2
ACAD_DSTYLE_DIM_EXT1_LINETYPE
70
0
0
APPID
5
23B
100
AcDbSymbolTableRecord
100
AcDbRegAppTableRecord
2
ACAD_DSTYLE_DIM_EXT2_LINETYPE
70
0
0
APPID
5
276
100
AcDbSymbolTableRecord
100
AcDbRegAppTableRecord
2
ACAD_MLEADERVER
70
0
0
ENDTAB
0
TABLE
2
BLOCK_RECORD
5
296
100
AcDbSymbolTable
0
BLOCK_RECORD
5
1F
100
AcDbSymbolTableRecord
100
AcDbBlockTableRecord
2
*Model_Space
340
0
70
0
0
BLOCK_RECORD
5
1B
100
AcDbSymbolTableRecord
100
AcDbBlockTableRecord
2
*Paper_Space
340
0
70
0
0
BLOCK_RECORD
5
23
100
AcDbSymbolTableRecord
100
AcDbBlockTableRecord
2
*Paper_Space0
340
0
70
0
0
BLOCK_RECORD
5
1ED
100
AcDbSymbolTableRecord
100
AcDbBlockTableRecord
2
*D1
340
0
70
0
0
BLOCK_RECORD
5
1FA
100
AcDbSymbolTableRecord
100
AcDbBlockTableRecord
2
_U0
340
0
70
0
0
BLOCK_RECORD
5
206
100
AcDbSymbolTableRecord
100
AcDbBlockTableRecord
2
*D3
340
0
70
0
0
BLOCK_RECORD
5
212
100
AcDbSymbolTableRecord
100
AcDbBlockTableRecord
2
_U1
340
0
70
0
0
ENDTAB
0
ENDSEC
0
SECTION
2
BLOCKS
0
BLOCK
5
20
100
AcDbEntity
8
0
100
AcDbBlockBegin
2
*Model_Space
70
0
10
0
20
0
30
0
3
*Model_Space
0
ENDBLK
5
21
100
AcDbEntity
8
0
100
AcDbBlockEnd
0
BLOCK
5
1C
100
AcDbEntity
8
0
100
AcDbBlockBegin
2
*Paper_Space
70
0
10
0
20
0
30
0
3
*Paper_Space
0
ENDBLK
5
1D
100
AcDbEntity
8
0
100
AcDbBlockEnd
0
BLOCK
5
24
100
AcDbEntity
8
0
100
AcDbBlockBegin
2
*Paper_Space0
70
0
10
0
20
0
30
0
3
*Paper_Space0
0
ENDBLK
5
25
100
AcDbEntity
8
0
100
AcDbBlockEnd
0
BLOCK
5
1EE
100
AcDbEntity
8
0
100
AcDbBlockBegin
2
*D1
70
1
10
0
20
0
30
0
3
*D1
0
LINE
5
1F0
100
AcDbEntity
8
0
62
256
6
ByLayer
370
-2
48
1
60
0
100
AcDbLine
10
30
20
-4.0875
30
0
11
30
21
-19.1
31
0
39
0
210
0
220
0
230
1
0
LINE
5
1F1
100
AcDbEntity
8
0
62
256
6
ByLayer
370
-2
48
1
60
0
100
AcDbLine
10
12.5
20
-4.0875
30
0
11
12.5
21
-19.1
31
0
39
0
210
0
220
0
230
1
0
LINE
5
1F2
100
AcDbEntity
8
0
62
256
6
ByLayer
370
-2
48
1
60
0
100
AcDbLine
10
33.5
20
-17.1
30
0
11
37
21
-17.1
31
0
39
0
210
0
220
0
230
1
0
LINE
5
1F3
100
AcDbEntity
8
0
62
256
6
ByLayer
370
-2
48
1
60
0
100
AcDbLine
10
9
20
-17.1
30
0
11
5.5
21
-17.1
31
0
39
0
210
0
220
0
230
1
0
SOLID
5
1F4
100
AcDbEntity
8
0
62
256
6
ByLayer
370
-1
48
1
60
0
100
AcDbTrace
10
33.5
20
-16.516667
30
0
11
33.5
21
-17.683333
31
0
12
30
22
-17.1
32
0
13
30
23
-17.1
33
0
39
0
210
0
220
0
230
1
0
SOLID
5
1F5
100
AcDbEntity
8
0
62
256
6
ByLayer
370
-1
48
1
60
0
100
AcDbTrace
10
9
20
-17.683333
30
0
11
9
21
-16.516667
31
0
12
12.5
22
-17.1
32
0
13
12.5
23
-17.1
33
0
39
0
210
0
220
0
230
1
0
MTEXT
5
1F6
100
AcDbEntity
8
0
62
256
6
ByLayer
370
18
48
1
60
0
100
AcDbMText
10
21.25
20
-10.1
30
0
210
0
220
0
230
1
1
\A1;17.5
40
3.5
41
0
44
1
50
0
71
5
72
5
7
iso_b_vert
0
POINT
5
1F7
100
AcDbEntity
8
Defpoints
62
0
6
ByLayer
370
-1
48
1
60
0
100
AcDbPoint
10
30
20
-2.5
30
0
39
0
210
0
220
0
230
1
50
360
0
POINT
5
1F8
100
AcDbEntity
8
Defpoints
62
0
6
ByLayer
370
-1
48
1
60
0
100
AcDbPoint
10
12.5
20
-2.5
30
0
39
0
210
0
220
0
230
1
50
360
0
POINT
5
1F9
100
AcDbEntity
8
Defpoints
62
0
6
ByLayer
370
-1
48
1
60
0
100
AcDbPoint
10
12.5
20
-17.1
30
0
39
0
210
0
220
0
230
1
50
360
0
ENDBLK
5
1EF
100
AcDbEntity
8
0
100
AcDbBlockEnd
0
BLOCK
5
201
100
AcDbEntity
8
0
100
AcDbBlockBegin
2
_U0
70
0
10
0
20
0
30
0
3
_U0
0
MTEXT
5
1FB
100
AcDbEntity
8
2
62
256
6
ByLayer
370
18
48
1
60
0
100
AcDbMText
10
17.765734
20
-16.067366
30
0
210
0
220
0
230
1
1
\W0.6563;17.5
40
3.5
41
0
44
1.084337
50
0
71
7
72
5
7
iso_b_vert
0
LINE
5
1FC
100
AcDbEntity
8
2
62
256
6
ByLayer
370
13
48
1
60
0
100
AcDbLine
10
30
20
-4.0875
30
0
11
30
21
-19.1
31
0
39
0
210
0
220
0
230
1
0
LINE
5
1FD
100
AcDbEntity
8
2
62
256
6
ByLayer
370
13
48
1
60
0
100
AcDbLine
10
12.5
20
-4.0875
30
0
11
12.5
21
-19.1
31
0
39
0
210
0
220
0
230
1
0
LINE
5
1FE
100
AcDbEntity
8
2
62
256
6
ByLayer
370
13
48
1
60
0
100
AcDbLine
10
30
20
-17.1
30
0
11
12.5
21
-17.1
31
0
39
0
210
0
220
0
230
1
0
SOLID
5
1FF
100
AcDbEntity
8
2
62
256
6
ByLayer
370
18
48
1
60
0
100
AcDbTrace
10
30
20
-17.1
30
0
11
26.500002
21
-17.560784
31
0
12
26.499998
22
-16.639216
32
0
13
26.499998
23
-16.639216
33
0
39
0
210
0
220
0
230
1
0
SOLID
5
200
100
AcDbEntity
8
2
62
256
6
ByLayer
370
18
48
1
60
0
100
AcDbTrace
10
12.5
20
-17.1
30
0
11
15.999998
21
-16.639216
31
0
12
16.000002
22
-17.560784
32
0
13
16.000002
23
-17.560784
33
0
39
0
210
0
220
0
230
1
0
ENDBLK
5
202
100
AcDbEntity
8
0
100
AcDbBlockEnd
0
BLOCK
5
207
100
AcDbEntity
8
0
100
AcDbBlockBegin
2
*D3
70
1
10
0
20
0
30
0
3
*D3
0
LINE
5
209
100
AcDbEntity
8
0
62
256
6
ByLayer
370
-2
48
1
60
0
100
AcDbLine
10
30
20
-4.0875
30
0
11
30
21
-34.1
31
0
39
0
210
0
220
0
230
1
0
LINE
5
20A
100
AcDbEntity
8
0
62
256
6
ByLayer
370
-2
48
1
60
0
100
AcDbLine
10
5.497679
20
-3.9875
30
0
11
5.497679
21
-34.1
31
0
39
0
210
0
220
0
230
1
0
LINE
5
20B
100
AcDbEntity
8
0
62
256
6
ByLayer
370
-2
48
1
60
0
100
AcDbLine
10
26.5
20
-32.1
30
0
11
8.997679
21
-32.1
31
0
39
0
210
0
220
0
230
1
0
SOLID
5
20C
100
AcDbEntity
8
0
62
256
6
ByLayer
370
-1
48
1
60
0
100
AcDbTrace
10
26.5
20
-32.683333
30
0
11
26.5
21
-31.516667
31
0
12
30
22
-32.1
32
0
13
30
23
-32.1
33
0
39
0
210
0
220
0
230
1
0
SOLID
5
20D
100
AcDbEntity
8
0
62
256
6
ByLayer
370
-1
48
1
60
0
100
AcDbTrace
10
8.997679
20
-31.516667
30
0
11
8.997679
21
-32.683333
31
0
12
5.497679
22
-32.1
32
0
13
5.497679
23
-32.1
33
0
39
0
210
0
220
0
230
1
0
MTEXT
5
20E
100
AcDbEntity
8
0
62
256
6
ByLayer
370
18
48
1
60
0
100
AcDbMText
10
17.748839
20
-25.1
30
0
210
0
220
0
230
1
1
\A1;24.5
40
3.5
41
0
44
1
50
0
71
5
72
5
7
iso_b_vert
0
POINT
5
20F
100
AcDbEntity
8
Defpoints
62
0
6
ByLayer
370
-1
48
1
60
0
100
AcDbPoint
10
30
20
-2.5
30
0
39
0
210
0
220
0
230
1
50
360
0
POINT
5
210
100
AcDbEntity
8
Defpoints
62
0
6
ByLayer
370
-1
48
1
60
0
100
AcDbPoint
10
5.497679
20
-2.4
30
0
39
0
210
0
220
0
230
1
50
360
0
POINT
5
211
100
AcDbEntity
8
Defpoints
62
0
6
ByLayer
370
-1
48
1
60
0
100
AcDbPoint
10
5.497679
20
-32.1
30
0
39
0
210
0
220
0
230
1
50
360
0
ENDBLK
5
208
100
AcDbEntity
8
0
100
AcDbBlockEnd
0
BLOCK
5
219
100
AcDbEntity
8
0
100
AcDbBlockBegin
2
_U1
70
0
10
0
20
0
30
0
3
_U1
0
MTEXT
5
213
100
AcDbEntity
8
SK2
62
256
6
ByLayer
370
18
48
1
60
0
100
AcDbMText
10
13.642874
20
-31.067366
30
0
210
0
220
0
230
1
1
\W0.7640;24.5
40
3.5
41
0
44
1.084337
50
0
71
7
72
5
7
iso_b_vert
0
LINE
5
214
100
AcDbEntity
8
SK2
62
256
6
ByLayer
370
13
48
1
60
0
100
AcDbLine
10
30
20
-4.0875
30
0
11
30
21
-34.1
31
0
39
0
210
0
220
0
230
1
0
LINE
5
215
100
AcDbEntity
8
SK2
62
256
6
ByLayer
370
13
48
1
60
0
100
AcDbLine
10
5.497679
20
-3.9875
30
0
11
5.497679
21
-34.1
31
0
39
0
210
0
220
0
230
1
0
LINE
5
216
100
AcDbEntity
8
SK2
62
256
6
ByLayer
370
13
48
1
60
0
100
AcDbLine
10
30
20
-32.1
30
0
11
5.497679
21
-32.1
31
0
39
0
210
0
220
0
230
1
0
SOLID
5
217
100
AcDbEntity
8
SK2
62
256
6
ByLayer
370
18
48
1
60
0
100
AcDbTrace
10
30
20
-32.1
30
0
11
26.500002
21
-32.560784
31
0
12
26.499998
22
-31.639216
32
0
13
26.499998
23
-31.639216
33
0
39
0
210
0
220
0
230
1
0
SOLID
5
218
100
AcDbEntity
8
SK2
62
256
6
ByLayer
370
18
48
1
60
0
100
AcDbTrace
10
5.497679
20
-32.1
30
0
11
8.997677
21
-31.639216
31
0
12
8.997681
22
-32.560784
32
0
13
8.997681
23
-32.560784
33
0
39
0
210
0
220
0
230
1
0
ENDBLK
5
21A
100
AcDbEntity
8
0
100
AcDbBlockEnd
0
ENDSEC
0
SECTION
2
ENTITIES
0
ARC
5
F2
100
AcDbEntity
8
1
62
256
6
ByLayer
370
18
48
1
60
0
100
AcDbCircle
39
0
10
12.06411
20
3.4
30
0
40
1
210
0
220
0
230
1
100
AcDbArc
50
292.055099
51
295.52389
0
ARC
5
F3
100
AcDbEntity
8
1
62
256
6
ByLayer
370
18
48
1
60
0
100
AcDbCircle
39
0
10
5.497679
20
3.4
30
0
40
1
210
0
220
0
230
1
100
AcDbArc
50
240
51
270
0
ARC
5
F4
100
AcDbEntity
8
1
62
256
6
ByLayer
370
18
48
1
60
0
100
AcDbCircle
39
0
10
5.497679
20
-3.4
30
0
40
1
210
0
220
0
230
1
100
AcDbArc
50
90
51
120
0
ELLIPSE
5
F5
100
AcDbEntity
8
1
62
256
6
ByLayer
370
18
48
1
60
0
100
AcDbEllipse
10
29.969928
20
0.013759
30
0
11
0.0144521019135079
21
0.689959631216199
31
0
210
0
220
0
230
1
40
0.051729
41
1.45661564684401
42
1.62882085370414
0
ELLIPSE
5
F6
100
AcDbEntity
8
1
62
256
6
ByLayer
370
18
48
1
60
0
100
AcDbEllipse
10
29.915369
20
0.133993
30
0
11
0.343777327094351
21
-0.0641039715017667
31
0
210
0
220
0
230
1
40
0.44291
41
-1.62839335239336
42
-1.43592711046185
0
ELLIPSE
5
F7
100
AcDbEntity
8
1
62
256
6
ByLayer
370
18
48
1
60
0
100
AcDbEllipse
10
29.954196
20
0.167216
30
0
11
0.453527297740699
21
0.21898101028779
31
0
210
0
220
0
230
1
40
0.374481
41
-2.42717947617302
42
-2.3678671161994
0
ELLIPSE
5
F8
100
AcDbEntity
8
1
62
256
6
ByLayer
370
18
48
1
60
0
100
AcDbEllipse
10
29.839865
20
-0.271218
30
0
11
0.343754692614998
21
0.00915524869890945
31
0
210
0
220
0
230
1
40
0.609736
41
1.35259825551874
42
2.14243439155364
0
ELLIPSE
5
F9
100
AcDbEntity
8
1
62
256
6
ByLayer
370
18
48
1
60
0
100
AcDbEllipse
10
29.915369
20
0.133993
30
0
11
0.343777330540135
21
-0.0641039731176917
31
0
210
0
220
0
230
1
40
0.44291
41
2.44510275897614
42
2.60449103678879
0
ELLIPSE
5
FA
100
AcDbEntity
8
1
62
256
6
ByLayer
370
18
48
1
60
0
100
AcDbEllipse
10
14.925413
20
0
30
0
11
4.61998670282931
21
1.97061162788562
31
0
210
0
220
0
230
1
40
0.296521
41
-2.68930511981627
42
-2.35827793158539
0
ELLIPSE
5
FB
100
AcDbEntity
8
1
62
256
6
ByLayer
370
18
48
1
60
0
100
AcDbEllipse
10
15.066303
20
0
30
0
11
4.92151672792443
21
-0.500497771352002
31
0
210
0
220
0
230
1
40
0.476933
41
-2.5146870326798
42
-2.17750662622922
0
ELLIPSE
5
FC
100
AcDbEntity
8
1
62
256
6
ByLayer
370
18
48
1
60
0
100
AcDbEllipse
10
14.87857
20
0
30
0
11
4.56339626660052
21
-2.37559902103436
31
0
210
0
220
0
230
1
40
0.074805
41
2.273728250859
42
2.60227442722393
0
POINT
5
70
100
AcDbEntity
8
80
62
256
6
ByLayer
370
18
48
1
60
0
100
AcDbPoint
10
0
20
0
30
0
39
0
210
0
220
0
230
1
50
360
0
POINT
5
72
100
AcDbEntity
8
81
62
256
6
ByLayer
370
18
48
1
60
0
100
AcDbPoint
10
30
20
0
30
0
39
0
210
0
220
0
230
1
50
360
0
POINT
5
74
100
AcDbEntity
8
1
62
256
6
ByLayer
370
18
48
1
60
1
100
AcDbPoint
10
30
20
-2.5
30
0
39
0
210
0
220
0
230
1
50
360
0
POINT
5
76
100
AcDbEntity
8
1
62
256
6
ByLayer
370
18
48
1
60
1
100
AcDbPoint
10
12.5
20
-2.5
30
0
39
0
210
0
220
0
230
1
50
360
0
POINT
5
77
100
AcDbEntity
8
1
62
256
6
ByLayer
370
18
48
1
60
1
100
AcDbPoint
10
30
20
-2.5
30
0
39
0
210
0
220
0
230
1
50
360
0
POINT
5
78
100
AcDbEntity
8
1
62
256
6
ByLayer
370
18
48
1
60
1
100
AcDbPoint
10
5.497679
20
-2.4
30
0
39
0
210
0
220
0
230
1
50
360
0
SPLINE
5
FD
100
AcDbEntity
8
1
62
256
6
ByLayer
370
18
48
1
60
0
100
AcDbSpline
70
4
71
3
72
17
73
13
40
0
40
0
40
0
40
0
40
0.250000000000094
40
0.250000000000094
40
0.375000000000078
40
0.375000000000078
40
0.500000000000063
40
0.625000000000047
40
0.625000000000047
40
0.750000000000031
40
0.750000000000031
40
1
40
1
40
1
40
1
41
1
10
28.8281848595321
20
-1.36941736021239
30
0
41
1
10
28.8120664577827
20
-1.36234613494309
30
0
41
1
10
28.7971275037529
20
-1.35379910029974
30
0
41
1
10
28.7767410164067
20
-1.33838356150227
30
0
41
1
10
28.7702494799532
20
-1.33277302221597
30
0
41
1
10
28.7581976022719
20
-1.32074484316084
30
0
41
1
10
28.7471556454093
20
-1.30800830642201
30
0
41
1
10
28.7381614414883
20
-1.29382846467936
30
0
41
1
10
28.7302328514957
20
-1.27889674598535
30
0
41
1
10
28.7267824835345
20
-1.27098904696214
30
0
41
1
10
28.718332210978
20
-1.24668757134464
30
0
41
1
10
28.71515017741
20
-1.22970235852023
30
0
41
1
10
28.7142632887213
20
-1.21200258222382
30
0
0
SPLINE
5
FE
100
AcDbEntity
8
1
62
256
6
ByLayer
370
18
48
1
60
0
100
AcDbSpline
70
4
71
3
72
10
73
6
40
0
40
0
40
0
40
0
40
0.659959660034462
40
0.659959660034462
40
1
40
1
40
1
40
1
41
1
10
29.9728380748035
20
0.232448684436889
30
0
41
1
10
29.9741703539825
20
0.238547944804253
30
0
41
1
10
29.9718337299718
20
0.244264625830596
30
0
41
1
10
29.9631779970582
20
0.25239340187926
30
0
41
1
10
29.9593368152904
20
0.255063885766532
30
0
41
1
10
29.9545995911196
20
0.257640933742834
30
0
0
SPLINE
5
FF
100
AcDbEntity
8
1
62
256
6
ByLayer
370
13
48
1
60
0
100
AcDbSpline
70
4
71
3
72
8
73
4
40
0
40
0
40
0
40
0
40
1
40
1
40
1
40
1
41
1
10
29.9728380748111
20
0.232448684429869
30
0
41
1
10
29.9589066838479
20
0.122356904922356
30
0
41
1
10
29.9449752928848
20
0.0122651254148138
30
0
41
1
10
29.9310439019216
20
-0.0978266540926995
30
0
0
SPLINE
5
100
100
AcDbEntity
8
1
62
256
6
ByLayer
370
18
48
1
60
0
100
AcDbSpline
70
4
71
3
72
16
73
12
40
0
40
0
40
0
40
0
40
0.307373065966441
40
0.307373065966441
40
0.614746131932882
40
0.614746131932882
40
0.768432664916102
40
0.768432664916102
40
0.922119197899323
40
0.922119197899323
40
1
40
1
40
1
40
1
41
1
10
29.9728380748036
20
-1.2617548412903
30
0
41
1
10
29.9741103196191
20
-1.30380788912416
30
0
41
1
10
29.9720627185884
20
-1.34557449125285
30
0
41
1
10
29.9618731035586
20
-1.42858185223636
30
0
41
1
10
29.953723520867
20
-1.46982195805768
30
0
41
1
10
29.9369765591797
20
-1.53129189509403
30
0
41
1
10
29.9306376383755
20
-1.55171659249038
30
0
41
1
10
29.916420930867
20
-1.59243320956654
30
0
41
1
10
29.9085720763237
20
-1.61262921643407
30
0
41
1
10
29.8957548996587
20
-1.6425579782541
30
0
41
1
10
29.8912712614482
20
-1.65255229590306
30
0
41
1
10
29.8866152408601
20
-1.66247551890723
30
0
0
SPLINE
5
101
100
AcDbEntity
8
1
62
256
6
ByLayer
370
13
48
1
60
0
100
AcDbSpline
70
4
71
3
72
8
73
4
40
0
40
0
40
0
40
0
40
1
40
1
40
1
40
1
41
1
10
29.9728380748038
20
-1.26175484129646
30
0
41
1
10
29.9589066838443
20
-1.28978881760167
30
0
41
1
10
29.9449752928849
20
-1.31782279390688
30
0
41
1
10
29.9310439019254
20
-1.34585677021209
30
0
0
SPLINE
5
102
100
AcDbEntity
8
1
62
256
6
ByLayer
370
18
48
1
60
0
100
AcDbSpline
70
4
71
3
72
26
73
22
40
0
40
0
40
0
40
0
40
0.124999999999996
40
0.124999999999996
40
0.249999999999992
40
0.249999999999992
40
0.312499999999991
40
0.312499999999991
40
0.374999999999989
40
0.374999999999989
40
0.499999999999985
40
0.499999999999985
40
0.624999999999982
40
0.624999999999982
40
0.749999999999978
40
0.749999999999978
40
0.874999999999975
40
0.874999999999975
40
0.937499999999987
40
0.937499999999987
40
1
40
1
40
1
40
1
41
1
10
29.9728380748036
20
1.45915704410757
30
0
41
1
10
29.9741398582734
20
1.50758300834835
30
0
41
1
10
29.9719549973133
20
1.55545220376484
30
0
41
1
10
29.9611695321785
20
1.65016608920632
30
0
41
1
10
29.9525609888817
20
1.69700951147914
30
0
41
1
10
29.9348679552251
20
1.76651131014623
30
0
41
1
10
29.9281704674466
20
1.78955085780271
30
0
41
1
10
29.9131436486661
20
1.83536937034711
30
0
41
1
10
29.9048940603571
20
1.85790415441161
30
0
41
1
10
29.8780173190637
20
1.92436802037076
30
0
41
1
10
29.8572660396661
20
1.96718493880263
30
0
41
1
10
29.8101399903234
20
2.04985698949125
30
0
41
1
10
29.7837668406205
20
2.08971297509891
30
0
41
1
10
29.7250644904237
20
2.1662880069448
30
0
41
1
10
29.6933995004067
20
2.20213470899739
30
0
41
1
10
29.6255682666123
20
2.26894273171294
30
0
41
1
10
29.5893929915026
20
2.29991752855253
30
0
41
1
10
29.5315623914777
20
2.342544330528
30
0
41
1
10
29.511688508368
20
2.35611145020346
30
0
41
1
10
29.4706833097559
20
2.3818939041351
30
0
41
1
10
29.4496750000158
20
2.394025815741
30
0
41
1
10
29.4283247684789
20
2.4052945907639
30
0
0
SPLINE
5
103
100
AcDbEntity
8
1
62
256
6
ByLayer
370
18
48
1
60
0
100
AcDbSpline
70
4
71
3
72
24
73
20
40
0
40
0
40
0
40
0
40
0.0346013527247331
40
0.0693481360204199
40
0.104234802931293
40
0.139255757857533
40
0.174405301058409
40
0.209677671838787
40
0.245067127962766
40
0.280567969995944
40
0.316174516631096
40
0.35188108050304
40
0.387681951164273
40
0.502041296346251
40
0.619435433382983
40
0.739646280904756
40
0.862459299873224
40
0.971623964834528
40
1
40
1
40
1
40
1
41
1
10
29.9290270161228
20
-1.41452293523878
30
0
41
1
10
29.9284885191746
20
-1.42318825309692
30
0
41
1
10
29.9274092619586
20
-1.44055530941603
30
0
41
1
10
29.9247340716849
20
-1.46670841447639
30
0
41
1
10
29.9212781271596
20
-1.49297546538898
30
0
41
1
10
29.9169619496756
20
-1.51933562420979
30
0
41
1
10
29.911804186585
20
-1.54576113098628
30
0
41
1
10
29.9057985979866
20
-1.57222565120318
30
0
41
1
10
29.8989471176928
20
-1.59870211975027
30
0
41
1
10
29.8912508433156
20
-1.62516347052164
30
0
41
1
10
29.8827125329418
20
-1.65158225483611
30
0
41
1
10
29.8733354702861
20
-1.67793164194015
30
0
41
1
10
29.8556652219104
20
-1.72336174145983
30
0
41
1
10
29.8260320571067
20
-1.787803111709
30
0
41
1
10
29.7789044352437
20
-1.86983583319912
30
0
41
1
10
29.7224949857921
20
-1.95021685662624
30
0
41
1
10
29.6597001772873
20
-2.02435340599371
30
0
41
1
10
29.6082656713867
20
-2.07546371913975
30
0
41
1
10
29.5796373142619
20
-2.10116080115688
30
0
41
1
10
29.5736705606116
20
-2.10640517348622
30
0
0
SPLINE
5
104
100
AcDbEntity
8
1
62
256
6
ByLayer
370
18
48
1
60
0
100
AcDbSpline
70
4
71
3
72
8
73
4
40
0
40
0
40
0
40
0
40
1
40
1
40
1
40
1
41
1
10
29.692028940656
20
-1.71017162196253
30
0
41
1
10
29.6913978162448
20
-1.73556530909562
30
0
41
1
10
29.6904618625375
20
-1.76121807184367
30
0
41
1
10
29.6892472350208
20
-1.78710768055581
30
0
0
SPLINE
5
105
100
AcDbEntity
8
1
62
256
6
ByLayer
370
18
48
1
60
0
100
AcDbSpline
70
4
71
3
72
8
73
4
40
0
40
0
40
0
40
0
40
1
40
1
40
1
40
1
41
1
10
29.692028940656
20
-1.71017162196287
30
0
41
1
10
29.77103619218
20
-1.61176750885153
30
0
41
1
10
29.8500395229165
20
-1.51320321501518
30
0
41
1
10
29.9290400207904
20
-1.41452318678674
30
0
0
SPLINE
5
106
100
AcDbEntity
8
1
62
256
6
ByLayer
370
18
48
1
60
0
100
AcDbSpline
70
4
71
3
72
8
73
4
40
0
40
0
40
0
40
0
40
1
40
1
40
1
40
1
41
1
10
29.9290189963728
20
-1.41454944851893
30
0
41
1
10
29.9310294590248
20
-1.39060438576513
30
0
41
1
10
29.931697172051
20
-1.36771251721885
30
0
41
1
10
29.9310439019232
20
-1.34585677020982
30
0
0
SPLINE
5
107
100
AcDbEntity
8
1
62
256
6
ByLayer
370
18
48
1
60
0
100
AcDbSpline
70
4
71
3
72
10
73
6
40
0
40
0
40
0
40
0
40
0.5
40
0.5
40
1
40
1
40
1
40
1
41
1
10
12.2740674328119
20
-2.35392386367667
30
0
41
1
10
12.240459471169
20
-2.35302218171722
30
0
41
1
10
12.2062154019472
20
-2.35322903446195
30
0
41
1
10
12.1362998281396
20
-2.35613030917892
30
0
41
1
10
12.1006301084684
20
-2.35882162060852
30
0
41
1
10
12.0641101056459
20
-2.36299470715417
30
0
0
SPLINE
5
108
100
AcDbEntity
8
1
62
256
6
ByLayer
370
18
48
1
60
0
100
AcDbSpline
70
4
71
3
72
8
73
4
40
0
40
0
40
0
40
0
40
1
40
1
40
1
40
1
41
1
10
12.0641101056459
20
2.39033998359383
30
0
41
1
10
12.1407463036126
20
2.39374433520507
30
0
41
1
10
12.2152665502943
20
2.40524403502474
30
0
41
1
10
12.2866616041679
20
2.42324646323175
30
0
0
SPLINE
5
109
100
AcDbEntity
8
1
62
256
6
ByLayer
370
18
48
1
60
0
100
AcDbSpline
70
4
71
3
72
12
73
8
40
0
40
0
40
0
40
0
40
0.500000000000076
40
0.500000000000076
40
0.750000000000038
40
0.750000000000038
40
1
40
1
40
1
40
1
41
1
10
28.9734431921043
20
0.305546019618163
30
0
41
1
10
28.9622404080644
20
0.318551247943958
30
0
41
1
10
28.9524786491814
20
0.33283294790931
30
0
41
1
10
28.9396543198357
20
0.356299857554035
30
0
41
1
10
28.9356836019272
20
0.364459180123987
30
0
41
1
10
28.9283148059789
20
0.381310550520311
30
0
41
1
10
28.9249044653034
20
0.390024571152566
30
0
41
1
10
28.921702622775
20
0.399038888590127
30
0
0
SPLINE
5
10A
100
AcDbEntity
8
1
62
256
6
ByLayer
370
18
48
1
60
0
100
AcDbSpline
70
4
71
3
72
35
73
31
40
0
40
0
40
0
40
0
40
0.0625
40
0.0625
40
0.125
40
0.125
40
0.1875
40
0.1875
40
0.21875
40
0.21875
40
0.249999999999999
40
0.249999999999999
40
0.375
40
0.375
40
0.4375
40
0.4375
40
0.5
40
0.5
40
0.5625
40
0.5625
40
0.625
40
0.6875
40
0.6875
40
0.75
40
0.75
40
0.875
40
0.875
40
0.9375
40
0.9375
40
1
40
1
40
1
40
1
41
1
10
29.6345240712246
20
0.266975420576387
30
0
41
1
10
29.6250760513827
20
0.262351374870491
30
0
41
1
10
29.6170761124656
20
0.256450125472668
30
0
41
1
10
29.6035671890805
20
0.242797490299239
30
0
41
1
10
29.5980618634361
20
0.234980204968366
30
0
41
1
10
29.5896422933447
20
0.218699180556286
30
0
41
1
10
29.5866380619352
20
0.210159459489574
30
0
41
1
10
29.5836453609277
20
0.197018721838248
30
0
41
1
10
29.5829010642041
20
0.19256536380334
30
0
41
1
10
29.581903619104
20
0.183675542775745
30
0
41
1
10
29.5816480568173
20
0.17924027276689
30
0
41
1
10
29.5814754265749
20
0.157167517011516
30
0
41
1
10
29.5847791443521
20
0.139856704063845
30
0
41
1
10
29.5941736231335
20
0.115185512374211
30
0
41
1
10
29.5980261945723
20
0.107282524099673
30
0
41
1
10
29.6070498329063
20
0.0922744119285994
30
0
41
1
10
29.6122284781803
20
0.0851512580091764
30
0
41
1
10
29.6239350650621
20
0.0716991115758958
30
0
41
1
10
29.6304933207524
20
0.0653464941470645
30
0
41
1
10
29.6449238106503
20
0.0535573787565227
30
0
41
1
10
29.6605116679808
20
0.0427957871060585
30
0
41
1
10
29.6784355536269
20
0.0338657505793662
30
0
41
1
10
29.6975806409702
20
0.0257084770576341
30
0
41
1
10
29.7078048089659
20
0.0220041826929105
30
0
41
1
10
29.7401724748609
20
0.0118535128837891
30
0
41
1
10
29.7634731162803
20
0.0065199815902588
30
0
41
1
10
29.8008847199871
20
-0.0011195322596507
30
0
41
1
10
29.8138207997788
20
-0.003617640194193
30
0
41
1
10
29.8402355812435
20
-0.0087801954259419
30
0
41
1
10
29.8536498873192
20
-0.011433379189981
30
0
41
1
10
29.867234203428
20
-0.0143271438338388
30
0
0
SPLINE
5
10B
100
AcDbEntity
8
1
62
256
6
ByLayer
370
18
48
1
60
0
100
AcDbSpline
70
4
71
3
72
8
73
4
40
0
40
0
40
0
40
0
40
1
40
1
40
1
40
1
41
1
10
29.6926340733506
20
-0.336715973926317
30
0
41
1
10
29.6924797705148
20
-0.341882201172723
30
0
41
1
10
29.6922957059574
20
-0.346985024590452
30
0
41
1
10
29.6920825659197
20
-0.352025906135935
30
0
0
SPLINE
5
10C
100
AcDbEntity
8
1
62
256
6
ByLayer
370
18
48
1
60
0
100
AcDbSpline
70
4
71
3
72
12
73
8
40
0
40
0
40
0
40
0
40
0.5
40
0.5
40
0.75
40
0.75
40
1
40
1
40
1
40
1
41
1
10
29.5690782861846
20
1.74202150328435
30
0
41
1
10
29.5954955914665
20
1.71244362648818
30
0
41
1
10
29.6191520293332
20
1.68314236022934
30
0
41
1
10
29.6498038123025
20
1.63935655102998
30
0
41
1
10
29.659211078095
20
1.62478849228404
30
0
41
1
10
29.6762061251756
20
1.59565669739595
30
0
41
1
10
29.6837840344561
20
1.58109068435709
30
0
41
1
10
29.6902357383914
20
1.56671095456923
30
0
0
SPLINE
5
10D
100
AcDbEntity
8
1
62
256
6
ByLayer
370
13
48
1
60
0
100
AcDbSpline
70
4
71
3
72
9
73
5
40
0
40
0
40
0
40
0
40
0.327538052658254
40
1
40
1
40
1
40
1
41
1
10
15.7529721698711
20
-1.19911360114145
30
0
41
1
10
15.397814779914
20
-1.10594636005797
30
0
41
1
10
14.3134907232904
20
-0.76021279153673
30
0
41
1
10
13.2291666666667
20
-0.274685854774333
30
0
41
1
10
12.5
20
0.0458283421860415
30
0
0
SPLINE
5
10E
100
AcDbEntity
8
1
62
256
6
ByLayer
370
18
48
1
60
0
100
AcDbSpline
70
4
71
3
72
8
73
4
40
0
40
0
40
0
40
0
40
1
40
1
40
1
40
1
41
1
10
29.5669326995921
20
1.74269079759085
30
0
41
1
10
29.5676482895116
20
1.74246817877324
30
0
41
1
10
29.5683634857485
20
1.74224508228355
30
0
41
1
10
29.5690782861846
20
1.74202150328435
30
0
0
SPLINE
5
10F
100
AcDbEntity
8
1
62
256
6
ByLayer
370
18
48
1
60
0
100
AcDbSpline
70
4
71
3
72
8
73
4
40
0
40
0
40
0
40
0
40
1
40
1
40
1
40
1
41
1
10
29.5690782861846
20
1.74202150328435
30
0
41
1
10
29.4697752086006
20
1.771874827734
30
0
41
1
10
29.3704721310167
20
1.79980766139445
30
0
41
1
10
29.2711690534328
20
1.82569300686856
30
0
0
SPLINE
5
110
100
AcDbEntity
8
1
62
256
6
ByLayer
370
18
48
1
60
0
100
AcDbSpline
70
4
71
3
72
8
73
4
40
0
40
0
40
0
40
0
40
1
40
1
40
1
40
1
41
1
10
18.2512122571785
20
-1.70811351067798
30
0
41
1
10
18.194404314083
20
-1.72605450653089
30
0
41
1
10
18.1375963709876
20
-1.74336771438993
30
0
41
1
10
18.0807884278921
20
-1.76002556429137
30
0
0
SPLINE
5
111
100
AcDbEntity
8
1
62
256
6
ByLayer
370
18
48
1
60
0
100
AcDbSpline
70
4
71
3
72
11
73
7
40
0
40
0
40
0
40
0
40
0.0568115763841111
40
0.292608682288083
40
0.528405788192056
40
1
40
1
40
1
40
1
41
1
10
17.1385217316681
20
-1.9736476348495
30
0
41
1
10
17.0506811544454
20
-1.9875571146099
30
0
41
1
10
16.5982572438894
20
-2.05033061851242
30
0
41
1
10
15.78125
20
-2.07951986330988
30
0
41
1
10
14.3229166666667
20
-1.88205399620807
30
0
41
1
10
13.2291666666667
20
-1.47397056733092
30
0
41
1
10
12.5
20
-1.12719019490498
30
0
0
SPLINE
5
112
100
AcDbEntity
8
1
62
256
6
ByLayer
370
18
48
1
60
0
100
AcDbSpline
70
4
71
3
72
8
73
4
40
0
40
0
40
0
40
0
40
1
40
1
40
1
40
1
41
1
10
29.5081086039866
20
1.6192063683838
30
0
41
1
10
29.4654111157167
20
1.63667441308718
30
0
41
1
10
29.4227136274468
20
1.65381300972641
30
0
41
1
10
29.3800161391768
20
1.6706077308429
30
0
0
SPLINE
5
113
100
AcDbEntity
8
1
62
256
6
ByLayer
370
18
48
1
60
0
100
AcDbSpline
70
4
71
3
72
9
73
5
40
0
40
0
40
0
40
0
40
0.192933893910148
40
1
40
1
40
1
40
1
41
1
10
15.8179099374961
20
-2.18189781959791
30
0
41
1
10
15.8056899583308
20
-2.1827908302609
30
0
41
1
10
15.7423523097833
20
-2.18722643390433
30
0
41
1
10
15.6790146612358
20
-2.19065879099148
30
0
41
1
10
15.6278969918536
20
-2.19277648659045
30
0
0
SPLINE
5
114
100
AcDbEntity
8
1
62
256
6
ByLayer
370
13
48
1
60
0
100
AcDbSpline
70
4
71
3
72
9
73
5
40
0
40
0
40
0
40
0
40
0.300648325131249
40
1
40
1
40
1
40
1
41
1
10
15.6278969917539
20
-2.1927764865946
30
0
41
1
10
15.3144313278358
20
-2.20576269791181
30
0
41
1
10
14.2717989972512
20
-2.16735074700745
30
0
41
1
10
13.2291666666666
20
-1.86012524224987
30
0
41
1
10
12.5
20
-1.54464814396582
30
0
0
SPLINE
5
115
100
AcDbEntity
8
1
62
256
6
ByLayer
370
18
48
1
60
0
100
AcDbSpline
70
4
71
3
72
12
73
8
40
0
40
0
40
0
40
0
40
0.518857313870795
40
0.518857313870795
40
0.778285970806145
40
0.778285970806145
40
1
40
1
40
1
40
1
41
1
10
29.5669326995921
20
1.74269079759085
30
0
41
1
10
29.5846661825454
20
1.72226191711493
30
0
41
1
10
29.6007851504951
20
1.70164829526044
30
0
41
1
10
29.6224483221458
20
1.67044306007824
30
0
41
1
10
29.6292625020227
20
1.65998192852891
30
0
41
1
10
29.6410468852842
20
1.64054429519862
30
0
41
1
10
29.6461009533818
20
1.6316347481862
30
0
41
1
10
29.6507890330184
20
1.62277529694185
30
0
0
SPLINE
5
116
100
AcDbEntity
8
1
62
256
6
ByLayer
370
18
48
1
60
0
100
AcDbSpline
70
4
71
3
72
17
73
13
40
0
40
0
40
0
40
0
40
0.250000000000019
40
0.250000000000019
40
0.375000000000015
40
0.375000000000015
40
0.500000000000012
40
0.625000000000009
40
0.625000000000009
40
0.750000000000005
40
0.750000000000005
40
1
40
1
40
1
40
1
41
1
10
29.5669326995921
20
1.74269079759085
30
0
41
1
10
29.5563646306909
20
1.74635195260106
30
0
41
1
10
29.5457725739514
20
1.74673601725735
30
0
41
1
10
29.5312189226536
20
1.74178359687676
30
0
41
1
10
29.526625481265
20
1.73920288213296
30
0
41
1
10
29.5183500197508
20
1.73221642878488
30
0
41
1
10
29.5109465334899
20
1.72339301168452
30
0
41
1
10
29.5058230573597
20
1.71083791290107
30
0
41
1
10
29.5021180590085
20
1.69636643914265
30
0
41
1
10
29.5010151824145
20
1.68829501113015
30
0
41
1
10
29.500068979363
20
1.66204367492884
30
0
41
1
10
29.5025823274291
20
1.64175610694923
30
0
41
1
10
29.5081086039866
20
1.61920636838383
30
0
0
SPLINE
5
117
100
AcDbEntity
8
1
62
256
6
ByLayer
370
18
48
1
60
0
100
AcDbSpline
70
4
71
3
72
20
73
16
40
0
40
0
40
0
40
0
40
0.125000000000035
40
0.125000000000035
40
0.250000000000071
40
0.250000000000071
40
0.375000000000106
40
0.375000000000106
40
0.500000000000141
40
0.500000000000141
40
0.625000000000176
40
0.625000000000176
40
0.750000000000212
40
0.750000000000212
40
1
40
1
40
1
40
1
41
1
10
29.5081086039866
20
1.6192063683838
30
0
41
1
10
29.5088196553129
20
1.61630503663667
30
0
41
1
10
29.5092936624151
20
1.61357133785103
30
0
41
1
10
29.5096157428615
20
1.6085394814551
30
0
41
1
10
29.5094543951996
20
1.60622501719288
30
0
41
1
10
29.5083015807058
20
1.60238143681141
30
0
41
1
10
29.5073196027998
20
1.60082609867035
30
0
41
1
10
29.5042945516371
20
1.59864627508293
30
0
41
1
10
29.5023281189307
20
1.59808927367845
30
0
41
1
10
29.4975340389924
20
1.59800370692233
30
0
41
1
10
29.4946852072991
20
1.59849173709725
30
0
41
1
10
29.488552642373
20
1.60028731424785
30
0
41
1
10
29.4852070615499
20
1.60160510034865
30
0
41
1
10
29.4749592269619
20
1.60630334325558
30
0
41
1
10
29.4676671888091
20
1.61046862790499
30
0
41
1
10
29.4602711851549
20
1.61508235450938
30
0
0
SPLINE
5
118
100
AcDbEntity
8
1
62
256
6
ByLayer
370
13
48
1
60
0
100
AcDbSpline
70
4
71
3
72
8
73
4
40
0
40
0
40
0
40
0
40
1
40
1
40
1
40
1
41
1
10
28.9729476490459
20
1.49763927594447
30
0
41
1
10
28.9726982022039
20
1.49906008108195
30
0
41
1
10
28.9724487553619
20
1.50048088621946
30
0
41
1
10
28.97219930852
20
1.50190169135695
30
0
0
SPLINE
5
119
100
AcDbEntity
8
1
62
256
6
ByLayer
370
18
48
1
60
0
100
AcDbSpline
70
4
71
3
72
16
73
12
40
0
40
0
40
0
40
0
40
0.25
40
0.25
40
0.5
40
0.5
40
0.625
40
0.625
40
0.75
40
0.75
40
1
40
1
40
1
40
1
41
1
10
29.4602711851549
20
1.61508235450944
30
0
41
1
10
29.4305401268526
20
1.63362895107045
30
0
41
1
10
29.4001043228414
20
1.65231103390042
30
0
41
1
10
29.3379686794778
20
1.68974504617486
30
0
41
1
10
29.3062671211695
20
1.70849737259601
30
0
41
1
10
29.257775068063
20
1.73651772416346
30
0
41
1
10
29.2415739199189
20
1.74576762323605
30
0
41
1
10
29.2092768577129
20
1.76397224663458
30
0
41
1
10
29.193149202807
20
1.77294529637746
30
0
41
1
10
29.1447996576748
20
1.79946106123012
30
0
41
1
10
29.1126105704281
20
1.816595810595
30
0
41
1
10
29.0803949224507
20
1.83311857950608
30
0
0
SPLINE
5
11A
100
AcDbEntity
8
1
62
256
6
ByLayer
370
13
48
1
60
0
100
AcDbSpline
70
4
71
3
72
10
73
6
40
0
40
0
40
0
40
0
40
0.107741097448703
40
0.405160731632469
40
1
40
1
40
1
40
1
41
1
10
16.1774640080561
20
-2.17468524209778
30
0
41
1
10
16.0453926720375
20
-2.19579861137046
30
0
41
1
10
15.5487380026855
20
-2.25910361517259
30
0
41
1
10
14.3229166666668
20
-2.26021974942466
30
0
41
1
10
13.2291666666668
20
-1.95616128804389
30
0
41
1
10
12.5000000000001
20
-1.6463409680471
30
0
0
SPLINE
5
11B
100
AcDbEntity
8
1
62
256
6
ByLayer
370
13
48
1
60
0
100
AcDbSpline
70
4
71
3
72
10
73
6
40
0
40
0
40
0
40
0
40
0.185124503921318
40
0.58970427773113
40
1
40
1
40
1
40
1
41
1
10
26.2182802798822
20
1.23693956494668
30
0
41
1
10
26.3851035199215
20
1.20229007565763
30
0
41
1
10
26.9165100932941
20
1.07949401070908
30
0
41
1
10
27.8176508742583
20
0.809030258776147
30
0
41
1
10
28.5519684151833
20
0.540544413675576
30
0
41
1
10
28.921702622775
20
0.399038888590127
30
0
0
SPLINE
5
11C
100
AcDbEntity
8
1
62
256
6
ByLayer
370
18
48
1
60
0
100
AcDbSpline
70
4
71
3
72
31
73
27
40
0
40
0
40
0
40
0
40
0.125000000000011
40
0.125000000000011
40
0.187500000000016
40
0.187500000000016
40
0.250000000000022
40
0.250000000000022
40
0.375000000000033
40
0.375000000000033
40
0.437500000000039
40
0.437500000000039
40
0.500000000000045
40
0.56250000000005
40
0.56250000000005
40
0.625000000000056
40
0.625000000000056
40
0.750000000000067
40
0.750000000000067
40
0.81250000000005
40
0.81250000000005
40
0.875000000000034
40
0.875000000000034
40
0.937500000000017
40
0.937500000000017
40
1
40
1
40
1
40
1
41
1
10
28.921702622775
20
0.399038888590127
30
0
41
1
10
28.9135600437029
20
0.421963136158297
30
0
41
1
10
28.9080859724557
20
0.445452176132733
30
0
41
1
10
28.9035310838352
20
0.481628741277689
30
0
41
1
10
28.9026263032878
20
0.493845491573637
30
0
41
1
10
28.9020366144481
20
0.518621532412453
30
0
41
1
10
28.9023592074705
20
0.531055706812793
30
0
41
1
10
28.9050396189933
20
0.568068478852439
30
0
41
1
10
28.9090838614417
20
0.592547649371369
30
0
41
1
10
28.9183146995844
20
0.629031516920975
30
0
41
1
10
28.9219203867367
20
0.641109909079944
30
0
41
1
10
28.9299921472538
20
0.664632799820083
30
0
41
1
10
28.9389575761172
20
0.687661120370933
30
0
41
1
10
28.9496517075381
20
0.709724521959117
30
0
41
1
10
28.9612296204069
20
0.731295296725023
30
0
41
1
10
28.9674762231166
20
0.741846027120516
30
0
41
1
10
28.9871457775569
20
0.772001251309149
30
0
41
1
10
29.001596817351
20
0.79039796039018
30
0
41
1
10
29.0256960309273
20
0.815206349481485
30
0
41
1
10
29.0341971188317
20
0.823046045132145
30
0
41
1
10
29.0517913033189
20
0.837329289858303
30
0
41
1
10
29.0609028206209
20
0.843804937683871
30
0
41
1
10
29.0798991242531
20
0.855302565577915
30
0
41
1
10
29.0898011549325
20
0.860333916643583
30
0
41
1
10
29.110538717977
20
0.868664039133733
30
0
41
1
10
29.1212119957644
20
0.871899166366745
30
0
41
1
10
29.1322812360108
20
0.874092077530236
30
0
0
SPLINE
5
11D
100
AcDbEntity
8
1
62
256
6
ByLayer
370
13
48
1
60
0
100
AcDbSpline
70
4
71
3
72
8
73
4
40
0
40
0
40
0
40
0
40
1
40
1
40
1
40
1
41
1
10
28.9728201545496
20
-1.44304073928973
30
0
41
1
10
28.9726200203894
20
-1.44164096376207
30
0
41
1
10
28.9724198862292
20
-1.44024118823438
30
0
41
1
10
28.972219752069
20
-1.43884141270672
30
0
0
SPLINE
5
11E
100
AcDbEntity
8
1
62
256
6
ByLayer
370
13
48
1
60
0
100
AcDbSpline
70
4
71
3
72
8
73
4
40
0
40
0
40
0
40
0
40
1
40
1
40
1
40
1
41
0.999992283503771
10
28.9366972459266
20
-1.43261582702098
30
0
41
0.999992283503771
10
28.9354076540574
20
-1.42359618171188
30
0
41
0.999992283503771
10
28.9341180621882
20
-1.41457653640279
30
0
41
0.999992283503771
10
28.932828470319
20
-1.40555689109373
30
0
0
SPLINE
5
11F
100
AcDbEntity
8
1
62
256
6
ByLayer
370
18
48
1
60
0
100
AcDbSpline
70
4
71
3
72
10
73
6
40
0
40
0
40
0
40
0
40
0.5
40
0.5
40
1
40
1
40
1
40
1
41
1
10
29.1827447306661
20
1.56648165644606
30
0
41
1
10
29.1600483393257
20
1.61150146220138
30
0
41
1
10
29.140177564216
20
1.65611435765217
30
0
41
1
10
29.106195202024
20
1.74502099774617
30
0
41
1
10
29.0921432757898
20
1.78914572946678
30
0
41
1
10
29.0803949224507
20
1.83311857950599
30
0
0
SPLINE
5
120
100
AcDbEntity
8
1
62
256
6
ByLayer
370
18
48
1
60
0
100
AcDbSpline
70
4
71
3
72
28
73
24
40
0
40
0
40
0
40
0
40
0.0504286394456529
40
0.0504286394456529
40
0.100857278891306
40
0.100857278891306
40
0.201714557782611
40
0.201714557782611
40
0.302571836673917
40
0.302571836673917
40
0.403429115565222
40
0.403429115565222
40
0.605143673347834
40
0.605143673347834
40
0.706000952239134
40
0.706000952239134
40
0.806858231130434
40
0.806858231130434
40
0.857286870576078
40
0.857286870576078
40
0.907715510021722
40
0.907715510021722
40
1
40
1
40
1
40
1
41
1
10
29.0803949224507
20
1.83311857950608
30
0
41
1
10
29.0368891514111
20
1.85207263811986
30
0
41
1
10
28.9933143449366
20
1.87064872051013
30
0
41
1
10
28.9062323249645
20
1.90692110584516
30
0
41
1
10
28.8627389403564
20
1.92460968743384
30
0
41
1
10
28.7323887325141
20
1.97633945293219
30
0
41
1
10
28.6456648447065
20
2.00905109843376
30
0
41
1
10
28.4725767691767
20
2.0709744973735
30
0
41
1
10
28.3862186227587
20
2.1001888070096
30
0
41
1
10
28.2138708514156
20
2.15506593396748
30
0
41
1
10
28.1278644635882
20
2.18071555639739
30
0
41
1
10
27.8699664572119
20
2.25214063100896
30
0
41
1
10
27.6981853085638
20
2.29240826228266
30
0
41
1
10
27.4394128834671
20
2.3409051812294
30
0
41
1
10
27.3529725851297
20
2.35508395083753
30
0
41
1
10
27.17947611048
20
2.37939209957838
30
0
41
1
10
27.092416883873
20
2.38953466431357
30
0
41
1
10
26.9614832645292
20
2.40177262421707
30
0
41
1
10
26.9177370557899
20
2.40535720937731
30
0
41
1
10
26.8304579567772
20
2.41150486534758
30
0
41
1
10
26.786909477595
20
2.41407069437801
30
0
41
1
10
26.6639545620226
20
2.41989799778196
30
0
41
1
10
26.584803103877
20
2.42196597765832
30
0
41
1
10
26.5058927663165
20
2.42231001835935
30
0
0
SPLINE
5
121
100
AcDbEntity
8
1
62
256
6
ByLayer
370
18
48
1
60
0
100
AcDbSpline
70
4
71
3
72
37
73
33
40
0
40
0
40
0
40
0
40
0.0191804120057854
40
0.0191804120057854
40
0.128160366227362
40
0.128160366227362
40
0.182650343338151
40
0.182650343338151
40
0.23714032044894
40
0.23714032044894
40
0.291630297559728
40
0.291630297559728
40
0.318875286115122
40
0.318875286115122
40
0.346120274670516
40
0.400610251781308
40
0.400610251781308
40
0.4551002288921
40
0.4551002288921
40
0.56408018311368
40
0.56408018311368
40
0.67306013733526
40
0.67306013733526
40
0.72755011444605
40
0.72755011444605
40
0.78204009155684
40
0.78204009155684
40
0.83653006866763
40
0.83653006866763
40
0.89102004577842
40
0.89102004577842
40
1
40
1
40
1
40
1
41
1
10
17.25736658824
20
-1.99355969749908
30
0
41
1
10
17.2270575022208
20
-2.00500219743174
30
0
41
1
10
17.1967577258369
20
-2.01623819862644
30
0
41
1
10
16.9943475783543
20
-2.08992731190693
30
0
41
1
10
16.8225073371082
20
-2.14584452321392
30
0
41
1
10
16.5645936669911
20
-2.21868150300963
30
0
41
1
10
16.4785947167018
20
-2.24110814878531
30
0
41
1
10
16.3063954900192
20
-2.2820805238392
30
0
41
1
10
16.2201854486871
20
-2.30064997443938
30
0
41
1
10
16.0473324487926
20
-2.33410942848906
30
0
41
1
10
15.9606961551066
20
-2.34898579760812
30
0
41
1
10
15.8303346532817
20
-2.36833240680113
30
0
41
1
10
15.7867708493158
20
-2.37429114929884
30
0
41
1
10
15.6996924188701
20
-2.38517368509142
30
0
41
1
10
15.5692808393193
20
-2.3999318937901
30
0
41
1
10
15.4394300848595
20
-2.40999533559147
30
0
41
1
10
15.2666893351531
20
-2.41920523264386
30
0
41
1
10
15.1805231262875
20
-2.42168056574275
30
0
41
1
10
14.9223186183435
20
-2.42309987649716
30
0
41
1
10
14.750520928127
20
-2.41624438715024
30
0
41
1
10
14.4068579285234
20
-2.38635301539733
30
0
41
1
10
14.2350037079081
20
-2.36331672181191
30
0
41
1
10
13.9764415770539
20
-2.31636467219624
30
0
41
1
10
13.8901110029586
20
-2.29869637610912
30
0
41
1
10
13.7169878412895
20
-2.25958721699664
30
0
41
1
10
13.6302016268344
20
-2.23811795769476
30
0
41
1
10
13.4560552599248
20
-2.19122295945294
30
0
41
1
10
13.3690518680405
20
-2.16589785366318
30
0
41
1
10
13.1952495681486
20
-2.11162495140741
30
0
41
1
10
13.1084180026559
20
-2.08266834571063
30
0
41
1
10
12.8479326953013
20
-1.99042118749236
30
0
41
1
10
12.6742688975711
20
-1.92179680181641
30
0
41
1
10
12.5000000000001
20
-1.84668467140457
30
0
0
SPLINE
5
122
100
AcDbEntity
8
1
62
256
6
ByLayer
370
18
48
1
60
0
100
AcDbSpline
70
4
71
3
72
8
73
4
40
0
40
0
40
0
40
0
40
1
40
1
40
1
40
1
41
1
10
28.9320803671758
20
1.53243852587701
30
0
41
1
10
28.9458275273726
20
1.52251434579085
30
0
41
1
10
28.9592151066658
20
1.51234457149309
30
0
41
1
10
28.9721993085133
20
1.50190169135348
30
0
0
SPLINE
5
123
100
AcDbEntity
8
1
62
256
6
ByLayer
370
18
48
1
60
0
100
AcDbSpline
70
4
71
3
72
8
73
4
40
0
40
0
40
0
40
0
40
1
40
1
40
1
40
1
41
1
10
28.97219930852
20
1.50190169135675
30
0
41
1
10
28.9748201285329
20
1.4997938290804
30
0
41
1
10
28.9774598534005
20
1.49769188613027
30
0
41
1
10
28.9801206549546
20
1.49559753623933
30
0
0
SPLINE
5
124
100
AcDbEntity
8
1
62
256
6
ByLayer
370
13
48
1
60
0
100
AcDbSpline
70
4
71
3
72
18
73
14
40
0
40
0
40
0
40
0
40
0.0309022658850086
40
0.182146820305503
40
0.295580236120874
40
0.409013651936244
40
0.484635929146492
40
0.560258206356739
40
0.635880483566986
40
0.711502760777233
40
0.824936176592604
40
0.938369592407975
40
1
40
1
40
1
40
1
41
1
10
24.7547248447059
20
-1.50838461345097
30
0
41
1
10
24.6802332298039
20
-1.49420360689734
30
0
41
1
10
24.2411582815686
20
-1.40360386802331
30
0
41
1
10
23.5286458333334
20
-1.19194670076541
30
0
41
1
10
22.6171875
20
-0.824249589791491
30
0
41
1
10
21.8880208333333
20
-0.487893972964628
30
0
41
1
10
21.25
20
-0.179877120636917
30
0
41
1
10
20.703125
20
0.0890719585096349
30
0
41
1
10
20.15625
20
0.35347489376619
30
0
41
0.999999999999999
10
19.5182291666667
20
0.645671902048264
30
0
41
1
10
18.7890625
20
0.945853924400438
30
0
41
1
10
18.0936240061229
20
1.1786182690395
30
0
41
1
10
17.6716230122458
20
1.28592615893172
30
0
41
1
10
17.5230595183687
20
1.31926960166365
30
0
0
SPLINE
5
125
100
AcDbEntity
8
1
62
256
6
ByLayer
370
18
48
1
60
0
100
AcDbSpline
70
4
71
3
72
29
73
25
40
0
40
0
40
0
40
0
40
0.125000000000017
40
0.125000000000017
40
0.187500000000022
40
0.187500000000022
40
0.250000000000025
40
0.250000000000025
40
0.375000000000033
40
0.375000000000033
40
0.406250000000032
40
0.406250000000032
40
0.437500000000031
40
0.437500000000031
40
0.500000000000028
40
0.562500000000024
40
0.562500000000024
40
0.625000000000021
40
0.625000000000021
40
0.750000000000014
40
0.750000000000014
40
0.875000000000007
40
0.875000000000007
40
1
40
1
40
1
40
1
41
1
10
29.4159871850484
20
1.16175497229162
30
0
41
1
10
29.4264128618659
20
1.14604082205136
30
0
41
1
10
29.4346143922843
20
1.13026447347738
30
0
41
1
10
29.4428637757298
20
1.10648660472833
30
0
41
1
10
29.4449346894481
20
1.09854166300011
30
0
41
1
10
29.447544173947
20
1.08260892625807
30
0
41
1
10
29.448069706437
20
1.07461837979596
30
0
41
1
10
29.4471107027046
20
1.05115001495747
30
0
41
1
10
29.443140849432
20
1.03598820040435
30
0
41
1
10
29.4336525878275
20
1.01769333163222
30
0
41
1
10
29.4315280782743
20
1.0140673091868
30
0
41
1
10
29.4268140003751
20
1.00688281469252
30
0
41
1
10
29.4242171411132
20
1.00331740781357
30
0
41
1
10
29.415837254447
20
0.992870201326241
30
0
41
1
10
29.4030411877194
20
0.979510425223538
30
0
41
1
10
29.3872271847548
20
0.967210316829465
30
0
41
1
10
29.3700018938151
20
0.955405744512177
30
0
41
1
10
29.3606310236095
20
0.949724229202417
30
0
41
1
10
29.3309627584731
20
0.933603658138907
30
0
41
1
10
29.3092098004261
20
0.924090919510604
30
0
41
1
10
29.2627152640852
20
0.906934067343144
30
0
41
1
10
29.2379358265966
20
0.899286046795027
30
0
41
1
10
29.1861261389213
20
0.885510822440239
30
0
41
1
10
29.1594808373988
20
0.879480551188067
30
0
41
1
10
29.1322812360127
20
0.874092077526683
30
0
0
SPLINE
5
126
100
AcDbEntity
8
1
62
256
6
ByLayer
370
18
48
1
60
0
100
AcDbSpline
70
4
71
3
72
28
73
24
40
0
40
0
40
0
40
0
40
0.125000000000005
40
0.125000000000005
40
0.25000000000001
40
0.25000000000001
40
0.312500000000012
40
0.312500000000012
40
0.375000000000014
40
0.375000000000014
40
0.500000000000032
40
0.500000000000032
40
0.562500000000033
40
0.562500000000033
40
0.625000000000033
40
0.625000000000033
40
0.750000000000013
40
0.750000000000013
40
0.874999999999992
40
0.874999999999992
40
0.937499999999996
40
0.937499999999996
40
1
40
1
40
1
40
1
41
1
10
29.9728380748036
20
-1.0431424663436
30
0
41
1
10
29.9741551231711
20
-1.07705059498036
30
0
41
1
10
29.9718978878504
20
-1.11037346018966
30
0
41
1
10
29.9607979082594
20
-1.1759408605146
30
0
41
1
10
29.9519466631293
20
-1.20818400368424
30
0
41
1
10
29.9337541336477
20
-1.25574381391485
30
0
41
1
10
29.9268573830942
20
-1.27148263407904
30
0
41
1
10
29.9114253582044
20
-1.30259987286553
30
0
41
1
10
29.9029585759041
20
-1.31784512590519
30
0
41
1
10
29.8753685086704
20
-1.36266691029368
30
0
41
1
10
29.8540671128387
20
-1.39133431261317
30
0
41
1
10
29.8177764395496
20
-1.4325245217936
30
0
41
1
10
29.8049535058229
20
-1.44595154614638
30
0
41
1
10
29.7778226642416
20
-1.47218577650901
30
0
41
1
10
29.7634760970211
20
-1.48502473716746
30
0
41
1
10
29.7183804933896
20
-1.52235989013022
30
0
41
1
10
29.6859705610993
20
-1.54538381624087
30
0
41
1
10
29.6165109019891
20
-1.58774115386393
30
0
41
1
10
29.5794621660902
20
-1.60707535355957
30
0
41
1
10
29.5202094034246
20
-1.63314983500877
30
0
41
1
10
29.4998014584309
20
-1.64136639970604
30
0
41
1
10
29.457862998097
20
-1.65669972719451
30
0
41
1
10
29.4364932397172
20
-1.66376054167597
30
0
41
1
10
29.4147219987279
20
-1.67021406324949
30
0
0
SPLINE
5
127
100
AcDbEntity
8
1
62
256
6
ByLayer
370
13
48
1
60
0
100
AcDbSpline
70
4
71
3
72
8
73
4
40
0
40
0
40
0
40
0
40
1
40
1
40
1
40
1
41
1
10
29.9728380747965
20
-1.04314246631122
30
0
41
1
10
29.9589066838402
20
-0.945703727677994
30
0
41
1
10
29.944975292884
20
-0.848264989044793
30
0
41
1
10
29.9310439019277
20
-0.750826250411563
30
0
0
SPLINE
5
128
100
AcDbEntity
8
1
62
256
6
ByLayer
370
18
48
1
60
0
100
AcDbSpline
70
4
71
3
72
8
73
4
40
0
40
0
40
0
40
0
40
1
40
1
40
1
40
1
41
1
10
29.9294467928469
20
-0.790103244822006
30
0
41
1
10
29.9311223776136
20
-0.779549754632541
30
0
41
1
10
29.9316452026112
20
-0.766436226378516
30
0
41
1
10
29.9310439019232
20
-0.750826250363389
30
0
0
SPLINE
5
129
100
AcDbEntity
8
1
62
256
6
ByLayer
370
18
48
1
60
0
100
AcDbSpline
70
4
71
3
72
8
73
4
40
0
40
0
40
0
40
0
40
1
40
1
40
1
40
1
41
1
10
12.5000000000001
20
-1.84668467140469
30
0
41
1
10
12.4244373870327
20
-1.81887634418933
30
0
41
1
10
12.3492244411689
20
-1.78989803941346
30
0
41
1
10
12.2743851800337
20
-1.75966939469222
30
0
0
SPLINE
5
12A
100
AcDbEntity
8
1
62
256
6
ByLayer
370
18
48
1
60
0
100
AcDbSpline
70
4
71
3
72
30
73
26
40
0
40
0
40
0
40
0
40
0.125000000000015
40
0.250000000000031
40
0.250000000000031
40
0.281250000000041
40
0.281250000000041
40
0.312500000000052
40
0.312500000000052
40
0.375000000000062
40
0.375000000000062
40
0.500000000000082
40
0.500000000000082
40
0.562500000000084
40
0.562500000000084
40
0.625000000000085
40
0.625000000000085
40
0.750000000000066
40
0.750000000000066
40
0.875000000000047
40
0.875000000000047
40
0.906250000000035
40
0.906250000000035
40
0.937500000000024
40
1
40
1
40
1
40
1
41
1
10
29.9728380748033
20
0.689855731330965
30
0
41
1
10
29.9742031329386
20
0.715671330475629
30
0
41
1
10
29.9692117864856
20
0.767318878439625
30
0
41
1
10
29.9499556039391
20
0.818996631215072
30
0
41
1
10
29.9334524058383
20
0.851304687562447
30
0
41
1
10
29.9299272371177
20
0.85776677425693
30
0
41
1
10
29.9224227877677
20
0.870691909196921
30
0
41
1
10
29.9184384630959
20
0.877161354255691
30
0
41
1
10
29.9058959408997
20
0.896421170689365
30
0
41
1
10
29.8967236261562
20
0.909110436779542
30
0
41
1
10
29.8668348297437
20
0.94673755700174
30
0
41
1
10
29.843760593785
20
0.971237352401999
30
0
41
1
10
29.8044120139167
20
1.00710689306564
30
0
41
1
10
29.7905028255327
20
1.01891607217274
30
0
41
1
10
29.7610523260451
20
1.04223119030308
30
0
41
1
10
29.7454726962569
20
1.05375774405991
30
0
41
1
10
29.696997764707
20
1.08732148049566
30
0
41
1
10
29.6621651749348
20
1.10853022630579
30
0
41
1
10
29.5874643220296
20
1.14861182800743
30
0
41
1
10
29.5475981555112
20
1.16748565645219
30
0
41
1
10
29.4943819348115
20
1.18950843733751
30
0
41
1
10
29.4835543018985
20
1.19383895013371
30
0
41
1
10
29.4617269715978
20
1.20227024234183
30
0
41
1
10
29.4286711468488
20
1.21459686882858
30
0
41
1
10
29.3946746845031
20
1.22596647718603
30
0
41
1
10
29.3715885062791
20
1.2331169995326
30
0
0
SPLINE
5
12B
100
AcDbEntity
8
1
62
256
6
ByLayer
370
18
48
1
60
0
100
AcDbSpline
70
4
71
3
72
8
73
4
40
0
40
0
40
0
40
0
40
1
40
1
40
1
40
1
41
1
10
29.9728380748293
20
0.689855731266903
30
0
41
1
10
29.9589066838643
20
0.769206472688978
30
0
41
1
10
29.9449752928993
20
0.848557214111054
30
0
41
1
10
29.9310439019343
20
0.927907955533129
30
0
0
SPLINE
5
12C
100
AcDbEntity
8
1
62
256
6
ByLayer
370
18
48
1
60
0
100
AcDbSpline
70
4
71
3
72
8
73
4
40
0
40
0
40
0
40
0
40
1
40
1
40
1
40
1
41
1
10
29.9297956793377
20
0.965622777184763
30
0
41
1
10
29.9311937685671
20
0.951098739461315
30
0
41
1
10
29.931598357846
20
0.938549966409994
30
0
41
1
10
29.9310439019229
20
0.927907955513575
30
0
0
SPLINE
5
12D
100
AcDbEntity
8
1
62
256
6
ByLayer
370
18
48
1
60
0
100
AcDbSpline
70
4
71
3
72
32
73
28
40
0
40
0
40
0
40
0
40
0.005892261334721
40
0.0359771084038475
40
0.0661419861668628
40
0.159476280570988
40
0.255183272522912
40
0.353124233294539
40
0.453160403964818
40
0.542459099756608
40
0.636854910283573
40
0.736205447422846
40
0.84037751350489
40
0.84833238290571
40
0.856821482013709
40
0.865843928399467
40
0.875398793846572
40
0.885485107240118
40
0.89610185762953
40
0.907247997494277
40
0.918922446246005
40
0.931124094068338
40
0.943851806169653
40
0.957104427440004
40
0.970880787527523
40
0.985179706344805
40
1
40
1
40
1
40
1
41
1
10
29.8852327584258
20
1.10738962281545
30
0
41
1
10
29.8846417878729
20
1.10846834056707
30
0
41
1
10
29.8809991777071
20
1.11505462094732
30
0
41
1
10
29.8739188101424
20
1.12715984164166
30
0
41
1
10
29.8560049905333
20
1.15522756335909
30
0
41
1
10
29.8261573319742
20
1.19511491401232
30
0
41
1
10
29.7788810225829
20
1.24651512478698
30
0
41
1
10
29.7223161320783
20
1.29780142681943
30
0
41
1
10
29.6592809065417
20
1.34616117528463
30
0
41
1
10
29.5902925212973
20
1.39169847937208
30
0
41
1
10
29.5154377674021
20
1.43461933405834
30
0
41
1
10
29.4306370162067
20
1.47655187591863
30
0
41
1
10
29.3665097970473
20
1.50354754469927
30
0
41
1
10
29.3289602907429
20
1.51792365695741
30
0
41
1
10
29.3210012768246
20
1.52092503336198
30
0
41
1
10
29.3125082569628
20
1.52407808103757
30
0
41
1
10
29.3034766094935
20
1.52737587368736
30
0
41
1
10
29.2939018294001
20
1.53081127962528
30
0
41
1
10
29.2837794064219
20
1.53437655199644
30
0
41
1
10
29.2731049237079
20
1.53806342943557
30
0
41
1
10
29.2618740860143
20
1.54186307038012
30
0
41
1
10
29.2500828093408
20
1.54576610377015
30
0
41
1
10
29.237727145976
20
1.54976237459141
30
0
41
1
10
29.2248038572068
20
1.55384185831045
30
0
41
1
10
29.2113084354639
20
1.55799095502826
30
0
41
1
10
29.1972432262872
20
1.56220705957969
30
0
41
1
10
29.1876431709363
20
1.56498011533833
30
0
41
1
10
29.1827571995337
20
1.56639146877737
30
0
0
SPLINE
5
12E
100
AcDbEntity
8
1
62
256
6
ByLayer
370
18
48
1
60
0
100
AcDbSpline
70
4
71
3
72
22
73
18
40
0
40
0
40
0
40
0
40
0.0624999999999742
40
0.0624999999999742
40
0.124999999999949
40
0.124999999999949
40
0.187499999999923
40
0.187499999999923
40
0.249999999999897
40
0.249999999999897
40
0.37499999999993
40
0.37499999999993
40
0.499999999999963
40
0.499999999999963
40
0.749999999999981
40
0.749999999999981
40
1
40
1
40
1
40
1
41
1
10
29.0908920852694
20
1.43393241879494
30
0
41
1
10
29.0961227163771
20
1.43315086747071
30
0
41
1
10
29.1012536512224
20
1.43290984486532
30
0
41
1
10
29.1112602331734
20
1.43373670548655
30
0
41
1
10
29.1158342300749
20
1.43477975407285
30
0
41
1
10
29.1242591462534
20
1.43790303420778
30
0
41
1
10
29.1279189824652
20
1.43989944106303
30
0
41
1
10
29.1345292040925
20
1.44445569221151
30
0
41
1
10
29.1374710012258
20
1.44702403712435
30
0
41
1
10
29.1453410762341
20
1.45507802049866
30
0
41
1
10
29.1494712550792
20
1.46098412024961
30
0
41
1
10
29.1566522367355
20
1.47332310967411
30
0
41
1
10
29.1596234826187
20
1.47967422366008
30
0
41
1
10
29.1674854181845
20
1.49899308161594
30
0
41
1
10
29.1713564014969
20
1.51224666177623
30
0
41
1
10
29.1778962905379
20
1.53908714706154
30
0
41
1
10
29.1805208107322
20
1.55268568797129
30
0
41
1
10
29.1827790263467
20
1.56638521832699
30
0
0
SPLINE
5
12F
100
AcDbEntity
8
1
62
256
6
ByLayer
370
18
48
1
60
0
100
AcDbSpline
70
4
71
3
72
18
73
14
40
0
40
0
40
0
40
0
40
0.125000000000001
40
0.125000000000001
40
0.250000000000002
40
0.250000000000002
40
0.500000000000004
40
0.500000000000004
40
0.624999999999995
40
0.624999999999995
40
0.749999999999985
40
0.749999999999985
40
1
40
1
40
1
40
1
41
1
10
29.6781428065691
20
-1.79535870553926
30
0
41
1
10
29.6783312590771
20
-1.81046677780785
30
0
41
1
10
29.6776958250102
20
-1.82561829072912
30
0
41
1
10
29.674780755404
20
-1.85606119545273
30
0
41
1
10
29.6724952776728
20
-1.87138327416372
30
0
41
1
10
29.6630119048622
20
-1.91749787862605
30
0
41
1
10
29.6532952481267
20
-1.9480476842036
30
0
41
1
10
29.6330258822545
20
-1.99413163876722
30
0
41
1
10
29.6253125902995
20
-2.00953755012733
30
0
41
1
10
29.6077476450327
20
-2.04055832952909
30
0
41
1
10
29.5978278951216
20
-2.05624649809704
30
0
41
1
10
29.5650712702141
20
-2.10287064926194
30
0
41
1
10
29.5391944551596
20
-2.1335916495166
30
0
41
1
10
29.508199187767
20
-2.16427545586873
30
0
0
SPLINE
5
130
100
AcDbEntity
8
1
62
256
6
ByLayer
370
18
48
1
60
0
100
AcDbSpline
70
4
71
3
72
8
73
4
40
0
40
0
40
0
40
0
40
1
40
1
40
1
40
1
41
1
10
29.678142806569
20
-1.79535870553923
30
0
41
1
10
29.6818540946709
20
-1.79261135460612
30
0
41
1
10
29.6855553918504
20
-1.7898609229463
30
0
41
1
10
29.6892472350208
20
-1.78710768055581
30
0
0
SPLINE
5
131
100
AcDbEntity
8
1
62
256
6
ByLayer
370
18
48
1
60
0
100
AcDbSpline
70
4
71
3
72
10
73
6
40
0
40
0
40
0
40
0
40
0.5
40
0.5
40
1
40
1
40
1
40
1
41
1
10
29.6481717288178
20
-1.64102659175447
30
0
41
1
10
29.6544355257845
20
-1.66677351043708
30
0
41
1
10
29.6610084025659
20
-1.69190439515032
30
0
41
1
10
29.674708304243
20
-1.74063514155205
30
0
41
1
10
29.6818374702077
20
-1.76424902036138
30
0
41
1
10
29.6892472350208
20
-1.78710768055581
30
0
0
SPLINE
5
132
100
AcDbEntity
8
1
62
256
6
ByLayer
370
18
48
1
60
0
100
AcDbSpline
70
4
71
3
72
8
73
4
40
0
40
0
40
0
40
0
40
1
40
1
40
1
40
1
41
1
10
29.5439132534581
20
-1.61578963762099
30
0
41
1
10
29.5787216578008
20
-1.62465619364332
30
0
41
1
10
29.6134742644284
20
-1.63306672599322
30
0
41
1
10
29.6481717288178
20
-1.64102659175447
30
0
0
SPLINE
5
133
100
AcDbEntity
8
1
62
256
6
ByLayer
370
13
48
1
60
0
100
AcDbSpline
70
4
71
3
72
20
73
16
40
0
40
0
40
0
40
0
40
0.0115612666775797
40
0.100755655250812
40
0.189950043824044
40
0.279144432397276
40
0.368338820970508
40
0.45753320954374
40
0.546727598116972
40
0.635921986690204
40
0.725116375263437
40
0.814310763836669
40
0.903505152409901
40
0.992699540983133
40
1
40
1
40
1
40
1
41
1
10
28.4302602632484
20
-1.14018271728736
30
0
41
1
10
28.4066318421657
20
-1.13388618627209
30
0
41
1
10
28.2007117544162
20
-1.07832888801409
30
0
41
1
10
27.8125
20
-0.962549374700643
30
0
41
1
10
27.265625
20
-0.774592213471749
30
0
41
1
10
26.7187500000001
20
-0.56623785618018
30
0
41
1
10
26.171875
20
-0.344802600526094
30
0
41
1
10
25.625
20
-0.115315790341242
30
0
41
1
10
25.078125
20
0.118817548939887
30
0
41
1
10
24.53125
20
0.35076226793521
30
0
41
1
10
23.984375
20
0.573517987106612
30
0
41
1
10
23.4375
20
0.781843713328783
30
0
41
1
10
22.890625
20
0.972115188644836
30
0
41
1
10
22.5111213015753
20
1.08762580614513
30
0
41
1
10
22.3139092698173
20
1.14208194805431
30
0
41
1
10
22.2989889047259
20
1.14616976156088
30
0
0
SPLINE
5
134
100
AcDbEntity
8
1
62
256
6
ByLayer
370
18
48
1
60
0
100
AcDbSpline
70
4
71
3
72
8
73
4
40
0
40
0
40
0
40
0
40
1
40
1
40
1
40
1
41
1
10
29.508199187767
20
-2.16427545586873
30
0
41
1
10
29.5093370132358
20
-2.16360321770529
30
0
41
1
10
29.5114676167612
20
-2.16188094752241
30
0
41
1
10
29.5145047591324
20
-2.15927434017607
30
0
0
SPLINE
5
135
100
AcDbEntity
8
1
62
256
6
ByLayer
370
18
48
1
60
0
100
AcDbSpline
70
4
71
3
72
23
73
19
40
0
40
0
40
0
40
0
40
0.0702281705757288
40
0.134030949222335
40
0.197833727868941
40
0.261636506515548
40
0.325439285162154
40
0.38924206380876
40
0.453044842455367
40
0.516847621101973
40
0.58065039974858
40
0.644453178395186
40
0.708255957041792
40
0.772058735688399
40
0.835861514335005
40
0.899664292981611
40
0.963467071628218
40
1
40
1
40
1
40
1
41
1
10
29.508199187767
20
-2.16427545586873
30
0
41
1
10
29.3075494585113
20
-2.18567450728548
30
0
41
1
10
28.924608062589
20
-2.20306745848123
30
0
41
1
10
28.359375
20
-2.1613974049146
30
0
41
1
10
27.8125
20
-2.06056316446126
30
0
41
1
10
27.265625
20
-1.9007473940037
30
0
41
1
10
26.71875
20
-1.69068892006473
30
0
41
1
10
26.171875
20
-1.43030352798041
30
0
41
1
10
25.625
20
-1.12827542134298
30
0
41
1
10
25.078125
20
-0.795972046765286
30
0
41
1
10
24.53125
20
-0.442975625647705
30
0
41
1
10
23.984375
20
-0.0768200169221131
30
0
41
1
10
23.4375
20
0.292187653781696
30
0
41
1
10
22.890625
20
0.652915315569033
30
0
41
1
10
22.34375
20
0.994633484939044
30
0
41
1
10
21.796875
20
1.30794890664384
30
0
41
1
10
21.3279130088344
20
1.54722497402474
30
0
41
1
10
21.0412426843353
20
1.67471705280576
30
0
41
1
10
20.936864026503
20
1.71839870922426
30
0
0
SPLINE
5
136
100
AcDbEntity
8
1
62
256
6
ByLayer
370
13
48
1
60
0
100
AcDbSpline
70
4
71
3
72
13
73
9
40
0
40
0
40
0
40
0
40
0.11841259388112
40
0.305968295983277
40
0.493523998085434
40
0.68107970018759
40
0.868635402289747
40
1
40
1
40
1
40
1
41
1
10
19.753034988304
20
-1.23026232375449
30
0
41
1
10
19.5228566588694
20
-1.1750195532326
30
0
41
1
10
18.9280949961014
20
-1.01212248850049
30
0
41
1
10
17.96875
20
-0.673780323550688
30
0
41
1
10
16.875
20
-0.225822846866123
30
0
41
1
10
15.78125
20
0.249135687603882
30
0
41
1
10
14.7967280315301
20
0.654224065208069
30
0
41
1
10
14.1767893963937
20
0.879042856536927
30
0
41
1
10
13.9214340945905
20
0.964330205402149
30
0
0
SPLINE
5
137
100
AcDbEntity
8
1
62
256
6
ByLayer
370
18
48
1
60
0
100
AcDbSpline
70
4
71
3
72
21
73
17
40
0
40
0
40
0
40
0
40
0.0236102483435987
40
0.130316746067595
40
0.237023243791592
40
0.31705311708459
40
0.397082990377587
40
0.450436239239586
40
0.503789488101585
40
0.557142736963583
40
0.610495985825581
40
0.690525859118579
40
0.770555732411576
40
0.877262230135573
40
0.98396872785957
40
1
40
1
40
1
40
1
41
1
10
25.8670069037651
20
-2.08290505150322
30
0
41
1
10
25.7863379358434
20
-2.09329502115779
30
0
41
1
10
25.3410856345883
20
-2.14150885841695
30
0
41
1
10
24.53125
20
-2.13561113828538
30
0
41
1
10
23.5286458333334
20
-1.93947809776375
30
0
41
1
10
22.6171875
20
-1.62532137346369
30
0
41
1
10
21.8880208333333
20
-1.29646403868114
30
0
41
1
10
21.25
20
-0.962843367400637
30
0
41
1
10
20.703125
20
-0.65454444458004
30
0
41
1
10
20.15625
20
-0.330187243695917
30
0
41
0.999999999999999
10
19.5182291666667
20
0.05801462169498
30
0
41
1
10
18.7890625
20
0.501309816035814
30
0
41
1
10
17.8776041666667
20
1.0249485580689
30
0
41
1
10
16.875
20
1.5254034597194
30
0
41
1
10
16.0910593996067
20
1.81100133650756
30
0
41
1
10
15.6717021325468
20
1.92279968608185
30
0
41
1
10
15.6169281988202
20
1.93669138303716
30
0
0
SPLINE
5
138
100
AcDbEntity
8
1
62
256
6
ByLayer
370
18
48
1
60
0
100
AcDbSpline
70
4
71
3
72
16
73
12
40
0
40
0
40
0
40
0
40
0.0251589403677733
40
0.0860865065947874
40
0.177477855935309
40
0.26886920527583
40
0.390724337729858
40
0.512579470183887
40
0.634434602637915
40
0.756289735091943
40
1
40
1
40
1
40
1
41
1
10
21.4758221748488
20
-2.11726699884451
30
0
41
1
10
21.4005481165659
20
-2.12947059722882
30
0
41
1
10
21.1429823916162
20
-2.16584229776055
30
0
41
1
10
20.6119791666666
20
-2.20233829948904
30
0
41
1
10
19.8828125
20
-2.15660345563174
30
0
41
1
10
18.9713541666667
20
-1.95850763262456
30
0
41
1
10
17.96875
20
-1.57525266993639
30
0
41
1
10
16.875
20
-0.993022571026046
30
0
41
1
10
15.78125
20
-0.307904937584027
30
0
41
1
10
14.3229166666667
20
0.648468243206793
30
0
41
1
10
13.2291666666667
20
1.3011768060251
30
0
41
1
10
12.5
20
1.61788772058071
30
0
0
SPLINE
5
139
100
AcDbEntity
8
1
62
256
6
ByLayer
370
18
48
1
60
0
100
AcDbSpline
70
4
71
3
72
39
73
35
40
0
40
0
40
0
40
0
40
0.0230463630187091
40
0.0461862751494808
40
0.0694163971859457
40
0.0927334221740137
40
0.116134053393008
40
0.13961497228864
40
0.16317281763337
40
0.186804174876517
40
0.210505576181487
40
0.234273511091555
40
0.258104442557759
40
0.332961535871444
40
0.409758810082504
40
0.4883703710513
40
0.568671351334111
40
0.640215679109087
40
0.715932718768029
40
0.795694370379852
40
0.879382657685289
40
0.885662208966981
40
0.892445341691286
40
0.899731143061223
40
0.907518643477434
40
0.915806820316367
40
0.924594602017094
40
0.933880872542871
40
0.943664476276476
40
0.953944223403075
40
0.964718895826304
40
0.975987253653531
40
0.987748042270156
40
1
40
1
40
1
40
1
41
1
10
29.9294297724814
20
-0.790011564254939
30
0
41
1
10
29.9289356612417
20
-0.79666350230201
30
0
41
1
10
29.9279454330806
20
-0.809994379745461
30
0
41
1
10
29.9253649460843
20
-0.829816028665647
30
0
41
1
10
29.9219755871865
20
-0.849535509832663
30
0
41
1
10
29.9176948703547
20
-0.869116917374754
30
0
41
1
10
29.912542039482
20
-0.888542677852115
30
0
41
1
10
29.9065105393301
20
-0.907790642286045
30
0
41
1
10
29.8996023063759
20
-0.926840241087518
30
0
41
1
10
29.8918184075441
20
-0.945670864940496
30
0
41
1
10
29.8831615845488
20
-0.964262113576837
30
0
41
1
10
29.8736350181976
20
-0.982594382836481
30
0
41
1
10
29.8558364143812
20
-1.01351586510543
30
0
41
1
10
29.8260914486579
20
-1.05611293519317
30
0
41
1
10
29.7788871307893
20
-1.10797995682475
30
0
41
1
10
29.7223996122548
20
-1.15636169934683
30
0
41
1
10
29.6594819836085
20
-1.19847473128146
30
0
41
1
10
29.5906408192556
20
-1.23476458914968
30
0
41
1
10
29.5159432744232
20
-1.26543909058606
30
0
41
1
10
29.4312380917365
20
-1.29117224879366
30
0
41
1
10
29.367194386639
20
-1.30425511472333
30
0
41
1
10
29.3297168069242
20
-1.31003591918386
30
0
41
1
10
29.3218040284424
20
-1.31120516313254
30
0
41
1
10
29.3132706993244
20
-1.31240327498577
30
0
41
1
10
29.3041113989527
20
-1.31361669369289
30
0
41
1
10
29.2943207980594
20
-1.31483024330734
30
0
41
1
10
29.283893531221
20
-1.3160280139418
30
0
41
1
10
29.272824313386
20
-1.3171930959742
30
0
41
1
10
29.2611080280337
20
-1.31830776552738
30
0
41
1
10
29.2487396733613
20
-1.31935310025111
30
0
41
1
10
29.235714980466
20
-1.3203105356861
30
0
41
1
10
29.2220283361009
20
-1.32115577052031
30
0
41
1
10
29.2076814911307
20
-1.32188320067044
30
0
41
1
10
29.1978606091816
20
-1.32222664486883
30
0
41
1
10
29.1928497275119
20
-1.32240187946053
30
0
0
SPLINE
5
13A
100
AcDbEntity
8
1
62
256
6
ByLayer
370
18
48
1
60
0
100
AcDbSpline
70
4
71
3
72
12
73
8
40
0
40
0
40
0
40
0
40
0.0849183092914481
40
0.0849183092914481
40
0.390438040637764
40
0.390438040637764
40
1
40
1
40
1
40
1
41
1
10
29.6926340733505
20
-0.336715973926374
30
0
41
1
10
29.6993362925334
20
-0.349556421810405
30
0
41
1
10
29.7060384829704
20
-0.362395976591444
30
0
41
1
10
29.7368537357562
20
-0.421425799385929
30
0
41
1
10
29.76096646572
20
-0.467605750744269
30
0
41
1
10
29.8331870648733
20
-0.605892253345957
30
0
41
1
10
29.8812939713141
20
-0.697969079451269
30
0
41
1
10
29.9293998014213
20
-0.790013332835912
30
0
0
SPLINE
5
13B
100
AcDbEntity
8
1
62
256
6
ByLayer
370
18
48
1
60
0
100
AcDbSpline
70
4
71
3
72
12
73
8
40
0
40
0
40
0
40
0
40
0.500000000000046
40
0.500000000000046
40
0.750000000000023
40
0.750000000000023
40
1
40
1
40
1
40
1
41
1
10
12.3179863835308
20
1.15451658917124
30
0
41
1
10
12.3491070281175
20
1.1487546168774
30
0
41
1
10
12.3798901594618
20
1.14350513870795
30
0
41
1
10
12.4255467562629
20
1.1364176263379
30
0
41
1
10
12.4406741968873
20
1.13418771610265
30
0
41
1
10
12.4705712192033
20
1.13001988624737
30
0
41
1
10
12.4853638389261
20
1.12807829254555
30
0
41
1
10
12.5
20
1.12627953790763
30
0
0
SPLINE
5
13C
100
AcDbEntity
8
1
62
256
6
ByLayer
370
18
48
1
60
0
100
AcDbSpline
70
4
71
3
72
8
73
4
40
0
40
0
40
0
40
0
40
1
40
1
40
1
40
1
41
1
10
12.0641101056459
20
1.19450712268431
30
0
41
1
10
12.1515805333103
20
1.18103779022309
30
0
41
1
10
12.2365746155556
20
1.1695899386373
30
0
41
1
10
12.3179863835308
20
1.15451658917118
30
0
0
SPLINE
5
13D
100
AcDbEntity
8
1
62
256
6
ByLayer
370
18
48
1
60
0
100
AcDbSpline
70
4
71
3
72
18
73
14
40
0
40
0
40
0
40
0
40
0.0100614934298162
40
0.0100614934298162
40
0.208049194743853
40
0.208049194743853
40
0.40603689605789
40
0.40603689605789
40
0.604024597371926
40
0.604024597371926
40
0.802012298685963
40
0.802012298685963
40
1
40
1
40
1
40
1
41
1
10
29.5126704335297
20
-2.16135734355163
30
0
41
1
10
29.5126016866985
20
-2.16142173765203
30
0
41
1
10
29.5125316978171
20
-2.16148721948073
30
0
41
1
10
29.5110585615234
20
-2.16286390359431
30
0
41
1
10
29.5092056374075
20
-2.16456597680087
30
0
41
1
10
29.5045749376473
20
-2.16873732424713
30
0
41
1
10
29.5019041084239
20
-2.171109914532
30
0
41
1
10
29.4959515058089
20
-2.1763175707537
30
0
41
1
10
29.4927783161031
20
-2.17905747958608
30
0
41
1
10
29.4861898643814
20
-2.18467374147343
30
0
41
1
10
29.4827432474557
20
-2.18757643746704
30
0
41
1
10
29.475796615638
20
-2.19335882768232
30
0
41
1
10
29.47228190474
20
-2.19625150060699
30
0
41
1
10
29.4687327103362
20
-2.19914133205216
30
0
0
SPLINE
5
13E
100
AcDbEntity
8
1
62
256
6
ByLayer
370
18
48
1
60
0
100
AcDbSpline
70
4
71
3
72
8
73
4
40
0
40
0
40
0
40
0
40
1
40
1
40
1
40
1
41
1
10
29.2521092906995
20
-2.18525527952684
30
0
41
1
10
29.2181688477553
20
-2.18770549591809
30
0
41
1
10
29.1842284048111
20
-2.18980117101921
30
0
41
1
10
29.1502879618669
20
-2.19154082218026
30
0
0
SPLINE
5
13F
100
AcDbEntity
8
1
62
256
6
ByLayer
370
13
48
1
60
0
100
AcDbSpline
70
4
71
3
72
23
73
19
40
0
40
0
40
0
40
0
40
0.0305097867472969
40
0.0988804594892832
40
0.167251132231269
40
0.235621804973256
40
0.303992477715242
40
0.372363150457228
40
0.440733823199215
40
0.509104495941201
40
0.577475168683187
40
0.645845841425173
40
0.714216514167159
40
0.782587186909146
40
0.850957859651132
40
0.919328532393118
40
0.987699205135105
40
1
40
1
40
1
40
1
41
1
10
29.150287961867
20
-2.19154082218017
30
0
41
1
10
29.068941974578
20
-2.19571029166724
30
0
41
1
10
28.8053043206223
20
-2.20259522151028
30
0
41
1
10
28.359375
20
-2.17754369204798
30
0
41
1
10
27.8125
20
-2.08594497661542
30
0
41
1
10
27.2656249999999
20
-1.93425024858843
30
0
41
1
10
26.71875
20
-1.73259456480008
30
0
41
1
10
26.1718749999999
20
-1.47890893208225
30
0
41
1
10
25.625
20
-1.18025342655522
30
0
41
1
10
25.078125
20
-0.849653406218237
30
0
41
1
10
24.53125
20
-0.500406686790001
30
0
41
1
10
23.984375
20
-0.136468436097488
30
0
41
1
10
23.4375
20
0.23331519198257
30
0
41
1
10
22.890625
20
0.598263017487995
30
0
41
1
10
22.34375
20
0.946324954496305
30
0
41
1
10
21.796875
20
1.26633399057991
30
0
41
1
10
21.3994949673317
20
1.47231970114888
30
0
41
1
10
21.1844066013301
20
1.57411381505125
30
0
41
1
10
21.1516099019952
20
1.58939997640181
30
0
0
SPLINE
5
140
100
AcDbEntity
8
1
62
256
6
ByLayer
370
18
48
1
60
0
100
AcDbSpline
70
4
71
3
72
8
73
4
40
0
40
0
40
0
40
0
40
1
40
1
40
1
40
1
41
1
10
29.5049443615246
20
-0.88670304606606
30
0
41
1
10
29.5061703567183
20
-0.902734667747211
30
0
41
1
10
29.5080557061635
20
-0.918514908403097
30
0
41
1
10
29.5105483175441
20
-0.933996933396145
30
0
0
SPLINE
5
141
100
AcDbEntity
8
1
62
256
6
ByLayer
370
18
48
1
60
0
100
AcDbSpline
70
4
71
3
72
19
73
15
40
0
40
0
40
0
40
0
40
0.0475534333465321
40
0.178688728532108
40
0.27704019992129
40
0.375391671310472
40
0.44095931890326
40
0.506526966496047
40
0.572094614088835
40
0.637662261681623
40
0.736013733070805
40
0.834365204459987
40
0.965500499645563
40
1
40
1
40
1
40
1
41
1
10
24.9278752384544
20
-2.19141731871656
30
0
41
1
10
24.7956668256362
20
-2.19777045505003
30
0
41
1
10
24.2988750794847
20
-2.20411739500312
30
0
41
1
10
23.5286458333333
20
-2.11035683271228
30
0
41
1
10
22.6171875
20
-1.85227828496644
30
0
41
1
10
21.8880208333333
20
-1.55504650979052
30
0
41
1
10
21.25
20
-1.24262027320646
30
0
41
1
10
20.703125
20
-0.943820183916046
30
0
41
1
10
20.15625
20
-0.62249330137746
30
0
41
0.999999999999999
10
19.5182291666667
20
-0.22978943693559
30
0
41
1
10
18.7890625
20
0.230616523831514
30
0
41
1
10
17.8776041666666
20
0.791918620950099
30
0
41
1
10
17.1436675631377
20
1.20212558569193
30
0
41
1
10
16.6831684596087
20
1.42473582227927
30
0
41
1
10
16.5872526894131
20
1.46945361986533
30
0
0
SPLINE
5
142
100
AcDbEntity
8
1
62
256
6
ByLayer
370
18
48
1
60
0
100
AcDbSpline
70
4
71
3
72
21
73
17
40
0
40
0
40
0
40
0
40
0.249999999999988
40
0.249999999999988
40
0.312499999999986
40
0.312499999999986
40
0.374999999999985
40
0.374999999999985
40
0.499999999999982
40
0.62499999999998
40
0.62499999999998
40
0.687499999999978
40
0.687499999999978
40
0.749999999999977
40
0.749999999999977
40
1
40
1
40
1
40
1
41
1
10
29.6897033449907
20
-0.353658127477786
30
0
41
1
10
29.6933098226709
20
-0.402869731541045
30
0
41
1
10
29.6926778910286
20
-0.452074344099799
30
0
41
1
10
29.6863296827009
20
-0.513296064773158
30
0
41
1
10
29.68477646113
20
-0.525525238316391
30
0
41
1
10
29.6810714036298
20
-0.549941742708313
30
0
41
1
10
29.6789139993705
20
-0.562155741540693
30
0
41
1
10
29.6715193473995
20
-0.598511609428783
30
0
41
1
10
29.659264661626
20
-0.646061641276845
30
0
41
1
10
29.6421178211326
20
-0.691549023646871
30
0
41
1
10
29.6272583306166
20
-0.724745952995903
30
0
41
1
10
29.6219705767839
20
-0.735657775176975
30
0
41
1
10
29.6106786875184
20
-0.75713882662285
30
0
41
1
10
29.6046618490932
20
-0.767728738767033
30
0
41
1
10
29.5727694872906
20
-0.819479981009636
30
0
41
1
10
29.5420853292199
20
-0.856255962415759
30
0
41
1
10
29.5049443615247
20
-0.88670304606606
30
0
0
SPLINE
5
143
100
AcDbEntity
8
1
62
256
6
ByLayer
370
18
48
1
60
0
100
AcDbSpline
70
4
71
3
72
8
73
4
40
0
40
0
40
0
40
0
40
1
40
1
40
1
40
1
41
1
10
29.6897033449906
20
-0.353658127477985
30
0
41
1
10
29.690496986829
20
-0.353114827830353
30
0
41
1
10
29.6912900580145
20
-0.352570751033341
30
0
41
1
10
29.6920825659198
20
-0.352025906135935
30
0
0
SPLINE
5
144
100
AcDbEntity
8
1
62
256
6
ByLayer
370
18
48
1
60
0
100
AcDbSpline
70
4
71
3
72
8
73
4
40
0
40
0
40
0
40
0
40
1
40
1
40
1
40
1
41
1
10
29.6570056048442
20
-0.154672210011199
30
0
41
1
10
29.6676660381193
20
-0.219147348873861
30
0
41
1
10
29.6793550943956
20
-0.284967586777384
30
0
41
1
10
29.6920825659197
20
-0.352025906135935
30
0
0
SPLINE
5
145
100
AcDbEntity
8
1
62
256
6
ByLayer
370
18
48
1
60
0
100
AcDbSpline
70
4
71
3
72
10
73
6
40
0
40
0
40
0
40
0
40
0.5
40
0.5
40
1
40
1
40
1
40
1
41
1
10
29.045426353616
20
0.24536458425635
30
0
41
1
10
29.1474668334082
20
0.181206760166447
30
0
41
1
10
29.2494482082658
20
0.115704982513705
30
0
41
1
10
29.4533050851524
20
-0.0177059549469618
30
0
41
1
10
29.5551805051715
20
-0.0856169795337394
30
0
41
1
10
29.6570056048402
20
-0.154672210008897
30
0
0
SPLINE
5
146
100
AcDbEntity
8
1
62
256
6
ByLayer
370
18
48
1
60
0
100
AcDbSpline
70
4
71
3
72
10
73
6
40
0
40
0
40
0
40
0
40
0.5
40
0.5
40
1
40
1
40
1
40
1
41
1
10
29.045426353616
20
0.24536458425635
30
0
41
1
10
29.0313347842221
20
0.254224640894279
30
0
41
1
10
29.0182255696907
20
0.263646292938205
30
0
41
1
10
28.9941402996755
20
0.283667756742545
30
0
41
1
10
28.98316037816
20
0.294265433799211
30
0
41
1
10
28.9734431921044
20
0.305546019618163
30
0
0
SPLINE
5
147
100
AcDbEntity
8
1
62
256
6
ByLayer
370
13
48
1
60
0
100
AcDbSpline
70
4
71
3
72
10
73
6
40
0
40
0
40
0
40
0
40
0.447362844258528
40
0.868833174792831
40
1
40
1
40
1
40
1
41
1
10
28.9734431921043
20
0.305546019618163
30
0
41
1
10
28.5864621280695
20
0.458003452667128
30
0
41
1
10
27.8348977307014
20
0.744148282247664
30
0
41
1
10
26.9698704513882
20
1.02179868996834
30
0
41
1
10
26.4918242361098
20
1.14713678481721
30
0
41
1
10
26.3783613541646
20
1.17520238020631
30
0
0
SPLINE
5
148
100
AcDbEntity
8
1
62
256
6
ByLayer
370
18
48
1
60
0
100
AcDbSpline
70
4
71
3
72
11
73
7
40
0
40
0
40
0
40
0
40
0.387404348067926
40
0.637766200623947
40
0.888128053179967
40
1
40
1
40
1
40
1
41
1
10
29.5049443615247
20
-0.88670304606606
30
0
41
1
10
28.9407962410164
20
-0.557741398767575
30
0
41
1
10
28.0120647871749
20
0.0433721142137813
30
0
41
1
10
26.71875
20
0.855697846830282
30
0
41
1
10
25.8266725429644
20
1.34566095257247
30
0
41
1
10
25.2991784192622
20
1.58463711923028
30
0
41
1
10
25.1362676288931
20
1.6529124520529
30
0
0
SPLINE
5
149
100
AcDbEntity
8
1
62
256
6
ByLayer
370
18
48
1
60
0
100
AcDbSpline
70
4
71
3
72
15
73
11
40
0
40
0
40
0
40
0
40
0.0438928038595833
40
0.14159015259804
40
0.239287501336496
40
0.369550632987771
40
0.499813764639046
40
0.630076896290321
40
0.760340027941596
40
1
40
1
40
1
40
1
41
1
10
21.07166945009
20
-2.16950975998012
30
0
41
1
10
20.9488213000599
20
-2.18203040001947
30
0
41
1
10
20.5525356500299
20
-2.20859835723834
30
0
41
1
10
19.8828125
20
-2.17657372060736
30
0
41
1
10
18.9713541666666
20
-1.99103552948887
30
0
41
1
10
17.96875
20
-1.61875131818243
30
0
41
1
10
16.875
20
-1.04409555811347
30
0
41
1
10
15.78125
20
-0.361158670436396
30
0
41
1
10
14.3813177040105
20
0.560898912861518
30
0
41
1
10
13.3459687413544
20
1.19258318507411
30
0
41
1
10
12.6752031120316
20
1.50920477485693
30
0
0
SPLINE
5
14A
100
AcDbEntity
8
1
62
256
6
ByLayer
370
18
48
1
60
0
100
AcDbSpline
70
4
71
3
72
22
73
18
40
0
40
0
40
0
40
0
40
0.125000000000002
40
0.125000000000002
40
0.250000000000004
40
0.250000000000004
40
0.375000000000005
40
0.375000000000005
40
0.500000000000004
40
0.500000000000004
40
0.625000000000003
40
0.625000000000003
40
0.750000000000002
40
0.750000000000002
40
0.875000000000001
40
0.875000000000001
40
1
40
1
40
1
40
1
41
1
10
29.5105483175441
20
-0.933996933396173
30
0
41
1
10
29.5112323519382
20
-0.938248451685041
30
0
41
1
10
29.5116893567313
20
-0.942574126207688
30
0
41
1
10
29.5120017386392
20
-0.951419456218702
30
0
41
1
10
29.5118497028267
20
-0.955984070560135
30
0
41
1
10
29.5107321096087
20
-0.96500734746715
30
0
41
1
10
29.5097553263717
20
-0.969548885247235
30
0
41
1
10
29.5068211507781
20
-0.978286727082121
30
0
41
1
10
29.5048876452509
20
-0.982419154992556
30
0
41
1
10
29.5001156709602
20
-0.990012217699018
30
0
41
1
10
29.497373691691
20
-0.993336973460515
30
0
41
1
10
29.4912807018939
20
-0.999195867507609
30
0
41
1
10
29.4880461092531
20
-1.00162147080565
30
0
41
1
10
29.4813248798078
20
-1.00572636391675
30
0
41
1
10
29.4778108256625
20
-1.00741319181384
30
0
41
1
10
29.470717910294
20
-1.0101548236872
30
0
41
1
10
29.4671274729059
20
-1.01121969016478
30
0
41
1
10
29.4635004199713
20
-1.01205190718341
30
0
0
SPLINE
5
14B
100
AcDbEntity
8
1
62
256
6
ByLayer
370
13
48
1
60
0
100
AcDbSpline
70
4
71
3
72
11
73
7
40
0
40
0
40
0
40
0
40
0.406327556140439
40
0.668052007639775
40
0.92977645913911
40
1
40
1
40
1
40
1
41
1
10
29.5105483175441
20
-0.933996933396173
30
0
41
1
10
28.9445322116961
20
-0.606692086994002
30
0
41
1
10
28.0139327725147
20
-0.0054939239442149
30
0
41
1
10
26.71875
20
0.813640330906736
30
0
41
1
10
25.8917616263477
20
1.27452136951047
30
0
41
1
10
25.4293565860289
20
1.49415078140319
30
0
41
1
10
25.3315348790433
20
1.53875550095376
30
0
0
SPLINE
5
14C
100
AcDbEntity
8
1
62
256
6
ByLayer
370
13
48
1
60
0
100
AcDbSpline
70
4
71
3
72
10
73
6
40
0
40
0
40
0
40
0
40
0.254901446142894
40
0.636118571209853
40
1
40
1
40
1
40
1
41
1
10
20.0187171112491
20
1.44894175294044
30
0
41
1
10
20.1101343241661
20
1.4504130339995
30
0
41
1
10
20.3382702870831
20
1.45025951075613
30
0
41
1
10
20.6969077695308
20
1.43492369410433
30
0
41
1
10
20.9641280390616
20
1.41047442883521
30
0
41
1
10
21.0946295585924
20
1.39554753415985
30
0
0
SPLINE
5
14D
100
AcDbEntity
8
1
62
256
6
ByLayer
370
13
48
1
60
0
100
AcDbSpline
70
4
71
3
72
19
73
15
40
0
40
0
40
0
40
0
40
0.0277670983077332
40
0.117806985220805
40
0.207846872133877
40
0.297886759046948
40
0.38792664596002
40
0.477966532873092
40
0.568006419786164
40
0.658046306699235
40
0.748086193612307
40
0.838126080525379
40
0.92816596743845
40
1
40
1
40
1
40
1
41
1
10
22.1751010555416
20
1.20611813244247
30
0
41
1
10
22.2313173703611
20
1.19297197007299
30
0
41
1
10
22.4698253518472
20
1.13512560932472
30
0
41
1
10
22.890625
20
1.01797878830152
30
0
41
1
10
23.4375
20
0.840051733573887
30
0
41
1
10
23.984375
20
0.641835077714319
30
0
41
1
10
24.53125
20
0.427008883394109
30
0
41
1
10
25.078125
20
0.200781067712199
30
0
41
1
10
25.625
20
-0.0303095984171478
30
0
41
1
10
26.171875
20
-0.259573171235814
30
0
41
1
10
26.7187500000001
20
-0.482910767558962
30
0
41
1
10
27.265625
20
-0.694687200622439
30
0
41
1
10
27.7756410517426
20
-0.875616382294083
30
0
41
1
10
28.1033654368186
20
-0.979384141704173
30
0
41
1
10
28.2487981552279
20
-1.02272292360868
30
0
0
SPLINE
5
14E
100
AcDbEntity
8
1
62
256
6
ByLayer
370
13
48
1
60
0
100
AcDbSpline
70
4
71
3
72
17
73
13
40
0
40
0
40
0
40
0
40
0.0906626871224537
40
0.21325525988211
40
0.335847832641766
40
0.417576214481536
40
0.499304596321307
40
0.581032978161078
40
0.662761360000849
40
0.785353932760505
40
0.907946505520161
40
1
40
1
40
1
40
1
41
1
10
17.3620922404312
20
1.38090384959761
30
0
41
1
10
17.5643114936209
20
1.3535061287744
30
0
41
1
10
18.0399682468104
20
1.27031097489754
30
0
41
1
10
18.7890625
20
1.07345074046273
30
0
41
0.999999999999999
10
19.5182291666667
20
0.823406784448282
30
0
41
1
10
20.15625
20
0.571791723890698
30
0
41
1
10
20.703125
20
0.339226366392751
30
0
41
1
10
21.25
20
0.097378266288473
30
0
41
1
10
21.8880208333333
20
-0.18637636310703
30
0
41
1
10
22.6171875
20
-0.505265872676488
30
0
41
1
10
23.369383889626
20
-0.805704397608111
30
0
41
1
10
23.8481427792519
20
-0.969227357752061
30
0
41
1
10
24.0534641688778
20
-1.03322616987063
30
0
0
SPLINE
5
14F
100
AcDbEntity
8
1
62
256
6
ByLayer
370
13
48
1
60
0
100
AcDbSpline
70
4
71
3
72
8
73
4
40
0
40
0
40
0
40
0
40
1
40
1
40
1
40
1
41
1
10
13.0703622757444
20
1.23987331704254
30
0
41
1
10
13.1633025187349
20
1.21988547486822
30
0
41
1
10
13.2562427617254
20
1.19855259539034
30
0
41
1
10
13.3491830047159
20
1.17596756268779
30
0
0
SPLINE
5
150
100
AcDbEntity
8
1
62
256
6
ByLayer
370
13
48
1
60
0
100
AcDbSpline
70
4
71
3
72
13
73
9
40
0
40
0
40
0
40
0
40
0.195576101430118
40
0.380582844982971
40
0.565589588535823
40
0.750596332088675
40
0.935603075641528
40
1
40
1
40
1
40
1
41
1
10
13.5312645199777
20
1.13014454588748
30
0
41
1
10
13.9166763466518
20
1.02986957000218
30
0
41
1
10
14.6666715066592
20
0.79486665175753
30
0
41
1
10
15.78125
20
0.367594424725468
30
0
41
1
10
16.875
20
-0.0897880876123622
30
0
41
1
10
17.96875
20
-0.535596299474719
30
0
41
1
10
18.824820394002
20
-0.846262366241433
30
0
41
1
10
19.3163074546706
20
-0.996558666633632
30
0
41
1
10
19.443211182006
20
-1.03332732553787
30
0
0
SPLINE
5
151
100
AcDbEntity
8
1
62
256
6
ByLayer
370
18
48
1
60
0
100
AcDbSpline
70
4
71
3
72
26
73
22
40
0
40
0
40
0
40
0
40
0.250000000000115
40
0.250000000000115
40
0.50000000000023
40
0.50000000000023
40
0.625000000000287
40
0.625000000000287
40
0.68750000000029
40
0.68750000000029
40
0.750000000000292
40
0.750000000000292
40
0.812500000000294
40
0.812500000000294
40
0.843750000000276
40
0.843750000000276
40
0.875000000000257
40
0.875000000000257
40
0.937500000000128
40
0.937500000000128
40
1
40
1
40
1
40
1
41
1
10
11.0253322628984
20
-2.37115575896053
30
0
41
1
10
11.0144281189915
20
-2.36956607760635
30
0
41
1
10
11.0037962174895
20
-2.36787207384484
30
0
41
1
10
10.9834660488184
20
-2.36418831531276
30
0
41
1
10
10.9736889678327
20
-2.3621995947185
30
0
41
1
10
10.9607866242236
20
-2.35884930524543
30
0
41
1
10
10.9567721063995
20
-2.35766770815439
30
0
41
1
10
10.951776975701
20
-2.35576754520895
30
0
41
1
10
10.9502811107116
20
-2.35511175263596
30
0
41
1
10
10.9478603489147
20
-2.35373078785889
30
0
41
1
10
10.9469395012657
20
-2.35300893937733
30
0
41
1
10
10.9462590150405
20
-2.35152235797497
30
0
41
1
10
10.9465269178747
20
-2.35074506512905
30
0
41
1
10
10.9484690349883
20
-2.34966252836389
30
0
41
1
10
10.9493493754628
20
-2.34932571736687
30
0
41
1
10
10.9515887144447
20
-2.34870315799645
30
0
41
1
10
10.9529375143071
20
-2.3484227883921
30
0
41
1
10
10.9573781683037
20
-2.34769808875046
30
0
41
1
10
10.9608480079637
20
-2.34736279679399
30
0
41
1
10
10.968024452498
20
-2.34688279993122
30
0
41
1
10
10.9717569579226
20
-2.34673542958262
30
0
41
1
10
10.9755137172834
20
-2.34664336353976
30
0
0
SPLINE
5
152
100
AcDbEntity
8
1
62
256
6
ByLayer
370
18
48
1
60
0
100
AcDbSpline
70
4
71
3
72
8
73
4
40
0
40
0
40
0
40
0
40
1
40
1
40
1
40
1
41
1
10
10.9755137173165
20
-2.34664336348359
30
0
41
1
10
10.9945527096427
20
-2.34617677924464
30
0
41
1
10
11.0133315497402
20
-2.34544109002869
30
0
41
1
10
11.0316740129076
20
-2.34422821501053
30
0
0
SPLINE
5
153
100
AcDbEntity
8
1
62
256
6
ByLayer
370
18
48
1
60
0
100
AcDbSpline
70
4
71
3
72
16
73
12
40
0
40
0
40
0
40
0
40
0.250000000000002
40
0.250000000000002
40
0.500000000000004
40
0.500000000000004
40
0.750000000000006
40
0.750000000000006
40
0.875000000000003
40
0.875000000000003
40
1
40
1
40
1
40
1
41
1
10
11.0316740129075
20
-2.34422821501053
30
0
41
1
10
10.9371396124845
20
-2.3260282122875
30
0
41
1
10
10.8455221714801
20
-2.30303506967994
30
0
41
1
10
10.6681849811332
20
-2.24617582700603
30
0
41
1
10
10.5824654724005
20
-2.2123137597184
30
0
41
1
10
10.4169121153121
20
-2.13207907769959
30
0
41
1
10
10.3370780486339
20
-2.0857147178256
30
0
41
1
10
10.2216737689917
20
-2.00516055612303
30
0
41
1
10
10.1838746811827
20
-1.97641311040545
30
0
41
1
10
10.1104023542203
20
-1.91551019980639
30
0
41
1
10
10.0746474714338
20
-1.88330548717005
30
0
41
1
10
10.039842833893
20
-1.84924970784957
30
0
0
SPLINE
5
154
100
AcDbEntity
8
1
62
256
6
ByLayer
370
18
48
1
60
0
100
AcDbSpline
70
4
71
3
72
26
73
22
40
0
40
0
40
0
40
0
40
0.250000000000025
40
0.250000000000025
40
0.375000000000019
40
0.375000000000019
40
0.437500000000017
40
0.437500000000017
40
0.500000000000015
40
0.500000000000015
40
0.562500000000013
40
0.562500000000013
40
0.625000000000011
40
0.625000000000011
40
0.687500000000009
40
0.687500000000009
40
0.750000000000008
40
0.750000000000008
40
0.875000000000004
40
0.875000000000004
40
1
40
1
40
1
40
1
41
1
10
10.0398428338931
20
-1.84924970784957
30
0
41
1
10
10.031730183972
20
-1.84131161008619
30
0
41
1
10
10.0248301420179
20
-1.83296081029985
30
0
41
1
10
10.0178623951278
20
-1.81932866118078
30
0
41
1
10
10.0161092608829
20
-1.8145239453597
30
0
41
1
10
10.0149232112924
20
-1.80722808045906
30
0
41
1
10
10.0147644427252
20
-1.80477974261501
30
0
41
1
10
10.0150121255088
20
-1.79984607670005
30
0
41
1
10
10.0154267356397
20
-1.79735679454581
30
0
41
1
10
10.0168694390488
20
-1.79252393743025
30
0
41
1
10
10.0178965327103
20
-1.79015827451826
30
0
41
1
10
10.0206051304229
20
-1.78553826276405
30
0
41
1
10
10.022309362146
20
-1.78326613923903
30
0
41
1
10
10.0262452173801
20
-1.77902124285095
30
0
41
1
10
10.0284824969179
20
-1.77702778332031
30
0
41
1
10
10.0334497108256
20
-1.77327910705776
30
0
41
1
10
10.0361943658734
20
-1.77151970391563
30
0
41
1
10
10.0448162399606
20
-1.76672427086922
30
0
41
1
10
10.0511553554225
20
-1.76409453844522
30
0
41
1
10
10.064662297663
20
-1.75966838832443
30
0
41
1
10
10.0716781189711
20
-1.75792223073876
30
0
41
1
10
10.0788797661232
20
-1.75650952393306
30
0
0
SPLINE
5
155
100
AcDbEntity
8
1
62
256
6
ByLayer
370
18
48
1
60
0
100
AcDbSpline
70
4
71
3
72
30
73
26
40
0
40
0
40
0
40
0
40
0.125000000000034
40
0.125000000000034
40
0.187500000000031
40
0.187500000000031
40
0.250000000000027
40
0.250000000000027
40
0.312500000000024
40
0.312500000000024
40
0.375000000000021
40
0.375000000000021
40
0.406250000000019
40
0.406250000000019
40
0.437500000000017
40
0.437500000000017
40
0.500000000000013
40
0.500000000000013
40
0.62500000000001
40
0.62500000000001
40
0.750000000000006
40
0.750000000000006
40
0.875000000000003
40
0.875000000000003
40
1
40
1
40
1
40
1
41
1
10
10.8877178469474
20
-0.847087327609046
30
0
41
1
10
10.9084094495722
20
-0.844937177221084
30
0
41
1
10
10.9287783294106
20
-0.841522643065218
30
0
41
1
10
10.958516680037
20
-0.833192641501512
30
0
41
1
10
10.9683544314702
20
-0.82984496879547
30
0
41
1
10
10.9873356503104
20
-0.821764445573621
30
0
41
1
10
10.9964144935968
20
-0.817067559639582
30
0
41
1
10
11.0135224891927
20
-0.805991293614909
30
0
41
1
10
11.0215920087
20
-0.799532572600157
30
0
41
1
10
11.0356478385724
20
-0.785261704865718
30
0
41
1
10
11.0417411350118
20
-0.777399105205035
30
0
41
1
10
11.0494243781387
20
-0.764460602265075
30
0
41
1
10
11.0517276724176
20
-0.75997368755074
30
0
41
1
10
11.0557548537419
20
-0.75087087078893
30
0
41
1
10
11.0574961973445
20
-0.746226971033906
30
0
41
1
10
11.061980728068
20
-0.732041288421897
30
0
41
1
10
11.0639875895767
20
-0.7221691877007
30
0
41
1
10
11.0674911865287
20
-0.692626100441657
30
0
41
1
10
11.0666668945593
20
-0.672754581197779
30
0
41
1
10
11.061346942241
20
-0.632992549677454
30
0
41
1
10
11.0568934102805
20
-0.613538328425619
30
0
41
1
10
11.0458272178307
20
-0.57510610970192
30
0
41
1
10
11.0391886958959
20
-0.556135005490461
30
0
41
1
10
11.0243687245907
20
-0.518507484206282
30
0
41
1
10
11.0161783603539
20
-0.499857186099206
30
0
41
1
10
11.0074515506449
20
-0.481432681051899
30
0
0
SPLINE
5
156
100
AcDbEntity
8
1
62
256
6
ByLayer
370
18
48
1
60
0
100
AcDbSpline
70
4
71
3
72
12
73
8
40
0
40
0
40
0
40
0
40
0.499999999999969
40
0.499999999999969
40
0.749999999999984
40
0.749999999999984
40
1
40
1
40
1
40
1
41
1
10
10.6556575617371
20
0.843791040241257
30
0
41
1
10
10.6552312101725
20
0.859450393787029
30
0
41
1
10
10.6571207172768
20
0.874739412673733
30
0
41
1
10
10.6637509903737
20
0.897086376916974
30
0
41
1
10
10.6666022961468
20
0.904415503604184
30
0
41
1
10
10.6733905946046
20
0.918443948985015
30
0
41
1
10
10.6773423993646
20
0.925201123928076
30
0
41
1
10
10.6818219591146
20
0.931716953795416
30
0
0
SPLINE
5
157
100
AcDbEntity
8
1
62
256
6
ByLayer
370
18
48
1
60
0
100
AcDbSpline
70
4
71
3
72
30
73
26
40
0
40
0
40
0
40
0
40
0.062500000000006
40
0.062500000000006
40
0.0937500000000088
40
0.0937500000000088
40
0.125000000000012
40
0.125000000000012
40
0.187500000000006
40
0.187500000000006
40
0.25
40
0.25
40
0.312499999999995
40
0.312499999999995
40
0.374999999999989
40
0.374999999999989
40
0.499999999999991
40
0.499999999999991
40
0.624999999999993
40
0.624999999999993
40
0.749999999999996
40
0.749999999999996
40
0.874999999999998
40
0.874999999999998
40
1
40
1
40
1
40
1
41
1
10
10.6818219591146
20
0.931716953795416
30
0
41
1
10
10.6985257817992
20
0.956013820634951
30
0
41
1
10
10.7180516886764
20
0.977690811360333
30
0
41
1
10
10.7504431696335
20
1.00737715880857
30
0
41
1
10
10.7617652764396
20
1.016793495321
30
0
41
1
10
10.7853402252448
20
1.03478444185856
30
0
41
1
10
10.797642969292
20
1.04338800930412
30
0
41
1
10
10.8352658603942
20
1.06773279439201
30
0
41
1
10
10.8613814952444
20
1.08211909061927
30
0
41
1
10
10.9151680699222
20
1.10816369001102
30
0
41
1
10
10.9428441550354
20
1.11981235008338
30
0
41
1
10
10.9994654535186
20
1.14091841739258
30
0
41
1
10
11.0284890028403
20
1.15039007349381
30
0
41
1
10
11.0870177528264
20
1.16732063050458
30
0
41
1
10
11.1165747582673
20
1.17480283787697
30
0
41
1
10
11.2059937131874
20
1.19477110218907
30
0
41
1
10
11.2667402665913
20
1.2048170220269
30
0
41
1
10
11.388780906034
20
1.21962849212841
30
0
41
1
10
11.4502103797516
20
1.22440929994468
30
0
41
1
10
11.5734482922353
20
1.22950099833346
30
0
41
1
10
11.6350765182208
20
1.2298009566901
30
0
41
1
10
11.7583496407166
20
1.226365845251
30
0
41
1
10
11.8199052888143
20
1.2226235758377
30
0
41
1
10
11.9423719069665
20
1.21137381485465
30
0
41
1
10
12.0033589732707
20
1.20386202377722
30
0
41
1
10
12.064110105646
20
1.19450712268429
30
0
0
SPLINE
5
158
100
AcDbEntity
8
1
62
256
6
ByLayer
370
18
48
1
60
0
100
AcDbSpline
70
4
71
3
72
12
73
8
40
0
40
0
40
0
40
0
40
0.500000000000181
40
0.500000000000181
40
0.75000000000009
40
0.75000000000009
40
1
40
1
40
1
40
1
41
1
10
10.9974676036243
20
2.26164906630427
30
0
41
1
10
11.0058544270303
20
2.26237872339712
30
0
41
1
10
11.0139636425809
20
2.26333551408373
30
0
41
1
10
11.0254868391943
20
2.26528170082221
30
0
41
1
10
11.0292383166462
20
2.26602244279027
30
0
41
1
10
11.0362658652241
20
2.26767400687896
30
0
41
1
10
11.0395625272024
20
2.26858714533074
30
0
41
1
10
11.0426054452484
20
2.26959992692136
30
0
0
SPLINE
5
159
100
AcDbEntity
8
1
62
256
6
ByLayer
370
18
48
1
60
0
100
AcDbSpline
70
4
71
3
72
16
73
12
40
0
40
0
40
0
40
0
40
0.357966001430765
40
0.357966001430765
40
0.715932002861531
40
0.715932002861531
40
0.894915003576913
40
0.894915003576913
40
0.984406503934605
40
0.984406503934605
40
1
40
1
40
1
40
1
41
1
10
11.0426054452344
20
2.26959992693972
30
0
41
1
10
10.9581212420343
20
2.29779633749246
30
0
41
1
10
10.8774106686546
20
2.32231253242171
30
0
41
1
10
10.7236942278013
20
2.36233166911271
30
0
41
1
10
10.6506872983511
20
2.3778415041794
30
0
41
1
10
10.5470173915847
20
2.39270059194905
30
0
41
1
10
10.5134336750149
20
2.39624781652611
30
0
41
1
10
10.4645234402329
20
2.39919696529609
30
0
41
1
10
10.4484427882868
20
2.39978365361236
30
0
41
1
10
10.4299548179621
20
2.39997932610496
30
0
41
1
10
10.4272210982965
20
2.39999567202008
30
0
41
1
10
10.424497047588
20
2.39999925304272
30
0
0
SPLINE
5
15A
100
AcDbEntity
8
1
62
256
6
ByLayer
370
18
48
1
60
0
100
AcDbSpline
70
4
71
3
72
20
73
16
40
0
40
0
40
0
40
0
40
0.0027426387128764
40
0.0027426387128764
40
0.0934023988298804
40
0.0934023988298804
40
0.274721919063904
40
0.274721919063904
40
0.456041439297928
40
0.456041439297928
40
0.637360959531952
40
0.637360959531952
40
0.818680479765976
40
0.818680479765976
40
1
40
1
40
1
40
1
41
1
10
10.8375790043682
20
2.32817885839401
30
0
41
1
10
10.8387549692107
20
2.32819989254037
30
0
41
1
10
10.8399309220575
20
2.32822116498463
30
0
41
1
10
10.8799783773925
20
2.32895368364515
30
0
41
1
10
10.9188173503802
20
2.32992414439536
30
0
41
1
10
11.0347453288534
20
2.3334667391909
30
0
41
1
10
11.1114911166358
20
2.33667341331457
30
0
41
1
10
11.2638268860404
20
2.34412046959244
30
0
41
1
10
11.3391809643975
20
2.34834946820908
30
0
41
1
10
11.4885087795588
20
2.3572155998607
30
0
41
1
10
11.5624069086499
20
2.36184885493461
30
0
41
1
10
11.7084802702102
20
2.3709217813911
30
0
41
1
10
11.7807695950934
20
2.3753681599311
30
0
41
1
10
11.9236299104715
20
2.38352423312693
30
0
41
1
10
11.9942244215341
20
2.38723550493202
30
0
41
1
10
12.0641101056459
20
2.39033998359383
30
0
0
SPLINE
5
15B
100
AcDbEntity
8
1
62
256
6
ByLayer
370
18
48
1
60
0
100
AcDbSpline
70
4
71
3
72
20
73
16
40
0
40
0
40
0
40
0
40
0.24999999999999
40
0.24999999999999
40
0.374999999999988
40
0.374999999999988
40
0.437499999999989
40
0.437499999999989
40
0.49999999999999
40
0.49999999999999
40
0.749999999999995
40
0.749999999999995
40
0.874999999999998
40
0.874999999999998
40
1
40
1
40
1
40
1
41
1
10
11.0074515506445
20
-0.481432681052155
30
0
41
1
10
10.9493287006243
20
-0.380582697322893
30
0
41
1
10
10.8990768172032
20
-0.276036314809232
30
0
41
1
10
10.8345000760783
20
-0.113959818391862
30
0
41
1
10
10.8147758124271
20
-0.0590574545544769
30
0
41
1
10
10.7877900886532
20
0.0245887471491528
30
0
41
1
10
10.7792285379179
20
0.0526863868174701
30
0
41
1
10
10.7629595473052
20
0.109310944759414
30
0
41
1
10
10.7552439511428
20
0.137879460208922
30
0
41
1
10
10.7191349028133
20
0.280282742115304
30
0
41
1
10
10.6977442857448
20
0.393897035663116
30
0
41
1
10
10.6750693133185
20
0.563483508043049
30
0
41
1
10
10.6690919405475
20
0.619874049728026
30
0
41
1
10
10.6601364576085
20
0.732323225632314
30
0
41
1
10
10.6571638518519
20
0.788466910093064
30
0
41
1
10
10.6556575617371
20
0.843791040241285
30
0
0
SPLINE
5
15C
100
AcDbEntity
8
1
62
256
6
ByLayer
370
18
48
1
60
0
100
AcDbSpline
70
4
71
3
72
24
73
20
40
0
40
0
40
0
40
0
40
0.167606084894575
40
0.167606084894575
40
0.251409127341869
40
0.251409127341869
40
0.335212169789163
40
0.335212169789163
40
0.502818254683751
40
0.502818254683751
40
0.586621297131052
40
0.586621297131052
40
0.670424339578353
40
0.670424339578353
40
0.838030424472987
40
0.838030424472987
40
0.921833466920304
40
0.921833466920304
40
1
40
1
40
1
40
1
41
1
10
29.4636255931568
20
2.29285552028745
30
0
41
1
10
29.4730108218854
20
2.26459217702686
30
0
41
1
10
29.4804360121286
20
2.23595402701338
30
0
41
1
10
29.4881010576611
20
2.19233272405015
30
0
41
1
10
29.4900748692127
20
2.17768114898686
30
0
41
1
10
29.492733771824
20
2.14813156311371
30
0
41
1
10
29.4934177581055
20
2.13315886586804
30
0
41
1
10
29.4933040473374
20
2.08839092701515
30
0
41
1
10
29.4903750897029
20
2.0589889573003
30
0
41
1
10
29.4814202997907
20
2.01559474636451
30
0
41
1
10
29.477673871904
20
2.0012483310212
30
0
41
1
10
29.4685958149359
20
1.97280180908354
30
0
41
1
10
29.4632211937153
20
1.95861693044122
30
0
41
1
10
29.4450465303175
20
1.91736069346376
30
0
41
1
10
29.4301965819362
20
1.89142113084029
30
0
41
1
10
29.4043238894628
20
1.85457106676827
30
0
41
1
10
29.3950740445645
20
1.84260304809175
30
0
41
1
10
29.3762045692775
20
1.82022027143103
30
0
41
1
10
29.3667284155157
20
1.80984002151638
30
0
41
1
10
29.3569261128821
20
1.799831734035
30
0
0
SPLINE
5
15D
100
AcDbEntity
8
1
62
256
6
ByLayer
370
13
48
1
60
0
100
AcDbSpline
70
4
71
3
72
9
73
5
40
0
40
0
40
0
40
0
40
0.727447872674567
40
1
40
1
40
1
40
1
41
1
10
12.5
20
0.145074394935165
30
0
41
1
10
13.2291666666667
20
-0.165451230788221
30
0
41
1
10
14.2315294393912
20
-0.607930740473847
30
0
41
1
10
15.2338922121158
20
-0.947090392764551
30
0
41
1
10
15.5070883181737
20
-1.02952705699224
30
0
0
SPLINE
5
15E
100
AcDbEntity
8
1
62
256
6
ByLayer
370
18
48
1
60
0
100
AcDbSpline
70
4
71
3
72
10
73
6
40
0
40
0
40
0
40
0
40
0.5
40
0.5
40
1
40
1
40
1
40
1
41
1
10
29.1772141905941
20
1.36009675513037
30
0
41
1
10
29.209954536841
20
1.33989452386351
30
0
41
1
10
29.2424956150955
20
1.31918663317461
30
0
41
1
10
29.3072610205193
20
1.27683934796013
30
0
41
1
10
29.3394851933571
20
1.25520006754306
30
0
41
1
10
29.3715885062785
20
1.23311699954155
30
0
0
SPLINE
5
15F
100
AcDbEntity
8
1
62
256
6
ByLayer
370
13
48
1
60
0
100
AcDbSpline
70
4
71
3
72
12
73
8
40
0
40
0
40
0
40
0
40
0.299794362127327
40
0.504286226385269
40
0.708778090643212
40
0.913269954901154
40
1
40
1
40
1
40
1
41
1
10
29.4159871840337
20
1.16175497092126
30
0
41
1
10
28.8814914560224
20
1.45784178597785
30
0
41
1
10
27.9824123946779
20
1.89310416016551
30
0
41
1
10
26.71875
20
2.2511983097888
30
0
41
1
10
25.625
20
2.3640447509265
30
0
41
1
10
24.741204546232
20
2.27958341394483
30
0
41
1
10
24.2219924257974
20
2.16308415198773
30
0
41
1
10
24.0673636386961
20
2.12268621821016
30
0
0
SPLINE
5
160
100
AcDbEntity
8
1
62
256
6
ByLayer
370
18
48
1
60
0
100
AcDbSpline
70
4
71
3
72
8
73
4
40
0
40
0
40
0
40
0
40
1
40
1
40
1
40
1
41
1
10
29.3715885062976
20
1.23311699953263
30
0
41
1
10
29.3855271910098
20
1.20925430768926
30
0
41
1
10
29.4002794280413
20
1.18546282396287
30
0
41
1
10
29.4159871779119
20
1.16175497357753
30
0
0
SPLINE
5
161
100
AcDbEntity
8
1
62
256
6
ByLayer
370
18
48
1
60
0
100
AcDbSpline
70
4
71
3
72
8
73
4
40
0
40
0
40
0
40
0
40
1
40
1
40
1
40
1
41
1
10
28.9801206549547
20
1.49559753623933
30
0
41
1
10
29.0169232261555
20
1.47533450839066
30
0
41
1
10
29.053845858672
20
1.45477845198695
30
0
41
1
10
29.0908920852695
20
1.43393241879491
30
0
0
SPLINE
5
162
100
AcDbEntity
8
1
62
256
6
ByLayer
370
18
48
1
60
0
100
AcDbSpline
70
4
71
3
72
8
73
4
40
0
40
0
40
0
40
0
40
1
40
1
40
1
40
1
41
1
10
28.9801206549547
20
1.49559753623933
30
0
41
1
10
28.9777504255146
20
1.49632322857562
30
0
41
1
10
28.9753588180654
20
1.49700592643197
30
0
41
1
10
28.9729476490458
20
1.49763927594449
30
0
0
SPLINE
5
163
100
AcDbEntity
8
1
62
256
6
ByLayer
370
18
48
1
60
0
100
AcDbSpline
70
4
71
3
72
8
73
4
40
0
40
0
40
0
40
0
40
1
40
1
40
1
40
1
41
1
10
28.9729476490457
20
1.49763927594447
30
0
41
1
10
28.9608444997453
20
1.50081844905401
30
0
41
1
10
28.9487152772482
20
1.50393357477685
30
0
41
1
10
28.9365522742977
20
1.50696733304415
30
0
0
SPLINE
5
164
100
AcDbEntity
8
1
62
256
6
ByLayer
370
18
48
1
60
0
100
AcDbSpline
70
4
71
3
72
10
73
6
40
0
40
0
40
0
40
0
40
0.5
40
0.5
40
1
40
1
40
1
40
1
41
1
10
29.1590861748917
20
2.42299724530096
30
0
41
1
10
29.2044352190192
20
2.42713978877416
30
0
41
1
10
29.249460441014
20
2.42803893365078
30
0
41
1
10
29.3391204608473
20
2.42254255274702
30
0
41
1
10
29.3837537166918
20
2.4161646384315
30
0
41
1
10
29.4283247684778
20
2.40529459076021
30
0
0
SPLINE
5
165
100
AcDbEntity
8
1
62
256
6
ByLayer
370
13
48
1
60
0
100
AcDbSpline
70
4
71
3
72
9
73
5
40
0
40
0
40
0
40
0
40
0.542812165624867
40
1
40
1
40
1
40
1
41
1
10
29.4636255979432
20
2.29285551905224
30
0
41
1
10
29.2778337319621
20
2.2706444776008
30
0
41
1
10
28.9355571992186
20
2.21063926663416
30
0
41
1
10
28.593280666475
20
2.11751225577166
30
0
41
1
10
28.4367959997126
20
2.06835229303539
30
0
0
SPLINE
5
166
100
AcDbEntity
8
1
62
256
6
ByLayer
370
13
48
1
60
0
100
AcDbSpline
70
4
71
3
72
8
73
4
40
0
40
0
40
0
40
0
40
1
40
1
40
1
40
1
41
1
10
13.4385656076795
20
0.467954149677667
30
0
41
1
10
13.1257104051197
20
0.679226194698202
30
0
41
1
10
12.8128552025598
20
0.884597987054576
30
0
41
1
10
12.5
20
1.07576761421544
30
0
0
SPLINE
5
167
100
AcDbEntity
8
1
62
256
6
ByLayer
370
18
48
1
60
0
100
AcDbSpline
70
4
71
3
72
8
73
4
40
0
40
0
40
0
40
0
40
1
40
1
40
1
40
1
41
1
10
29.4283247684931
20
2.40529459076575
30
0
41
1
10
29.4395045882679
20
2.36763168796577
30
0
41
1
10
29.4512436446262
20
2.33014329605098
30
0
41
1
10
29.4636256235338
20
2.29285553099268
30
0
0
SPLINE
5
168
100
AcDbEntity
8
1
62
256
6
ByLayer
370
18
48
1
60
0
100
AcDbSpline
70
4
71
3
72
8
73
4
40
0
40
0
40
0
40
0
40
1
40
1
40
1
40
1
41
1
10
28.9794699758068
20
-1.44517171984407
30
0
41
1
10
28.9772753348179
20
-1.44441733907709
30
0
41
1
10
28.9750583016796
20
-1.44370451168891
30
0
41
1
10
28.9728201545497
20
-1.44304073928973
30
0
0
SPLINE
5
169
100
AcDbEntity
8
1
62
256
6
ByLayer
370
18
48
1
60
0
100
AcDbSpline
70
4
71
3
72
8
73
4
40
0
40
0
40
0
40
0
40
1
40
1
40
1
40
1
41
1
10
28.9728201545497
20
-1.44304073928973
30
0
41
1
10
28.9608157622174
20
-1.43948056927564
30
0
41
1
10
28.9487788212583
20
-1.43599549123041
30
0
41
1
10
28.9366972459265
20
-1.43261582702093
30
0
0
SPLINE
5
16A
100
AcDbEntity
8
1
62
256
6
ByLayer
370
18
48
1
60
0
100
AcDbSpline
70
4
71
3
72
10
73
6
40
0
40
0
40
0
40
0
40
0.5
40
0.5
40
1
40
1
40
1
40
1
41
1
10
29.163900442507
20
-1.57600634978814
30
0
41
1
10
29.2061540238645
20
-1.59683799614058
30
0
41
1
10
29.2481161523468
20
-1.61537567687645
30
0
41
1
10
29.3316573325748
20
-1.64711551032272
30
0
41
1
10
29.3732354509699
20
-1.66032876264259
30
0
41
1
10
29.4147219987274
20
-1.67021406324073
30
0
0
SPLINE
5
16B
100
AcDbEntity
8
1
62
256
6
ByLayer
370
13
48
1
60
0
100
AcDbSpline
70
4
71
3
72
20
73
16
40
0
40
0
40
0
40
0
40
0.0073197886560516
40
0.0954761882490299
40
0.183632587842008
40
0.271788987434987
40
0.359945387027965
40
0.448101786620943
40
0.536258186213922
40
0.6244145858069
40
0.712570985399879
40
0.800727384992857
40
0.888883784585835
40
0.955001084280569
40
1
40
1
40
1
40
1
41
1
10
26.2172830411604
20
0.433682072034031
30
0
41
1
10
26.2021470274403
20
0.443744561953821
30
0
41
1
10
26.0047193470534
20
0.574829175456983
30
0
41
1
10
25.625
20
0.822483778046831
30
0
41
1
10
25.078125
20
1.15771561510562
30
0
41
1
10
24.53125
20
1.4641246790471
30
0
41
1
10
23.984375
20
1.73438938388298
30
0
41
1
10
23.4375
20
1.96111957133104
30
0
41
1
10
22.890625
20
2.13678012273974
30
0
41
1
10
22.34375
20
2.25904505755997
30
0
41
1
10
21.796875
20
2.32555080271908
30
0
41
1
10
21.25
20
2.33379836499455
30
0
41
1
10
20.7486979166666
20
2.28554031140081
30
0
41
1
10
20.3366377908177
20
2.20817195100219
30
0
41
1
10
20.1068693316354
20
2.15060185916087
30
0
41
1
10
20.013819622453
20
2.12499998882748
30
0
0
SPLINE
5
16C
100
AcDbEntity
8
1
62
256
6
ByLayer
370
18
48
1
60
0
100
AcDbSpline
70
4
71
3
72
16
73
12
40
0
40
0
40
0
40
0
40
0.250000000000022
40
0.250000000000022
40
0.500000000000044
40
0.500000000000044
40
0.625000000000054
40
0.625000000000054
40
0.750000000000065
40
0.750000000000065
40
1
40
1
40
1
40
1
41
1
10
29.4635004199713
20
-1.01205190718332
30
0
41
1
10
29.4357361509238
20
-1.01842132737005
30
0
41
1
10
29.4073858712088
20
-1.02162778656927
30
0
41
1
10
29.3496295109854
20
-1.02280165727703
30
0
41
1
10
29.3202219765136
20
-1.02076067818942
30
0
41
1
10
29.2753084909689
20
-1.01416753056014
30
0
41
1
10
29.2601826359653
20
-1.0113671210687
30
0
41
1
10
29.2300588119807
20
-1.00474306756391
30
0
41
1
10
29.2150109777679
20
-1.00091443395147
30
0
41
1
10
29.1698858721322
20
-0.988021092876721
30
0
41
1
10
29.1398268483835
20
-0.977558991539183
30
0
41
1
10
29.1097342922582
20
-0.96545532220216
30
0
0
SPLINE
5
16D
100
AcDbEntity
8
1
62
256
6
ByLayer
370
13
48
1
60
0
100
AcDbSpline
70
4
71
3
72
10
73
6
40
0
40
0
40
0
40
0
40
0.45493027707871
40
0.756311175917918
40
1
40
1
40
1
40
1
41
1
10
29.4635004199713
20
-1.01205190718335
30
0
41
1
10
28.9131669466476
20
-0.690424350237407
30
0
41
1
10
27.9982501399905
20
-0.0904708921144675
30
0
41
1
10
26.788540650313
20
0.699376510367131
30
0
41
1
10
26.1291646339592
20
1.08882432549078
30
0
41
1
10
25.8343719509388
20
1.24920679571815
30
0
0
SPLINE
5
16E
100
AcDbEntity
8
1
62
256
6
ByLayer
370
18
48
1
60
0
100
AcDbSpline
70
4
71
3
72
9
73
5
40
0
40
0
40
0
40
0
40
0.90586744840457
40
1
40
1
40
1
40
1
41
1
10
25.8343712623445
20
1.249207170349
30
0
41
1
10
25.7645808415631
20
1.28717676469626
30
0
41
1
10
25.6875382003859
20
1.32824236676879
30
0
41
1
10
25.6104955592088
20
1.36828083148791
30
0
41
1
10
25.6032433388132
20
1.37204058567596
30
0
0
SPLINE
5
16F
100
AcDbEntity
8
1
62
256
6
ByLayer
370
18
48
1
60
0
100
AcDbSpline
70
4
71
3
72
24
73
20
40
0
40
0
40
0
40
0
40
0.0624999999999994
40
0.0624999999999994
40
0.124999999999999
40
0.124999999999999
40
0.187499999999998
40
0.187499999999998
40
0.249999999999998
40
0.249999999999998
40
0.312499999999997
40
0.312499999999997
40
0.374999999999996
40
0.374999999999996
40
0.499999999999997
40
0.499999999999997
40
0.749999999999999
40
0.749999999999999
40
1
40
1
40
1
40
1
41
1
10
29.0777185711827
20
-1.50281921134839
30
0
41
1
10
29.0827492336355
20
-1.5037695586301
30
0
41
1
10
29.0878422412398
20
-1.50428550853908
30
0
41
1
10
29.0982052041519
20
-1.50410947549943
30
0
41
1
10
29.1034571592081
20
-1.5033867063058
30
0
41
1
10
29.1134784154939
20
-1.50053497138967
30
0
41
1
10
29.1184000784957
20
-1.4983491867913
30
0
41
1
10
29.1273505693912
20
-1.49286635654059
30
0
41
1
10
29.1314751607823
20
-1.48953937194835
30
0
41
1
10
29.1388789144787
20
-1.48228090917468
30
0
41
1
10
29.1421667281083
20
-1.47836789042711
30
0
41
1
10
29.1481798224877
20
-1.47015750842138
30
0
41
1
10
29.150910872559
20
-1.46583873031901
30
0
41
1
10
29.1583328020205
20
-1.45275300216099
30
0
41
1
10
29.1623518933329
20
-1.44377176371268
30
0
41
1
10
29.1729561134805
20
-1.41642974968062
30
0
41
1
10
29.1781163803833
20
-1.39760362105298
30
0
41
1
10
29.1867386484278
20
-1.36004286469046
30
0
41
1
10
29.1901583442915
20
-1.34122741285338
30
0
41
1
10
29.1931045778846
20
-1.32239385887885
30
0
0
SPLINE
5
170
100
AcDbEntity
8
1
62
256
6
ByLayer
370
18
48
1
60
0
100
AcDbSpline
70
4
71
3
72
10
73
6
40
0
40
0
40
0
40
0
40
0.5
40
0.5
40
1
40
1
40
1
40
1
41
1
10
29.1925850865191
20
-1.3222002680827
30
0
41
1
10
29.1733484637271
20
-1.26474636232061
30
0
41
1
10
29.1571741915405
20
-1.20605130568043
30
0
41
1
10
29.1299904530661
20
-1.08674081444934
30
0
41
1
10
29.1189837823928
20
-1.02633446800061
30
0
41
1
10
29.1097342922581
20
-0.96545532220216
30
0
0
SPLINE
5
171
100
AcDbEntity
8
1
62
256
6
ByLayer
370
18
48
1
60
0
100
AcDbSpline
70
4
71
3
72
45
73
41
40
0
40
0
40
0
40
0
40
0.0190949010537824
40
0.0190949010537824
40
0.0381898021075649
40
0.0763796042151339
40
0.152759208430272
40
0.152759208430272
40
0.305518416860544
40
0.305518416860544
40
0.32461331791433
40
0.32461331791433
40
0.343708218968116
40
0.381898021075692
40
0.381898021075692
40
0.45827762529085
40
0.45827762529085
40
0.534657229506009
40
0.534657229506009
40
0.572847031613588
40
0.572847031613588
40
0.611036833721167
40
0.611036833721167
40
0.687416437936323
40
0.687416437936323
40
0.725606240043902
40
0.725606240043902
40
0.76379604215148
40
0.76379604215148
40
0.840175646366636
40
0.840175646366636
40
0.878365448474214
40
0.878365448474214
40
0.897460349528003
40
0.897460349528003
40
0.916555250581792
40
0.916555250581792
40
0.992934854796945
40
0.992934854796945
40
1
40
1
40
1
40
1
41
1
10
29.1097342922581
20
-0.965455322202132
30
0
41
1
10
29.066096354607
20
-0.937321676208342
30
0
41
1
10
29.0223927634275
20
-0.908912741325423
30
0
41
1
10
28.9350786438254
20
-0.851725838304304
30
0
41
1
10
28.8043434022258
20
-0.765456300184184
30
0
41
1
10
28.5007356607283
20
-0.561041020463989
30
0
41
1
10
28.2422362382396
20
-0.381538046726831
30
0
41
1
10
27.7255075669834
20
-0.0197474900429881
30
0
41
1
10
27.3813613068036
20
0.225126470594375
30
0
41
1
10
26.9887598041723
20
0.4964224935554
30
0
41
1
10
26.9450737350378
20
0.526496327318654
30
0
41
1
10
26.8579485166228
20
0.586200801164381
30
0
41
1
10
26.7274743405413
20
0.675202926691242
30
0
41
1
10
26.5975300430368
20
0.762410630293061
30
0
41
1
10
26.3381337755405
20
0.934167945669373
30
0
41
1
10
26.1658760843489
20
1.04513668592745
30
0
41
1
10
25.8214294428963
20
1.25840953922173
30
0
41
1
10
25.6492154764021
20
1.36071758195749
30
0
41
1
10
25.389977148172
20
1.5063931689443
30
0
41
1
10
25.3034062550652
20
1.55366410083457
30
0
41
1
10
25.1297837869861
20
1.64544375464953
30
0
41
1
10
25.0426933997991
20
1.68997078540869
30
0
41
1
10
24.7807149248243
20
1.81891443373988
30
0
41
1
10
24.6073468127342
20
1.89760425526077
30
0
41
1
10
24.3483059819352
20
2.00380081044696
30
0
41
1
10
24.2621201808153
20
2.03724055213954
30
0
41
1
10
24.0898442518535
20
2.10025533937545
30
0
41
1
10
24.0037591169699
20
2.12982528782925
30
0
41
1
10
23.745456056773
20
2.2125303051281
30
0
41
1
10
23.5731931752632
20
2.25967847423482
30
0
41
1
10
23.3137922723234
20
2.31740613314321
30
0
41
1
10
23.227161172807
20
2.33446902385046
30
0
41
1
10
23.0968417028255
20
2.35676968649239
30
0
41
1
10
23.0533394052297
20
2.36365605717066
30
0
41
1
10
22.9661902420979
20
2.37631907902696
30
0
41
1
10
22.9224914230156
20
2.38210007115322
30
0
41
1
10
22.7044796151938
20
2.40805573705552
30
0
41
1
10
22.5313642445223
20
2.4194069563074
30
0
41
1
10
22.3427697643435
20
2.42198479249814
30
0
41
1
10
22.3268061459907
20
2.42212553462855
30
0
41
1
10
22.3108464179412
20
2.42218867675885
30
0
0
SPLINE
5
172
100
AcDbEntity
8
1
62
256
6
ByLayer
370
18
48
1
60
0
100
AcDbSpline
70
4
71
3
72
8
73
4
40
0
40
0
40
0
40
0
40
1
40
1
40
1
40
1
41
1
10
12.6374275919468
20
-2.28750831061677
30
0
41
1
10
12.5916241607283
20
-2.29809375266086
30
0
41
1
10
12.5458184082038
20
-2.30807000966607
30
0
41
1
10
12.5000000000001
20
-2.31742952169881
30
0
0
SPLINE
5
173
100
AcDbEntity
8
1
62
256
6
ByLayer
370
18
48
1
60
0
100
AcDbSpline
70
4
71
3
72
8
73
4
40
0
40
0
40
0
40
0
40
1
40
1
40
1
40
1
41
1
10
12.5000000000001
20
-2.31742952169881
30
0
41
1
10
12.4242695396474
20
-2.33068338798105
30
0
41
1
10
12.3489492605449
20
-2.34287262704655
30
0
41
1
10
12.2740674328139
20
-2.35392386367306
30
0
0
SPLINE
5
174
100
AcDbEntity
8
1
62
256
6
ByLayer
370
18
48
1
60
0
100
AcDbSpline
70
4
71
3
72
14
73
10
40
0
40
0
40
0
40
0
40
0.25
40
0.25
40
0.5
40
0.5
40
0.75
40
0.75
40
1
40
1
40
1
40
1
41
1
10
28.932828470319
20
-1.40555689109377
30
0
41
1
10
28.9318646014277
20
-1.40477907805547
30
0
41
1
10
28.9307907851527
20
-1.40409799405288
30
0
41
1
10
28.9283325141568
20
-1.40345601587603
30
0
41
1
10
28.9269297589953
20
-1.40362488835771
30
0
41
1
10
28.9246431994638
20
-1.4049813026131
30
0
41
1
10
28.9237765843456
20
-1.40600120878881
30
0
41
1
10
28.9223477984956
20
-1.40813789329476
30
0
41
1
10
28.9217723724458
20
-1.40929203123312
30
0
41
1
10
28.9212723230183
20
-1.41046693616502
30
0
0
SPLINE
5
175
100
AcDbEntity
8
1
62
256
6
ByLayer
370
18
48
1
60
0
100
AcDbSpline
70
4
71
3
72
8
73
4
40
0
40
0
40
0
40
0
40
1
40
1
40
1
40
1
41
1
10
28.9328284703189
20
-1.40555689109371
30
0
41
1
10
28.9462519531873
20
-1.41638923570878
30
0
41
1
10
28.9593948832954
20
-1.42747222109369
30
0
41
1
10
28.9722197520667
20
-1.43884141270922
30
0
0
SPLINE
5
176
100
AcDbEntity
8
1
62
256
6
ByLayer
370
18
48
1
60
0
100
AcDbSpline
70
4
71
3
72
8
73
4
40
0
40
0
40
0
40
0
40
1
40
1
40
1
40
1
41
1
10
28.972219752069
20
-1.43884141270667
30
0
41
1
10
28.9746204302537
20
-1.44096960370615
30
0
41
1
10
28.9770366847093
20
-1.44308042483175
30
0
41
1
10
28.9794699758067
20
-1.44517171984398
30
0
0
SPLINE
5
177
100
AcDbEntity
8
1
62
256
6
ByLayer
370
18
48
1
60
0
100
AcDbSpline
70
4
71
3
72
16
73
12
40
0
40
0
40
0
40
0
40
0.250000000000044
40
0.250000000000044
40
0.500000000000087
40
0.500000000000087
40
0.625000000000066
40
0.625000000000066
40
0.750000000000044
40
0.750000000000044
40
1
40
1
40
1
40
1
41
1
10
29.4687327103361
20
-2.19914133205219
30
0
41
1
10
29.4424121836022
20
-2.22057207887633
30
0
41
1
10
29.4155728878286
20
-2.2404945999823
30
0
41
1
10
29.3609686508314
20
-2.27776010735451
30
0
41
1
10
29.3331987624424
20
-2.29509079770114
30
0
41
1
10
29.2908612529861
20
-2.31928799189709
30
0
41
1
10
29.2765935350314
20
-2.3270760404705
30
0
41
1
10
29.2481166113025
20
-2.34189483112809
30
0
41
1
10
29.2338909120672
20
-2.34894145361292
30
0
41
1
10
29.1912306424368
20
-2.36906672167322
30
0
41
1
10
29.1628131192978
20
-2.38114136314667
30
0
41
1
10
29.1343630530903
20
-2.39191850107315
30
0
0
SPLINE
5
178
100
AcDbEntity
8
1
62
256
6
ByLayer
370
13
48
1
60
0
100
AcDbSpline
70
4
71
3
72
22
73
18
40
0
40
0
40
0
40
0
40
0.0727083383481519
40
0.143399173468017
40
0.214090008587882
40
0.284780843707746
40
0.355471678827611
40
0.426162513947476
40
0.496853349067341
40
0.567544184187206
40
0.638235019307071
40
0.708925854426936
40
0.7796166895468
40
0.850307524666665
40
0.92099835978653
40
0.991689194906395
40
1
40
1
40
1
40
1
41
1
10
29.4687327103362
20
-2.19914133205219
30
0
41
1
10
29.2812384735575
20
-2.22672298737072
30
0
41
1
10
28.9114525701121
20
-2.25963887482519
30
0
41
1
10
28.3593750000001
20
-2.24357669338886
30
0
41
1
10
27.8125000000001
20
-2.1649335462653
30
0
41
1
10
27.2656250000001
20
-2.02401161921855
30
0
41
1
10
26.7187500000001
20
-1.83047841640837
30
0
41
1
10
26.1718750000001
20
-1.58230720871376
30
0
41
1
10
25.6250000000001
20
-1.28622180526548
30
0
41
1
10
25.0781250000001
20
-0.955178651578024
30
0
41
1
10
24.5312500000001
20
-0.602546477512078
30
0
41
1
10
23.9843750000001
20
-0.23235890859857
30
0
41
1
10
23.4375000000001
20
0.146386614566723
30
0
41
1
10
22.8906250000001
20
0.522740625054638
30
0
41
1
10
22.3437500000001
20
0.884301899046079
30
0
41
1
10
21.9577354513008
20
1.12090493731824
30
0
41
1
10
21.7540125692682
20
1.23847916891341
30
0
41
1
10
21.7325813539022
20
1.25076539376232
30
0
0
SPLINE
5
179
100
AcDbEntity
8
1
62
256
6
ByLayer
370
18
48
1
60
0
100
AcDbSpline
70
4
71
3
72
79
73
75
40
0
40
0
40
0
40
0
40
0.0121009709580535
40
0.0121009709580535
40
0.0242019419161069
40
0.0484038838322114
40
0.0484038838322114
40
0.0968077676644203
40
0.0968077676644203
40
0.121009709580526
40
0.121009709580526
40
0.145211651496632
40
0.145211651496632
40
0.169413593412738
40
0.169413593412738
40
0.18151456437079
40
0.18151456437079
40
0.193615535328843
40
0.193615535328843
40
0.217817477244949
40
0.217817477244949
40
0.242019419161055
40
0.242019419161055
40
0.290423302993267
40
0.290423302993267
40
0.33882718682548
40
0.33882718682548
40
0.350928157783533
40
0.350928157783533
40
0.363029128741586
40
0.363029128741586
40
0.38723107065769
40
0.38723107065769
40
0.435634954489899
40
0.435634954489899
40
0.459836896406003
40
0.459836896406003
40
0.484038838322107
40
0.484038838322107
40
0.508240780238211
40
0.508240780238211
40
0.520341751196263
40
0.520341751196263
40
0.532442722154315
40
0.532442722154315
40
0.556644664070417
40
0.556644664070417
40
0.58084660598652
40
0.58084660598652
40
0.629250489818725
40
0.629250489818725
40
0.67765437365093
40
0.67765437365093
40
0.689755344608982
40
0.689755344608982
40
0.701856315567034
40
0.701856315567034
40
0.726058257483138
40
0.726058257483138
40
0.774462141315344
40
0.774462141315344
40
0.798664083231448
40
0.798664083231448
40
0.822866025147552
40
0.822866025147552
40
0.87126990897976
40
0.87126990897976
40
0.919673792811968
40
0.919673792811968
40
0.943875734728072
40
0.943875734728072
40
0.968077676644175
40
0.968077676644175
40
1
40
1
40
1
40
1
41
1
10
29.1343630530903
20
-2.39191850107318
30
0
41
1
10
29.0907125210468
20
-2.39704576059776
30
0
41
1
10
29.0469900371609
20
-2.40153838122882
30
0
41
1
10
28.9596125228694
20
-2.40922206544121
30
0
41
1
10
28.8287978177423
20
-2.41878518215486
30
0
41
1
10
28.6986239513389
20
-2.42250648210273
30
0
41
1
10
28.438843005077
20
-2.42225594613356
30
0
41
1
10
28.2663829281533
20
-2.41184118761276
30
0
41
1
10
28.0077477388491
20
-2.38111541586147
30
0
41
1
10
27.9215524261959
20
-2.36835130568323
30
0
41
1
10
27.7490456680403
20
-2.33778129164827
30
0
41
1
10
27.6627427400669
20
-2.31996954510211
30
0
41
1
10
27.489680037316
20
-2.27937633742948
30
0
41
1
10
27.4029192813469
20
-2.25659398810331
30
0
41
1
10
27.2721344445769
20
-2.21881738932541
30
0
41
1
10
27.22842752879
20
-2.20562861488284
30
0
41
1
10
27.1407772947322
20
-2.17806434608704
30
0
41
1
10
27.0969963259389
20
-2.16373748729484
30
0
41
1
10
26.9658661168622
20
-2.11916254363376
30
0
41
1
10
26.8786992125041
20
-2.08731326402722
30
0
41
1
10
26.7049547261551
20
-2.01935231553307
30
0
41
1
10
26.6184033427963
20
-1.98321762951173
30
0
41
1
10
26.359438134743
20
-1.86850719375982
30
0
41
1
10
26.1876875090481
20
-1.78360631646908
30
0
41
1
10
25.8437205918425
20
-1.59871211310212
30
0
41
1
10
25.6714845996363
20
-1.49880738389928
30
0
41
1
10
25.4544587219458
20
-1.36569004144752
30
0
41
1
10
25.4109662276752
20
-1.33866340344358
30
0
41
1
10
25.3237708305636
20
-1.28385669610992
30
0
41
1
10
25.2800813558108
20
-1.25608545636584
30
0
41
1
10
25.1493431637578
20
-1.17214244100811
30
0
41
1
10
25.0623862127283
20
-1.11521039927848
30
0
41
1
10
24.8018679298342
20
-0.941861501311962
30
0
41
1
10
24.6287430103148
20
-0.822794490389043
30
0
41
1
10
24.3695201106852
20
-0.639292910824963
30
0
41
1
10
24.2831677391794
20
-0.577342897832779
30
0
41
1
10
24.1103232495133
20
-0.452283210362964
30
0
41
1
10
24.0238363383804
20
-0.389163746228547
30
0
41
1
10
23.8505730114286
20
-0.261934519540375
30
0
41
1
10
23.7637971444549
20
-0.197824351614997
30
0
41
1
10
23.6332826807602
20
-0.101063725445783
30
0
41
1
10
23.5897191785631
20
-0.0687111553365298
30
0
41
1
10
23.5024493066534
20
-0.0038354430524805
30
0
41
1
10
23.4586928111022
20
0.0287250456154027
30
0
41
1
10
23.327826598166
20
0.126126900546041
30
0
41
1
10
23.2409701316707
20
0.190806499899651
30
0
41
1
10
23.0677335545394
20
0.319308615953929
30
0
41
1
10
22.981347716213
20
0.383128912493674
30
0
41
1
10
22.7225756270574
20
0.572874542573402
30
0
41
1
10
22.5505930051116
20
0.69708663921557
30
0
41
1
10
22.2058454548107
20
0.938733681667287
30
0
41
1
10
22.0330936373045
20
1.05617514094499
30
0
41
1
10
21.8157803431281
20
1.19746692345791
30
0
41
1
10
21.7722500634618
20
1.22544921403934
30
0
41
1
10
21.6850396077176
20
1.28083242182345
30
0
41
1
10
21.6413201759521
20
1.30825797898476
30
0
41
1
10
21.5101801328241
20
1.38945699619506
30
0
41
1
10
21.423082038466
20
1.44197716158729
30
0
41
1
10
21.1625652679699
20
1.5944942894717
30
0
41
1
10
20.9899301240379
20
1.68949436129964
30
0
41
1
10
20.7311308672038
20
1.82041135059188
30
0
41
1
10
20.6448703146426
20
1.86210095506976
30
0
41
1
10
20.4721736837269
20
1.941405677917
30
0
41
1
10
20.3857587338045
20
1.97900180074851
30
0
41
1
10
20.1261938232102
20
2.0856340847393
30
0
41
1
10
19.9526541189797
20
2.1489596099496
30
0
41
1
10
19.6029868628558
20
2.25757761770328
30
0
41
1
10
19.4295863867877
20
2.30193933830648
30
0
41
1
10
19.1705428431394
20
2.35266219512195
30
0
41
1
10
19.0843501253623
20
2.3669832761677
30
0
41
1
10
18.9119281898788
20
2.39093353480538
30
0
41
1
10
18.8257256070868
20
2.40050006532425
30
0
41
1
10
18.6257022775076
20
2.4169276052734
30
0
41
1
10
18.5118480339417
20
2.42197929005224
30
0
41
1
10
18.3977301876085
20
2.42251135598357
30
0
0
SPLINE
5
17A
100
AcDbEntity
8
1
62
256
6
ByLayer
370
13
48
1
60
0
100
AcDbSpline
70
4
71
3
72
16
73
12
40
0
40
0
40
0
40
0
40
0.0268344869225614
40
0.0920777057294707
40
0.189942533939835
40
0.287807362150199
40
0.418293799764018
40
0.548780237377837
40
0.679266674991656
40
0.809753112605474
40
1
40
1
40
1
40
1
41
1
10
21.474929277006
20
-2.13842213568094
30
0
41
1
10
21.3999528513374
20
-2.1538623355259
30
0
41
1
10
21.142684759002
20
-2.20143009276171
30
0
41
1
10
20.6119791666667
20
-2.26058505680538
30
0
41
1
10
19.8828125000001
20
-2.24352750042539
30
0
41
1
10
18.9713541666667
20
-2.07590079562155
30
0
41
1
10
17.9687500000001
20
-1.7163373264431
30
0
41
1
10
16.8750000000001
20
-1.14542738401227
30
0
41
1
10
15.7812500000001
20
-0.455704462815845
30
0
41
1
10
14.5205273675873
20
0.393798599894552
30
0
41
1
10
13.6243880685078
20
0.968172288638044
30
0
41
1
10
13.0928321027617
20
1.26152700974913
30
0
0
SPLINE
5
17B
100
AcDbEntity
8
1
62
256
6
ByLayer
370
18
48
1
60
0
100
AcDbSpline
70
4
71
3
72
71
73
67
40
0
40
0
40
0
40
0
40
0.0412542681933795
40
0.0412542681933795
40
0.055353470131713
40
0.055353470131713
40
0.0694526720700464
40
0.0694526720700464
40
0.0976510759467133
40
0.0976510759467133
40
0.12584947982338
40
0.12584947982338
40
0.154047883700047
40
0.154047883700047
40
0.210444691453381
40
0.210444691453381
40
0.238643095330047
40
0.238643095330047
40
0.266841499206713
40
0.266841499206713
40
0.280940701145046
40
0.280940701145046
40
0.295039903083379
40
0.323238306960045
40
0.323238306960045
40
0.379635114713377
40
0.379635114713377
40
0.407833518590042
40
0.407833518590042
40
0.436031922466708
40
0.436031922466708
40
0.464230326343373
40
0.464230326343373
40
0.478329528281707
40
0.478329528281707
40
0.49242873022004
40
0.49242873022004
40
0.548825537973374
40
0.548825537973374
40
0.57702394185004
40
0.57702394185004
40
0.605222345726706
40
0.605222345726706
40
0.661619153480036
40
0.661619153480036
40
0.689817557356702
40
0.689817557356702
40
0.703916759295034
40
0.703916759295034
40
0.718015961233366
40
0.718015961233366
40
0.774412768986694
40
0.774412768986694
40
0.830809576740022
40
0.830809576740022
40
0.859007980616685
40
0.859007980616685
40
0.887206384493348
40
0.887206384493348
40
0.915404788370011
40
0.915404788370011
40
0.943603192246674
40
0.943603192246674
40
0.971801596123337
40
0.971801596123337
40
1
40
1
40
1
40
1
41
1
10
21.7131581965703
20
-2.19934038471766
30
0
41
1
10
21.5868480602811
20
-2.23721756222386
30
0
41
1
10
21.4602439138915
20
-2.27049484483754
30
0
41
1
10
21.28961128046
20
-2.30896742688796
30
0
41
1
10
21.2460842700137
20
-2.31822136489788
30
0
41
1
10
21.1588782413385
20
-2.33561421180445
30
0
41
1
10
21.1151729422211
20
-2.34375601931239
30
0
41
1
10
20.9844381274764
20
-2.36636059120596
30
0
41
1
10
20.897587252997
20
-2.37904648169371
30
0
41
1
10
20.7243279883273
20
-2.3996105814428
30
0
41
1
10
20.6379178585447
20
-2.40749073866763
30
0
41
1
10
20.4654064023612
20
-2.41834278756113
30
0
41
1
10
20.3793094266709
20
-2.4212970045138
30
0
41
1
10
20.1210869853277
20
-2.42324284474708
30
0
41
1
10
19.9490054502022
20
-2.41546305754793
30
0
41
1
10
19.6901336182983
20
-2.38980903537276
30
0
41
1
10
19.603719552568
20
-2.37892661380138
30
0
41
1
10
19.4305109242007
20
-2.35224206081105
30
0
41
1
10
19.3437267268152
20
-2.33636426732835
30
0
41
1
10
19.2130955471908
20
-2.30886923510667
30
0
41
1
10
19.1694194100809
20
-2.2991027199084
30
0
41
1
10
19.0822254647601
20
-2.27850212010864
30
0
41
1
10
18.951637161971
20
-2.24600141774175
30
0
41
1
10
18.8215684716011
20
-2.20880481323874
30
0
41
1
10
18.5619273811004
20
-2.12829667573453
30
0
41
1
10
18.3895063877688
20
-2.06647871603056
30
0
41
1
10
18.1310922917252
20
-1.9615399725127
30
0
41
1
10
18.0449873158964
20
-1.92451708905466
30
0
41
1
10
17.8725926105276
20
-1.84678922555901
30
0
41
1
10
17.7863012668246
20
-1.80610553677829
30
0
41
1
10
17.6134122769216
20
-1.72104271809965
30
0
41
1
10
17.5268210597821
20
-1.67662086401461
30
0
41
1
10
17.3965484309089
20
-1.60740515950786
30
0
41
1
10
17.3530592773367
20
-1.58390719524749
30
0
41
1
10
17.2659250948688
20
-1.53610418707996
30
0
41
1
10
17.222227627481
20
-1.51176531982648
30
0
41
1
10
17.004045352651
20
-1.38845074856596
30
0
41
1
10
16.8306968994261
20
-1.28475081474056
30
0
41
1
10
16.5716440077674
20
-1.12254274112374
30
0
41
1
10
16.4854630734185
20
-1.06734605901079
30
0
41
1
10
16.3132734659073
20
-0.95489787145172
30
0
41
1
10
16.2272474254455
20
-0.897685657518792
30
0
41
1
10
15.9689584395381
20
-0.723857047068634
30
0
41
1
10
15.7965544740527
20
-0.604892266168662
30
0
41
1
10
15.5368069530453
20
-0.422588903220202
30
0
41
1
10
15.4500319178873
20
-0.361186743910792
30
0
41
1
10
15.319455613264
20
-0.26825633387142
30
0
41
1
10
15.2758476057339
20
-0.237129380093279
30
0
41
1
10
15.188523398046
20
-0.174680688460285
30
0
41
1
10
15.1449464129246
20
-0.143461001933673
30
0
41
1
10
14.9273838643693
20
0.0124928719551178
30
0
41
1
10
14.754289345025
20
0.136728792879353
30
0
41
1
10
14.408999869949
20
0.382598923983636
30
0
41
1
10
14.2368296203694
20
0.504268565889504
30
0
41
1
10
13.9783702948273
20
0.683521732638042
30
0
41
1
10
13.8921613247379
20
0.742713337812063
30
0
41
1
10
13.7193974971276
20
0.859713576033585
30
0
41
1
10
13.6328535411381
20
0.917529923214374
30
0
41
1
10
13.4593008186054
20
1.03156016797772
30
0
41
1
10
13.3722899432468
20
1.08777267146363
30
0
41
1
10
13.1976141981519
20
1.1983174947575
30
0
41
1
10
13.110366220402
20
1.25238461290601
30
0
41
1
10
12.9360307760372
20
1.35777700991332
30
0
41
1
10
12.8489200897669
20
1.40911346961479
30
0
41
1
10
12.6745857670953
20
1.50889117783643
30
0
41
1
10
12.5873600252025
20
1.55733770156007
30
0
41
1
10
12.5000000000001
20
1.6042385409485
30
0
0
SPLINE
5
17C
100
AcDbEntity
8
1
62
256
6
ByLayer
370
18
48
1
60
0
100
AcDbSpline
70
4
71
3
72
8
73
4
40
0
40
0
40
0
40
0
40
1
40
1
40
1
40
1
41
1
10
25.8950522892063
20
-2.07879061203477
30
0
41
1
10
25.8751736480322
20
-2.08368665582611
30
0
41
1
10
25.8552950068581
20
-2.0884825582211
30
0
41
1
10
25.835416365684
20
-2.09317749388961
30
0
0
SPLINE
5
17D
100
AcDbEntity
8
1
62
256
6
ByLayer
370
13
48
1
60
0
100
AcDbSpline
70
4
71
3
72
19
73
15
40
0
40
0
40
0
40
0
40
0.0103360421501426
40
0.13509700362577
40
0.259857965101397
40
0.353428686208117
40
0.446999407314837
40
0.509379888052651
40
0.571760368790464
40
0.634140849528278
40
0.696521330266091
40
0.790092051372811
40
0.883662772479532
40
1
40
1
40
1
40
1
41
1
10
25.7156136500394
20
-2.12024338702236
30
0
41
1
10
25.6854091000263
20
-2.1267556481175
30
0
41
1
10
25.2906212166798
20
-2.20877719652444
30
0
41
1
10
24.5312500000001
20
-2.2877367663167
30
0
41
1
10
23.5286458333335
20
-2.18912671953683
30
0
41
1
10
22.6171875000001
20
-1.94668682472798
30
0
41
1
10
21.8880208333335
20
-1.65737565967962
30
0
41
1
10
21.2500000000001
20
-1.34824367743084
30
0
41
1
10
20.7031250000001
20
-1.04969527103117
30
0
41
1
10
20.1562500000001
20
-0.726053191036698
30
0
41
1
10
19.5182291666667
20
-0.32770825793591
30
0
41
1
10
18.7890625000001
20
0.143145205889397
30
0
41
1
10
17.902220464651
20
0.707147443671545
30
0
41
1
10
17.2888159293019
20
1.06694092570933
30
0
41
1
10
16.9488488939529
20
1.24861670219994
30
0
0
SPLINE
5
17E
100
AcDbEntity
8
1
62
256
6
ByLayer
370
18
48
1
60
0
100
AcDbSpline
70
4
71
3
72
9
73
5
40
0
40
0
40
0
40
0
40
0.599188657424218
40
1
40
1
40
1
40
1
41
1
10
16.9488488939954
20
1.24861670217717
30
0
41
1
10
16.924232595997
20
1.26177146304579
30
0
41
1
10
16.8831498790706
20
1.28357059270556
30
0
41
1
10
16.8420671621443
20
1.30510186865001
30
0
41
1
10
16.8256007432164
20
1.31368805861322
30
0
0
SPLINE
5
17F
100
AcDbEntity
8
1
62
256
6
ByLayer
370
18
48
1
60
0
100
AcDbSpline
70
4
71
3
72
94
73
90
40
0
40
0
40
0
40
0
40
0.005688689319006
40
0.005688689319006
40
0.0464675665078298
40
0.0464675665078298
40
0.0668570051022423
40
0.0668570051022423
40
0.0872464436966547
40
0.0872464436966547
40
0.128025320885479
40
0.128025320885479
40
0.148414759479892
40
0.148414759479892
40
0.168804198074304
40
0.168804198074304
40
0.209583075263129
40
0.209583075263129
40
0.229972513857542
40
0.229972513857542
40
0.250361952451955
40
0.250361952451955
40
0.260556671749162
40
0.260556671749162
40
0.270751391046368
40
0.29114082964078
40
0.29114082964078
40
0.331919706829604
40
0.331919706829604
40
0.372698584018428
40
0.372698584018428
40
0.413477461207251
40
0.413477461207251
40
0.423672180504458
40
0.423672180504458
40
0.433866899801664
40
0.433866899801664
40
0.454256338396076
40
0.454256338396076
40
0.4950352155849
40
0.4950352155849
40
0.515424654179311
40
0.515424654179311
40
0.535814092773723
40
0.535814092773723
40
0.556203531368134
40
0.556203531368134
40
0.576592969962545
40
0.576592969962545
40
0.586787689259751
40
0.586787689259751
40
0.596982408556957
40
0.617371847151368
40
0.617371847151368
40
0.63776128574578
40
0.63776128574578
40
0.658150724340191
40
0.658150724340191
40
0.678540162934602
40
0.678540162934602
40
0.698929601529013
40
0.698929601529013
40
0.739708478717837
40
0.739708478717837
40
0.749903198015043
40
0.749903198015043
40
0.760097917312248
40
0.760097917312248
40
0.78048735590666
40
0.78048735590666
40
0.821266233095482
40
0.821266233095482
40
0.841655671689894
40
0.841655671689894
40
0.862045110284306
40
0.862045110284306
40
0.902823987473129
40
0.902823987473129
40
0.913018706770335
40
0.913018706770335
40
0.923213426067541
40
0.923213426067541
40
0.943602864661953
40
0.943602864661953
40
0.963992303256365
40
0.963992303256365
40
0.984381741850777
40
0.984381741850777
40
1
40
1
40
1
40
1
41
1
10
26.0570168395155
20
-2.14161466498018
30
0
41
1
10
26.0330014410901
20
-2.14937412791136
30
0
41
1
10
26.0089877148529
20
-2.15698223129388
30
0
41
1
10
25.8128347186606
20
-2.21788255599714
30
0
41
1
10
25.6407035942036
20
-2.26345513283539
30
0
41
1
10
25.3815847156819
20
-2.31932348142834
30
0
41
1
10
25.2950531831918
20
-2.33589413210817
30
0
41
1
10
25.1215176694777
20
-2.36487334181453
30
0
41
1
10
25.0344814206634
20
-2.37727700913305
30
0
41
1
10
24.7726548430281
20
-2.40795365388678
30
0
41
1
10
24.5993352589638
20
-2.41944369964224
30
0
41
1
10
24.3403292110959
20
-2.42315483938776
30
0
41
1
10
24.2541513072112
20
-2.42215527049891
30
0
41
1
10
24.0819164703428
20
-2.41587744246809
30
0
41
1
10
23.9958634918716
20
-2.4105905736244
30
0
41
1
10
23.7377013000009
20
-2.38825886770923
30
0
41
1
10
23.5655923199944
20
-2.36475882358087
30
0
41
1
10
23.3065689750421
20
-2.31623198555138
30
0
41
1
10
23.2200888195628
20
-2.29781768645583
30
0
41
1
10
23.0466678809345
20
-2.25675893501608
30
0
41
1
10
22.9597246153712
20
-2.234140011394
30
0
41
1
10
22.8288562196963
20
-2.19706809756258
30
0
41
1
10
22.7852456346011
20
-2.18420911856444
30
0
41
1
10
22.6982211312344
20
-2.15755652990623
30
0
41
1
10
22.5678907437994
20
-2.1161514091047
30
0
41
1
10
22.4380969941095
20
-2.07054410886406
30
0
41
1
10
22.1789862771799
20
-1.97392695081044
30
0
41
1
10
22.0068776011808
20
-1.90232283031233
30
0
41
1
10
21.6626496798586
20
-1.74577608468286
30
0
41
1
10
21.4906006524278
20
-1.66052727983782
30
0
41
1
10
21.1452656620694
20
-1.47871766166369
30
0
41
1
10
20.9720330583715
20
-1.38199761229834
30
0
41
1
10
20.7539944489478
20
-1.25424633581477
30
0
41
1
10
20.7103430420758
20
-1.2283698830343
30
0
41
1
10
20.6232881499088
20
-1.17618103680414
30
0
41
1
10
20.5798363516079
20
-1.14983986267117
30
0
41
1
10
20.4496920647528
20
-1.07009095985873
30
0
41
1
10
20.3632127031792
20
-1.01595204917078
30
0
41
1
10
20.104188167363
20
-0.851369143230016
30
0
41
1
10
19.9320314554021
20
-0.738826445572528
30
0
41
1
10
19.6738982958054
20
-0.566670759921294
30
0
41
1
10
19.5878675423799
20
-0.508733539415459
30
0
41
1
10
19.4157245685027
20
-0.391860668723865
30
0
41
1
10
19.3296260061078
20
-0.332891015770912
30
0
41
1
10
19.1571660078946
20
-0.214218884880751
30
0
41
1
10
19.0707877364198
20
-0.154560545387596
30
0
41
1
10
18.8975589567907
20
-0.0348886957923753
30
0
41
1
10
18.8107132514082
20
0.0251371645731524
30
0
41
1
10
18.6799948728614
20
0.115332451062216
30
0
41
1
10
18.6363200436849
20
0.145442842171462
30
0
41
1
10
18.5492055580029
20
0.205420853460311
30
0
41
1
10
18.4187483344921
20
0.295118640496412
30
0
41
1
10
18.2888744822455
20
0.383911517206741
30
0
41
1
10
18.1161126829007
20
0.501297350731079
30
0
41
1
10
18.0299309389265
20
0.559484020282355
30
0
41
1
10
17.8577244352762
20
0.674590156603159
30
0
41
1
10
17.7716975637718
20
0.731513263933294
30
0
41
1
10
17.5997046437045
20
0.84392418637708
30
0
41
1
10
17.5137466790971
20
0.899410590326454
30
0
41
1
10
17.3417029358845
20
1.0087270208889
30
0
41
1
10
17.2556086263948
20
1.06255887475757
30
0
41
1
10
16.9968972385117
20
1.22128083514988
30
0
41
1
10
16.823873254682
20
1.32339789340941
30
0
41
1
10
16.6062111524887
20
1.44524757377178
30
0
41
1
10
16.5625577820249
20
1.46935505228649
30
0
41
1
10
16.4754539508535
20
1.51675956707024
30
0
41
1
10
16.4319868040998
20
1.54006597175547
30
0
41
1
10
16.3017945819027
20
1.60878120965336
30
0
41
1
10
16.2152682496976
20
1.6529922076781
30
0
41
1
10
15.9560665768699
20
1.78088638329803
30
0
41
1
10
15.7838466393677
20
1.85976915957906
30
0
41
1
10
15.5257273897148
20
1.96746884100162
30
0
41
1
10
15.4397202272343
20
2.00160631046975
30
0
41
1
10
15.2676427470638
20
2.06616943221536
30
0
41
1
10
15.1815773512102
20
2.09657521363505
30
0
41
1
10
14.9229703618523
20
2.18219763788451
30
0
41
1
10
14.749986832725
20
2.23198685854604
30
0
41
1
10
14.5323806806816
20
2.28400535599241
30
0
41
1
10
14.4887405814311
20
2.29390913074528
30
0
41
1
10
14.4015757497854
20
2.31261210414272
30
0
41
1
10
14.3580685219644
20
2.32140902949396
30
0
41
1
10
14.2277482318169
20
2.34612387768601
30
0
41
1
10
14.1411432310041
20
2.36035033078429
30
0
41
1
10
13.9683037572479
20
2.38432390486241
30
0
41
1
10
13.882052902837
20
2.394108876171
30
0
41
1
10
13.7096591693842
20
2.40950506742902
30
0
41
1
10
13.6235286932017
20
2.4150869848404
30
0
41
1
10
13.4714452363645
20
2.42108722820552
30
0
41
1
10
13.405486564481
20
2.42241477244758
30
0
41
1
10
13.3395040495766
20
2.42244920769679
30
0
0
SPLINE
5
180
100
AcDbEntity
8
1
62
256
6
ByLayer
370
13
48
1
60
0
100
AcDbSpline
70
4
71
3
72
17
73
13
40
0
40
0
40
0
40
0
40
0.0468101677241166
40
0.131796992408831
40
0.216783817093545
40
0.30177064177826
40
0.386757466462975
40
0.514237703490047
40
0.641717940517118
40
0.811691589886548
40
0.981665239255977
40
1
40
1
40
1
40
1
41
1
10
22.0980900479688
20
0.432567666873581
30
0
41
1
10
21.9976850319792
20
0.503092858539333
30
0
41
1
10
21.7149883493229
20
0.699928250617973
30
0
41
1
10
21.25
20
1.01163638565072
30
0
41
1
10
20.703125
20
1.34871300976661
30
0
41
1
10
20.15625
20
1.64833542797774
30
0
41
0.999999999999999
10
19.5182291666667
20
1.94519954473097
30
0
41
1
10
18.7890625
20
2.19521326710065
30
0
41
1
10
17.8776041666666
20
2.34965493934178
30
0
41
1
10
16.875
20
2.31664997741819
30
0
41
1
10
16.1065063658138
20
2.10366705322341
30
0
41
1
10
15.7025960649609
20
1.94717703123271
30
0
41
1
10
15.6632690974414
20
1.93152766414485
30
0
0
SPLINE
5
181
100
AcDbEntity
8
1
62
256
6
ByLayer
370
13
48
1
60
0
100
AcDbSpline
70
4
71
3
72
11
73
7
40
0
40
0
40
0
40
0
40
0.108596344100152
40
0.331447258075114
40
0.554298172050076
40
1
40
1
40
1
40
1
41
1
10
17.4079897429672
20
0.388155420290445
30
0
41
1
10
17.2303264953115
20
0.504514086681638
30
0
41
1
10
16.6880799143224
20
0.854987706479904
30
0
41
1
10
15.78125
20
1.39569525711411
30
0
41
1
10
14.3229166666666
20
2.09002756777002
30
0
41
1
10
13.2291666666667
20
2.32610825948711
30
0
41
1
10
12.5
20
2.32784660312234
30
0
0
SPLINE
5
182
100
AcDbEntity
8
1
62
256
6
ByLayer
370
18
48
1
60
0
100
AcDbSpline
70
4
71
3
72
18
73
14
40
0
40
0
40
0
40
0
40
0.125000000000003
40
0.125000000000003
40
0.250000000000007
40
0.250000000000007
40
0.37500000000001
40
0.37500000000001
40
0.500000000000014
40
0.500000000000014
40
0.750000000000007
40
0.750000000000007
40
1
40
1
40
1
40
1
41
1
10
28.9320803671976
20
1.53243852586127
30
0
41
1
10
28.9314892657752
20
1.53286524650025
30
0
41
1
10
28.9308603990006
20
1.53326561585249
30
0
41
1
10
28.9294501922172
20
1.53396038008739
30
0
41
1
10
28.9286697776946
20
1.53424735337586
30
0
41
1
10
28.9270555808778
20
1.53451599455676
30
0
41
1
10
28.9262328961464
20
1.53447764719073
30
0
41
1
10
28.9248527047738
20
1.53412830456762
30
0
41
1
10
28.9242723257629
20
1.5338359449859
30
0
41
1
10
28.9227861839848
20
1.53284077542642
30
0
41
1
10
28.9220801439362
20
1.53200968944463
30
0
41
1
10
28.9208950819293
20
1.53030464765843
30
0
41
1
10
28.9204201642922
20
1.52940963594395
30
0
41
1
10
28.9200050260193
20
1.52849308353959
30
0
0
SPLINE
5
183
100
AcDbEntity
8
1
62
256
6
ByLayer
370
18
48
1
60
0
100
AcDbSpline
70
4
71
3
72
10
73
6
40
0
40
0
40
0
40
0
40
0.5
40
0.5
40
1
40
1
40
1
40
1
41
1
10
29.1772141905986
20
1.36009675513213
30
0
41
1
10
29.1635141505704
20
1.37307156158676
30
0
41
1
10
29.1495400230242
20
1.38578216067069
30
0
41
1
10
29.120853745948
20
1.41048071298383
30
0
41
1
10
29.1061535283846
20
1.42246805381018
30
0
41
1
10
29.0908920852694
20
1.43393241879491
30
0
0
SPLINE
5
184
100
AcDbEntity
8
1
62
256
6
ByLayer
370
18
48
1
60
0
100
AcDbSpline
70
4
71
3
72
14
73
10
40
0
40
0
40
0
40
0
40
0.500000000000375
40
0.500000000000375
40
0.750000000000558
40
0.750000000000558
40
0.875000000000279
40
0.875000000000279
40
1
40
1
40
1
40
1
41
1
10
28.9200050260293
20
1.52849308353274
30
0
41
1
10
28.9218851803944
20
1.52449109817377
30
0
41
1
10
28.9239111061397
20
1.52054145395442
30
0
41
1
10
28.9275737185631
20
1.51485052990697
30
0
41
1
10
28.9288913385394
20
1.51298969168042
30
0
41
1
10
28.9312768086365
20
1.51035416752839
30
0
41
1
10
28.9321458128042
20
1.50949798579396
30
0
41
1
10
28.9341181115303
20
1.5079827859044
30
0
41
1
10
28.935220408866
20
1.50729953371265
30
0
41
1
10
28.9365522743176
20
1.50696733303923
30
0
0
SPLINE
5
185
100
AcDbEntity
8
1
62
256
6
ByLayer
370
18
48
1
60
0
100
AcDbSpline
70
4
71
3
72
15
73
11
40
0
40
0
40
0
40
0
40
0.0846502917498322
40
0.195685900211654
40
0.417757117135297
40
0.528792725597118
40
0.639828334058939
40
0.861899550982582
40
0.972935159444404
40
1
40
1
40
1
40
1
41
1
10
12.4994053315893
20
-2.24009487703725
30
0
41
1
10
12.5720493557763
20
-2.26225367606247
30
0
41
1
10
12.7399564122959
20
-2.31036363444929
30
0
41
1
10
13.0983606815552
20
-2.39731430802158
30
0
41
1
10
13.4794835396793
20
-2.46039102716739
30
0
41
1
10
13.8609803609389
20
-2.49312581804276
30
0
41
1
10
14.242823640651
20
-2.50531908453246
30
0
41
1
10
14.625324955633
20
-2.48624393410614
30
0
41
1
10
14.9361044919564
20
-2.44580498405759
30
0
41
1
10
15.0553677413981
20
-2.42636566480874
30
0
41
1
10
15.0787448353281
20
-2.42240521037255
30
0
0
SPLINE
5
186
100
AcDbEntity
8
1
62
256
6
ByLayer
370
18
48
1
60
0
100
AcDbSpline
70
4
71
3
72
15
73
11
40
0
40
0
40
0
40
0
40
0.183411938552184
40
0.368256485835462
40
0.460678759477102
40
0.553101033118741
40
0.73794558040202
40
0.83036785404366
40
0.922790127685299
40
1
40
1
40
1
40
1
41
1
10
25.61815356056
20
2.49967257569708
30
0
41
1
10
25.8088578071082
20
2.49900527353429
30
0
41
1
10
26.1942128885428
20
2.47689809462099
30
0
41
1
10
26.6843287664193
20
2.39554298664848
30
0
41
1
10
27.0840315278735
20
2.29705431045198
30
0
41
1
10
27.4884820177738
20
2.17614141537001
30
0
41
1
10
27.9008820728198
20
2.02162344087438
30
0
41
1
10
28.3231915932748
20
1.83354754876697
30
0
41
1
10
28.6276509692887
20
1.68429076104957
30
0
41
1
10
28.8280489780782
20
1.57849845151173
30
0
41
1
10
28.9200050260296
20
1.52849308353402
30
0
0
SPLINE
5
187
100
AcDbEntity
8
1
62
256
6
ByLayer
370
18
48
1
60
0
100
AcDbSpline
70
4
71
3
72
17
73
13
40
0
40
0
40
0
40
0
40
0.308499205734347
40
0.308499205734347
40
0.385624007167931
40
0.385624007167931
40
0.462748808601516
40
0.462748808601516
40
0.616998411468685
40
0.925497617203023
40
0.925497617203023
40
1
40
1
40
1
40
1
41
1
10
12.5000000000001
20
-2.2537220106951
30
0
41
1
10
12.6742967366461
20
-2.30558553694814
30
0
41
1
10
12.848174648677
20
-2.34955568875833
30
0
41
1
10
13.0657128636722
20
-2.3943101234093
30
0
41
1
10
13.1092303295989
20
-2.4027501781768
30
0
41
1
10
13.1963033435893
20
-2.41860179860129
30
0
41
1
10
13.2398794840257
20
-2.42601642942
30
0
41
1
10
13.3704975370169
20
-2.44667540399161
30
0
41
1
10
13.6313289461553
20
-2.48166829736922
30
0
41
1
10
13.8916274763183
20
-2.4976463071537
30
0
41
1
10
14.1075167961718
20
-2.50018940524006
30
0
41
1
10
14.1495420204677
20
-2.50018088539534
30
0
41
1
10
14.1915918550629
20
-2.49966956680117
30
0
0
SPLINE
5
188
100
AcDbEntity
8
1
62
256
6
ByLayer
370
18
48
1
60
0
100
AcDbSpline
70
4
71
3
72
38
73
34
40
0
40
0
40
0
40
0
40
0.0367016810989524
40
0.0367016810989524
40
0.133031512989051
40
0.133031512989051
40
0.22936134487915
40
0.22936134487915
40
0.253443802851676
40
0.253443802851676
40
0.277526260824202
40
0.325691176769254
40
0.325691176769254
40
0.422021008659357
40
0.422021008659357
40
0.446103466631884
40
0.446103466631884
40
0.47018592460441
40
0.518350840549464
40
0.614680672439574
40
0.614680672439574
40
0.638763130412101
40
0.638763130412101
40
0.662845588384628
40
0.711010504329683
40
0.711010504329683
40
0.807340336219792
40
0.807340336219792
40
0.831422794192318
40
0.831422794192318
40
0.855505252164844
40
0.903670168109896
40
1
40
1
40
1
40
1
41
1
10
23.7644918008361
20
2.20291904724795
30
0
41
1
10
23.8307698553768
20
2.22444500722668
30
0
41
1
10
23.8970960707595
20
2.24489528338896
30
0
41
1
10
24.1377888015136
20
2.31503884757171
30
0
41
1
10
24.3115055101819
20
2.35789025065722
30
0
41
1
10
24.6588742471075
20
2.42716251608979
30
0
41
1
10
24.8325518932949
20
2.45360224953251
30
0
41
1
10
25.0503815216474
20
2.47611143394189
30
0
41
1
10
25.0939670288926
20
2.48008326470264
30
0
41
1
10
25.181037536251
20
2.48695115279253
30
0
41
1
10
25.3115591382063
20
2.49564671110312
30
0
41
1
10
25.4419073593778
20
2.49952359424731
30
0
41
1
10
25.7025661003707
20
2.50085841122913
30
0
41
1
10
25.8762750018276
20
2.49318834110042
30
0
41
1
10
26.0940185304897
20
2.47289981323411
30
0
41
1
10
26.1376096883187
20
2.46830456327703
30
0
41
1
10
26.2246801271236
20
2.45806583562501
30
0
41
1
10
26.3551860647007
20
2.44112979825837
30
0
41
1
10
26.6592004238999
20
2.39066415129662
30
0
41
1
10
26.919618383513
20
2.32893322477662
30
0
41
1
10
27.1373029558049
20
2.26752332359803
30
0
41
1
10
27.1808972044607
20
2.25473558623131
30
0
41
1
10
27.2680096160911
20
2.2282224741752
30
0
41
1
10
27.3985847177287
20
2.18704193938382
30
0
41
1
10
27.5289602657891
20
2.14170812695113
30
0
41
1
10
27.7896450091582
20
2.04567535575575
30
0
41
1
10
27.9633362804644
20
1.97449578055364
30
0
41
1
10
28.1809899875992
20
1.87706048022611
30
0
41
1
10
28.2245749496788
20
1.85713809816994
30
0
41
1
10
28.3116904131103
20
1.81652113538604
30
0
41
1
10
28.4421827380305
20
1.75448487053885
30
0
41
1
10
28.7455980493999
20
1.60222536984625
30
0
41
1
10
29.0045194652244
20
1.459717166612
30
0
41
1
10
29.1772141905944
20
1.36009675513068
30
0
0
SPLINE
5
189
100
AcDbEntity
8
1
62
256
6
ByLayer
370
18
48
1
60
0
100
AcDbSpline
70
4
71
3
72
10
73
6
40
0
40
0
40
0
40
0
40
0.5
40
0.5
40
1
40
1
40
1
40
1
41
1
10
29.1639004425153
20
-1.57600634978337
30
0
41
1
10
29.1502369186995
20
-1.56345970025134
30
0
41
1
10
29.1363064688671
20
-1.55101118357871
30
0
41
1
10
29.107681072406
20
-1.52651323656494
30
0
41
1
10
29.0929975097497
20
-1.51446065432677
30
0
41
1
10
29.0777185711991
20
-1.50281921133535
30
0
0
SPLINE
5
18A
100
AcDbEntity
8
1
62
256
6
ByLayer
370
18
48
1
60
0
100
AcDbSpline
70
4
71
3
72
14
73
10
40
0
40
0
40
0
40
0
40
0.49999999999971
40
0.49999999999971
40
0.749999999999852
40
0.749999999999852
40
0.874999999999926
40
0.874999999999926
40
1
40
1
40
1
40
1
41
1
10
28.9212723231144
20
-1.41046693621379
30
0
41
1
10
28.9230305743168
20
-1.41456335267407
30
0
41
1
10
28.9249202435369
20
-1.41860538114162
30
0
41
1
10
28.9283242374014
20
-1.42444139698412
30
0
41
1
10
28.9295469709026
20
-1.42635154594768
30
0
41
1
10
28.931758192662
20
-1.4290687255781
30
0
41
1
10
28.9325581558194
20
-1.42994873435168
30
0
41
1
10
28.9343901366761
20
-1.43152817862276
30
0
41
1
10
28.9354278704667
20
-1.43226073567791
30
0
41
1
10
28.9366972459261
20
-1.43261582702081
30
0
0
SPLINE
5
18B
100
AcDbEntity
8
1
62
256
6
ByLayer
370
18
48
1
60
0
100
AcDbSpline
70
4
71
3
72
8
73
4
40
0
40
0
40
0
40
0
40
1
40
1
40
1
40
1
41
1
10
28.9794699758068
20
-1.44517171984407
30
0
41
1
10
29.0121176144428
20
-1.46452579165762
30
0
41
1
10
29.0448660854372
20
-1.48374520829941
30
0
41
1
10
29.0777185711858
20
-1.50281921135016
30
0
0
SPLINE
5
18C
100
AcDbEntity
8
1
62
256
6
ByLayer
370
18
48
1
60
0
100
AcDbSpline
70
4
71
3
72
30
73
26
40
0
40
0
40
0
40
0
40
0.0289957603683626
40
0.067222966069362
40
0.143677377471361
40
0.18190458317236
40
0.220131788873359
40
0.296586200275358
40
0.334813405976357
40
0.373040611677357
40
0.449495023079355
40
0.487722228780355
40
0.525949434481354
40
0.602403845883353
40
0.640631051584352
40
0.678858257285351
40
0.717085462986351
40
0.75531266868735
40
0.831767080089349
40
0.869994285790348
40
0.889107888640848
40
0.908221491491347
40
0.946448697192347
40
0.984675902893346
40
1
40
1
40
1
40
1
41
1
10
12.4994386863841
20
1.15321750520661
30
0
41
1
10
12.5720324443288
20
1.10556764276905
30
0
41
1
10
12.7403283364669
20
0.993236707923103
30
0
41
1
10
13.1000552916432
20
0.745097492777489
30
0
41
1
10
13.483055438493
20
0.469160253964958
30
0
41
1
10
13.8663833431574
20
0.187278303050988
30
0
41
1
10
14.2499833193115
20
-0.0966055281520255
30
0
41
1
10
14.6340815748437
20
-0.380547625928216
30
0
41
1
10
15.0187354482226
20
-0.658336515816757
30
0
41
1
10
15.40378603147
20
-0.929988615379642
30
0
41
1
10
15.7895020276478
20
-1.18943075322784
30
0
41
1
10
16.1760141570814
20
-1.43112722241224
30
0
41
1
10
16.5629874398423
20
-1.65901420030102
30
0
41
1
10
16.9505958639847
20
-1.86339141551642
30
0
41
1
10
17.3386251408781
20
-2.03986842005935
30
0
41
1
10
17.6298127528
20
-2.15719641378186
30
0
41
1
10
17.9211080015884
20
-2.25847326466612
30
0
41
1
10
18.3095388651937
20
-2.37108559602859
30
0
41
1
10
18.6978943405761
20
-2.44876423306056
30
0
41
1
10
19.0373591403314
20
-2.48495126524793
30
0
41
1
10
19.2312091073879
20
-2.49632040585337
30
0
41
1
10
19.4249476073236
20
-2.50153955688114
30
0
41
1
10
19.6668888569861
20
-2.49636439779644
30
0
41
1
10
19.8988440496792
20
-2.47678348282395
30
0
41
1
10
20.0339812042845
20
-2.4594861075289
30
0
41
1
10
20.0726336366219
20
-2.45405851065686
30
0
0
SPLINE
5
18D
100
AcDbEntity
8
1
62
256
6
ByLayer
370
18
48
1
60
0
100
AcDbSpline
70
4
71
3
72
8
73
4
40
0
40
0
40
0
40
0
40
1
40
1
40
1
40
1
41
1
10
12.4994279760245
20
2.49970428782712
30
0
41
1
10
12.4995229167787
20
2.49971537577434
30
0
41
1
10
12.4997152604694
20
2.49972544103207
30
0
41
1
10
12.4999999999991
20
2.49973236317229
30
0
0
SPLINE
5
18E
100
AcDbEntity
8
1
62
256
6
ByLayer
370
18
48
1
60
0
100
AcDbSpline
70
4
71
3
72
77
73
73
40
0
40
0
40
0
40
0
40
0.0501215446408133
40
0.0501215446408133
40
0.0626519308010159
40
0.0626519308010159
40
0.0751823169612186
40
0.0751823169612186
40
0.100243089281624
40
0.100243089281624
40
0.150364633922434
40
0.150364633922434
40
0.162895020082638
40
0.162895020082638
40
0.175425406242841
40
0.175425406242841
40
0.200486178563248
40
0.200486178563248
40
0.250607723204061
40
0.250607723204061
40
0.275668495524467
40
0.275668495524467
40
0.300729267844873
40
0.300729267844873
40
0.350850812485685
40
0.350850812485685
40
0.363381198645889
40
0.363381198645889
40
0.375911584806091
40
0.375911584806091
40
0.400972357126497
40
0.400972357126497
40
0.45109390176731
40
0.45109390176731
40
0.463624287927512
40
0.463624287927512
40
0.476154674087715
40
0.501215446408119
40
0.501215446408119
40
0.551336991048926
40
0.551336991048926
40
0.576397763369329
40
0.576397763369329
40
0.601458535689733
40
0.601458535689733
40
0.651580080330539
40
0.651580080330539
40
0.701701624971346
40
0.701701624971346
40
0.72676239729175
40
0.72676239729175
40
0.739292783451952
40
0.739292783451952
40
0.751823169612154
40
0.751823169612154
40
0.801944714252961
40
0.801944714252961
40
0.827005486573364
40
0.827005486573364
40
0.839535872733566
40
0.839535872733566
40
0.852066258893768
40
0.852066258893768
40
0.902187803534577
40
0.902187803534577
40
0.927248575854981
40
0.927248575854981
40
0.939778962015184
40
0.939778962015184
40
0.952309348175386
40
0.952309348175386
40
1
40
1
40
1
40
1
41
1
10
12.5000000000001
20
2.49973635956758
30
0
41
1
10
12.6743503072724
20
2.4977530146094
30
0
41
1
10
12.8482303322674
20
2.48647475897988
30
0
41
1
10
13.065799833073
20
2.46091071596632
30
0
41
1
10
13.1093250578658
20
2.4552242193455
30
0
41
1
10
13.1964190620158
20
2.44271012389544
30
0
41
1
10
13.2400091455323
20
2.43587861408076
30
0
41
1
10
13.3706457352974
20
2.41372023437475
30
0
41
1
10
13.4575960869258
20
2.3967274159894
30
0
41
1
10
13.7182822631256
20
2.33923630823864
30
0
41
1
10
13.8918535048139
20
2.29222946336483
30
0
41
1
10
14.1093953063025
20
2.22295221142835
30
0
41
1
10
14.1529325241015
20
2.20857031686413
30
0
41
1
10
14.2400852705712
20
2.1787623878424
30
0
41
1
10
14.2836968773401
20
2.1633376021251
30
0
41
1
10
14.4143627054164
20
2.11563843053068
30
0
41
1
10
14.5013533038261
20
2.08190563238654
30
0
41
1
10
14.7621788386173
20
1.97513368815092
30
0
41
1
10
14.9358473942572
20
1.89651655670832
30
0
41
1
10
15.1969635714876
20
1.76812167558327
30
0
41
1
10
15.2841899901255
20
1.72353140053929
30
0
41
1
10
15.458249563309
20
1.63141011519886
30
0
41
1
10
15.5451573595042
20
1.58384925705616
30
0
41
1
10
15.8057742626698
20
1.43699065456696
30
0
41
1
10
15.9793754967731
20
1.33352700746948
30
0
41
1
10
16.1970587290309
20
1.19818362407187
30
0
41
1
10
16.2406550285856
20
1.17079721874339
30
0
41
1
10
16.3278005934203
20
1.11553119381017
30
0
41
1
10
16.3713394334042
20
1.08765859904489
30
0
41
1
10
16.5018848945338
20
1.003362957539
30
0
41
1
10
16.5888213764115
20
0.946261987306912
30
0
41
1
10
16.8495731170337
20
0.7725727354009
30
0
41
1
10
17.0233159078353
20
0.653587950433547
30
0
41
1
10
17.2411092916114
20
0.501824453759411
30
0
41
1
10
17.2847124752414
20
0.471311585716336
30
0
41
1
10
17.371799418182
20
0.410154263370885
30
0
41
1
10
17.5023223893519
20
0.318171368950715
30
0
41
1
10
17.6326191932313
20
0.225582313818137
30
0
41
1
10
17.8931741077423
20
0.0399639578639608
30
0
41
1
10
18.0668268865878
20
-0.0843666393948013
30
0
41
1
10
18.328276004845
20
-0.270271564936053
30
0
41
1
10
18.415214323981
20
-0.331875963104892
30
0
41
1
10
18.588545496095
20
-0.453945214892656
30
0
41
1
10
18.6749856833919
20
-0.514444072944485
30
0
41
1
10
18.9338586424299
20
-0.694044144424112
30
0
41
1
10
19.1058403034529
20
-0.811246758768959
30
0
41
1
10
19.4497352409498
20
-1.03905474925753
30
0
41
1
10
19.6216579723474
20
-1.14963984477021
30
0
41
1
10
19.8804514471536
20
-1.30934576355753
30
0
41
1
10
19.9668681007975
20
-1.36155016470315
30
0
41
1
10
20.0968522105331
20
-1.43812660742526
30
0
41
1
10
20.1402402279111
20
-1.46336342510767
30
0
41
1
10
20.2271596487282
20
-1.5132255839107
30
0
41
1
10
20.2707246049147
20
-1.53786892095317
30
0
41
1
10
20.4885606165432
20
-1.65924915872662
30
0
41
1
10
20.6622694821403
20
-1.75013857775187
30
0
41
1
10
20.9229732156481
20
-1.8763672321644
30
0
41
1
10
21.0098957420003
20
-1.9167628012936
30
0
41
1
10
21.1404188246997
20
-1.9747325557079
30
0
41
1
10
21.1839496342517
20
-1.99361839002785
30
0
41
1
10
21.2710754543798
20
-2.03049091471195
30
0
41
1
10
21.3146930750934
20
-2.04848658077688
30
0
41
1
10
21.5325180258588
20
-2.13595547322248
30
0
41
1
10
21.7061826891519
20
-2.19806508086947
30
0
41
1
10
21.9667894205153
20
-2.27877568833227
30
0
41
1
10
22.0536765494061
20
-2.30361418670228
30
0
41
1
10
22.184162574496
20
-2.33769821270113
30
0
41
1
10
22.227683870626
20
-2.34853015656731
30
0
41
1
10
22.3148001774346
20
-2.36912025532092
30
0
41
1
10
22.3583770914988
20
-2.37887351522736
30
0
41
1
10
22.5675490367588
20
-2.42303958856562
30
0
41
1
10
22.7327635655423
20
-2.44994561563692
30
0
41
1
10
22.8981194809953
20
-2.46862059761205
30
0
0
SPLINE
5
18F
100
AcDbEntity
8
1
62
256
6
ByLayer
370
18
48
1
60
0
100
AcDbSpline
70
4
71
3
72
10
73
6
40
0
40
0
40
0
40
0
40
0.730124047278735
40
0.730124047278735
40
1
40
1
40
1
40
1
41
1
10
23.2632556586177
20
-2.49636212628877
30
0
41
1
10
23.3240868929884
20
-2.49872534580527
30
0
41
1
10
23.3849522239845
20
-2.49995998590941
30
0
41
1
10
23.4681770023599
20
-2.50009929775794
30
0
41
1
10
23.4906294106832
20
-2.49998304425742
30
0
41
1
10
23.5130752349746
20
-2.49971319704966
30
0
0
SPLINE
5
190
100
AcDbEntity
8
1
62
256
6
ByLayer
370
18
48
1
60
0
100
AcDbSpline
70
4
71
3
72
8
73
4
40
0
40
0
40
0
40
0
40
1
40
1
40
1
40
1
41
1
10
12.2866616041663
20
2.42324646323135
30
0
41
1
10
12.3597231776741
20
2.44166910822418
30
0
41
1
10
12.4308961589614
20
2.46692851256435
30
0
41
1
10
12.5
20
2.49967826542039
30
0
0
SPLINE
5
191
100
AcDbEntity
8
1
62
256
6
ByLayer
370
18
48
1
60
0
100
AcDbSpline
70
4
71
3
72
9
73
5
40
0
40
0
40
0
40
0
40
0.5
40
1
40
1
40
1
40
1
41
1
10
12.2697502504793
20
-2.11475604927759
30
0
41
1
10
12.3094185699222
20
-2.13432437673271
30
0
41
1
10
12.3874727065804
20
-2.17701558404846
30
0
41
1
10
12.4629478770787
20
-2.22685459210135
30
0
41
1
10
12.5000000000011
20
-2.25367390706802
30
0
0
SPLINE
5
192
100
AcDbEntity
8
1
62
256
6
ByLayer
370
18
48
1
60
0
100
AcDbSpline
70
4
71
3
72
8
73
4
40
0
40
0
40
0
40
0
40
1
40
1
40
1
40
1
41
1
10
12.0641101056459
20
-2.03558320379281
30
0
41
1
10
12.1345775351672
20
-2.05552738326912
30
0
41
1
10
12.2033785771928
20
-2.0820149940765
30
0
41
1
10
12.2697502504793
20
-2.11475604927762
30
0
0
SPLINE
5
193
100
AcDbEntity
8
1
62
256
6
ByLayer
370
18
48
1
60
0
100
AcDbSpline
70
4
71
3
72
18
73
14
40
0
40
0
40
0
40
0
40
0.124999999999998
40
0.124999999999998
40
0.249999999999997
40
0.249999999999997
40
0.374999999999995
40
0.374999999999995
40
0.499999999999993
40
0.499999999999993
40
0.749999999999997
40
0.749999999999997
40
1
40
1
40
1
40
1
41
1
10
12.2743851800222
20
-1.75966939469353
30
0
41
1
10
12.2763400410203
20
-1.78210961322497
30
0
41
1
10
12.2808389985708
20
-1.80413947651058
30
0
41
1
10
12.2927596167917
20
-1.84750448699163
30
0
41
1
10
12.3001938959254
20
-1.868841178525
30
0
41
1
10
12.3167667380877
20
-1.91092760442973
30
0
41
1
10
12.3259181078629
20
-1.93168091554648
30
0
41
1
10
12.345241811418
20
-1.97265445635028
30
0
41
1
10
12.3553978294429
20
-1.99282892965104
30
0
41
1
10
12.3867550697823
20
-2.05254835980781
30
0
41
1
10
12.4088207157342
20
-2.09130642130344
30
0
41
1
10
12.4536914143092
20
-2.16701425635719
30
0
41
1
10
12.4765235296338
20
-2.20395470664141
30
0
41
1
10
12.4994053315896
20
-2.24009487703722
30
0
0
SPLINE
5
194
100
AcDbEntity
8
1
62
256
6
ByLayer
370
18
48
1
60
0
100
AcDbSpline
70
4
71
3
72
10
73
6
40
0
40
0
40
0
40
0
40
0.5
40
0.5
40
1
40
1
40
1
40
1
41
1
10
12.274385180032
20
-1.75966939469546
30
0
41
1
10
12.2407595350655
20
-1.73744228462596
30
0
41
1
10
12.2064820633587
20
-1.71648829808635
30
0
41
1
10
12.13646251406
20
-1.67744093826335
30
0
41
1
10
12.1007222267259
20
-1.65934406831559
30
0
41
1
10
12.0641101056459
20
-1.64295003132543
30
0
0
SPLINE
5
195
100
AcDbEntity
8
1
62
256
6
ByLayer
370
18
48
1
60
0
100
AcDbSpline
70
4
71
3
72
10
73
6
40
0
40
0
40
0
40
0
40
0.5
40
0.5
40
1
40
1
40
1
40
1
41
1
10
12.2740496217029
20
1.70724193442555
30
0
41
1
10
12.2404321404488
20
1.72085191086094
30
0
41
1
10
12.2061840689653
20
1.73501824928155
30
0
41
1
10
12.1362737058106
20
1.76459867515902
30
0
41
1
10
12.1006131978275
20
1.78001118888994
30
0
41
1
10
12.0641101056459
20
1.79616710427129
30
0
0
SPLINE
5
196
100
AcDbEntity
8
1
62
256
6
ByLayer
370
18
48
1
60
0
100
AcDbSpline
70
4
71
3
72
28
73
24
40
0
40
0
40
0
40
0
40
0.0624999999999961
40
0.0624999999999961
40
0.124999999999992
40
0.124999999999992
40
0.187499999999988
40
0.187499999999988
40
0.218749999999986
40
0.218749999999986
40
0.249999999999984
40
0.249999999999984
40
0.374999999999997
40
0.374999999999997
40
0.500000000000009
40
0.500000000000009
40
0.56250000000001
40
0.56250000000001
40
0.625000000000011
40
0.625000000000011
40
0.750000000000004
40
0.750000000000004
40
1
40
1
40
1
40
1
41
1
10
10.0788797661373
20
-1.75650952392019
30
0
41
1
10
10.1211564537076
20
-1.7482163427884
30
0
41
1
10
10.1637838213034
20
-1.74218051469271
30
0
41
1
10
10.2495141607094
20
-1.73326456934584
30
0
41
1
10
10.2926208396486
20
-1.73040580594676
30
0
41
1
10
10.379206424426
20
-1.72719211325455
30
0
41
1
10
10.4226865361282
20
-1.72684420043129
30
0
41
1
10
10.488140401725
20
-1.72789666685196
30
0
41
1
10
10.5099758963408
20
-1.72851187249714
30
0
41
1
10
10.5534418105613
20
-1.73021522345323
30
0
41
1
10
10.5751075255856
20
-1.73130387131636
30
0
41
1
10
10.6831284724366
20
-1.73782393606967
30
0
41
1
10
10.7685740519038
20
-1.74644390199063
30
0
41
1
10
10.9379787036547
20
-1.76860298617515
30
0
41
1
10
11.0219311852266
20
-1.78216329470885
30
0
41
1
10
11.1469265110955
20
-1.8052800233113
30
0
41
1
10
11.1884350958324
20
-1.81345125831933
30
0
41
1
10
11.2711630552848
20
-1.83059216452835
30
0
41
1
10
11.3124024448526
20
-1.83956745240235
30
0
41
1
10
11.435127991915
20
-1.86736557106653
30
0
41
1
10
11.5158253695328
20
-1.88709651442355
30
0
41
1
10
11.7551009405327
20
-1.94845359449218
30
0
41
1
10
11.9108662989211
20
-1.99221108129996
30
0
41
1
10
12.0641101056459
20
-2.03558320379281
30
0
0
SPLINE
5
197
100
AcDbEntity
8
1
62
256
6
ByLayer
370
18
48
1
60
0
100
AcDbSpline
70
4
71
3
72
30
73
26
40
0
40
0
40
0
40
0
40
0.250000000000015
40
0.250000000000015
40
0.374999999999983
40
0.374999999999983
40
0.499999999999951
40
0.499999999999951
40
0.62499999999992
40
0.62499999999992
40
0.687499999999932
40
0.687499999999932
40
0.749999999999944
40
0.749999999999944
40
0.781249999999951
40
0.781249999999951
40
0.812499999999958
40
0.812499999999958
40
0.843749999999965
40
0.843749999999965
40
0.874999999999972
40
0.874999999999972
40
0.937499999999986
40
0.937499999999986
40
1
40
1
40
1
40
1
41
1
10
10.9405956604089
20
-0.971657965387806
30
0
41
1
10
10.9291250214631
20
-0.962313561759686
30
0
41
1
10
10.9179230642884
20
-0.952698335127906
30
0
41
1
10
10.9018165417082
20
-0.937591929721691
30
0
41
1
10
10.8965654171275
20
-0.932440980737539
30
0
41
1
10
10.88640847421
20
-0.921804622905739
30
0
41
1
10
10.8815004523523
20
-0.91632216864636
30
0
41
1
10
10.872347876569
20
-0.904933871220805
30
0
41
1
10
10.8680619013511
20
-0.899017443628111
30
0
41
1
10
10.8626511659866
20
-0.88952291138466
30
0
41
1
10
10.8610308209821
20
-0.886269188451848
30
0
41
1
10
10.8584354059616
20
-0.879508392839512
30
0
41
1
10
10.8574650742745
20
-0.876054647357165
30
0
41
1
10
10.8569738721572
20
-0.870661329358057
30
0
41
1
10
10.8569816195084
20
-0.868857303426438
30
0
41
1
10
10.8574613762038
20
-0.865292322679096
30
0
41
1
10
10.8579460144294
20
-0.863515620802389
30
0
41
1
10
10.8594300913993
20
-0.860225060489228
30
0
41
1
10
10.8604544498064
20
-0.858660723653543
30
0
41
1
10
10.8629300396769
20
-0.855896726114082
30
0
41
1
10
10.8643805823697
20
-0.854684490691881
30
0
41
1
10
10.8691190452401
20
-0.851550493215512
30
0
41
1
10
10.8727024928264
20
-0.850146123430733
30
0
41
1
10
10.8800934868575
20
-0.848109226495495
30
0
41
1
10
10.8838799032735
20
-0.847486144280168
30
0
41
1
10
10.8877178469474
20
-0.847087327609017
30
0
0
SPLINE
5
198
100
AcDbEntity
8
1
62
256
6
ByLayer
370
18
48
1
60
0
100
AcDbSpline
70
4
71
3
72
22
73
18
40
0
40
0
40
0
40
0
40
0.250000000000001
40
0.250000000000001
40
0.500000000000001
40
0.500000000000001
40
0.625000000000001
40
0.625000000000001
40
0.750000000000001
40
0.750000000000001
40
0.8125
40
0.8125
40
0.875
40
0.875
40
0.9375
40
0.9375
40
1
40
1
40
1
40
1
41
1
10
11.0541682678559
20
2.21371192835042
30
0
41
1
10
11.0439605745597
20
2.21750330894909
30
0
41
1
10
11.0340005756153
20
2.22133097885444
30
0
41
1
10
11.0149036105678
20
2.22915585878079
30
0
41
1
10
11.0057259192506
20
2.23315109410376
30
0
41
1
10
10.993458386546
20
2.23937646252855
30
0
41
1
10
10.9896134374606
20
2.24149283754392
30
0
41
1
10
10.9828460348735
20
2.24590380845788
30
0
41
1
10
10.9798421525693
20
2.2482165405176
30
0
41
1
10
10.9773453641747
20
2.25184625513353
30
0
41
1
10
10.9768690928279
20
2.25306120549195
30
0
41
1
10
10.9772396002021
20
2.25552064395106
30
0
41
1
10
10.9781662409896
20
2.25674255041653
30
0
41
1
10
10.9817967174999
20
2.25881863092727
30
0
41
1
10
10.9844858098989
20
2.25966817873515
30
0
41
1
10
10.9906319460176
20
2.26092734418907
30
0
41
1
10
10.9939896531645
20
2.26134648318089
30
0
41
1
10
10.9974676036243
20
2.26164906630427
30
0
0
SPLINE
5
199
100
AcDbEntity
8
1
62
256
6
ByLayer
370
18
48
1
60
0
100
AcDbSpline
70
4
71
3
72
8
73
4
40
0
40
0
40
0
40
0
40
1
40
1
40
1
40
1
41
1
10
12.4994053315893
20
-2.24009487703725
30
0
41
1
10
12.4995035579425
20
-2.24419818950562
30
0
41
1
10
12.4997035092359
20
-2.24829957507302
30
0
41
1
10
12.4999999999995
20
-2.2523971347014
30
0
0
SPLINE
5
19A
100
AcDbEntity
8
1
62
256
6
ByLayer
370
18
48
1
60
0
100
AcDbSpline
70
4
71
3
72
8
73
4
40
0
40
0
40
0
40
0
40
1
40
1
40
1
40
1
41
1
10
12.5
20
-2.25239713470552
30
0
41
1
10
12.5
20
-2.25283875936452
30
0
41
1
10
12.5
20
-2.25328038469436
30
0
41
1
10
12.5
20
-2.2537220106951
30
0
0
SPLINE
5
19B
100
AcDbEntity
8
1
62
256
6
ByLayer
370
18
48
1
60
0
100
AcDbSpline
70
4
71
3
72
52
73
48
40
0
40
0
40
0
40
0
40
0.0768698614713653
40
0.0768698614713653
40
0.0960873268392066
40
0.0960873268392066
40
0.115304792207048
40
0.115304792207048
40
0.153739722942731
40
0.153739722942731
40
0.230609584414096
40
0.230609584414096
40
0.26904451514978
40
0.26904451514978
40
0.307479445885464
40
0.307479445885464
40
0.384349307356833
40
0.384349307356833
40
0.422784238092519
40
0.422784238092519
40
0.461219168828205
40
0.49965409956389
40
0.49965409956389
40
0.518871564931732
40
0.518871564931732
40
0.538089030299574
40
0.538089030299574
40
0.614958891770937
40
0.614958891770937
40
0.653393822506618
40
0.653393822506618
40
0.672611287874458
40
0.672611287874458
40
0.691828753242297
40
0.768698614713655
40
0.768698614713655
40
0.807133545449335
40
0.807133545449335
40
0.845568476185015
40
0.845568476185015
40
0.922438337656375
40
0.922438337656375
40
0.960873268392055
40
0.960873268392055
40
0.999308199127736
40
0.999308199127736
40
1
40
1
40
1
40
1
41
1
10
12.5000000000001
20
1.12629957538596
30
0
41
1
10
12.6739186043914
20
1.011402328119
30
0
41
1
10
12.847313321429
20
0.892338610579031
30
0
41
1
10
13.0643044329354
20
0.73944983771662
30
0
41
1
10
13.1077154773054
20
0.708669468595218
30
0
41
1
10
13.1945866398254
20
0.646734345361125
30
0
41
1
10
13.2380682682017
20
0.615563994459222
30
0
41
1
10
13.3683617488443
20
0.521725658189439
30
0
41
1
10
13.4550777444177
20
0.45869172012047
30
0
41
1
10
13.7150756149613
20
0.268556678586094
30
0
41
1
10
13.8882072685689
20
0.140422923189021
30
0
41
1
10
14.1487573364568
20
-0.0523094082975888
30
0
41
1
10
14.2358002300834
20
-0.116677660321642
30
0
41
1
10
14.4094736232016
20
-0.244705420296327
30
0
41
1
10
14.4962082968236
20
-0.308443065126568
30
0
41
1
10
14.7563427181663
20
-0.498521125500559
30
0
41
1
10
14.9296483369343
20
-0.623762831949534
30
0
41
1
10
15.1904763476702
20
-0.807977614228435
30
0
41
1
10
15.2773103654097
20
-0.868586838055194
30
0
41
1
10
15.450734449332
20
-0.987812685197042
30
0
41
1
10
15.6239866501347
20
-1.10510177977096
30
0
41
1
10
15.797281939084
20
-1.21807455116649
30
0
41
1
10
15.9274143651525
20
-1.30100862157514
30
0
41
1
10
15.9708186791811
20
-1.32835394652679
30
0
41
1
10
16.0577055492868
20
-1.38241395983732
30
0
41
1
10
16.1011959403193
20
-1.40913287883703
30
0
41
1
10
16.3183545099956
20
-1.54073787706545
30
0
41
1
10
16.4915859584073
20
-1.63990187579236
30
0
41
1
10
16.7517498337491
20
-1.77847225134263
30
0
41
1
10
16.838520545525
20
-1.82297600402961
30
0
41
1
10
16.9688616507938
20
-1.88709428171251
30
0
41
1
10
17.0123670310958
20
-1.90803965891536
30
0
41
1
10
17.0992912190646
20
-1.94894693197818
30
0
41
1
10
17.3164007874944
20
-2.04876727058181
30
0
41
1
10
17.5327695215367
20
-2.13612416845959
30
0
41
1
10
17.7928588723759
20
-2.22802371522724
30
0
41
1
10
17.879659307329
20
-2.2565133617525
30
0
41
1
10
18.0534924958818
20
-2.30899382826917
30
0
41
1
10
18.1402517631465
20
-2.33290580566418
30
0
41
1
10
18.4003524302766
20
-2.39758367887148
30
0
41
1
10
18.5735226885274
20
-2.43131790987371
30
0
41
1
10
18.8339920495287
20
-2.46755119761974
30
0
41
1
10
18.9210363148726
20
-2.47723636719394
30
0
41
1
10
19.0947674124014
20
-2.49161707199599
30
0
41
1
10
19.1815011804241
20
-2.49631147144598
30
0
41
1
10
19.2697474279632
20
-2.49858298514326
30
0
41
1
10
19.2713076973508
20
-2.49862234254323
30
0
41
1
10
19.2728679522084
20
-2.49866089472911
30
0
0
SPLINE
5
19C
100
AcDbEntity
8
1
62
256
6
ByLayer
370
18
48
1
60
0
100
AcDbSpline
70
4
71
3
72
13
73
9
40
0
40
0
40
0
40
0
40
0.12740450452574
40
0.12740450452574
40
0.528045805497683
40
0.528045805497683
40
0.928687106469626
40
1
40
1
40
1
40
1
41
1
10
19.7470535020303
20
-2.48568372785942
30
0
41
1
10
19.7608588779061
20
-2.48459117204752
30
0
41
1
10
19.7746673507085
20
-2.4834364556645
30
0
41
1
10
19.8319128644479
20
-2.47839318245596
30
0
41
1
10
19.875393759412
20
-2.47394918526712
30
0
41
1
10
19.9622337402278
20
-2.46385441888907
30
0
41
1
10
20.0133405953483
20
-2.45719591335606
30
0
41
1
10
20.0644154792211
20
-2.44970175987464
30
0
41
1
10
20.0721323011362
20
-2.44855031696852
30
0
0
SPLINE
5
19D
100
AcDbEntity
8
1
62
256
6
ByLayer
370
18
48
1
60
0
100
AcDbSpline
70
4
71
3
72
14
73
10
40
0
40
0
40
0
40
0
40
0.0473595144223155
40
0.0473595144223155
40
0.183451012361985
40
0.183451012361985
40
0.455634008241323
40
0.455634008241323
40
1
40
1
40
1
40
1
41
1
10
28.2023380824282
20
2.15426425326092
30
0
41
1
10
28.2174439121502
20
2.15993454738805
30
0
41
1
10
28.2325529095104
20
2.16554181335664
30
0
41
1
10
28.2910930165555
20
2.18701620376405
30
0
41
1
10
28.334575415527
20
2.20243108124711
30
0
41
1
10
28.4649508355269
20
2.24700391115397
30
0
41
1
10
28.55172653202
20
2.27447750548899
30
0
41
1
10
28.8119201553065
20
2.35004143179262
30
0
41
1
10
28.9852050800048
20
2.39128375697757
30
0
41
1
10
29.1590861748921
20
2.42299724530244
30
0
0
SPLINE
5
19E
100
AcDbEntity
8
1
62
256
6
ByLayer
370
18
48
1
60
0
100
AcDbSpline
70
4
71
3
72
8
73
4
40
0
40
0
40
0
40
0
40
1
40
1
40
1
40
1
41
1
10
12.4994386863841
20
1.15321750520661
30
0
41
1
10
12.4995343983603
20
1.14546561251459
30
0
41
1
10
12.499723110503
20
1.13771497521373
30
0
41
1
10
12.4999999999986
20
1.12996454684756
30
0
0
SPLINE
5
19F
100
AcDbEntity
8
1
62
256
6
ByLayer
370
18
48
1
60
0
100
AcDbSpline
70
4
71
3
72
8
73
4
40
0
40
0
40
0
40
0
40
1
40
1
40
1
40
1
41
1
10
12.5
20
1.12996454681848
30
0
41
1
10
12.5
20
1.12874288924706
30
0
41
1
10
12.5
20
1.12752123210288
30
0
41
1
10
12.5
20
1.12629957538596
30
0
0
SPLINE
5
1A0
100
AcDbEntity
8
1
62
256
6
ByLayer
370
18
48
1
60
0
100
AcDbSpline
70
4
71
3
72
72
73
68
40
0
40
0
40
0
40
0
40
0.0019129675893769
40
0.0019129675893769
40
0.0296376073785611
40
0.0296376073785611
40
0.0573622471677452
40
0.0573622471677452
40
0.112811526746112
40
0.112811526746112
40
0.126673846640703
40
0.126673846640703
40
0.140536166535294
40
0.140536166535294
40
0.168260806324476
40
0.168260806324476
40
0.223710085902841
40
0.223710085902841
40
0.251434725692025
40
0.251434725692025
40
0.279159365481208
40
0.279159365481208
40
0.334608645059575
40
0.334608645059575
40
0.348470964954166
40
0.348470964954166
40
0.362333284848758
40
0.39005792463794
40
0.39005792463794
40
0.417782564427123
40
0.417782564427123
40
0.431644884321714
40
0.431644884321714
40
0.445507204216304
40
0.445507204216304
40
0.50095648379467
40
0.50095648379467
40
0.528681123583853
40
0.528681123583853
40
0.556405763373035
40
0.556405763373035
40
0.6118550429514
40
0.6118550429514
40
0.639579682740582
40
0.639579682740582
40
0.653442002635174
40
0.653442002635174
40
0.667304322529767
40
0.722753602108139
40
0.722753602108139
40
0.750478241897326
40
0.750478241897326
40
0.778202881686512
40
0.778202881686512
40
0.833652161264885
40
0.833652161264885
40
0.847514481159478
40
0.847514481159478
40
0.861376801054071
40
0.861376801054071
40
0.889101440843258
40
0.889101440843258
40
0.944550720421627
40
0.944550720421627
40
0.972275360210814
40
0.972275360210814
40
1
40
1
40
1
40
1
41
1
10
19.7730196777134
20
2.22171614409643
30
0
41
1
10
19.7790043080184
20
2.22371057022747
30
0
41
1
10
19.7849892563002
20
2.22569512795366
30
0
41
1
10
19.8777194238404
20
2.25628876163057
30
0
41
1
10
19.9645827640655
20
2.28283982020884
30
0
41
1
10
20.1384552102603
20
2.33156589187439
30
0
41
1
10
20.225238588395
20
2.3536767607298
30
0
41
1
10
20.4854105415669
20
2.41311352597481
30
0
41
1
10
20.6586257127233
20
2.44357690394983
30
0
41
1
10
20.8757208734797
20
2.46995125321857
30
0
41
1
10
20.9191683534445
20
2.4746403261137
30
0
41
1
10
21.0061395806196
20
2.4828429852451
30
0
41
1
10
21.0496601951153
20
2.48635535213145
30
0
41
1
10
21.1800450361574
20
2.49510367570036
30
0
41
1
10
21.2668378219307
20
2.49856442617772
30
0
41
1
10
21.5270462291527
20
2.50181133133407
30
0
41
1
10
21.7002922688229
20
2.49443948232189
30
0
41
1
10
21.9608667635542
20
2.46906547610558
30
0
41
1
10
22.0478781939912
20
2.45821216737821
30
0
41
1
10
22.2214729885643
20
2.43188705183803
30
0
41
1
10
22.3081601936907
20
2.41640796598776
30
0
41
1
10
22.5681672168971
20
2.36313957503882
30
0
41
1
10
22.7414357030936
20
2.31851688283348
30
0
41
1
10
22.9588288632031
20
2.25168126979119
30
0
41
1
10
23.0023337210826
20
2.23776471614633
30
0
41
1
10
23.0892330907179
20
2.20890710408986
30
0
41
1
10
23.219492534322
20
2.16405995615111
30
0
41
1
10
23.349575308119
20
2.11461721895168
30
0
41
1
10
23.5230083334769
20
2.04473295090153
30
0
41
1
10
23.6097179835805
20
2.00781060369306
30
0
41
1
10
23.7398934384801
20
1.94954826249631
30
0
41
1
10
23.7833038681998
20
1.92964756511819
30
0
41
1
10
23.8701836013546
20
1.88890050172716
30
0
41
1
10
23.9136787974786
20
1.86804132932423
30
0
41
1
10
24.1310096814751
20
1.76158756931369
30
0
41
1
10
24.3042411505925
20
1.6696044030671
30
0
41
1
10
24.5642504102184
20
1.52255405806176
30
0
41
1
10
24.6509474358251
20
1.47202632071503
30
0
41
1
10
24.8245763051426
20
1.36815200439827
30
0
41
1
10
24.9116105780772
20
1.31473973186019
30
0
41
1
10
25.1722520973486
20
1.15123496292065
30
0
41
1
10
25.345561953989
20
1.03780486859105
30
0
41
1
10
25.6058068329757
20
0.862224643250784
30
0
41
1
10
25.6925981051781
20
0.802786864991901
30
0
41
1
10
25.8229645726968
20
0.712405074657568
30
0
41
1
10
25.8664770674239
20
0.682055151744009
30
0
41
1
10
25.9534237200653
20
0.621086138541585
30
0
41
1
10
26.1705938523494
20
0.467993915312263
30
0
41
1
10
26.3870484687605
20
0.311921922986926
30
0
41
1
10
26.6471963095451
20
0.123264679623361
30
0
41
1
10
26.7339798589067
20
0.0601510304081785
30
0
41
1
10
26.9078687839177
20
-0.0662789179018546
30
0
41
1
10
26.994737722182
20
-0.129422342336682
30
0
41
1
10
27.2550165074798
20
-0.317995662349404
30
0
41
1
10
27.4282649304459
20
-0.442678402599256
30
0
41
1
10
27.6453130346427
20
-0.596116267665053
30
0
41
1
10
27.6887465505483
20
-0.626683641250452
30
0
41
1
10
27.7756800845476
20
-0.687552092027801
30
0
41
1
10
27.8192073505984
20
-0.717872160198539
30
0
41
1
10
27.9496368072751
20
-0.808201031229345
30
0
41
1
10
28.0364219516344
20
-0.867603699161606
30
0
41
1
10
28.2965228727799
20
-1.04305836293517
30
0
41
1
10
28.4695809985392
20
-1.15636274769628
30
0
41
1
10
28.7297184128358
20
-1.31947792562417
30
0
41
1
10
28.8165648282038
20
-1.37273316908494
30
0
41
1
10
28.9904519432742
20
-1.4766224830127
30
0
41
1
10
29.0772190286123
20
-1.52709399526006
30
0
41
1
10
29.1639004425073
20
-1.57600634978937
30
0
0
SPLINE
5
1A1
100
AcDbEntity
8
1
62
256
6
ByLayer
370
18
48
1
60
0
100
AcDbSpline
70
4
71
3
72
27
73
23
40
0
40
0
40
0
40
0
40
0.0277251433181342
40
0.105970966369784
40
0.145093877895609
40
0.184216789421434
40
0.223339700947259
40
0.262462612473084
40
0.340708435524734
40
0.379831347050559
40
0.418954258576384
40
0.497200081628034
40
0.536322993153859
40
0.575445904679684
40
0.614568816205509
40
0.653691727731334
40
0.731937550782984
40
0.771060462308809
40
0.810183373834634
40
0.888429196886284
40
0.966675019937934
40
1
40
1
40
1
40
1
41
1
10
21.4718305602366
20
2.49964613653677
30
0
41
1
10
21.5389759049186
20
2.49939078212495
30
0
41
1
10
21.7951735411027
20
2.49295045150436
30
0
41
1
10
22.1438009786811
20
2.45580495252801
30
0
41
1
10
22.518236666478
20
2.38353728298853
30
0
41
1
10
22.7985152582706
20
2.31363650057588
30
0
41
1
10
23.0784862487896
20
2.22847727734074
30
0
41
1
10
23.4516784132019
20
2.09528992652417
30
0
41
1
10
23.8251247248673
20
1.93382167471725
30
0
41
1
10
24.1995759709296
20
1.74687709791203
30
0
41
1
10
24.5749486195788
20
1.5438451899337
30
0
41
1
10
24.9521111114765
20
1.31828507536494
30
0
41
1
10
25.3319499818359
20
1.07403715187715
30
0
41
1
10
25.6183884608465
20
0.88242758970037
30
0
41
1
10
25.9066133949538
20
0.683422309025048
30
0
41
1
10
26.2935984809035
20
0.409693486517057
30
0
41
1
10
26.6852998888623
20
0.125725968681849
30
0
41
1
10
27.0834229542182
20
-0.163580864175344
30
0
41
1
10
27.4863992581832
20
-0.454894116025969
30
0
41
1
10
28.0002971044696
20
-0.819013674773259
30
0
41
1
10
28.5157849705022
20
-1.16199716500296
30
0
41
1
10
28.8273762085128
20
-1.35414732395859
30
0
41
1
10
28.9212723231173
20
-1.41046693621789
30
0
0
SPLINE
5
1A2
100
AcDbEntity
8
1
62
256
6
ByLayer
370
18
48
1
60
0
100
AcDbSpline
70
4
71
3
72
8
73
4
40
0
40
0
40
0
40
0
40
1
40
1
40
1
40
1
41
1
10
12.5000000000001
20
1.60423854094853
30
0
41
1
10
12.4242438840398
20
1.63906030841775
30
0
41
1
10
12.3489170123567
20
1.67340595257559
30
0
41
1
10
12.2740496217004
20
1.70724193442783
30
0
0
SPLINE
5
1A3
100
AcDbEntity
8
1
62
256
6
ByLayer
370
18
48
1
60
0
100
AcDbSpline
70
4
71
3
72
18
73
14
40
0
40
0
40
0
40
0
40
0.125
40
0.125
40
0.25
40
0.25
40
0.375
40
0.375
40
0.500000000000001
40
0.500000000000001
40
0.75
40
0.75
40
1
40
1
40
1
40
1
41
1
10
12.2740496217298
20
1.70724193443124
30
0
41
1
10
12.276068429321
20
1.68437734757316
30
0
41
1
10
12.2806684798617
20
1.66179986935973
30
0
41
1
10
12.2927595232681
20
1.61672941050139
30
0
41
1
10
12.3002672788864
20
1.59424238262969
30
0
41
1
10
12.3169506859593
20
1.54912578452445
30
0
41
1
10
12.326142280683
20
1.52649027213022
30
0
41
1
10
12.3455102461174
20
1.48100081938998
30
0
41
1
10
12.3556756561425
20
1.45818652079239
30
0
41
1
10
12.3870351905906
20
1.38938742170606
30
0
41
1
10
12.4090694501865
20
1.34302375092659
30
0
41
1
10
12.4538485053025
20
1.24906191339881
30
0
41
1
10
12.4766202639068
20
1.20147632011171
30
0
41
1
10
12.4994386863843
20
1.15321750520655
30
0
0
SPLINE
5
1A4
100
AcDbEntity
8
1
62
256
6
ByLayer
370
18
48
1
60
0
100
AcDbSpline
70
4
71
3
72
101
73
97
40
0
40
0
40
0
40
0
40
0.0139316463558898
40
0.0139316463558898
40
0.0337772476475101
40
0.0337772476475101
40
0.0536228489391303
40
0.0536228489391303
40
0.0933140515223708
40
0.0933140515223708
40
0.103236852168181
40
0.103236852168181
40
0.113159652813992
40
0.133005254105612
40
0.133005254105612
40
0.152850855397233
40
0.152850855397233
40
0.162773656043043
40
0.162773656043043
40
0.172696456688854
40
0.172696456688854
40
0.212387659272097
40
0.212387659272097
40
0.252078861855341
40
0.252078861855341
40
0.291770064438584
40
0.291770064438584
40
0.301692865084395
40
0.301692865084395
40
0.311615665730206
40
0.311615665730206
40
0.331461267021828
40
0.331461267021828
40
0.371152469605069
40
0.371152469605069
40
0.381075270250879
40
0.381075270250879
40
0.390998070896689
40
0.410843672188309
40
0.410843672188309
40
0.430689273479928
40
0.430689273479928
40
0.440612074125738
40
0.440612074125738
40
0.450534874771548
40
0.450534874771548
40
0.490226077354788
40
0.490226077354788
40
0.510071678646408
40
0.510071678646408
40
0.529917279938028
40
0.529917279938028
40
0.569608482521268
40
0.569608482521268
40
0.589454083812889
40
0.589454083812889
40
0.60929968510451
40
0.60929968510451
40
0.629145286396131
40
0.629145286396131
40
0.639068087041941
40
0.639068087041941
40
0.648990887687751
40
0.648990887687751
40
0.688682090270995
40
0.688682090270995
40
0.708527691562616
40
0.708527691562616
40
0.718450492208427
40
0.718450492208427
40
0.728373292854238
40
0.728373292854238
40
0.768064495437478
40
0.768064495437478
40
0.777987296083288
40
0.777987296083288
40
0.787910096729098
40
0.787910096729098
40
0.807755698020718
40
0.807755698020718
40
0.847446900603958
40
0.847446900603958
40
0.857369701249769
40
0.857369701249769
40
0.867292501895579
40
0.8871381031872
40
0.8871381031872
40
0.906983704478821
40
0.906983704478821
40
0.926829305770441
40
0.926829305770441
40
0.966520508353683
40
0.966520508353683
40
0.986366109645304
40
0.986366109645304
40
1
40
1
40
1
40
1
41
1
10
15.4425048684075
20
1.99651360640698
30
0
41
1
10
15.5033467401374
20
2.02463082694629
30
0
41
1
10
15.5641880851794
20
2.05170334501187
30
0
41
1
10
15.7117885960869
20
2.11474073626565
30
0
41
1
10
15.7986122145147
20
2.1496165691984
30
0
41
1
10
15.9725224470647
20
2.21480184798423
30
0
41
1
10
16.0593133037806
20
2.2450019097723
30
0
41
1
10
16.3195223435434
20
2.32825195531393
30
0
41
1
10
16.4927887716786
20
2.37392103334781
30
0
41
1
10
16.7101087429559
20
2.41827115450414
30
0
41
1
10
16.7536357519563
20
2.42651110776762
30
0
41
1
10
16.8406420508367
20
2.44168855662687
30
0
41
1
10
16.9710279701815
20
2.46249405347908
30
0
41
1
10
17.1011370808491
20
2.47743597302926
30
0
41
1
10
17.274561407094
20
2.49211187605999
30
0
41
1
10
17.3612464870932
20
2.49682336976687
30
0
41
1
10
17.4913932467218
20
2.49989429133583
30
0
41
1
10
17.5347954314239
20
2.50025246423061
30
0
41
1
10
17.6216677625767
20
2.49962856886194
30
0
41
1
10
17.6651799251847
20
2.49864373480074
30
0
41
1
10
17.8822228072209
20
2.49038181183215
30
0
41
1
10
18.0545050376846
20
2.47311857502999
30
0
41
1
10
18.39818701864
20
2.41834519073115
30
0
41
1
10
18.5695926302203
20
2.38086693679912
30
0
41
1
10
18.9130234524897
20
2.28653074236755
30
0
41
1
10
19.0850169282765
20
2.22964465816329
30
0
41
1
10
19.3013340797248
20
2.1464329300666
30
0
41
1
10
19.3446644351847
20
2.12918632937925
30
0
41
1
10
19.431484045093
20
2.09349445668741
30
0
41
1
10
19.4750122699097
20
2.07503149569035
30
0
41
1
10
19.6053967215889
20
2.01807105985586
30
0
41
1
10
19.6921543008578
20
1.97796451446124
30
0
41
1
10
19.9522470468898
20
1.85155860921313
30
0
41
1
10
20.1253982587838
20
1.75918650843119
30
0
41
1
10
20.3426717741078
20
1.63441415978991
30
0
41
1
10
20.3861808840465
20
1.60898556840823
30
0
41
1
10
20.4730771442853
20
1.5573590789578
30
0
41
1
10
20.6033225358549
20
1.47871975701639
30
0
41
1
10
20.7333905855302
20
1.39664671183937
30
0
41
1
10
20.9068580402357
20
1.28439030018345
30
0
41
1
10
20.9936140575079
20
1.22684919638158
30
0
41
1
10
21.1239154265651
20
1.13857976310376
30
0
41
1
10
21.167376847893
20
1.10883008858315
30
0
41
1
10
21.2543767948245
20
1.04869673338624
30
0
41
1
10
21.2979017482777
20
1.01832135382293
30
0
41
1
10
21.5151976957498
20
0.865321172222082
30
0
41
1
10
21.6884240594047
20
0.739022220832368
30
0
41
1
10
21.9485948638358
20
0.545283042914264
30
0
41
1
10
22.0353746538236
20
0.479990690423875
30
0
41
1
10
22.2092650902519
20
0.348253541752627
30
0
41
1
10
22.2960939014714
20
0.2820225610904
30
0
41
1
10
22.5562619672526
20
0.0829123545813673
30
0
41
1
10
22.7294197555242
20
-0.050477728011515
30
0
41
1
10
22.9900169274682
20
-0.249851253405012
30
0
41
1
10
23.0771016860817
20
-0.316249004660477
30
0
41
1
10
23.2508524185805
20
-0.447868930261706
30
0
41
1
10
23.3376166071619
20
-0.513167356825278
30
0
41
1
10
23.5110963159164
20
-0.642527393089381
30
0
41
1
10
23.5978093722698
20
-0.706592558750941
30
0
41
1
10
23.7279812703172
20
-0.801587723496908
30
0
41
1
10
23.7713891102952
20
-0.833068728055792
30
0
41
1
10
23.8582648853915
20
-0.895629152372891
30
0
41
1
10
23.9017589292745
20
-0.926727043910375
30
0
41
1
10
24.1191199669588
20
-1.08089150017233
30
0
41
1
10
24.2922989543561
20
-1.19972951617788
30
0
41
1
10
24.5523460007966
20
-1.36969428252297
30
0
41
1
10
24.6390752863179
20
-1.42496789534073
30
0
41
1
10
24.7694030160745
20
-1.5056301915121
30
0
41
1
10
24.8129126707369
20
-1.53215951621337
30
0
41
1
10
24.8998410588002
20
-1.58432180478223
30
0
41
1
10
24.9432699578994
20
-1.60996165141771
30
0
41
1
10
25.1603033835977
20
-1.735901588308
30
0
41
1
10
25.3335840947237
20
-1.82942608391329
30
0
41
1
10
25.550705762641
20
-1.93638035240602
30
0
41
1
10
25.5941553957943
20
-1.95727435505412
30
0
41
1
10
25.6811263652222
20
-1.998046198098
30
0
41
1
10
25.7246621199319
20
-2.01792972985723
30
0
41
1
10
25.8550687455837
20
-2.07587091900552
30
0
41
1
10
25.9418463122293
20
-2.1122719226731
30
0
41
1
10
26.2020041589466
20
-2.21461675653188
30
0
41
1
10
26.375205543467
20
-2.27370789115292
30
0
41
1
10
26.5925059541131
20
-2.33539974688208
30
0
41
1
10
26.6359909668634
20
-2.34712353005199
30
0
41
1
10
26.722838592077
20
-2.36927761987337
30
0
41
1
10
26.8530094098735
20
-2.40059257883604
30
0
41
1
10
26.9830055597103
20
-2.42612789658634
30
0
41
1
10
27.156395962158
20
-2.4549845824703
30
0
41
1
10
27.2431222736124
20
-2.46681863461816
30
0
41
1
10
27.4168434044047
20
-2.48523710632131
30
0
41
1
10
27.5039388108282
20
-2.49182121417988
30
0
41
1
10
27.7646498571175
20
-2.50354844583143
30
0
41
1
10
27.9379662028869
20
-2.50073339773789
30
0
41
1
10
28.1982996816901
20
-2.48061578194876
30
0
41
1
10
28.2851831256245
20
-2.47125277382341
30
0
41
1
10
28.4318894367791
20
-2.4509912546408
30
0
41
1
10
28.4914772086789
20
-2.44151848902163
30
0
41
1
10
28.5509454270193
20
-2.43084880276348
30
0
0
SPLINE
5
1A5
100
AcDbEntity
8
1
62
256
6
ByLayer
370
18
48
1
60
0
100
AcDbSpline
70
4
71
3
72
43
73
39
40
0
40
0
40
0
40
0
40
0.0034861881552169
40
0.0296882106239024
40
0.0558902330925881
40
0.108294278029959
40
0.134496300498645
40
0.147597311732988
40
0.16069832296733
40
0.213102367904701
40
0.239304390373387
40
0.25240540160773
40
0.265506412842073
40
0.291708435310758
40
0.317910457779444
40
0.344112480248129
40
0.357213491482472
40
0.370314502716815
40
0.396516525185501
40
0.422718547654186
40
0.448920570122872
40
0.475122592591557
40
0.501324615060243
40
0.527526637528928
40
0.5799306824663
40
0.606132704934985
40
0.632334727403671
40
0.684738772341042
40
0.710940794809727
40
0.737142817278413
40
0.763344839747099
40
0.789546862215784
40
0.841950907153155
40
0.868152929621841
40
0.894354952090527
40
0.946758997027898
40
0.999163041965269
40
1
40
1
40
1
40
1
41
1
10
17.6036517276967
20
2.49968628710633
30
0
41
1
10
17.6165448250412
20
2.49963492869298
30
0
41
1
10
17.7263416490042
20
2.49869536292167
30
0
41
1
10
17.9330392609361
20
2.48886601545888
30
0
41
1
10
18.3206051655401
20
2.44396660886724
30
0
41
1
10
18.7080608266784
20
2.3599553176071
30
0
41
1
10
19.0468446931922
20
2.25430660516469
30
0
41
1
10
19.2403491573904
20
2.18505332554486
30
0
41
1
10
19.5305042546403
20
2.07244025269304
30
0
41
1
10
19.8686315163668
20
1.91644903264725
30
0
41
1
10
20.2058508585738
20
1.73537636121981
30
0
41
1
10
20.3982246457544
20
1.62537674031913
30
0
41
1
10
20.59036456013
20
1.51123212233912
30
0
41
1
10
20.830068825145
20
1.36129608304111
30
0
41
1
10
21.1168288662426
20
1.17135911682755
30
0
41
1
10
21.3548849935003
20
1.00618983361224
30
0
41
1
10
21.5446499175296
20
0.870839785345368
30
0
41
1
10
21.7339348174634
20
0.733613623715058
30
0
41
1
10
21.9697699652348
20
0.55901198471085
30
0
41
1
10
22.2517649361069
20
0.346015983287998
30
0
41
1
10
22.5329832617757
20
0.13102171336044
30
0
41
1
10
22.8136720796541
20
-0.0845314004268118
30
0
41
1
10
23.0940623762769
20
-0.299210931515574
30
0
41
1
10
23.467816319505
20
-0.582426786750318
30
0
41
1
10
23.8417751009448
20
-0.8582179244261
30
0
41
1
10
24.2165619153188
20
-1.12089124658584
30
0
41
1
10
24.5921095875407
20
-1.37296196358412
30
0
41
1
10
24.9691592682927
20
-1.60633495399168
30
0
41
1
10
25.3485012143086
20
-1.81588762960317
30
0
41
1
10
25.6343523777554
20
-1.95986363049406
30
0
41
1
10
25.921743989687
20
-2.08939894659127
30
0
41
1
10
26.3072169585516
20
-2.24135118310596
30
0
41
1
10
26.696885575766
20
-2.35990315732087
30
0
41
1
10
27.0927137328295
20
-2.44083188606712
30
0
41
1
10
27.493300846129
20
-2.49531125869456
30
0
41
1
10
28.0042178052431
20
-2.51104421539219
30
0
41
1
10
28.4306190031134
20
-2.46156236827036
30
0
41
1
10
28.6500814729463
20
-2.41927276417641
30
0
41
1
10
28.6535325956947
20
-2.4186036708148
30
0
0
SPLINE
5
1A6
100
AcDbEntity
8
1
62
256
6
ByLayer
370
18
48
1
60
0
100
AcDbSpline
70
4
71
3
72
44
73
40
40
0
40
0
40
0
40
0
40
0.0184066875141708
40
0.0425780016127133
40
0.0909206298097984
40
0.115091943908341
40
0.139263258006883
40
0.187605886203969
40
0.211777200302511
40
0.235948514401054
40
0.284291142598139
40
0.308462456696681
40
0.332633770795224
40
0.380976398992309
40
0.405147713090852
40
0.429319027189394
40
0.453490341287937
40
0.477661655386479
40
0.526004283583564
40
0.550175597682107
40
0.562261254731378
40
0.574346911780649
40
0.598518225879192
40
0.622689539977735
40
0.646860854076277
40
0.67103216817482
40
0.695203482273362
40
0.719374796371905
40
0.743546110470447
40
0.755631767519719
40
0.76771742456899
40
0.791888738667532
40
0.816060052766075
40
0.86440268096316
40
0.888573995061703
40
0.912745309160245
40
0.96108793735733
40
0.985259251455873
40
1
40
1
40
1
40
1
41
1
10
12.499427976026
20
2.49970428782743
30
0
41
1
10
12.5721189645597
20
2.49950971571457
30
0
41
1
10
12.7402494602296
20
2.49531502037323
30
0
41
1
10
13.099247983366
20
2.46793244713262
30
0
41
1
10
13.4811132941834
20
2.40567439875394
30
0
41
1
10
13.8633425106588
20
2.31165959225942
30
0
41
1
10
14.2458996106986
20
2.19694453035308
30
0
41
1
10
14.6290728669826
20
2.05191313414826
30
0
41
1
10
15.0129192356562
20
1.87966650940896
30
0
41
1
10
15.397242233228
20
1.69032038514365
30
0
41
1
10
15.7823380123143
20
1.47689344510056
30
0
41
1
10
16.1683140152755
20
1.24369552006485
30
0
41
1
10
16.5548485547604
20
0.998840912693282
30
0
41
1
10
16.9421810082111
20
0.738834025638511
30
0
41
1
10
17.3300462860849
20
0.469307205173436
30
0
41
1
10
17.6211539822424
20
0.263775746935067
30
0
41
1
10
17.912405382511
20
0.0562839329340648
30
0
41
1
10
18.3008338264579
20
-0.220943506839092
30
0
41
1
10
18.689249576629
20
-0.496039226587328
30
0
41
1
10
19.0287397083686
20
-0.729711211948285
30
0
41
1
10
19.2225829298084
20
-0.860492000325678
30
0
41
1
10
19.4163001427671
20
-0.989229615191448
30
0
41
1
10
19.6581869589759
20
-1.14582329001121
30
0
41
1
10
19.9479283052835
20
-1.32563471872217
30
0
41
1
10
20.2370229872827
20
-1.49605027936502
30
0
41
1
10
20.5253613817266
20
-1.65580845664155
30
0
41
1
10
20.8128621378316
20
-1.80387271366061
30
0
41
1
10
21.0993406061149
20
-1.93947468667412
30
0
41
1
10
21.337117546184
20
-2.04138968354971
30
0
41
1
10
21.5266672150949
20
-2.11575093127334
30
0
41
1
10
21.7157368338227
20
-2.18533909210768
30
0
41
1
10
21.9513116225583
20
-2.26305225703254
30
0
41
1
10
22.3268796487706
20
-2.36749708663385
30
0
41
1
10
22.7008855967865
20
-2.44153543007766
30
0
41
1
10
23.0742703959465
20
-2.48423121035418
30
0
41
1
10
23.4475573257232
20
-2.50573346118358
30
0
41
1
10
23.8211184246336
20
-2.49517023400824
30
0
41
1
10
24.1591674453889
20
-2.45689155348941
30
0
41
1
10
24.3102263748897
20
-2.43295698305835
30
0
41
1
10
24.3675022395173
20
-2.42290927662594
30
0
0
SPLINE
5
1A7
100
AcDbEntity
8
1
62
256
6
ByLayer
370
18
48
1
60
0
100
AcDbSpline
70
4
71
2
72
6
73
3
40
0
40
0
40
0
40
1
40
1
40
1
41
1
10
15.3556370663076
20
-1.15440724447609
30
0
41
1
10
15.4591526705589
20
-1.09836021459117
30
0
41
1
10
15.5616716844694
20
-1.048735259484
30
0
0
SPLINE
5
1A8
100
AcDbEntity
8
1
62
256
6
ByLayer
370
18
48
1
60
0
100
AcDbSpline
70
4
71
2
72
6
73
3
40
0
40
0
40
0
40
1
40
1
40
1
41
1
10
29.8381428723276
20
-1.76007199466358
30
0
41
1
10
29.8618981916373
20
-1.71226944138019
30
0
41
1
10
29.8856535109471
20
-1.66446688809677
30
0
0
SPLINE
5
1A9
100
AcDbEntity
8
1
62
256
6
ByLayer
370
18
48
1
60
0
100
AcDbSpline
70
4
71
1
72
4
73
2
40
0
40
0
40
1
40
1
41
1
10
29.5125542814168
20
-2.16145755275542
30
0
41
1
10
29.5740451020329
20
-2.10607163370594
30
0
0
SPLINE
5
1AA
100
AcDbEntity
8
1
62
256
6
ByLayer
370
18
48
1
60
0
100
AcDbSpline
70
4
71
3
72
9
73
5
40
0
40
0
40
0
40
0
40
0.61375730540167
40
1
40
1
40
1
40
1
41
1
10
29.3828748680284
20
1.79571770654974
30
0
41
1
10
29.2454658885253
20
1.83591794612116
30
0
41
1
10
29.0216955592904
20
1.89665991506124
30
0
41
1
10
28.797686368697
20
1.94984056905716
30
0
41
1
10
28.7112976774844
20
1.96917735762742
30
0
0
SPLINE
5
1AB
100
AcDbEntity
8
1
62
256
6
ByLayer
370
18
48
1
60
0
100
AcDbSpline
70
4
71
3
72
12
73
8
40
0
40
0
40
0
40
0
40
0.350215573781956
40
0.608245798784698
40
0.774889239961328
40
0.906822860085168
40
1
40
1
40
1
40
1
41
1
10
15.6271644756164
20
-2.19280678851047
30
0
41
1
10
15.8112642455747
20
-2.18504275622701
30
0
41
1
10
16.1313280353704
20
-2.16151984531638
30
0
41
1
10
16.5392385740128
20
-2.10904022790047
30
0
41
1
10
16.8332630592983
20
-2.06055999756617
30
0
41
1
10
17.0403697883722
20
-2.02116983957168
30
0
41
1
10
17.1590077190132
20
-1.99642779874685
30
0
41
1
10
17.2080943493072
20
-1.98582320549531
30
0
0
SPLINE
5
1AC
100
AcDbEntity
8
1
62
256
6
ByLayer
370
18
48
1
60
0
100
AcDbSpline
70
4
71
1
72
4
73
2
40
0
40
0
40
1
40
1
41
1
10
29.8854649174655
20
1.10690279557164
30
0
41
1
10
29.6415384827918
20
1.64323093115843
30
0
0
SPLINE
5
1AD
100
AcDbEntity
8
1
62
256
6
ByLayer
370
18
48
1
60
0
100
AcDbSpline
70
4
71
2
72
6
73
3
40
0
40
0
40
0
40
1
40
1
40
1
41
1
10
17.5965426456328
20
1.30241656145714
30
0
41
1
10
17.0815230663265
20
1.4240277344943
30
0
41
1
10
16.5740019331082
20
1.62505511993703
30
0
0
SPLINE
5
1AE
100
AcDbEntity
8
1
62
256
6
ByLayer
370
18
48
1
60
0
100
AcDbSpline
70
4
71
2
72
6
73
3
40
0
40
0
40
0
40
1
40
1
40
1
41
1
10
29.9504599108098
20
0.816206299817594
30
0
41
1
10
29.9286144573151
20
0.940634143086754
30
0
41
1
10
29.9067690038202
20
1.06506198635591
30
0
0
SPLINE
5
1AF
100
AcDbEntity
8
1
62
256
6
ByLayer
370
18
48
1
60
0
100
AcDbSpline
70
4
71
2
72
6
73
3
40
0
40
0
40
0
40
1
40
1
40
1
41
1
10
22.3182199556367
20
1.14088314584669
30
0
41
1
10
21.9015839405978
20
1.25585759072848
30
0
41
1
10
21.4825582850417
20
1.46644032125275
30
0
0
SPLINE
5
1B0
100
AcDbEntity
8
1
62
256
6
ByLayer
370
18
48
1
60
0
100
AcDbSpline
70
4
71
2
72
6
73
3
40
0
40
0
40
0
40
1
40
1
40
1
41
1
10
29.1252269819412
20
-2.19276062332838
30
0
41
1
10
29.2582890316478
20
-2.18662165842045
30
0
41
1
10
29.3913427475534
20
-2.17534728583658
30
0
0
SPLINE
5
1B1
100
AcDbEntity
8
1
62
256
6
ByLayer
370
18
48
1
60
0
100
AcDbSpline
70
4
71
2
72
6
73
3
40
0
40
0
40
0
40
1
40
1
40
1
41
1
10
13.9411355707362
20
0.957735534156711
30
0
41
1
10
13.5695006772438
20
1.08242558673041
30
0
41
1
10
13.1844663873296
20
1.28855666829492
30
0
0
SPLINE
5
1B2
100
AcDbEntity
8
1
62
256
6
ByLayer
370
18
48
1
60
0
100
AcDbSpline
70
4
71
2
72
6
73
3
40
0
40
0
40
0
40
1
40
1
40
1
41
1
10
24.8993248605852
20
-2.19271674985907
30
0
41
1
10
25.4004342010248
20
-2.17018263760514
30
0
41
1
10
25.8995740762225
20
-2.0882404422704
30
0
0
SPLINE
5
1B3
100
AcDbEntity
8
1
62
256
6
ByLayer
370
18
48
1
60
0
100
AcDbSpline
70
4
71
1
72
4
73
2
40
0
40
0
40
1
40
1
41
1
10
20.9545310759371
20
-2.18014706017806
30
0
41
1
10
21.077304865108
20
-2.1680118969953
30
0
0
SPLINE
5
1B4
100
AcDbEntity
8
1
62
256
6
ByLayer
370
18
48
1
60
0
100
AcDbSpline
70
4
71
2
72
6
73
3
40
0
40
0
40
0
40
1
40
1
40
1
41
1
10
21.077304865108
20
-2.1680118969953
30
0
41
1
10
21.2161779085316
20
-2.15656969744094
30
0
41
1
10
21.355005690448
20
-2.13457765169588
30
0
0
SPLINE
5
1B5
100
AcDbEntity
8
1
62
256
6
ByLayer
370
18
48
1
60
0
100
AcDbSpline
70
4
71
1
72
4
73
2
40
0
40
0
40
1
40
1
41
1
10
21.355005690448
20
-2.13457765169588
30
0
41
1
10
21.4405100424826
20
-2.12287634639409
30
0
0
SPLINE
5
1B6
100
AcDbEntity
8
1
62
256
6
ByLayer
370
18
48
1
60
0
100
AcDbSpline
70
4
71
2
72
6
73
3
40
0
40
0
40
0
40
1
40
1
40
1
41
1
10
26.3995896236328
20
1.16993185094961
30
0
41
1
10
25.9450360894329
20
1.28360995451436
30
0
41
1
10
25.4860899454358
20
1.49805675889513
30
0
0
SPLINE
5
1B7
100
AcDbEntity
8
1
62
256
6
ByLayer
370
18
48
1
60
0
100
AcDbSpline
70
4
71
2
72
6
73
3
40
0
40
0
40
0
40
1
40
1
40
1
41
1
10
25.6177632338165
20
2.49967392707012
30
0
41
1
10
25.6177925536665
20
2.49967474611702
30
0
41
1
10
25.6178218732294
20
2.49967531662654
30
0
0
SPLINE
5
1B8
100
AcDbEntity
8
1
62
256
6
ByLayer
370
18
48
1
60
0
100
AcDbSpline
70
4
71
2
72
6
73
3
40
0
40
0
40
0
40
1
40
1
40
1
41
1
10
21.4720056572706
20
2.49964546739943
30
0
41
1
10
21.4720213730553
20
2.49964394459812
30
0
41
1
10
21.4720370889936
20
2.49964228278986
30
0
0
SPLINE
5
1B9
100
AcDbEntity
8
1
62
256
6
ByLayer
370
18
48
1
60
0
100
AcDbSpline
70
4
71
2
72
6
73
3
40
0
40
0
40
0
40
1
40
1
40
1
41
1
10
21.7309644971896
20
1.25169215953042
30
0
41
1
10
21.7309648443533
20
1.25167919540161
30
0
41
1
10
21.7309651915171
20
1.25166618672989
30
0
0
SPLINE
5
1BA
100
AcDbEntity
8
1
62
256
6
ByLayer
370
18
48
1
60
0
100
AcDbSpline
70
4
71
2
72
6
73
3
40
0
40
0
40
0
40
1
40
1
40
1
41
1
10
13.0901355939521
20
1.26301475079922
30
0
41
1
10
13.0901395988914
20
1.26369386821483
30
0
41
1
10
13.0901436038308
20
1.26437249319375
30
0
0
SPLINE
5
1BB
100
AcDbEntity
8
1
62
256
6
ByLayer
370
18
48
1
60
0
100
AcDbSpline
70
4
71
2
72
6
73
3
40
0
40
0
40
0
40
1
40
1
40
1
41
1
10
23.5135570381299
20
-2.49970674402266
30
0
41
1
10
23.5135236480624
20
-2.49970715702801
30
0
41
1
10
23.5134902580454
20
-2.49970727545019
30
0
0
SPLINE
5
1BC
100
AcDbEntity
8
1
62
256
6
ByLayer
370
18
48
1
60
0
100
AcDbSpline
70
4
71
2
72
6
73
3
40
0
40
0
40
0
40
1
40
1
40
1
41
1
10
29.9299031600029
20
-0.107355204578198
30
0
41
1
10
29.9514639071344
20
0.063027069545825
30
0
41
1
10
29.9730202092736
20
0.233374098031675
30
0
0
LINE
5
79
100
AcDbEntity
8
80
62
256
6
ByLayer
370
18
48
1
60
0
100
AcDbLine
10
0
20
0
30
0
11
-5
21
0
31
0
39
0
210
0
220
0
230
1
0
LINE
5
7A
100
AcDbEntity
8
4
62
256
6
ByLayer
370
18
48
0.05
60
0
100
AcDbLine
10
0
20
0
30
0
11
30
21
0
31
0
39
0
210
0
220
0
230
1
0
LINE
5
7C
100
AcDbEntity
8
81
62
256
6
ByLayer
370
18
48
1
60
0
100
AcDbLine
10
30
20
0
30
0
11
35
21
0
31
0
39
0
210
0
220
0
230
1
0
LINE
5
7D
100
AcDbEntity
8
SK4
62
256
6
ByLayer
370
18
48
0.05
60
0
100
AcDbLine
10
-36
20
0
30
0
11
30
21
0
31
0
39
0
210
0
220
0
230
1
0
LINE
5
7F
100
AcDbEntity
8
1
62
256
6
ByLayer
370
18
48
1
60
0
100
AcDbLine
10
0
20
3
30
0
11
0
21
0
31
0
39
0
210
0
220
0
230
1
0
LINE
5
80
100
AcDbEntity
8
1
62
256
6
ByLayer
370
18
48
1
60
0
100
AcDbLine
10
0
20
0
30
0
11
0
21
-3
31
0
39
0
210
0
220
0
230
1
0
LINE
5
81
100
AcDbEntity
8
1
62
256
6
ByLayer
370
18
48
1
60
0
100
AcDbLine
10
29.964979
20
0.196469
30
0
11
29.972838
21
0.232449
31
0
39
0
210
0
220
0
230
1
0
LINE
5
82
100
AcDbEntity
8
1
62
256
6
ByLayer
370
18
48
1
60
0
100
AcDbLine
10
29.931044
20
-0.097827
30
0
11
29.92041
21
-0.146102
31
0
39
0
210
0
220
0
230
1
0
LINE
5
83
100
AcDbEntity
8
1
62
256
6
ByLayer
370
18
48
1
60
0
100
AcDbLine
10
29.927046
20
-0.087957
30
0
11
29.964979
21
0.196469
31
0
39
0
210
0
220
0
230
1
0
LINE
5
84
100
AcDbEntity
8
1
62
256
6
ByLayer
370
18
48
1
60
0
100
AcDbLine
10
29.938754
20
0.191256
30
0
11
29.964979
21
0.196469
31
0
39
0
210
0
220
0
230
1
0
LINE
5
85
100
AcDbEntity
8
1
62
256
6
ByLayer
370
18
48
1
60
0
100
AcDbLine
10
29.825905
20
-0.383555
30
0
11
29.92041
21
-0.146102
31
0
39
0
210
0
220
0
230
1
0
LINE
5
86
100
AcDbEntity
8
1
62
256
6
ByLayer
370
18
48
1
60
0
100
AcDbLine
10
29.92041
20
-0.146102
30
0
11
29.927046
21
-0.087957
31
0
39
0
210
0
220
0
230
1
0
LINE
5
87
100
AcDbEntity
8
1
62
256
6
ByLayer
370
18
48
1
60
0
100
AcDbLine
10
29.927046
20
-0.087957
30
0
11
29.687087
21
-0.108107
31
0
39
0
210
0
220
0
230
1
0
LINE
5
88
100
AcDbEntity
8
1
62
256
6
ByLayer
370
13
48
1
60
0
100
AcDbLine
10
29.665293
20
-0.109492
30
0
11
29.643125
21
-0.145597
31
0
39
0
210
0
220
0
230
1
0
LINE
5
89
100
AcDbEntity
8
1
62
256
6
ByLayer
370
18
48
1
60
0
100
AcDbLine
10
29.967034
20
-1.069908
30
0
11
29.972838
21
-1.261755
31
0
39
0
210
0
220
0
230
1
0
LINE
5
8A
100
AcDbEntity
8
1
62
256
6
ByLayer
370
18
48
1
60
0
100
AcDbLine
10
29.936116
20
0.093111
30
0
11
29.94346
21
0.366299
31
0
39
0
210
0
220
0
230
1
0
LINE
5
8B
100
AcDbEntity
8
1
62
256
6
ByLayer
370
18
48
1
60
0
100
AcDbLine
10
29.954903
20
0.791993
30
0
11
29.972838
21
1.459157
31
0
39
0
210
0
220
0
230
1
0
LINE
5
8C
100
AcDbEntity
8
1
62
256
6
ByLayer
370
18
48
1
60
0
100
AcDbLine
10
29.923191
20
-0.06616
30
0
11
29.908828
21
-0.064606
31
0
39
0
210
0
220
0
230
1
0
LINE
5
8D
100
AcDbEntity
8
1
62
256
6
ByLayer
370
18
48
1
60
0
100
AcDbLine
10
29.923191
20
-0.06616
30
0
11
29.933459
21
-0.025507
31
0
39
0
210
0
220
0
230
1
0
LINE
5
8E
100
AcDbEntity
8
1
62
256
6
ByLayer
370
18
48
1
60
0
100
AcDbLine
10
29.931044
20
-1.345857
30
0
11
29.928156
21
-1.249223
31
0
39
0
210
0
220
0
230
1
0
LINE
5
8F
100
AcDbEntity
8
1
62
256
6
ByLayer
370
13
48
1
60
0
100
AcDbLine
10
11.025332
20
-2.371156
30
0
11
12.40152
21
-2.194262
31
0
39
0
210
0
220
0
230
1
0
LINE
5
90
100
AcDbEntity
8
1
62
256
6
ByLayer
370
13
48
1
60
0
100
AcDbLine
10
12.286662
20
2.423246
30
0
11
12.5
21
2.327847
31
0
39
0
210
0
220
0
230
1
0
LINE
5
91
100
AcDbEntity
8
1
62
256
6
ByLayer
370
13
48
1
60
0
100
AcDbLine
10
29.828442
20
0.330395
30
0
11
29.936116
21
0.093111
31
0
39
0
210
0
220
0
230
1
0
LINE
5
92
100
AcDbEntity
8
1
62
256
6
ByLayer
370
18
48
1
60
0
100
AcDbLine
10
29.648172
20
-1.641027
30
0
11
29.714221
21
-1.515473
31
0
39
0
210
0
220
0
230
1
0
LINE
5
93
100
AcDbEntity
8
1
62
256
6
ByLayer
370
18
48
1
60
0
100
AcDbLine
10
29.956799
20
-0.630215
30
0
11
29.972838
21
-1.043142
31
0
39
0
210
0
220
0
230
1
0
LINE
5
94
100
AcDbEntity
8
1
62
256
6
ByLayer
370
18
48
1
60
0
100
AcDbLine
10
29.921908
20
-0.513652
30
0
11
29.956799
21
-0.630215
31
0
39
0
210
0
220
0
230
1
0
LINE
5
95
100
AcDbEntity
8
1
62
256
6
ByLayer
370
13
48
1
60
0
100
AcDbLine
10
29.70604
20
-0.080275
30
0
11
29.687087
21
-0.108107
31
0
39
0
210
0
220
0
230
1
0
LINE
5
96
100
AcDbEntity
8
1
62
256
6
ByLayer
370
13
48
1
60
0
100
AcDbLine
10
29.867234
20
-0.014327
30
0
11
29.908828
21
-0.064606
31
0
39
0
210
0
220
0
230
1
0
LINE
5
97
100
AcDbEntity
8
1
62
256
6
ByLayer
370
18
48
1
60
0
100
AcDbLine
10
11.042605
20
2.2696
30
0
11
12.5
21
1.617888
31
0
39
0
210
0
220
0
230
1
0
LINE
5
98
100
AcDbEntity
8
1
62
256
6
ByLayer
370
18
48
1
60
0
100
AcDbLine
10
11.031674
20
-2.344228
30
0
11
12.365832
21
-2.172737
31
0
39
0
210
0
220
0
230
1
0
LINE
5
99
100
AcDbEntity
8
1
62
256
6
ByLayer
370
13
48
1
60
0
100
AcDbLine
10
10.997468
20
2.261649
30
0
11
11.469591
21
2.050527
31
0
39
0
210
0
220
0
230
1
0
LINE
5
9A
100
AcDbEntity
8
1
62
256
6
ByLayer
370
13
48
1
60
0
100
AcDbLine
10
10.039843
20
-1.84925
30
0
11
10.785924
21
-1.753349
31
0
39
0
210
0
220
0
230
1
0
LINE
5
9B
100
AcDbEntity
8
1
62
256
6
ByLayer
370
18
48
1
60
0
100
AcDbLine
10
29.931044
20
-0.750826
30
0
11
29.921908
21
-0.513652
31
0
39
0
210
0
220
0
230
1
0
LINE
5
9C
100
AcDbEntity
8
1
62
256
6
ByLayer
370
18
48
1
60
0
100
AcDbLine
10
29.657006
20
-0.154672
30
0
11
29.921908
21
-0.513652
31
0
39
0
210
0
220
0
230
1
0
LINE
5
9D
100
AcDbEntity
8
1
62
256
6
ByLayer
370
18
48
1
60
0
100
AcDbLine
10
10.07888
20
-1.75651
30
0
11
10.329655
21
-1.724275
31
0
39
0
210
0
220
0
230
1
0
LINE
5
9E
100
AcDbEntity
8
1
62
256
6
ByLayer
370
13
48
1
60
0
100
AcDbLine
10
28.93208
20
1.532439
30
0
11
28.936552
21
1.506967
31
0
39
0
210
0
220
0
230
1
0
LINE
5
9F
100
AcDbEntity
8
1
62
256
6
ByLayer
370
18
48
1
60
0
100
AcDbLine
10
29.955935
20
0.370183
30
0
11
29.972838
21
0.689856
31
0
39
0
210
0
220
0
230
1
0
LINE
5
A0
100
AcDbEntity
8
1
62
256
6
ByLayer
370
13
48
1
60
0
100
AcDbLine
10
29.132281
20
0.874092
30
0
11
29.634524
21
0.266975
31
0
39
0
210
0
220
0
230
1
0
LINE
5
A1
100
AcDbEntity
8
1
62
256
6
ByLayer
370
18
48
1
60
0
100
AcDbLine
10
29.955935
20
0.370183
30
0
11
29.669872
21
0.280848
31
0
39
0
210
0
220
0
230
1
0
LINE
5
A2
100
AcDbEntity
8
1
62
256
6
ByLayer
370
18
48
1
60
0
100
AcDbLine
10
12.5
20
-1.646341
30
0
11
12.5
21
-1.846685
31
0
39
0
210
0
220
0
230
1
0
LINE
5
A3
100
AcDbEntity
8
1
62
256
6
ByLayer
370
13
48
1
60
0
100
AcDbLine
10
10.940596
20
-0.971658
30
0
11
12.5
21
-1.646341
31
0
39
0
210
0
220
0
230
1
0
LINE
5
A4
100
AcDbEntity
8
1
62
256
6
ByLayer
370
18
48
1
60
0
100
AcDbLine
10
12.5
20
-1.646341
30
0
11
12.5
21
-1.544648
31
0
39
0
210
0
220
0
230
1
0
LINE
5
A5
100
AcDbEntity
8
1
62
256
6
ByLayer
370
13
48
1
60
0
100
AcDbLine
10
12.317986
20
1.154517
30
0
11
12.5
21
1.075768
31
0
39
0
210
0
220
0
230
1
0
LINE
5
A6
100
AcDbEntity
8
1
62
256
6
ByLayer
370
18
48
1
60
0
100
AcDbLine
10
12.5
20
0.045828
30
0
11
12.5
21
0.145074
31
0
39
0
210
0
220
0
230
1
0
LINE
5
A7
100
AcDbEntity
8
1
62
256
6
ByLayer
370
13
48
1
60
0
100
AcDbLine
10
10.681822
20
0.931717
30
0
11
12.5
21
0.145074
31
0
39
0
210
0
220
0
230
1
0
LINE
5
A8
100
AcDbEntity
8
1
62
256
6
ByLayer
370
18
48
1
60
0
100
AcDbLine
10
29.514505
20
-2.159274
30
0
11
29.515175
21
-2.158956
31
0
39
0
210
0
220
0
230
1
0
LINE
5
A9
100
AcDbEntity
8
1
62
256
6
ByLayer
370
18
48
1
60
0
100
AcDbLine
10
12.5
20
1.61789
30
0
11
12.5
21
2.327847
31
0
39
0
210
0
220
0
230
1
0
LINE
5
AA
100
AcDbEntity
8
1
62
256
6
ByLayer
370
13
48
1
60
0
100
AcDbLine
10
10.887718
20
-0.847087
30
0
11
12.5
21
-1.544648
31
0
39
0
210
0
220
0
230
1
0
LINE
5
AB
100
AcDbEntity
8
1
62
256
6
ByLayer
370
18
48
1
60
0
100
AcDbLine
10
12.5
20
-1.544648
30
0
11
12.5
21
-1.12719
31
0
39
0
210
0
220
0
230
1
0
LINE
5
AC
100
AcDbEntity
8
1
62
256
6
ByLayer
370
13
48
1
60
0
100
AcDbLine
10
12.06411
20
1.194507
30
0
11
12.06411
21
1.796167
31
0
39
0
210
0
220
0
230
1
0
LINE
5
AD
100
AcDbEntity
8
1
62
256
6
ByLayer
370
18
48
1
60
0
100
AcDbLine
10
11.007452
20
-0.481433
30
0
11
12.5
21
-1.12719
31
0
39
0
210
0
220
0
230
1
0
LINE
5
AE
100
AcDbEntity
8
1
62
256
6
ByLayer
370
18
48
1
60
0
100
AcDbLine
10
12.5
20
-1.12719
30
0
11
12.5
21
0.045828
31
0
39
0
210
0
220
0
230
1
0
LINE
5
AF
100
AcDbEntity
8
1
62
256
6
ByLayer
370
13
48
1
60
0
100
AcDbLine
10
10.655658
20
0.843791
30
0
11
12.5
21
0.045828
31
0
39
0
210
0
220
0
230
1
0
LINE
5
B0
100
AcDbEntity
8
1
62
256
6
ByLayer
370
18
48
1
60
0
100
AcDbLine
10
12.5
20
0.145074
30
0
11
12.5
21
1.075768
31
0
39
0
210
0
220
0
230
1
0
LINE
5
B1
100
AcDbEntity
8
1
62
256
6
ByLayer
370
18
48
1
60
0
100
AcDbLine
10
12.5
20
1.12628
30
0
11
12.5
21
1.075768
31
0
39
0
210
0
220
0
230
1
0
LINE
5
B2
100
AcDbEntity
8
1
62
256
6
ByLayer
370
18
48
1
60
0
100
AcDbLine
10
12.5
20
-2.253672
30
0
11
12.5
21
-2.31743
31
0
39
0
210
0
220
0
230
1
0
LINE
5
B3
100
AcDbEntity
8
1
62
256
6
ByLayer
370
18
48
1
60
0
100
AcDbLine
10
12.5
20
2.499678
30
0
11
12.5
21
2.327847
31
0
39
0
210
0
220
0
230
1
0
LINE
5
B4
100
AcDbEntity
8
1
62
256
6
ByLayer
370
18
48
1
60
0
100
AcDbLine
10
12.5
20
1.12628
30
0
11
12.5
21
1.1263
31
0
39
0
210
0
220
0
230
1
0
LINE
5
B5
100
AcDbEntity
8
1
62
256
6
ByLayer
370
18
48
1
60
0
100
AcDbLine
10
12.5
20
2.499678
30
0
11
12.5
21
2.499736
31
0
39
0
210
0
220
0
230
1
0
LINE
5
B6
100
AcDbEntity
8
1
62
256
6
ByLayer
370
13
48
1
60
0
100
AcDbLine
10
12.06411
20
-2.035583
30
0
11
12.06411
21
-1.64295
31
0
39
0
210
0
220
0
230
1
0
LINE
5
B7
100
AcDbEntity
8
1
62
256
6
ByLayer
370
13
48
1
60
0
100
AcDbLine
10
5.497679
20
-2.4
30
0
11
5.497679
21
0
31
0
39
0
210
0
220
0
230
1
0
LINE
5
B8
100
AcDbEntity
8
1
62
256
6
ByLayer
370
13
48
1
60
0
100
AcDbLine
10
5.497679
20
0
30
0
11
5.497679
21
2.4
31
0
39
0
210
0
220
0
230
1
0
LINE
5
B9
100
AcDbEntity
8
1
62
256
6
ByLayer
370
13
48
1
60
0
100
AcDbLine
10
4.997679
20
2.533975
30
0
11
4.997679
21
0
31
0
39
0
210
0
220
0
230
1
0
LINE
5
BA
100
AcDbEntity
8
1
62
256
6
ByLayer
370
13
48
1
60
0
100
AcDbLine
10
4.997679
20
0
30
0
11
4.997679
21
-2.533975
31
0
39
0
210
0
220
0
230
1
0
LINE
5
BB
100
AcDbEntity
8
1
62
256
6
ByLayer
370
18
48
1
60
0
100
AcDbLine
10
4.190499
20
3
30
0
11
4.190499
21
0
31
0
39
0
210
0
220
0
230
1
0
LINE
5
BC
100
AcDbEntity
8
1
62
256
6
ByLayer
370
18
48
1
60
0
100
AcDbLine
10
4.190499
20
0
30
0
11
4.190499
21
-3
31
0
39
0
210
0
220
0
230
1
0
LINE
5
BD
100
AcDbEntity
8
SK1
62
256
6
ByLayer
370
18
48
1
60
0
100
AcDbLine
10
-36
20
-2.6
30
0
11
-36
21
2.6
31
0
39
0
210
0
220
0
230
1
0
LINE
5
BF
100
AcDbEntity
8
SK1
62
256
6
ByLayer
370
18
48
1
60
0
100
AcDbLine
10
0
20
3
30
0
11
0
21
0
31
0
39
0
210
0
220
0
230
1
0
LINE
5
C0
100
AcDbEntity
8
SK1
62
256
6
ByLayer
370
18
48
1
60
0
100
AcDbLine
10
0
20
0
30
0
11
0
21
-3
31
0
39
0
210
0
220
0
230
1
0
LINE
5
C1
100
AcDbEntity
8
SK1
62
256
6
ByLayer
370
18
48
1
60
0
100
AcDbLine
10
-35.6
20
3
30
0
11
-35.6
21
-3
31
0
39
0
210
0
220
0
230
1
0
LINE
5
C2
100
AcDbEntity
8
1
62
256
6
ByLayer
370
18
48
1
60
0
100
AcDbLine
10
4.190499
20
3
30
0
11
0
21
3
31
0
39
0
210
0
220
0
230
1
0
LINE
5
C3
100
AcDbEntity
8
1
62
256
6
ByLayer
370
18
48
1
60
0
100
AcDbLine
10
0
20
-3
30
0
11
4.190499
21
-3
31
0
39
0
210
0
220
0
230
1
0
LINE
5
C4
100
AcDbEntity
8
1
62
256
6
ByLayer
370
18
48
1
60
0
100
AcDbLine
10
10.427155
20
2.4
30
0
11
5.497679
21
2.4
31
0
39
0
210
0
220
0
230
1
0
LINE
5
C5
100
AcDbEntity
8
1
62
256
6
ByLayer
370
18
48
1
60
0
100
AcDbLine
10
5.497679
20
-2.4
30
0
11
11.465531
21
-2.4
31
0
39
0
210
0
220
0
230
1
0
LINE
5
C6
100
AcDbEntity
8
1
62
256
6
ByLayer
370
18
48
1
60
0
100
AcDbLine
10
4.997679
20
2.533975
30
0
11
4.190499
21
3
31
0
39
0
210
0
220
0
230
1
0
LINE
5
C7
100
AcDbEntity
8
1
62
256
6
ByLayer
370
18
48
1
60
0
100
AcDbLine
10
4.190499
20
-3
30
0
11
4.997679
21
-2.533975
31
0
39
0
210
0
220
0
230
1
0
LINE
5
C8
100
AcDbEntity
8
SK1
62
256
6
ByLayer
370
18
48
1
60
0
100
AcDbLine
10
-36
20
-2.6
30
0
11
-35.6
21
-3
31
0
39
0
210
0
220
0
230
1
0
LINE
5
C9
100
AcDbEntity
8
SK1
62
256
6
ByLayer
370
18
48
1
60
0
100
AcDbLine
10
-35.6
20
3
30
0
11
-36
21
2.6
31
0
39
0
210
0
220
0
230
1
0
LINE
5
CA
100
AcDbEntity
8
SK1
62
256
6
ByLayer
370
18
48
1
60
0
100
AcDbLine
10
0
20
3
30
0
11
-35.6
21
3
31
0
39
0
210
0
220
0
230
1
0
LINE
5
CB
100
AcDbEntity
8
SK1
62
256
6
ByLayer
370
18
48
1
60
0
100
AcDbLine
10
-35.6
20
-3
30
0
11
0
21
-3
31
0
39
0
210
0
220
0
230
1
0
LINE
5
CC
100
AcDbEntity
8
SK2
62
256
6
ByLayer
370
18
48
1
60
0
100
AcDbLine
10
-43.85
20
11.75
30
0
11
-43.85
21
-19.315466
31
0
39
0
210
0
220
0
230
1
0
LINE
5
CE
100
AcDbEntity
8
SK2
62
256
6
ByLayer
370
18
48
1
60
0
100
AcDbLine
10
-37.1875
20
3
30
0
11
-45.85
21
3
31
0
39
0
210
0
220
0
230
1
0
LINE
5
CF
100
AcDbEntity
8
SK2
62
256
6
ByLayer
370
18
48
1
60
0
100
AcDbLine
10
-37.1875
20
-3
30
0
11
-45.85
21
-3
31
0
39
0
210
0
220
0
230
1
0
LINE
5
D0
100
AcDbEntity
8
1
62
256
6
ByLayer
370
18
48
1
60
1
100
AcDbLine
10
-43.85
20
3
30
0
11
-44.310784
21
6.499998
31
0
39
0
210
0
220
0
230
1
0
LINE
5
D1
100
AcDbEntity
8
1
62
256
6
ByLayer
370
18
48
1
60
1
100
AcDbLine
10
-44.310784
20
6.499998
30
0
11
-43.389216
21
6.500002
31
0
39
0
210
0
220
0
230
1
0
LINE
5
D2
100
AcDbEntity
8
1
62
256
6
ByLayer
370
18
48
1
60
1
100
AcDbLine
10
-43.389216
20
6.500002
30
0
11
-43.85
21
3
31
0
39
0
210
0
220
0
230
1
0
LINE
5
D3
100
AcDbEntity
8
1
62
256
6
ByLayer
370
18
48
1
60
1
100
AcDbLine
10
-43.85
20
-3
30
0
11
-43.389216
21
-6.499998
31
0
39
0
210
0
220
0
230
1
0
LINE
5
D4
100
AcDbEntity
8
1
62
256
6
ByLayer
370
18
48
1
60
1
100
AcDbLine
10
-43.389216
20
-6.499998
30
0
11
-44.310784
21
-6.500002
31
0
39
0
210
0
220
0
230
1
0
LINE
5
D5
100
AcDbEntity
8
1
62
256
6
ByLayer
370
18
48
1
60
1
100
AcDbLine
10
-44.310784
20
-6.500002
30
0
11
-43.85
21
-3
31
0
39
0
210
0
220
0
230
1
0
LINE
5
D6
100
AcDbEntity
8
SK2
62
256
6
ByLayer
370
13
48
1
60
0
100
AcDbLine
10
10.230895
20
27.117465
30
0
11
10.230895
21
-11.15
31
0
39
0
210
0
220
0
230
1
0
LINE
5
D7
100
AcDbEntity
8
SK2
62
256
6
ByLayer
370
13
48
1
60
0
100
AcDbLine
10
10.47661
20
2.4
30
0
11
8.230895
21
2.4
31
0
39
0
210
0
220
0
230
1
0
LINE
5
D8
100
AcDbEntity
8
SK2
62
256
6
ByLayer
370
13
48
1
60
0
100
AcDbLine
10
10.47661
20
-2.4
30
0
11
8.230895
21
-2.4
31
0
39
0
210
0
220
0
230
1
0
LINE
5
D9
100
AcDbEntity
8
1
62
256
6
ByLayer
370
18
48
1
60
1
100
AcDbLine
10
10.230895
20
2.4
30
0
11
9.770111
21
5.899998
31
0
39
0
210
0
220
0
230
1
0
LINE
5
DA
100
AcDbEntity
8
1
62
256
6
ByLayer
370
18
48
1
60
1
100
AcDbLine
10
9.770111
20
5.899998
30
0
11
10.691678
21
5.900002
31
0
39
0
210
0
220
0
230
1
0
LINE
5
DB
100
AcDbEntity
8
1
62
256
6
ByLayer
370
18
48
1
60
1
100
AcDbLine
10
10.691678
20
5.900002
30
0
11
10.230895
21
2.4
31
0
39
0
210
0
220
0
230
1
0
LINE
5
DC
100
AcDbEntity
8
1
62
256
6
ByLayer
370
18
48
1
60
1
100
AcDbLine
10
10.230895
20
-2.4
30
0
11
10.691678
21
-5.899998
31
0
39
0
210
0
220
0
230
1
0
LINE
5
DD
100
AcDbEntity
8
1
62
256
6
ByLayer
370
18
48
1
60
1
100
AcDbLine
10
10.691678
20
-5.899998
30
0
11
9.770111
21
-5.900002
31
0
39
0
210
0
220
0
230
1
0
LINE
5
DE
100
AcDbEntity
8
1
62
256
6
ByLayer
370
18
48
1
60
1
100
AcDbLine
10
9.770111
20
-5.900002
30
0
11
10.230895
21
-2.4
31
0
39
0
210
0
220
0
230
1
0
LINE
5
DF
100
AcDbEntity
8
2
62
256
6
ByLayer
370
18
48
1
60
0
100
AcDbLine
10
42
20
18.815466
30
0
11
42
21
-11.25
31
0
39
0
210
0
220
0
230
1
0
LINE
5
E1
100
AcDbEntity
8
2
62
256
6
ByLayer
370
18
48
1
60
0
100
AcDbLine
10
31.5875
20
2.5
30
0
11
44
21
2.5
31
0
39
0
210
0
220
0
230
1
0
LINE
5
E2
100
AcDbEntity
8
2
62
256
6
ByLayer
370
18
48
1
60
0
100
AcDbLine
10
31.5875
20
-2.5
30
0
11
44
21
-2.5
31
0
39
0
210
0
220
0
230
1
0
LINE
5
E3
100
AcDbEntity
8
1
62
256
6
ByLayer
370
18
48
1
60
1
100
AcDbLine
10
42
20
2.5
30
0
11
41.539216
21
5.999998
31
0
39
0
210
0
220
0
230
1
0
LINE
5
E4
100
AcDbEntity
8
1
62
256
6
ByLayer
370
18
48
1
60
1
100
AcDbLine
10
41.539216
20
5.999998
30
0
11
42.460784
21
6.000002
31
0
39
0
210
0
220
0
230
1
0
LINE
5
E5
100
AcDbEntity
8
1
62
256
6
ByLayer
370
18
48
1
60
1
100
AcDbLine
10
42.460784
20
6.000002
30
0
11
42
21
2.5
31
0
39
0
210
0
220
0
230
1
0
LINE
5
E6
100
AcDbEntity
8
1
62
256
6
ByLayer
370
18
48
1
60
1
100
AcDbLine
10
42
20
-2.5
30
0
11
42.460784
21
-5.999998
31
0
39
0
210
0
220
0
230
1
0
LINE
5
E7
100
AcDbEntity
8
1
62
256
6
ByLayer
370
18
48
1
60
1
100
AcDbLine
10
42.460784
20
-5.999998
30
0
11
41.539216
21
-6.000002
31
0
39
0
210
0
220
0
230
1
0
LINE
5
E8
100
AcDbEntity
8
1
62
256
6
ByLayer
370
18
48
1
60
1
100
AcDbLine
10
41.539216
20
-6.000002
30
0
11
42
21
-2.5
31
0
39
0
210
0
220
0
230
1
0
LINE
5
E9
100
AcDbEntity
8
SK2
62
256
6
ByLayer
370
18
48
1
60
0
100
AcDbLine
10
30
20
-49.1
30
0
11
-36
21
-49.1
31
0
39
0
210
0
220
0
230
1
0
LINE
5
EA
100
AcDbEntity
8
SK2
62
256
6
ByLayer
370
18
48
1
60
0
100
AcDbLine
10
-36
20
-4.1875
30
0
11
-36
21
-51.1
31
0
39
0
210
0
220
0
230
1
0
LINE
5
EB
100
AcDbEntity
8
SK2
62
256
6
ByLayer
370
18
48
1
60
0
100
AcDbLine
10
30
20
-4.0875
30
0
11
30
21
-51.1
31
0
39
0
210
0
220
0
230
1
0
LINE
5
EC
100
AcDbEntity
8
1
62
256
6
ByLayer
370
18
48
1
60
1
100
AcDbLine
10
-36
20
-49.1
30
0
11
-32.500002
21
-48.639216
31
0
39
0
210
0
220
0
230
1
0
LINE
5
ED
100
AcDbEntity
8
1
62
256
6
ByLayer
370
18
48
1
60
1
100
AcDbLine
10
-32.500002
20
-48.639216
30
0
11
-32.499998
21
-49.560784
31
0
39
0
210
0
220
0
230
1
0
LINE
5
EE
100
AcDbEntity
8
1
62
256
6
ByLayer
370
18
48
1
60
1
100
AcDbLine
10
-32.499998
20
-49.560784
30
0
11
-36
21
-49.1
31
0
39
0
210
0
220
0
230
1
0
LINE
5
EF
100
AcDbEntity
8
1
62
256
6
ByLayer
370
18
48
1
60
1
100
AcDbLine
10
30
20
-49.1
30
0
11
26.500002
21
-49.560784
31
0
39
0
210
0
220
0
230
1
0
LINE
5
F0
100
AcDbEntity
8
1
62
256
6
ByLayer
370
18
48
1
60
1
100
AcDbLine
10
26.500002
20
-49.560784
30
0
11
26.499998
21
-48.639216
31
0
39
0
210
0
220
0
230
1
0
LINE
5
F1
100
AcDbEntity
8
1
62
256
6
ByLayer
370
18
48
1
60
1
100
AcDbLine
10
26.499998
20
-48.639216
30
0
11
30
21
-49.1
31
0
39
0
210
0
220
0
230
1
0
LINE
5
1C1
100
AcDbEntity
8
1
62
256
6
ByLayer
370
18
48
1
60
1
100
AcDbLine
10
-43.85
20
3
30
0
11
-44.310784
21
6.499998
31
0
39
0
210
0
220
0
230
1
0
LINE
5
1C2
100
AcDbEntity
8
1
62
256
6
ByLayer
370
18
48
1
60
1
100
AcDbLine
10
-44.310784
20
6.499998
30
0
11
-43.389216
21
6.500002
31
0
39
0
210
0
220
0
230
1
0
LINE
5
1C3
100
AcDbEntity
8
1
62
256
6
ByLayer
370
18
48
1
60
1
100
AcDbLine
10
-43.389216
20
6.500002
30
0
11
-43.85
21
3
31
0
39
0
210
0
220
0
230
1
0
LINE
5
1C5
100
AcDbEntity
8
1
62
256
6
ByLayer
370
18
48
1
60
1
100
AcDbLine
10
-43.85
20
-3
30
0
11
-43.389216
21
-6.499998
31
0
39
0
210
0
220
0
230
1
0
LINE
5
1C6
100
AcDbEntity
8
1
62
256
6
ByLayer
370
18
48
1
60
1
100
AcDbLine
10
-43.389216
20
-6.499998
30
0
11
-44.310784
21
-6.500002
31
0
39
0
210
0
220
0
230
1
0
LINE
5
1C7
100
AcDbEntity
8
1
62
256
6
ByLayer
370
18
48
1
60
1
100
AcDbLine
10
-44.310784
20
-6.500002
30
0
11
-43.85
21
-3
31
0
39
0
210
0
220
0
230
1
0
LINE
5
1CB
100
AcDbEntity
8
1
62
256
6
ByLayer
370
18
48
1
60
1
100
AcDbLine
10
10.230895
20
2.4
30
0
11
9.770111
21
5.899998
31
0
39
0
210
0
220
0
230
1
0
LINE
5
1CC
100
AcDbEntity
8
1
62
256
6
ByLayer
370
18
48
1
60
1
100
AcDbLine
10
9.770111
20
5.899998
30
0
11
10.691678
21
5.900002
31
0
39
0
210
0
220
0
230
1
0
LINE
5
1CD
100
AcDbEntity
8
1
62
256
6
ByLayer
370
18
48
1
60
1
100
AcDbLine
10
10.691678
20
5.900002
30
0
11
10.230895
21
2.4
31
0
39
0
210
0
220
0
230
1
0
LINE
5
1CF
100
AcDbEntity
8
1
62
256
6
ByLayer
370
18
48
1
60
1
100
AcDbLine
10
10.230895
20
-2.4
30
0
11
10.691678
21
-5.899998
31
0
39
0
210
0
220
0
230
1
0
LINE
5
1D0
100
AcDbEntity
8
1
62
256
6
ByLayer
370
18
48
1
60
1
100
AcDbLine
10
10.691678
20
-5.899998
30
0
11
9.770111
21
-5.900002
31
0
39
0
210
0
220
0
230
1
0
LINE
5
1D1
100
AcDbEntity
8
1
62
256
6
ByLayer
370
18
48
1
60
1
100
AcDbLine
10
9.770111
20
-5.900002
30
0
11
10.230895
21
-2.4
31
0
39
0
210
0
220
0
230
1
0
LINE
5
1D5
100
AcDbEntity
8
1
62
256
6
ByLayer
370
18
48
1
60
1
100
AcDbLine
10
42
20
2.5
30
0
11
41.539216
21
5.999998
31
0
39
0
210
0
220
0
230
1
0
LINE
5
1D6
100
AcDbEntity
8
1
62
256
6
ByLayer
370
18
48
1
60
1
100
AcDbLine
10
41.539216
20
5.999998
30
0
11
42.460784
21
6.000002
31
0
39
0
210
0
220
0
230
1
0
LINE
5
1D7
100
AcDbEntity
8
1
62
256
6
ByLayer
370
18
48
1
60
1
100
AcDbLine
10
42.460784
20
6.000002
30
0
11
42
21
2.5
31
0
39
0
210
0
220
0
230
1
0
LINE
5
1D9
100
AcDbEntity
8
1
62
256
6
ByLayer
370
18
48
1
60
1
100
AcDbLine
10
42
20
-2.5
30
0
11
42.460784
21
-5.999998
31
0
39
0
210
0
220
0
230
1
0
LINE
5
1DA
100
AcDbEntity
8
1
62
256
6
ByLayer
370
18
48
1
60
1
100
AcDbLine
10
42.460784
20
-5.999998
30
0
11
41.539216
21
-6.000002
31
0
39
0
210
0
220
0
230
1
0
LINE
5
1DB
100
AcDbEntity
8
1
62
256
6
ByLayer
370
18
48
1
60
1
100
AcDbLine
10
41.539216
20
-6.000002
30
0
11
42
21
-2.5
31
0
39
0
210
0
220
0
230
1
0
LINE
5
1DE
100
AcDbEntity
8
1
62
256
6
ByLayer
370
18
48
1
60
1
100
AcDbLine
10
-36
20
-49.1
30
0
11
-32.500002
21
-48.639216
31
0
39
0
210
0
220
0
230
1
0
LINE
5
1DF
100
AcDbEntity
8
1
62
256
6
ByLayer
370
18
48
1
60
1
100
AcDbLine
10
-32.500002
20
-48.639216
30
0
11
-32.499998
21
-49.560784
31
0
39
0
210
0
220
0
230
1
0
LINE
5
1E0
100
AcDbEntity
8
1
62
256
6
ByLayer
370
18
48
1
60
1
100
AcDbLine
10
-32.499998
20
-49.560784
30
0
11
-36
21
-49.1
31
0
39
0
210
0
220
0
230
1
0
LINE
5
1E2
100
AcDbEntity
8
1
62
256
6
ByLayer
370
18
48
1
60
1
100
AcDbLine
10
30
20
-49.1
30
0
11
26.500002
21
-49.560784
31
0
39
0
210
0
220
0
230
1
0
LINE
5
1E3
100
AcDbEntity
8
1
62
256
6
ByLayer
370
18
48
1
60
1
100
AcDbLine
10
26.500002
20
-49.560784
30
0
11
26.499998
21
-48.639216
31
0
39
0
210
0
220
0
230
1
0
LINE
5
1E4
100
AcDbEntity
8
1
62
256
6
ByLayer
370
18
48
1
60
1
100
AcDbLine
10
26.499998
20
-48.639216
30
0
11
30
21
-49.1
31
0
39
0
210
0
220
0
230
1
0
MTEXT
5
1BD
100
AcDbEntity
8
SK2
62
256
6
ByLayer
370
18
48
1
60
0
100
AcDbMText
10
-45.414634
20
-17.380622
30
0
210
0
220
0
230
1
1
%%c
40
3.5
41
0
44
1.084337
50
90
71
7
72
5
7
iso_b_vert
0
MTEXT
5
1C0
100
AcDbEntity
8
SK2
62
256
6
ByLayer
370
18
48
1
60
0
100
AcDbMText
10
-45.414634
20
-10.407966
30
0
210
0
220
0
230
1
1
\W0.5404;6
40
3.5
41
0
44
1.084337
50
90
71
7
72
5
7
iso_b_vert
0
MTEXT
5
1C9
100
AcDbEntity
8
SK2
62
256
6
ByLayer
370
18
48
1
60
0
100
AcDbMText
10
8.666261
20
14.334844
30
0
210
0
220
0
230
1
1
%%c
40
3.5
41
0
44
1.084337
50
90
71
7
72
5
7
iso_b_vert
0
MTEXT
5
1CA
100
AcDbEntity
8
SK2
62
256
6
ByLayer
370
18
48
1
60
0
100
AcDbMText
10
8.666261
20
21.3075
30
0
210
0
220
0
230
1
1
\W0.7610;4.8
40
3.5
41
0
44
1.084337
50
90
71
7
72
5
7
iso_b_vert
0
MTEXT
5
1D3
100
AcDbEntity
8
2
62
256
6
ByLayer
370
18
48
1
60
0
100
AcDbMText
10
40.435366
20
10.434844
30
0
210
0
220
0
230
1
1
%%c
40
3.5
41
0
44
1.084337
50
90
71
7
72
5
7
iso_b_vert
0
MTEXT
5
1D4
100
AcDbEntity
8
2
62
256
6
ByLayer
370
18
48
1
60
0
100
AcDbMText
10
40.435366
20
17.4075
30
0
210
0
220
0
230
1
1
\W0.5404;5
40
3.5
41
0
44
1.084337
50
90
71
7
72
5
7
iso_b_vert
0
MTEXT
5
1DD
100
AcDbEntity
8
SK2
62
256
6
ByLayer
370
18
48
1
60
0
100
AcDbMText
10
-4.904966
20
-48.067366
30
0
210
0
220
0
230
1
1
\W0.6740;66
40
3.5
41
0
44
1.084337
50
0
71
7
72
5
7
iso_b_vert
0
MTEXT
5
1E6
100
AcDbEntity
8
SK6
62
256
6
ByLayer
370
18
48
1
60
0
100
AcDbMText
10
-27.991668
20
-62.114886
30
0
210
0
220
0
230
1
1
\W0.7042;1K365-0500-100-XC   1730
40
3
41
0
44
1.084337
50
0
71
7
72
5
7
iso_b_vert
0
HATCH
5
1C4
100
AcDbEntity
8
SK2
62
256
6
ByLayer
370
13
48
1
60
0
100
AcDbHatch
10
0
20
0
30
0
210
0
220
0
230
1
2
ANSI31
70
0
71
0
91
1
92
5
93
3
72
1
10
-43.85
20
3
11
-44.3107837415528
21
6.49999830744682
72
1
10
-44.3107837415528
20
6.49999830744682
11
-43.3892162584472
21
6.50000169255318
72
1
10
-43.3892162584472
20
6.50000169255318
11
-43.85
21
3
97
0
75
0
76
1
52
0
41
0.0062
77
0
78
1
53
45
43
0
44
0
45
-0.0139193969876572
46
0.0139193969876572
79
0
47
0
98
1
10
0
20
0
0
HATCH
5
1C8
100
AcDbEntity
8
SK2
62
256
6
ByLayer
370
13
48
1
60
0
100
AcDbHatch
10
0
20
0
30
0
210
0
220
0
230
1
2
ANSI31
70
0
71
0
91
1
92
5
93
3
72
1
10
-43.85
20
-3
11
-43.3892162584472
21
-6.49999830744682
72
1
10
-43.3892162584472
20
-6.49999830744682
11
-44.3107837415528
21
-6.50000169255318
72
1
10
-44.3107837415528
20
-6.50000169255318
11
-43.85
21
-3
97
0
75
0
76
1
52
0
41
0.0062
77
0
78
1
53
45
43
0
44
0
45
-0.0139193969876572
46
0.0139193969876572
79
0
47
0
98
1
10
0
20
0
0
HATCH
5
1CE
100
AcDbEntity
8
SK2
62
256
6
ByLayer
370
13
48
1
60
0
100
AcDbHatch
10
0
20
0
30
0
210
0
220
0
230
1
2
ANSI31
70
0
71
0
91
1
92
5
93
3
72
1
10
10.2308945139034
20
2.39999999999998
11
9.77011077235059
21
5.89999830744679
72
1
10
9.77011077235059
20
5.89999830744679
11
10.6916782554561
21
5.90000169255316
72
1
10
10.6916782554561
20
5.90000169255316
11
10.2308945139034
21
2.39999999999998
97
0
75
0
76
1
52
0
41
0.0062
77
0
78
1
53
45
43
0
44
0
45
-0.0139193969876572
46
0.0139193969876572
79
0
47
0
98
1
10
0
20
0
0
HATCH
5
1D2
100
AcDbEntity
8
SK2
62
256
6
ByLayer
370
13
48
1
60
0
100
AcDbHatch
10
0
20
0
30
0
210
0
220
0
230
1
2
ANSI31
70
0
71
0
91
1
92
5
93
3
72
1
10
10.2308945139034
20
-2.40000000000003
11
10.6916782554561
21
-5.89999830744685
72
1
10
10.6916782554561
20
-5.89999830744685
11
9.77011077235059
21
-5.90000169255322
72
1
10
9.77011077235059
20
-5.90000169255322
11
10.2308945139034
21
-2.40000000000003
97
0
75
0
76
1
52
0
41
0.0062
77
0
78
1
53
45
43
0
44
0
45
-0.0139193969876572
46
0.0139193969876572
79
0
47
0
98
1
10
0
20
0
0
HATCH
5
1D8
100
AcDbEntity
8
2
62
256
6
ByLayer
370
13
48
1
60
0
100
AcDbHatch
10
0
20
0
30
0
210
0
220
0
230
1
2
ANSI31
70
0
71
0
91
1
92
5
93
3
72
1
10
42
20
2.49999999999992
11
41.5392162584472
21
5.99999830744673
72
1
10
41.5392162584472
20
5.99999830744673
11
42.4607837415528
21
6.0000016925531
72
1
10
42.4607837415528
20
6.0000016925531
11
42
21
2.49999999999992
97
0
75
0
76
1
52
0
41
0.0062
77
0
78
1
53
45
43
0
44
0
45
-0.0139193969876572
46
0.0139193969876572
79
0
47
0
98
1
10
0
20
0
0
HATCH
5
1DC
100
AcDbEntity
8
2
62
256
6
ByLayer
370
13
48
1
60
0
100
AcDbHatch
10
0
20
0
30
0
210
0
220
0
230
1
2
ANSI31
70
0
71
0
91
1
92
5
93
3
72
1
10
42
20
-2.50000000000008
11
42.4607837415528
21
-5.9999983074469
72
1
10
42.4607837415528
20
-5.9999983074469
11
41.5392162584472
21
-6.00000169255327
72
1
10
41.5392162584472
20
-6.00000169255327
11
42
21
-2.50000000000008
97
0
75
0
76
1
52
0
41
0.0062
77
0
78
1
53
45
43
0
44
0
45
-0.0139193969876572
46
0.0139193969876572
79
0
47
0
98
1
10
0
20
0
0
HATCH
5
1E1
100
AcDbEntity
8
SK2
62
256
6
ByLayer
370
13
48
1
60
0
100
AcDbHatch
10
0
20
0
30
0
210
0
220
0
230
1
2
ANSI31
70
0
71
0
91
1
92
5
93
3
72
1
10
-36
20
-49.1000000000001
11
-32.5000016925532
21
-48.6392162584473
72
1
10
-32.5000016925532
20
-48.6392162584473
11
-32.4999983074468
21
-49.5607837415529
72
1
10
-32.4999983074468
20
-49.5607837415529
11
-36
21
-49.1000000000001
97
0
75
0
76
1
52
0
41
0.0062
77
0
78
1
53
45
43
0
44
0
45
-0.0139193969876572
46
0.0139193969876572
79
0
47
0
98
1
10
0
20
0
0
HATCH
5
1E5
100
AcDbEntity
8
SK2
62
256
6
ByLayer
370
13
48
1
60
0
100
AcDbHatch
10
0
20
0
30
0
210
0
220
0
230
1
2
ANSI31
70
0
71
0
91
1
92
5
93
3
72
1
10
30
20
-49.1000000000001
11
26.5000016925532
21
-49.5607837415529
72
1
10
26.5000016925532
20
-49.5607837415529
11
26.4999983074468
21
-48.6392162584473
72
1
10
26.4999983074468
20
-48.6392162584473
11
30
21
-49.1000000000001
97
0
75
0
76
1
52
0
41
0.0062
77
0
78
1
53
45
43
0
44
0
45
-0.0139193969876572
46
0.0139193969876572
79
0
47
0
98
1
10
0
20
0
0
DIMENSION
5
1E9
100
AcDbEntity
8
2
62
256
6
ByLayer
370
18
48
1
60
0
100
AcDbDimension
2
_U0
10
12.5
20
-17.1
30
0
11
21.25
21
-17.1
31
0
70
32
71
1
72
1
41
1
210
0
220
0
230
1
3
Standard
100
AcDbAlignedDimension
13
30
23
-2.5
33
0
14
12.5
24
-2.5
34
0
50
0
100
AcDbRotatedDimension
1001
ACAD
1000
DSTYLE
1002
{
1070
   371
1070
    13
1070
   372
1070
    13
1070
   170
1070
     0
1070
   144
1040
1.0
1070
   277
1070
     2
1070
   284
1070
     8
1070
   278
1070
    46
1070
   146
1040
1.0
1070
   345
1005
16
1070
   347
1005
16
1070
   346
1005
16
1070
   344
1005
0
1070
   343
1005
0
1070
   172
1070
     1
1070
    76
1070
     0
1070
    75
1070
     0
1070
   282
1070
     0
1070
   281
1070
     0
1070
    71
1070
     0
1070
    74
1070
     0
1070
   279
1070
     0
1070
   173
1070
     1
1070
   340
1005
1BE
1070
   271
1070
     2
1070
   272
1070
     2
1070
    77
1070
     1
1070
    73
1070
     1
1070
   171
1070
     3
1070
   274
1070
     4
1070
   177
1070
     2
1070
   176
1070
     2
1070
   178
1070
     2
1070
    78
1070
     8
1070
    48
1040
-0.1
1070
    41
1040
3.5
1070
   147
1040
1.75
1070
    42
1040
1.5875
1070
    44
1040
2.0
1070
   140
1040
3.5
1002
}
1001
ACAD_DSTYLE_DIM_LINETYPE
1070
   380
1005
16
1001
ACAD_DSTYLE_DIM_EXT1_LINETYPE
1070
   381
1005
16
1001
ACAD_DSTYLE_DIM_EXT2_LINETYPE
1070
   382
1005
16
0
DIMENSION
5
203
100
AcDbEntity
8
SK2
62
256
6
ByLayer
370
18
48
1
60
0
100
AcDbDimension
2
_U1
10
5.497679
20
-32.1
30
0
11
17.748839
21
-32.1
31
0
70
32
71
1
72
1
41
1
210
0
220
0
230
1
3
Standard
100
AcDbAlignedDimension
13
30
23
-2.5
33
0
14
5.497679
24
-2.4
34
0
50
0
100
AcDbRotatedDimension
1001
ACAD
1000
DSTYLE
1002
{
1070
   371
1070
    13
1070
   372
1070
    13
1070
   170
1070
     0
1070
   144
1040
1.0
1070
   277
1070
     2
1070
   284
1070
     8
1070
   278
1070
    46
1070
   146
1040
1.0
1070
   345
1005
16
1070
   347
1005
16
1070
   346
1005
16
1070
   344
1005
0
1070
   343
1005
0
1070
   172
1070
     1
1070
    76
1070
     0
1070
    75
1070
     0
1070
   282
1070
     0
1070
   281
1070
     0
1070
    71
1070
     0
1070
    74
1070
     0
1070
   279
1070
     0
1070
   173
1070
     1
1070
   340
1005
1BE
1070
   271
1070
     2
1070
   272
1070
     2
1070
    77
1070
     1
1070
    73
1070
     1
1070
   171
1070
     3
1070
   274
1070
     4
1070
   177
1070
     2
1070
   176
1070
     2
1070
   178
1070
     2
1070
    78
1070
     8
1070
    48
1040
-0.1
1070
    41
1040
3.5
1070
   147
1040
1.75
1070
    42
1040
1.5875
1070
    44
1040
2.0
1070
   140
1040
3.5
1002
}
1001
ACAD_DSTYLE_DIM_LINETYPE
1070
   380
1005
16
1001
ACAD_DSTYLE_DIM_EXT1_LINETYPE
1070
   381
1005
16
1001
ACAD_DSTYLE_DIM_EXT2_LINETYPE
1070
   382
1005
16
0
ENDSEC
0
SECTION
2
OBJECTS
0
DICTIONARY
5
28b
330
0
100
AcDbDictionary
280
0
281
1
3
ACAD_GROUP
350
28c
3
ACAD_MLINESTYLE
350
28d
0
DICTIONARY
5
28c
330
0
100
AcDbDictionary
280
0
281
1
0
DICTIONARY
5
28d
330
0
100
AcDbDictionary
280
0
281
1
3
Standard
350
18
0
MLINESTYLE
5
18
330
28d
100
AcDbMlineStyle
2
Standard
70
0
3

62
256
51
90
52
90
71
2
49
-0.5
62
256
6
ByLayer
49
0.5
62
256
6
ByLayer
0
RASTERVARIABLES
5
279
330

100
AcDbRasterVariables
90
0
70
1
71
1
72
1
0
ENDSEC
0
EOF
