0
SECTION
2
HEADER
9
$ACADVER
1
AC1015
9
$DWGCODEPAGE
3
ANSI_1252
9
$HANDSEED
5
2ff
9
$ANGBASE
50
0
9
$ANGDIR
70
0
9
$ATTMODE
70
1
9
$AUNITS
70
0
9
$AUPREC
70
0
9
$CECOLOR
62
256
9
$CELTSCALE
40
1
9
$CELTYPE
6
ByLayer
9
$CELWEIGHT
370
18
9
$CLAYER
8
0
9
$CMLJUST
70
0
9
$CMLSCALE
40
1
9
$CMLSTYLE
2
Standard
9
$DIMSTYLE
2
Standard
9
$TEXTSIZE
40
0.2
9
$TEXTSTYLE
7
Standard
9
$LUNITS
70
2
9
$LUPREC
70
4
9
$EXTNAMES
290
1
9
$INSUNITS
70
4
9
$LTSCALE
40
1
9
$LWDISPLAY
290
1
9
$PDMODE
70
0
9
$PDSIZE
40
0
9
$PLINEGEN
70
0
0
ENDSEC
0
SECTION
2
CLASSES
0
CLASS
1
RASTERVARIABLES
2
AcDbRasterVariables
3
ISM
90
0
280
0
281
0
0
ENDSEC
0
SECTION
2
TABLES
0
TABLE
2
VPORT
5
2f5
100
AcDbSymbolTable
0
VPORT
5
1
100
AcDbSymbolTableRecord
100
AcDbViewportTableRecord
2
*Active
70
0
10
0
20
0
11
1
21
1
12
-1
22
1
13
0
23
0
14
0.5
24
0.5
15
10
25
10
16
0
26
0
36
1
17
0
27
0
37
0
0
ENDTAB
0
TABLE
2
LTYPE
5
2f6
100
AcDbSymbolTable
0
LTYPE
5
14
100
AcDbSymbolTableRecord
100
AcDbLinetypeTableRecord
70
0
2
ByBlock
3

72
65
73
0
40
0
0
LTYPE
5
15
100
AcDbSymbolTableRecord
100
AcDbLinetypeTableRecord
70
0
2
ByLayer
3

72
65
73
0
40
0
0
LTYPE
5
16
100
AcDbSymbolTableRecord
100
AcDbLinetypeTableRecord
70
0
2
Continuous
3
Solid line
72
65
73
0
40
0
0
LTYPE
5
6E
100
AcDbSymbolTableRecord
100
AcDbLinetypeTableRecord
70
0
2
CENTER
3
____ _ ____ _ ____ _ ____
72
65
73
4
40
47.5
49
22
74
0
49
-8.5
74
0
49
8.5
74
0
49
-8.5
74
0
0
LTYPE
5
6F
100
AcDbSymbolTableRecord
100
AcDbLinetypeTableRecord
70
0
2
DASHED
3
__ __ __ __ __ __ __ __ __
72
65
73
2
40
25.72
49
12.86
74
0
49
-12.86
74
0
0
ENDTAB
0
TABLE
2
LAYER
5
2f7
100
AcDbSymbolTable
0
LAYER
5
10
100
AcDbSymbolTableRecord
100
AcDbLayerTableRecord
2
0
70
0
62
7
6
Continuous
290
1
370
-3
390
0
0
LAYER
5
71
100
AcDbSymbolTableRecord
100
AcDbLayerTableRecord
2
80
70
0
62
-6
6
Continuous
290
1
370
-3
390
0
0
LAYER
5
73
100
AcDbSymbolTableRecord
100
AcDbLayerTableRecord
2
81
70
0
62
-3
6
Continuous
290
1
370
-3
390
0
0
LAYER
5
75
100
AcDbSymbolTableRecord
100
AcDbLayerTableRecord
2
1
70
0
62
4
6
Continuous
290
1
370
-3
390
0
0
LAYER
5
81
100
AcDbSymbolTableRecord
100
AcDbLayerTableRecord
2
4
70
0
62
-2
6
CENTER
290
1
370
-3
390
0
0
LAYER
5
C3
100
AcDbSymbolTableRecord
100
AcDbLayerTableRecord
2
2
70
0
62
7
6
Continuous
290
1
370
-3
390
0
0
LAYER
5
208
100
AcDbSymbolTableRecord
100
AcDbLayerTableRecord
2
Defpoints
70
0
62
7
6
Continuous
290
0
370
-3
390
0
0
LAYER
5
2e1
100
AcDbSymbolTableRecord
100
AcDbLayerTableRecord
2
SK4
70
0
62
2
6
CENTER
290
1
370
-3
390
0
0
LAYER
5
2e2
100
AcDbSymbolTableRecord
100
AcDbLayerTableRecord
2
SK1
70
0
62
4
6
Continuous
290
1
370
-3
390
0
0
LAYER
5
2e3
100
AcDbSymbolTableRecord
100
AcDbLayerTableRecord
2
SK2
70
0
62
7
6
Continuous
290
1
370
-3
390
0
0
LAYER
5
2e4
100
AcDbSymbolTableRecord
100
AcDbLayerTableRecord
2
SK6
70
0
62
5
6
Continuous
290
1
370
-3
390
0
0
ENDTAB
0
TABLE
2
STYLE
5
2f8
100
AcDbSymbolTable
0
STYLE
5
11
100
AcDbSymbolTableRecord
100
AcDbTextStyleTableRecord
2
Standard
3
txt
70
0
71
0
40
0
41
1
42
0
50
0
0
STYLE
5
1EE
100
AcDbSymbolTableRecord
100
AcDbTextStyleTableRecord
2
iso_b_vert
3
simplex.shx
70
0
71
0
40
0
41
1
42
0
50
0
0
STYLE
5
1EF
100
AcDbSymbolTableRecord
100
AcDbTextStyleTableRecord
2
DWGDirectTextStyle
3
simplex
70
0
71
0
40
0
41
1
42
0
50
0
0
ENDTAB
0
TABLE
2
DIMSTYLE
5
2f9
100
AcDbSymbolTable
100
AcDbDimStyleTable
0
DIMSTYLE
105
27
100
AcDbSymbolTableRecord
100
AcDbDimStyleTableRecord
2
Standard
70
0
3
<>
41
0.18
42
0.0625
44
0.18
140
0.18
147
0.09
73
0
74
0
77
1
271
2
275
0
278
52
280
0
340
11
0
ENDTAB
0
TABLE
2
VIEW
5
2fa
100
AcDbSymbolTable
0
ENDTAB
0
TABLE
2
UCS
5
2fb
100
AcDbSymbolTable
0
ENDTAB
0
TABLE
2
APPID
5
2fc
100
AcDbSymbolTable
0
APPID
5
12
100
AcDbSymbolTableRecord
100
AcDbRegAppTableRecord
2
ACAD
70
0
0
APPID
5
204
100
AcDbSymbolTableRecord
100
AcDbRegAppTableRecord
2
ACAD_DSTYLE_DIMBREAK
70
0
0
APPID
5
2A0
100
AcDbSymbolTableRecord
100
AcDbRegAppTableRecord
2
ACAD_DSTYLE_DIM_LINETYPE
70
0
0
APPID
5
2A1
100
AcDbSymbolTableRecord
100
AcDbRegAppTableRecord
2
ACAD_DSTYLE_DIM_EXT1_LINETYPE
70
0
0
APPID
5
2A2
100
AcDbSymbolTableRecord
100
AcDbRegAppTableRecord
2
ACAD_DSTYLE_DIM_EXT2_LINETYPE
70
0
0
APPID
5
2DD
100
AcDbSymbolTableRecord
100
AcDbRegAppTableRecord
2
ACAD_MLEADERVER
70
0
0
ENDTAB
0
TABLE
2
BLOCK_RECORD
5
2fd
100
AcDbSymbolTable
0
BLOCK_RECORD
5
1F
100
AcDbSymbolTableRecord
100
AcDbBlockTableRecord
2
*Model_Space
340
0
70
0
0
BLOCK_RECORD
5
1B
100
AcDbSymbolTableRecord
100
AcDbBlockTableRecord
2
*Paper_Space
340
0
70
0
0
BLOCK_RECORD
5
23
100
AcDbSymbolTableRecord
100
AcDbBlockTableRecord
2
*Paper_Space0
340
0
70
0
0
BLOCK_RECORD
5
209
100
AcDbSymbolTableRecord
100
AcDbBlockTableRecord
2
*D1
340
0
70
0
0
BLOCK_RECORD
5
216
100
AcDbSymbolTableRecord
100
AcDbBlockTableRecord
2
_U0
340
0
70
0
0
BLOCK_RECORD
5
222
100
AcDbSymbolTableRecord
100
AcDbBlockTableRecord
2
*D3
340
0
70
0
0
BLOCK_RECORD
5
22F
100
AcDbSymbolTableRecord
100
AcDbBlockTableRecord
2
_U1
340
0
70
0
0
BLOCK_RECORD
5
23C
100
AcDbSymbolTableRecord
100
AcDbBlockTableRecord
2
*D5
340
0
70
0
0
BLOCK_RECORD
5
248
100
AcDbSymbolTableRecord
100
AcDbBlockTableRecord
2
_U2
340
0
70
0
0
BLOCK_RECORD
5
255
100
AcDbSymbolTableRecord
100
AcDbBlockTableRecord
2
*D7
340
0
70
0
0
BLOCK_RECORD
5
261
100
AcDbSymbolTableRecord
100
AcDbBlockTableRecord
2
_U3
340
0
70
0
0
BLOCK_RECORD
5
26D
100
AcDbSymbolTableRecord
100
AcDbBlockTableRecord
2
*D9
340
0
70
0
0
BLOCK_RECORD
5
279
100
AcDbSymbolTableRecord
100
AcDbBlockTableRecord
2
_U4
340
0
70
0
0
ENDTAB
0
ENDSEC
0
SECTION
2
BLOCKS
0
BLOCK
5
20
100
AcDbEntity
8
0
100
AcDbBlockBegin
2
*Model_Space
70
0
10
0
20
0
30
0
3
*Model_Space
0
ENDBLK
5
21
100
AcDbEntity
8
0
100
AcDbBlockEnd
0
BLOCK
5
1C
100
AcDbEntity
8
0
100
AcDbBlockBegin
2
*Paper_Space
70
0
10
0
20
0
30
0
3
*Paper_Space
0
ENDBLK
5
1D
100
AcDbEntity
8
0
100
AcDbBlockEnd
0
BLOCK
5
24
100
AcDbEntity
8
0
100
AcDbBlockBegin
2
*Paper_Space0
70
0
10
0
20
0
30
0
3
*Paper_Space0
0
ENDBLK
5
25
100
AcDbEntity
8
0
100
AcDbBlockEnd
0
BLOCK
5
20A
100
AcDbEntity
8
0
100
AcDbBlockBegin
2
*D1
70
1
10
0
20
0
30
0
3
*D1
0
LINE
5
20C
100
AcDbEntity
8
0
62
256
6
ByLayer
370
-2
48
1
60
0
100
AcDbLine
10
69.5875
20
8.083051
30
0
11
89.5
21
8.083051
31
0
39
0
210
0
220
0
230
1
0
LINE
5
20D
100
AcDbEntity
8
0
62
256
6
ByLayer
370
-2
48
1
60
0
100
AcDbLine
10
69.5875
20
-8.083051
30
0
11
89.5
21
-8.083051
31
0
39
0
210
0
220
0
230
1
0
LINE
5
20E
100
AcDbEntity
8
0
62
256
6
ByLayer
370
-2
48
1
60
0
100
AcDbLine
10
87.5
20
8.083051
30
0
11
87.5
21
35.011622
31
0
39
0
210
0
220
0
230
1
0
LINE
5
20F
100
AcDbEntity
8
0
62
256
6
ByLayer
370
-2
48
1
60
0
100
AcDbLine
10
87.5
20
4.583051
30
0
11
87.5
21
-4.583051
31
0
39
0
210
0
220
0
230
1
0
SOLID
5
210
100
AcDbEntity
8
0
62
256
6
ByLayer
370
-1
48
1
60
0
100
AcDbTrace
10
88.083333
20
4.583051
30
0
11
86.916667
21
4.583051
31
0
12
87.5
22
8.083051
32
0
13
87.5
23
8.083051
33
0
39
0
210
0
220
0
230
1
0
SOLID
5
211
100
AcDbEntity
8
0
62
256
6
ByLayer
370
-1
48
1
60
0
100
AcDbTrace
10
86.916667
20
-4.583051
30
0
11
88.083333
21
-4.583051
31
0
12
87.5
22
-8.083051
32
0
13
87.5
23
-8.083051
33
0
39
0
210
0
220
0
230
1
0
MTEXT
5
212
100
AcDbEntity
8
0
62
256
6
ByLayer
370
18
48
1
60
0
100
AcDbMText
10
81.5
20
23.297336
30
0
210
0
220
0
230
1
1
\A1;16.166
40
3
41
0
44
1
50
90
71
5
72
5
7
iso_b_vert
0
POINT
5
213
100
AcDbEntity
8
Defpoints
62
0
6
ByLayer
370
-1
48
1
60
0
100
AcDbPoint
10
68
20
8.083051
30
0
39
0
210
0
220
0
230
1
50
360
0
POINT
5
214
100
AcDbEntity
8
Defpoints
62
0
6
ByLayer
370
-1
48
1
60
0
100
AcDbPoint
10
68
20
-8.083051
30
0
39
0
210
0
220
0
230
1
50
360
0
POINT
5
215
100
AcDbEntity
8
Defpoints
62
0
6
ByLayer
370
-1
48
1
60
0
100
AcDbPoint
10
87.5
20
-8.083051
30
0
39
0
210
0
220
0
230
1
50
360
0
ENDBLK
5
20B
100
AcDbEntity
8
0
100
AcDbBlockEnd
0
BLOCK
5
21D
100
AcDbEntity
8
0
100
AcDbBlockBegin
2
_U0
70
0
10
0
20
0
30
0
3
_U0
0
MTEXT
5
217
100
AcDbEntity
8
2
62
256
6
ByLayer
370
18
48
1
60
0
100
AcDbMText
10
86.908886
20
18.218051
30
0
210
0
220
0
230
1
1
\W0.6563;M16
40
3
41
0
44
1.084337
50
90
71
7
72
5
7
iso_b_vert
0
LINE
5
218
100
AcDbEntity
8
2
62
256
6
ByLayer
370
13
48
1
60
0
100
AcDbLine
10
69.5875
20
8.083051
30
0
11
89.5
21
8.083051
31
0
39
0
210
0
220
0
230
1
0
LINE
5
219
100
AcDbEntity
8
2
62
256
6
ByLayer
370
13
48
1
60
0
100
AcDbLine
10
69.5875
20
-8.083051
30
0
11
89.5
21
-8.083051
31
0
39
0
210
0
220
0
230
1
0
LINE
5
21A
100
AcDbEntity
8
2
62
256
6
ByLayer
370
13
48
1
60
0
100
AcDbLine
10
87.5
20
-8.083051
30
0
11
87.5
21
23.829792
31
0
39
0
210
0
220
0
230
1
0
SOLID
5
21B
100
AcDbEntity
8
2
62
256
6
ByLayer
370
18
48
1
60
0
100
AcDbTrace
10
87.5
20
8.083051
30
0
11
87.960784
21
4.583052
31
0
12
87.039216
22
4.583049
32
0
13
87.039216
23
4.583049
33
0
39
0
210
0
220
0
230
1
0
SOLID
5
21C
100
AcDbEntity
8
2
62
256
6
ByLayer
370
18
48
1
60
0
100
AcDbTrace
10
87.5
20
-8.083051
30
0
11
87.039216
21
-4.583052
31
0
12
87.960784
22
-4.583049
32
0
13
87.960784
23
-4.583049
33
0
39
0
210
0
220
0
230
1
0
ENDBLK
5
21E
100
AcDbEntity
8
0
100
AcDbBlockEnd
0
BLOCK
5
223
100
AcDbEntity
8
0
100
AcDbBlockBegin
2
*D3
70
1
10
0
20
0
30
0
3
*D3
0
LINE
5
225
100
AcDbEntity
8
0
62
256
6
ByLayer
370
-2
48
1
60
0
100
AcDbLine
10
68
20
9.670551
30
0
11
68
21
19.098844
31
0
39
0
210
0
220
0
230
1
0
LINE
5
226
100
AcDbEntity
8
0
62
256
6
ByLayer
370
-2
48
1
60
0
100
AcDbLine
10
62.5
20
1.5875
30
0
11
62.5
21
19.098844
31
0
39
0
210
0
220
0
230
1
0
LINE
5
227
100
AcDbEntity
8
0
62
256
6
ByLayer
370
-2
48
1
60
0
100
AcDbLine
10
71.5
20
17.098844
30
0
11
75
21
17.098844
31
0
39
0
210
0
220
0
230
1
0
LINE
5
228
100
AcDbEntity
8
0
62
256
6
ByLayer
370
-2
48
1
60
0
100
AcDbLine
10
59
20
17.098844
30
0
11
55.5
21
17.098844
31
0
39
0
210
0
220
0
230
1
0
SOLID
5
229
100
AcDbEntity
8
0
62
256
6
ByLayer
370
-1
48
1
60
0
100
AcDbTrace
10
71.5
20
17.682177
30
0
11
71.5
21
16.515511
31
0
12
68
22
17.098844
32
0
13
68
23
17.098844
33
0
39
0
210
0
220
0
230
1
0
SOLID
5
22A
100
AcDbEntity
8
0
62
256
6
ByLayer
370
-1
48
1
60
0
100
AcDbTrace
10
59
20
16.515511
30
0
11
59
21
17.682177
31
0
12
62.5
22
17.098844
32
0
13
62.5
23
17.098844
33
0
39
0
210
0
220
0
230
1
0
MTEXT
5
22B
100
AcDbEntity
8
0
62
256
6
ByLayer
370
18
48
1
60
0
100
AcDbMText
10
65.25
20
23.098844
30
0
210
0
220
0
230
1
1
\A1;5.5
40
3
41
0
44
1
50
0
71
5
72
5
7
iso_b_vert
0
POINT
5
22C
100
AcDbEntity
8
Defpoints
62
0
6
ByLayer
370
-1
48
1
60
0
100
AcDbPoint
10
68
20
8.083051
30
0
39
0
210
0
220
0
230
1
50
360
0
POINT
5
22D
100
AcDbEntity
8
Defpoints
62
0
6
ByLayer
370
-1
48
1
60
0
100
AcDbPoint
10
62.5
20
0
30
0
39
0
210
0
220
0
230
1
50
360
0
POINT
5
22E
100
AcDbEntity
8
Defpoints
62
0
6
ByLayer
370
-1
48
1
60
0
100
AcDbPoint
10
62.5
20
17.098844
30
0
39
0
210
0
220
0
230
1
50
360
0
ENDBLK
5
224
100
AcDbEntity
8
0
100
AcDbBlockEnd
0
BLOCK
5
237
100
AcDbEntity
8
0
100
AcDbBlockBegin
2
_U1
70
0
10
0
20
0
30
0
3
_U1
0
MTEXT
5
230
100
AcDbEntity
8
SK2
62
256
6
ByLayer
370
18
48
1
60
0
100
AcDbMText
10
63.035958
20
17.881478
30
0
210
0
220
0
230
1
1
\W0.6474;'C'
40
3.5
41
0
44
1.084337
50
0
71
7
72
5
7
iso_b_vert
0
MTEXT
5
231
100
AcDbEntity
8
SK2
62
256
6
ByLayer
370
18
48
1
60
0
100
AcDbMText
10
63.009458
20
24.983959
30
0
210
0
220
0
230
1
1
\W0.7121;5.5
40
3
41
0
44
1.084337
50
0
71
7
72
5
7
iso_b_vert
0
LINE
5
232
100
AcDbEntity
8
SK2
62
256
6
ByLayer
370
13
48
1
60
0
100
AcDbLine
10
68
20
9.670551
30
0
11
68
21
19.098844
31
0
39
0
210
0
220
0
230
1
0
LINE
5
233
100
AcDbEntity
8
SK2
62
256
6
ByLayer
370
13
48
1
60
0
100
AcDbLine
10
62.5
20
1.5875
30
0
11
62.5
21
19.098844
31
0
39
0
210
0
220
0
230
1
0
LINE
5
234
100
AcDbEntity
8
SK2
62
256
6
ByLayer
370
13
48
1
60
0
100
AcDbLine
10
75.5
20
17.098844
30
0
11
55
21
17.098844
31
0
39
0
210
0
220
0
230
1
0
SOLID
5
235
100
AcDbEntity
8
SK2
62
256
6
ByLayer
370
18
48
1
60
0
100
AcDbTrace
10
68
20
17.098844
30
0
11
71.499998
21
17.559628
31
0
12
71.500002
22
16.63806
32
0
13
71.500002
23
16.63806
33
0
39
0
210
0
220
0
230
1
0
SOLID
5
236
100
AcDbEntity
8
SK2
62
256
6
ByLayer
370
18
48
1
60
0
100
AcDbTrace
10
62.5
20
17.098844
30
0
11
59.000002
21
16.63806
31
0
12
58.999998
22
17.559628
32
0
13
58.999998
23
17.559628
33
0
39
0
210
0
220
0
230
1
0
ENDBLK
5
238
100
AcDbEntity
8
0
100
AcDbBlockEnd
0
BLOCK
5
23D
100
AcDbEntity
8
0
100
AcDbBlockBegin
2
*D5
70
1
10
0
20
0
30
0
3
*D5
0
LINE
5
23F
100
AcDbEntity
8
0
62
256
6
ByLayer
370
-2
48
1
60
0
100
AcDbLine
10
68
20
-9.670551
30
0
11
68
21
-17.083051
31
0
39
0
210
0
220
0
230
1
0
LINE
5
240
100
AcDbEntity
8
0
62
256
6
ByLayer
370
-2
48
1
60
0
100
AcDbLine
10
48
20
-9.670551
30
0
11
48
21
-17.083051
31
0
39
0
210
0
220
0
230
1
0
LINE
5
241
100
AcDbEntity
8
0
62
256
6
ByLayer
370
-2
48
1
60
0
100
AcDbLine
10
64.5
20
-15.083051
30
0
11
51.5
21
-15.083051
31
0
39
0
210
0
220
0
230
1
0
SOLID
5
242
100
AcDbEntity
8
0
62
256
6
ByLayer
370
-1
48
1
60
0
100
AcDbTrace
10
64.5
20
-15.666384
30
0
11
64.5
21
-14.499717
31
0
12
68
22
-15.083051
32
0
13
68
23
-15.083051
33
0
39
0
210
0
220
0
230
1
0
SOLID
5
243
100
AcDbEntity
8
0
62
256
6
ByLayer
370
-1
48
1
60
0
100
AcDbTrace
10
51.5
20
-14.499717
30
0
11
51.5
21
-15.666384
31
0
12
48
22
-15.083051
32
0
13
48
23
-15.083051
33
0
39
0
210
0
220
0
230
1
0
MTEXT
5
244
100
AcDbEntity
8
0
62
256
6
ByLayer
370
18
48
1
60
0
100
AcDbMText
10
58.47619
20
-9.083051
30
0
210
0
220
0
230
1
1
\A1;20
40
3
41
0
44
1
50
0
71
5
72
5
7
iso_b_vert
0
POINT
5
245
100
AcDbEntity
8
Defpoints
62
0
6
ByLayer
370
-1
48
1
60
0
100
AcDbPoint
10
68
20
-8.083051
30
0
39
0
210
0
220
0
230
1
50
360
0
POINT
5
246
100
AcDbEntity
8
Defpoints
62
0
6
ByLayer
370
-1
48
1
60
0
100
AcDbPoint
10
48
20
-8.083051
30
0
39
0
210
0
220
0
230
1
50
360
0
POINT
5
247
100
AcDbEntity
8
Defpoints
62
0
6
ByLayer
370
-1
48
1
60
0
100
AcDbPoint
10
48
20
-15.083051
30
0
39
0
210
0
220
0
230
1
50
360
0
ENDBLK
5
23E
100
AcDbEntity
8
0
100
AcDbBlockEnd
0
BLOCK
5
250
100
AcDbEntity
8
0
100
AcDbBlockBegin
2
_U2
70
0
10
0
20
0
30
0
3
_U2
0
MTEXT
5
249
100
AcDbEntity
8
SK2
62
256
6
ByLayer
370
18
48
1
60
0
100
AcDbMText
10
51.968744
20
-14.197936
30
0
210
0
220
0
230
1
1
\W0.6740;20
40
3
41
0
44
1.084337
50
0
71
7
72
5
7
iso_b_vert
0
MTEXT
5
24A
100
AcDbEntity
8
SK2
62
256
6
ByLayer
370
18
48
1
60
0
100
AcDbMText
10
58.0259
20
-13.845455
30
0
210
0
220
0
230
1
1
\W0.8315;\W0.4158;%%p\W0.8315;0.5
40
2.5
41
0
44
1.084337
50
0
71
7
72
5
7
iso_b_vert
0
LINE
5
24B
100
AcDbEntity
8
SK2
62
256
6
ByLayer
370
13
48
1
60
0
100
AcDbLine
10
68
20
-9.670551
30
0
11
68
21
-17.083051
31
0
39
0
210
0
220
0
230
1
0
LINE
5
24C
100
AcDbEntity
8
SK2
62
256
6
ByLayer
370
13
48
1
60
0
100
AcDbLine
10
48
20
-9.670551
30
0
11
48
21
-17.083051
31
0
39
0
210
0
220
0
230
1
0
LINE
5
24D
100
AcDbEntity
8
SK2
62
256
6
ByLayer
370
13
48
1
60
0
100
AcDbLine
10
68
20
-15.083051
30
0
11
48
21
-15.083051
31
0
39
0
210
0
220
0
230
1
0
SOLID
5
24E
100
AcDbEntity
8
SK2
62
256
6
ByLayer
370
18
48
1
60
0
100
AcDbTrace
10
68
20
-15.083051
30
0
11
64.500002
21
-15.543834
31
0
12
64.499998
22
-14.622267
32
0
13
64.499998
23
-14.622267
33
0
39
0
210
0
220
0
230
1
0
SOLID
5
24F
100
AcDbEntity
8
SK2
62
256
6
ByLayer
370
18
48
1
60
0
100
AcDbTrace
10
48
20
-15.083051
30
0
11
51.499998
21
-14.622267
31
0
12
51.500002
22
-15.543834
32
0
13
51.500002
23
-15.543834
33
0
39
0
210
0
220
0
230
1
0
ENDBLK
5
251
100
AcDbEntity
8
0
100
AcDbBlockEnd
0
BLOCK
5
256
100
AcDbEntity
8
0
100
AcDbBlockBegin
2
*D7
70
1
10
0
20
0
30
0
3
*D7
0
LINE
5
258
100
AcDbEntity
8
0
62
256
6
ByLayer
370
-2
48
1
60
0
100
AcDbLine
10
68
20
-9.670551
30
0
11
68
21
-39.583051
31
0
39
0
210
0
220
0
230
1
0
LINE
5
259
100
AcDbEntity
8
0
62
256
6
ByLayer
370
-2
48
1
60
0
100
AcDbLine
10
8
20
-7.4375
30
0
11
8
21
-39.583051
31
0
39
0
210
0
220
0
230
1
0
LINE
5
25A
100
AcDbEntity
8
0
62
256
6
ByLayer
370
-2
48
1
60
0
100
AcDbLine
10
64.5
20
-37.583051
30
0
11
11.5
21
-37.583051
31
0
39
0
210
0
220
0
230
1
0
SOLID
5
25B
100
AcDbEntity
8
0
62
256
6
ByLayer
370
-1
48
1
60
0
100
AcDbTrace
10
64.5
20
-38.166384
30
0
11
64.5
21
-36.999717
31
0
12
68
22
-37.583051
32
0
13
68
23
-37.583051
33
0
39
0
210
0
220
0
230
1
0
SOLID
5
25C
100
AcDbEntity
8
0
62
256
6
ByLayer
370
-1
48
1
60
0
100
AcDbTrace
10
11.5
20
-36.999717
30
0
11
11.5
21
-38.166384
31
0
12
8
22
-37.583051
32
0
13
8
23
-37.583051
33
0
39
0
210
0
220
0
230
1
0
MTEXT
5
25D
100
AcDbEntity
8
0
62
256
6
ByLayer
370
18
48
1
60
0
100
AcDbMText
10
38
20
-31.583051
30
0
210
0
220
0
230
1
1
\A1;60
40
3
41
0
44
1
50
0
71
5
72
5
7
iso_b_vert
0
POINT
5
25E
100
AcDbEntity
8
Defpoints
62
0
6
ByLayer
370
-1
48
1
60
0
100
AcDbPoint
10
68
20
-8.083051
30
0
39
0
210
0
220
0
230
1
50
360
0
POINT
5
25F
100
AcDbEntity
8
Defpoints
62
0
6
ByLayer
370
-1
48
1
60
0
100
AcDbPoint
10
8
20
-5.85
30
0
39
0
210
0
220
0
230
1
50
360
0
POINT
5
260
100
AcDbEntity
8
Defpoints
62
0
6
ByLayer
370
-1
48
1
60
0
100
AcDbPoint
10
8
20
-37.583051
30
0
39
0
210
0
220
0
230
1
50
360
0
ENDBLK
5
257
100
AcDbEntity
8
0
100
AcDbBlockEnd
0
BLOCK
5
268
100
AcDbEntity
8
0
100
AcDbBlockBegin
2
_U3
70
0
10
0
20
0
30
0
3
_U3
0
MTEXT
5
262
100
AcDbEntity
8
SK2
62
256
6
ByLayer
370
18
48
1
60
0
100
AcDbMText
10
36.367172
20
-36.697936
30
0
210
0
220
0
230
1
1
\W0.6740;60
40
3
41
0
44
1.084337
50
0
71
7
72
5
7
iso_b_vert
0
LINE
5
263
100
AcDbEntity
8
SK2
62
256
6
ByLayer
370
13
48
1
60
0
100
AcDbLine
10
68
20
-9.670551
30
0
11
68
21
-39.583051
31
0
39
0
210
0
220
0
230
1
0
LINE
5
264
100
AcDbEntity
8
SK2
62
256
6
ByLayer
370
13
48
1
60
0
100
AcDbLine
10
8
20
-7.4375
30
0
11
8
21
-39.583051
31
0
39
0
210
0
220
0
230
1
0
LINE
5
265
100
AcDbEntity
8
SK2
62
256
6
ByLayer
370
13
48
1
60
0
100
AcDbLine
10
68
20
-37.583051
30
0
11
8
21
-37.583051
31
0
39
0
210
0
220
0
230
1
0
SOLID
5
266
100
AcDbEntity
8
SK2
62
256
6
ByLayer
370
18
48
1
60
0
100
AcDbTrace
10
68
20
-37.583051
30
0
11
64.500002
21
-38.043834
31
0
12
64.499998
22
-37.122267
32
0
13
64.499998
23
-37.122267
33
0
39
0
210
0
220
0
230
1
0
SOLID
5
267
100
AcDbEntity
8
SK2
62
256
6
ByLayer
370
18
48
1
60
0
100
AcDbTrace
10
8
20
-37.583051
30
0
11
11.499998
21
-37.122267
31
0
12
11.500002
22
-38.043834
32
0
13
11.500002
23
-38.043834
33
0
39
0
210
0
220
0
230
1
0
ENDBLK
5
269
100
AcDbEntity
8
0
100
AcDbBlockEnd
0
BLOCK
5
26E
100
AcDbEntity
8
0
100
AcDbBlockBegin
2
*D9
70
1
10
0
20
0
30
0
3
*D9
0
LINE
5
270
100
AcDbEntity
8
0
62
256
6
ByLayer
370
-2
48
1
60
0
100
AcDbLine
10
68
20
-9.670551
30
0
11
68
21
-28.583051
31
0
39
0
210
0
220
0
230
1
0
LINE
5
271
100
AcDbEntity
8
0
62
256
6
ByLayer
370
-2
48
1
60
0
100
AcDbLine
10
17
20
-1.5875
30
0
11
17
21
-28.583051
31
0
39
0
210
0
220
0
230
1
0
LINE
5
272
100
AcDbEntity
8
0
62
256
6
ByLayer
370
-2
48
1
60
0
100
AcDbLine
10
64.5
20
-26.583051
30
0
11
20.5
21
-26.583051
31
0
39
0
210
0
220
0
230
1
0
SOLID
5
273
100
AcDbEntity
8
0
62
256
6
ByLayer
370
-1
48
1
60
0
100
AcDbTrace
10
64.5
20
-27.166384
30
0
11
64.5
21
-25.999717
31
0
12
68
22
-26.583051
32
0
13
68
23
-26.583051
33
0
39
0
210
0
220
0
230
1
0
SOLID
5
274
100
AcDbEntity
8
0
62
256
6
ByLayer
370
-1
48
1
60
0
100
AcDbTrace
10
20.5
20
-25.999717
30
0
11
20.5
21
-27.166384
31
0
12
17
22
-26.583051
32
0
13
17
23
-26.583051
33
0
39
0
210
0
220
0
230
1
0
MTEXT
5
275
100
AcDbEntity
8
0
62
256
6
ByLayer
370
18
48
1
60
0
100
AcDbMText
10
42.5
20
-20.583051
30
0
210
0
220
0
230
1
1
\A1;51
40
3
41
0
44
1
50
0
71
5
72
5
7
iso_b_vert
0
POINT
5
276
100
AcDbEntity
8
Defpoints
62
0
6
ByLayer
370
-1
48
1
60
0
100
AcDbPoint
10
68
20
-8.083051
30
0
39
0
210
0
220
0
230
1
50
360
0
POINT
5
277
100
AcDbEntity
8
Defpoints
62
0
6
ByLayer
370
-1
48
1
60
0
100
AcDbPoint
10
17
20
0
30
0
39
0
210
0
220
0
230
1
50
360
0
POINT
5
278
100
AcDbEntity
8
Defpoints
62
0
6
ByLayer
370
-1
48
1
60
0
100
AcDbPoint
10
17
20
-26.583051
30
0
39
0
210
0
220
0
230
1
50
360
0
ENDBLK
5
26F
100
AcDbEntity
8
0
100
AcDbBlockEnd
0
BLOCK
5
280
100
AcDbEntity
8
0
100
AcDbBlockBegin
2
_U4
70
0
10
0
20
0
30
0
3
_U4
0
MTEXT
5
27A
100
AcDbEntity
8
2
62
256
6
ByLayer
370
18
48
1
60
0
100
AcDbMText
10
41.242115
20
-25.697936
30
0
210
0
220
0
230
1
1
\W0.6351;51
40
3
41
0
44
1.084337
50
0
71
7
72
5
7
iso_b_vert
0
LINE
5
27B
100
AcDbEntity
8
2
62
256
6
ByLayer
370
13
48
1
60
0
100
AcDbLine
10
68
20
-9.670551
30
0
11
68
21
-28.583051
31
0
39
0
210
0
220
0
230
1
0
LINE
5
27C
100
AcDbEntity
8
2
62
256
6
ByLayer
370
13
48
1
60
0
100
AcDbLine
10
17
20
-1.5875
30
0
11
17
21
-28.583051
31
0
39
0
210
0
220
0
230
1
0
LINE
5
27D
100
AcDbEntity
8
2
62
256
6
ByLayer
370
13
48
1
60
0
100
AcDbLine
10
68
20
-26.583051
30
0
11
17
21
-26.583051
31
0
39
0
210
0
220
0
230
1
0
SOLID
5
27E
100
AcDbEntity
8
2
62
256
6
ByLayer
370
18
48
1
60
0
100
AcDbTrace
10
68
20
-26.583051
30
0
11
64.500002
21
-27.043834
31
0
12
64.499998
22
-26.122267
32
0
13
64.499998
23
-26.122267
33
0
39
0
210
0
220
0
230
1
0
SOLID
5
27F
100
AcDbEntity
8
2
62
256
6
ByLayer
370
18
48
1
60
0
100
AcDbTrace
10
17
20
-26.583051
30
0
11
20.499998
21
-26.122267
31
0
12
20.500002
22
-27.043834
32
0
13
20.500002
23
-27.043834
33
0
39
0
210
0
220
0
230
1
0
ENDBLK
5
281
100
AcDbEntity
8
0
100
AcDbBlockEnd
0
ENDSEC
0
SECTION
2
ENTITIES
0
ARC
5
CC
100
AcDbEntity
8
SK1
62
256
6
ByLayer
370
18
48
1
60
0
100
AcDbCircle
39
0
10
-34.5
20
0
30
0
40
5.75999999999993
210
0
220
0
230
1
100
AcDbArc
50
321.375167
51
38.624833
0
ARC
5
CD
100
AcDbEntity
8
1
62
256
6
ByLayer
370
18
48
1
60
0
100
AcDbCircle
39
0
10
45.613782
20
-7.25
30
0
40
1.4
210
0
220
0
230
1
100
AcDbArc
50
30
51
90
0
ARC
5
CE
100
AcDbEntity
8
1
62
256
6
ByLayer
370
18
48
1
60
0
100
AcDbCircle
39
0
10
8.653835
20
-7.35
30
0
40
1.5
210
0
220
0
230
1
100
AcDbArc
50
90
51
115.841933
0
ARC
5
CF
100
AcDbEntity
8
1
62
256
6
ByLayer
370
18
48
1
60
0
100
AcDbCircle
39
0
10
8.653835
20
7.35
30
0
40
1.5
210
0
220
0
230
1
100
AcDbArc
50
244.158067
51
270
0
POINT
5
70
100
AcDbEntity
8
80
62
256
6
ByLayer
370
18
48
1
60
0
100
AcDbPoint
10
0
20
0
30
0
39
0
210
0
220
0
230
1
50
360
0
POINT
5
72
100
AcDbEntity
8
81
62
256
6
ByLayer
370
18
48
1
60
0
100
AcDbPoint
10
68
20
0
30
0
39
0
210
0
220
0
230
1
50
360
0
POINT
5
74
100
AcDbEntity
8
1
62
256
6
ByLayer
370
18
48
1
60
1
100
AcDbPoint
10
68
20
8.083051
30
0
39
0
210
0
220
0
230
1
50
360
0
POINT
5
76
100
AcDbEntity
8
1
62
256
6
ByLayer
370
18
48
1
60
1
100
AcDbPoint
10
68
20
-8.083051
30
0
39
0
210
0
220
0
230
1
50
360
0
POINT
5
77
100
AcDbEntity
8
1
62
256
6
ByLayer
370
18
48
1
60
1
100
AcDbPoint
10
68
20
8.083051
30
0
39
0
210
0
220
0
230
1
50
360
0
POINT
5
78
100
AcDbEntity
8
1
62
256
6
ByLayer
370
18
48
1
60
1
100
AcDbPoint
10
62.5
20
0
30
0
39
0
210
0
220
0
230
1
50
360
0
POINT
5
79
100
AcDbEntity
8
1
62
256
6
ByLayer
370
18
48
1
60
1
100
AcDbPoint
10
68
20
-8.083051
30
0
39
0
210
0
220
0
230
1
50
360
0
POINT
5
7A
100
AcDbEntity
8
1
62
256
6
ByLayer
370
18
48
1
60
1
100
AcDbPoint
10
48
20
-8.083051
30
0
39
0
210
0
220
0
230
1
50
360
0
POINT
5
7B
100
AcDbEntity
8
1
62
256
6
ByLayer
370
18
48
1
60
1
100
AcDbPoint
10
68
20
-8.083051
30
0
39
0
210
0
220
0
230
1
50
360
0
POINT
5
7C
100
AcDbEntity
8
1
62
256
6
ByLayer
370
18
48
1
60
1
100
AcDbPoint
10
8
20
-5.85
30
0
39
0
210
0
220
0
230
1
50
360
0
POINT
5
7D
100
AcDbEntity
8
1
62
256
6
ByLayer
370
18
48
1
60
1
100
AcDbPoint
10
68
20
-8.083051
30
0
39
0
210
0
220
0
230
1
50
360
0
POINT
5
7E
100
AcDbEntity
8
1
62
256
6
ByLayer
370
18
48
1
60
1
100
AcDbPoint
10
17
20
0
30
0
39
0
210
0
220
0
230
1
50
360
0
SPLINE
5
D0
100
AcDbEntity
8
1
62
256
6
ByLayer
370
18
48
1
60
0
100
AcDbSpline
70
4
71
3
72
8
73
4
40
0
40
0
40
0
40
0
40
1
40
1
40
1
40
1
41
1
10
63.3458512661093
20
-6.8996593177549
30
0
41
1
10
63.3405460425585
20
-6.91478111421486
30
0
41
1
10
63.335240817589
20
-6.92703296080063
30
0
41
1
10
63.3299355930821
20
-6.93639894148151
30
0
0
SPLINE
5
D1
100
AcDbEntity
8
1
62
256
6
ByLayer
370
18
48
1
60
0
100
AcDbSpline
70
4
71
3
72
8
73
4
40
0
40
0
40
0
40
0
40
1
40
1
40
1
40
1
41
1
10
66.7800412244347
20
6.93801009606267
30
0
41
1
10
66.7867806985876
20
6.94963610882849
30
0
41
1
10
66.7935296747135
20
6.9567153710168
30
0
41
1
10
66.8002850182987
20
6.95919971585477
30
0
0
SPLINE
5
D2
100
AcDbEntity
8
1
62
256
6
ByLayer
370
13
48
1
60
0
100
AcDbSpline
70
4
71
3
72
8
73
4
40
0
40
0
40
0
40
0
40
1
40
1
40
1
40
1
41
1
10
66.7997055431796
20
6.95821749459481
30
0
41
1
10
66.7936171200278
20
6.95605962431563
30
0
41
1
10
66.7875286968903
20
6.95009015290242
30
0
41
1
10
66.7814402737863
20
6.94031713609545
30
0
0
SPLINE
5
D3
100
AcDbEntity
8
1
62
256
6
ByLayer
370
13
48
1
60
0
100
AcDbSpline
70
4
71
3
72
9
73
5
40
0
40
0
40
0
40
0
40
0.362752023615972
40
1
40
1
40
1
40
1
41
1
10
61.3080370122871
20
-6.95860853007608
30
0
41
1
10
61.3104305004148
20
-6.95798593664856
30
0
41
1
10
61.3170286377706
20
-6.95463736676123
30
0
41
1
10
61.3236267710561
20
-6.94677900555885
30
0
41
1
10
61.3278314168328
20
-6.93995205020195
30
0
0
SPLINE
5
D4
100
AcDbEntity
8
1
62
256
6
ByLayer
370
13
48
1
60
0
100
AcDbSpline
70
4
71
3
72
8
73
4
40
0
40
0
40
0
40
0
40
1
40
1
40
1
40
1
41
1
10
59.2862028141824
20
-6.9479634695237
30
0
41
1
10
59.3023814877743
20
-6.96792463239979
30
0
41
1
10
59.3185601397142
20
-6.96089781284147
30
0
41
1
10
59.3347387938647
20
-6.92707375663113
30
0
0
SPLINE
5
D5
100
AcDbEntity
8
1
62
256
6
ByLayer
370
18
48
1
60
0
100
AcDbSpline
70
4
71
3
72
8
73
4
40
0
40
0
40
0
40
0
40
1
40
1
40
1
40
1
41
1
10
59.3347386781793
20
-6.92707399848942
30
0
41
1
10
59.336108695289
20
-6.92420977008774
30
0
41
1
10
59.3374787124145
20
-6.9211533842398
30
0
41
1
10
59.3388487295705
20
-6.91790495677148
30
0
0
SPLINE
5
D6
100
AcDbEntity
8
1
62
256
6
ByLayer
370
13
48
1
60
0
100
AcDbSpline
70
4
71
3
72
8
73
4
40
0
40
0
40
0
40
0
40
1
40
1
40
1
40
1
41
1
10
57.7705044257513
20
-6.91859625804378
30
0
41
1
10
57.7735690009497
20
-6.9258077427377
30
0
41
1
10
57.7766335761513
20
-6.9320597275709
30
0
41
1
10
57.7796981513528
20
-6.9373499865562
30
0
0
SPLINE
5
D7
100
AcDbEntity
8
1
62
256
6
ByLayer
370
13
48
1
60
0
100
AcDbSpline
70
4
71
3
72
9
73
5
40
0
40
0
40
0
40
0
40
0.926287953572939
40
1
40
1
40
1
40
1
41
1
10
57.2644096486037
20
-6.90469854613488
30
0
41
1
10
57.2837374697206
20
-6.95734980807276
30
0
41
1
10
57.3046033480135
20
-6.97303797248691
30
0
41
1
10
57.3254692570729
20
-6.94367927263602
30
0
41
1
10
57.3270073260815
20
-6.94127109141218
30
0
0
SPLINE
5
D8
100
AcDbEntity
8
1
62
256
6
ByLayer
370
13
48
1
60
0
100
AcDbSpline
70
4
71
3
72
9
73
5
40
0
40
0
40
0
40
0
40
0.779423725261798
40
1
40
1
40
1
40
1
41
1
10
55.7486930186399
20
-6.85103781516918
30
0
41
1
10
55.7601825395852
20
-6.89514639575057
30
0
41
1
10
55.7749235855048
20
-6.93460411166117
30
0
41
1
10
55.7896646312587
20
-6.95159354137962
30
0
41
1
10
55.7929161562109
20
-6.95425002627979
30
0
0
SPLINE
5
D9
100
AcDbEntity
8
1
62
256
6
ByLayer
370
13
48
1
60
0
100
AcDbSpline
70
4
71
3
72
9
73
5
40
0
40
0
40
0
40
0
40
0.50167631526195
40
1
40
1
40
1
40
1
41
1
10
55.2425751878803
20
-6.82894314882572
30
0
41
1
10
55.256218160334
20
-6.88634549379847
30
0
41
1
10
55.2834129404378
20
-6.96336726962448
30
0
41
1
10
55.3106077824842
20
-6.96391670246132
30
0
41
1
10
55.3241596166514
20
-6.94536296620373
30
0
0
SPLINE
5
DA
100
AcDbEntity
8
1
62
256
6
ByLayer
370
13
48
1
60
0
100
AcDbSpline
70
4
71
3
72
9
73
5
40
0
40
0
40
0
40
0
40
0.307402023479421
40
1
40
1
40
1
40
1
41
1
10
53.7267712926161
20
-6.75077970001101
30
0
41
1
10
53.7326050629023
20
-6.78177167279242
30
0
41
1
10
53.7515827203244
20
-6.87152435551013
30
0
41
1
10
53.7705603778505
20
-6.92462812952076
30
0
41
1
10
53.7837042651157
20
-6.94370137878769
30
0
0
SPLINE
5
DB
100
AcDbEntity
8
1
62
256
6
ByLayer
370
13
48
1
60
0
100
AcDbSpline
70
4
71
3
72
9
73
5
40
0
40
0
40
0
40
0
40
0.226040012307665
40
1
40
1
40
1
40
1
41
1
10
53.2206393732419
20
-6.72054610652734
30
0
41
1
10
53.2286312950859
20
-6.76591844804858
30
0
41
1
10
53.2639875394524
20
-6.9385686598068
30
0
41
1
10
53.2993438977607
20
-6.98396277148726
30
0
41
1
10
53.3267082222959
20
-6.94175788532465
30
0
0
SPLINE
5
DC
100
AcDbEntity
8
1
62
256
6
ByLayer
370
18
48
1
60
0
100
AcDbSpline
70
4
71
3
72
9
73
5
40
0
40
0
40
0
40
0
40
0.551017489278575
40
1
40
1
40
1
40
1
41
1
10
53.3267079430049
20
-6.94175831608152
30
0
41
1
10
53.3276616327394
20
-6.94028742778056
30
0
41
1
10
53.3293924119858
20
-6.93744754396593
30
0
41
1
10
53.3311231908828
20
-6.93429811450653
30
0
41
1
10
53.3319002802698
20
-6.93282177301447
30
0
0
SPLINE
5
DD
100
AcDbEntity
8
1
62
256
6
ByLayer
370
13
48
1
60
0
100
AcDbSpline
70
4
71
3
72
9
73
5
40
0
40
0
40
0
40
0
40
0.0064941768717278
40
1
40
1
40
1
40
1
41
1
10
51.7049075948519
20
-6.61889489240838
30
0
41
1
10
51.7050662717941
20
-6.61996634394973
30
0
41
1
10
51.7294999983967
20
-6.78457080819848
30
0
41
1
10
51.7539337258165
20
-6.89030746206467
30
0
41
1
10
51.7782087763188
20
-6.93476292281983
30
0
0
SPLINE
5
DE
100
AcDbEntity
8
1
62
256
6
ByLayer
370
13
48
1
60
0
100
AcDbSpline
70
4
71
3
72
10
73
6
40
0
40
0
40
0
40
0
40
0.05300529548648
40
0.704313481259702
40
1
40
1
40
1
40
1
41
1
10
51.1988124080422
20
-6.58103282399924
30
0
41
1
10
51.2011170002872
20
-6.5974172459386
30
0
41
1
10
51.2317395176178
20
-6.80822985963425
30
0
41
1
10
51.2752181218471
20
-6.97615300065056
30
0
41
1
10
51.3163919858813
20
-6.95960558776875
30
0
41
1
10
51.3292479752717
20
-6.93751206865241
30
0
0
SPLINE
5
DF
100
AcDbEntity
8
1
62
256
6
ByLayer
370
18
48
1
60
0
100
AcDbSpline
70
4
71
3
72
17
73
13
40
0
40
0
40
0
40
0
40
0.100514295015106
40
0.100514295015106
40
0.175471437097181
40
0.175471437097181
40
0.250428579179255
40
0.400342863343404
40
0.400342863343404
40
0.700171431671702
40
0.700171431671702
40
1
40
1
40
1
40
1
41
1
10
50.654705108722
20
-8.08305804995007
30
0
41
1
10
50.6508154965925
20
-8.08304493509792
30
0
41
1
10
50.6469151391075
20
-8.08121190903265
30
0
41
1
10
50.6400772792408
20
-8.07479909556514
30
0
41
1
10
50.6371441284331
20
-8.0710265789165
30
0
41
1
10
50.6312951341304
20
-8.06147098486994
30
0
41
1
10
50.6225346710673
20
-8.04411368472077
30
0
41
1
10
50.6138181803418
20
-8.01779654990244
30
0
41
1
10
50.5964377700913
20
-7.95340748714543
30
0
41
1
10
50.5849274992659
20
-7.8948424177305
30
0
41
1
10
50.561868155811
20
-7.7466012916031
30
0
41
1
10
50.5502841746636
20
-7.65692799000328
30
0
41
1
10
50.5385885450798
20
-7.5512213286876
30
0
0
SPLINE
5
E0
100
AcDbEntity
8
1
62
256
6
ByLayer
370
13
48
1
60
0
100
AcDbSpline
70
4
71
3
72
9
73
5
40
0
40
0
40
0
40
0
40
0.736444058927421
40
1
40
1
40
1
40
1
41
1
10
49.6831316401612
20
-6.45644331175168
30
0
41
1
10
49.7059038791154
20
-6.64215186495238
30
0
41
1
10
49.7368257659552
20
-6.82701051902492
30
0
41
1
10
49.7677476519239
20
-6.91415956404069
30
0
41
1
10
49.7758972986016
20
-6.93032302411277
30
0
0
SPLINE
5
E1
100
AcDbEntity
8
1
62
256
6
ByLayer
370
13
48
1
60
0
100
AcDbSpline
70
4
71
3
72
10
73
6
40
0
40
0
40
0
40
0
40
0.327686774015177
40
0.809960197224372
40
1
40
1
40
1
40
1
41
1
10
47.1551791347475
20
-6.21005076586354
30
0
41
1
10
47.1744200909076
20
-6.39985121707079
30
0
41
1
10
47.2219789263945
20
-6.78504677758016
30
0
41
1
10
47.2806963625206
20
-6.98294627099949
30
0
41
1
10
47.320173009344
20
-6.95456179240972
30
0
41
1
10
47.3313316997038
20
-6.93379026947232
30
0
0
SPLINE
5
E2
100
AcDbEntity
8
1
62
256
6
ByLayer
370
18
48
1
60
0
100
AcDbSpline
70
4
71
3
72
24
73
20
40
0
40
0
40
0
40
0
40
0.103843749090266
40
0.103843749090266
40
0.159853514772124
40
0.159853514772124
40
0.215863280453983
40
0.215863280453983
40
0.327882811817699
40
0.327882811817699
40
0.551921874545132
40
0.551921874545132
40
0.775960937272566
40
0.775960937272566
40
0.887980468636283
40
0.887980468636283
40
0.943990234318141
40
0.943990234318141
40
1
40
1
40
1
40
1
41
1
10
47.1832190579763
20
-7.16835114070497
30
0
41
1
10
47.180661889755
20
-7.16390511186219
30
0
41
1
10
47.1780952350872
20
-7.15665566535228
30
0
41
1
10
47.1741214223382
20
-7.14111885159767
30
0
41
1
10
47.1727254862682
20
-7.13484689766031
30
0
41
1
10
47.1699265317216
20
-7.12062824377236
30
0
41
1
10
47.1685214151938
20
-7.11266735485972
30
0
41
1
10
47.1643158918356
20
-7.08637493947322
30
0
41
1
10
47.1615233182382
20
-7.0656364174323
30
0
41
1
10
47.1531701981553
20
-6.99397989814841
30
0
41
1
10
47.147636726702
20
-6.93365053311393
30
0
41
1
10
47.1365340643038
20
-6.78813696324903
30
0
41
1
10
47.1309497885091
20
-6.70292838762069
30
0
41
1
10
47.1225155706582
20
-6.55612898851311
30
0
41
1
10
47.1196952479119
20
-6.50402613611092
30
0
41
1
10
47.1154474506154
20
-6.42101177372638
30
0
41
1
10
47.1140265718117
20
-6.3924871177536
30
0
41
1
10
47.1111923932123
20
-6.33409972158231
30
0
41
1
10
47.10977817382
20
-6.30422135142723
30
0
41
1
10
47.1083660521198
20
-6.27366489677698
30
0
0
SPLINE
5
E3
100
AcDbEntity
8
1
62
256
6
ByLayer
370
13
48
1
60
0
100
AcDbSpline
70
4
71
3
72
9
73
5
40
0
40
0
40
0
40
0
40
0.490463672925361
40
1
40
1
40
1
40
1
41
1
10
49.1770354674378
20
-6.4109474169239
30
0
41
1
10
49.2019539787023
20
-6.62279989820627
30
0
41
1
10
49.2527600149458
20
-6.93437533776381
30
0
41
1
10
49.3035659132549
20
-6.98199815279443
30
0
41
1
10
49.3294534077982
20
-6.93722936278175
30
0
0
SPLINE
5
E4
100
AcDbEntity
8
1
62
256
6
ByLayer
370
13
48
1
60
0
100
AcDbSpline
70
4
71
3
72
9
73
5
40
0
40
0
40
0
40
0
40
0.433181978817623
40
1
40
1
40
1
40
1
41
1
10
47.6612995684918
20
-6.26325705160602
30
0
41
1
10
47.6783861727452
20
-6.42605583093768
30
0
41
1
10
47.7178305759331
20
-6.73955504644485
30
0
41
1
10
47.7572749765376
20
-6.89852162139874
30
0
41
1
10
47.7796327730002
20
-6.93728560721831
30
0
0
SPLINE
5
E5
100
AcDbEntity
8
1
62
256
6
ByLayer
370
18
48
1
60
0
100
AcDbSpline
70
4
71
3
72
10
73
6
40
0
40
0
40
0
40
0
40
0.34538479421172
40
0.669243367015278
40
1
40
1
40
1
40
1
41
1
10
68
20
1.69105691125384
30
0
41
1
10
68
20
1.14410052793724
30
0
41
1
10
68
20
0.0376313685599143
30
0
41
1
10
67.9999999999999
20
-1.630153353628
30
0
41
1
10
68
20
-2.64853508017836
30
0
41
1
10
68
20
-3.12573931009797
30
0
0
SPLINE
5
E6
100
AcDbEntity
8
1
62
256
6
ByLayer
370
18
48
1
60
0
100
AcDbSpline
70
4
71
3
72
66
73
62
40
0
40
0
40
0
40
0
40
0.0625877427616722
40
0.0625877427616722
40
0.0782346784520903
40
0.0782346784520903
40
0.0938816141425084
40
0.0938816141425084
40
0.125175485523345
40
0.125175485523345
40
0.187763228285017
40
0.187763228285017
40
0.219057099665853
40
0.219057099665853
40
0.234704035356271
40
0.234704035356271
40
0.25035097104669
40
0.25035097104669
40
0.312938713808363
40
0.312938713808363
40
0.375526456570036
40
0.375526456570036
40
0.391173392260454
40
0.391173392260454
40
0.406820327950872
40
0.406820327950872
40
0.438114199331708
40
0.438114199331708
40
0.500701942093381
40
0.500701942093381
40
0.531995813474217
40
0.531995813474217
40
0.547642749164635
40
0.547642749164635
40
0.563289684855053
40
0.563289684855053
40
0.625877427616727
40
0.625877427616727
40
0.6884651703784
40
0.6884651703784
40
0.704112106068818
40
0.704112106068818
40
0.719759041759237
40
0.719759041759237
40
0.751052913140073
40
0.751052913140073
40
0.813640655901747
40
0.813640655901747
40
0.87622839866342
40
0.87622839866342
40
0.891875334353839
40
0.891875334353839
40
0.907522270044257
40
0.907522270044257
40
0.938816141425094
40
0.938816141425094
40
0.954463077115513
40
0.954463077115513
40
0.970110012805932
40
0.970110012805932
40
1
40
1
40
1
40
1
41
1
10
68
20
6.20545699821864
30
0
41
1
10
68.0000000000001
20
6.02200150719466
30
0
41
1
10
68
20
5.8366416983626
30
0
41
1
10
68
20
5.60239823833527
30
0
41
1
10
68
20
5.55533060374017
30
0
41
1
10
68
20
5.46145085000836
30
0
41
1
10
68
20
5.41466058158292
30
0
41
1
10
68
20
5.2747299598002
30
0
41
1
10
68
20
5.18202876758212
30
0
41
1
10
68
20
4.90562740421882
30
0
41
1
10
68
20
4.72361677523699
30
0
41
1
10
67.9999999999999
20
4.45403532606358
30
0
41
1
10
68.0000000000001
20
4.36475330299666
30
0
41
1
10
68.0000000000001
20
4.23171585458587
30
0
41
1
10
68
20
4.18751696273534
30
0
41
1
10
68
20
4.09941696296528
30
0
41
1
10
68
20
4.05576305781858
30
0
41
1
10
68
20
3.83944044569401
30
0
41
1
10
68
20
3.67256956031787
30
0
41
1
10
68
20
3.35108674977192
30
0
41
1
10
68
20
3.1964692885046
30
0
41
1
10
68
20
3.01087628252796
30
0
41
1
10
68
20
2.97414479615955
30
0
41
1
10
68
20
2.90146952762703
30
0
41
1
10
68
20
2.86554396482398
30
0
41
1
10
68
20
2.75975872056281
30
0
41
1
10
68
20
2.6916234651205
30
0
41
1
10
68
20
2.49428376584089
30
0
41
1
10
68
20
2.37202021439504
30
0
41
1
10
68
20
2.20230712967154
30
0
41
1
10
68
20
2.14803098555822
30
0
41
1
10
68
20
2.07016306967563
30
0
41
1
10
68
20
2.04480006808882
30
0
41
1
10
68
20
1.99528376345165
30
0
41
1
10
68
20
1.97108734560194
30
0
41
1
10
68
20
1.85388316447563
30
0
41
1
10
68
20
1.77178290044742
30
0
41
1
10
68
20
1.6299541464771
30
0
41
1
10
68
20
1.57034588279177
30
0
41
1
10
68
20
1.51023175021365
30
0
41
1
10
68
20
1.49892709685639
30
0
41
1
10
68
20
1.47776719780327
30
0
41
1
10
68
20
1.46790052325531
30
0
41
1
10
68
20
1.44058493822783
30
0
41
1
10
67.9999999999999
20
1.42550599830267
30
0
41
1
10
67.9999999999999
20
1.38948910382388
30
0
41
1
10
68
20
1.37781045931931
30
0
41
1
10
68
20
1.37855863483477
30
0
41
1
10
68
20
1.39095649088898
30
0
41
1
10
68
20
1.42221451822925
30
0
41
1
10
68
20
1.42924226130805
30
0
41
1
10
68
20
1.44478359211669
30
0
41
1
10
68
20
1.45330405834014
30
0
41
1
10
68
20
1.48109104809069
30
0
41
1
10
68
20
1.50265084699944
30
0
41
1
10
68
20
1.53935010991853
30
0
41
1
10
68
20
1.55229254419069
30
0
41
1
10
68.0000000000001
20
1.5794058072004
30
0
41
1
10
68
20
1.59316198324333
30
0
41
1
10
68
20
1.6333737799589
30
0
41
1
10
67.9999999999999
20
1.6601326651674
30
0
41
1
10
67.9999999999999
20
1.68723568174934
30
0
0
SPLINE
5
E7
100
AcDbEntity
8
1
62
256
6
ByLayer
370
18
48
1
60
0
100
AcDbSpline
70
4
71
3
72
15
73
11
40
0
40
0
40
0
40
0
40
0.249999999999991
40
0.249999999999991
40
0.499999999999982
40
0.499999999999982
40
0.624999999999977
40
0.749999999999972
40
0.749999999999972
40
1
40
1
40
1
40
1
41
1
10
67.4000000610674
20
6.80514582385734
30
0
41
1
10
67.4500095459723
20
6.7551611538648
30
0
41
1
10
67.5000210572762
20
6.70517157718942
30
0
41
1
10
67.6000472287002
20
6.6051853660266
30
0
41
1
10
67.6500620432433
20
6.55518785012683
30
0
41
1
10
67.72508281564
20
6.48019494443489
30
0
41
1
10
67.7750945307392
20
6.43020319782389
30
0
41
1
10
67.8250902583115
20
6.38023594798986
30
0
41
1
10
67.9000712864505
20
6.30530344017049
30
0
41
1
10
67.9500430744995
20
6.25537116030628
30
0
41
1
10
68
20
6.20545699821861
30
0
0
SPLINE
5
E8
100
AcDbEntity
8
1
62
256
6
ByLayer
370
18
48
1
60
0
100
AcDbSpline
70
4
71
3
72
8
73
4
40
0
40
0
40
0
40
0
40
1
40
1
40
1
40
1
41
1
10
66.8002850182987
20
6.95919971585477
30
0
41
1
10
67.0000796537355
20
6.90819536743669
30
0
41
1
10
67.1999807992587
20
6.85683667913062
30
0
41
1
10
67.4000000610673
20
6.80514582385734
30
0
0
SPLINE
5
E9
100
AcDbEntity
8
1
62
256
6
ByLayer
370
18
48
1
60
0
100
AcDbSpline
70
4
71
3
72
8
73
4
40
0
40
0
40
0
40
0
40
1
40
1
40
1
40
1
41
1
10
66.7997055431797
20
6.95821749459486
30
0
41
1
10
66.7998987021702
20
6.95854490465606
30
0
41
1
10
66.8000918605432
20
6.95887231174311
30
0
41
1
10
66.8002850182986
20
6.95919971585477
30
0
0
SPLINE
5
EA
100
AcDbEntity
8
1
62
256
6
ByLayer
370
18
48
1
60
0
100
AcDbSpline
70
4
71
3
72
34
73
30
40
0
40
0
40
0
40
0
40
0.125000000000159
40
0.125000000000159
40
0.187500000000238
40
0.187500000000238
40
0.250000000000318
40
0.250000000000318
40
0.281250000000328
40
0.281250000000328
40
0.312500000000337
40
0.312500000000337
40
0.375000000000297
40
0.437500000000257
40
0.437500000000257
40
0.500000000000216
40
0.500000000000216
40
0.562500000000176
40
0.562500000000176
40
0.625000000000136
40
0.625000000000136
40
0.750000000000055
40
0.750000000000055
40
0.812500000000041
40
0.812500000000041
40
0.875000000000028
40
0.937500000000014
40
0.937500000000014
40
1
40
1
40
1
40
1
41
1
10
66.293513068276
20
6.95513275032979
30
0
41
1
10
66.3066133860038
20
6.93233633697332
30
0
41
1
10
66.3225150405019
20
6.91186479729021
30
0
41
1
10
66.3504494622271
20
6.88454429844538
30
0
41
1
10
66.3604844434314
20
6.87600497365065
30
0
41
1
10
66.3813075843039
20
6.86060330882
30
0
41
1
10
66.392166659831
20
6.85366365242319
30
0
41
1
10
66.4091126282778
20
6.84437245455496
30
0
41
1
10
66.4148712133783
20
6.84146240216694
30
0
41
1
10
66.4266103287582
20
6.8360199460422
30
0
41
1
10
66.4326096939992
20
6.83348150306509
30
0
41
1
10
66.4506947210549
20
6.82653604719027
30
0
41
1
10
66.4751566939055
20
6.81898918408822
30
0
41
1
10
66.5002822582428
20
6.81471270252968
30
0
41
1
10
66.5257401556762
20
6.81207933832576
30
0
41
1
10
66.5385375016085
20
6.81160448728212
30
0
41
1
10
66.5637976050932
20
6.81228130599774
30
0
41
1
10
66.5763318140256
20
6.81342496712671
30
0
41
1
10
66.6012102371963
20
6.81729564773724
30
0
41
1
10
66.6136327627014
20
6.82004775149659
30
0
41
1
10
66.6499682335584
20
6.83055938058112
30
0
41
1
10
66.6728577302015
20
6.84045462942078
30
0
41
1
10
66.7052288154602
20
6.85952586123511
30
0
41
1
10
66.7157085244055
20
6.86662608946304
30
0
41
1
10
66.7354540865174
20
6.88189482970117
30
0
41
1
10
66.7541308533008
20
6.89830609077907
30
0
41
1
10
66.7706872960657
20
6.91698188632756
30
0
41
1
10
66.7861392005666
20
6.93683686202061
30
0
41
1
10
66.793271973772
20
6.94731240884772
30
0
41
1
10
66.7997055431797
20
6.95821749459486
30
0
0
SPLINE
5
EB
100
AcDbEntity
8
1
62
256
6
ByLayer
370
18
48
1
60
0
100
AcDbSpline
70
4
71
3
72
8
73
4
40
0
40
0
40
0
40
0
40
1
40
1
40
1
40
1
41
1
10
66.2042947841548
20
7.11035129902749
30
0
41
1
10
66.2340395287333
20
7.05861360268867
30
0
41
1
10
66.2637790579934
20
7.00687415105236
30
0
41
1
10
66.293513068276
20
6.95513275032979
30
0
0
SPLINE
5
EC
100
AcDbEntity
8
1
62
256
6
ByLayer
370
18
48
1
60
0
100
AcDbSpline
70
4
71
3
72
8
73
4
40
0
40
0
40
0
40
0
40
1
40
1
40
1
40
1
41
1
10
65.0466139664532
20
7.39783307792939
30
0
41
1
10
65.4321652324815
20
7.30353417948274
30
0
41
1
10
65.8180443240534
20
7.20764847825913
30
0
41
1
10
66.2042947841548
20
7.11035129902749
30
0
0
SPLINE
5
ED
100
AcDbEntity
8
1
62
256
6
ByLayer
370
18
48
1
60
0
100
AcDbSpline
70
4
71
3
72
8
73
4
40
0
40
0
40
0
40
0
40
1
40
1
40
1
40
1
41
1
10
64.7775322350151
20
6.93352667571261
30
0
41
1
10
64.8673513614988
20
7.08879412116409
30
0
41
1
10
64.9570301843446
20
7.24355449564973
30
0
41
1
10
65.0466139664532
20
7.39783307792936
30
0
0
SPLINE
5
EE
100
AcDbEntity
8
1
62
256
6
ByLayer
370
18
48
1
60
0
100
AcDbSpline
70
4
71
3
72
34
73
30
40
0
40
0
40
0
40
0
40
0.125000000000066
40
0.125000000000066
40
0.187500000000097
40
0.187500000000097
40
0.250000000000128
40
0.250000000000128
40
0.281250000000115
40
0.281250000000115
40
0.312500000000101
40
0.312500000000101
40
0.375000000000075
40
0.437500000000048
40
0.437500000000048
40
0.500000000000021
40
0.500000000000021
40
0.562499999999995
40
0.562499999999995
40
0.624999999999968
40
0.624999999999968
40
0.749999999999977
40
0.749999999999977
40
0.812499999999983
40
0.812499999999983
40
0.874999999999989
40
0.937499999999994
40
0.937499999999994
40
1
40
1
40
1
40
1
41
1
10
64.2713448227308
20
6.92198197827199
30
0
41
1
10
64.2844449316356
20
6.89920364743179
30
0
41
1
10
64.3003465228119
20
6.87881589350908
30
0
41
1
10
64.3282813731253
20
6.85171528701335
30
0
41
1
10
64.3383165136348
20
6.84326577192388
30
0
41
1
10
64.3591400541738
20
6.8280700138906
30
0
41
1
10
64.3699993948073
20
6.82124693104512
30
0
41
1
10
64.3869458766128
20
6.81215068876352
30
0
41
1
10
64.3927046521793
20
6.80930898320156
30
0
41
1
10
64.404444191182
20
6.80401003693322
30
0
41
1
10
64.4104437487609
20
6.80154702991544
30
0
41
1
10
64.4285291885954
20
6.79483512274535
30
0
41
1
10
64.4529917686506
20
6.78762004436547
30
0
41
1
10
64.4781180559446
20
6.78371489783913
30
0
41
1
10
64.5035767377542
20
6.78147315387227
30
0
41
1
10
64.5163739690087
20
6.78120286403399
30
0
41
1
10
64.5416341524653
20
6.78229838722865
30
0
41
1
10
64.5541684001279
20
6.78365730669228
30
0
41
1
10
64.5790468918921
20
6.78797056189293
30
0
41
1
10
64.5914695247614
20
6.79095154193158
30
0
41
1
10
64.6278036104801
20
6.80215625932351
30
0
41
1
10
64.6506922825942
20
6.81252017390099
30
0
41
1
10
64.6830622106518
20
6.83230626762068
30
0
41
1
10
64.6935411222903
20
6.83964712887214
30
0
41
1
10
64.7132851266988
20
6.85538864402179
30
0
41
1
10
64.7319605361612
20
6.87226745825223
30
0
41
1
10
64.7485159683783
20
6.89140083175613
30
0
41
1
10
64.7639670223809
20
6.91170828733391
30
0
41
1
10
64.7710991110175
20
6.92240594042516
30
0
41
1
10
64.7775322350151
20
6.93352667571264
30
0
0
SPLINE
5
EF
100
AcDbEntity
8
1
62
256
6
ByLayer
370
18
48
1
60
0
100
AcDbSpline
70
4
71
3
72
8
73
4
40
0
40
0
40
0
40
0
40
1
40
1
40
1
40
1
41
1
10
63.8286734093774
20
7.690472583326
30
0
41
1
10
63.9763660816949
20
7.43450921181937
30
0
41
1
10
64.1239225698146
20
7.17831823276507
30
0
41
1
10
64.2713448227307
20
6.92198197827199
30
0
0
SPLINE
5
F0
100
AcDbEntity
8
1
62
256
6
ByLayer
370
18
48
1
60
0
100
AcDbSpline
70
4
71
3
72
8
73
4
40
0
40
0
40
0
40
0
40
1
40
1
40
1
40
1
41
1
10
63.2926727448554
20
7.8157174718722
30
0
41
1
10
63.4712451699279
20
7.7743744193175
30
0
41
1
10
63.6499106302317
20
7.73261986196314
30
0
41
1
10
63.8286734093774
20
7.690472583326
30
0
0
SPLINE
5
F1
100
AcDbEntity
8
1
62
256
6
ByLayer
370
18
48
1
60
0
100
AcDbSpline
70
4
71
3
72
8
73
4
40
0
40
0
40
0
40
0
40
1
40
1
40
1
40
1
41
1
10
62.7553726456782
20
6.8752399267191
30
0
41
1
10
62.9349322585461
20
7.190123184253
30
0
41
1
10
63.113968580016
20
7.50366095930798
30
0
41
1
10
63.2926727448554
20
7.8157174718722
30
0
0
SPLINE
5
F2
100
AcDbEntity
8
1
62
256
6
ByLayer
370
18
48
1
60
0
100
AcDbSpline
70
4
71
3
72
28
73
24
40
0
40
0
40
0
40
0
40
0.12500000000003
40
0.12500000000003
40
0.187500000000044
40
0.187500000000044
40
0.250000000000059
40
0.250000000000059
40
0.375000000000088
40
0.375000000000088
40
0.500000000000118
40
0.500000000000118
40
0.625000000000147
40
0.625000000000147
40
0.687500000000123
40
0.687500000000123
40
0.750000000000099
40
0.750000000000099
40
0.875000000000052
40
0.875000000000052
40
0.937500000000026
40
0.937500000000026
40
1
40
1
40
1
40
1
41
1
10
62.3666744478252
20
6.74615983931963
30
0
41
1
10
62.3837621956166
20
6.73788490749155
30
0
41
1
10
62.4013586708777
20
6.73152510975575
30
0
41
1
10
62.4284596643474
20
6.72465115478892
30
0
41
1
10
62.4376119768513
20
6.7228076866482
30
0
41
1
10
62.45615477003
20
6.72002143218108
30
0
41
1
10
62.4655795090883
20
6.71908099258644
30
0
41
1
10
62.4936374716483
20
6.71766167791728
30
0
41
1
10
62.512221213514
20
6.71853423990763
30
0
41
1
10
62.5491507452385
20
6.72377208523935
30
0
41
1
10
62.5676066504016
20
6.72820545099799
30
0
41
1
10
62.602914992607
20
6.74022946084784
30
0
41
1
10
62.6199302030572
20
6.74782225171967
30
0
41
1
10
62.6444928462045
20
6.76157922358874
30
0
41
1
10
62.6525519383805
20
6.76658751490046
30
0
41
1
10
62.668064423987
20
6.77723263996512
30
0
41
1
10
62.6755432938069
20
6.78287942100687
30
0
41
1
10
62.6971652048165
20
6.80077141859616
30
0
41
1
10
62.7105008063863
20
6.81395976130273
30
0
41
1
10
62.7288251331125
20
6.83570195430102
30
0
41
1
10
62.7346463072582
20
6.84327836639719
30
0
41
1
10
62.745539743035
20
6.85888048652109
30
0
41
1
10
62.7506352928898
20
6.86693230645702
30
0
41
1
10
62.7553726456781
20
6.87523992671882
30
0
0
SPLINE
5
F3
100
AcDbEntity
8
1
62
256
6
ByLayer
370
18
48
1
60
0
100
AcDbSpline
70
4
71
3
72
13
73
9
40
0
40
0
40
0
40
0
40
0.500000000000104
40
0.500000000000104
40
0.625000000000127
40
0.625000000000127
40
0.75000000000015
40
1
40
1
40
1
40
1
41
1
10
62.2491863577833
20
6.85537367346106
30
0
41
1
10
62.2629796574202
20
6.8315262484715
30
0
41
1
10
62.2798716398972
20
6.81038478649774
30
0
41
1
10
62.3047654211622
20
6.78725358530056
30
0
41
1
10
62.3099544890991
20
6.78278272813719
30
0
41
1
10
62.3205804752628
20
6.77430097065565
30
0
41
1
10
62.3369253013199
20
6.76223242699871
30
0
41
1
10
62.3544568543981
20
6.75207634419721
30
0
41
1
10
62.3666744478338
20
6.74615983931503
30
0
0
SPLINE
5
F4
100
AcDbEntity
8
1
62
256
6
ByLayer
370
18
48
1
60
0
100
AcDbSpline
70
4
71
3
72
8
73
4
40
0
40
0
40
0
40
0
40
1
40
1
40
1
40
1
41
1
10
61.9851033865236
20
7.31139735171658
30
0
41
1
10
62.073180091449
20
7.15949967476053
30
0
41
1
10
62.1612068603237
20
7.00748263371875
30
0
41
1
10
62.2491863577833
20
6.85537367346106
30
0
0
SPLINE
5
F5
100
AcDbEntity
8
1
62
256
6
ByLayer
370
18
48
1
60
0
100
AcDbSpline
70
4
71
3
72
8
73
4
40
0
40
0
40
0
40
0
40
1
40
1
40
1
40
1
41
1
10
61.6017219872202
20
7.9711723528907
30
0
41
1
10
61.7296144102157
20
7.75158350272426
30
0
41
1
10
61.8574095702963
20
7.53161895831957
30
0
41
1
10
61.9851033865234
20
7.31139735171686
30
0
0
SPLINE
5
F6
100
AcDbEntity
8
1
62
256
6
ByLayer
370
18
48
1
60
0
100
AcDbSpline
70
4
71
3
72
8
73
4
40
0
40
0
40
0
40
0
40
1
40
1
40
1
40
1
41
1
10
61.6017219872202
20
7.9711723528909
30
0
41
1
10
61.5340807139483
20
7.96805018057569
30
0
41
1
10
61.4664379279035
20
7.96486308054301
30
0
41
1
10
61.398793505521
20
7.9616111238407
30
0
0
SPLINE
5
F7
100
AcDbEntity
8
1
62
256
6
ByLayer
370
18
48
1
60
0
100
AcDbSpline
70
4
71
3
72
8
73
4
40
0
40
0
40
0
40
0
40
1
40
1
40
1
40
1
41
1
10
60.7332227370884
20
6.7836169489882
30
0
41
1
10
60.9557563754976
20
7.17752152876614
30
0
41
1
10
61.1774842604361
20
7.57031655058898
30
0
41
1
10
61.398793505521
20
7.9616111238407
30
0
0
SPLINE
5
F8
100
AcDbEntity
8
1
62
256
6
ByLayer
370
18
48
1
60
0
100
AcDbSpline
70
4
71
3
72
34
73
30
40
0
40
0
40
0
40
0
40
0.125000000000119
40
0.125000000000119
40
0.187500000000178
40
0.187500000000178
40
0.250000000000237
40
0.250000000000237
40
0.281250000000268
40
0.281250000000268
40
0.312500000000298
40
0.312500000000298
40
0.375000000000298
40
0.437500000000298
40
0.437500000000298
40
0.500000000000298
40
0.500000000000298
40
0.562500000000298
40
0.562500000000298
40
0.625000000000298
40
0.625000000000298
40
0.750000000000236
40
0.750000000000236
40
0.812500000000177
40
0.812500000000177
40
0.875000000000118
40
0.937500000000059
40
0.937500000000059
40
1
40
1
40
1
40
1
41
1
10
60.2270334258004
20
6.75549391169321
30
0
41
1
10
60.2401334063626
20
6.73308621543313
30
0
41
1
10
60.2560340389718
20
6.71316546897046
30
0
41
1
10
60.2839653152071
20
6.68690133548486
30
0
41
1
10
60.2939992122181
20
6.67875442796117
30
0
41
1
10
60.3148200307345
20
6.66419050849797
30
0
41
1
10
60.3256777826518
20
6.65769882940262
30
0
41
1
10
60.3426214992779
20
6.64912243210975
30
0
41
1
10
60.3483792891942
20
6.64645781304455
30
0
41
1
10
60.3601167186495
20
6.64152074534294
30
0
41
1
10
60.3661153294195
20
6.63924303567521
30
0
41
1
10
60.3841986848749
20
6.63309081464504
30
0
41
1
10
60.4086583691145
20
6.62663641471582
30
0
41
1
10
60.4337815369847
20
6.62352052215581
30
0
41
1
10
60.4592369806979
20
6.62208307587917
30
0
41
1
10
60.4720347370287
20
6.62221938710013
30
0
41
1
10
60.4972946747314
20
6.62412322017582
30
0
41
1
10
60.5098288081724
20
6.62588602265478
30
0
41
1
10
60.5347070914346
20
6.63100732807575
30
0
41
1
10
60.5471293337505
20
6.63439490172919
30
0
41
1
10
60.5834687359357
20
6.64680260674223
30
0
41
1
10
60.6063603157715
20
6.65794009211095
30
0
41
1
10
60.6387338427289
20
6.67884864348025
30
0
41
1
10
60.6492153415498
20
6.68655910117047
30
0
41
1
10
60.6689642587745
20
6.70300899027916
30
0
41
1
10
60.6876437165609
20
6.72056964047729
30
0
41
1
10
60.7042017307418
20
6.74033262495411
30
0
41
1
10
60.7196547303896
20
6.7612425064552
30
0
41
1
10
60.7267886016353
20
6.77222794982376
30
0
41
1
10
60.7332227370884
20
6.78361694898825
30
0
0
SPLINE
5
F9
100
AcDbEntity
8
1
62
256
6
ByLayer
370
18
48
1
60
0
100
AcDbSpline
70
4
71
3
72
8
73
4
40
0
40
0
40
0
40
0
40
1
40
1
40
1
40
1
41
1
10
59.5795333989523
20
7.85860109696378
30
0
41
1
10
59.7956481943635
20
7.49214946813961
30
0
41
1
10
60.0114859271211
20
7.12419086182445
30
0
41
1
10
60.2270334258004
20
6.75549391169321
30
0
0
SPLINE
5
FA
100
AcDbEntity
8
1
62
256
6
ByLayer
370
18
48
1
60
0
100
AcDbSpline
70
4
71
3
72
8
73
4
40
0
40
0
40
0
40
0
40
1
40
1
40
1
40
1
41
1
10
59.5795333989518
20
7.85860109696782
30
0
41
1
10
59.5118889114258
20
7.85419528859151
30
0
41
1
10
59.4442476436784
20
7.84972576758491
30
0
41
1
10
59.3766094883329
20
7.84519264692187
30
0
0
SPLINE
5
FB
100
AcDbEntity
8
1
62
256
6
ByLayer
370
18
48
1
60
0
100
AcDbSpline
70
4
71
3
72
8
73
4
40
0
40
0
40
0
40
0
40
1
40
1
40
1
40
1
41
1
10
58.7110538661099
20
6.65907125076242
30
0
41
1
10
58.9335766074742
20
7.05477838450551
30
0
41
1
10
59.1552968577147
20
7.45035678174281
30
0
41
1
10
59.3766094883329
20
7.84519264692184
30
0
0
SPLINE
5
FC
100
AcDbEntity
8
1
62
256
6
ByLayer
370
18
48
1
60
0
100
AcDbSpline
70
4
71
3
72
34
73
30
40
0
40
0
40
0
40
0
40
0.124999999999894
40
0.124999999999894
40
0.187499999999839
40
0.187499999999839
40
0.249999999999784
40
0.249999999999784
40
0.281249999999757
40
0.281249999999757
40
0.31249999999973
40
0.31249999999973
40
0.374999999999737
40
0.437499999999745
40
0.437499999999745
40
0.499999999999753
40
0.499999999999753
40
0.56249999999976
40
0.56249999999976
40
0.624999999999768
40
0.624999999999768
40
0.749999999999845
40
0.749999999999845
40
0.812499999999884
40
0.812499999999884
40
0.874999999999923
40
0.937499999999961
40
0.937499999999961
40
1
40
1
40
1
40
1
41
1
10
58.2048618791381
20
6.62276878563313
30
0
41
1
10
58.2179622432909
20
6.60070660854811
30
0
41
1
10
58.2338636647303
20
6.58116211396757
30
0
41
1
10
58.2617969296641
20
6.55550556642146
30
0
41
1
10
58.271831465854
20
6.54756921729637
30
0
41
1
10
58.292653580126
20
6.53342793829344
30
0
41
1
10
58.3035120437089
20
6.52714990408623
30
0
41
1
10
58.3204569331744
20
6.51889744749261
30
0
41
1
10
58.3262151316889
20
6.51634139059047
30
0
41
1
10
58.3379534165756
20
6.51162264555003
30
0
41
1
10
58.3439523798405
20
6.50945507251632
30
0
41
1
10
58.3620364000168
20
6.50363069852401
30
0
41
1
10
58.3864970024822
20
6.49760849137579
30
0
41
1
10
58.4116211683635
20
6.49491597025965
30
0
41
1
10
58.437077661344
20
6.49389785636862
30
0
41
1
10
58.4498749736819
20
6.49424015717955
30
0
41
1
10
58.4751347139126
20
6.49654165129058
30
0
41
1
10
58.4876687834709
20
6.49849734243446
30
0
41
1
10
58.5125470075288
20
6.50399320293801
30
0
41
1
10
58.5249693724154
20
6.50756362315272
30
0
41
1
10
58.5613066959107
20
6.5204931115384
30
0
41
1
10
58.5841973199019
20
6.53194299690733
30
0
41
1
10
58.6165698800842
20
6.55327069450311
30
0
41
1
10
58.6270506069082
20
6.56111234119442
30
0
41
1
10
58.6467980885377
20
6.57780092298586
30
0
41
1
10
58.665476441968
20
6.59557875344305
30
0
41
1
10
58.6820338808692
20
6.61551674585562
30
0
41
1
10
58.697486516932
20
6.63657982212845
30
0
41
1
10
58.7046199423054
20
6.6476299502832
30
0
41
1
10
58.71105386611
20
6.65907125076248
30
0
0
SPLINE
5
FD
100
AcDbEntity
8
1
62
256
6
ByLayer
370
18
48
1
60
0
100
AcDbSpline
70
4
71
3
72
8
73
4
40
0
40
0
40
0
40
0
40
1
40
1
40
1
40
1
41
1
10
57.5573380321482
20
7.7079554290637
30
0
41
1
10
57.773462476568
20
7.34784686150599
30
0
41
1
10
57.9893074304296
20
6.9857816273682
30
0
41
1
10
58.2048618791381
20
6.62276878563313
30
0
0
SPLINE
5
FE
100
AcDbEntity
8
1
62
256
6
ByLayer
370
18
48
1
60
0
100
AcDbSpline
70
4
71
3
72
8
73
4
40
0
40
0
40
0
40
0
40
1
40
1
40
1
40
1
41
1
10
57.5573380321479
20
7.70795542906785
30
0
41
1
10
57.4896887535961
20
7.70228607224411
30
0
41
1
10
57.4220416058894
20
7.69655410121888
30
0
41
1
10
57.3543964656578
20
7.69075966091992
30
0
0
SPLINE
5
FF
100
AcDbEntity
8
1
62
256
6
ByLayer
370
18
48
1
60
0
100
AcDbSpline
70
4
71
3
72
8
73
4
40
0
40
0
40
0
40
0
40
1
40
1
40
1
40
1
41
1
10
56.6888786781576
20
6.50224995094663
30
0
41
1
10
56.9113856187127
20
6.89785481532186
30
0
41
1
10
57.1330900676437
20
7.29430666182017
30
0
41
1
10
57.3543964656579
20
7.69075966091992
30
0
0
SPLINE
5
100
100
AcDbEntity
8
1
62
256
6
ByLayer
370
18
48
1
60
0
100
AcDbSpline
70
4
71
3
72
34
73
30
40
0
40
0
40
0
40
0
40
0.124999999999899
40
0.124999999999899
40
0.187499999999849
40
0.187499999999849
40
0.249999999999799
40
0.249999999999799
40
0.281249999999775
40
0.281249999999775
40
0.312499999999751
40
0.312499999999751
40
0.374999999999764
40
0.437499999999777
40
0.437499999999777
40
0.499999999999791
40
0.499999999999791
40
0.562499999999804
40
0.562499999999804
40
0.624999999999817
40
0.624999999999817
40
0.749999999999841
40
0.749999999999841
40
0.812499999999881
40
0.812499999999881
40
0.874999999999921
40
0.93749999999996
40
0.93749999999996
40
1
40
1
40
1
40
1
41
1
10
56.1826888717164
20
6.45796329471295
30
0
41
1
10
56.195788852638
20
6.43635291117701
30
0
41
1
10
56.211690165957
20
6.41727819927559
30
0
41
1
10
56.2396241810652
20
6.39235125249149
30
0
41
1
10
56.2496590099721
20
6.38466300448209
30
0
41
1
10
56.2704818646044
20
6.3710109754615
30
0
41
1
10
56.2813408147405
20
6.36497600868816
30
0
41
1
10
56.2982866362769
20
6.35708596399831
30
0
41
1
10
56.3040451793005
20
6.35465034597365
30
0
41
1
10
56.3157842272557
20
6.35017177156862
30
0
41
1
10
56.3217835464799
20
6.34812431292315
30
0
41
1
10
56.3398683846142
20
6.34265443858018
30
0
41
1
10
56.3643302483366
20
6.33709195387047
30
0
41
1
10
56.389455763459
20
6.33483390591792
30
0
41
1
10
56.4149137849716
20
6.33423860510121
30
0
41
1
10
56.4277110714199
20
6.33478458772302
30
0
41
1
10
56.4529712523514
20
6.33747156569595
30
0
41
1
10
56.4655055453277
20
6.33961027365748
30
0
41
1
10
56.4903842151204
20
6.34545348507535
30
0
41
1
10
56.5028069304674
20
6.34918928046017
30
0
41
1
10
56.5391425868876
20
6.36257757650077
30
0
41
1
10
56.5620322638816
20
6.37428453007235
30
0
41
1
10
56.5944035505478
20
6.39592857956637
30
0
41
1
10
56.6048831996401
20
6.40386353927497
30
0
41
1
10
56.6246285602337
20
6.42071018185669
30
0
41
1
10
56.6433051023967
20
6.43861934183113
30
0
41
1
10
56.6598612626376
20
6.45863609146139
30
0
41
1
10
56.6753128627137
20
6.47975066592431
30
0
41
1
10
56.6824453358973
20
6.49081182912425
30
0
41
1
10
56.6888786781577
20
6.50224995094672
30
0
0
SPLINE
5
101
100
AcDbEntity
8
1
62
256
6
ByLayer
370
18
48
1
60
0
100
AcDbSpline
70
4
71
3
72
8
73
4
40
0
40
0
40
0
40
0
40
1
40
1
40
1
40
1
41
1
10
55.5351692166027
20
7.51993486755049
30
0
41
1
10
55.7512964114996
20
7.16794904172963
30
0
41
1
10
55.9671403494611
20
6.81354291459294
30
0
41
1
10
56.1826888717164
20
6.45796329471293
30
0
0
SPLINE
5
102
100
AcDbEntity
8
1
62
256
6
ByLayer
370
18
48
1
60
0
100
AcDbSpline
70
4
71
3
72
8
73
4
40
0
40
0
40
0
40
0
40
1
40
1
40
1
40
1
41
1
10
55.5351692166024
20
7.51993486755458
30
0
41
1
10
55.4675136297081
20
7.51302889112654
30
0
41
1
10
55.3998589402321
20
7.50606180432024
30
0
41
1
10
55.3322050241801
20
7.49903377947766
30
0
0
SPLINE
5
103
100
AcDbEntity
8
1
62
256
6
ByLayer
370
18
48
1
60
0
100
AcDbSpline
70
4
71
3
72
8
73
4
40
0
40
0
40
0
40
0
40
1
40
1
40
1
40
1
41
1
10
54.6667229515061
20
6.31409663543442
30
0
41
1
10
54.8892162023225
20
6.70760579726291
30
0
41
1
10
55.1109078522553
20
7.10294523851394
30
0
41
1
10
55.3322050241801
20
7.49903377947766
30
0
0
SPLINE
5
104
100
AcDbEntity
8
1
62
256
6
ByLayer
370
18
48
1
60
0
100
AcDbSpline
70
4
71
3
72
34
73
30
40
0
40
0
40
0
40
0
40
0.12500000000011
40
0.12500000000011
40
0.187500000000187
40
0.187500000000187
40
0.250000000000264
40
0.250000000000264
40
0.281250000000274
40
0.281250000000274
40
0.312500000000283
40
0.312500000000283
40
0.375000000000241
40
0.437500000000199
40
0.437500000000199
40
0.500000000000157
40
0.500000000000157
40
0.562500000000115
40
0.562500000000115
40
0.625000000000073
40
0.625000000000073
40
0.750000000000048
40
0.750000000000048
40
0.812500000000036
40
0.812500000000036
40
0.875000000000024
40
0.937500000000012
40
0.937500000000012
40
1
40
1
40
1
40
1
41
1
10
54.1605407003786
20
6.26212269010833
30
0
41
1
10
54.1736397762988
20
6.24107312329863
30
0
41
1
10
54.189539736746
20
6.22256401026016
30
0
41
1
10
54.2174711214211
20
6.19849069187265
30
0
41
1
10
54.2275051308596
20
6.1910883265854
30
0
41
1
10
54.248326425266
20
6.17799190154596
30
0
41
1
10
54.2591845796508
20
6.17222897636594
30
0
41
1
10
54.2761291945144
20
6.16473858774825
30
0
41
1
10
54.2818873330845
20
6.16243478359112
30
0
41
1
10
54.2936255688417
20
6.1582170218638
30
0
41
1
10
54.2996245775745
20
6.15629890071924
30
0
41
1
10
54.317708895315
20
6.15120750403287
30
0
41
1
10
54.3421700460166
20
6.14612711427353
30
0
41
1
10
54.3672950558816
20
6.1443099155114
30
0
41
1
10
54.3927525420668
20
6.14413450595529
30
0
41
1
10
54.4055504719492
20
6.14487838517601
30
0
41
1
10
54.4308112597456
20
6.14793142608889
30
0
41
1
10
54.4433458148526
20
6.15023946938112
30
0
41
1
10
54.4682249201279
20
6.15639480638328
30
0
41
1
10
54.4806477324221
20
6.16027413216935
30
0
41
1
10
54.5169853919278
20
6.17404680456551
30
0
41
1
10
54.5398758520544
20
6.18594788149176
30
0
41
1
10
54.5722476560489
20
6.20779379086881
30
0
41
1
10
54.5827276674242
20
6.21578105277942
30
0
41
1
10
54.6024735662343
20
6.23269954856494
30
0
41
1
10
54.6211503450366
20
6.25064873853205
30
0
41
1
10
54.6377062838731
20
6.27064263428812
30
0
41
1
10
54.6531575013812
20
6.29170161647275
30
0
41
1
10
54.660289828614
20
6.30271879458797
30
0
41
1
10
54.6667229515061
20
6.31409663543451
30
0
0
SPLINE
5
105
100
AcDbEntity
8
1
62
256
6
ByLayer
370
18
48
1
60
0
100
AcDbSpline
70
4
71
3
72
8
73
4
40
0
40
0
40
0
40
0
40
1
40
1
40
1
40
1
41
1
10
53.5130328902519
20
7.29548140336644
30
0
41
1
10
53.7291584070905
20
6.9534246822542
30
0
41
1
10
53.9450001281497
20
6.60848572388142
30
0
41
1
10
54.1605407003786
20
6.2621226901083
30
0
0
SPLINE
5
106
100
AcDbEntity
8
1
62
256
6
ByLayer
370
18
48
1
60
0
100
AcDbSpline
70
4
71
3
72
8
73
4
40
0
40
0
40
0
40
0
40
1
40
1
40
1
40
1
41
1
10
53.5130328902518
20
7.29548140336999
30
0
41
1
10
53.4453773931006
20
7.28737428919058
30
0
41
1
10
53.3777216033184
20
7.27920781138585
30
0
41
1
10
53.3100654026296
20
7.27098215635974
30
0
0
SPLINE
5
107
100
AcDbEntity
8
1
62
256
6
ByLayer
370
18
48
1
60
0
100
AcDbSpline
70
4
71
3
72
8
73
4
40
0
40
0
40
0
40
0
40
1
40
1
40
1
40
1
41
1
10
52.6445874756264
20
6.09553827252856
30
0
41
1
10
52.8670743938477
20
6.48499483788055
30
0
41
1
10
53.0887726497459
20
6.87723510278656
30
0
41
1
10
53.3100654026295
20
7.27098215635974
30
0
0
SPLINE
5
108
100
AcDbEntity
8
1
62
256
6
ByLayer
370
18
48
1
60
0
100
AcDbSpline
70
4
71
3
72
34
73
30
40
0
40
0
40
0
40
0
40
0.124999999999984
40
0.124999999999984
40
0.187499999999975
40
0.187499999999975
40
0.249999999999966
40
0.249999999999966
40
0.281249999999962
40
0.281249999999962
40
0.312499999999958
40
0.312499999999958
40
0.374999999999952
40
0.437499999999946
40
0.437499999999946
40
0.49999999999994
40
0.49999999999994
40
0.562499999999934
40
0.562499999999934
40
0.624999999999928
40
0.624999999999928
40
0.749999999999915
40
0.749999999999915
40
0.812499999999936
40
0.812499999999936
40
0.874999999999958
40
0.937499999999979
40
0.937499999999979
40
1
40
1
40
1
40
1
41
1
10
52.1383998225591
20
6.03605241907201
30
0
41
1
10
52.1514997140461
20
6.01566888318624
30
0
41
1
10
52.16740023124
20
5.99781987282569
30
0
41
1
10
52.1953313720916
20
5.97472582342814
30
0
41
1
10
52.205365196711
20
5.96764858032071
30
0
41
1
10
52.2261858542116
20
5.95517816495783
30
0
41
1
10
52.2370435265645
20
5.94971879676385
30
0
41
1
10
52.2539871346076
20
5.94266978819232
30
0
41
1
10
52.2597448901332
20
5.94051077789999
30
0
41
1
10
52.271482256151
20
5.93657789089886
30
0
41
1
10
52.2774808177866
20
5.93480023761393
30
0
41
1
10
52.2955639668744
20
5.930117387758
30
0
41
1
10
52.3200234234457
20
5.92555080457532
30
0
41
1
10
52.3451464864125
20
5.92418875781806
30
0
41
1
10
52.3706018990763
20
5.92443928797567
30
0
41
1
10
52.3833995281488
20
5.92537974476912
30
0
41
1
10
52.4086593975823
20
5.92878785587803
30
0
41
1
10
52.4211935404068
20
5.93125559367036
30
0
41
1
10
52.446071919293
20
5.93769562718194
30
0
41
1
10
52.4584942648359
20
5.94170050107729
30
0
41
1
10
52.4948337788183
20
5.95579278417088
30
0
41
1
10
52.5177255225435
20
5.96783048771527
30
0
41
1
10
52.5500992722019
20
5.98977144922461
30
0
41
1
10
52.5605807942291
20
5.9977721909612
30
0
41
1
10
52.5803296935729
20
6.01468032857002
30
0
41
1
10
52.5990090998306
20
6.03258208359549
30
0
41
1
10
52.6155669761385
20
6.05245534328773
30
0
41
1
10
52.6310197947201
20
6.07335563835997
30
0
41
1
10
52.6381534917083
20
6.0842757798917
30
0
41
1
10
52.6445874756264
20
6.09553827252864
30
0
0
SPLINE
5
109
100
AcDbEntity
8
1
62
256
6
ByLayer
370
18
48
1
60
0
100
AcDbSpline
70
4
71
3
72
8
73
4
40
0
40
0
40
0
40
0
40
1
40
1
40
1
40
1
41
1
10
51.4908958717219
20
7.03570342018944
30
0
41
1
10
51.7070159013395
20
6.70521004577404
30
0
41
1
10
51.9228561711036
20
6.37144006398182
30
0
41
1
10
52.1383998225591
20
6.03605241907201
30
0
0
SPLINE
5
10A
100
AcDbEntity
8
1
62
256
6
ByLayer
370
18
48
1
60
0
100
AcDbSpline
70
4
71
3
72
8
73
4
40
0
40
0
40
0
40
0
40
1
40
1
40
1
40
1
41
1
10
51.4908958717218
20
7.03570342019265
30
0
41
1
10
51.4232412352971
20
7.02643439060134
30
0
41
1
10
51.3555851776736
20
7.01710788333443
30
0
41
1
10
51.2879275855463
20
7.007724093528
30
0
0
SPLINE
5
10B
100
AcDbEntity
8
1
62
256
6
ByLayer
370
18
48
1
60
0
100
AcDbSpline
70
4
71
3
72
8
73
4
40
0
40
0
40
0
40
0
40
1
40
1
40
1
40
1
41
1
10
50.6224244148023
20
5.84712285455066
30
0
41
1
10
50.8449163144861
20
6.23077501669059
30
0
41
1
10
51.066620442288
20
6.61813945418083
30
0
41
1
10
51.2879275855463
20
7.007724093528
30
0
0
SPLINE
5
10C
100
AcDbEntity
8
1
62
256
6
ByLayer
370
18
48
1
60
0
100
AcDbSpline
70
4
71
3
72
23
73
19
40
0
40
0
40
0
40
0
40
0.0592669375987139
40
0.0592669375987139
40
0.163792833421114
40
0.163792833421114
40
0.268318729243515
40
0.268318729243515
40
0.372844625065915
40
0.372844625065915
40
0.581896416710613
40
0.581896416710613
40
0.686422312532959
40
0.686422312532959
40
0.790948208355306
40
0.895474104177653
40
0.895474104177653
40
1
40
1
40
1
40
1
41
1
10
50.3142235757208
20
5.67549428070959
30
0
41
1
10
50.321333574909
20
5.67518047161542
30
0
41
1
10
50.3284969463329
20
5.67511912629874
30
0
41
1
10
50.348441610243
20
5.67564994210395
30
0
41
1
10
50.3612388356311
20
5.67678391450227
30
0
41
1
10
50.3864983370042
20
5.68053417474826
30
0
41
1
10
50.3990323279631
20
5.68315177106234
30
0
41
1
10
50.4239104689497
20
5.68985019638774
30
0
41
1
10
50.4363327768539
20
5.69396413372607
30
0
41
1
10
50.472671161595
20
5.70831549620252
30
0
41
1
10
50.4955624928086
20
5.72043727805615
30
0
41
1
10
50.5279360105731
20
5.74237667266004
30
0
41
1
10
50.538417350837
20
5.75035479733751
30
0
41
1
10
50.5581659905545
20
5.76717560891186
30
0
41
1
10
50.5768453105647
20
5.78494828744186
30
0
41
1
10
50.5934033635368
20
5.80461011113113
30
0
41
1
10
50.6088564529964
20
5.825256208056
30
0
41
1
10
50.6159902640222
20
5.83602817711838
30
0
41
1
10
50.6224244148023
20
5.84712285455078
30
0
0
SPLINE
5
10D
100
AcDbEntity
8
1
62
256
6
ByLayer
370
18
48
1
60
0
100
AcDbSpline
70
4
71
3
72
8
73
4
40
0
40
0
40
0
40
0
40
1
40
1
40
1
40
1
41
1
10
49.4687084088465
20
6.74181628454176
30
0
41
1
10
49.5420767614088
20
6.6340622892584
30
0
41
1
10
49.6154127549752
20
6.52588338717385
30
0
41
1
10
49.688715795378
20
6.4173532660493
30
0
0
SPLINE
5
10E
100
AcDbEntity
8
1
62
256
6
ByLayer
370
18
48
1
60
0
100
AcDbSpline
70
4
71
3
72
8
73
4
40
0
40
0
40
0
40
0
40
1
40
1
40
1
40
1
41
1
10
49.4687084088465
20
6.74181628454505
30
0
41
1
10
49.4010591840015
20
6.7314291330699
30
0
41
1
10
49.3334074017883
20
6.72098662097522
30
0
41
1
10
49.2657529471286
20
6.71048896483438
30
0
0
SPLINE
5
10F
100
AcDbEntity
8
1
62
256
6
ByLayer
370
18
48
1
60
0
100
AcDbSpline
70
4
71
3
72
8
73
4
40
0
40
0
40
0
40
0
40
1
40
1
40
1
40
1
41
1
10
48.6002499840185
20
5.57023564051815
30
0
41
1
10
48.8227436376663
20
5.94625186047531
30
0
41
1
10
49.0444443155629
20
6.32690787709041
30
0
41
1
10
49.2657529471286
20
6.71048896483441
30
0
0
SPLINE
5
110
100
AcDbEntity
8
1
62
256
6
ByLayer
370
18
48
1
60
0
100
AcDbSpline
70
4
71
3
72
66
73
62
40
0
40
0
40
0
40
0
40
0.0085991605705198
40
0.0153982239496839
40
0.020470112535339
40
0.0276768129691641
40
0.0344034188626904
40
0.0406884988570086
40
0.046562764840363
40
0.0520500083972169
40
0.0571679952759677
40
0.0619293155447977
40
0.0663421867419292
40
0.0704111588993905
40
0.0741360890587261
40
0.0872935925954523
40
0.100567674782009
40
0.113956516973826
40
0.127458659987021
40
0.179818867396659
40
0.234730391084855
40
0.268598578946979
40
0.304211011122123
40
0.341559587333366
40
0.391181740649122
40
0.448596208452284
40
0.472589944220804
40
0.502157214976834
40
0.530661970313738
40
0.548593603068655
40
0.555926506903354
40
0.580585335995421
40
0.603617218958624
40
0.625011181744965
40
0.644761356572926
40
0.662866867697486
40
0.691278615799481
40
0.718602690008161
40
0.744832664211979
40
0.769965529027029
40
0.797881866110538
40
0.825090853094247
40
0.851571482767983
40
0.87730708824381
40
0.884651664509286
40
0.891972584252734
40
0.899268540505769
40
0.906538165304999
40
0.913780031033011
40
0.920992659275057
40
0.928175371525082
40
0.935329086577196
40
0.942454880969826
40
0.949553803740921
40
0.956626874964662
40
0.963675084324807
40
0.970699389728158
40
0.977700715961389
40
0.98472751592253
40
0.992443640135128
40
1
40
1
40
1
40
1
41
1
10
35.3758095329842
20
-3.82809685847289
30
0
41
1
10
35.3787414368881
20
-3.81353391916355
30
0
41
1
10
35.3839914973494
20
-3.78745655975021
30
0
41
1
10
35.3910787452297
20
-3.75263624977921
30
0
41
1
10
35.3976673718157
20
-3.72013779663044
30
0
41
1
10
35.4042588875696
20
-3.68746026028657
30
0
41
1
10
35.411477489852
20
-3.6521119203554
30
0
41
1
10
35.4183451167004
20
-3.61860099230069
30
0
41
1
10
35.4248727167227
20
-3.58683275675156
30
0
41
1
10
35.4310560020424
20
-3.55676148903336
30
0
41
1
10
35.4368950471314
20
-3.5283661005663
30
0
41
1
10
35.4423889093005
20
-3.50164990827312
30
0
41
1
10
35.447538611893
20
-3.47663544470933
30
0
41
1
10
35.4523396418741
20
-3.4533628622147
30
0
41
1
10
35.4607106409587
20
-3.41309445874896
30
0
41
1
10
35.4730918407865
20
-3.35410844356548
30
0
41
1
10
35.4899771524609
20
-3.27412537406576
30
0
41
1
10
35.5075807962093
20
-3.19137580080388
30
0
41
1
10
35.5434061800565
20
-3.02409074149466
30
0
41
1
10
35.6020712546043
20
-2.7544867723183
30
0
41
1
10
35.6774654781936
20
-2.4152908773676
30
0
41
1
10
35.748297038648
20
-2.10186981165816
30
0
41
1
10
35.8117306263117
20
-1.82428077080272
30
0
41
1
10
35.8872366238229
20
-1.49734241528995
30
0
41
1
10
35.979619659092
20
-1.10312423610472
30
0
41
1
10
36.0659101838635
20
-0.739291096735343
30
0
41
1
10
36.1400066429153
20
-0.430894411511559
30
0
41
1
10
36.1950733629829
20
-0.20317861695213
30
0
41
1
10
36.2461229284802
20
0.0065078844273785
30
0
41
1
10
36.2822164194007
20
0.153710066358826
30
0
41
1
10
36.3157534029387
20
0.289644145158121
30
0
41
1
10
36.3524527153297
20
0.438463905467671
30
0
41
1
10
36.3982720269719
20
0.622757077692768
30
0
41
1
10
36.4404934856252
20
0.791406562623052
30
0
41
1
10
36.4791301400619
20
0.944635229896448
30
0
41
1
10
36.5218614061327
20
1.11319844331518
30
0
41
1
10
36.568654409935
20
1.29688669682108
30
0
41
1
10
36.6194652946936
20
1.49438951584261
30
0
41
1
10
36.6670510684678
20
1.6775659626048
30
0
41
1
10
36.7136881802595
20
1.85544096435271
30
0
41
1
10
36.759340594489
20
2.02808182700727
30
0
41
1
10
36.8040333044294
20
2.19510259813771
30
0
41
1
10
36.8457852807092
20
2.34911191537694
30
0
41
1
10
36.8757280003696
20
2.45815797125354
30
0
41
1
10
36.8953971839884
20
2.52923670664248
30
0
41
1
10
36.9059309729082
20
2.56717467321945
30
0
41
1
10
36.9162730706977
20
2.60427847859748
30
0
41
1
10
36.9264231853244
20
2.64054009609975
30
0
41
1
10
36.9363813036325
20
2.67595106284719
30
0
41
1
10
36.9461479646246
20
2.71050432822625
30
0
41
1
10
36.9557238156249
20
2.74419696869447
30
0
41
1
10
36.9651075263431
20
2.777031814244
30
0
41
1
10
36.9742990392565
20
2.80901462472036
30
0
41
1
10
36.9832982743716
20
2.84015167063993
30
0
41
1
10
36.992105113171
20
2.87044925721568
30
0
41
1
10
37.0007196873288
20
2.89991427523066
30
0
41
1
10
37.0091411650074
20
2.92855219805529
30
0
41
1
10
37.0173909336009
20
2.95643750992329
30
0
41
1
10
37.0257295313388
20
2.9844703033742
30
0
41
1
10
37.0341257878381
20
3.01245820819096
30
0
41
1
10
37.0397226500849
20
3.03088524489397
30
0
41
1
10
37.0424918070234
20
3.04000238129853
30
0
0
SPLINE
5
111
100
AcDbEntity
8
1
62
256
6
ByLayer
370
18
48
1
60
0
100
AcDbSpline
70
4
71
3
72
8
73
4
40
0
40
0
40
0
40
0
40
1
40
1
40
1
40
1
41
1
10
47.1551791347475
20
-6.21005076586354
30
0
41
1
10
47.1395706113084
20
-6.23130217663695
30
0
41
1
10
47.1239662929109
20
-6.25250693376071
30
0
41
1
10
47.1083660521198
20
-6.27366489677698
30
0
0
SPLINE
5
112
100
AcDbEntity
8
1
62
256
6
ByLayer
370
18
48
1
60
0
100
AcDbSpline
70
4
71
3
72
32
73
28
40
0
40
0
40
0
40
0
40
0.124999999999986
40
0.124999999999986
40
0.187499999999955
40
0.187499999999955
40
0.249999999999924
40
0.249999999999924
40
0.312499999999893
40
0.312499999999893
40
0.374999999999863
40
0.437499999999832
40
0.437499999999832
40
0.499999999999801
40
0.499999999999801
40
0.624999999999804
40
0.624999999999804
40
0.687499999999837
40
0.687499999999837
40
0.74999999999987
40
0.74999999999987
40
0.812499999999902
40
0.812499999999902
40
0.874999999999935
40
0.937499999999967
40
0.937499999999967
40
1
40
1
40
1
40
1
41
1
10
47.6612995684918
20
-6.26325705160599
30
0
41
1
10
47.6481781592299
20
-6.24222281547094
30
0
41
1
10
47.63236454747
20
-6.22295542454327
30
0
41
1
10
47.6048172250112
20
-6.19657486834907
30
0
41
1
10
47.5949234690713
20
-6.18816894315103
30
0
41
1
10
47.5743901097052
20
-6.17267901482887
30
0
41
1
10
47.5637021297453
20
-6.16553751905715
30
0
41
1
10
47.5415074133816
20
-6.15242732040872
30
0
41
1
10
47.5299957062951
20
-6.14645642331695
30
0
41
1
10
47.5061544791663
20
-6.13572332540477
30
0
41
1
10
47.4819836115247
20
-6.12641663757282
30
0
41
1
10
47.4571876801681
20
-6.11981801675745
30
0
41
1
10
47.4320802779697
20
-6.11457119776205
30
0
41
1
10
47.4192921185656
20
-6.11262171674406
30
0
41
1
10
47.3813849942959
20
-6.10895799849399
30
0
41
1
10
47.3565194253468
20
-6.1093170175138
30
0
41
1
10
47.3198421193308
20
-6.11406080087005
30
0
41
1
10
47.3077955381226
20
-6.11635222479254
30
0
41
1
10
47.2845562915966
20
-6.12222859867106
30
0
41
1
10
47.2732877338314
20
-6.1258221996342
30
0
41
1
10
47.2514560722362
20
-6.13432106839809
30
0
41
1
10
47.2408655932066
20
-6.13924114069641
30
0
41
1
10
47.2205446582149
20
-6.15039806755681
30
0
41
1
10
47.2014102623952
20
-6.16268304040878
30
0
41
1
10
47.1845891781486
20
-6.17716220453943
30
0
41
1
10
47.1689541793056
20
-6.19276496296453
30
0
41
1
10
47.1617023604706
20
-6.20116922431674
30
0
41
1
10
47.1551791347475
20
-6.21005076586354
30
0
0
SPLINE
5
113
100
AcDbEntity
8
1
62
256
6
ByLayer
370
18
48
1
60
0
100
AcDbSpline
70
4
71
3
72
10
73
6
40
0
40
0
40
0
40
0
40
0.5
40
0.5
40
1
40
1
40
1
40
1
41
1
10
48.3138236482009
20
-7.31194522512115
30
0
41
1
10
48.2051179902283
20
-7.13660769115285
30
0
41
1
10
48.0963900506789
20
-6.96174988079076
30
0
41
1
10
47.8788850487563
20
-6.61227841966982
30
0
41
1
10
47.7701077626088
20
-6.43768170392789
30
0
41
1
10
47.6612995684919
20
-6.26325705160602
30
0
0
SPLINE
5
114
100
AcDbEntity
8
1
62
256
6
ByLayer
370
18
48
1
60
0
100
AcDbSpline
70
4
71
3
72
10
73
6
40
0
40
0
40
0
40
0
40
0.5
40
0.5
40
1
40
1
40
1
40
1
41
1
10
49.1770354674379
20
-6.4109474169239
30
0
41
1
10
49.0665815544846
20
-6.56934177319184
30
0
41
1
10
48.9563512561353
20
-6.72560349832403
30
0
41
1
10
48.7362471660872
20
-7.03375726521364
30
0
41
1
10
48.6264330497197
20
-7.18554046410105
30
0
41
1
10
48.5167569543482
20
-7.33557109602788
30
0
0
SPLINE
5
115
100
AcDbEntity
8
1
62
256
6
ByLayer
370
18
48
1
60
0
100
AcDbSpline
70
4
71
3
72
33
73
29
40
0
40
0
40
0
40
0
40
0.125000000000042
40
0.125000000000042
40
0.187500000000039
40
0.187500000000039
40
0.250000000000036
40
0.250000000000036
40
0.312500000000033
40
0.312500000000033
40
0.37500000000003
40
0.437500000000028
40
0.437500000000028
40
0.500000000000025
40
0.500000000000025
40
0.62500000000002
40
0.62500000000002
40
0.656250000000018
40
0.656250000000018
40
0.687500000000016
40
0.750000000000013
40
0.750000000000013
40
0.81250000000001
40
0.81250000000001
40
0.875000000000007
40
0.937500000000003
40
0.937500000000003
40
1
40
1
40
1
40
1
41
1
10
49.6831316401612
20
-6.45644331175168
30
0
41
1
10
49.670013105688
20
-6.43488350883175
30
0
41
1
10
49.6542040220021
20
-6.41520589675289
30
0
41
1
10
49.6266657087124
20
-6.38837216373472
30
0
41
1
10
49.6167750508965
20
-6.37984207897713
30
0
41
1
10
49.5962472621849
20
-6.3641648878662
30
0
41
1
10
49.5855621715144
20
-6.35695940462733
30
0
41
1
10
49.5633734090418
20
-6.34377887717343
30
0
41
1
10
49.551866367847
20
-6.33780236501286
30
0
41
1
10
49.5280281521455
20
-6.32711424123136
30
0
41
1
10
49.5038602398019
20
-6.31791101622883
30
0
41
1
10
49.4790671498291
20
-6.3115274236047
30
0
41
1
10
49.4539625274282
20
-6.30655169699972
30
0
41
1
10
49.4411748995016
20
-6.30476699994207
30
0
41
1
10
49.4032650724976
20
-6.30167147461046
30
0
41
1
10
49.3783981824953
20
-6.30250789942116
30
0
41
1
10
49.3478325821903
20
-6.30718320834308
30
0
41
1
10
49.3417347371371
20
-6.30830624272346
30
0
41
1
10
49.3297575302548
20
-6.31089239272288
30
0
41
1
10
49.3120610182233
20
-6.31528951537805
30
0
41
1
10
49.2951555765099
20
-6.3212048392881
30
0
41
1
10
49.2733211328624
20
-6.33044209276451
30
0
41
1
10
49.2627308778105
20
-6.33575092330636
30
0
41
1
10
49.2424052986275
20
-6.3477248792118
30
0
41
1
10
49.2232676099471
20
-6.36084963009844
30
0
41
1
10
49.2064453520517
20
-6.37621286744113
30
0
41
1
10
49.1908100190333
20
-6.39272227957233
30
0
41
1
10
49.1835584163785
20
-6.40159330469012
30
0
41
1
10
49.1770354674379
20
-6.4109474169239
30
0
0
SPLINE
5
116
100
AcDbEntity
8
1
62
256
6
ByLayer
370
18
48
1
60
0
100
AcDbSpline
70
4
71
3
72
10
73
6
40
0
40
0
40
0
40
0
40
0.5
40
0.5
40
1
40
1
40
1
40
1
41
1
10
50.3356731277806
20
-7.53119011362887
30
0
41
1
10
50.226964812177
20
-7.35160644261816
30
0
41
1
10
50.1182339980365
20
-7.17241684065107
30
0
41
1
10
49.9007231514078
20
-6.81424095845546
30
0
41
1
10
49.791942901139
20
-6.63527040154074
30
0
41
1
10
49.6831316401613
20
-6.45644331175168
30
0
0
SPLINE
5
117
100
AcDbEntity
8
1
62
256
6
ByLayer
370
18
48
1
60
0
100
AcDbSpline
70
4
71
3
72
10
73
6
40
0
40
0
40
0
40
0
40
0.5
40
0.5
40
1
40
1
40
1
40
1
41
1
10
51.1988124080422
20
-6.58103282399924
30
0
41
1
10
51.0883716694785
20
-6.74655635665135
30
0
41
1
10
50.9781516706351
20
-6.91018351760923
30
0
41
1
10
50.7580646708201
20
-7.23354866634915
30
0
41
1
10
50.6482574986137
20
-7.39317330617925
30
0
41
1
10
50.5385885450798
20
-7.5512213286876
30
0
0
SPLINE
5
118
100
AcDbEntity
8
1
62
256
6
ByLayer
370
18
48
1
60
0
100
AcDbSpline
70
4
71
3
72
33
73
29
40
0
40
0
40
0
40
0
40
0.124999999999913
40
0.124999999999913
40
0.187499999999895
40
0.187499999999895
40
0.249999999999877
40
0.249999999999877
40
0.312499999999859
40
0.312499999999859
40
0.374999999999841
40
0.437499999999823
40
0.437499999999823
40
0.499999999999805
40
0.499999999999805
40
0.624999999999834
40
0.624999999999834
40
0.656249999999873
40
0.656249999999873
40
0.687499999999911
40
0.749999999999929
40
0.749999999999929
40
0.812499999999946
40
0.812499999999946
40
0.874999999999964
40
0.937499999999982
40
0.937499999999982
40
1
40
1
40
1
40
1
41
1
10
51.7049075948519
20
-6.61889489240838
30
0
41
1
10
51.69178971356
20
-6.59690625235478
30
0
41
1
10
51.6759828549619
20
-6.57690549137865
30
0
41
1
10
51.648450992877
20
-6.54973475668916
30
0
41
1
10
51.6385627286675
20
-6.54111694381103
30
0
41
1
10
51.6180393934733
20
-6.52531819638543
30
0
41
1
10
51.6073568030891
20
-6.51807829497315
30
0
41
1
10
51.5851736173392
20
-6.50488008564753
30
0
41
1
10
51.5736713405537
20
-6.49892107340224
30
0
41
1
10
51.5498365007541
20
-6.48831726280201
30
0
41
1
10
51.5256720884035
20
-6.47924916737537
30
0
41
1
10
51.50088274353
20
-6.47309761962342
30
0
41
1
10
51.475781998871
20
-6.46840263268945
30
0
41
1
10
51.4629954907034
20
-6.46678380232143
30
0
41
1
10
51.4250836253484
20
-6.4642485945663
30
0
41
1
10
51.4002157704868
20
-6.4655427704686
30
0
41
1
10
51.3696493954828
20
-6.47089749607082
30
0
41
1
10
51.363550292644
20
-6.47216237783772
30
0
41
1
10
51.3515697250363
20
-6.47503982459662
30
0
41
1
10
51.3338685175671
20
-6.4798861264378
30
0
41
1
10
51.3169593285751
20
-6.48628660622393
30
0
41
1
10
51.2951206276765
20
-6.49620290443337
30
0
41
1
10
51.2845309218248
20
-6.50186681077221
30
0
41
1
10
51.2641968389502
20
-6.51458745401951
30
0
41
1
10
51.2450524781509
20
-6.52847675296388
30
0
41
1
10
51.2282264980181
20
-6.54463908507654
30
0
41
1
10
51.2125886633845
20
-6.56196509493387
30
0
41
1
10
51.2053363196275
20
-6.57125508340872
30
0
41
1
10
51.1988124080422
20
-6.58103282399924
30
0
0
SPLINE
5
119
100
AcDbEntity
8
1
62
256
6
ByLayer
370
18
48
1
60
0
100
AcDbSpline
70
4
71
3
72
10
73
6
40
0
40
0
40
0
40
0
40
0.5
40
0.5
40
1
40
1
40
1
40
1
41
1
10
52.3574969521615
20
-7.71482391017756
30
0
41
1
10
52.2487815162946
20
-7.53179886833277
30
0
41
1
10
52.1400427262052
20
-7.3490848840861
30
0
41
1
10
51.9225157053818
20
-6.98382970671747
30
0
41
1
10
51.8137272595955
20
-6.80130212613386
30
0
41
1
10
51.7049075948519
20
-6.61889489240838
30
0
0
SPLINE
5
11A
100
AcDbEntity
8
1
62
256
6
ByLayer
370
18
48
1
60
0
100
AcDbSpline
70
4
71
3
72
10
73
6
40
0
40
0
40
0
40
0
40
0.5
40
0.5
40
1
40
1
40
1
40
1
41
1
10
53.2206393732419
20
-6.72054610652734
30
0
41
1
10
53.1101999196694
20
-6.89236305838114
30
0
41
1
10
52.9999812062747
20
-7.06252018139605
30
0
41
1
10
52.7798963988225
20
-7.39942897217679
30
0
41
1
10
52.6700903730853
20
-7.56606446518083
30
0
41
1
10
52.5604230910838
20
-7.73129905280337
30
0
0
SPLINE
5
11B
100
AcDbEntity
8
1
62
256
6
ByLayer
370
18
48
1
60
0
100
AcDbSpline
70
4
71
3
72
32
73
28
40
0
40
0
40
0
40
0
40
0.125000000000031
40
0.125000000000031
40
0.187500000000023
40
0.187500000000023
40
0.250000000000015
40
0.312500000000007
40
0.312500000000007
40
0.374999999999999
40
0.43749999999999
40
0.43749999999999
40
0.499999999999982
40
0.499999999999982
40
0.625000000000031
40
0.625000000000031
40
0.656250000000028
40
0.656250000000028
40
0.687500000000024
40
0.75000000000002
40
0.75000000000002
40
0.812500000000015
40
0.812500000000015
40
0.87500000000001
40
0.937500000000005
40
0.937500000000005
40
1
40
1
40
1
40
1
41
1
10
53.7267712926161
20
-6.75077970001101
30
0
41
1
10
53.7136497398289
20
-6.72845796706593
30
0
41
1
10
53.6978399833545
20
-6.70822163845693
30
0
41
1
10
53.6703069560664
20
-6.6808325110047
30
0
41
1
10
53.660418660734
20
-6.67216463819935
30
0
41
1
10
53.639895544623
20
-6.65631323495424
30
0
41
1
10
53.6185320111444
20
-6.64182758479296
30
0
41
1
10
53.595532754837
20
-6.62999458828907
30
0
41
1
10
53.5716999012673
20
-6.61951974037774
30
0
41
1
10
53.5475379113226
20
-6.61062379011952
30
0
41
1
10
53.5227518745839
20
-6.60472665643644
30
0
41
1
10
53.4976549176349
20
-6.6003273794874
30
0
41
1
10
53.4848699251751
20
-6.59887822935681
30
0
41
1
10
53.4469580053602
20
-6.59690323181215
30
0
41
1
10
53.4220903956834
20
-6.59863995011852
30
0
41
1
10
53.3915246807433
20
-6.60463622479784
30
0
41
1
10
53.3854246622695
20
-6.60603443054023
30
0
41
1
10
53.3734411630561
20
-6.60918454839029
30
0
41
1
10
53.3557357798187
20
-6.61444952574823
30
0
41
1
10
53.3388230287644
20
-6.62129718723344
30
0
41
1
10
53.3169800639078
20
-6.63183533047885
30
0
41
1
10
53.3063914523727
20
-6.63782173619913
30
0
41
1
10
53.2860469146301
20
-6.6512200074242
30
0
41
1
10
53.2668938540733
20
-6.66579971211956
30
0
41
1
10
53.2500620930625
20
-6.68267723399111
30
0
41
1
10
53.2344197446734
20
-6.70073100737804
30
0
41
1
10
53.2271656391419
20
-6.7103928227356
30
0
41
1
10
53.2206393732419
20
-6.72054610652734
30
0
0
SPLINE
5
11C
100
AcDbEntity
8
1
62
256
6
ByLayer
370
18
48
1
60
0
100
AcDbSpline
70
4
71
3
72
10
73
6
40
0
40
0
40
0
40
0
40
0.5
40
0.5
40
1
40
1
40
1
40
1
41
1
10
54.3794858205818
20
-7.86283962043549
30
0
41
1
10
54.2707512933461
20
-7.6772290758056
30
0
41
1
10
54.1619920664529
20
-7.49183731439595
30
0
41
1
10
53.9444231516597
20
-7.12118599203976
30
0
41
1
10
53.8356132186725
20
-6.93593617089903
30
0
41
1
10
53.7267712926161
20
-6.75077970001101
30
0
0
SPLINE
5
11D
100
AcDbEntity
8
1
62
256
6
ByLayer
370
18
48
1
60
0
100
AcDbSpline
70
4
71
3
72
10
73
6
40
0
40
0
40
0
40
0
40
0.5
40
0.5
40
1
40
1
40
1
40
1
41
1
10
55.2425751878803
20
-6.82894314882572
30
0
41
1
10
55.1321430688728
20
-7.00629753498151
30
0
41
1
10
55.0219331462789
20
-7.18222684147307
30
0
41
1
10
54.8018692099423
20
-7.53114558056666
30
0
41
1
10
54.6920763435851
20
-7.70401803783537
30
0
41
1
10
54.5824246547661
20
-7.87565767044143
30
0
0
SPLINE
5
11E
100
AcDbEntity
8
1
62
256
6
ByLayer
370
18
48
1
60
0
100
AcDbSpline
70
4
71
3
72
33
73
29
40
0
40
0
40
0
40
0
40
0.125000000000096
40
0.125000000000096
40
0.187500000000142
40
0.187500000000142
40
0.250000000000189
40
0.312500000000235
40
0.312500000000235
40
0.375000000000282
40
0.375000000000282
40
0.437500000000328
40
0.437500000000328
40
0.500000000000374
40
0.500000000000374
40
0.625000000000402
40
0.625000000000402
40
0.656250000000394
40
0.656250000000394
40
0.687500000000386
40
0.750000000000309
40
0.750000000000309
40
0.812500000000231
40
0.812500000000231
40
0.875000000000154
40
0.937500000000077
40
0.937500000000077
40
1
40
1
40
1
40
1
41
1
10
55.7486930186399
20
-6.85103781516918
30
0
41
1
10
55.735572896586
20
-6.82850807303185
30
0
41
1
10
55.7197658060871
20
-6.80814987204406
30
0
41
1
10
55.6922386138164
20
-6.7806981753514
30
0
41
1
10
55.682352348836
20
-6.77202986565891
30
0
41
1
10
55.6618328252461
20
-6.75621763865732
30
0
41
1
10
55.6404725689451
20
-6.741810831956
30
0
41
1
10
55.617478670555
20
-6.73013491079453
30
0
41
1
10
55.5936492682205
20
-6.71985594006898
30
0
41
1
10
55.5815683804074
20
-6.71552334079749
30
0
41
1
10
55.5570963917635
20
-6.70839202252094
30
0
41
1
10
55.5447044111736
20
-6.70559330471093
30
0
41
1
10
55.5196096357336
20
-6.70152827259511
30
0
41
1
10
55.5068251903434
20
-6.70026478405373
30
0
41
1
10
55.4689112412168
20
-6.69888685127449
30
0
41
1
10
55.4440428905333
20
-6.70107622098044
30
0
41
1
10
55.4134768816268
20
-6.70770845452967
30
0
41
1
10
55.407376218451
20
-6.70923787337543
30
0
41
1
10
55.3953908142176
20
-6.71265446801317
30
0
41
1
10
55.3776828514779
20
-6.71832598737893
30
0
41
1
10
55.3607682669214
20
-6.7256003538223
30
0
41
1
10
55.3389234071539
20
-6.73672563307528
30
0
41
1
10
55.328335411075
20
-6.74301443315537
30
0
41
1
10
55.307986985098
20
-6.75703815689405
30
0
41
1
10
55.2888311391942
20
-6.77224909798787
30
0
41
1
10
55.2719982571596
20
-6.78976923901038
30
0
41
1
10
55.2563554658293
20
-6.80847150826398
30
0
41
1
10
55.249101440883
20
-6.81846196268546
30
0
41
1
10
55.2425751878803
20
-6.82894314882572
30
0
0
SPLINE
5
11F
100
AcDbEntity
8
1
62
256
6
ByLayer
370
18
48
1
60
0
100
AcDbSpline
70
4
71
3
72
10
73
6
40
0
40
0
40
0
40
0
40
0.5
40
0.5
40
1
40
1
40
1
40
1
41
1
10
56.4014776859313
20
-7.97328263633011
30
0
41
1
10
56.2927319726859
20
-7.78608090465593
30
0
41
1
10
56.1839612913786
20
-7.59900683540633
30
0
41
1
10
55.9663690373904
20
-7.22494416630209
30
0
41
1
10
55.8575471855733
20
-7.03796109999124
30
0
41
1
10
55.7486930186399
20
-6.85103781516918
30
0
0
SPLINE
5
120
100
AcDbEntity
8
1
62
256
6
ByLayer
370
18
48
1
60
0
100
AcDbSpline
70
4
71
3
72
10
73
6
40
0
40
0
40
0
40
0
40
0.5
40
0.5
40
1
40
1
40
1
40
1
41
1
10
57.2644096486037
20
-6.90469854613488
30
0
41
1
10
57.1540086847406
20
-7.08667203373091
30
0
41
1
10
57.0438264033725
20
-7.26748456643753
30
0
41
1
10
56.8238115784379
20
-7.62670472402783
30
0
41
1
10
56.7140397786561
20
-7.80499591167421
30
0
41
1
10
56.6044072896837
20
-7.98225287860905
30
0
0
SPLINE
5
121
100
AcDbEntity
8
1
62
256
6
ByLayer
370
18
48
1
60
0
100
AcDbSpline
70
4
71
3
72
33
73
29
40
0
40
0
40
0
40
0
40
0.124999999999933
40
0.124999999999933
40
0.187499999999925
40
0.187499999999925
40
0.249999999999917
40
0.312499999999908
40
0.312499999999908
40
0.3749999999999
40
0.3749999999999
40
0.437499999999892
40
0.437499999999892
40
0.499999999999884
40
0.499999999999884
40
0.624999999999867
40
0.624999999999867
40
0.656249999999878
40
0.656249999999878
40
0.687499999999889
40
0.749999999999911
40
0.749999999999911
40
0.812499999999934
40
0.812499999999934
40
0.874999999999956
40
0.937499999999978
40
0.937499999999978
40
1
40
1
40
1
40
1
41
1
10
57.7705044257513
20
-6.91859625804378
30
0
41
1
10
57.757386632536
20
-6.89597025033081
30
0
41
1
10
57.7415835015839
20
-6.87559023705876
30
0
41
1
10
57.7140646133691
20
-6.84820956974312
30
0
41
1
10
57.7041812630946
20
-6.83958271551612
30
0
41
1
10
57.6836670282908
20
-6.82388547153255
30
0
41
1
10
57.6623123393031
20
-6.8096262503426
30
0
41
1
10
57.6393245027009
20
-6.79816130982158
30
0
41
1
10
57.6155014015229
20
-6.78812588695385
30
0
41
1
10
57.6034205264339
20
-6.78392766239926
30
0
41
1
10
57.5789516305965
20
-6.77709301694375
30
0
41
1
10
57.5665611759111
20
-6.77445595557759
30
0
41
1
10
57.5414693993967
20
-6.77074118521315
30
0
41
1
10
57.5286857381864
20
-6.76966753689752
30
0
41
1
10
57.4907694633115
20
-6.76888771464959
30
0
41
1
10
57.4658999727309
20
-6.77151549535157
30
0
41
1
10
57.4353329483677
20
-6.77874727102821
30
0
41
1
10
57.4292313933307
20
-6.78039969403241
30
0
41
1
10
57.4172434107826
20
-6.78406477237277
30
0
41
1
10
57.3995319095283
20
-6.79011327442581
30
0
41
1
10
57.3826146847432
20
-6.7977772194678
30
0
41
1
10
57.3607670008543
20
-6.80943332507107
30
0
41
1
10
57.3501794169136
20
-6.81599268516499
30
0
41
1
10
57.3298260914868
20
-6.83057208196001
30
0
41
1
10
57.3106667444692
20
-6.84633872040277
30
0
41
1
10
57.2938326038811
20
-6.86441457481413
30
0
41
1
10
57.2781894352802
20
-6.88367239891096
30
0
41
1
10
57.2709356453238
20
-6.89394177063554
30
0
41
1
10
57.2644096486037
20
-6.90469854613488
30
0
0
SPLINE
5
122
100
AcDbEntity
8
1
62
256
6
ByLayer
370
18
48
1
60
0
100
AcDbSpline
70
4
71
3
72
10
73
6
40
0
40
0
40
0
40
0
40
0.5
40
0.5
40
1
40
1
40
1
40
1
41
1
10
58.4233592241652
20
-8.04559000449112
30
0
41
1
10
58.3146023710135
20
-7.85769638077554
30
0
41
1
10
58.2058201067053
20
-7.66984185599489
30
0
41
1
10
57.988204401874
20
-7.29417924853124
30
0
41
1
10
57.8793706704369
20
-7.1063723916898
30
0
41
1
10
57.7705044257513
20
-6.91859625804378
30
0
0
SPLINE
5
123
100
AcDbEntity
8
1
62
256
6
ByLayer
370
18
48
1
60
0
100
AcDbSpline
70
4
71
3
72
10
73
6
40
0
40
0
40
0
40
0
40
0.5
40
0.5
40
1
40
1
40
1
40
1
41
1
10
59.2862028141823
20
-6.94796346952364
30
0
41
1
10
59.1758226867778
20
-7.1336308710062
30
0
41
1
10
59.0656586654901
20
-7.31839664324988
30
0
41
1
10
58.8456748467737
20
-7.6860496261651
30
0
41
1
10
58.7359158400948
20
-7.86882094948521
30
0
41
1
10
58.6262941211878
20
-8.05075516776023
30
0
0
SPLINE
5
124
100
AcDbEntity
8
1
62
256
6
ByLayer
370
18
48
1
60
0
100
AcDbSpline
70
4
71
3
72
33
73
29
40
0
40
0
40
0
40
0
40
0.125
40
0.125
40
0.1875
40
0.1875
40
0.25
40
0.3125
40
0.3125
40
0.375
40
0.375
40
0.4375
40
0.4375
40
0.499999999999999
40
0.499999999999999
40
0.624999999999999
40
0.624999999999999
40
0.656249999999999
40
0.656249999999999
40
0.687499999999999
40
0.749999999999999
40
0.749999999999999
40
0.8125
40
0.8125
40
0.875
40
0.9375
40
0.9375
40
1
40
1
40
1
40
1
41
1
10
59.7922998514276
20
-6.95371184808366
30
0
41
1
10
59.7791817190153
20
-6.93109466034107
30
0
41
1
10
59.7633793339739
20
-6.9107878834088
30
0
41
1
10
59.7358639415978
20
-6.88360583746294
30
0
41
1
10
59.7259819711853
20
-6.87506070096464
30
0
41
1
10
59.7054703472088
20
-6.85955166371346
30
0
41
1
10
59.6841187465107
20
-6.84550636225285
30
0
41
1
10
59.6611350272482
20
-6.83430510081976
30
0
41
1
10
59.6373166361078
20
-6.82455881672718
30
0
41
1
10
59.6252358433908
20
-6.82051402507417
30
0
41
1
10
59.6007696156957
20
-6.8140058733097
30
0
41
1
10
59.5883805790421
20
-6.81154142660202
30
0
41
1
10
59.5632918192335
20
-6.80819086427454
30
0
41
1
10
59.5505092331653
20
-6.80731004287608
30
0
41
1
10
59.5125920034691
20
-6.80712493141775
30
0
41
1
10
59.487722192204
20
-6.81017271091304
30
0
41
1
10
59.4571551115953
20
-6.81796078557065
30
0
41
1
10
59.4510528737978
20
-6.81972652391227
30
0
41
1
10
59.4390625510604
20
-6.82361898937623
30
0
41
1
10
59.4213477810285
20
-6.83001007442826
30
0
41
1
10
59.4044279492411
20
-6.83802115368397
30
0
41
1
10
59.3825773043137
20
-6.85014438963853
30
0
41
1
10
59.3719904871693
20
-6.85693838401937
30
0
41
1
10
59.351630662675
20
-6.8719963823834
30
0
41
1
10
59.3324662009402
20
-6.88823612234873
30
0
41
1
10
59.3156291385146
20
-6.90677432857748
30
0
41
1
10
59.2999839940393
20
-6.92648895731784
30
0
41
1
10
59.2927296337537
20
-6.93698488435373
30
0
41
1
10
59.2862028141823
20
-6.94796346952364
30
0
0
SPLINE
5
125
100
AcDbEntity
8
1
62
256
6
ByLayer
370
18
48
1
60
0
100
AcDbSpline
70
4
71
3
72
10
73
6
40
0
40
0
40
0
40
0
40
0.5
40
0.5
40
1
40
1
40
1
40
1
41
1
10
60.4452208234854
20
-8.07997112029835
30
0
41
1
10
60.3364536449968
20
-7.89230145700131
30
0
41
1
10
60.2276603674322
20
-7.70458152635621
30
0
41
1
10
60.0100224531515
20
-7.32914757329641
30
0
41
1
10
59.901177496403
20
-7.14142958563878
30
0
41
1
10
59.7922998514276
20
-6.95371184808366
30
0
0
SPLINE
5
126
100
AcDbEntity
8
1
62
256
6
ByLayer
370
18
48
1
60
0
100
AcDbSpline
70
4
71
3
72
10
73
6
40
0
40
0
40
0
40
0
40
0.5
40
0.5
40
1
40
1
40
1
40
1
41
1
10
61.3080370122871
20
-6.95860853007608
30
0
41
1
10
61.19765927668
20
-7.14708412280854
30
0
41
1
10
61.0874967249689
20
-7.33491656688184
30
0
41
1
10
60.8675150541325
20
-7.70922847225845
30
0
41
1
10
60.7577572518167
20
-7.89559378829134
30
0
41
1
10
60.6481380755246
20
-8.08131944353613
30
0
0
SPLINE
5
127
100
AcDbEntity
8
1
62
256
6
ByLayer
370
18
48
1
60
0
100
AcDbSpline
70
4
71
3
72
33
73
29
40
0
40
0
40
0
40
0
40
0.124999999999943
40
0.124999999999943
40
0.187499999999939
40
0.187499999999939
40
0.249999999999935
40
0.312499999999932
40
0.312499999999932
40
0.374999999999928
40
0.374999999999928
40
0.437499999999924
40
0.437499999999924
40
0.499999999999921
40
0.499999999999921
40
0.624999999999914
40
0.624999999999914
40
0.656249999999895
40
0.656249999999895
40
0.687499999999877
40
0.749999999999902
40
0.749999999999902
40
0.812499999999926
40
0.812499999999926
40
0.874999999999951
40
0.937499999999975
40
0.937499999999975
40
1
40
1
40
1
40
1
41
1
10
61.8141549315202
20
-6.95618709369836
30
0
41
1
10
61.8010350761149
20
-6.93368796322062
30
0
41
1
10
61.7852320459691
20
-6.91355329431602
30
0
41
1
10
61.7577187277374
20
-6.88670281176277
30
0
41
1
10
61.7478377499006
20
-6.87828127788589
30
0
41
1
10
61.7273280825263
20
-6.86303649116275
30
0
41
1
10
61.7059791397712
20
-6.84927407880951
30
0
41
1
10
61.6829996544818
20
-6.8383915317329
30
0
41
1
10
61.6591864340724
20
-6.82898218730489
30
0
41
1
10
61.6471056667792
20
-6.82511053129963
30
0
41
1
10
61.622642481602
20
-6.81896044582302
30
0
41
1
10
61.610255123478
20
-6.81668045164508
30
0
41
1
10
61.5851700683386
20
-6.81370982321695
30
0
41
1
10
61.5723889179925
20
-6.81302567687266
30
0
41
1
10
61.5344706910472
20
-6.81343468938357
30
0
41
1
10
61.5096005863668
20
-6.81688629247648
30
0
41
1
10
61.4790335788056
20
-6.82519049422757
30
0
41
1
10
61.4729305189582
20
-6.82706053717763
30
0
41
1
10
61.4609370974019
20
-6.83116081934747
30
0
41
1
10
61.4432179559705
20
-6.83786243788018
30
0
41
1
10
61.4262945133336
20
-6.846180685169
30
0
41
1
10
61.404439646001
20
-6.85871068872589
30
0
41
1
10
61.393853955881
20
-6.86570472869815
30
0
41
1
10
61.3734844897918
20
-6.88116827816893
30
0
41
1
10
61.3543121543411
20
-6.89780237086265
30
0
41
1
10
61.3374701579137
20
-6.91671313866127
30
0
41
1
10
61.321821298555
20
-6.93678902375322
30
0
41
1
10
61.3145656385431
20
-6.94746056897182
30
0
41
1
10
61.3080370122871
20
-6.95860853007608
30
0
0
SPLINE
5
128
100
AcDbEntity
8
1
62
256
6
ByLayer
370
18
48
1
60
0
100
AcDbSpline
70
4
71
3
72
10
73
6
40
0
40
0
40
0
40
0
40
0.5
40
0.5
40
1
40
1
40
1
40
1
41
1
10
62.4278343780962
20
-8.00873065991769
30
0
41
1
10
62.3256019086607
20
-7.83341919133042
30
0
41
1
10
62.2233459331697
20
-7.65799904844499
30
0
41
1
10
62.0187882192725
20
-7.30713225278754
30
0
41
1
10
61.9164861187251
20
-7.13167399212395
30
0
41
1
10
61.8141549315202
20
-6.95618709369839
30
0
0
SPLINE
5
129
100
AcDbEntity
8
1
62
256
6
ByLayer
370
18
48
1
60
0
100
AcDbSpline
70
4
71
3
72
8
73
4
40
0
40
0
40
0
40
0
40
1
40
1
40
1
40
1
41
1
10
62.7601342484664
20
-7.91869716047734
30
0
41
1
10
62.6493191380088
20
-7.94890232263902
30
0
41
1
10
62.5385537894247
20
-7.97891528001213
30
0
41
1
10
62.4278343780962
20
-8.00873065991772
30
0
0
SPLINE
5
12A
100
AcDbEntity
8
1
62
256
6
ByLayer
370
18
48
1
60
0
100
AcDbSpline
70
4
71
3
72
10
73
6
40
0
40
0
40
0
40
0
40
0.5
40
0.5
40
1
40
1
40
1
40
1
41
1
10
63.3299355930821
20
-6.93639894148151
30
0
41
1
10
63.2346722702073
20
-7.10072698367401
30
0
41
1
10
63.1395688135676
20
-7.26477432543496
30
0
41
1
10
62.9496257283495
20
-7.59226789233213
30
0
41
1
10
62.8548127689681
20
-7.75566558393913
30
0
41
1
10
62.7601342484664
20
-7.91869716047736
30
0
0
SPLINE
5
12B
100
AcDbEntity
8
1
62
256
6
ByLayer
370
18
48
1
60
0
100
AcDbSpline
70
4
71
3
72
33
73
29
40
0
40
0
40
0
40
0
40
0.124999999999938
40
0.124999999999938
40
0.187499999999905
40
0.187499999999905
40
0.249999999999873
40
0.312499999999841
40
0.312499999999841
40
0.374999999999808
40
0.374999999999808
40
0.437499999999776
40
0.437499999999776
40
0.499999999999743
40
0.499999999999743
40
0.624999999999743
40
0.624999999999743
40
0.65624999999979
40
0.65624999999979
40
0.687499999999838
40
0.74999999999987
40
0.74999999999987
40
0.812499999999903
40
0.812499999999903
40
0.874999999999935
40
0.937499999999967
40
0.937499999999967
40
1
40
1
40
1
40
1
41
1
10
63.8360562109104
20
-6.9257268752919
30
0
41
1
10
63.8229363370863
20
-6.90345993558515
30
0
41
1
10
63.8071344201995
20
-6.88359888126689
30
0
41
1
10
63.7796249645945
20
-6.85721522328666
30
0
41
1
10
63.7697454412463
20
-6.84895971093431
30
0
41
1
10
63.7492383891778
20
-6.83405621263609
30
0
41
1
10
63.727892452186
20
-6.8206464399421
30
0
41
1
10
63.7049168110727
20
-6.81013847730969
30
0
41
1
10
63.6811079190955
20
-6.80111498688871
30
0
41
1
10
63.669026846465
20
-6.79743714015731
30
0
41
1
10
63.6445657181911
20
-6.79167885914458
30
0
41
1
10
63.6321794705806
20
-6.7895964628529
30
0
41
1
10
63.6070968194672
20
-6.78702467442383
30
0
41
1
10
63.5943164620469
20
-6.78654299176111
30
0
41
1
10
63.5563963243141
20
-6.78755198188119
30
0
41
1
10
63.5315254586612
20
-6.79139621598924
30
0
41
1
10
63.5009580466605
20
-6.80018363589954
30
0
41
1
10
63.4948543518991
20
-6.80215036018873
30
0
41
1
10
63.4828585885813
20
-6.80644132234983
30
0
41
1
10
63.4651362077043
20
-6.81342502332532
30
0
41
1
10
63.4482102661371
20
-6.82201394132036
30
0
41
1
10
63.4263526276556
20
-6.83489490861288
30
0
41
1
10
63.4157677160592
20
-6.84205820534751
30
0
41
1
10
63.3953924259185
20
-6.8578552896133
30
0
41
1
10
63.3762156042897
20
-6.87480561302493
30
0
41
1
10
63.359371187755
20
-6.89399894872852
30
0
41
1
10
63.343720795024
20
-6.91434016643373
30
0
41
1
10
63.3364647811776
20
-6.92513617356121
30
0
41
1
10
63.3299355930821
20
-6.93639894148151
30
0
0
SPLINE
5
12C
100
AcDbEntity
8
1
62
256
6
ByLayer
370
18
48
1
60
0
100
AcDbSpline
70
4
71
3
72
8
73
4
40
0
40
0
40
0
40
0
40
1
40
1
40
1
40
1
41
1
10
64.1865779198872
20
-7.52061108685982
30
0
41
1
10
64.0697701218382
20
-7.32237885550828
30
0
41
1
10
63.952932293493
20
-7.12408798142161
30
0
41
1
10
63.8360562109104
20
-6.9257268752919
30
0
0
SPLINE
5
12D
100
AcDbEntity
8
1
62
256
6
ByLayer
370
18
48
1
60
0
100
AcDbSpline
70
4
71
3
72
8
73
4
40
0
40
0
40
0
40
0
40
1
40
1
40
1
40
1
41
1
10
65.1425342170042
20
-7.24458563512212
30
0
41
1
10
64.8235536519469
20
-7.33777315153344
30
0
41
1
10
64.5049086234219
20
-7.42983830162976
30
0
41
1
10
64.1865779198871
20
-7.52061108685973
30
0
0
SPLINE
5
12E
100
AcDbEntity
8
1
62
256
6
ByLayer
370
18
48
1
60
0
100
AcDbSpline
70
4
71
3
72
8
73
4
40
0
40
0
40
0
40
0
40
1
40
1
40
1
40
1
41
1
10
65.3518009360473
20
-6.88148070647424
30
0
41
1
10
65.2819640178473
20
-7.00256081011958
30
0
41
1
10
65.2122120684681
20
-7.12359811422724
30
0
41
1
10
65.1425342170041
20
-7.24458563512204
30
0
0
SPLINE
5
12F
100
AcDbEntity
8
1
62
256
6
ByLayer
370
18
48
1
60
0
100
AcDbSpline
70
4
71
3
72
33
73
29
40
0
40
0
40
0
40
0
40
0.125000000000045
40
0.125000000000045
40
0.187500000000069
40
0.187500000000069
40
0.250000000000092
40
0.312500000000116
40
0.312500000000116
40
0.37500000000014
40
0.37500000000014
40
0.437500000000164
40
0.437500000000164
40
0.500000000000187
40
0.500000000000187
40
0.62500000000017
40
0.62500000000017
40
0.656250000000181
40
0.656250000000181
40
0.687500000000192
40
0.750000000000154
40
0.750000000000154
40
0.812500000000115
40
0.812500000000115
40
0.875000000000077
40
0.937500000000038
40
0.937500000000038
40
1
40
1
40
1
40
1
41
1
10
65.857906489451
20
-6.86272189462997
30
0
41
1
10
65.8447888877286
20
-6.84079686833957
30
0
41
1
10
65.8289909545854
20
-6.82130571238875
30
0
41
1
10
65.8014901231575
20
-6.7955145232628
30
0
41
1
10
65.7916136476272
20
-6.78746382827129
30
0
41
1
10
65.7711120707948
20
-6.77297061477938
30
0
41
1
10
65.7497719421742
20
-6.75997459508994
30
0
41
1
10
65.726802749541
20
-6.74988710581971
30
0
41
1
10
65.7030006442701
20
-6.74128761465801
30
0
41
1
10
65.6909194733481
20
-6.73781821545859
30
0
41
1
10
65.6664615650184
20
-6.73247329692708
30
0
41
1
10
65.6540769271554
20
-6.73059530164088
30
0
41
1
10
65.6289974939775
20
-6.72842803867982
30
0
41
1
10
65.6162180945538
20
-6.72814763369033
30
0
41
1
10
65.5782949926251
20
-6.7297415176489
30
0
41
1
10
65.5534226467012
20
-6.73395316034865
30
0
41
1
10
65.522853879808
20
-6.74317315903261
30
0
41
1
10
65.5167492759263
20
-6.7452254687843
30
0
41
1
10
65.504750345329
20
-6.74968341241731
30
0
41
1
10
65.4870235843954
20
-6.75691107986532
30
0
41
1
10
65.4700942719672
20
-6.76572497994468
30
0
41
1
10
65.4482329131473
20
-6.7788891852349
30
0
41
1
10
65.4376485557627
20
-6.78618426480804
30
0
41
1
10
65.4172666625312
20
-6.80223351398737
30
0
41
1
10
65.3980848955838
20
-6.81941318550659
30
0
41
1
10
65.3812381390216
20
-6.83879140297029
30
0
41
1
10
65.3655864612869
20
-6.85929462068881
30
0
41
1
10
65.3583303220234
20
-6.870160351122
30
0
41
1
10
65.3518009360473
20
-6.88148070647424
30
0
0
SPLINE
5
130
100
AcDbEntity
8
1
62
256
6
ByLayer
370
18
48
1
60
0
100
AcDbSpline
70
4
71
3
72
8
73
4
40
0
40
0
40
0
40
0
40
1
40
1
40
1
40
1
41
1
10
65.9449076146436
20
-7.00813007809597
30
0
41
1
10
65.9159095241705
20
-6.95966691884988
30
0
41
1
10
65.8869091991592
20
-6.91119761346144
30
0
41
1
10
65.857906489451
20
-6.86272189462997
30
0
0
SPLINE
5
131
100
AcDbEntity
8
1
62
256
6
ByLayer
370
18
48
1
60
0
100
AcDbSpline
70
4
71
3
72
8
73
4
40
0
40
0
40
0
40
0
40
1
40
1
40
1
40
1
41
1
10
67.3999999132928
20
-6.5704108523222
30
0
41
1
10
66.9139675762526
20
-6.71821125891458
30
0
41
1
10
66.4289928578962
20
-6.86430207022741
30
0
41
1
10
65.9449076146435
20
-7.00813007809597
30
0
0
SPLINE
5
132
100
AcDbEntity
8
1
62
256
6
ByLayer
370
18
48
1
60
0
100
AcDbSpline
70
4
71
3
72
8
73
4
40
0
40
0
40
0
40
0
40
1
40
1
40
1
40
1
41
1
10
68
20
-5.95322555704007
30
0
41
1
10
67.799558952036
20
-6.15858695971826
30
0
41
1
10
67.5995531650961
20
-6.36440754363423
30
0
41
1
10
67.3999999132928
20
-6.5704108523222
30
0
0
SPLINE
5
133
100
AcDbEntity
8
1
62
256
6
ByLayer
370
18
48
1
60
0
100
AcDbSpline
70
4
71
3
72
33
73
29
40
0
40
0
40
0
40
0
40
0.143138600351932
40
0.143138600351932
40
0.185981670334334
40
0.185981670334334
40
0.228824740316737
40
0.228824740316737
40
0.314510880281543
40
0.314510880281543
40
0.485883160211154
40
0.485883160211154
40
0.57156930017596
40
0.57156930017596
40
0.614412370158363
40
0.614412370158363
40
0.635833905149565
40
0.635833905149565
40
0.657255440140767
40
0.742941580105575
40
0.742941580105575
40
0.828627720070384
40
0.828627720070384
40
0.871470790052788
40
0.871470790052788
40
0.914313860035192
40
0.914313860035192
40
1
40
1
40
1
40
1
41
1
10
68
20
-3.17985655701494
30
0
41
1
10
68
20
-3.27706034337948
30
0
41
1
10
68
20
-3.3810203295744
30
0
41
1
10
68
20
-3.5250911013336
30
0
41
1
10
68
20
-3.55889851663812
30
0
41
1
10
68
20
-3.62776554991916
30
0
41
1
10
68
20
-3.6626319747478
30
0
41
1
10
68
20
-3.76850961121485
30
0
41
1
10
68
20
-3.84079643535637
30
0
41
1
10
68
20
-4.0626972398463
30
0
41
1
10
68
20
-4.21737223906618
30
0
41
1
10
68
20
-4.45937536742659
30
0
41
1
10
68
20
-4.54171233586672
30
0
41
1
10
68
20
-4.66777189137062
30
0
41
1
10
68
20
-4.71021798913625
30
0
41
1
10
68
20
-4.77453866993841
30
0
41
1
10
68
20
-4.79610502729753
30
0
41
1
10
68
20
-4.83930099930146
30
0
41
1
10
68
20
-4.94751916664413
30
0
41
1
10
68
20
-5.05686601140249
30
0
41
1
10
68
20
-5.23322637284446
30
0
41
1
10
68
20
-5.3221273029429
30
0
41
1
10
68
20
-5.45650617616033
30
0
41
1
10
68
20
-5.50146632256485
30
0
41
1
10
68
20
-5.59167552712208
30
0
41
1
10
68
20
-5.63681849772502
30
0
41
1
10
68
20
-5.77230278104881
30
0
41
1
10
68
20
-5.86271978064838
30
0
41
1
10
68
20
-5.95322555704013
30
0
0
SPLINE
5
134
100
AcDbEntity
8
1
62
256
6
ByLayer
370
18
48
1
60
0
100
AcDbSpline
70
4
71
3
72
8
73
4
40
0
40
0
40
0
40
0
40
1
40
1
40
1
40
1
41
1
10
58.6547242051776
20
-8.08305366480423
30
0
41
1
10
58.6452526151266
20
-8.08307235982474
30
0
41
1
10
58.6358044244548
20
-8.07231300490653
30
0
41
1
10
58.6262941211878
20
-8.05075516776023
30
0
0
SPLINE
5
135
100
AcDbEntity
8
1
62
256
6
ByLayer
370
18
48
1
60
0
100
AcDbSpline
70
4
71
3
72
14
73
10
40
0
40
0
40
0
40
0
40
0.571110198725892
40
0.571110198725892
40
0.856665298088839
40
0.856665298088839
40
0.999442847770312
40
0.999442847770312
40
1
40
1
40
1
40
1
41
1
10
58.4233592241652
20
-8.0455900044912
30
0
41
1
10
58.4291637834782
20
-8.05976134570642
30
0
41
1
10
58.4349736110954
20
-8.06995492420972
30
0
41
1
10
58.4437129582987
20
-8.0791732644434
30
0
41
1
10
58.4466302913875
20
-8.08123345031774
30
0
41
1
10
58.4510157942776
20
-8.08278611641617
30
0
41
1
10
58.4524802583731
20
-8.08304713431806
30
0
41
1
10
58.4539482868604
20
-8.0830505039672
30
0
41
1
10
58.4539539931617
20
-8.08305051314017
30
0
41
1
10
58.4539596994326
20
-8.08305051838826
30
0
0
SPLINE
5
136
100
AcDbEntity
8
1
62
256
6
ByLayer
370
18
48
1
60
0
100
AcDbSpline
70
4
71
3
72
10
73
6
40
0
40
0
40
0
40
0
40
0.307962947980284
40
0.307962947980284
40
1
40
1
40
1
40
1
41
1
10
56.6547366048377
20
-8.08305060483431
30
0
41
1
10
56.6495126814474
20
-8.08305957168656
30
0
41
1
10
56.6443104063328
20
-8.07981909921762
30
0
41
1
10
56.6274822318219
20
-8.05895865195984
30
0
41
1
10
56.6159433405863
20
-8.02848065870234
30
0
41
1
10
56.6044072896837
20
-7.98225287860905
30
0
0
SPLINE
5
137
100
AcDbEntity
8
1
62
256
6
ByLayer
370
18
48
1
60
0
100
AcDbSpline
70
4
71
3
72
13
73
9
40
0
40
0
40
0
40
0
40
0.166140609331746
40
0.166140609331746
40
0.332281218663493
40
0.664562437326985
40
0.664562437326985
40
1
40
1
40
1
40
1
41
1
10
56.4014776859314
20
-7.9732826363302
30
0
41
1
10
56.4043928051057
20
-7.98546111174835
30
0
41
1
10
56.4073129679977
20
-7.99665904666492
30
0
41
1
10
56.4131644516509
20
-8.01705720536913
30
0
41
1
10
56.4219194598936
20
-8.0445249493477
30
0
41
1
10
56.4306369673964
20
-8.06273246253951
30
0
41
1
10
56.4423173483833
20
-8.07900776915565
30
0
41
1
10
56.4481789247173
20
-8.08307666604139
30
0
41
1
10
56.4540342392916
20
-8.08305946290201
30
0
0
SPLINE
5
138
100
AcDbEntity
8
1
62
256
6
ByLayer
370
18
48
1
60
0
100
AcDbSpline
70
4
71
3
72
16
73
12
40
0
40
0
40
0
40
0
40
0.0349227906878295
40
0.0349227906878295
40
0.517461395343919
40
0.517461395343919
40
0.57777872092593
40
0.57777872092593
40
0.638096046507941
40
0.75873069767196
40
1
40
1
40
1
40
1
41
1
10
54.6547528896215
20
-8.08305111438557
30
0
41
1
10
54.6539177112222
20
-8.08305305653602
30
0
41
1
10
54.6530824212289
20
-8.08297135480143
30
0
41
1
10
54.6407034968159
20
-8.08052138791535
30
0
41
1
10
54.6290980180645
20
-8.06227127771243
30
0
41
1
10
54.6158972292235
20
-8.02312265961518
30
0
41
1
10
54.6144285672714
20
-8.01851207305066
30
0
41
1
10
54.6114971165876
20
-8.00880064078473
30
0
41
1
10
54.6071053418114
20
-7.99348846513985
30
0
41
1
10
54.5968950048183
20
-7.95257809313145
30
0
41
1
10
54.5882028246215
20
-7.90873200582325
30
0
41
1
10
54.5824246547661
20
-7.87565767044143
30
0
0
SPLINE
5
139
100
AcDbEntity
8
1
62
256
6
ByLayer
370
18
48
1
60
0
100
AcDbSpline
70
4
71
3
72
12
73
8
40
0
40
0
40
0
40
0
40
0.466880806941441
40
0.466880806941441
40
0.933761613882881
40
0.933761613882881
40
1
40
1
40
1
40
1
41
1
10
54.3794858205819
20
-7.86283962043564
30
0
41
1
10
54.3911311976341
20
-7.93151763553601
30
0
41
1
10
54.4027404077107
20
-7.9838988396468
30
0
41
1
10
54.4259424941448
20
-8.0568960284694
30
0
41
1
10
54.4375104563817
20
-8.07751060513067
30
0
41
1
10
54.4507440960673
20
-8.08272737199866
30
0
41
1
10
54.4523889109459
20
-8.08305185273559
30
0
41
1
10
54.4540347181974
20
-8.08305092026137
30
0
0
SPLINE
5
13A
100
AcDbEntity
8
1
62
256
6
ByLayer
370
18
48
1
60
0
100
AcDbSpline
70
4
71
3
72
17
73
13
40
0
40
0
40
0
40
0
40
0.361255470508732
40
0.361255470508732
40
0.722510941017465
40
0.722510941017465
40
0.767667874831056
40
0.767667874831056
40
0.812824808644647
40
0.812824808644647
40
0.903138676271831
40
1
40
1
40
1
40
1
41
1
10
52.3574969521618
20
-7.71482391017773
30
0
41
1
10
52.3690970904293
20
-7.80259969489793
30
0
41
1
10
52.3806867816637
20
-7.87475826965456
30
0
41
1
10
52.4038390106917
20
-7.9880011243946
30
0
41
1
10
52.4154009385948
20
-8.0290876458777
30
0
41
1
10
52.4285194456262
20
-8.05728618639716
30
0
41
1
10
52.4299787623821
20
-8.06016825850122
30
0
41
1
10
52.4329015258581
20
-8.06542695228731
30
0
41
1
10
52.4343658166999
20
-8.06780448801703
30
0
41
1
10
52.438753105578
20
-8.07415664427674
30
0
41
1
10
52.4448084732941
20
-8.08079157693308
30
0
41
1
10
52.4508484427351
20
-8.0830462762797
30
0
41
1
10
52.4539696527621
20
-8.08305107724047
30
0
0
SPLINE
5
13B
100
AcDbEntity
8
1
62
256
6
ByLayer
370
18
48
1
60
0
100
AcDbSpline
70
4
71
3
72
15
73
11
40
0
40
0
40
0
40
0
40
0.26161543986214
40
0.63080771993107
40
0.63080771993107
40
0.815403859965535
40
0.815403859965535
40
0.907701929982767
40
0.907701929982767
40
1
40
1
40
1
40
1
41
1
10
52.6547160038066
20
-8.08305682443333
30
0
41
1
10
52.6464888266138
20
-8.08306390821068
30
0
41
1
10
52.6267317503298
20
-8.06361162486004
30
0
41
1
10
52.6070822131668
20
-7.99789444683046
30
0
41
1
10
52.589665204889
20
-7.91606906957952
30
0
41
1
10
52.5838316011305
20
-7.88476319028118
30
0
41
1
10
52.5750456073425
20
-7.83162884666928
30
0
41
1
10
52.5721077216742
20
-7.81286364210015
30
0
41
1
10
52.566254414054
20
-7.77348914876316
30
0
41
1
10
52.5633353036423
20
-7.75285972516761
30
0
41
1
10
52.5604230910838
20
-7.73129905280337
30
0
0
SPLINE
5
13C
100
AcDbEntity
8
1
62
256
6
ByLayer
370
18
48
1
60
0
100
AcDbSpline
70
4
71
3
72
18
73
14
40
0
40
0
40
0
40
0
40
0.293847115556454
40
0.293847115556454
40
0.440770673334681
40
0.440770673334681
40
0.514232452223794
40
0.514232452223794
40
0.587694231112908
40
0.587694231112908
40
0.881541346669361
40
0.881541346669361
40
1
40
1
40
1
40
1
41
1
10
50.3356731277808
20
-7.53119011362912
30
0
41
1
10
50.347236551221
20
-7.63756017484798
30
0
41
1
10
50.3587804883066
20
-7.72910074650159
30
0
41
1
10
50.3761475772892
20
-7.84381883534968
30
0
41
1
10
50.3819468806275
20
-7.87828449412964
30
0
41
1
10
50.3906879406763
20
-7.92420003666092
30
0
41
1
10
50.3936112644712
20
-7.93854923074565
30
0
41
1
10
50.3994425061656
20
-7.96514055345907
30
0
41
1
10
50.40235511938
20
-7.97740596232785
30
0
41
1
10
50.4169047200503
20
-8.03364099534625
30
0
41
1
10
50.4284872554597
20
-8.06238090961838
30
0
41
1
10
50.444674198213
20
-8.08043585770764
30
0
41
1
10
50.4493172984264
20
-8.08304351761967
30
0
41
1
10
50.4539607225322
20
-8.08305870911761
30
0
0
SPLINE
5
13D
100
AcDbEntity
8
1
62
256
6
ByLayer
370
18
48
1
60
0
100
AcDbSpline
70
4
71
3
72
20
73
16
40
0
40
0
40
0
40
0
40
0.24466606944957
40
0.24466606944957
40
0.370555057874642
40
0.370555057874642
40
0.402027304980911
40
0.402027304980911
40
0.433499552087179
40
0.433499552087179
40
0.496444046299714
40
0.496444046299714
40
0.748222023149857
40
0.748222023149857
40
1
40
1
40
1
40
1
41
1
10
48.6546694562136
20
-8.08305062173028
30
0
41
1
10
48.6434497588106
20
-8.08303956470525
30
0
41
1
10
48.6322689316997
20
-8.06803497251374
30
0
41
1
10
48.6152616415916
20
-8.02231277316221
30
0
41
1
10
48.6094690987165
20
-8.0027507952399
30
0
41
1
10
48.6021810855273
20
-7.97316058779055
30
0
41
1
10
48.6007210592348
20
-7.96698546769974
30
0
41
1
10
48.597796368928
20
-7.95411773138815
30
0
41
1
10
48.5963310978985
20
-7.94742186593516
30
0
41
1
10
48.5919419772848
20
-7.92661828844518
30
0
41
1
10
48.5890207242524
20
-7.91177750249082
30
0
41
1
10
48.5744404342734
20
-7.83277387710132
30
0
41
1
10
48.56286765978
20
-7.75425567252961
30
0
41
1
10
48.5398165313244
20
-7.56737265937713
30
0
41
1
10
48.5283376247348
20
-7.45900627556068
30
0
41
1
10
48.5167569543482
20
-7.33557109602785
30
0
0
SPLINE
5
13E
100
AcDbEntity
8
1
62
256
6
ByLayer
370
18
48
1
60
0
100
AcDbSpline
70
4
71
3
72
20
73
16
40
0
40
0
40
0
40
0
40
0.24771576117006
40
0.24771576117006
40
0.278680231316317
40
0.278680231316317
40
0.309644701462575
40
0.371573641755089
40
0.495431522340116
40
0.495431522340116
40
0.743147283510171
40
0.743147283510171
40
0.990863044680226
40
0.990863044680226
40
1
40
1
40
1
40
1
41
1
10
48.3138236482012
20
-7.31194522512143
30
0
41
1
10
48.3253674613573
20
-7.43679831406655
30
0
41
1
10
48.3369107383498
20
-7.54767449827162
30
0
41
1
10
48.3500214284226
20
-7.65610080925902
30
0
41
1
10
48.3514794334953
20
-7.66791536416255
30
0
41
1
10
48.3543909428524
20
-7.69101808079651
30
0
41
1
10
48.3587543791023
20
-7.72490925367345
30
0
41
1
10
48.3689223342416
20
-7.7986817557007
30
0
41
1
10
48.377614198113
20
-7.85292218176423
30
0
41
1
10
48.3949588111988
20
-7.94958900804414
30
0
41
1
10
48.4064629573389
20
-7.99831575660269
30
0
41
1
10
48.4294802896805
20
-8.06442052840472
30
0
41
1
10
48.4410018502181
20
-8.08180122167033
30
0
41
1
10
48.4531141077142
20
-8.08302948062919
30
0
41
1
10
48.4535452324057
20
-8.08305097834779
30
0
41
1
10
48.4539765478456
20
-8.08305029667997
30
0
0
SPLINE
5
13F
100
AcDbEntity
8
1
62
256
6
ByLayer
370
18
48
1
60
0
100
AcDbSpline
70
4
71
3
72
12
73
8
40
0
40
0
40
0
40
0
40
0.50232324550782
40
0.50232324550782
40
0.75348486826173
40
0.75348486826173
40
1
40
1
40
1
40
1
41
1
10
35.3759435912259
20
5.7449798524494
30
0
41
1
10
34.5426651157165
20
5.77758939031193
30
0
41
1
10
33.7107362456386
20
5.80377710483367
30
0
41
1
10
32.4647022172498
20
5.83090926036175
30
0
41
1
10
32.0496008063097
20
5.83792728339992
30
0
41
1
10
31.2283686040125
20
5.84736832819377
30
0
41
1
10
30.8221468215616
20
5.84987653817552
30
0
41
1
10
30.4164957821781
20
5.84999555687403
30
0
0
SPLINE
5
140
100
AcDbEntity
8
1
62
256
6
ByLayer
370
18
48
1
60
0
100
AcDbSpline
70
4
71
3
72
46
73
42
40
0
40
0
40
0
40
0
40
0.0063784075773001
40
0.0063784075773001
40
0.0224045622937957
40
0.0224045622937957
40
0.0384307170102915
40
0.0384307170102915
40
0.0544568717267873
40
0.0544568717267873
40
0.0704830264432831
40
0.0704830264432831
40
0.0865091811597787
40
0.0865091811597787
40
0.0945222585180271
40
0.0945222585180271
40
0.102535335876275
40
0.102535335876275
40
0.134587645309267
40
0.134587645309267
40
0.166639954742258
40
0.166639954742258
40
0.198692264175249
40
0.198692264175249
40
0.23074457360824
40
0.23074457360824
40
0.294849192474221
40
0.294849192474221
40
0.358953811340202
40
0.358953811340202
40
0.423058430206183
40
0.423058430206183
40
0.487163049072163
40
0.487163049072163
40
0.615372286804122
40
0.615372286804122
40
0.743581524536082
40
0.743581524536082
40
0.871790762268041
40
0.871790762268041
40
1
40
1
40
1
40
1
41
1
10
17.6180499150053
20
-5.84999758834041
30
0
41
1
10
17.6535557270469
20
-5.84997603454869
30
0
41
1
10
17.6896934645258
20
-5.84981008400601
30
0
41
1
10
17.8175977747937
20
-5.84881872010934
30
0
41
1
10
17.9110818552981
20
-5.84739089032479
30
0
41
1
10
18.100825566303
20
-5.84367426303922
30
0
41
1
10
18.19710292111
20
-5.84137900593674
30
0
41
1
10
18.3917945731245
20
-5.83624222881792
30
0
41
1
10
18.4902139131189
20
-5.83339812205315
30
0
41
1
10
18.6887678979529
20
-5.82736417966524
30
0
41
1
10
18.7889062044014
20
-5.82417337043771
30
0
41
1
10
18.9906117302568
20
-5.81758345462049
30
0
41
1
10
19.092179478047
20
-5.81418356361306
30
0
41
1
10
19.2454421639311
20
-5.8089996021026
30
0
41
1
10
19.2967122028665
20
-5.80725630702446
30
0
41
1
10
19.3992921472718
20
-5.803759096466
30
0
41
1
10
19.4506225173754
20
-5.80200448992818
30
0
41
1
10
19.7074610884119
20
-5.79322108399731
30
0
41
1
10
19.9135236644792
20
-5.78616915641757
30
0
41
1
10
20.3265666672705
20
-5.7723802364971
30
0
41
1
10
20.5335485364485
20
-5.76563875826986
30
0
41
1
10
20.9482750563395
20
-5.75269276927116
30
0
41
1
10
21.1560210328292
20
-5.74648757105717
30
0
41
1
10
21.5721680876986
20
-5.73475500986009
30
0
41
1
10
21.7805703120644
20
-5.7292280157013
30
0
41
1
10
22.4066474960972
20
-5.71380656570227
30
0
41
1
10
22.8251874724204
20
-5.70508412873087
30
0
41
1
10
23.6641608754152
20
-5.69109019217456
30
0
41
1
10
24.0845920941259
20
-5.68580099473206
30
0
41
1
10
24.9271368460454
20
-5.67875899965651
30
0
41
1
10
25.3492508084679
20
-5.67700242588137
30
0
41
1
10
26.1950103477671
20
-5.67685413270416
30
0
41
1
10
26.6172149424835
20
-5.67845477162084
30
0
41
1
10
27.881526287112
20
-5.68762840512466
30
0
41
1
10
28.7215546729892
20
-5.69963452436838
30
0
41
1
10
30.396710311658
20
-5.73036277971175
30
0
41
1
10
31.2318473277764
20
-5.749012732133
30
0
41
1
10
32.8980512613317
20
-5.78607922155211
30
0
41
1
10
33.7291004947387
20
-5.8044808099354
30
0
41
1
10
35.3879490232275
20
-5.83378763363206
30
0
41
1
10
36.2157555875161
20
-5.84464211870835
30
0
41
1
10
37.0424485256351
20
-5.84847224325372
30
0
0
SPLINE
5
141
100
AcDbEntity
8
1
62
256
6
ByLayer
370
18
48
1
60
0
100
AcDbSpline
70
4
71
3
72
8
73
4
40
0
40
0
40
0
40
0
40
1
40
1
40
1
40
1
41
1
10
37.0424926536992
20
-5.84847245627356
30
0
41
1
10
37.2626156915836
20
-5.84948572789747
30
0
41
1
10
37.4827315105733
20
-5.84999533963406
30
0
41
1
10
37.7028413089371
20
-5.85000026901079
30
0
0
SPLINE
5
142
100
AcDbEntity
8
1
62
256
6
ByLayer
370
18
48
1
60
0
100
AcDbSpline
70
4
71
3
72
46
73
42
40
0
40
0
40
0
40
0
40
0.125
40
0.125
40
0.187500000000001
40
0.187500000000001
40
0.250000000000001
40
0.250000000000001
40
0.500000000000002
40
0.500000000000002
40
0.562500000000002
40
0.562500000000002
40
0.625000000000002
40
0.625000000000002
40
0.750000000000003
40
0.750000000000003
40
0.812500000000003
40
0.812500000000003
40
0.875000000000003
40
0.875000000000003
40
0.906250000000002
40
0.906250000000002
40
0.937500000000002
40
0.937500000000002
40
0.953125000000002
40
0.953125000000002
40
0.968750000000003
40
0.968750000000003
40
0.976562500000002
40
0.976562500000002
40
0.984375000000001
40
0.984375000000001
40
0.988281250000002
40
0.988281250000002
40
0.992187500000002
40
0.992187500000002
40
0.996093750000003
40
0.996093750000003
40
0.998046875000001
40
0.998046875000001
40
1
40
1
40
1
40
1
41
1
10
46.9793404102901
20
1.21387619621595
30
0
41
1
10
46.9790672657926
20
1.37624683685138
30
0
41
1
10
46.9789654407581
20
1.53784435572734
30
0
41
1
10
46.9790980739161
20
1.77906713575413
30
0
41
1
10
46.9791897246352
20
1.85927893182617
30
0
41
1
10
46.9794711596481
20
2.01930594850305
30
0
41
1
10
46.9796610987615
20
2.09920626068268
30
0
41
1
10
46.9808565471775
20
2.49554691337121
30
0
41
1
10
46.9825927980608
20
2.80394986442846
30
0
41
1
10
46.9865900879364
20
3.17915038075867
30
0
41
1
10
46.9874825522576
20
3.25363896276187
30
0
41
1
10
46.9894812632439
20
3.40121264018291
30
0
41
1
10
46.9905877690459
20
3.47434433937562
30
0
41
1
10
46.9942926132275
20
3.69182874251624
30
0
41
1
10
46.9972466779508
20
3.83432094116574
30
0
41
1
10
47.0029386636686
20
4.04401330861259
30
0
41
1
10
47.0050523071399
20
4.11326654504279
30
0
41
1
10
47.009945529656
20
4.25070769049279
30
0
41
1
10
47.0127130219872
20
4.31888672506301
30
0
41
1
10
47.0177497911908
20
4.42071565920216
30
0
41
1
10
47.0195782314605
20
4.45458349404902
30
0
41
1
10
47.0236958056563
20
4.52232943550757
30
0
41
1
10
47.0259758646739
20
4.55619812978918
30
0
41
1
10
47.0300172566346
20
4.60727371800169
30
0
41
1
10
47.0314694851572
20
4.62434578047353
30
0
41
1
10
47.0347014617181
20
4.658688598618
30
0
41
1
10
47.0364748006482
20
4.6759571967219
30
0
41
1
10
47.0395827590663
20
4.70217843361223
30
0
41
1
10
47.0406949426179
20
4.7109760545172
30
0
41
1
10
47.0431572119241
20
4.72874037013995
30
0
41
1
10
47.0445032944073
20
4.73771103761231
30
0
41
1
10
47.0468501214782
20
4.75138915680969
30
0
41
1
10
47.0476883978229
20
4.75598914613769
30
0
41
1
10
47.04953939216
20
4.7652964439749
30
0
41
1
10
47.050549568554
20
4.77000627039922
30
0
41
1
10
47.0528817251368
20
4.77956727252376
30
0
41
1
10
47.0541876638337
20
4.78443023441841
30
0
41
1
10
47.0567053367518
20
4.79179524410193
30
0
41
1
10
47.0576497933979
20
4.79427987028413
30
0
41
1
10
47.059810433502
20
4.79893413826875
30
0
41
1
10
47.0610753991109
20
4.80116311993979
30
0
41
1
10
47.0624025286013
20
4.8027622828829
30
0
0
SPLINE
5
143
100
AcDbEntity
8
1
62
256
6
ByLayer
370
18
48
1
60
0
100
AcDbSpline
70
4
71
3
72
10
73
6
40
0
40
0
40
0
40
0
40
0.317858333073937
40
0.634050741946593
40
1
40
1
40
1
40
1
41
1
10
67.4000000610674
20
-3.40331672621019
30
0
41
1
10
67.4000000720773
20
-2.88719047614424
30
0
41
1
10
67.4000000076305
20
-1.77868571057746
30
0
41
1
10
67.3999999321832
20
0.0949754013464599
30
0
41
1
10
67.3999999145269
20
1.36274694632038
30
0
41
1
10
67.3999999132928
20
2.00959256786118
30
0
0
SPLINE
5
144
100
AcDbEntity
8
1
62
256
6
ByLayer
370
18
48
1
60
0
100
AcDbSpline
70
4
71
3
72
34
73
30
40
0
40
0
40
0
40
0
40
0.0625000000000002
40
0.0625000000000002
40
0.0937500000000002
40
0.0937500000000002
40
0.125
40
0.125
40
0.25
40
0.25
40
0.374999999999999
40
0.374999999999999
40
0.437499999999999
40
0.437499999999999
40
0.468749999999999
40
0.468749999999999
40
0.499999999999999
40
0.499999999999999
40
0.624999999999999
40
0.624999999999999
40
0.749999999999999
40
0.749999999999999
40
0.874999999999999
40
0.874999999999999
40
0.906249999999999
40
0.906249999999999
40
0.9375
40
0.9375
40
1
40
1
40
1
40
1
41
1
10
67.037362507934
20
2.12157575073357
30
0
41
1
10
67.042926161336
20
2.00754131075061
30
0
41
1
10
67.048496180509
20
1.89259552200576
30
0
41
1
10
67.0569037615377
20
1.71881438547609
30
0
41
1
10
67.0597166815693
20
1.66062628394621
30
0
41
1
10
67.0653469710088
20
1.54421206057833
30
0
41
1
10
67.0681665600665
20
1.48594010303603
30
0
41
1
10
67.0823035335729
20
1.19426034403895
30
0
41
1
10
67.0938118330455
20
0.959898095922455
30
0
41
1
10
67.1169553376228
20
0.48916930962335
30
0
41
1
10
67.1285431333573
20
0.252801434420604
30
0
41
1
10
67.1455341032784
20
-0.103302712885693
30
0
41
1
10
67.1511287794584
20
-0.222263816323959
30
0
41
1
10
67.1595406128898
20
-0.401094394977036
30
0
41
1
10
67.1623480030587
20
-0.4607694484761
30
0
41
1
10
67.1679739275587
20
-0.580250179526104
30
0
41
1
10
67.1707945953715
20
-0.640100843142704
30
0
41
1
10
67.1848521494686
20
-0.937932319021456
30
0
41
1
10
67.1960209122806
20
-1.1729749174153
30
0
41
1
10
67.2183177981396
20
-1.63681630550596
30
0
41
1
10
67.2294083495837
20
-1.86560666083929
30
0
41
1
10
67.2517251040175
20
-2.31690396689027
30
0
41
1
10
67.2629677432386
20
-2.53942262161576
30
0
41
1
10
67.2772684441191
20
-2.81353279797983
30
0
41
1
10
67.2801417938929
20
-2.86817136932703
30
0
41
1
10
67.2858927550909
20
-2.97661473858659
30
0
41
1
10
67.2887730597078
20
-3.03047156475819
30
0
41
1
10
67.2974308530234
20
-3.19094743929631
30
0
41
1
10
67.303234027193
20
-3.29647155028812
30
0
41
1
10
67.3090355057256
20
-3.40052914584103
30
0
0
SPLINE
5
145
100
AcDbEntity
8
1
62
256
6
ByLayer
370
18
48
1
60
0
100
AcDbSpline
70
4
71
3
72
118
73
114
40
0
40
0
40
0
40
0
40
0.0624999999999924
40
0.0624999999999924
40
0.0937499999999891
40
0.0937499999999891
40
0.124999999999986
40
0.124999999999986
40
0.18749999999998
40
0.18749999999998
40
0.249999999999975
40
0.249999999999975
40
0.281249999999972
40
0.281249999999972
40
0.312499999999969
40
0.312499999999969
40
0.343749999999966
40
0.343749999999966
40
0.359374999999964
40
0.359374999999964
40
0.367187499999963
40
0.367187499999963
40
0.374999999999962
40
0.374999999999962
40
0.390624999999962
40
0.390624999999962
40
0.406249999999961
40
0.406249999999961
40
0.421874999999961
40
0.421874999999961
40
0.429687499999961
40
0.429687499999961
40
0.43749999999996
40
0.43749999999996
40
0.44140624999996
40
0.44140624999996
40
0.44531249999996
40
0.44531249999996
40
0.453124999999959
40
0.453124999999959
40
0.460937499999959
40
0.460937499999959
40
0.464843749999958
40
0.464843749999958
40
0.468749999999958
40
0.468749999999958
40
0.470703124999958
40
0.470703124999958
40
0.472656249999958
40
0.472656249999958
40
0.476562499999959
40
0.476562499999959
40
0.480468749999959
40
0.480468749999959
40
0.48437499999996
40
0.48437499999996
40
0.48632812499996
40
0.48632812499996
40
0.48828124999996
40
0.48828124999996
40
0.492187499999961
40
0.492187499999961
40
0.494140624999961
40
0.494140624999961
40
0.496093749999961
40
0.496093749999961
40
0.499999999999961
40
0.499999999999961
40
0.503906249999962
40
0.503906249999962
40
0.507812499999962
40
0.507812499999962
40
0.511718749999962
40
0.511718749999962
40
0.515624999999963
40
0.515624999999963
40
0.523437499999963
40
0.523437499999963
40
0.531249999999964
40
0.531249999999964
40
0.539062499999964
40
0.539062499999964
40
0.546874999999965
40
0.546874999999965
40
0.554687499999966
40
0.554687499999966
40
0.558593749999966
40
0.558593749999966
40
0.562499999999967
40
0.562499999999967
40
0.578124999999967
40
0.578124999999967
40
0.593749999999968
40
0.593749999999968
40
0.609374999999969
40
0.609374999999969
40
0.624999999999969
40
0.624999999999969
40
0.656249999999971
40
0.656249999999971
40
0.687499999999974
40
0.687499999999974
40
0.718749999999976
40
0.718749999999976
40
0.749999999999978
40
0.749999999999978
40
0.812499999999983
40
0.812499999999983
40
0.874999999999989
40
0.874999999999989
40
0.937499999999994
40
0.937499999999994
40
1
40
1
40
1
40
1
41
1
10
35.3759435912259
20
-3.82814670102044
30
0
41
1
10
34.5426651157164
20
-3.69742603444072
30
0
41
1
10
33.7107362456385
20
-3.5573091053522
30
0
41
1
10
32.4647022172495
20
-3.3321572235966
30
0
41
1
10
32.0496008063095
20
-3.25459368205873
30
0
41
1
10
31.2207012817687
20
-3.09441316286825
30
0
41
1
10
30.8068335115999
20
-3.01178480096749
30
0
41
1
10
29.5670081772089
20
-2.75597019805537
30
0
41
1
10
28.7428204468982
20
-2.57489258958381
30
0
41
1
10
27.0995013076868
20
-2.18925848719997
30
0
41
1
10
26.2803636903186
20
-1.98473499220097
30
0
41
1
10
25.0559404857955
20
-1.65736745309505
30
0
41
1
10
24.6485163550073
20
-1.544799520791
30
0
41
1
10
23.8352377464888
20
-1.31200652994275
30
0
41
1
10
23.429382532843
20
-1.19178532069469
30
0
41
1
10
22.6194316069826
20
-0.942644050639643
30
0
41
1
10
22.215334583621
20
-0.813730818483663
30
0
41
1
10
21.6107142966323
20
-0.612730560605598
30
0
41
1
10
21.4094291810892
20
-0.54445476335772
30
0
41
1
10
21.1079190022852
20
-0.439941106223159
30
0
41
1
10
21.0074722553934
20
-0.404800866340025
30
0
41
1
10
20.8068063757524
20
-0.333482894611421
30
0
41
1
10
20.7065866086734
20
-0.297307223760839
30
0
41
1
10
20.4063096592573
20
-0.187044780556619
30
0
41
1
10
20.2066305825542
20
-0.111241014265289
30
0
41
1
10
19.8085933435644
20
0.0462993263551255
30
0
41
1
10
19.6108072013496
20
0.127799263912777
30
0
41
1
10
19.2188126077207
20
0.297945915993239
30
0
41
1
10
19.0245490541101
20
0.386578924562144
30
0
41
1
10
18.7368490274899
20
0.527128027859391
30
0
41
1
10
18.6415704337868
20
0.57525574388967
30
0
41
1
10
18.4525474374874
20
0.674668698203561
30
0
41
1
10
18.3588006752996
20
0.725949064914943
30
0
41
1
10
18.219646549003
20
0.805888811475114
30
0
41
1
10
18.1735078517328
20
0.833042539956381
30
0
41
1
10
18.0821012024702
20
0.888320798152733
30
0
41
1
10
18.0367974466911
20
0.916466144484531
30
0
41
1
10
17.9022536947836
20
1.00263586192048
30
0
41
1
10
17.8143581104314
20
1.06236433576419
30
0
41
1
10
17.6434542696543
20
1.18802394059051
30
0
41
1
10
17.5604160410058
20
1.25391674458669
30
0
41
1
10
17.4412407529748
20
1.35959650486765
30
0
41
1
10
17.4023687806896
20
1.3960424561067
30
0
41
1
10
17.3277165691541
20
1.47107416461867
30
0
41
1
10
17.2918462885567
20
1.50972648567256
30
0
41
1
10
17.240815170235
20
1.56987471321707
30
0
41
1
10
17.2242694948117
20
1.59028757502239
30
0
41
1
10
17.1922444607546
20
1.63194815257424
30
0
41
1
10
17.1767501057192
20
1.6532241304264
30
0
41
1
10
17.132571025337
20
1.71782159093973
30
0
41
1
10
17.1060146547026
20
1.76208975765596
30
0
41
1
10
17.0603113489293
20
1.85371847563576
30
0
41
1
10
17.0411918515765
20
1.90109237017924
30
0
41
1
10
17.0125909803185
20
1.99986887202698
30
0
41
1
10
17.0036567499096
20
2.04961498422043
30
0
41
1
10
16.9993225887871
20
2.12467359508145
30
0
41
1
10
16.9993885885381
20
2.14977576248259
30
0
41
1
10
17.00273466321
20
2.20015928118457
30
0
41
1
10
17.0059887883351
20
2.22498825277728
30
0
41
1
10
17.0202130659171
20
2.29818111577274
30
0
41
1
10
17.0356451476542
20
2.34537661642924
30
0
41
1
10
17.0668293673853
20
2.41402910719685
30
0
41
1
10
17.0784210589183
20
2.4362357552769
30
0
41
1
10
17.103589333766
20
2.47928702117682
30
0
41
1
10
17.1171821812907
20
2.50016559753041
30
0
41
1
10
17.1606161051041
20
2.56110242741548
30
0
41
1
10
17.1930961958745
20
2.59947248490772
30
0
41
1
10
17.2636606081807
20
2.67264683270378
30
0
41
1
10
17.301121705915
20
2.70682409756168
30
0
41
1
10
17.3791753557833
20
2.7713995775334
30
0
41
1
10
17.4198044502077
20
2.80182311393662
30
0
41
1
10
17.50357104618
20
2.85976554878326
30
0
41
1
10
17.5467129518516
20
2.88727925427813
30
0
41
1
10
17.6350509424069
20
2.93994051370956
30
0
41
1
10
17.6803613781356
20
2.9651398971356
30
0
41
1
10
17.8175977747931
20
3.03710915622642
30
0
41
1
10
17.9110818552975
20
3.0804954894538
30
0
41
1
10
18.1008255663024
20
3.16094955842283
30
0
41
1
10
18.1971029211094
20
3.19797641085509
30
0
41
1
10
18.3917945731239
20
3.26723002643485
30
0
41
1
10
18.4902139131183
20
3.29944474221477
30
0
41
1
10
18.6887678979523
20
3.36007265023247
30
0
41
1
10
18.7889062044009
20
3.38847759675141
30
0
41
1
10
18.9906117302563
20
3.44216490686858
30
0
41
1
10
19.0921794780465
20
3.46744572328086
30
0
41
1
10
19.2454421639307
20
3.50340302603453
30
0
41
1
10
19.296712202866
20
3.5150665999594
30
0
41
1
10
19.3992921472713
20
3.5377345616138
30
0
41
1
10
19.4506225173749
20
3.54874414937689
30
0
41
1
10
19.7074610884114
20
3.60230418192137
30
0
41
1
10
19.9135236644786
20
3.64044207516017
30
0
41
1
10
20.3265666672699
20
3.70964513355369
30
0
41
1
10
20.533548536448
20
3.74069589929655
30
0
41
1
10
20.9482750563389
20
3.79710111243978
30
0
41
1
10
21.1560210328286
20
3.82244459050207
30
0
41
1
10
21.5721680876981
20
3.86838222722744
30
0
41
1
10
21.7805703120639
20
3.8889675391265
30
0
41
1
10
22.4066474960967
20
3.9445831498814
30
0
41
1
10
22.82518747242
20
3.97352493758828
30
0
41
1
10
23.664160875415
20
4.01866512719349
30
0
41
1
10
24.0845920941258
20
4.03486937313843
30
0
41
1
10
24.9271368460456
20
4.05626555959199
30
0
41
1
10
25.3492508084681
20
4.06145160569349
30
0
41
1
10
26.1950103477676
20
4.06189363219326
30
0
41
1
10
26.6172149424838
20
4.05716091493326
30
0
41
1
10
27.8815262871122
20
4.02936531887551
30
0
41
1
10
28.7215546729893
20
3.99278724089089
30
0
41
1
10
30.396710311658
20
3.886436727871
30
0
41
1
10
31.2318473277763
20
3.81669418349034
30
0
41
1
10
32.8980512613316
20
3.64606275810581
30
0
41
1
10
33.7291004947387
20
3.54502996436818
30
0
41
1
10
35.3879490232275
20
3.31359005654704
30
0
41
1
10
36.215755587516
20
3.18320704186633
30
0
41
1
10
37.0424485256351
20
3.04001312675913
30
0
0
SPLINE
5
146
100
AcDbEntity
8
1
62
256
6
ByLayer
370
13
48
1
60
0
100
AcDbSpline
70
4
71
3
72
12
73
8
40
0
40
0
40
0
40
0
40
0.11134356991535
40
0.374125714657655
40
0.63690785939996
40
0.899690004142264
40
1
40
1
40
1
40
1
41
1
10
65.4515883515075
20
-3.09559284513486
30
0
41
1
10
65.4416555924764
20
-2.90110572057915
30
0
41
1
10
65.4082805124569
20
-2.23244687684161
30
0
41
1
10
65.351463116511
20
-1.02366324810242
30
0
41
1
10
65.2811361518071
20
0.522315975686951
30
0
41
1
10
65.2253030406923
20
1.72951353547731
30
0
41
1
10
65.1929122482231
20
2.39824550267377
30
0
41
1
10
65.1839637750468
20
2.57994064518192
30
0
0
SPLINE
5
147
100
AcDbEntity
8
1
62
256
6
ByLayer
370
18
48
1
60
0
100
AcDbSpline
70
4
71
3
72
29
73
25
40
0
40
0
40
0
40
0
40
0.125
40
0.125
40
0.25
40
0.25
40
0.375
40
0.375
40
0.40625
40
0.40625
40
0.437500000000001
40
0.500000000000001
40
0.500000000000001
40
0.625000000000001
40
0.625000000000001
40
0.750000000000002
40
0.750000000000002
40
0.781250000000001
40
0.781250000000001
40
0.812500000000001
40
0.812500000000001
40
0.875000000000001
40
0.875000000000001
40
1
40
1
40
1
40
1
41
1
10
65.3588388931452
20
2.66750470955978
30
0
41
1
10
65.3701793751755
20
2.42619142503133
30
0
41
1
10
65.3813818862285
20
2.18184084315348
30
0
41
1
10
65.4038874680898
20
1.68734268800824
30
0
41
1
10
65.4151666412443
20
1.43719451866804
30
0
41
1
10
65.4378652581496
20
0.931110740663343
30
0
41
1
10
65.4492879347913
20
0.675175851798485
30
0
41
1
10
65.463701028816
20
0.351480406879858
30
0
41
1
10
65.4665905701316
20
0.286521375239374
30
0
41
1
10
65.4723421249415
20
0.157011258283319
30
0
41
1
10
65.4809421637212
20
-0.036932179836981
30
0
41
1
10
65.4894378935794
20
-0.229917862356757
30
0
41
1
10
65.5063599056844
20
-0.614639539371268
30
0
41
1
10
65.5175525352168
20
-0.869459251959569
30
0
41
1
10
65.5400823213002
20
-1.37580217147664
30
0
41
1
10
65.5514069018325
20
-1.62732663789561
30
0
41
1
10
65.5656092638382
20
-1.93960476622126
30
0
41
1
10
65.5684518947302
20
-2.00195359467082
30
0
41
1
10
65.5741475748614
20
-2.12643548822839
30
0
41
1
10
65.5769954426051
20
-2.18845468721875
30
0
41
1
10
65.5855260336585
20
-2.37337227342658
30
0
41
1
10
65.5912049386504
20
-2.49532953168591
30
0
41
1
10
65.6082848702071
20
-2.85727670876733
30
0
41
1
10
65.6197274514143
20
-3.0933583503579
30
0
41
1
10
65.6312256757707
20
-3.32416014895014
30
0
0
SPLINE
5
148
100
AcDbEntity
8
1
62
256
6
ByLayer
370
18
48
1
60
0
100
AcDbSpline
70
4
71
3
72
33
73
29
40
0
40
0
40
0
40
0
40
0.0625000000000007
40
0.0625000000000007
40
0.0937500000000009
40
0.0937500000000009
40
0.125000000000001
40
0.125000000000001
40
0.250000000000002
40
0.250000000000002
40
0.375000000000002
40
0.375000000000002
40
0.437500000000002
40
0.437500000000002
40
0.468750000000002
40
0.468750000000002
40
0.500000000000002
40
0.500000000000002
40
0.625000000000002
40
0.625000000000002
40
0.750000000000001
40
0.750000000000001
40
0.875
40
0.875
40
0.90625
40
0.90625
40
0.9375
40
1
40
1
40
1
40
1
41
1
10
67.00612502092
20
-3.39023941777879
30
0
41
1
10
67.0006691002197
20
-3.28416614988242
30
0
41
1
10
66.9952104847496
20
-3.17656382208944
30
0
41
1
10
66.9869821695778
20
-3.01288216796064
30
0
41
1
10
66.9842357254391
20
-2.95798233068902
30
0
41
1
10
66.9787490048215
20
-2.84782167641779
30
0
41
1
10
66.9760064849599
20
-2.79251626247472
30
0
41
1
10
66.9622939483568
20
-2.51487678809659
30
0
41
1
10
66.9513206217318
20
-2.28921879122854
30
0
41
1
10
66.929323265804
20
-1.83092363035612
30
0
41
1
10
66.9183189532045
20
-1.59826794510184
30
0
41
1
10
66.9017725699963
20
-1.24397598253026
30
0
41
1
10
66.8962447054116
20
-1.12499470071916
30
0
41
1
10
66.8879188225615
20
-0.945175664182386
30
0
41
1
10
66.8851378976049
20
-0.885011288019342
30
0
41
1
10
66.8795628040706
20
-0.764227373323536
30
0
41
1
10
66.8767731931191
20
-0.703706411049239
30
0
41
1
10
66.8628683212492
20
-0.401692628315658
30
0
41
1
10
66.8517780500181
20
-0.160801460110349
30
0
41
1
10
66.8300918144957
20
0.319574618593663
30
0
41
1
10
66.819475787983
20
0.559061239569246
30
0
41
1
10
66.7980733499501
20
1.03662830159237
30
0
41
1
10
66.7872396721851
20
1.27470746317275
30
0
41
1
10
66.7733465007992
20
1.57139215820769
30
0
41
1
10
66.7705568168572
20
1.63060675498181
30
0
41
1
10
66.7649702147458
20
1.74851351121927
30
0
41
1
10
66.7565735566914
20
1.9247159310797
30
0
41
1
10
66.7481349865298
20
2.09894678034107
30
0
41
1
10
66.7424981170384
20
2.21421656060534
30
0
0
SPLINE
5
149
100
AcDbEntity
8
1
62
256
6
ByLayer
370
18
48
1
60
0
100
AcDbSpline
70
4
71
3
72
8
73
4
40
0
40
0
40
0
40
0
40
1
40
1
40
1
40
1
41
1
10
66.7424981170384
20
2.21421656060531
30
0
41
1
10
66.2804362671482
20
2.36049453560378
30
0
41
1
10
65.8192660004051
20
2.51167806869384
30
0
41
1
10
65.3588388931452
20
2.66750470955981
30
0
0
SPLINE
5
14A
100
AcDbEntity
8
1
62
256
6
ByLayer
370
18
48
1
60
0
100
AcDbSpline
70
4
71
3
72
23
73
19
40
0
40
0
40
0
40
0
40
0.124999999999911
40
0.124999999999911
40
0.187499999999867
40
0.187499999999867
40
0.249999999999823
40
0.249999999999823
40
0.499999999999769
40
0.499999999999769
40
0.562499999999756
40
0.562499999999756
40
0.624999999999742
40
0.749999999999828
40
0.749999999999828
40
0.874999999999914
40
0.874999999999914
40
1
40
1
40
1
40
1
41
1
10
67.037362507934
20
2.12157575073357
30
0
41
1
10
67.0245500811525
20
2.12302919435436
30
0
41
1
10
67.0115623728063
20
2.12483538269694
30
0
41
1
10
66.9918225961223
20
2.1280695635069
30
0
41
1
10
66.985199485807
20
2.12923542371553
30
0
41
1
10
66.9718658819659
20
2.13174589502444
30
0
41
1
10
66.9651322087756
20
2.13309574053662
30
0
41
1
10
66.9316638612727
20
2.1402132441761
30
0
41
1
10
66.9053492252858
20
2.14708740946568
30
0
41
1
10
66.8730342608608
20
2.15717657246333
30
0
41
1
10
66.8665771498691
20
2.15927876972364
30
0
41
1
10
66.8538733070147
20
2.16358972635624
30
0
41
1
10
66.835121238195
20
2.17021790211194
30
0
41
1
10
66.8172586582532
20
2.17732319118869
30
0
41
1
10
66.7942355513891
20
2.18722807677395
30
0
41
1
10
66.7830757665542
20
2.19241883284252
30
0
41
1
10
66.7617955390604
20
2.20316263938119
30
0
41
1
10
66.7518213183444
20
2.20863810259067
30
0
41
1
10
66.7424981170384
20
2.21421656060528
30
0
0
SPLINE
5
14B
100
AcDbEntity
8
1
62
256
6
ByLayer
370
18
48
1
60
0
100
AcDbSpline
70
4
71
3
72
8
73
4
40
0
40
0
40
0
40
0
40
1
40
1
40
1
40
1
41
1
10
67.3999999132927
20
2.00959256786419
30
0
41
1
10
67.2790561915701
20
2.04657901414763
30
0
41
1
10
67.1581778944435
20
2.08390818221449
30
0
41
1
10
67.037362507934
20
2.12157575073357
30
0
0
SPLINE
5
14C
100
AcDbEntity
8
1
62
256
6
ByLayer
370
18
48
1
60
0
100
AcDbSpline
70
4
71
3
72
8
73
4
40
0
40
0
40
0
40
0
40
1
40
1
40
1
40
1
41
1
10
68
20
1.69105691125589
30
0
41
1
10
67.799558952036
20
1.79189048293284
30
0
41
1
10
67.599553165096
20
1.89812395795138
30
0
41
1
10
67.3999999132928
20
2.00959256786419
30
0
0
SPLINE
5
14D
100
AcDbEntity
8
1
62
256
6
ByLayer
370
18
48
1
60
0
100
AcDbSpline
70
4
71
3
72
16
73
12
40
0
40
0
40
0
40
0
40
0.250000000000001
40
0.250000000000001
40
0.500000000000002
40
0.500000000000002
40
0.625000000000002
40
0.625000000000002
40
0.750000000000003
40
0.750000000000003
40
1
40
1
40
1
40
1
41
1
10
45.6137821675453
20
5.02976619523196
30
0
41
1
10
44.7603028501847
20
5.11620437480019
30
0
41
1
10
43.9070379567042
20
5.19616994209932
30
0
41
1
10
42.2005947543453
20
5.34252150726584
30
0
41
1
10
41.3474517363491
20
5.40900854420414
30
0
41
1
10
40.0678471422425
20
5.49870223391417
30
0
41
1
10
39.6413295322328
20
5.52692267415611
30
0
41
1
10
38.7883138500739
20
5.57996328588857
30
0
41
1
10
38.3618189186078
20
5.6047870804918
30
0
41
1
10
37.0822892174937
20
5.67401200257655
30
0
41
1
10
36.2291957536202
20
5.71313412542557
30
0
41
1
10
35.3758083209895
20
5.74499078093385
30
0
0
SPLINE
5
14E
100
AcDbEntity
8
1
62
256
6
ByLayer
370
18
48
1
60
0
100
AcDbSpline
70
4
71
3
72
26
73
22
40
0
40
0
40
0
40
0
40
0.125000000000014
40
0.125000000000014
40
0.250000000000027
40
0.250000000000027
40
0.312500000000024
40
0.312500000000024
40
0.37500000000002
40
0.37500000000002
40
0.500000000000013
40
0.625000000000005
40
0.625000000000005
40
0.656250000000016
40
0.656250000000016
40
0.687500000000027
40
0.750000000000021
40
0.750000000000021
40
0.875000000000011
40
0.875000000000011
40
1
40
1
40
1
40
1
41
1
10
46.8262177328435
20
5.50906350522536
30
0
41
1
10
46.795059201781
20
5.46575751807521
30
0
41
1
10
46.7607064844665
20
5.42520954547112
30
0
41
1
10
46.6859120951795
20
5.34929230443342
30
0
41
1
10
46.645469169832
20
5.31392436609812
30
0
41
1
10
46.5802173243186
20
5.26473186854147
30
0
41
1
10
46.5576997406868
20
5.24897981429069
30
0
41
1
10
46.5110974383653
20
5.21878971110192
30
0
41
1
10
46.4871702091772
20
5.20445850026721
30
0
41
1
10
46.4140017671081
20
5.16396081187995
30
0
41
1
10
46.3123886113077
20
5.11635610109127
30
0
41
1
10
46.2028706963398
20
5.08120382642878
30
0
41
1
10
46.1318925235657
20
5.06323841279598
30
0
41
1
10
46.1175587952546
20
5.05984490780565
30
0
41
1
10
46.08885186002
20
5.05351091394198
30
0
41
1
10
46.0456552613389
20
5.04466902602309
30
0
41
1
10
46.0020581294504
20
5.03777257723021
30
0
41
1
10
45.9143449160582
20
5.0265230313772
30
0
41
1
10
45.8551793941778
20
5.02240386292462
30
0
41
1
10
45.7354997559048
20
5.02092670982844
30
0
41
1
10
45.6749857312268
20
5.02356765647406
30
0
41
1
10
45.6137821675453
20
5.02976619523196
30
0
0
SPLINE
5
14F
100
AcDbEntity
8
1
62
256
6
ByLayer
370
18
48
1
60
0
100
AcDbSpline
70
4
71
3
72
12
73
8
40
0
40
0
40
0
40
0
40
0.249999999999997
40
0.249999999999997
40
0.499999999999994
40
0.499999999999994
40
1
40
1
40
1
40
1
41
1
10
47.7113248654052
20
6.73306041858652
30
0
41
1
10
47.6375734533677
20
6.63179634329478
30
0
41
1
10
47.563812288572
20
6.53017072843451
30
0
41
1
10
47.4162865700428
20
6.3265792753042
30
0
41
1
10
47.3425234198878
20
6.22464003269749
30
0
41
1
10
47.1212421203901
20
5.9185615708208
30
0
41
1
10
46.9737283729961
20
5.71408260173385
30
0
41
1
10
46.8262177328435
20
5.50906350522536
30
0
0
SPLINE
5
150
100
AcDbEntity
8
1
62
256
6
ByLayer
370
18
48
1
60
0
100
AcDbSpline
70
4
71
3
72
32
73
28
40
0
40
0
40
0
40
0
40
0.124999999999966
40
0.124999999999966
40
0.187499999999973
40
0.187499999999973
40
0.24999999999998
40
0.24999999999998
40
0.312499999999988
40
0.312499999999988
40
0.374999999999996
40
0.437500000000003
40
0.437500000000003
40
0.500000000000011
40
0.500000000000011
40
0.624999999999961
40
0.624999999999961
40
0.687499999999967
40
0.687499999999967
40
0.749999999999974
40
0.749999999999974
40
0.81249999999998
40
0.81249999999998
40
0.874999999999987
40
0.937499999999993
40
0.937499999999993
40
1
40
1
40
1
40
1
41
1
10
49.0091985565734
20
5.57370730230872
30
0
41
1
10
48.9960787597254
20
5.55659907368792
30
0
41
1
10
48.980267758258
20
5.54183303871062
30
0
41
1
10
48.9527256473623
20
5.52299368590735
30
0
41
1
10
48.9428336791743
20
5.51725168156284
30
0
41
1
10
48.9223035183061
20
5.50720693636546
30
0
41
1
10
48.9116171967284
20
5.50286054648944
30
0
41
1
10
48.8894258939335
20
5.49548145201527
30
0
41
1
10
48.8779168963437
20
5.4924479908949
30
0
41
1
10
48.8540773073264
20
5.48773005362438
30
0
41
1
10
48.829908055368
20
5.48445678231968
30
0
41
1
10
48.8051136953909
20
5.4839330671245
30
0
41
1
10
48.7800078401899
20
5.48478673418705
30
0
41
1
10
48.7672199486314
20
5.48591893500151
30
0
41
1
10
48.7293111585084
20
5.49132524331111
30
0
41
1
10
48.7044448188045
20
5.4975485788878
30
0
41
1
10
48.6677667626376
20
5.5108539305335
30
0
41
1
10
48.6557182095841
20
5.5159427907509
30
0
41
1
10
48.6324766063994
20
5.52719190679255
30
0
41
1
10
48.6212071158885
20
5.53337869736802
30
0
41
1
10
48.599374008611
20
5.54688289757843
30
0
41
1
10
48.5887837192294
20
5.55422077602961
30
0
41
1
10
48.5684603704799
20
5.57000380909437
30
0
41
1
10
48.5493243453261
20
5.58662872493747
30
0
41
1
10
48.5325028471464
20
5.6048973190868
30
0
41
1
10
48.5168679177079
20
5.62400926786421
30
0
41
1
10
48.509616355723
20
5.63403408441101
30
0
41
1
10
48.5030934370148
20
5.64436565988961
30
0
0
SPLINE
5
151
100
AcDbEntity
8
1
62
256
6
ByLayer
370
18
48
1
60
0
100
AcDbSpline
70
4
71
3
72
33
73
29
40
0
40
0
40
0
40
0
40
0.125000000000074
40
0.125000000000074
40
0.18750000000011
40
0.18750000000011
40
0.250000000000146
40
0.250000000000146
40
0.312500000000183
40
0.312500000000183
40
0.375000000000218
40
0.437500000000255
40
0.437500000000255
40
0.50000000000029
40
0.50000000000029
40
0.625000000000363
40
0.625000000000363
40
0.656250000000333
40
0.656250000000333
40
0.687500000000304
40
0.750000000000243
40
0.750000000000243
40
0.812500000000182
40
0.812500000000182
40
0.875000000000122
40
0.937500000000061
40
0.937500000000061
40
1
40
1
40
1
40
1
41
1
10
51.0309788106021
20
5.27580026809335
30
0
41
1
10
51.0178609182285
20
5.25976769593873
30
0
41
1
10
51.0020535457263
20
5.24601467776273
30
0
41
1
10
50.9745197488109
20
5.22860383575736
30
0
41
1
10
50.9646307399868
20
5.22332466623052
30
0
41
1
10
50.9441059968835
20
5.21414845826695
30
0
41
1
10
50.9334225892474
20
5.21021100255939
30
0
41
1
10
50.9112375216662
20
5.20360047179926
30
0
41
1
10
50.8997335919466
20
5.20092704654149
30
0
41
1
10
50.8758975274388
20
5.19687707691025
30
0
41
1
10
50.8517318285568
20
5.19420753239893
30
0
41
1
10
50.8269410716582
20
5.19416569485051
30
0
41
1
10
50.8018388456975
20
5.19544052010789
30
0
41
1
10
50.7890518726119
20
5.19675361721158
30
0
41
1
10
50.7511406215312
20
5.20259945438417
30
0
41
1
10
50.7262730629631
20
5.20898377413724
30
0
41
1
10
50.6957069284577
20
5.22010825616582
30
0
41
1
10
50.6896082901311
20
5.22249885732171
30
0
41
1
10
50.6776290029925
20
5.22753734217326
30
0
41
1
10
50.6599295983437
20
5.23550077687611
30
0
41
1
10
50.6430218881291
20
5.24465679747377
30
0
41
1
10
50.6211849058497
20
5.25793069311237
30
0
41
1
10
50.6105949885041
20
5.26511908824835
30
0
41
1
10
50.5902644396721
20
5.28054370408108
30
0
41
1
10
50.5711229295901
20
5.29675043989113
30
0
41
1
10
50.5542986762084
20
5.31448448320376
30
0
41
1
10
50.5386621114501
20
5.33300219698131
30
0
41
1
10
50.5314102142038
20
5.3426984140236
30
0
41
1
10
50.5248868722794
20
5.3526753195614
30
0
0
SPLINE
5
152
100
AcDbEntity
8
1
62
256
6
ByLayer
370
18
48
1
60
0
100
AcDbSpline
70
4
71
3
72
32
73
28
40
0
40
0
40
0
40
0
40
0.125000000000013
40
0.125000000000013
40
0.187500000000041
40
0.187500000000041
40
0.25000000000007
40
0.312500000000098
40
0.312500000000098
40
0.375000000000126
40
0.437500000000154
40
0.437500000000154
40
0.500000000000183
40
0.500000000000183
40
0.625000000000304
40
0.625000000000304
40
0.656250000000304
40
0.656250000000304
40
0.687500000000304
40
0.750000000000243
40
0.750000000000243
40
0.812500000000183
40
0.812500000000183
40
0.875000000000122
40
0.937500000000061
40
0.937500000000061
40
1
40
1
40
1
40
1
41
1
10
53.0527953883862
20
4.95258326413705
30
0
41
1
10
53.0396753242509
20
4.93771890558909
30
0
41
1
10
53.0238669565192
20
4.92506492586924
30
0
41
1
10
52.9963351343009
20
4.90920107847231
30
0
41
1
10
52.9864471336058
20
4.9044227168952
30
0
41
1
10
52.9659244629013
20
4.8961852270703
30
0
41
1
10
52.9445613557497
20
4.88919306549101
30
0
41
1
10
52.9215610805081
20
4.88462002767946
30
0
41
1
10
52.8977278426423
20
4.88128664716766
30
0
41
1
10
52.8735652988122
20
4.87926259527993
30
0
41
1
10
52.848778357477
20
4.87973127295228
30
0
41
1
10
52.8236803058109
20
4.88144927349094
30
0
41
1
10
52.8108948174122
20
4.88295097995714
30
0
41
1
10
52.7729826414671
20
4.88924894443409
30
0
41
1
10
52.7481147972768
20
4.89578895599524
30
0
41
1
10
52.7175487260743
20
4.90692643044562
30
0
41
1
10
52.7114489356283
20
4.9093107580438
30
0
41
1
10
52.699466245435
20
4.91431903799696
30
0
41
1
10
52.6817620339686
20
4.92220991979138
30
0
41
1
10
52.6648503407824
20
4.93121357334769
30
0
41
1
10
52.6430086987666
20
4.94421342384385
30
0
41
1
10
52.6324197460237
20
4.95122663081744
30
0
41
1
10
52.6120786314542
20
4.96623826285133
30
0
41
1
10
52.5929285012727
20
4.981967195415
30
0
41
1
10
52.5760988366178
20
4.99909730053864
30
0
41
1
10
52.5604582117992
20
5.01694642902692
30
0
41
1
10
52.5532048271141
20
5.02627418887644
30
0
41
1
10
52.5466794976334
20
5.03585543380322
30
0
0
SPLINE
5
153
100
AcDbEntity
8
1
62
256
6
ByLayer
370
18
48
1
60
0
100
AcDbSpline
70
4
71
3
72
32
73
28
40
0
40
0
40
0
40
0
40
0.125000000000034
40
0.125000000000034
40
0.187500000000053
40
0.187500000000053
40
0.250000000000071
40
0.31250000000009
40
0.31250000000009
40
0.375000000000109
40
0.437500000000128
40
0.437500000000128
40
0.500000000000147
40
0.500000000000147
40
0.625000000000185
40
0.625000000000185
40
0.656250000000194
40
0.656250000000194
40
0.687500000000204
40
0.750000000000163
40
0.750000000000163
40
0.812500000000122
40
0.812500000000122
40
0.875000000000082
40
0.937500000000041
40
0.937500000000041
40
1
40
1
40
1
40
1
41
1
10
55.0747306735138
20
4.60415026556632
30
0
41
1
10
55.0616090191439
20
4.5905247844691
30
0
41
1
10
55.0457997565518
20
4.57902758355183
30
0
41
1
10
55.0182686065372
20
4.56478121970795
30
0
41
1
10
55.0083810052471
20
4.56052457804458
30
0
41
1
10
54.9878591110257
20
4.55326154980034
30
0
41
1
10
54.9664964673414
20
4.54718177031947
30
0
41
1
10
54.9435002050811
20
4.54340108501739
30
0
41
1
10
54.9196684741385
20
4.54079806818595
30
0
41
1
10
54.8955068920361
20
4.539427706526
30
0
41
1
10
54.8707223031427
20
4.5404038524301
30
0
41
1
10
54.8456267032529
20
4.54255685389722
30
0
41
1
10
54.8328421494286
20
4.54424033510881
30
0
41
1
10
54.794929479294
20
4.5509617171966
30
0
41
1
10
54.7700617768079
20
4.55762779594784
30
0
41
1
10
54.7394963571012
20
4.5687277047937
30
0
41
1
10
54.7333960279443
20
4.57109474426167
30
0
41
1
10
54.7214114972521
20
4.57604943223078
30
0
41
1
10
54.7037047108916
20
4.58383084527745
30
0
41
1
10
54.686790939
20
4.59263980205276
30
0
41
1
10
54.6649468866936
20
4.60530428593924
30
0
41
1
10
54.654358822404
20
4.61211003316177
30
0
41
1
10
54.6340114606972
20
4.62663518942483
30
0
41
1
10
54.614856239823
20
4.64180908916887
30
0
41
1
10
54.5980233259574
20
4.65825069707802
30
0
41
1
10
54.5823802566713
20
4.67534291142445
30
0
41
1
10
54.5751259689561
20
4.68425593220772
30
0
41
1
10
54.5685993939684
20
4.69339301901951
30
0
0
SPLINE
5
154
100
AcDbEntity
8
1
62
256
6
ByLayer
370
18
48
1
60
0
100
AcDbSpline
70
4
71
3
72
33
73
29
40
0
40
0
40
0
40
0
40
0.124999999999986
40
0.124999999999986
40
0.187499999999982
40
0.187499999999982
40
0.249999999999977
40
0.312499999999972
40
0.312499999999972
40
0.374999999999968
40
0.374999999999968
40
0.437499999999963
40
0.437499999999963
40
0.499999999999958
40
0.499999999999958
40
0.625000000000014
40
0.625000000000014
40
0.656250000000012
40
0.656250000000012
40
0.687500000000011
40
0.750000000000009
40
0.750000000000009
40
0.812500000000007
40
0.812500000000007
40
0.875000000000004
40
0.937500000000002
40
0.937500000000002
40
1
40
1
40
1
40
1
41
1
10
57.0965736570468
20
4.23550855217721
30
0
41
1
10
57.0834555419785
20
4.22317370166604
30
0
41
1
10
57.0676516825241
20
4.2128697542301
30
0
41
1
10
57.0401309876615
20
4.20027392888611
30
0
41
1
10
57.0302469761353
20
4.19654628730589
30
0
41
1
10
57.009731505201
20
4.19026450050765
30
0
41
1
10
56.9883754622938
20
4.18509649618693
30
0
41
1
10
56.9653860382879
20
4.18209260337184
30
0
41
1
10
56.941561224968
20
4.18019739532355
30
0
41
1
10
56.9294802546382
20
4.17982401888045
30
0
41
1
10
56.9050103834893
20
4.1801713640339
30
0
41
1
10
56.892619432097
20
4.18089217014176
30
0
41
1
10
56.8675266458122
20
4.18343128407628
30
0
41
1
10
56.8547426436158
20
4.1852687248375
30
0
41
1
10
56.8168266050617
20
4.19232283349552
30
0
41
1
10
56.7919571770818
20
4.19904423018954
30
0
41
1
10
56.7613901341695
20
4.21000533403208
30
0
41
1
10
56.7552887702751
20
4.21233414757523
30
0
41
1
10
56.7433014181944
20
4.2171926113104
30
0
41
1
10
56.7255907829043
20
4.22479924094847
30
0
41
1
10
56.7086742060225
20
4.23334417113222
30
0
41
1
10
56.6868272165413
20
4.24557727686854
30
0
41
1
10
56.6762394097279
20
4.25212618710589
30
0
41
1
10
56.655887569565
20
4.26606051466052
30
0
41
1
10
56.6367293191583
20
4.28057338696871
30
0
41
1
10
56.6198956554073
20
4.29621739961533
30
0
41
1
10
56.6042527104186
20
4.31244204915208
30
0
41
1
10
56.5969989157258
20
4.32088397237206
30
0
41
1
10
56.5904729471147
20
4.32951955883385
30
0
0
SPLINE
5
155
100
AcDbEntity
8
1
62
256
6
ByLayer
370
18
48
1
60
0
100
AcDbSpline
70
4
71
3
72
33
73
29
40
0
40
0
40
0
40
0
40
0.125000000000107
40
0.125000000000107
40
0.187500000000161
40
0.187500000000161
40
0.250000000000215
40
0.312500000000269
40
0.312500000000269
40
0.375000000000322
40
0.375000000000322
40
0.437500000000376
40
0.437500000000376
40
0.50000000000043
40
0.50000000000043
40
0.625000000000537
40
0.625000000000537
40
0.656250000000517
40
0.656250000000517
40
0.687500000000498
40
0.750000000000398
40
0.750000000000398
40
0.812500000000299
40
0.812500000000299
40
0.875000000000199
40
0.937500000000099
40
0.937500000000099
40
1
40
1
40
1
40
1
41
1
10
59.1183658365665
20
3.84789453907726
30
0
41
1
10
59.1052482491537
20
3.83691569683467
30
0
41
1
10
59.0894462110681
20
3.82786460408582
30
0
41
1
10
59.0619307060652
20
3.81699999314344
30
0
41
1
10
59.052048620685
20
3.81382696501046
30
0
41
1
10
59.0315367001716
20
3.80857331338376
30
0
41
1
10
59.0101846318832
20
3.80435985335308
30
0
41
1
10
58.987200065833
20
3.8021673465814
30
0
41
1
10
58.9633806064445
20
3.80101025175551
30
0
41
1
10
58.9512996216998
20
3.80096155639617
30
0
41
1
10
58.9268325382533
20
3.80187409347261
30
0
41
1
10
58.9144430292131
20
3.80283538594483
30
0
41
1
10
58.8893532295638
20
3.80577141923513
30
0
41
1
10
58.8765701658924
20
3.80776574061676
30
0
41
1
10
58.838652335672
20
3.8151534501188
30
0
41
1
10
58.8137820609966
20
3.82192059018052
30
0
41
1
10
58.7832143227089
20
3.83271814869306
30
0
41
1
10
58.7771121037346
20
3.83500311022087
30
0
41
1
10
58.7651220659557
20
3.83975298996506
30
0
41
1
10
58.7474076860111
20
3.84716453858536
30
0
41
1
10
58.7304881416082
20
3.85542001340235
30
0
41
1
10
58.7086377999425
20
3.86718331203113
30
0
41
1
10
58.6980505536414
20
3.87345354675153
30
0
41
1
10
58.6776921019595
20
3.88675016618373
30
0
41
1
10
58.6585287128463
20
3.90055152131285
30
0
41
1
10
58.6416922823781
20
3.91534052560968
30
0
41
1
10
58.6260475541136
20
3.93063671446137
30
0
41
1
10
58.6187933155309
20
3.93857518675915
30
0
41
1
10
58.6122667365546
20
3.94667605663463
30
0
0
SPLINE
5
156
100
AcDbEntity
8
1
62
256
6
ByLayer
370
18
48
1
60
0
100
AcDbSpline
70
4
71
3
72
33
73
29
40
0
40
0
40
0
40
0
40
0.125000000000059
40
0.125000000000059
40
0.187500000000065
40
0.187500000000065
40
0.25000000000007
40
0.312500000000076
40
0.312500000000076
40
0.375000000000082
40
0.375000000000082
40
0.437500000000087
40
0.437500000000087
40
0.500000000000093
40
0.500000000000093
40
0.625000000000039
40
0.625000000000039
40
0.65625000000001
40
0.65625000000001
40
0.687499999999981
40
0.749999999999985
40
0.749999999999985
40
0.812499999999989
40
0.812499999999989
40
0.874999999999992
40
0.937499999999996
40
0.937499999999996
40
1
40
1
40
1
40
1
41
1
10
61.1401945629167
20
3.44155177970939
30
0
41
1
10
61.1270757625264
20
3.43199348968878
30
0
41
1
10
61.1112736432445
20
3.42425244347393
30
0
41
1
10
61.0837609462852
20
3.41519405267118
30
0
41
1
10
61.0738800785132
20
3.41259895376842
30
0
41
1
10
61.0533705048384
20
3.40841516050935
30
0
41
1
10
61.0320214251709
20
3.40519332106658
30
0
41
1
10
61.0090412712082
20
3.40384016686016
30
0
41
1
10
60.9852270627455
20
3.40344444648403
30
0
41
1
10
60.9731461119547
20
3.40372962462018
30
0
41
1
10
60.9486820378226
20
3.40522057981076
30
0
41
1
10
60.936294162284
20
3.40642648044585
30
0
41
1
10
60.9112079141451
20
3.40976267802716
30
0
41
1
10
60.8984261748494
20
3.41191297886837
30
0
41
1
10
60.860507123561
20
3.41962423603002
30
0
41
1
10
60.8356363786441
20
3.42642064416307
30
0
41
1
10
60.8050684581664
20
3.4370218019661
30
0
41
1
10
60.7989653867226
20
3.43925571926474
30
0
41
1
10
60.7869722849375
20
3.44388169161385
30
0
41
1
10
60.7692535866201
20
3.45107353737384
30
0
41
1
10
60.7523304873265
20
3.45901014445283
30
0
41
1
10
60.7304760026678
20
3.47026016621339
30
0
41
1
10
60.7198897201131
20
3.47622745254137
30
0
41
1
10
60.699522143694
20
3.48883502482676
30
0
41
1
10
60.6803513581038
20
3.50187021566453
30
0
41
1
10
60.6635103529485
20
3.5157431528487
30
0
41
1
10
60.6478622432089
20
3.53004655246409
30
0
41
1
10
60.6406068520973
20
3.53744759268309
30
0
41
1
10
60.6340786880361
20
3.54497888675829
30
0
0
SPLINE
5
157
100
AcDbEntity
8
1
62
256
6
ByLayer
370
18
48
1
60
0
100
AcDbSpline
70
4
71
3
72
33
73
29
40
0
40
0
40
0
40
0
40
0.124999999999968
40
0.124999999999968
40
0.187499999999975
40
0.187499999999975
40
0.249999999999983
40
0.31249999999999
40
0.31249999999999
40
0.374999999999998
40
0.374999999999998
40
0.437500000000005
40
0.437500000000005
40
0.500000000000013
40
0.500000000000013
40
0.625000000000028
40
0.625000000000028
40
0.65625
40
0.65625
40
0.687499999999972
40
0.749999999999978
40
0.749999999999978
40
0.812499999999983
40
0.812499999999983
40
0.874999999999989
40
0.937499999999994
40
0.937499999999994
40
1
40
1
40
1
40
1
41
1
10
63.1620923620706
20
3.01760776207402
30
0
41
1
10
63.1489727360412
20
3.00951934412623
30
0
41
1
10
63.1331709302119
20
3.00312734150492
30
0
41
1
10
63.1056614475538
20
2.99591994450367
30
0
41
1
10
63.0957818965625
20
2.99391544150404
30
0
41
1
10
63.0752747839015
20
2.99082172610616
30
0
41
1
10
63.0539287393626
20
2.98860675671224
30
0
41
1
10
63.0309528980692
20
2.98809875501033
30
0
41
1
10
63.0071437572239
20
2.98846546141436
30
0
41
1
10
62.995062700687
20
2.98908282048336
30
0
41
1
10
62.9706013961046
20
2.99114412337295
30
0
41
1
10
62.9582150365717
20
2.99258833932743
30
0
41
1
10
62.9331321119714
20
2.99630761452218
30
0
41
1
10
62.9203516204223
20
2.99860302083979
30
0
41
1
10
62.8824312376003
20
3.00659908559396
30
0
41
1
10
62.8575600846755
20
3.01339076624566
30
0
41
1
10
62.8269921793653
20
3.02374255724115
30
0
41
1
10
62.8208884024083
20
3.02591422302405
30
0
41
1
10
62.8088925122502
20
3.03039302648901
30
0
41
1
10
62.7911699169582
20
3.0373289727074
30
0
41
1
10
62.7742436972171
20
3.04490666181573
30
0
41
1
10
62.7523856424002
20
3.05558651908342
30
0
41
1
10
62.7418004393591
20
3.06122092582541
30
0
41
1
10
62.7214247807164
20
3.07307469229286
30
0
41
1
10
62.7022475366647
20
3.08527657883417
30
0
41
1
10
62.6854026178167
20
3.09816159842617
30
0
41
1
10
62.6697516904058
20
3.11139790315895
30
0
41
1
10
62.6624953928422
20
3.11822295192599
30
0
41
1
10
62.655965921962
20
3.12514497600063
30
0
0
SPLINE
5
158
100
AcDbEntity
8
1
62
256
6
ByLayer
370
18
48
1
60
0
100
AcDbSpline
70
4
71
3
72
33
73
29
40
0
40
0
40
0
40
0
40
0.124999999999953
40
0.124999999999953
40
0.18749999999993
40
0.18749999999993
40
0.249999999999907
40
0.312499999999883
40
0.312499999999883
40
0.37499999999986
40
0.37499999999986
40
0.437499999999837
40
0.437499999999837
40
0.499999999999813
40
0.499999999999813
40
0.624999999999767
40
0.624999999999767
40
0.656249999999786
40
0.656249999999786
40
0.687499999999806
40
0.749999999999845
40
0.749999999999845
40
0.812499999999884
40
0.812499999999884
40
0.874999999999922
40
0.937499999999961
40
0.937499999999961
40
1
40
1
40
1
40
1
41
1
10
65.1839637750468
20
2.57994064518192
30
0
41
1
10
65.1708461640737
20
2.57334764800578
30
0
41
1
10
65.1550478937903
20
2.56831905146635
30
0
41
1
10
65.1275459985932
20
2.56296892262875
30
0
41
1
10
65.1176691251869
20
2.56155450540453
30
0
41
1
10
65.0971668343508
20
2.55954487208106
30
0
41
1
10
65.0758258721238
20
2.55832582408357
30
0
41
1
10
65.0528557016816
20
2.55864241224819
30
0
41
1
10
65.0290524873498
20
2.55974615698088
30
0
41
1
10
65.016971395889
20
2.56068100785851
30
0
41
1
10
64.9925129864367
20
2.5632789854894
30
0
41
1
10
64.9801280844232
20
2.56494261627097
30
0
41
1
10
64.9550480957969
20
2.56900304034823
30
0
41
1
10
64.9422685241948
20
2.57142037298394
30
0
41
1
10
64.9043460317207
20
2.57962688883018
30
0
41
1
10
64.8794739786282
20
2.58635769850858
30
0
41
1
10
64.8489054601389
20
2.59638159363675
30
0
41
1
10
64.8428010314974
20
2.59847475732113
30
0
41
1
10
64.8308027373712
20
2.60277327069133
30
0
41
1
10
64.8130768564147
20
2.609402793622
30
0
41
1
10
64.7961482187185
20
2.6165685667647
30
0
41
1
10
64.7742875983098
20
2.62660539270004
30
0
41
1
10
64.7637030788674
20
2.6318700541091
30
0
41
1
10
64.743322575009
20
2.6428911367689
30
0
41
1
10
64.7241418154908
20
2.65418016232425
30
0
41
1
10
64.7072955240139
20
2.66599645800673
30
0
41
1
10
64.6916440459712
20
2.6780842772279
30
0
41
1
10
64.6843878865398
20
2.68429219154768
30
0
41
1
10
64.6778584977359
20
2.69056330745823
30
0
0
SPLINE
5
159
100
AcDbEntity
8
1
62
256
6
ByLayer
370
18
48
1
60
0
100
AcDbSpline
70
4
71
3
72
8
73
4
40
0
40
0
40
0
40
0
40
1
40
1
40
1
40
1
41
1
10
65.3588388931451
20
2.66750470955978
30
0
41
1
10
65.3005560623405
20
2.63842750282578
30
0
41
1
10
65.2422647486755
20
2.60924309631318
30
0
41
1
10
65.1839637750468
20
2.57994064518192
30
0
0
SPLINE
5
15A
100
AcDbEntity
8
1
62
256
6
ByLayer
370
13
48
1
60
0
100
AcDbSpline
70
4
71
3
72
12
73
8
40
0
40
0
40
0
40
0
40
0.0869501948036844
40
0.349818543790412
40
0.612686892777139
40
0.875555241763867
40
1
40
1
40
1
40
1
41
1
10
64.9453951241124
20
-2.98641255392809
30
0
41
1
10
64.9376410034978
20
-2.83329208462118
30
0
41
1
10
64.9064445791218
20
-2.20658089395789
30
0
41
1
10
64.8518057629705
20
-1.04515840570704
30
0
41
1
10
64.7814786581264
20
0.500546592433807
30
0
41
1
10
64.7234964661625
20
1.75511117686975
30
0
41
1
10
64.6889563452036
20
2.46679897078707
30
0
41
1
10
64.6778584977359
20
2.69056330745823
30
0
0
SPLINE
5
15B
100
AcDbEntity
8
1
62
256
6
ByLayer
370
18
48
1
60
0
100
AcDbSpline
70
4
71
3
72
8
73
4
40
0
40
0
40
0
40
0
40
1
40
1
40
1
40
1
41
1
10
64.6778584977359
20
2.69056330745823
30
0
41
1
10
64.5678232215761
20
2.79624608907494
30
0
41
1
10
64.4580001342747
20
2.90512962662697
30
0
41
1
10
64.3483467064426
20
3.01724182250453
30
0
0
SPLINE
5
15C
100
AcDbEntity
8
1
62
256
6
ByLayer
370
18
48
1
60
0
100
AcDbSpline
70
4
71
3
72
8
73
4
40
0
40
0
40
0
40
0
40
1
40
1
40
1
40
1
41
1
10
47.7113248654052
20
6.73306041858652
30
0
41
1
10
47.7551526508824
20
6.7263761183782
30
0
41
1
10
47.7989799351875
20
6.71967023956563
30
0
41
1
10
47.8428067896579
20
6.71294294652802
30
0
0
SPLINE
5
15D
100
AcDbEntity
8
1
62
256
6
ByLayer
370
13
48
1
60
0
100
AcDbSpline
70
4
71
3
72
11
73
7
40
0
40
0
40
0
40
0
40
0.0688790629182782
40
0.388529871578266
40
0.708180680238253
40
1
40
1
40
1
40
1
41
1
10
52.5466794976334
20
5.03585543380322
30
0
41
1
10
52.5527814980042
20
4.94379656749067
30
0
41
1
10
52.5872013810153
20
4.40886366506047
30
0
41
1
10
52.64993913706
20
3.28104356575548
30
0
41
1
10
52.7324273139289
20
1.57255385058514
30
0
41
1
10
52.7865975013821
20
0.384924840262357
30
0
41
1
10
52.8124498186284
20
-0.180059526946479
30
0
0
SPLINE
5
15E
100
AcDbEntity
8
1
62
256
6
ByLayer
370
18
48
1
60
0
100
AcDbSpline
70
4
71
3
72
10
73
6
40
0
40
0
40
0
40
0
40
0.5
40
0.5
40
1
40
1
40
1
40
1
41
1
10
52.5466794976334
20
5.03585543380322
30
0
41
1
10
52.4362429041454
20
5.19801123823007
30
0
41
1
10
52.3260266361569
20
5.36225106331256
30
0
41
1
10
52.1059463652727
20
5.69490601622243
30
0
41
1
10
51.9961423090525
20
5.86326225495253
30
0
41
1
10
51.8864765939565
20
6.03309136246531
30
0
0
SPLINE
5
15F
100
AcDbEntity
8
1
62
256
6
ByLayer
370
13
48
1
60
0
100
AcDbSpline
70
4
71
3
72
11
73
7
40
0
40
0
40
0
40
0
40
0.132620509406826
40
0.452013235441252
40
0.771405961475677
40
1
40
1
40
1
40
1
41
1
10
54.5685993939684
20
4.69339301901951
30
0
41
1
10
54.5803577519572
20
4.50359901525667
30
0
41
1
10
54.6204340034389
20
3.82407439700216
30
0
41
1
10
54.688828109576
20
2.49720550375599
30
0
41
1
10
54.7657315291013
20
0.845139336959477
30
0
41
1
10
54.8143169579081
20
-0.221915805482268
30
0
41
1
10
54.8345844999695
20
-0.662996659125554
30
0
0
SPLINE
5
160
100
AcDbEntity
8
1
62
256
6
ByLayer
370
18
48
1
60
0
100
AcDbSpline
70
4
71
3
72
10
73
6
40
0
40
0
40
0
40
0
40
0.5
40
0.5
40
1
40
1
40
1
40
1
41
1
10
54.5685993939684
20
4.69339301901951
30
0
41
1
10
54.4581606942673
20
4.84800519898411
30
0
41
1
10
54.3479443204232
20
5.00493855790882
30
0
41
1
10
54.1278664604797
20
5.32345493247382
30
0
41
1
10
54.0180658241658
20
5.48498564120402
30
0
41
1
10
53.9084053127875
20
5.64817478528056
30
0
0
SPLINE
5
161
100
AcDbEntity
8
1
62
256
6
ByLayer
370
13
48
1
60
0
100
AcDbSpline
70
4
71
3
72
11
73
7
40
0
40
0
40
0
40
0
40
0.300292425569843
40
0.620263801915953
40
0.940235178262062
40
1
40
1
40
1
40
1
41
1
10
51.0309788106021
20
5.27580026809335
30
0
41
1
10
51.0575550982029
20
4.89687134778387
30
0
41
1
10
51.112449284457
20
3.99978021951321
30
0
41
1
10
51.1956613851036
20
2.36866708572259
30
0
41
1
10
51.2575864578926
20
1.03265939258296
30
0
41
1
10
51.2911936269291
20
0.29865659689753
30
0
41
1
10
51.2964828947736
20
0.183058130047669
30
0
0
SPLINE
5
162
100
AcDbEntity
8
1
62
256
6
ByLayer
370
18
48
1
60
0
100
AcDbSpline
70
4
71
3
72
10
73
6
40
0
40
0
40
0
40
0
40
0.5
40
0.5
40
1
40
1
40
1
40
1
41
1
10
51.6835468467154
20
6.07003373553368
30
0
41
1
10
51.5748348663894
20
5.93868904566136
30
0
41
1
10
51.4660997642815
20
5.80642556034923
30
0
41
1
10
51.248579946932
20
5.54149943004762
30
0
41
1
10
51.1397950149376
20
5.40879447157559
30
0
41
1
10
51.0309788106021
20
5.27580026809335
30
0
0
SPLINE
5
163
100
AcDbEntity
8
1
62
256
6
ByLayer
370
13
48
1
60
0
100
AcDbSpline
70
4
71
3
72
11
73
7
40
0
40
0
40
0
40
0
40
0.196381443356211
40
0.515432484500565
40
0.834483525644919
40
1
40
1
40
1
40
1
41
1
10
56.5904729471147
20
4.32951955883388
30
0
41
1
10
56.6079031070377
20
4.0311541911062
30
0
41
1
10
56.6536511713574
20
3.19706118600894
30
0
41
1
10
56.7277170943296
20
1.67614026529253
30
0
41
1
10
56.7990436776636
20
0.111778934317556
30
0
41
1
10
56.8420522671429
20
-0.826407624036705
30
0
41
1
10
56.8567429579258
20
-1.14322294713372
30
0
0
SPLINE
5
164
100
AcDbEntity
8
1
62
256
6
ByLayer
370
18
48
1
60
0
100
AcDbSpline
70
4
71
3
72
10
73
6
40
0
40
0
40
0
40
0
40
0.5
40
0.5
40
1
40
1
40
1
40
1
41
1
10
56.5904729471147
20
4.32951955883385
30
0
41
1
10
56.4800597474711
20
4.47562549174225
30
0
41
1
10
56.3698661182497
20
4.62425419639064
30
0
41
1
10
56.1498301388927
20
4.92658568930048
30
0
41
1
10
56.0400486558265
20
5.08024534240533
30
0
41
1
10
55.9304071035992
20
5.23573783236506
30
0
0
SPLINE
5
165
100
AcDbEntity
8
1
62
256
6
ByLayer
370
13
48
1
60
0
100
AcDbSpline
70
4
71
3
72
10
73
6
40
0
40
0
40
0
40
0
40
0.292406789780203
40
0.740147209889915
40
1
40
1
40
1
40
1
41
1
10
47.0624025286094
20
4.80276228289182
30
0
41
1
10
47.0808961624622
20
4.51013061183568
30
0
41
1
10
47.1277077016462
20
3.70798433151609
30
0
41
1
10
47.19095394862
20
2.45421314090513
30
0
41
1
10
47.2357065641737
20
1.50160399512802
30
0
41
1
10
47.2521412784
20
1.14720338073553
30
0
0
SPLINE
5
166
100
AcDbEntity
8
1
62
256
6
ByLayer
370
18
48
1
60
0
100
AcDbSpline
70
4
71
3
72
24
73
20
40
0
40
0
40
0
40
0
40
0.125
40
0.249999999999999
40
0.249999999999999
40
0.374999999999999
40
0.374999999999999
40
0.437499999999999
40
0.468749999999999
40
0.468749999999999
40
0.499999999999999
40
0.499999999999999
40
0.624999999999999
40
0.624999999999999
40
0.749999999999999
40
0.749999999999999
40
0.875
40
0.875
40
1
40
1
40
1
40
1
41
1
10
47.711324865406
20
5.58269881159788
30
0
41
1
10
47.7199911233177
20
5.42375859376767
30
0
41
1
10
47.7371885557278
20
5.09545175395508
30
0
41
1
10
47.7542409107914
20
4.74683541969412
30
0
41
1
10
47.7713452361596
20
4.38813435318175
30
0
41
1
10
47.7799337465189
20
4.20374194281729
30
0
41
1
10
47.7928562239126
20
3.91949101297106
30
0
41
1
10
47.7993275936523
20
3.77544764034417
30
0
41
1
10
47.8058174084141
20
3.62848689871564
30
0
41
1
10
47.8101489520076
20
3.52985866487722
30
0
41
1
10
47.8123197159443
20
3.48015932023384
30
0
41
1
10
47.8231513078821
20
3.23087173722252
30
0
41
1
10
47.8317419079921
20
3.02895614726643
30
0
41
1
10
47.8488850829747
20
2.62030349391097
30
0
41
1
10
47.857453224964
20
2.413566702373
30
0
41
1
10
47.8746155004855
20
1.99532049712366
30
0
41
1
10
47.8831983279116
20
1.78381065524763
30
0
41
1
10
47.9003835802996
20
1.35597122495403
30
0
41
1
10
47.9089857887119
20
1.13964193609681
30
0
41
1
10
47.9176411402995
20
0.920832073766093
30
0
0
SPLINE
5
167
100
AcDbEntity
8
1
62
256
6
ByLayer
370
18
48
1
60
0
100
AcDbSpline
70
4
71
3
72
8
73
4
40
0
40
0
40
0
40
0
40
1
40
1
40
1
40
1
41
1
10
47.0624025286111
20
4.80276228286428
30
0
41
1
10
47.2787073029484
20
5.06340495679672
30
0
41
1
10
47.4950156510935
20
5.32338439192495
30
0
41
1
10
47.7113248654053
20
5.58269881161314
30
0
0
SPLINE
5
168
100
AcDbEntity
8
1
62
256
6
ByLayer
370
13
48
1
60
0
100
AcDbSpline
70
4
71
3
72
12
73
8
40
0
40
0
40
0
40
0
40
0.151854801228411
40
0.414984167279556
40
0.678113533330702
40
0.941242899381847
40
1
40
1
40
1
40
1
41
1
10
62.923237478817
20
-2.54191133104007
30
0
41
1
10
62.9097086053744
20
-2.26660537367633
30
0
41
1
10
62.8727372841728
20
-1.49548240600527
30
0
41
1
10
62.8123238461863
20
-0.178850612668981
30
0
41
1
10
62.7419970492126
20
1.36263601056584
30
0
41
1
10
62.6898776192087
20
2.45578539761888
30
0
41
1
10
62.6612006155116
20
3.02289152207447
30
0
41
1
10
62.6559659219614
20
3.12514497601202
30
0
0
SPLINE
5
169
100
AcDbEntity
8
1
62
256
6
ByLayer
370
18
48
1
60
0
100
AcDbSpline
70
4
71
3
72
10
73
6
40
0
40
0
40
0
40
0
40
0.5
40
0.5
40
1
40
1
40
1
40
1
41
1
10
62.6559659219619
20
3.12514497600066
30
0
41
1
10
62.5455884463284
20
3.24215836922204
30
0
41
1
10
62.4354255946062
20
3.36224018044965
30
0
41
1
10
62.2154423473593
20
3.60858177566763
30
0
41
1
10
62.1056899570985
20
3.73482586150612
30
0
41
1
10
61.9960715812723
20
3.86336225683456
30
0
0
SPLINE
5
16A
100
AcDbEntity
8
1
62
256
6
ByLayer
370
13
48
1
60
0
100
AcDbSpline
70
4
71
3
72
12
73
8
40
0
40
0
40
0
40
0
40
0.0045578345147261
40
0.324652012091727
40
0.644746189668729
40
0.96484036724573
40
1
40
1
40
1
40
1
41
1
10
50.5248868722794
20
5.3526753195614
30
0
41
1
10
50.5252900916888
20
5.34704195752144
30
0
41
1
10
50.5540111856361
20
4.94485812626544
30
0
41
1
10
50.6110501776413
20
4.01597203377892
30
0
41
1
10
50.6960039311605
20
2.34810441209118
30
0
41
1
10
50.755750180681
20
1.05824608507166
30
0
41
1
10
50.7871785749756
20
0.372259606896421
30
0
41
1
10
50.7902890578236
20
0.304323188983517
30
0
0
SPLINE
5
16B
100
AcDbEntity
8
1
62
256
6
ByLayer
370
18
48
1
60
0
100
AcDbSpline
70
4
71
3
72
10
73
6
40
0
40
0
40
0
40
0
40
0.5
40
0.5
40
1
40
1
40
1
40
1
41
1
10
50.5248868722794
20
5.3526753195614
30
0
41
1
10
50.4144477176843
20
5.52158276391248
30
0
41
1
10
50.3042297501644
20
5.69235093589862
30
0
41
1
10
50.0841472845156
20
6.03761032722355
30
0
41
1
10
49.9743425361311
20
6.21203263475471
30
0
41
1
10
49.8646758048359
20
6.38774869376448
30
0
0
SPLINE
5
16C
100
AcDbEntity
8
1
62
256
6
ByLayer
370
18
48
1
60
0
100
AcDbSpline
70
4
71
3
72
36
73
32
40
0
40
0
40
0
40
0
40
0.125000000000001
40
0.125000000000001
40
0.187500000000002
40
0.187500000000002
40
0.218750000000002
40
0.218750000000002
40
0.250000000000002
40
0.250000000000002
40
0.375000000000003
40
0.375000000000003
40
0.500000000000004
40
0.500000000000004
40
0.562500000000004
40
0.562500000000004
40
0.593750000000004
40
0.593750000000004
40
0.609375000000004
40
0.609375000000004
40
0.625000000000004
40
0.750000000000003
40
0.750000000000003
40
0.875000000000001
40
0.875000000000001
40
0.937500000000001
40
0.937500000000001
40
0.96875
40
0.984375
40
0.984375
40
1
40
1
40
1
40
1
41
1
10
48.1205694574425
20
0.864688101001207
30
0
41
1
10
48.1090640026925
20
1.15565883183677
30
0
41
1
10
48.0975867417728
20
1.44459322710162
30
0
41
1
10
48.080210113268
20
1.87489974099353
30
0
41
1
10
48.0743983669078
20
2.01781856625467
30
0
41
1
10
48.0656536401945
20
2.23140718302463
30
0
41
1
10
48.0627338053821
20
2.30247885825563
30
0
41
1
10
48.05688501673
20
2.44432652858464
30
0
41
1
10
48.053969166715
20
2.51478470365552
30
0
41
1
10
48.0394274991502
20
2.86477679833376
30
0
41
1
10
48.027922398265
20
3.13743571688215
30
0
41
1
10
48.0049073388213
20
3.66848475038984
30
0
41
1
10
47.9933614924394
20
3.92687276482391
30
0
41
1
10
47.975991507557
20
4.30367221592982
30
0
41
1
10
47.9701938731681
20
4.42747105327652
30
0
41
1
10
47.9614772929121
20
4.61042101818933
30
0
41
1
10
47.9585682978071
20
4.67094602333222
30
0
41
1
10
47.9541974564783
20
4.76103768447985
30
0
41
1
10
47.9527381845337
20
4.7909744991893
30
0
41
1
10
47.949822543359
20
4.8504959377554
30
0
41
1
10
47.9367212830084
20
5.1166621568571
30
0
41
1
10
47.9237430696219
20
5.36788915879154
30
0
41
1
10
47.9006363668331
20
5.79164059966979
30
0
41
1
10
47.8891055939626
20
5.99207846632782
30
0
41
1
10
47.8718015385373
20
6.27550953683453
30
0
41
1
10
47.8660304920452
20
6.36710930127208
30
0
41
1
10
47.8573481199518
20
6.50012573858933
30
0
41
1
10
47.853000310862
20
6.56553752619274
30
0
41
1
10
47.8486369648654
20
6.62928612757085
30
0
41
1
10
47.845723875637
20
6.67141310797828
30
0
41
1
10
47.8442644186909
20
6.69230193674952
30
0
41
1
10
47.8428067896579
20
6.71294294652802
30
0
0
SPLINE
5
16D
100
AcDbEntity
8
1
62
256
6
ByLayer
370
13
48
1
60
0
100
AcDbSpline
70
4
71
3
72
11
73
7
40
0
40
0
40
0
40
0
40
0.260613264524658
40
0.581168644369779
40
0.901724024214901
40
1
40
1
40
1
40
1
41
1
10
48.5030934370148
20
5.64436565988959
30
0
41
1
10
48.5261160252045
20
5.34988063669655
30
0
41
1
10
48.5774565276973
20
4.59434230956683
30
0
41
1
10
48.657114965021
20
3.13972737507447
30
0
41
1
10
48.722432426252
20
1.77609370766217
30
0
41
1
10
48.7594320488155
20
0.976113515752218
30
0
41
1
10
48.7681137638636
20
0.787523849365158
30
0
0
SPLINE
5
16E
100
AcDbEntity
8
1
62
256
6
ByLayer
370
18
48
1
60
0
100
AcDbSpline
70
4
71
3
72
10
73
6
40
0
40
0
40
0
40
0
40
0.5
40
0.5
40
1
40
1
40
1
40
1
41
1
10
48.5030934370148
20
5.64436565988961
30
0
41
1
10
48.3926352305598
20
5.81931913520691
30
0
41
1
10
48.2824022772324
20
5.99590226094293
30
0
41
1
10
48.0622957941727
20
6.35232106353985
30
0
41
1
10
47.9524819676415
20
6.53207796601473
30
0
41
1
10
47.8428067896579
20
6.71294294652802
30
0
0
SPLINE
5
16F
100
AcDbEntity
8
1
62
256
6
ByLayer
370
13
48
1
60
0
100
AcDbSpline
70
4
71
3
72
11
73
7
40
0
40
0
40
0
40
0
40
0.235971112328686
40
0.554454343605589
40
0.872937574882492
40
1
40
1
40
1
40
1
41
1
10
59.1183658365665
20
3.84789453907729
30
0
41
1
10
59.1393471823152
20
3.46563946505884
30
0
41
1
10
59.1886464306661
20
2.50856387646914
30
0
41
1
10
59.2662635844223
20
0.851768517038806
30
0
41
1
10
59.3341971302735
20
-0.646677894752088
30
0
41
1
10
59.3738127756118
20
-1.49687239754414
30
0
41
1
10
59.3851105177681
20
-1.73606270213932
30
0
0
SPLINE
5
170
100
AcDbEntity
8
1
62
256
6
ByLayer
370
18
48
1
60
0
100
AcDbSpline
70
4
71
3
72
10
73
6
40
0
40
0
40
0
40
0
40
0.5
40
0.5
40
1
40
1
40
1
40
1
41
1
10
59.7712408983933
20
4.38991185678725
30
0
41
1
10
59.6624809199411
20
4.30083138038776
30
0
41
1
10
59.5536952329067
20
4.21063747669481
30
0
41
1
10
59.3360727011938
20
4.02976167265103
30
0
41
1
10
59.2272355517148
20
3.93901369003015
30
0
41
1
10
59.1183658365665
20
3.84789453907726
30
0
0
SPLINE
5
171
100
AcDbEntity
8
1
62
256
6
ByLayer
370
13
48
1
60
0
100
AcDbSpline
70
4
71
3
72
11
73
7
40
0
40
0
40
0
40
0
40
0.172123690221729
40
0.491064268722928
40
0.810004847224127
40
1
40
1
40
1
40
1
41
1
10
57.0965736570468
20
4.23550855217721
30
0
41
1
10
57.1118560707052
20
3.97038971969934
30
0
41
1
10
57.1554563871337
20
3.17235578708309
30
0
41
1
10
57.2273746057495
20
1.69736174153672
30
0
41
1
10
57.3008795857225
20
0.0856896249182739
30
0
41
1
10
57.3460666639932
20
-0.900073647150919
30
0
41
1
10
57.3629358384547
20
-1.26276610821009
30
0
0
SPLINE
5
172
100
AcDbEntity
8
1
62
256
6
ByLayer
370
18
48
1
60
0
100
AcDbSpline
70
4
71
3
72
10
73
6
40
0
40
0
40
0
40
0
40
0.5
40
0.5
40
1
40
1
40
1
40
1
41
1
10
57.7494048252709
20
4.84525996985934
30
0
41
1
10
57.6406516166219
20
4.74483254780375
30
0
41
1
10
57.5318732174876
20
4.64333686238885
30
0
41
1
10
57.3142654193617
20
4.43988468235005
30
0
41
1
10
57.2054357365214
20
4.33787062703863
30
0
41
1
10
57.0965736570468
20
4.23550855217721
30
0
0
SPLINE
5
173
100
AcDbEntity
8
1
62
256
6
ByLayer
370
13
48
1
60
0
100
AcDbSpline
70
4
71
3
72
11
73
7
40
0
40
0
40
0
40
0
40
0.108258647371468
40
0.427584162669011
40
0.746909677966554
40
1
40
1
40
1
40
1
41
1
10
55.0747306735138
20
4.60415026556632
30
0
41
1
10
55.0843310896545
20
4.44677770018117
30
0
41
1
10
55.1222494083335
20
3.80045985830793
30
0
41
1
10
55.1884856270561
20
2.51764249110423
30
0
41
1
10
55.2675655764502
20
0.819987434823133
30
0
41
1
10
55.3183276220682
20
-0.295994129219679
30
0
41
1
10
55.3407717633309
20
-0.783563708830314
30
0
0
SPLINE
5
174
100
AcDbEntity
8
1
62
256
6
ByLayer
370
18
48
1
60
0
100
AcDbSpline
70
4
71
3
72
10
73
6
40
0
40
0
40
0
40
0
40
0.5
40
0.5
40
1
40
1
40
1
40
1
41
1
10
55.7275028557057
20
5.27816769581528
30
0
41
1
10
55.618759191972
20
5.16697151028328
30
0
41
1
10
55.5099905935836
20
5.05475474078528
30
0
41
1
10
55.292402507565
20
4.82988554325354
30
0
41
1
10
55.1835827426597
20
4.71718188252078
30
0
41
1
10
55.0747306735138
20
4.60415026556632
30
0
0
SPLINE
5
175
100
AcDbEntity
8
1
62
256
6
ByLayer
370
13
48
1
60
0
100
AcDbSpline
70
4
71
3
72
11
73
7
40
0
40
0
40
0
40
0
40
0.0445663624840374
40
0.364132469164564
40
0.683698575845091
40
1
40
1
40
1
40
1
41
1
10
53.0527953883862
20
4.95258326413705
30
0
41
1
10
53.0567445740835
20
4.89193812157941
30
0
41
1
10
53.0890116619008
20
4.3870782537353
30
0
41
1
10
53.1495966485313
20
3.30038351245159
30
0
41
1
10
53.2342610660531
20
1.54876276564266
30
0
41
1
10
53.2906075766453
20
0.311019368915851
30
0
41
1
10
53.3186361828106
20
-0.301171115598464
30
0
0
SPLINE
5
176
100
AcDbEntity
8
1
62
256
6
ByLayer
370
18
48
1
60
0
100
AcDbSpline
70
4
71
3
72
10
73
6
40
0
40
0
40
0
40
0
40
0.5
40
0.5
40
1
40
1
40
1
40
1
41
1
10
53.7054727267729
20
5.68817319269328
30
0
41
1
10
53.5967442335776
20
5.56670369822396
30
0
41
1
10
53.4879911897978
20
5.44424284205297
30
0
41
1
10
53.2704346783367
20
5.19885918719692
30
0
41
1
10
53.161630980498
20
5.07588839795682
30
0
41
1
10
53.0527953883862
20
4.95258326413705
30
0
0
SPLINE
5
177
100
AcDbEntity
8
1
62
256
6
ByLayer
370
13
48
1
60
0
100
AcDbSpline
70
4
71
3
72
11
73
7
40
0
40
0
40
0
40
0
40
0.260210738579728
40
0.578804951641016
40
0.897399164702305
40
1
40
1
40
1
40
1
41
1
10
58.612266736555
20
3.94667605662724
30
0
41
1
10
58.6353952870754
20
3.5301643224762
30
0
41
1
10
58.6868417578437
20
2.53409407551743
30
0
41
1
10
58.7666060860544
20
0.830083458102052
30
0
41
1
10
58.8323615672325
20
-0.620167381943759
30
0
41
1
10
58.8697990261572
20
-1.42436178702854
30
0
41
1
10
58.8789185871201
20
-1.61827232910301
30
0
0
SPLINE
5
178
100
AcDbEntity
8
1
62
256
6
ByLayer
370
18
48
1
60
0
100
AcDbSpline
70
4
71
3
72
10
73
6
40
0
40
0
40
0
40
0
40
0.5
40
0.5
40
1
40
1
40
1
40
1
41
1
10
58.6122667365546
20
3.94667605663463
30
0
41
1
10
58.5018768873708
20
4.08369329140118
30
0
41
1
10
58.391703762091
20
4.22341737723681
30
0
41
1
10
58.1717031425832
20
4.50831148961058
30
0
41
1
10
58.0619363924847
20
4.65345116989926
30
0
41
1
10
57.952307242488
20
4.80057245436342
30
0
0
SPLINE
5
179
100
AcDbEntity
8
1
62
256
6
ByLayer
370
13
48
1
60
0
100
AcDbSpline
70
4
71
3
72
12
73
8
40
0
40
0
40
0
40
0
40
0.0056513977750601
40
0.323820699313751
40
0.641990000852443
40
0.960159302391134
40
1
40
1
40
1
40
1
41
1
10
60.6340786880361
20
3.54497888675826
30
0
41
1
10
60.6345816771559
20
3.5355163068383
30
0
41
1
10
60.6634025631298
20
2.99255298293474
30
0
41
1
10
60.7205413939927
20
1.82985196279944
30
0
41
1
10
60.8054950841981
20
-0.0283533322136407
30
0
41
1
10
60.8656769475546
20
-1.34327309151115
30
0
41
1
10
60.8975407721235
20
-2.01135392801407
30
0
41
1
10
60.901086697493
20
-2.08531220156539
30
0
0
SPLINE
5
17A
100
AcDbEntity
8
1
62
256
6
ByLayer
370
18
48
1
60
0
100
AcDbSpline
70
4
71
3
72
10
73
6
40
0
40
0
40
0
40
0
40
0.5
40
0.5
40
1
40
1
40
1
40
1
41
1
10
60.6340786880361
20
3.54497888675826
30
0
41
1
10
60.5236973243643
20
3.67232165915692
30
0
41
1
10
60.4135306519994
20
3.80255055675721
30
0
41
1
10
60.1935400810524
20
4.0688164310958
30
0
41
1
10
60.0837773186121
20
4.20483591421734
30
0
41
1
10
59.9741527213117
20
4.3429884956393
30
0
0
SPLINE
5
17B
100
AcDbEntity
8
1
62
256
6
ByLayer
370
13
48
1
60
0
100
AcDbSpline
70
4
71
3
72
11
73
7
40
0
40
0
40
0
40
0
40
0.299554537910252
40
0.61764083716813
40
0.935727136426009
40
1
40
1
40
1
40
1
41
1
10
61.1401945629167
20
3.44155177970939
30
0
41
1
10
61.1668626586294
20
2.93478348810177
30
0
41
1
10
61.2218486559425
20
1.81483195970131
30
0
41
1
10
61.3051525628863
20
-0.0065324963085516
30
0
41
1
10
61.3675103116555
20
-1.36968085841102
30
0
41
1
10
61.4015501605066
20
-2.08200738962859
30
0
41
1
10
61.4072721067326
20
-2.20068005406966
30
0
0
SPLINE
5
17C
100
AcDbEntity
8
1
62
256
6
ByLayer
370
18
48
1
60
0
100
AcDbSpline
70
4
71
3
72
10
73
6
40
0
40
0
40
0
40
0
40
0.5
40
0.5
40
1
40
1
40
1
40
1
41
1
10
61.7931162453978
20
3.91245675530439
30
0
41
1
10
61.684349408445
20
3.83529841586829
30
0
41
1
10
61.5755559783901
20
3.75697770456159
30
0
41
1
10
61.3579177200499
20
3.5998043578837
30
0
41
1
10
61.2490725546352
20
3.52087972058376
30
0
41
1
10
61.1401945629167
20
3.44155177970939
30
0
0
SPLINE
5
17D
100
AcDbEntity
8
1
62
256
6
ByLayer
370
18
48
1
60
0
100
AcDbSpline
70
4
71
3
72
31
73
27
40
0
40
0
40
0
40
0
40
0.125000000000001
40
0.125000000000001
40
0.250000000000002
40
0.250000000000002
40
0.281250000000002
40
0.281250000000002
40
0.312500000000002
40
0.312500000000002
40
0.375000000000002
40
0.375000000000002
40
0.500000000000002
40
0.500000000000002
40
0.625000000000002
40
0.625000000000002
40
0.656250000000002
40
0.671875000000002
40
0.671875000000002
40
0.687500000000001
40
0.687500000000001
40
0.750000000000001
40
0.750000000000001
40
0.875000000000001
40
0.875000000000001
40
1
40
1
40
1
40
1
41
1
10
62.2758027228364
20
-2.99999724390577
30
0
41
1
10
62.2641415316372
20
-2.72522595637435
30
0
41
1
10
62.2525579144075
20
-2.44580370485116
30
0
41
1
10
62.2293424728552
20
-1.87777327950064
30
0
41
1
10
62.2176846848218
20
-1.58916648533946
30
0
41
1
10
62.2030370964386
20
-1.22252745248281
30
0
41
1
10
62.2001036267305
20
-1.14890477694612
30
0
41
1
10
62.1942267124415
20
-1.00106271605171
30
0
41
1
10
62.1912806283176
20
-0.926776219730868
30
0
41
1
10
62.1824766638571
20
-0.704373031501603
30
0
41
1
10
62.1766371129865
20
-0.556302565158774
30
0
41
1
10
62.1591553547876
20
-0.112675836590625
30
0
41
1
10
62.1475284134853
20
0.182296622021568
30
0
41
1
10
62.1243044062942
20
0.770705362921831
30
0
41
1
10
62.112714769005
20
1.06414196638039
30
0
41
1
10
62.0981210905877
20
1.42995159993839
30
0
41
1
10
62.0937339715814
20
1.53962028023463
30
0
41
1
10
62.0893274341489
20
1.64917616615367
30
0
41
1
10
62.0863858163804
20
1.72218820529287
30
0
41
1
10
62.0849122067525
20
1.75870068721494
30
0
41
1
10
62.0775562591382
20
1.94065276926872
30
0
41
1
10
62.0716955462259
20
2.08464102952178
30
0
41
1
10
62.0541770772162
20
2.51198932894079
30
0
41
1
10
62.0425893480561
20
2.7907466859146
30
0
41
1
10
62.0193947339858
20
3.33617735946106
30
0
41
1
10
62.007759255668
20
3.60284975413373
30
0
41
1
10
61.9960715812723
20
3.86336225683453
30
0
0
SPLINE
5
17E
100
AcDbEntity
8
1
62
256
6
ByLayer
370
18
48
1
60
0
100
AcDbSpline
70
4
71
3
72
8
73
4
40
0
40
0
40
0
40
0
40
1
40
1
40
1
40
1
41
1
10
61.7931162453979
20
3.91245675530431
30
0
41
1
10
61.8607685490615
20
3.89612496524882
30
0
41
1
10
61.9284202417377
20
3.87975986336013
30
0
41
1
10
61.9960715812722
20
3.86336225683456
30
0
0
SPLINE
5
17F
100
AcDbEntity
8
1
62
256
6
ByLayer
370
18
48
1
60
0
100
AcDbSpline
70
4
71
3
72
31
73
27
40
0
40
0
40
0
40
0
40
0.125000000000001
40
0.125000000000001
40
0.250000000000002
40
0.250000000000002
40
0.312500000000002
40
0.312500000000002
40
0.343750000000003
40
0.343750000000003
40
0.359375000000003
40
0.359375000000003
40
0.375000000000002
40
0.500000000000002
40
0.500000000000002
40
0.625000000000001
40
0.625000000000001
40
0.687500000000001
40
0.687500000000001
40
0.718750000000001
40
0.718750000000001
40
0.750000000000001
40
0.750000000000001
40
0.875
40
0.875
40
1
40
1
40
1
40
1
41
1
10
61.7931162453979
20
3.91245675530428
30
0
41
1
10
61.8048563789519
20
3.65213226341788
30
0
41
1
10
61.8165207848308
20
3.38588408047767
30
0
41
1
10
61.8397372836652
20
2.84186564863839
30
0
41
1
10
61.8512893311674
20
2.56409466534797
30
0
41
1
10
61.8687292217913
20
2.13873006857008
30
0
41
1
10
61.8745678775451
20
1.99548758354578
30
0
41
1
10
61.8833660010017
20
1.77840327263934
30
0
41
1
10
61.8863049414594
20
1.70567150304703
30
0
41
1
10
61.8907225200048
20
1.59601138540771
30
0
41
1
10
61.8921971355305
20
1.55935037418217
30
0
41
1
10
61.8951404045664
20
1.48606624197436
30
0
41
1
10
61.9083690185103
20
1.156219351961
30
0
41
1
10
61.9214367312244
20
0.825764553843129
30
0
41
1
10
61.9445976977779
20
0.237364467773062
30
0
41
1
10
61.956170931059
20
-0.0572969822877383
30
0
41
1
10
61.9736603948229
20
-0.499979688326107
30
0
41
1
10
61.9795036134647
20
-0.647656259178916
30
0
41
1
10
61.9882895496781
20
-0.869347475178358
30
0
41
1
10
61.9912218299216
20
-0.943273953051943
30
0
41
1
10
61.9970952841807
20
-1.09118635448749
30
0
41
1
10
62.0000399876823
20
-1.16526070238262
30
0
41
1
10
62.0147059966817
20
-1.53361633340242
30
0
41
1
10
62.0263014562588
20
-1.82324309866917
30
0
41
1
10
62.0495237061172
20
-2.39269917874233
30
0
41
1
10
62.0611525341101
20
-2.67252759355014
30
0
41
1
10
62.07278932631
20
-2.94744137618184
30
0
0
SPLINE
5
180
100
AcDbEntity
8
1
62
256
6
ByLayer
370
18
48
1
60
0
100
AcDbSpline
70
4
71
3
72
34
73
30
40
0
40
0
40
0
40
0
40
0.125
40
0.125
40
0.15625
40
0.171875
40
0.171875
40
0.1875
40
0.1875
40
0.25
40
0.25
40
0.375000000000001
40
0.375000000000001
40
0.500000000000001
40
0.500000000000001
40
0.562500000000001
40
0.562500000000001
40
0.625000000000001
40
0.625000000000001
40
0.750000000000001
40
0.750000000000001
40
0.875000000000001
40
0.875000000000001
40
0.937500000000001
40
0.937500000000001
40
0.953125000000001
40
0.953125000000001
40
0.968750000000001
40
1
40
1
40
1
40
1
41
1
10
60.2535814447835
20
-2.47041773083811
30
0
41
1
10
60.2420202573416
20
-2.19033309581326
30
0
41
1
10
60.2304049820434
20
-1.90514711625914
30
0
41
1
10
60.2157884082986
20
-1.54214379597639
30
0
41
1
10
60.2113971304271
20
-1.432752296535
30
0
41
1
10
60.2069954130062
20
-1.32261663735287
30
0
41
1
10
60.2040583937283
20
-1.24902637132908
30
0
41
1
10
60.2025888626219
20
-1.21215402035821
30
0
41
1
10
60.1952572286409
20
-1.02795208044412
30
0
41
1
10
60.1894254085522
20
-0.880644236054394
30
0
41
1
10
60.1719924144012
20
-0.438879766108556
30
0
41
1
10
60.1604479320859
20
-0.144581960730648
30
0
41
1
10
60.1372415954285
20
0.443586103235134
30
0
41
1
10
60.125618629715
20
0.737457906725609
30
0
41
1
10
60.1081320972724
20
1.17794006927932
30
0
41
1
10
60.1022907601643
20
1.32476310549603
30
0
41
1
10
60.0905683191436
20
1.61809336072727
30
0
41
1
10
60.0847381936784
20
1.76332173626213
30
0
41
1
10
60.0672787114972
20
2.19479359531059
30
0
41
1
10
60.0556528332545
20
2.47683516829866
30
0
41
1
10
60.0324419167638
20
3.02991772341846
30
0
41
1
10
60.020865319377
20
3.30095890612134
30
0
41
1
10
60.0034259854648
20
3.69912562110784
30
0
41
1
10
59.9975987110915
20
3.83044553889326
30
0
41
1
10
59.9902706484572
20
3.99280230002231
30
0
41
1
10
59.988801783419
20
4.02520607702033
30
0
41
1
10
59.9858670113208
20
4.0896523271719
30
0
41
1
10
59.98146727227
20
4.18582420745241
30
0
41
1
10
59.9770759442611
20
4.28051366570955
30
0
41
1
10
59.9741527213117
20
4.3429884956393
30
0
0
SPLINE
5
181
100
AcDbEntity
8
1
62
256
6
ByLayer
370
18
48
1
60
0
100
AcDbSpline
70
4
71
3
72
8
73
4
40
0
40
0
40
0
40
0
40
1
40
1
40
1
40
1
41
1
10
59.7712408983934
20
4.38991185678714
30
0
41
1
10
59.8388799719531
20
4.37430744736648
30
0
41
1
10
59.906517247553
20
4.35866633929098
30
0
41
1
10
59.9741527213116
20
4.3429884956393
30
0
0
SPLINE
5
182
100
AcDbEntity
8
1
62
256
6
ByLayer
370
18
48
1
60
0
100
AcDbSpline
70
4
71
3
72
30
73
26
40
0
40
0
40
0
40
0
40
0.125
40
0.125
40
0.25
40
0.25
40
0.28125
40
0.28125
40
0.3125
40
0.374999999999999
40
0.374999999999999
40
0.499999999999999
40
0.499999999999999
40
0.624999999999999
40
0.624999999999999
40
0.656249999999999
40
0.656249999999999
40
0.671874999999999
40
0.671874999999999
40
0.687499999999999
40
0.749999999999999
40
0.749999999999999
40
0.875
40
0.875
40
1
40
1
40
1
40
1
41
1
10
59.7712408983934
20
4.38991185678711
30
0
41
1
10
59.7828927564869
20
4.14199868390392
30
0
41
1
10
59.794470826421
20
3.88635491855101
30
0
41
1
10
59.8176262657429
20
3.35971873956402
30
0
41
1
10
59.8292225076485
20
3.08872798894535
30
0
41
1
10
59.8438901059372
20
2.74012109312744
30
0
41
1
10
59.8468320357098
20
2.66986338074523
30
0
41
1
10
59.8527216645194
20
2.52852022561592
30
0
41
1
10
59.8615342593493
20
2.31600204594773
30
0
41
1
10
59.8702827092704
20
2.10199406640115
30
0
41
1
10
59.887717254667
20
1.67202903112283
30
0
41
1
10
59.8992505505859
20
1.38279232997235
30
0
41
1
10
59.9224226515025
20
0.799193351558472
30
0
41
1
10
59.9340839345239
20
0.504832250525766
30
0
41
1
10
59.9487330249493
20
0.133592485119152
30
0
41
1
10
59.9516668697452
20
0.0591796517389298
30
0
41
1
10
59.9560748424523
20
-0.0526899584112925
30
0
41
1
10
59.9575461048021
20
-0.0900400934584411
30
0
41
1
10
59.9604824529278
20
-0.164598808128517
30
0
41
1
10
59.9678128965748
20
-0.35076559127495
30
0
41
1
10
59.9750942539474
20
-0.535791153028356
30
0
41
1
10
59.9925213605276
20
-0.977702804218097
30
0
41
1
10
60.0040997271531
20
-1.26944963812179
30
0
41
1
10
60.0273354614905
20
-1.84728599703774
30
0
41
1
10
60.0389570261937
20
-2.1333771112221
30
0
41
1
10
60.0506271642677
20
-2.41657191078778
30
0
0
SPLINE
5
183
100
AcDbEntity
8
1
62
256
6
ByLayer
370
18
48
1
60
0
100
AcDbSpline
70
4
71
3
72
31
73
27
40
0
40
0
40
0
40
0
40
0.125
40
0.125
40
0.1875
40
0.1875
40
0.21875
40
0.21875
40
0.250000000000001
40
0.250000000000001
40
0.375000000000001
40
0.375000000000001
40
0.500000000000001
40
0.500000000000001
40
0.625000000000001
40
0.625000000000001
40
0.640625000000001
40
0.640625000000001
40
0.656250000000001
40
0.687500000000001
40
0.687500000000001
40
0.750000000000001
40
0.750000000000001
40
0.875000000000001
40
0.875000000000001
40
1
40
1
40
1
40
1
41
1
10
58.2313900932228
20
-1.92898022747187
30
0
41
1
10
58.2198163433465
20
-1.64309996286013
30
0
41
1
10
58.2082935967238
20
-1.35414497960369
30
0
41
1
10
58.1908686001693
20
-0.916099552027674
30
0
41
1
10
58.1850434177079
20
-0.769313636318543
30
0
41
1
10
58.1762832410424
20
-0.547961572643828
30
0
41
1
10
58.173359338809
20
-0.473981911565005
30
0
41
1
10
58.1675029649408
20
-0.325627122587861
30
0
41
1
10
58.1645687754559
20
-0.251208344971502
30
0
41
1
10
58.1498899985558
20
0.12142519477959
30
0
41
1
10
58.1382925903842
20
0.417127352402787
30
0
41
1
10
58.1151333756906
20
1.00388742725482
30
0
41
1
10
58.103535090397
20
1.29494339682014
30
0
41
1
10
58.0803018008242
20
1.87241099341176
30
0
41
1
10
58.0686795571466
20
2.15882358777952
30
0
41
1
10
58.0555102809207
20
2.47832888874743
30
0
41
1
10
58.0540447137957
20
2.51381198481866
30
0
41
1
10
58.0511187065911
20
2.58449327165474
30
0
41
1
10
58.0467347289218
20
2.6901522585064
30
0
41
1
10
58.0423630449669
20
2.79472957844143
30
0
41
1
10
58.0336275617619
20
3.00245768920109
30
0
41
1
10
58.0278097068582
20
3.13904198030886
30
0
41
1
10
58.0103666253296
20
3.54317811619799
30
0
41
1
10
57.9987698490295
20
3.80513032190601
30
0
41
1
10
57.9755935731768
20
4.31414327023614
30
0
41
1
10
57.9640147188051
20
4.56120525897427
30
0
41
1
10
57.952307242488
20
4.80057245436342
30
0
0
SPLINE
5
184
100
AcDbEntity
8
1
62
256
6
ByLayer
370
18
48
1
60
0
100
AcDbSpline
70
4
71
3
72
8
73
4
40
0
40
0
40
0
40
0
40
1
40
1
40
1
40
1
41
1
10
57.749404825271
20
4.84525996985926
30
0
41
1
10
57.8170410789193
20
4.8304016918072
30
0
41
1
10
57.8846752045809
20
4.81550581096806
30
0
41
1
10
57.952307242488
20
4.80057245436339
30
0
0
SPLINE
5
185
100
AcDbEntity
8
1
62
256
6
ByLayer
370
18
48
1
60
0
100
AcDbSpline
70
4
71
3
72
38
73
34
40
0
40
0
40
0
40
0
40
0.124999999999999
40
0.124999999999999
40
0.187499999999998
40
0.187499999999998
40
0.203124999999998
40
0.203124999999998
40
0.218749999999998
40
0.218749999999998
40
0.249999999999998
40
0.249999999999998
40
0.374999999999998
40
0.374999999999998
40
0.499999999999998
40
0.499999999999998
40
0.562499999999998
40
0.562499999999998
40
0.593749999999998
40
0.593749999999998
40
0.624999999999998
40
0.624999999999998
40
0.749999999999999
40
0.749999999999999
40
0.874999999999999
40
0.874999999999999
40
0.937499999999999
40
0.937499999999999
40
0.96875
40
0.96875
40
0.984375
40
0.984375
40
1
40
1
40
1
40
1
41
1
10
57.749404825271
20
4.84525996985926
30
0
41
1
10
57.7609768953192
20
4.6100261845917
30
0
41
1
10
57.7725035218661
20
4.36537652244476
30
0
41
1
10
57.7899177448254
20
3.98408995457683
30
0
41
1
10
57.795749933928
20
3.8546040982545
30
0
41
1
10
57.8030790723401
20
3.68969716591889
30
0
41
1
10
57.8045466957917
20
3.65656317773346
30
0
41
1
10
57.8074854599273
20
3.5899879743794
30
0
41
1
10
57.8089560957359
20
3.55655798490574
30
0
41
1
10
57.8133595513355
20
3.45611818866846
30
0
41
1
10
57.8162883224113
20
3.38885838003321
30
0
41
1
10
57.8308991972106
20
3.05107760122007
30
0
41
1
10
57.8424739252637
20
2.77612467233038
30
0
41
1
10
57.8655670811501
20
2.21700280521438
30
0
41
1
10
57.8771099680042
20
1.93283438230492
30
0
41
1
10
57.8945757816048
20
1.49960182556563
30
0
41
1
10
57.9004145776967
20
1.3540247807498
30
0
41
1
10
57.9091984864069
20
1.1338763817088
30
0
41
1
10
57.9121319555362
20
1.06016857497019
30
0
41
1
10
57.9180046447886
20
0.912265161951098
30
0
41
1
10
57.9209323240767
20
0.838360443745245
30
0
41
1
10
57.9355336572146
20
0.469069030772403
30
0
41
1
10
57.9470882965431
20
0.174376406359215
30
0
41
1
10
57.9702324184782
20
-0.413557698980469
30
0
41
1
10
57.9818335869988
20
-0.706798639367179
30
0
41
1
10
57.9992605326918
20
-1.14556302453653
30
0
41
1
10
58.0050752503466
20
-1.29163451985411
30
0
41
1
10
58.0138193934727
20
-1.51046143500125
30
0
41
1
10
58.0167379021333
20
-1.58335698702143
30
0
41
1
10
58.021124129737
20
-1.69262921493799
30
0
41
1
10
58.0225886616278
20
-1.72906716401729
30
0
41
1
10
58.0255130262155
20
-1.80171827340939
30
0
41
1
10
58.0269734620866
20
-1.83794653029671
30
0
41
1
10
58.0284324558223
20
-1.87407810796086
30
0
0
SPLINE
5
186
100
AcDbEntity
8
1
62
256
6
ByLayer
370
18
48
1
60
0
100
AcDbSpline
70
4
71
3
72
31
73
27
40
0
40
0
40
0
40
0
40
0.125000000000001
40
0.125000000000001
40
0.250000000000002
40
0.250000000000002
40
0.312500000000003
40
0.312500000000003
40
0.328125000000003
40
0.328125000000003
40
0.343750000000003
40
0.375000000000003
40
0.375000000000003
40
0.500000000000003
40
0.500000000000003
40
0.625000000000002
40
0.625000000000002
40
0.687500000000002
40
0.687500000000002
40
0.718750000000002
40
0.718750000000002
40
0.750000000000002
40
0.750000000000002
40
0.875000000000001
40
0.875000000000001
40
1
40
1
40
1
40
1
41
1
10
56.2092174667024
20
-1.37815506192692
30
0
41
1
10
56.1975707104031
20
-1.08685928102716
30
0
41
1
10
56.1860321008733
20
-0.794571235880909
30
0
41
1
10
56.1629332324972
20
-0.208055882644544
30
0
41
1
10
56.1513338520406
20
0.0861698757608735
30
0
41
1
10
56.1338398569062
20
0.528985490793076
30
0
41
1
10
56.1279950718136
20
0.676837496386412
30
0
41
1
10
56.1206653943189
20
0.861967761626516
30
0
41
1
10
56.1191977148432
20
0.899022725921981
30
0
41
1
10
56.1162686306878
20
0.97293632405632
30
0
41
1
10
56.1118811858021
20
1.08359353965943
30
0
41
1
10
56.1075106348475
20
1.19361538460257
30
0
41
1
10
56.0929705221991
20
1.55895811599828
30
0
41
1
10
56.0814221029344
20
1.84677508009042
30
0
41
1
10
56.0582365761014
20
2.41367267923872
30
0
41
1
10
56.0466394365008
20
2.69275470510038
30
0
41
1
10
56.0292069636712
20
3.1047303072452
30
0
41
1
10
56.0233882177431
20
3.2409450998461
30
0
41
1
10
56.0146273502814
20
3.44356564033402
30
0
41
1
10
56.0116975900413
20
3.51090985145618
30
0
41
1
10
56.0058552341269
20
3.64426485577656
30
0
41
1
10
56.0029397368815
20
3.71034385715413
30
0
41
1
10
55.9883762448366
20
4.03778101705061
30
0
41
1
10
55.9767474058973
20
4.29029194022132
30
0
41
1
10
55.9535574587522
20
4.77688935142965
30
0
41
1
10
55.9420024612665
20
5.01097526442459
30
0
41
1
10
55.9304071035992
20
5.23573783236506
30
0
0
SPLINE
5
187
100
AcDbEntity
8
1
62
256
6
ByLayer
370
18
48
1
60
0
100
AcDbSpline
70
4
71
3
72
8
73
4
40
0
40
0
40
0
40
0
40
1
40
1
40
1
40
1
41
1
10
55.7275028557058
20
5.27816769581517
30
0
41
1
10
55.7951395149505
20
5.2640616902921
30
0
41
1
10
55.8627742674786
20
5.24991839109649
30
0
41
1
10
55.9304071035993
20
5.23573783236506
30
0
0
SPLINE
5
188
100
AcDbEntity
8
1
62
256
6
ByLayer
370
18
48
1
60
0
100
AcDbSpline
70
4
71
3
72
35
73
31
40
0
40
0
40
0
40
0
40
0.124999999999996
40
0.124999999999996
40
0.140624999999995
40
0.140624999999995
40
0.156249999999995
40
0.187499999999994
40
0.249999999999994
40
0.249999999999994
40
0.374999999999994
40
0.374999999999994
40
0.499999999999993
40
0.499999999999993
40
0.515624999999994
40
0.515624999999994
40
0.531249999999994
40
0.531249999999994
40
0.562499999999994
40
0.624999999999995
40
0.624999999999995
40
0.749999999999997
40
0.749999999999997
40
0.874999999999999
40
0.874999999999999
40
0.906249999999999
40
0.906249999999999
40
0.937499999999999
40
0.937499999999999
40
1
40
1
40
1
40
1
41
1
10
55.7275028557058
20
5.27816769581517
30
0
41
1
10
55.7390464060733
20
5.05566270827021
30
0
41
1
10
55.750617002563
20
4.82212446003982
30
0
41
1
10
55.763806582198
20
4.54654886946545
30
0
41
1
10
55.7652751604915
20
4.51572609543859
30
0
41
1
10
55.7682090058369
20
4.45386954688021
30
0
41
1
10
55.77260507988
20
4.36076361656978
30
0
41
1
10
55.7828294221086
20
4.14128337867163
30
0
41
1
10
55.7915370771684
20
3.94937513109298
30
0
41
1
10
55.8088982855718
20
3.56059505687986
30
0
41
1
10
55.8203936152718
20
3.29480440139673
30
0
41
1
10
55.843499043323
20
2.75008343074387
30
0
41
1
10
55.8551364912363
20
2.47115527926712
30
0
41
1
10
55.8683090384357
20
2.14973562136282
30
0
41
1
10
55.8697738507432
20
2.11391609260454
30
0
41
1
10
55.8727060201719
20
2.04206317776851
30
0
41
1
10
55.8741734171996
20
2.00602865778248
30
0
41
1
10
55.8785659681213
20
1.89794198646274
30
0
41
1
10
55.8873264187118
20
1.6814987163248
30
0
41
1
10
55.8960224183457
20
1.46425646013304
30
0
41
1
10
55.913371763408
20
1.02872655159174
30
0
41
1
10
55.9249021625033
20
0.736983274690715
30
0
41
1
10
55.948068029529
20
0.150744450975736
30
0
41
1
10
55.9596659592614
20
-0.143752400531611
30
0
41
1
10
55.9742328545144
20
-0.513642810584912
30
0
41
1
10
55.9771502864208
20
-0.587709592923005
30
0
41
1
10
55.9829969179775
20
-0.736022715122999
30
0
41
1
10
55.9859130640009
20
-0.809937677519883
30
0
41
1
10
55.9946438690029
20
-1.03089077203086
30
0
41
1
10
56.0004418802517
20
-1.17717159918337
30
0
41
1
10
56.0062400681573
20
-1.32244937919714
30
0
0
SPLINE
5
189
100
AcDbEntity
8
1
62
256
6
ByLayer
370
18
48
1
60
0
100
AcDbSpline
70
4
71
3
72
35
73
31
40
0
40
0
40
0
40
0
40
0.0156249999999999
40
0.0156249999999999
40
0.0312499999999999
40
0.0624999999999997
40
0.125
40
0.125
40
0.25
40
0.25
40
0.374999999999999
40
0.374999999999999
40
0.406249999999999
40
0.406249999999999
40
0.437499999999999
40
0.499999999999999
40
0.499999999999999
40
0.624999999999998
40
0.624999999999998
40
0.749999999999997
40
0.749999999999997
40
0.765624999999997
40
0.765624999999997
40
0.781249999999997
40
0.781249999999997
40
0.812499999999997
40
0.812499999999997
40
0.874999999999998
40
0.874999999999998
40
1
40
1
40
1
40
1
41
1
10
54.1870738450269
20
-0.820650851595843
30
0
41
1
10
54.1856063170164
20
-0.783657711943903
30
0
41
1
10
54.1841376452401
20
-0.746604969164196
30
0
41
1
10
54.1812063835614
20
-0.672592944733879
30
0
41
1
10
54.1768152198649
20
-0.561629926169132
30
0
41
1
10
54.1666078627788
20
-0.30309895471737
30
0
41
1
10
54.1579184061569
20
-0.0821497725333131
30
0
41
1
10
54.1405832647309
20
0.358894967738223
30
0
41
1
10
54.1290804807321
20
0.651788941590837
30
0
41
1
10
54.1059045607176
20
1.23530057384394
30
0
41
1
10
54.0942688122406
20
1.52591992417987
30
0
41
1
10
54.0796448996955
20
1.88772490206355
30
0
41
1
10
54.0767123787496
20
1.96009054810475
30
0
41
1
10
54.0708702459071
20
2.10381769706115
30
0
41
1
10
54.0621302400723
20
2.31817472546223
30
0
41
1
10
54.0534443752476
20
2.52887632230855
30
0
41
1
10
54.0360869255802
20
2.94548308706513
30
0
41
1
10
54.0245070639122
20
3.21683868161384
30
0
41
1
10
54.0013414348964
20
3.74686016449826
30
0
41
1
10
53.9897652176083
20
4.00552727013886
30
0
41
1
10
53.9766572584436
20
4.28917003363304
30
0
41
1
10
53.9751994836733
20
4.32058338715436
30
0
41
1
10
53.972280666797
20
4.38320374800921
30
0
41
1
10
53.9708184822839
20
4.41443496020949
30
0
41
1
10
53.9664366734056
20
4.50759116113406
30
0
41
1
10
53.9635213694171
20
4.56898949425775
30
0
41
1
10
53.9547844114733
20
4.75109309314033
30
0
41
1
10
53.9489670277297
20
4.86970843615302
30
0
41
1
10
53.931537000252
20
5.21734238460019
30
0
41
1
10
53.919961681598
20
5.43817328533521
30
0
41
1
10
53.9084053127875
20
5.64817478528053
30
0
0
SPLINE
5
18A
100
AcDbEntity
8
1
62
256
6
ByLayer
370
18
48
1
60
0
100
AcDbSpline
70
4
71
3
72
8
73
4
40
0
40
0
40
0
40
0
40
1
40
1
40
1
40
1
41
1
10
53.705472726773
20
5.68817319269317
30
0
41
1
10
53.7731165517695
20
5.67488838688681
30
0
41
1
10
53.8407605624134
20
5.66155511978334
30
0
41
1
10
53.9084053127875
20
5.64817478528056
30
0
0
SPLINE
5
18B
100
AcDbEntity
8
1
62
256
6
ByLayer
370
18
48
1
60
0
100
AcDbSpline
70
4
71
3
72
34
73
30
40
0
40
0
40
0
40
0
40
0.0625000000000005
40
0.0625000000000005
40
0.125000000000001
40
0.125000000000001
40
0.250000000000002
40
0.250000000000002
40
0.375000000000002
40
0.375000000000002
40
0.437500000000002
40
0.437500000000002
40
0.468750000000002
40
0.468750000000002
40
0.500000000000002
40
0.500000000000002
40
0.625000000000002
40
0.625000000000002
40
0.750000000000002
40
0.750000000000002
40
0.812500000000002
40
0.812500000000002
40
0.828125000000002
40
0.828125000000002
40
0.843750000000002
40
0.843750000000002
40
0.875000000000001
40
0.875000000000001
40
1
40
1
40
1
40
1
41
1
10
53.7054727267731
20
5.68817319269317
30
0
41
1
10
53.7112743418658
20
5.5833237137463
30
0
41
1
10
53.7171057982883
20
5.47530785044097
30
0
41
1
10
53.7288400200609
20
5.25279455434034
30
0
41
1
10
53.7346875674096
20
5.13927481445782
30
0
41
1
10
53.7521549122601
20
4.79237162822628
30
0
41
1
10
53.7636995086149
20
4.55253417652239
30
0
41
1
10
53.7867472362283
20
4.05606098428544
30
0
41
1
10
53.7982716722134
20
3.79942574674266
30
0
41
1
10
53.8157279282878
20
3.40167782182218
30
0
41
1
10
53.8215665945659
20
3.26695771445443
30
0
41
1
10
53.8303546397985
20
3.06160115750714
30
0
41
1
10
53.8332903109942
20
2.99257266794203
30
0
41
1
10
53.83913681623
20
2.85427727126907
30
0
41
1
10
53.8420521572581
20
2.78490564568483
30
0
41
1
10
53.8565951741791
20
2.43694080217355
30
0
41
1
10
53.8681139624121
20
2.15503715461276
30
0
41
1
10
53.8911974321759
20
1.58433617984608
30
0
41
1
10
53.9027805518613
20
1.29553940368243
30
0
41
1
10
53.9201977351527
20
0.857107043298271
30
0
41
1
10
53.9260117982835
20
0.710088193320672
30
0
41
1
10
53.9333005138928
20
0.525199504789441
30
0
41
1
10
53.9347593515949
20
0.488165970275787
30
0
41
1
10
53.9376796379866
20
0.413986599146568
30
0
41
1
10
53.9391417843343
20
0.376822997011857
30
0
41
1
10
53.9435196272031
20
0.265499437614579
30
0
41
1
10
53.9464306379142
20
0.191406880799917
30
0
41
1
10
53.9609592251537
20
-0.178447220451631
30
0
41
1
10
53.9725223845234
20
-0.472387296215715
30
0
41
1
10
53.9841028694873
20
-0.764431094169993
30
0
0
SPLINE
5
18C
100
AcDbEntity
8
1
62
256
6
ByLayer
370
18
48
1
60
0
100
AcDbSpline
70
4
71
3
72
37
73
33
40
0
40
0
40
0
40
0
40
0.0625000000000002
40
0.0625000000000002
40
0.0937500000000001
40
0.0937500000000001
40
0.125
40
0.125
40
0.25
40
0.25
40
0.374999999999999
40
0.374999999999999
40
0.437499999999999
40
0.437499999999999
40
0.453124999999999
40
0.453124999999999
40
0.468749999999999
40
0.468749999999999
40
0.499999999999999
40
0.499999999999999
40
0.624999999999999
40
0.624999999999999
40
0.749999999999999
40
0.749999999999999
40
0.812499999999999
40
0.812499999999999
40
0.843749999999999
40
0.843749999999999
40
0.859374999999999
40
0.859374999999999
40
0.874999999999999
40
1
40
1
40
1
40
1
41
1
10
52.1649427195102
20
-0.259244523928487
30
0
41
1
10
52.1591336943991
20
-0.112026225862763
30
0
41
1
10
52.1533011085783
20
0.0357344346100206
30
0
41
1
10
52.1445199199348
20
0.258206800081638
30
0
41
1
10
52.1415854959652
20
0.332550015420509
30
0
41
1
10
52.1357409054705
20
0.480601119555701
30
0
41
1
10
52.1328263889307
20
0.55441919317289
30
0
41
1
10
52.1182880644768
20
0.922483849328813
30
0
41
1
10
52.1067752003159
20
1.21366291708682
30
0
41
1
10
52.0837338574759
20
1.78961560039832
30
0
41
1
10
52.0721676487391
20
2.07438758167697
30
0
41
1
10
52.0547454542637
20
2.49667824497217
30
0
41
1
10
52.0489274198882
20
2.6366288668188
30
0
41
1
10
52.0416345182198
20
2.81053035435764
30
0
41
1
10
52.0401748834815
20
2.84525877209686
30
0
41
1
10
52.0372531799162
20
2.91461116777373
30
0
41
1
10
52.0357901409293
20
2.94925797859938
30
0
41
1
10
52.0314092326777
20
3.05274725397365
30
0
41
1
10
52.0284967240724
20
3.12120724669137
30
0
41
1
10
52.0139652528931
20
3.46087524988363
30
0
41
1
10
52.0024294236768
20
3.72421104490803
30
0
41
1
10
51.9792978288665
20
4.23451437659762
30
0
41
1
10
51.9677420623053
20
4.48148252656625
30
0
41
1
10
51.9503864309171
20
4.83954269975516
30
0
41
1
10
51.9445958003472
20
4.95682618176258
30
0
41
1
10
51.9358805027823
20
5.12958888088991
30
0
41
1
10
51.9329703920017
20
5.18664904969421
30
0
41
1
10
51.928593935021
20
5.27143807550715
30
0
41
1
10
51.9271338313248
20
5.29955548327885
30
0
41
1
10
51.9242181338635
20
5.35535053209395
30
0
41
1
10
51.9111104504327
20
5.60463288572313
30
0
41
1
10
51.8980439245767
20
5.8379476203678
30
0
41
1
10
51.8864765939565
20
6.03309136246534
30
0
0
SPLINE
5
18D
100
AcDbEntity
8
1
62
256
6
ByLayer
370
18
48
1
60
0
100
AcDbSpline
70
4
71
3
72
8
73
4
40
0
40
0
40
0
40
0
40
1
40
1
40
1
40
1
41
1
10
51.6835468467156
20
6.0700337355336
30
0
41
1
10
51.7511910357665
20
6.05777004903078
30
0
41
1
10
51.8188343092782
20
6.04545600356573
30
0
41
1
10
51.8864765939565
20
6.03309136246531
30
0
0
SPLINE
5
18E
100
AcDbEntity
8
1
62
256
6
ByLayer
370
18
48
1
60
0
100
AcDbSpline
70
4
71
3
72
28
73
24
40
0
40
0
40
0
40
0
40
0.125000000000001
40
0.125000000000001
40
0.250000000000001
40
0.250000000000001
40
0.375000000000001
40
0.375000000000001
40
0.406250000000002
40
0.406250000000002
40
0.437500000000002
40
0.500000000000002
40
0.500000000000002
40
0.625000000000002
40
0.625000000000002
40
0.750000000000002
40
0.750000000000002
40
0.781250000000002
40
0.781250000000002
40
0.812500000000001
40
0.875000000000001
40
0.875000000000001
40
1
40
1
40
1
40
1
41
1
10
51.6835468467156
20
6.07003373553357
30
0
41
1
10
51.6952683754397
20
5.87383444896099
30
0
41
1
10
51.7068985233301
20
5.66712894643473
30
0
41
1
10
51.7300190384925
20
5.23343437881996
30
0
41
1
10
51.7415095485711
20
5.00644310296687
30
0
41
1
10
51.7646136514532
20
4.53216572869749
30
0
41
1
10
51.7762586011217
20
4.2848830629589
30
0
41
1
10
51.7909214305138
20
3.96262450262125
30
0
41
1
10
51.7938504833535
20
3.89771020518248
30
0
41
1
10
51.7996890724363
20
3.76727223871825
30
0
41
1
10
51.8084245002387
20
3.57055547973346
30
0
41
1
10
51.8171014937697
20
3.37069635138948
30
0
41
1
10
51.8344193808016
20
2.966850773158
30
0
41
1
10
51.8459348562104
20
2.69212996142247
30
0
41
1
10
51.8691010403458
20
2.1317410666677
30
0
41
1
10
51.8807126140696
20
1.84607256363316
30
0
41
1
10
51.8953084307872
20
1.48191250277929
30
0
41
1
10
51.8982347684186
20
1.40866200620124
30
0
41
1
10
51.9040647347645
20
1.26233767579259
30
0
41
1
10
51.9127880686211
20
1.04281151196435
30
0
41
1
10
51.9214651804441
20
0.823168520980261
30
0
41
1
10
51.9388240390922
20
0.38373186465941
30
0
41
1
10
51.9504066269316
20
0.0905737865920742
30
0
41
1
10
51.9619806390667
20
-0.202784231066261
30
0
0
SPLINE
5
18F
100
AcDbEntity
8
1
62
256
6
ByLayer
370
18
48
1
60
0
100
AcDbSpline
70
4
71
3
72
35
73
31
40
0
40
0
40
0
40
0
40
0.125000000000001
40
0.125000000000001
40
0.140625000000001
40
0.140625000000001
40
0.15625
40
0.15625
40
0.1875
40
0.25
40
0.25
40
0.375
40
0.375
40
0.5
40
0.5
40
0.531250000000001
40
0.531250000000001
40
0.562500000000001
40
0.562500000000001
40
0.625000000000001
40
0.625000000000001
40
0.75
40
0.75
40
0.875
40
0.875
40
0.90625
40
0.90625
40
0.9375
40
0.9375
40
1
40
1
40
1
40
1
41
1
10
50.1427713308131
20
0.303413824166284
30
0
41
1
10
50.1312557541837
20
0.596144755796757
30
0
41
1
10
50.1196647660514
20
0.888919163038338
30
0
41
1
10
50.1065258133778
20
1.21834037323097
30
0
41
1
10
50.1050646580506
20
1.25494343082968
30
0
41
1
10
50.1021397107178
20
1.3281509539525
30
0
41
1
10
50.1006755432995
20
1.36476474105467
30
0
41
1
10
50.0962924572795
20
1.47426871201907
30
0
41
1
10
50.0875505463834
20
1.69225952834603
30
0
41
1
10
50.07887403392
20
1.90723825213365
30
0
41
1
10
50.0615699714494
20
2.33324750653961
30
0
41
1
10
50.0500916435056
20
2.61200052907395
30
0
41
1
10
50.0269853144539
20
3.15907250741307
30
0
41
1
10
50.015396784577
20
3.4273936007209
30
0
41
1
10
50.0008459066925
20
3.7560916446688
30
0
41
1
10
49.9979319096537
20
3.82149510420987
30
0
41
1
10
49.992093428464
20
3.95162102695423
30
0
41
1
10
49.9891789990252
20
4.0161186796536
30
0
41
1
10
49.980460441999
20
4.20758331445771
30
0
41
1
10
49.974674549323
20
4.3326763139905
30
0
41
1
10
49.9573373205816
20
4.70044768007483
30
0
41
1
10
49.9457820726538
20
4.93563941644842
30
0
41
1
10
49.9226925285602
20
5.38626677074848
30
0
41
1
10
49.9111654995764
20
5.60170331382741
30
0
41
1
10
49.8966743459573
20
5.85834363402233
30
0
41
1
10
49.8937714190658
20
5.90903711506675
30
0
41
1
10
49.8879511760172
20
6.00913967947497
30
0
41
1
10
49.8850313423294
20
6.05858834897435
30
0
41
1
10
49.8762945585842
20
6.20410587121688
30
0
41
1
10
49.8704796069235
20
6.29763343195401
30
0
41
1
10
49.8646758048359
20
6.38774869376445
30
0
0
SPLINE
5
190
100
AcDbEntity
8
1
62
256
6
ByLayer
370
18
48
1
60
0
100
AcDbSpline
70
4
71
3
72
8
73
4
40
0
40
0
40
0
40
0
40
1
40
1
40
1
40
1
41
1
10
49.6617456503094
20
6.42171568665273
30
0
41
1
10
49.7293894855409
20
6.41044255794259
30
0
41
1
10
49.7970328786193
20
6.39912023300451
30
0
41
1
10
49.8646758048359
20
6.38774869376445
30
0
0
SPLINE
5
191
100
AcDbEntity
8
1
62
256
6
ByLayer
370
18
48
1
60
0
100
AcDbSpline
70
4
71
3
72
10
73
6
40
0
40
0
40
0
40
0
40
0.5
40
0.5
40
1
40
1
40
1
40
1
41
1
10
63.6003358966629
20
3.28584139998182
30
0
41
1
10
63.5273200303286
20
3.24148636707002
30
0
41
1
10
63.4542927150005
20
3.19692005798694
30
0
41
1
10
63.3082127794908
20
3.10751804924405
30
0
41
1
10
63.2351600691293
20
3.0626549419139
30
0
41
1
10
63.1620923620706
20
3.01760776207402
30
0
0
SPLINE
5
192
100
AcDbEntity
8
1
62
256
6
ByLayer
370
13
48
1
60
0
100
AcDbSpline
70
4
71
3
72
12
73
8
40
0
40
0
40
0
40
0
40
0.176237703379504
40
0.439310021275354
40
0.702382339171204
40
0.965454657067055
40
1
40
1
40
1
40
1
41
1
10
63.4294217455529
20
-2.65439885978617
30
0
41
1
10
63.4137172395304
20
-2.33700607907417
30
0
41
1
10
63.3745704121394
20
-1.52170378183632
30
0
41
1
10
63.3119812695318
20
-0.15708437565101
30
0
41
1
10
63.24165430428
20
1.3838952818582
30
0
41
1
10
63.1916913380461
20
2.43086378181238
30
0
41
1
10
63.1651706903787
20
2.95696539300391
30
0
41
1
10
63.1620923620706
20
3.01760776207413
30
0
0
SPLINE
5
193
100
AcDbEntity
8
1
62
256
6
ByLayer
370
13
48
1
60
0
100
AcDbSpline
70
4
71
3
72
11
73
7
40
0
40
0
40
0
40
0
40
0.236204769860947
40
0.556652316307737
40
0.877099862754527
40
1
40
1
40
1
40
1
41
1
10
49.0091985565734
20
5.57370730230872
30
0
41
1
10
49.0300719360273
20
5.30040516513901
30
0
41
1
10
49.0792632152696
20
4.57166015582575
30
0
41
1
10
49.1567724088526
20
3.15924887328464
30
0
41
1
10
49.2242688790933
20
1.75164438332044
30
0
41
1
10
49.2634474468777
20
0.903201152439379
30
0
41
1
10
49.2743081134975
20
0.666839906237357
30
0
0
SPLINE
5
194
100
AcDbEntity
8
1
62
256
6
ByLayer
370
18
48
1
60
0
100
AcDbSpline
70
4
71
3
72
32
73
28
40
0
40
0
40
0
40
0
40
0.124999999999998
40
0.124999999999998
40
0.249999999999996
40
0.249999999999996
40
0.281249999999995
40
0.296874999999995
40
0.296874999999995
40
0.312499999999995
40
0.312499999999995
40
0.374999999999995
40
0.374999999999995
40
0.499999999999996
40
0.499999999999996
40
0.624999999999996
40
0.624999999999996
40
0.687499999999997
40
0.687499999999997
40
0.703124999999997
40
0.703124999999997
40
0.718749999999997
40
0.749999999999997
40
0.749999999999997
40
0.874999999999999
40
0.874999999999999
40
1
40
1
40
1
40
1
41
1
10
49.6617456503095
20
6.4217156866527
30
0
41
1
10
49.6733649661374
20
6.2428878951481
30
0
41
1
10
49.6848961921735
20
6.05227574835362
30
0
41
1
10
49.7079298399247
20
5.64782294542818
30
0
41
1
10
49.7194505423822
20
5.43398321550418
30
0
41
1
10
49.7340067673605
20
5.15185964966292
30
0
41
1
10
49.7383823762094
20
5.06610755715684
30
0
41
1
10
49.7427706080194
20
4.97866437226125
30
0
41
1
10
49.7456989538015
20
4.91999062132467
30
0
41
1
10
49.7471656425433
20
4.89044238205983
30
0
41
1
10
49.7544870058852
20
4.74214367500298
30
0
41
1
10
49.7603120720514
20
4.62158311028665
30
0
41
1
10
49.7777132572673
20
4.25426528509681
30
0
41
1
10
49.7892091064659
20
4.00188803118667
30
0
41
1
10
49.8122627483683
20
3.48240699402368
30
0
41
1
10
49.8238446294253
20
3.215304172956
30
0
41
1
10
49.8412805865781
20
2.8034049021185
30
0
41
1
10
49.8471039553221
20
2.66422688949223
30
0
41
1
10
49.8544074690313
20
2.48785301517421
30
0
41
1
10
49.8558692702843
20
2.45246165354632
30
0
41
1
10
49.8587866565695
20
2.38165928344779
30
0
41
1
10
49.8631568399869
20
2.27534386715249
30
0
41
1
10
49.8675113486197
20
2.16869513501433
30
0
41
1
10
49.8820022880284
20
1.81246709590477
30
0
41
1
10
49.8935397208232
20
1.52514884792208
30
0
41
1
10
49.9166778698369
20
0.945943785211909
30
0
41
1
10
49.9282401098637
20
0.654055394876991
30
0
41
1
10
49.9398299124671
20
0.359848339950247
30
0
0
SPLINE
5
195
100
AcDbEntity
8
1
62
256
6
ByLayer
370
18
48
1
60
0
100
AcDbSpline
70
4
71
3
72
10
73
6
40
0
40
0
40
0
40
0
40
0.5
40
0.5
40
1
40
1
40
1
40
1
41
1
10
49.6617456503091
20
6.42171568665279
30
0
41
1
10
49.5530364845059
20
6.28131805772884
30
0
41
1
10
49.4443048443722
20
6.14007422378799
30
0
41
1
10
49.2267921699663
20
5.85723188072998
30
0
41
1
10
49.1180109127257
20
5.71559872695465
30
0
41
1
10
49.0091985565734
20
5.57370730230872
30
0
0
SPLINE
5
196
100
AcDbEntity
8
1
62
256
6
ByLayer
370
18
48
1
60
0
100
AcDbSpline
70
4
71
3
72
31
73
27
40
0
40
0
40
0
40
0
40
0.125
40
0.125
40
0.25
40
0.25
40
0.3125
40
0.3125
40
0.34375
40
0.359375
40
0.359375
40
0.375
40
0.375
40
0.5
40
0.5
40
0.625
40
0.625
40
0.75
40
0.75
40
0.78125
40
0.78125
40
0.8125
40
0.8125
40
0.875
40
0.875
40
1
40
1
40
1
40
1
41
1
10
63.6003358966629
20
3.28584139998179
30
0
41
1
10
63.6119430242552
20
3.03231340716607
30
0
41
1
10
63.6233901564008
20
2.77436115265613
30
0
41
1
10
63.6461915490145
20
2.24999127109066
30
0
41
1
10
63.6575568371141
20
1.98358092758758
30
0
41
1
10
63.6747800231522
20
1.57765724499518
30
0
41
1
10
63.6805533950197
20
1.4412948619476
30
0
41
1
10
63.6892704241828
20
1.2351460218409
30
0
41
1
10
63.6936422837919
20
1.13167001733331
30
0
41
1
10
63.6980332307988
20
1.02758450665482
30
0
41
1
10
63.7009646698428
20
0.958057724615401
30
0
41
1
10
63.7024335389655
20
0.923200490139834
30
0
41
1
10
63.7156457953865
20
0.609478364292755
30
0
41
1
10
63.7273019681167
20
0.3313643528098
30
0
41
1
10
63.7503853238394
20
-0.22339839107218
30
0
41
1
10
63.7618222773052
20
-0.500044979340288
30
0
41
1
10
63.784763429341
20
-1.05187792840761
30
0
41
1
10
63.7962598130152
20
-1.3270649984683
30
0
41
1
10
63.8107724479417
20
-1.67010014657725
30
0
41
1
10
63.8136816072909
20
-1.73865001759938
30
0
41
1
10
63.8194863075991
20
-1.87495267253789
30
0
41
1
10
63.8223858931453
20
-1.94279336850283
30
0
41
1
10
63.8310713374454
20
-2.14538733475882
30
0
41
1
10
63.8368446189387
20
-2.27921397320421
30
0
41
1
10
63.8541622535136
20
-2.6770326114316
30
0
41
1
10
63.8657055309435
20
-2.93737854413385
30
0
41
1
10
63.8773620981068
20
-3.19280036956269
30
0
0
SPLINE
5
197
100
AcDbEntity
8
1
62
256
6
ByLayer
370
18
48
1
60
0
100
AcDbSpline
70
4
71
3
72
29
73
25
40
0
40
0
40
0
40
0
40
0.125000000000001
40
0.125000000000001
40
0.250000000000002
40
0.250000000000002
40
0.375000000000002
40
0.375000000000002
40
0.406250000000002
40
0.406250000000002
40
0.437500000000003
40
0.500000000000002
40
0.500000000000002
40
0.625000000000002
40
0.625000000000002
40
0.750000000000002
40
0.750000000000002
40
0.781250000000002
40
0.781250000000002
40
0.812500000000002
40
0.812500000000002
40
0.875000000000001
40
0.875000000000001
40
1
40
1
40
1
40
1
41
1
10
64.6206009586497
20
-3.25503413861949
30
0
41
1
10
64.6092744213031
20
-3.01002942664437
30
0
41
1
10
64.5979956440839
20
-2.76089716021858
30
0
41
1
10
64.5753265908936
20
-2.25467242355481
30
0
41
1
10
64.5639901480892
20
-1.9975657194642
30
0
41
1
10
64.541408973531
20
-1.47527770021418
30
0
41
1
10
64.5301058573295
20
-1.21012355879986
30
0
41
1
10
64.5157650352602
20
-0.873531638849158
30
0
41
1
10
64.5128865660186
20
-0.805909561904201
30
0
41
1
10
64.5071498864055
20
-0.670964529968614
30
0
41
1
10
64.498562806268
20
-0.468702453551344
30
0
41
1
10
64.4900401275138
20
-0.266901925758418
30
0
41
1
10
64.4731142910079
20
0.136089509032786
30
0
41
1
10
64.4620320941722
20
0.403937005191437
30
0
41
1
10
64.439728589853
20
0.938022818058272
30
0
41
1
10
64.4285272910078
20
1.20426255338924
30
0
41
1
10
64.4143403829288
20
1.53603277489034
30
0
41
1
10
64.4114936742917
20
1.60233515982219
30
0
41
1
10
64.4057782426194
20
1.73483519704638
30
0
41
1
10
64.4029181486884
20
1.8008324819948
30
0
41
1
10
64.3943341204819
20
1.99788597690588
30
0
41
1
10
64.3886013736345
20
2.12808537038094
30
0
41
1
10
64.3713527765484
20
2.51518767586853
30
0
41
1
10
64.3598089682484
20
2.76860557581574
30
0
41
1
10
64.3483467064426
20
3.01724182250453
30
0
0
SPLINE
5
198
100
AcDbEntity
8
1
62
256
6
ByLayer
370
18
48
1
60
0
100
AcDbSpline
70
4
71
3
72
8
73
4
40
0
40
0
40
0
40
0
40
1
40
1
40
1
40
1
41
1
10
64.3483467064426
20
3.01724182250453
30
0
41
1
10
64.0987370529067
20
3.10551906142547
30
0
41
1
10
63.8493664835236
20
3.19509444306121
30
0
41
1
10
63.6003358966629
20
3.28584139998179
30
0
0
SPLINE
5
199
100
AcDbEntity
8
1
62
256
6
ByLayer
370
18
48
1
60
0
100
AcDbSpline
70
4
71
3
72
8
73
4
40
0
40
0
40
0
40
0
40
1
40
1
40
1
40
1
41
1
10
63.8773620981068
20
-3.19280036956269
30
0
41
1
10
64.1249166720662
20
-3.21516070069089
30
0
41
1
10
64.3726591489219
20
-3.23589759608888
30
0
41
1
10
64.6206009586499
20
-3.25503413861947
30
0
0
SPLINE
5
19A
100
AcDbEntity
8
1
62
256
6
ByLayer
370
18
48
1
60
0
100
AcDbSpline
70
4
71
3
72
8
73
4
40
0
40
0
40
0
40
0
40
1
40
1
40
1
40
1
41
1
10
63.4294217455529
20
-2.65439885978617
30
0
41
1
10
63.5790630451099
20
-2.82923588015723
30
0
41
1
10
63.7283367672309
20
-3.00900360769475
30
0
41
1
10
63.8773620981068
20
-3.19280036956269
30
0
0
SPLINE
5
19B
100
AcDbEntity
8
1
62
256
6
ByLayer
370
18
48
1
60
0
100
AcDbSpline
70
4
71
3
72
34
73
30
40
0
40
0
40
0
40
0
40
0.125000000000129
40
0.125000000000129
40
0.18750000000017
40
0.18750000000017
40
0.250000000000211
40
0.250000000000211
40
0.281250000000202
40
0.281250000000202
40
0.312500000000193
40
0.312500000000193
40
0.375000000000176
40
0.437500000000159
40
0.437500000000159
40
0.500000000000141
40
0.500000000000141
40
0.562500000000124
40
0.562500000000124
40
0.625000000000106
40
0.625000000000106
40
0.750000000000071
40
0.750000000000071
40
0.812500000000053
40
0.812500000000053
40
0.875000000000036
40
0.937500000000018
40
0.937500000000018
40
1
40
1
40
1
40
1
41
1
10
62.9232374788171
20
-2.54191133104007
30
0
41
1
10
62.9363366595517
20
-2.5323867946278
30
0
41
1
10
62.9522367560868
20
-2.5247248069864
30
0
41
1
10
62.9801682462363
20
-2.51592169819733
30
0
41
1
10
62.9902023063159
20
-2.51344663890129
30
0
41
1
10
63.0110236900739
20
-2.50955921701251
30
0
41
1
10
63.0218818740562
20
-2.50812023275088
30
0
41
1
10
63.0388264950678
20
-2.50670396417243
30
0
41
1
10
63.0445846292896
20
-2.50635600957884
30
0
41
1
10
63.0563228405153
20
-2.50591106008534
30
0
41
1
10
63.0623218477425
20
-2.50581480203692
30
0
41
1
10
63.0804062139512
20
-2.50590667943547
30
0
41
1
10
63.1048673657623
20
-2.50702980776438
30
0
41
1
10
63.1299922212741
20
-2.51007033887407
30
0
41
1
10
63.1554494620226
20
-2.51407932051424
30
0
41
1
10
63.1682474007705
20
-2.51655840227798
30
0
41
1
10
63.1935080393659
20
-2.52233915314145
30
0
41
1
10
63.2060424876916
20
-2.52565176010208
30
0
41
1
10
63.2309213276648
20
-2.53311293508054
30
0
41
1
10
63.2433439524001
20
-2.53729210060567
30
0
41
1
10
63.279681511955
20
-2.55088874056747
30
0
41
1
10
63.3025718942143
20
-2.56127870307063
30
0
41
1
10
63.3349437084654
20
-2.57883282433042
30
0
41
1
10
63.3454238738366
20
-2.58503758534909
30
0
41
1
10
63.3651701709053
20
-2.59779708790035
30
0
41
1
10
63.383847519842
20
-2.6109787291953
30
0
41
1
10
63.4004038058515
20
-2.62500167393495
30
0
41
1
10
63.4158555405839
20
-2.63946358908271
30
0
41
1
10
63.4229882838281
20
-2.64688216966161
30
0
41
1
10
63.4294217455529
20
-2.65439885978637
30
0
0
SPLINE
5
19C
100
AcDbEntity
8
1
62
256
6
ByLayer
370
18
48
1
60
0
100
AcDbSpline
70
4
71
3
72
8
73
4
40
0
40
0
40
0
40
0
40
1
40
1
40
1
40
1
41
1
10
62.2758027228365
20
-2.99999724390577
30
0
41
1
10
62.4918997888787
20
-2.85235584995925
30
0
41
1
10
62.7077154201313
20
-2.69861942883608
30
0
41
1
10
62.923237478817
20
-2.54191133104007
30
0
0
SPLINE
5
19D
100
AcDbEntity
8
1
62
256
6
ByLayer
370
18
48
1
60
0
100
AcDbSpline
70
4
71
3
72
8
73
4
40
0
40
0
40
0
40
0
40
1
40
1
40
1
40
1
41
1
10
62.2758027228365
20
-2.99999724390582
30
0
41
1
10
62.2081317277677
20
-2.98250281228786
30
0
41
1
10
62.1404606363775
20
-2.96498405317087
30
0
41
1
10
62.07278932631
20
-2.94744137618181
30
0
0
SPLINE
5
19E
100
AcDbEntity
8
1
62
256
6
ByLayer
370
18
48
1
60
0
100
AcDbSpline
70
4
71
3
72
8
73
4
40
0
40
0
40
0
40
0
40
1
40
1
40
1
40
1
41
1
10
61.4072721067326
20
-2.20068005406966
30
0
41
1
10
61.6297929231805
20
-2.43912995366574
30
0
41
1
10
61.8515023780184
20
-2.68906311717177
30
0
41
1
10
62.07278932631
20
-2.94744137618181
30
0
0
SPLINE
5
19F
100
AcDbEntity
8
1
62
256
6
ByLayer
370
18
48
1
60
0
100
AcDbSpline
70
4
71
3
72
34
73
30
40
0
40
0
40
0
40
0
40
0.125000000000167
40
0.125000000000167
40
0.187500000000252
40
0.187500000000252
40
0.250000000000337
40
0.250000000000337
40
0.281250000000351
40
0.281250000000351
40
0.312500000000366
40
0.312500000000366
40
0.375000000000332
40
0.437500000000298
40
0.437500000000298
40
0.500000000000265
40
0.500000000000265
40
0.562500000000231
40
0.562500000000231
40
0.625000000000197
40
0.625000000000197
40
0.75000000000013
40
0.75000000000013
40
0.812500000000098
40
0.812500000000098
40
0.875000000000065
40
0.937500000000033
40
0.937500000000033
40
1
40
1
40
1
40
1
41
1
10
60.901086697493
20
-2.08531220156536
30
0
41
1
10
60.9141865092277
20
-2.07726041012103
30
0
41
1
10
60.9300870695261
20
-2.07094630850943
30
0
41
1
10
60.9580186133427
20
-2.06398197617051
30
0
41
1
10
60.9680526246335
20
-2.06208940972155
30
0
41
1
10
60.9888737460397
20
-2.05926867830166
30
0
41
1
10
60.9997317007921
20
-2.05831904743025
30
0
41
1
10
61.0166758118192
20
-2.05757212622913
30
0
41
1
10
61.0224337482747
20
-2.05743647084151
30
0
41
1
10
61.0341715039142
20
-2.05739427317718
30
0
41
1
10
61.0401702739188
20
-2.05748895171311
30
0
41
1
10
61.0582540159709
20
-2.05811310328855
30
0
41
1
10
61.0827143161613
20
-2.05984308261713
30
0
41
1
10
61.1078380394134
20
-2.0632937211704
30
0
41
1
10
61.133294135936
20
-2.06761436270506
30
0
41
1
10
61.1460919020998
20
-2.07019824965664
30
0
41
1
10
61.1713520056034
20
-2.07608723557874
30
0
41
1
10
61.1838862048077
20
-2.07940420565004
30
0
41
1
10
61.2087645818571
20
-2.08677644042632
30
0
41
1
10
61.2211869099043
20
-2.09086120007149
30
0
41
1
10
61.2575253253248
20
-2.10403251170044
30
0
41
1
10
61.2804162460819
20
-2.11395541897997
30
0
41
1
10
61.3127887817846
20
-2.13054123124002
30
0
41
1
10
61.3232696365453
20
-2.13637660434338
30
0
41
1
10
61.3430172815822
20
-2.14832578970336
30
0
41
1
10
61.3616956113865
20
-2.16062183620616
30
0
41
1
10
61.3782527628721
20
-2.1736099400153
30
0
41
1
10
61.3937050296994
20
-2.18695948547241
30
0
41
1
10
61.400838341103
20
-2.19378572933707
30
0
41
1
10
61.4072721067326
20
-2.20068005406986
30
0
0
SPLINE
5
1A0
100
AcDbEntity
8
1
62
256
6
ByLayer
370
18
48
1
60
0
100
AcDbSpline
70
4
71
3
72
8
73
4
40
0
40
0
40
0
40
0
40
1
40
1
40
1
40
1
41
1
10
60.2535814447858
20
-2.47041773083674
30
0
41
1
10
60.4696987917754
20
-2.34722725405473
30
0
41
1
10
60.6855387707905
20
-2.21779860573713
30
0
41
1
10
60.901086697493
20
-2.08531220156533
30
0
0
SPLINE
5
1A1
100
AcDbEntity
8
1
62
256
6
ByLayer
370
18
48
1
60
0
100
AcDbSpline
70
4
71
3
72
8
73
4
40
0
40
0
40
0
40
0
40
1
40
1
40
1
40
1
41
1
10
60.2535814447856
20
-2.47041773083862
30
0
41
1
10
60.185930173871
20
-2.4524889067072
30
0
41
1
10
60.1182787831416
20
-2.43454017596571
30
0
41
1
10
60.0506271642677
20
-2.41657191078778
30
0
0
SPLINE
5
1A2
100
AcDbEntity
8
1
62
256
6
ByLayer
370
18
48
1
60
0
100
AcDbSpline
70
4
71
3
72
8
73
4
40
0
40
0
40
0
40
0
40
1
40
1
40
1
40
1
41
1
10
59.3851105177681
20
-1.73606270213932
30
0
41
1
10
59.6076249936913
20
-1.9519846050664
30
0
41
1
10
59.8293327734625
20
-2.17986438130544
30
0
41
1
10
60.0506271642677
20
-2.41657191078778
30
0
0
SPLINE
5
1A3
100
AcDbEntity
8
1
62
256
6
ByLayer
370
18
48
1
60
0
100
AcDbSpline
70
4
71
3
72
34
73
30
40
0
40
0
40
0
40
0
40
0.125000000000019
40
0.125000000000019
40
0.187500000000028
40
0.187500000000028
40
0.250000000000037
40
0.250000000000037
40
0.281250000000041
40
0.281250000000041
40
0.312500000000045
40
0.312500000000045
40
0.37500000000005
40
0.437500000000056
40
0.437500000000056
40
0.500000000000062
40
0.500000000000062
40
0.562500000000067
40
0.562500000000067
40
0.625000000000073
40
0.625000000000073
40
0.750000000000085
40
0.750000000000085
40
0.812500000000064
40
0.812500000000064
40
0.875000000000043
40
0.937500000000021
40
0.937500000000021
40
1
40
1
40
1
40
1
41
1
10
58.8789185871201
20
-1.61827232910301
30
0
41
1
10
58.8920190576226
20
-1.6117240625974
30
0
41
1
10
58.9079205741234
20
-1.60678172995824
30
0
41
1
10
58.9358539104661
20
-1.60168252618646
30
0
41
1
10
58.9458884669793
20
-1.60037964796479
30
0
41
1
10
58.9667106067963
20
-1.59863640707414
30
0
41
1
10
58.9775690729952
20
-1.59817981184588
30
0
41
1
10
58.9945139491058
20
-1.59810527056703
30
0
41
1
10
59.0002721402838
20
-1.59818250853036
30
0
41
1
10
59.0120104042907
20
-1.59854341358113
30
0
41
1
10
59.0180093587739
20
-1.59882878058335
30
0
41
1
10
59.0360933684701
20
-1.5999831801918
30
0
41
1
10
59.0605539425006
20
-1.6023136707617
30
0
41
1
10
59.0856780501716
20
-1.60616228367385
30
0
41
1
10
59.1111344688391
20
-1.61077890682225
30
0
41
1
10
59.12393179757
20
-1.6134579737124
30
0
41
1
10
59.1491915190221
20
-1.61943323028095
30
0
41
1
10
59.1617255721188
20
-1.62274213439332
30
0
41
1
10
59.1866037490573
20
-1.62999766953521
30
0
41
1
10
59.1990260745176
20
-1.63397264517246
30
0
41
1
10
59.2353634409745
20
-1.64666766341872
30
0
41
1
10
59.2582540520948
20
-1.65608481707844
30
0
41
1
10
59.2906265486288
20
-1.67163707656835
30
0
41
1
10
59.301107287415
20
-1.67707966880494
30
0
41
1
10
59.3208547911291
20
-1.68817026633664
30
0
41
1
10
59.339533145758
20
-1.69953084128062
30
0
41
1
10
59.3560905571372
20
-1.71143125293295
30
0
41
1
10
59.3715431573008
20
-1.72361391021559
30
0
41
1
10
59.3786765949873
20
-1.7298194011392
30
0
41
1
10
59.3851105177681
20
-1.73606270213952
30
0
0
SPLINE
5
1A4
100
AcDbEntity
8
1
62
256
6
ByLayer
370
18
48
1
60
0
100
AcDbSpline
70
4
71
3
72
8
73
4
40
0
40
0
40
0
40
0
40
1
40
1
40
1
40
1
41
1
10
58.2313900932251
20
-1.92898022747102
30
0
41
1
10
58.4475151625905
20
-1.83068560289303
30
0
41
1
10
58.6633618082919
20
-1.7260183245298
30
0
41
1
10
58.8789185871201
20
-1.61827232910301
30
0
0
SPLINE
5
1A5
100
AcDbEntity
8
1
62
256
6
ByLayer
370
18
48
1
60
0
100
AcDbSpline
70
4
71
3
72
8
73
4
40
0
40
0
40
0
40
0
40
1
40
1
40
1
40
1
41
1
10
58.231390093225
20
-1.92898022747266
30
0
41
1
10
58.1637376083731
20
-1.91069522064962
30
0
41
1
10
58.0960850992081
20
-1.89239438647101
30
0
41
1
10
58.0284324558223
20
-1.87407810796088
30
0
0
SPLINE
5
1A6
100
AcDbEntity
8
1
62
256
6
ByLayer
370
18
48
1
60
0
100
AcDbSpline
70
4
71
3
72
8
73
4
40
0
40
0
40
0
40
0
40
1
40
1
40
1
40
1
41
1
10
57.3629358384547
20
-1.26276610821009
30
0
41
1
10
57.5854393584966
20
-1.4551877987889
30
0
41
1
10
57.8071371004287
20
-1.66004012284151
30
0
41
1
10
58.0284324558223
20
-1.87407810796086
30
0
0
SPLINE
5
1A7
100
AcDbEntity
8
1
62
256
6
ByLayer
370
18
48
1
60
0
100
AcDbSpline
70
4
71
3
72
34
73
30
40
0
40
0
40
0
40
0
40
0.125000000000074
40
0.125000000000074
40
0.187500000000133
40
0.187500000000133
40
0.250000000000192
40
0.250000000000192
40
0.28125000000022
40
0.28125000000022
40
0.312500000000249
40
0.312500000000249
40
0.375000000000243
40
0.437500000000237
40
0.437500000000237
40
0.500000000000231
40
0.500000000000231
40
0.562500000000225
40
0.562500000000225
40
0.62500000000022
40
0.62500000000022
40
0.750000000000146
40
0.750000000000146
40
0.81250000000011
40
0.81250000000011
40
0.875000000000073
40
0.937500000000037
40
0.937500000000037
40
1
40
1
40
1
40
1
41
1
10
56.8567429579258
20
-1.14322294713372
30
0
41
1
10
56.8698432820171
20
-1.13820333669926
30
0
41
1
10
56.8857450071237
20
-1.13464945272264
30
0
41
1
10
56.9136796178723
20
-1.13142843661222
30
0
41
1
10
56.9237146246629
20
-1.13071752998587
30
0
41
1
10
56.9445377881182
20
-1.13005221960322
30
0
41
1
10
56.9553968751759
20
-1.13008686677964
30
0
41
1
10
56.9723428688637
20
-1.13067910654061
30
0
41
1
10
56.9781014637303
20
-1.1309668850665
30
0
41
1
10
56.9898406029872
20
-1.13172521352928
30
0
41
1
10
56.9958399501216
20
-1.13219792330653
30
0
41
1
10
57.0139248213625
20
-1.13387119745985
30
0
41
1
10
57.0383866363494
20
-1.13678365745258
30
0
41
1
10
57.0635121756037
20
-1.14100474968438
30
0
41
1
10
57.0889701299267
20
-1.14588870839526
30
0
41
1
10
57.1017673166047
20
-1.14864698964814
30
0
41
1
10
57.1270273577752
20
-1.15467421138948
30
0
41
1
10
57.1395615870156
20
-1.15795660936095
30
0
41
1
10
57.1644401428431
20
-1.16505604083838
30
0
41
1
10
57.1768628033348
20
-1.16890015226528
30
0
41
1
10
57.2131983720912
20
-1.18105236007244
30
0
41
1
10
57.2360880593791
20
-1.18991605132311
30
0
41
1
10
57.2684594440781
20
-1.20435818619581
30
0
41
1
10
57.2789391881182
20
-1.20938132862855
30
0
41
1
10
57.298684764994
20
-1.21955955800476
30
0
41
1
10
57.317361528954
20
-1.22993023206112
30
0
41
1
10
57.3339179111202
20
-1.24068719424875
30
0
41
1
10
57.3493697263436
20
-1.25164648879564
30
0
41
1
10
57.3565023682663
20
-1.25720242450004
30
0
41
1
10
57.3629358384547
20
-1.26276610821029
30
0
0
SPLINE
5
1A8
100
AcDbEntity
8
1
62
256
6
ByLayer
370
18
48
1
60
0
100
AcDbSpline
70
4
71
3
72
8
73
4
40
0
40
0
40
0
40
0
40
1
40
1
40
1
40
1
41
1
10
56.2092174667049
20
-1.37815506192661
30
0
41
1
10
56.4253451805217
20
-1.30525336924472
30
0
41
1
10
56.6411908802542
20
-1.22581536627629
30
0
41
1
10
56.8567429579258
20
-1.14322294713372
30
0
0
SPLINE
5
1A9
100
AcDbEntity
8
1
62
256
6
ByLayer
370
18
48
1
60
0
100
AcDbSpline
70
4
71
3
72
8
73
4
40
0
40
0
40
0
40
0
40
1
40
1
40
1
40
1
41
1
10
56.2092174667046
20
-1.378155061928
30
0
41
1
10
56.1415584292623
20
-1.35959760048729
30
0
41
1
10
56.0738993381823
20
-1.34102889165109
30
0
41
1
10
56.0062400681573
20
-1.32244937919714
30
0
0
SPLINE
5
1AA
100
AcDbEntity
8
1
62
256
6
ByLayer
370
18
48
1
60
0
100
AcDbSpline
70
4
71
3
72
8
73
4
40
0
40
0
40
0
40
0
40
1
40
1
40
1
40
1
41
1
10
55.3407717633315
20
-0.783563708842024
30
0
41
1
10
55.5632631413388
20
-0.951410175261515
30
0
41
1
10
55.7849482412175
20
-1.13215125595667
30
0
41
1
10
56.0062400681573
20
-1.32244937919714
30
0
0
SPLINE
5
1AB
100
AcDbEntity
8
1
62
256
6
ByLayer
370
18
48
1
60
0
100
AcDbSpline
70
4
71
3
72
34
73
30
40
0
40
0
40
0
40
0
40
0.124999999999936
40
0.124999999999936
40
0.187499999999905
40
0.187499999999905
40
0.249999999999874
40
0.249999999999874
40
0.28124999999986
40
0.28124999999986
40
0.312499999999846
40
0.312499999999846
40
0.374999999999876
40
0.437499999999908
40
0.437499999999908
40
0.499999999999938
40
0.499999999999938
40
0.562499999999969
40
0.562499999999969
40
0.625
40
0.625
40
0.75
40
0.75
40
0.8125
40
0.8125
40
0.875
40
0.9375
40
0.9375
40
1
40
1
40
1
40
1
41
1
10
54.8345844999695
20
-0.662996659125525
30
0
41
1
10
54.8476839972133
20
-0.659534255054012
30
0
41
1
10
54.8635846846885
20
-0.657388308154282
30
0
41
1
10
54.8915176966935
20
-0.656061452978747
30
0
41
1
10
54.9015522379141
20
-0.655945535332648
30
0
41
1
10
54.9223746012178
20
-0.656359548039632
30
0
41
1
10
54.9332333286524
20
-0.656883870717593
30
0
41
1
10
54.9501788618301
20
-0.658137218997126
30
0
41
1
10
54.9559373163553
20
-0.658633091595846
30
0
41
1
10
54.9676762046378
20
-0.65978282820106
30
0
41
1
10
54.9736754894683
20
-0.660439303437869
30
0
41
1
10
54.991760378052
20
-0.662619253624257
30
0
41
1
10
55.016222289106
20
-0.666093373927197
30
0
41
1
10
55.0413480604209
20
-0.670658924630857
30
0
41
1
10
55.0668063123157
20
-0.67577832199197
30
0
41
1
10
55.0796039928632
20
-0.678598298567437
30
0
41
1
10
55.1048647101406
20
-0.684639502705409
30
0
41
1
10
55.1173992435305
20
-0.687874911242005
30
0
41
1
10
55.1422783349037
20
-0.694774327839781
30
0
41
1
10
55.1547012240832
20
-0.698463921278574
30
0
41
1
10
55.1910375896657
20
-0.710000246160575
30
0
41
1
10
55.213927470327
20
-0.718257850369667
30
0
41
1
10
55.2462987393908
20
-0.731505064518217
30
0
41
1
10
55.256778309757
20
-0.736079722437125
30
0
41
1
10
55.2765234233616
20
-0.74528718529109
30
0
41
1
10
55.2951997831535
20
-0.754608682028675
30
0
41
1
10
55.3117553687859
20
-0.764161204434288
30
0
41
1
10
55.3272065175231
20
-0.773835186574985
30
0
41
1
10
55.3343386770324
20
-0.77871061829498
30
0
41
1
10
55.3407717633315
20
-0.783563708842252
30
0
0
SPLINE
5
1AC
100
AcDbEntity
8
1
62
256
6
ByLayer
370
18
48
1
60
0
100
AcDbSpline
70
4
71
3
72
8
73
4
40
0
40
0
40
0
40
0
40
1
40
1
40
1
40
1
41
1
10
54.1870738450291
20
-0.820650851594735
30
0
41
1
10
54.4032004022909
20
-0.773662890497206
30
0
41
1
10
54.6190422451549
20
-0.719967882277246
30
0
41
1
10
54.8345844999695
20
-0.662996659125525
30
0
0
SPLINE
5
1AD
100
AcDbEntity
8
1
62
256
6
ByLayer
370
18
48
1
60
0
100
AcDbSpline
70
4
71
3
72
8
73
4
40
0
40
0
40
0
40
0
40
1
40
1
40
1
40
1
41
1
10
54.1870738450289
20
-0.820650851595758
30
0
41
1
10
54.1194169827927
20
-0.80191736688738
30
0
41
1
10
54.0517600304678
20
-0.783177306353963
30
0
41
1
10
53.9841028694873
20
-0.764431094169964
30
0
0
SPLINE
5
1AE
100
AcDbEntity
8
1
62
256
6
ByLayer
370
18
48
1
60
0
100
AcDbSpline
70
4
71
3
72
8
73
4
40
0
40
0
40
0
40
0
40
1
40
1
40
1
40
1
41
1
10
53.3186361828105
20
-0.301171115598464
30
0
41
1
10
53.5411222380053
20
-0.443459102436606
30
0
41
1
10
53.762815186607
20
-0.598989504293854
30
0
41
1
10
53.9841028694873
20
-0.764431094169964
30
0
0
SPLINE
5
1AF
100
AcDbEntity
8
1
62
256
6
ByLayer
370
18
48
1
60
0
100
AcDbSpline
70
4
71
3
72
34
73
30
40
0
40
0
40
0
40
0
40
0.125000000000035
40
0.125000000000035
40
0.187500000000076
40
0.187500000000076
40
0.250000000000117
40
0.250000000000117
40
0.281250000000108
40
0.281250000000108
40
0.312500000000098
40
0.312500000000098
40
0.375000000000079
40
0.43750000000006
40
0.43750000000006
40
0.500000000000041
40
0.500000000000041
40
0.562500000000023
40
0.562500000000023
40
0.625000000000004
40
0.625000000000004
40
0.749999999999966
40
0.749999999999966
40
0.812499999999974
40
0.812499999999974
40
0.874999999999983
40
0.937499999999991
40
0.937499999999991
40
1
40
1
40
1
40
1
41
1
10
52.8124498186284
20
-0.180059526946536
30
0
41
1
10
52.8255494133832
20
-0.178184768542224
30
0
41
1
10
52.8414496117554
20
-0.177471203418293
30
0
41
1
10
52.8693804088122
20
-0.178066058445239
30
0
41
1
10
52.879414157945
20
-0.178552752477799
30
0
41
1
10
52.900234747047
20
-0.180057636583285
30
0
41
1
10
52.911092421786
20
-0.181075638778452
30
0
41
1
10
52.9280361008992
20
-0.182993384526696
30
0
41
1
10
52.9337938913946
20
-0.183697993145671
30
0
41
1
10
52.9455313525851
20
-0.185239483121421
30
0
41
1
10
52.9515299862832
20
-0.186079433756845
30
0
41
1
10
52.9696134017486
20
-0.188763845013881
30
0
41
1
10
52.9940732575308
20
-0.192792970324234
30
0
41
1
10
53.0191968048163
20
-0.197689009359209
30
0
41
1
10
53.0446527447122
20
-0.203026082168492
30
0
41
1
10
53.0574506645584
20
-0.205897272323625
30
0
41
1
10
53.0827110294103
20
-0.211928214755574
30
0
41
1
10
53.0952453955295
20
-0.215102887151119
30
0
41
1
10
53.1201241681519
20
-0.221771551688335
30
0
41
1
10
53.1325467056078
20
-0.225289443884321
30
0
41
1
10
53.1688863527578
20
-0.236155535141876
30
0
41
1
10
53.191778010143
20
-0.243765789469421
30
0
41
1
10
53.2241514236064
20
-0.255748869207053
30
0
41
1
10
53.2346326455973
20
-0.25985107969538
30
0
41
1
10
53.2543808926767
20
-0.2680388284044
30
0
41
1
10
53.2730596597671
20
-0.276260709553668
30
0
41
1
10
53.2896169485336
20
-0.284555335295465
30
0
41
1
10
53.305069221853
20
-0.29288910765905
30
0
41
1
10
53.3122025009651
20
-0.297056540251731
30
0
41
1
10
53.3186361828106
20
-0.301171115598663
30
0
0
SPLINE
5
1B0
100
AcDbEntity
8
1
62
256
6
ByLayer
370
18
48
1
60
0
100
AcDbSpline
70
4
71
3
72
8
73
4
40
0
40
0
40
0
40
0
40
1
40
1
40
1
40
1
41
1
10
52.164942719512
20
-0.259244523927947
30
0
41
1
10
52.3810646778478
20
-0.238428549268633
30
0
41
1
10
52.5969063448154
20
-0.2109071941141
30
0
41
1
10
52.8124498186284
20
-0.180059526946536
30
0
0
SPLINE
5
1B1
100
AcDbEntity
8
1
62
256
6
ByLayer
370
18
48
1
60
0
100
AcDbSpline
70
4
71
3
72
8
73
4
40
0
40
0
40
0
40
0
40
1
40
1
40
1
40
1
41
1
10
52.1649427195119
20
-0.259244523928629
30
0
41
1
10
52.097288792764
20
-0.24042639478688
30
0
41
1
10
52.0296348036285
20
-0.221606161821143
30
0
41
1
10
51.9619806390668
20
-0.202784231066289
30
0
0
SPLINE
5
1B2
100
AcDbEntity
8
1
62
256
6
ByLayer
370
18
48
1
60
0
100
AcDbSpline
70
4
71
3
72
8
73
4
40
0
40
0
40
0
40
0
40
1
40
1
40
1
40
1
41
1
10
51.2964828947729
20
0.183058130060744
30
0
41
1
10
51.5189736536998
20
0.0667633100086675
30
0
41
1
10
51.7406763085149
20
-0.062969570382819
30
0
41
1
10
51.9619806390667
20
-0.202784231066289
30
0
0
SPLINE
5
1B3
100
AcDbEntity
8
1
62
256
6
ByLayer
370
18
48
1
60
0
100
AcDbSpline
70
4
71
3
72
34
73
30
40
0
40
0
40
0
40
0
40
0.124999999999979
40
0.124999999999979
40
0.187499999999994
40
0.187499999999994
40
0.250000000000008
40
0.250000000000008
40
0.281250000000016
40
0.281250000000016
40
0.312500000000023
40
0.312500000000023
40
0.375000000000038
40
0.437500000000052
40
0.437500000000052
40
0.500000000000067
40
0.500000000000067
40
0.562500000000082
40
0.562500000000082
40
0.625000000000096
40
0.625000000000096
40
0.750000000000063
40
0.750000000000063
40
0.812500000000047
40
0.812500000000047
40
0.875000000000031
40
0.937500000000016
40
0.937500000000016
40
1
40
1
40
1
40
1
41
1
10
50.7902890578236
20
0.304323188983886
30
0
41
1
10
50.8033895493305
20
0.304610407085647
30
0
41
1
10
50.819290831732
20
0.303895123357023
30
0
41
1
10
50.8472231948742
20
0.301387786522753
30
0
41
1
10
50.8572573887666
20
0.300302255351994
30
0
41
1
10
50.8780787067197
20
0.297715117372434
30
0
41
1
10
50.8889366879221
20
0.296208293115825
30
0
41
1
10
50.9058807167166
20
0.29363419004963
30
0
41
1
10
50.9116386054154
20
0.292723651808018
30
0
41
1
10
50.9233762218541
20
0.290796270044979
30
0
41
1
10
50.9293748686568
20
0.289775927339008
30
0
41
1
10
50.9474581359715
20
0.286596661281209
30
0
41
1
10
50.9719177103671
20
0.282026107434234
30
0
41
1
10
50.9970408217182
20
0.276814634272114
30
0
41
1
10
51.0224962520973
20
0.271275724697432
30
0
41
1
10
51.0352936554846
20
0.268361940833842
30
0
41
1
10
51.0605532774783
20
0.262358776589849
30
0
41
1
10
51.0730873175307
20
0.259253881849162
30
0
41
1
10
51.0979655351887
20
0.252834706607132
30
0
41
1
10
51.1103878298153
20
0.249498203000798
30
0
41
1
10
51.1467270313974
20
0.239333483074148
30
0
41
1
10
51.1696187554205
20
0.232392100946441
30
0
41
1
10
51.201992691114
20
0.221707157384515
30
0
41
1
10
51.2124743284213
20
0.218089429929734
30
0
41
1
10
51.232223513466
20
0.21094568690296
30
0
41
1
10
51.2509032527155
20
0.203847893612817
30
0
41
1
10
51.267461517586
20
0.196836039760598
30
0
41
1
10
51.2829147322003
20
0.189867633910183
30
0
41
1
10
51.2900486897595
20
0.186421257220672
30
0
41
1
10
51.296482894773
20
0.183058130060544
30
0
0
SPLINE
5
1B4
100
AcDbEntity
8
1
62
256
6
ByLayer
370
18
48
1
60
0
100
AcDbSpline
70
4
71
3
72
8
73
4
40
0
40
0
40
0
40
0
40
1
40
1
40
1
40
1
41
1
10
50.1427713308151
20
0.30341382416637
30
0
41
1
10
50.3588954675357
20
0.298154012346259
30
0
41
1
10
50.5747397540714
20
0.29959743790576
30
0
41
1
10
50.7902890578236
20
0.304323188983886
30
0
0
SPLINE
5
1B5
100
AcDbEntity
8
1
62
256
6
ByLayer
370
18
48
1
60
0
100
AcDbSpline
70
4
71
3
72
8
73
4
40
0
40
0
40
0
40
0
40
1
40
1
40
1
40
1
41
1
10
50.142771330815
20
0.303413824165915
30
0
41
1
10
50.0751242510223
20
0.322227794398771
30
0
41
1
10
50.0074771502347
20
0.341039438509057
30
0
41
1
10
49.9398299124671
20
0.359848339950247
30
0
0
SPLINE
5
1B6
100
AcDbEntity
8
1
62
256
6
ByLayer
370
18
48
1
60
0
100
AcDbSpline
70
4
71
3
72
8
73
4
40
0
40
0
40
0
40
0
40
1
40
1
40
1
40
1
41
1
10
49.2743081134975
20
0.666839906237357
30
0
41
1
10
49.4968055579666
20
0.577022827214392
30
0
41
1
10
49.7185134509258
20
0.473555855769433
30
0
41
1
10
49.9398299124671
20
0.359848339950247
30
0
0
SPLINE
5
1B7
100
AcDbEntity
8
1
62
256
6
ByLayer
370
18
48
1
60
0
100
AcDbSpline
70
4
71
3
72
34
73
30
40
0
40
0
40
0
40
0
40
0.124999999999926
40
0.124999999999926
40
0.187499999999867
40
0.187499999999867
40
0.249999999999807
40
0.249999999999807
40
0.281249999999808
40
0.281249999999808
40
0.312499999999808
40
0.312499999999808
40
0.374999999999809
40
0.437499999999809
40
0.437499999999809
40
0.49999999999981
40
0.49999999999981
40
0.562499999999811
40
0.562499999999811
40
0.624999999999811
40
0.624999999999811
40
0.749999999999874
40
0.749999999999874
40
0.812499999999906
40
0.812499999999906
40
0.874999999999937
40
0.937499999999969
40
0.937499999999969
40
1
40
1
40
1
40
1
41
1
10
48.7681137638636
20
0.787523849365158
30
0
41
1
10
48.7812141542302
20
0.786230874178898
30
0
41
1
10
48.7971156360287
20
0.784099785345433
30
0
41
1
10
48.8250490732925
20
0.77970739485977
30
0
41
1
10
48.8350836464599
20
0.778033563146607
30
0
41
1
10
48.8559058138799
20
0.77438721691081
30
0
41
1
10
48.8667643039571
20
0.772404140624104
30
0
41
1
10
48.8837092387732
20
0.769194032929079
30
0
41
1
10
48.8894674533611
20
0.768084599734124
30
0
41
1
10
48.9012057735323
20
0.765785893674831
30
0
41
1
10
48.9072047355995
20
0.764592723052402
30
0
41
1
10
48.9252886919939
20
0.760941767288301
30
0
41
1
10
48.9497492505538
20
0.755861978658146
30
0
41
1
10
48.9748734815739
20
0.750369681889453
30
0
41
1
10
49.0003301060589
20
0.7446647167001
30
0
41
1
10
49.0131273760957
20
0.741726806250796
30
0
41
1
10
49.038387207408
20
0.735788494552907
30
0
41
1
10
49.05092136254
20
0.732772116563893
30
0
41
1
10
49.0757998269874
20
0.726640281071411
30
0
41
1
10
49.0882223607063
20
0.723504367561901
30
0
41
1
10
49.124560037075
20
0.714098805171801
30
0
41
1
10
49.1474509640558
20
0.707864048135576
30
0
41
1
10
49.179823933374
20
0.698532733155275
30
0
41
1
10
49.1903047581198
20
0.695418059526872
30
0
41
1
10
49.2100523752894
20
0.689354197294222
30
0
41
1
10
49.2287308251718
20
0.683415233262053
30
0
41
1
10
49.2452882727735
20
0.677718684936423
30
0
41
1
10
49.2607408794886
20
0.672147056802174
30
0
41
1
10
49.2678742294521
20
0.669437116614631
30
0
41
1
10
49.2743081134975
20
0.666839906237186
30
0
0
SPLINE
5
1B8
100
AcDbEntity
8
1
62
256
6
ByLayer
370
18
48
1
60
0
100
AcDbSpline
70
4
71
3
72
8
73
4
40
0
40
0
40
0
40
0
40
1
40
1
40
1
40
1
41
1
10
48.1205694574446
20
0.864688101000837
30
0
41
1
10
48.3367059518594
20
0.833370560160972
30
0
41
1
10
48.5525591802055
20
0.80879853814568
30
0
41
1
10
48.7681137638636
20
0.787523849365158
30
0
0
SPLINE
5
1B9
100
AcDbEntity
8
1
62
256
6
ByLayer
370
18
48
1
60
0
100
AcDbSpline
70
4
71
3
72
8
73
4
40
0
40
0
40
0
40
0
40
1
40
1
40
1
40
1
41
1
10
48.1205694574444
20
0.86468810100061
30
0
41
1
10
48.0529267496779
20
0.883409722506428
30
0
41
1
10
47.9852840177988
20
0.902124524885551
30
0
41
1
10
47.9176411402994
20
0.920832073766093
30
0
0
SPLINE
5
1BA
100
AcDbEntity
8
1
62
256
6
ByLayer
370
18
48
1
60
0
100
AcDbSpline
70
4
71
3
72
8
73
4
40
0
40
0
40
0
40
0
40
1
40
1
40
1
40
1
41
1
10
47.2521412784
20
1.14720338073553
30
0
41
1
10
47.4746338202754
20
1.08445320299813
30
0
41
1
10
47.6963321557126
20
1.00785388422727
30
0
41
1
10
47.9176411402995
20
0.920832073766093
30
0
0
SPLINE
5
1BB
100
AcDbEntity
8
1
62
256
6
ByLayer
370
18
48
1
60
0
100
AcDbSpline
70
4
71
3
72
22
73
18
40
0
40
0
40
0
40
0
40
0.249999999999878
40
0.249999999999878
40
0.312499999999877
40
0.312499999999877
40
0.374999999999876
40
0.499999999999988
40
0.499999999999988
40
0.56249999999999
40
0.56249999999999
40
0.624999999999991
40
0.624999999999991
40
0.749999999999994
40
0.874999999999997
40
0.874999999999997
40
1
40
1
40
1
40
1
41
1
10
46.979340410291
20
1.21387619621584
30
0
41
1
10
47.0068803187674
20
1.20754427543832
30
0
41
1
10
47.0339660918777
20
1.20126629682585
30
0
41
1
10
47.0672700640045
20
1.19344448503782
30
0
41
1
10
47.0739082681478
20
1.19188007571367
30
0
41
1
10
47.0869399960152
20
1.18879731138799
30
0
41
1
10
47.1061919289706
20
1.18422550948503
30
0
41
1
10
47.1245814290686
20
1.17980207800082
30
0
41
1
10
47.1423977854198
20
1.17547214117053
30
0
41
1
10
47.1482407161178
20
1.17404447616025
30
0
41
1
10
47.1597310237143
20
1.17122031969578
30
0
41
1
10
47.1653787429889
20
1.16982365813581
30
0
41
1
10
47.1817852327045
20
1.16573959723758
30
0
41
1
10
47.2024038695199
20
1.16053406514232
30
0
41
1
10
47.2205567247885
20
1.15579162051881
30
0
41
1
10
47.2374291762799
20
1.15128768102298
30
0
41
1
10
47.2451955128861
20
1.14916231390606
30
0
41
1
10
47.2521412784
20
1.14720338073533
30
0
0
SPLINE
5
1BC
100
AcDbEntity
8
1
62
256
6
ByLayer
370
18
48
1
60
0
100
AcDbSpline
70
4
71
3
72
8
73
4
40
0
40
0
40
0
40
0
40
1
40
1
40
1
40
1
41
1
10
46.8262177328435
20
1.25080594942008
30
0
41
1
10
46.8772916502116
20
1.23924633636881
30
0
41
1
10
46.9283262863102
20
1.226900539762
30
0
41
1
10
46.9793404102911
20
1.21387619621584
30
0
0
SPLINE
5
1BD
100
AcDbEntity
8
1
62
256
6
ByLayer
370
18
48
1
60
0
100
AcDbSpline
70
4
71
3
72
27
73
23
40
0
40
0
40
0
40
0
40
0.124999999999969
40
0.124999999999969
40
0.249999999999939
40
0.249999999999939
40
0.312499999999924
40
0.312499999999924
40
0.343749999999929
40
0.343749999999929
40
0.374999999999934
40
0.499999999999955
40
0.499999999999955
40
0.624999999999976
40
0.624999999999976
40
0.687499999999986
40
0.687499999999986
40
0.749999999999996
40
0.749999999999996
40
0.874999999999998
40
0.874999999999998
40
1
40
1
40
1
40
1
41
1
10
45.6137821675452
20
1.45054301886748
30
0
41
1
10
45.6760356545632
20
1.43837891647289
30
0
41
1
10
45.7375415424536
20
1.42707708514186
30
0
41
1
10
45.8590824000979
20
1.40591623844557
30
0
41
1
10
45.9191170762214
20
1.3960580439865
30
0
41
1
10
46.0080113228702
20
1.38211704418398
30
0
41
1
10
46.0374490582892
20
1.37761075266752
30
0
41
1
10
46.0813015614387
20
1.37102870435547
30
0
41
1
10
46.0958926978837
20
1.36886066638601
30
0
41
1
10
46.1247892940269
20
1.36460415252751
30
0
41
1
10
46.1963770993744
20
1.35415220265918
30
0
41
1
10
46.2647462117252
20
1.34454305935381
30
0
41
1
10
46.3700422962339
20
1.32974321195053
30
0
41
1
10
46.4206430643877
20
1.32263191026698
30
0
41
1
10
46.4933538559587
20
1.31202510258583
30
0
41
1
10
46.5171326133592
20
1.30848739019001
30
0
41
1
10
46.5630143742748
20
1.30144448843228
30
0
41
1
10
46.5851634615713
20
1.29793354629635
30
0
41
1
10
46.6492762957109
20
1.28729588154141
30
0
41
1
10
46.6888943834163
20
1.27994303730975
30
0
41
1
10
46.7620822858184
20
1.26505356310844
30
0
41
1
10
46.795686615284
20
1.25771608913908
30
0
41
1
10
46.8262177328435
20
1.25080594942008
30
0
0
SPLINE
5
1BE
100
AcDbEntity
8
1
62
256
6
ByLayer
370
18
48
1
60
0
100
AcDbSpline
70
4
71
3
72
14
73
10
40
0
40
0
40
0
40
0
40
0.25
40
0.25
40
0.5
40
0.5
40
0.75
40
0.75
40
1
40
1
40
1
40
1
41
1
10
37.0424926536992
20
3.04000516247007
30
0
41
1
10
37.7567426466706
20
2.91707654669008
30
0
41
1
10
38.4709166349837
20
2.7913249462417
30
0
41
1
10
39.8991944749004
20
2.53449564419088
30
0
41
1
10
40.6133098557831
20
2.40346462512233
30
0
41
1
10
42.0417277608688
20
2.13720319082097
30
0
41
1
10
42.7560939885556
20
2.0019624535768
30
0
41
1
10
44.1849027257377
20
1.72842944897039
30
0
41
1
10
44.8993174266333
20
1.59014680143576
30
0
41
1
10
45.6137821675453
20
1.45054301886748
30
0
0
SPLINE
5
1BF
100
AcDbEntity
8
1
62
256
6
ByLayer
370
18
48
1
60
0
100
AcDbSpline
70
4
71
3
72
16
73
12
40
0
40
0
40
0
40
0
40
0.250000000000003
40
0.250000000000003
40
0.500000000000006
40
0.500000000000006
40
0.625000000000005
40
0.625000000000005
40
0.750000000000005
40
0.750000000000005
40
1
40
1
40
1
40
1
41
1
10
45.6137821675453
20
-5.10195944283203
30
0
41
1
10
44.7603028501847
20
-5.01913939357789
30
0
41
1
10
43.9070379567042
20
-4.93004236225511
30
0
41
1
10
42.2005947543453
20
-4.74038128735774
30
0
41
1
10
41.3474517363491
20
-4.63973419165546
30
0
41
1
10
40.0678471422425
20
-4.48007286981283
30
0
41
1
10
39.6413295322329
20
-4.42540520041811
30
0
41
1
10
38.788313850074
20
-4.31320860750711
30
0
41
1
10
38.3618189186078
20
-4.25566791966409
30
0
41
1
10
37.0822892174936
20
-4.07898272667336
30
0
41
1
10
36.2291957536202
20
-3.95581318490582
30
0
41
1
10
35.3758083209895
20
-3.82810289108585
30
0
0
SPLINE
5
1C0
100
AcDbEntity
8
1
62
256
6
ByLayer
370
18
48
1
60
0
100
AcDbSpline
70
4
71
3
72
26
73
22
40
0
40
0
40
0
40
0
40
0.124999999999973
40
0.124999999999973
40
0.249999999999947
40
0.249999999999947
40
0.312499999999943
40
0.312499999999943
40
0.37499999999994
40
0.37499999999994
40
0.499999999999933
40
0.624999999999927
40
0.624999999999927
40
0.656249999999937
40
0.656249999999937
40
0.687499999999948
40
0.749999999999969
40
0.749999999999969
40
0.874999999999985
40
0.874999999999985
40
1
40
1
40
1
40
1
41
1
10
46.8262177328435
20
-5.82284390615024
30
0
41
1
10
46.795059201781
20
-5.77310152622647
30
0
41
1
10
46.7607064844665
20
-5.72542176949204
30
0
41
1
10
46.6859120951795
20
-5.63403685372671
30
0
41
1
10
46.6454691698321
20
-5.59033236972977
30
0
41
1
10
46.5802173243186
20
-5.52779303144263
30
0
41
1
10
46.5576997406868
20
-5.50745094980545
30
0
41
1
10
46.5110974383653
20
-5.46779996016699
30
0
41
1
10
46.4871702091772
20
-5.44862996366942
30
0
41
1
10
46.4140017671081
20
-5.39339586064926
30
0
41
1
10
46.3123886113076
20
-5.32548621008712
30
0
41
1
10
46.2028706963399
20
-5.26875931928825
30
0
41
1
10
46.1318925235657
20
-5.23687803939171
30
0
41
1
10
46.1175587952547
20
-5.23067741692532
30
0
41
1
10
46.0888518600201
20
-5.21872657795933
30
0
41
1
10
46.0456552613388
20
-5.20144037292772
30
0
41
1
10
46.0020581294504
20
-5.18603854023763
30
0
41
1
10
45.9143449160581
20
-5.15768295942254
30
0
41
1
10
45.8551793941778
20
-5.1420340570676
30
0
41
1
10
45.7354997559047
20
-5.11714214509323
30
0
41
1
10
45.6749857312268
20
-5.10789852308332
30
0
41
1
10
45.6137821675453
20
-5.10195944283203
30
0
0
SPLINE
5
1C1
100
AcDbEntity
8
1
62
256
6
ByLayer
370
18
48
1
60
0
100
AcDbSpline
70
4
71
3
72
8
73
4
40
0
40
0
40
0
40
0
40
1
40
1
40
1
40
1
41
1
10
47.1083660521198
20
-6.27366489677698
30
0
41
1
10
47.0143146602155
20
-6.12326457620912
30
0
41
1
10
46.92026556264
20
-5.97298458099019
30
0
41
1
10
46.8262177328435
20
-5.8228439061501
30
0
0
SPLINE
5
1C2
100
AcDbEntity
8
1
62
256
6
ByLayer
370
18
48
1
60
0
100
AcDbSpline
70
4
71
3
72
8
73
4
40
0
40
0
40
0
40
0
40
1
40
1
40
1
40
1
41
1
10
48.3138236482012
20
-7.31194522512143
30
0
41
1
10
48.3814666169872
20
-7.31988088381354
30
0
41
1
10
48.4491110489504
20
-7.32775614824646
30
0
41
1
10
48.5167569543482
20
-7.33557109602788
30
0
0
SPLINE
5
1C3
100
AcDbEntity
8
1
62
256
6
ByLayer
370
18
48
1
60
0
100
AcDbSpline
70
4
71
3
72
8
73
4
40
0
40
0
40
0
40
0
40
1
40
1
40
1
40
1
41
1
10
50.3356731277808
20
-7.53119011362912
30
0
41
1
10
50.4033113957988
20
-7.53792687600586
30
0
41
1
10
50.4709498823088
20
-7.54460392735405
30
0
41
1
10
50.5385885450798
20
-7.5512213286876
30
0
0
SPLINE
5
1C4
100
AcDbEntity
8
1
62
256
6
ByLayer
370
18
48
1
60
0
100
AcDbSpline
70
4
71
3
72
8
73
4
40
0
40
0
40
0
40
0
40
1
40
1
40
1
40
1
41
1
10
52.3574969521618
20
-7.71482391017776
30
0
41
1
10
52.4251405640714
20
-7.72037520709404
30
0
41
1
10
52.4927826396082
20
-7.72586693062337
30
0
41
1
10
52.5604230910838
20
-7.73129905280337
30
0
0
SPLINE
5
1C5
100
AcDbEntity
8
1
62
256
6
ByLayer
370
18
48
1
60
0
100
AcDbSpline
70
4
71
3
72
8
73
4
40
0
40
0
40
0
40
0
40
1
40
1
40
1
40
1
41
1
10
54.3794858205819
20
-7.86283962043564
30
0
41
1
10
54.4471313232797
20
-7.86717604844492
30
0
41
1
10
54.5147774012013
20
-7.87144887877233
30
0
41
1
10
54.5824246547661
20
-7.87565767044146
30
0
0
SPLINE
5
1C6
100
AcDbEntity
8
1
62
256
6
ByLayer
370
18
48
1
60
0
100
AcDbSpline
70
4
71
3
72
8
73
4
40
0
40
0
40
0
40
0
40
1
40
1
40
1
40
1
41
1
10
56.4014776859314
20
-7.9732826363302
30
0
41
1
10
56.4691198127378
20
-7.97633658940268
30
0
41
1
10
56.53676302152
20
-7.97932664220318
30
0
41
1
10
56.6044072896837
20
-7.98225287860905
30
0
0
SPLINE
5
1C7
100
AcDbEntity
8
1
62
256
6
ByLayer
370
18
48
1
60
0
100
AcDbSpline
70
4
71
3
72
8
73
4
40
0
40
0
40
0
40
0
40
1
40
1
40
1
40
1
41
1
10
58.4233592241652
20
-8.0455900044912
30
0
41
1
10
58.4910042340493
20
-8.04737536236999
30
0
41
1
10
58.5586491850161
20
-8.04909709228969
30
0
41
1
10
58.6262941211878
20
-8.05075516776023
30
0
0
SPLINE
5
1C8
100
AcDbEntity
8
1
62
256
6
ByLayer
370
18
48
1
60
0
100
AcDbSpline
70
4
71
3
72
8
73
4
40
0
40
0
40
0
40
0
40
1
40
1
40
1
40
1
41
1
10
60.4452208234854
20
-8.07997112029841
30
0
41
1
10
60.5128609791176
20
-8.08048470755406
30
0
41
1
10
60.5805000719037
20
-8.08093417784997
30
0
41
1
10
60.6481380755245
20
-8.08131944353613
30
0
0
SPLINE
5
1C9
100
AcDbEntity
8
1
62
256
6
ByLayer
370
18
48
1
60
0
100
AcDbSpline
70
4
71
3
72
15
73
11
40
0
40
0
40
0
40
0
40
0.250000000000026
40
0.250000000000026
40
0.500000000000053
40
0.500000000000053
40
0.625000000000048
40
0.750000000000044
40
0.750000000000044
40
1
40
1
40
1
40
1
41
1
10
67.4000000610674
20
-3.40331672621016
30
0
41
1
10
67.4500095459723
20
-3.37998189804443
30
0
41
1
10
67.5000210572762
20
-3.35647090922674
30
0
41
1
10
67.6000472287002
20
-3.30918967533168
30
0
41
1
10
67.6500620432433
20
-3.28536657358848
30
0
41
1
10
67.72508281564
20
-3.24977514666705
30
0
41
1
10
67.7750945307392
20
-3.2261492780836
30
0
41
1
10
67.8250902583115
20
-3.20317919798549
30
0
41
1
10
67.9000712864505
20
-3.1692272064997
30
0
41
1
10
67.9500430744996
20
-3.14721537846526
30
0
41
1
10
68
20
-3.12573931009797
30
0
0
SPLINE
5
1CA
100
AcDbEntity
8
1
62
256
6
ByLayer
370
18
48
1
60
0
100
AcDbSpline
70
4
71
3
72
8
73
4
40
0
40
0
40
0
40
0
40
1
40
1
40
1
40
1
41
1
10
67.3090355057256
20
-3.40052914584103
30
0
41
1
10
67.3393543330897
20
-3.40148158321779
30
0
41
1
10
67.3696758375961
20
-3.40241079429461
30
0
41
1
10
67.4000000610674
20
-3.40331672621016
30
0
0
SPLINE
5
1CB
100
AcDbEntity
8
1
62
256
6
ByLayer
370
18
48
1
60
0
100
AcDbSpline
70
4
71
3
72
24
73
20
40
0
40
0
40
0
40
0
40
0.0625000000000153
40
0.0625000000000153
40
0.125000000000031
40
0.125000000000031
40
0.250000000000061
40
0.250000000000061
40
0.375000000000092
40
0.375000000000092
40
0.500000000000122
40
0.625000000000153
40
0.625000000000153
40
0.687500000000168
40
0.687500000000168
40
0.750000000000183
40
0.875000000000091
40
0.875000000000091
40
1
40
1
40
1
40
1
41
1
10
67.0061250209197
20
-3.39023941777808
30
0
41
1
10
67.0108771668835
20
-3.38785356392259
30
0
41
1
10
67.0158266441823
20
-3.38561371003894
30
0
41
1
10
67.0261281346806
20
-3.38143150352872
30
0
41
1
10
67.0314818368788
20
-3.37949110343237
30
0
41
1
10
67.0478705573181
20
-3.37421309447035
30
0
41
1
10
67.0593191459995
20
-3.37137767827184
30
0
41
1
10
67.0832255547408
20
-3.36702659371815
30
0
41
1
10
67.095744527555
20
-3.36550752696732
30
0
41
1
10
67.1215479537128
20
-3.36384324885256
30
0
41
1
10
67.1477564606731
20
-3.36356124995052
30
0
41
1
10
67.1747300479143
20
-3.36590560271256
30
0
41
1
10
67.1952476238419
20
-3.3686581862973
30
0
41
1
10
67.2021255269684
20
-3.36974222330022
30
0
41
1
10
67.2157746784756
20
-3.37220765011307
30
0
41
1
10
67.236163493295
20
-3.37636218792127
30
0
41
1
10
67.2563046435435
20
-3.38184588654238
30
0
41
1
10
67.2829398285747
20
-3.39033279809871
30
0
41
1
10
67.2962166895302
20
-3.39519929291339
30
0
41
1
10
67.3090355057256
20
-3.40052914584103
30
0
0
SPLINE
5
1CC
100
AcDbEntity
8
1
62
256
6
ByLayer
370
18
48
1
60
0
100
AcDbSpline
70
4
71
3
72
8
73
4
40
0
40
0
40
0
40
0
40
1
40
1
40
1
40
1
41
1
10
65.6312256757708
20
-3.32416014895006
30
0
41
1
10
66.0890081743425
20
-3.35148454514197
30
0
41
1
10
66.5472800287083
20
-3.37348235377453
30
0
41
1
10
67.00612502092
20
-3.39023941777879
30
0
0
SPLINE
5
1CD
100
AcDbEntity
8
1
62
256
6
ByLayer
370
18
48
1
60
0
100
AcDbSpline
70
4
71
3
72
8
73
4
40
0
40
0
40
0
40
0
40
1
40
1
40
1
40
1
41
1
10
65.451588351507
20
-3.09559284512375
30
0
41
1
10
65.51152548462
20
-3.17106292631948
30
0
41
1
10
65.5714003816087
20
-3.24726532094274
30
0
41
1
10
65.6312256757708
20
-3.32416014895017
30
0
0
SPLINE
5
1CE
100
AcDbEntity
8
1
62
256
6
ByLayer
370
18
48
1
60
0
100
AcDbSpline
70
4
71
3
72
34
73
30
40
0
40
0
40
0
40
0
40
0.125000000000051
40
0.125000000000051
40
0.187500000000099
40
0.187500000000099
40
0.250000000000147
40
0.250000000000147
40
0.281250000000141
40
0.281250000000141
40
0.312500000000135
40
0.312500000000135
40
0.375000000000123
40
0.437500000000111
40
0.437500000000111
40
0.500000000000099
40
0.500000000000099
40
0.562500000000087
40
0.562500000000087
40
0.625000000000075
40
0.625000000000075
40
0.75000000000005
40
0.75000000000005
40
0.812500000000037
40
0.812500000000037
40
0.875000000000025
40
0.937500000000013
40
0.937500000000013
40
1
40
1
40
1
40
1
41
1
10
64.9453951241124
20
-2.98641255392809
30
0
41
1
10
64.9584953426484
20
-2.97546872844725
30
0
41
1
10
64.974396968147
20
-2.96650436455553
30
0
41
1
10
65.0023315104524
20
-2.95591897434665
30
0
41
1
10
65.0123665374738
20
-2.95287830871897
30
0
41
1
10
65.03318979574
20
-2.9479528579426
30
0
41
1
10
65.0440489501188
20
-2.94603645408375
30
0
41
1
10
65.0609950704896
20
-2.94396514453956
30
0
41
1
10
65.0667537118566
20
-2.94340905840662
30
0
41
1
10
65.0784929518441
20
-2.94256846481895
30
0
41
1
10
65.0844923724824
20
-2.94228422191961
30
0
41
1
10
65.1025775182705
20
-2.94185068844763
30
0
41
1
10
65.1270397369487
20
-2.94237122586142
30
0
41
1
10
65.1521654648218
20
-2.94499508170455
30
0
41
1
10
65.1776236126102
20
-2.94868098128359
30
0
41
1
10
65.1904209460629
20
-2.95104685842932
30
0
41
1
10
65.2156811262675
20
-2.9566978902613
30
0
41
1
10
65.228215379539
20
-2.95999299683058
30
0
41
1
10
65.2530939001074
20
-2.96751209200923
30
0
41
1
10
65.2655164977183
20
-2.97176765838455
30
0
41
1
10
65.3018517733281
20
-2.98572899460856
30
0
41
1
10
65.3247411914548
20
-2.99653765751549
30
0
41
1
10
65.3571122065279
20
-3.01497604019079
30
0
41
1
10
65.3675918029016
20
-3.02152012384775
30
0
41
1
10
65.3873371589294
20
-3.03502750412108
30
0
41
1
10
65.4060137755589
20
-3.04902976561431
30
0
41
1
10
65.4225701638784
20
-3.06401716029671
30
0
41
1
10
65.4380220580761
20
-3.07951853330224
30
0
41
1
10
65.4451547794309
20
-3.08749198707909
30
0
41
1
10
65.451588351507
20
-3.09559284512395
30
0
0
SPLINE
5
1CF
100
AcDbEntity
8
1
62
256
6
ByLayer
370
18
48
1
60
0
100
AcDbSpline
70
4
71
3
72
8
73
4
40
0
40
0
40
0
40
0
40
1
40
1
40
1
40
1
41
1
10
64.6206009586498
20
-3.25503413861938
30
0
41
1
10
64.7289385591835
20
-3.16645470538589
30
0
41
1
10
64.8372025848251
20
-3.07679579944678
30
0
41
1
10
64.9453951241124
20
-2.98641255392809
30
0
0
SPLINE
5
1D0
100
AcDbEntity
8
SK1
62
256
6
ByLayer
370
18
48
1
60
0
100
AcDbSpline
70
4
71
3
72
26
73
22
40
0
40
0
40
0
40
0
40
0.125041916042494
40
0.125041916042494
40
0.18756287406374
40
0.18756287406374
40
0.250083832084987
40
0.250083832084987
40
0.37512574812748
40
0.37512574812748
40
0.500167664169972
40
0.625209580212465
40
0.625209580212465
40
0.687730538233711
40
0.718991017244335
40
0.718991017244335
40
0.750251496254958
40
0.750251496254958
40
0.875293412297451
40
0.875293412297451
40
1
40
1
40
1
40
1
41
1
10
-40.4
20
4.49999999999994
30
0
41
1
10
-40.4851355053322
20
4.49999999999994
30
0
41
1
10
-40.5682771858426
20
4.49999999999994
30
0
41
1
10
-40.6893118431276
20
4.49999999999994
30
0
41
1
10
-40.7290667072212
20
4.49999999999994
30
0
41
1
10
-40.8069396168318
20
4.49999999999994
30
0
41
1
10
-40.8450857058259
20
4.49999999999994
30
0
41
1
10
-40.956922314909
20
4.49999999999994
30
0
41
1
10
-41.0280203350249
20
4.49999999999994
30
0
41
1
10
-41.161863288714
20
4.49999999999994
30
0
41
1
10
-41.2873552294704
20
4.49999999999994
30
0
41
1
10
-41.3926614776467
20
4.49999999999994
30
0
41
1
10
-41.4625069157987
20
4.49999999999994
30
0
41
1
10
-41.4951419200291
20
4.49999999999994
30
0
41
1
10
-41.5240150735529
20
4.49999999999994
30
0
41
1
10
-41.5423887401301
20
4.49999999999994
30
0
41
1
10
-41.5511481703354
20
4.49999999999994
30
0
41
1
10
-41.5924730580552
20
4.49999999999994
30
0
41
1
10
-41.6177045982404
20
4.49999999999994
30
0
41
1
10
-41.6514490531178
20
4.49999999999994
30
0
41
1
10
-41.6600025240117
20
4.49999999999994
30
0
41
1
10
-41.6599999988853
20
4.49999999999994
30
0
0
SPLINE
5
1D1
100
AcDbEntity
8
SK1
62
256
6
ByLayer
370
18
48
1
60
0
100
AcDbSpline
70
4
71
3
72
26
73
22
40
0
40
0
40
0
40
0
40
0.124706482392285
40
0.124706482392285
40
0.249748413479101
40
0.249748413479101
40
0.281008896250805
40
0.281008896250805
40
0.312269379022509
40
0.374790344565917
40
0.374790344565917
40
0.499832275652734
40
0.62487420673955
40
0.62487420673955
40
0.749916137826367
40
0.749916137826367
40
0.812437103369775
40
0.812437103369775
40
0.874958068913183
40
0.874958068913183
40
1
40
1
40
1
40
1
41
1
10
-41.6599999988926
20
-4.50000000000006
30
0
41
1
10
-41.6600025075073
20
-4.50000000000006
30
0
41
1
10
-41.6514490368617
20
-4.50000000000006
30
0
41
1
10
-41.6177045982404
20
-4.50000000000006
30
0
41
1
10
-41.5924730580552
20
-4.50000000000006
30
0
41
1
10
-41.5511481703354
20
-4.50000000000006
30
0
41
1
10
-41.5423887401301
20
-4.50000000000006
30
0
41
1
10
-41.5240150735529
20
-4.50000000000006
30
0
41
1
10
-41.4951419200291
20
-4.50000000000006
30
0
41
1
10
-41.4625069157987
20
-4.50000000000006
30
0
41
1
10
-41.3926614776467
20
-4.50000000000006
30
0
41
1
10
-41.2873552294704
20
-4.50000000000006
30
0
41
1
10
-41.161863288714
20
-4.50000000000006
30
0
41
1
10
-41.0280203350249
20
-4.50000000000006
30
0
41
1
10
-40.956922314909
20
-4.50000000000006
30
0
41
1
10
-40.8450857058259
20
-4.50000000000006
30
0
41
1
10
-40.8069396168318
20
-4.50000000000006
30
0
41
1
10
-40.7290667072212
20
-4.50000000000006
30
0
41
1
10
-40.6893118431276
20
-4.50000000000006
30
0
41
1
10
-40.5682771858426
20
-4.50000000000006
30
0
41
1
10
-40.4851355053322
20
-4.50000000000006
30
0
41
1
10
-40.4
20
-4.50000000000006
30
0
0
SPLINE
5
1D2
100
AcDbEntity
8
SK1
62
256
6
ByLayer
370
18
48
1
60
0
100
AcDbSpline
70
4
71
3
72
47
73
43
40
0
40
0
40
0
40
0
40
0.0624999999999997
40
0.0624999999999997
40
0.124999999999999
40
0.124999999999999
40
0.15625
40
0.15625
40
0.171875
40
0.171875
40
0.1875
40
0.1875
40
0.25
40
0.3125
40
0.3125
40
0.375
40
0.375
40
0.40625
40
0.40625
40
0.4375
40
0.4375
40
0.5
40
0.5
40
0.5625
40
0.5625
40
0.625
40
0.625
40
0.640625
40
0.640625
40
0.65625
40
0.6875
40
0.6875
40
0.75
40
0.8125
40
0.8125
40
0.875
40
0.875
40
0.90625
40
0.90625
40
0.9375
40
0.9375
40
1
40
1
40
1
40
1
41
1
10
-40.4
20
-3.59549718397895
30
0
41
1
10
-40.4843928354172
20
-3.46029954450665
30
0
41
1
10
-40.5668189226791
20
-3.32362055647275
30
0
41
1
10
-40.7268458209331
20
-3.04662819740446
30
0
41
1
10
-40.804449556177
20
-2.90631702890747
30
0
41
1
10
-40.9163658239457
20
-2.69246892300239
30
0
41
1
10
-40.9529206211215
20
-2.62062085231918
30
0
41
1
10
-41.0064921491058
20
-2.51189921526435
30
0
41
1
10
-41.0241521480827
20
-2.47547236445538
30
0
41
1
10
-41.0589456452143
20
-2.40245412018973
30
0
41
1
10
-41.0760802462923
20
-2.3658616147747
30
0
41
1
10
-41.1603831965105
20
-2.182463303638
30
0
41
1
10
-41.2865199858516
20
-1.8862434836376
30
0
41
1
10
-41.3917981247095
20
-1.58338899109631
30
0
41
1
10
-41.4847097911734
20
-1.27660099888368
30
0
41
1
10
-41.5249802335283
20
-1.12123956758592
30
0
41
1
10
-41.5744996879229
20
-0.884734759768747
30
0
41
1
10
-41.5891903772626
20
-0.805322259702109
30
0
41
1
10
-41.6146607992967
20
-0.645253271292432
30
0
41
1
10
-41.6254524796468
20
-0.5643958258444
30
0
41
1
10
-41.6512983273416
20
-0.322608909653212
30
0
41
1
10
-41.6599511223007
20
-0.161796851601366
30
0
41
1
10
-41.6600484635413
20
0.159066495472331
30
0
41
1
10
-41.6514943605846
20
0.319117844210723
30
0
41
1
10
-41.6177045982404
20
0.638483057487832
30
0
41
1
10
-41.5924730580552
20
0.797797104134617
30
0
41
1
10
-41.5511481703354
20
0.996507051493268
30
0
41
1
10
-41.5423887401301
20
1.03624831018726
30
0
41
1
10
-41.5240150735529
20
1.11527263542774
30
0
41
1
10
-41.4951419200291
20
1.233276304915
30
0
41
1
10
-41.4625069157987
20
1.34975300408311
30
0
41
1
10
-41.3926614776467
20
1.58084919279548
30
0
41
1
10
-41.2873552294704
20
1.8840338757127
30
0
41
1
10
-41.161863288714
20
2.17902499757588
30
0
41
1
10
-41.0280203350249
20
2.47062636533198
30
0
41
1
10
-40.956922314909
20
2.61473175130763
30
0
41
1
10
-40.8450857058259
20
2.82878333174659
30
0
41
1
10
-40.8069396168318
20
2.89978184615018
30
0
41
1
10
-40.7290667072212
20
3.04113724123559
30
0
41
1
10
-40.6893118431276
20
3.11154068908633
30
0
41
1
10
-40.5682771858426
20
3.32120313000476
30
0
41
1
10
-40.4851355053322
20
3.45910978451192
30
0
41
1
10
-40.4
20
3.59549718397881
30
0
0
SPLINE
5
1D3
100
AcDbEntity
8
1
62
256
6
ByLayer
370
18
48
1
60
0
100
AcDbSpline
70
4
71
2
72
6
73
3
40
0
40
0
40
0
40
1
40
1
40
1
41
1
10
65.0450661734774
20
7.39551864449871
30
0
41
1
10
64.9658973842774
20
7.25880031760215
30
0
41
1
10
64.8866928295301
20
7.1221007400523
30
0
0
SPLINE
5
1D4
100
AcDbEntity
8
1
62
256
6
ByLayer
370
18
48
1
60
0
100
AcDbSpline
70
4
71
2
72
6
73
3
40
0
40
0
40
0
40
1
40
1
40
1
41
1
10
62.7604448393352
20
-7.91923951088222
30
0
41
1
10
63.0152388367717
20
-7.47921781211562
30
0
41
1
10
63.2702794994936
20
-7.0393325744015
30
0
0
SPLINE
5
1D5
100
AcDbEntity
8
1
62
256
6
ByLayer
370
18
48
1
60
0
100
AcDbSpline
70
4
71
2
72
6
73
3
40
0
40
0
40
0
40
1
40
1
40
1
41
1
10
66.7796791793927
20
6.93738419186781
30
0
41
1
10
66.7799219652975
20
6.91144262346839
30
0
41
1
10
66.7447348890204
20
6.88597807575829
30
0
0
SPLINE
5
1D6
100
AcDbEntity
8
1
62
256
6
ByLayer
370
18
48
1
60
0
100
AcDbSpline
70
4
71
2
72
6
73
3
40
0
40
0
40
0
40
1
40
1
40
1
41
1
10
66.7150482422934
20
6.86783203342176
30
0
41
1
10
66.6937990000644
20
6.85660019991772
30
0
41
1
10
66.6655636503656
20
6.8454624259893
30
0
0
SPLINE
5
1D7
100
AcDbEntity
8
1
62
256
6
ByLayer
370
18
48
1
60
0
100
AcDbSpline
70
4
71
2
72
6
73
3
40
0
40
0
40
0
40
1
40
1
40
1
41
1
10
61.3293033897155
20
-6.93748775154992
30
0
41
1
10
61.3381729918905
20
-6.9026833223829
30
0
41
1
10
61.3929041621562
20
-6.86726587105994
30
0
0
SPLINE
5
1D8
100
AcDbEntity
8
1
62
256
6
ByLayer
370
18
48
1
60
0
100
AcDbSpline
70
4
71
2
72
6
73
3
40
0
40
0
40
0
40
1
40
1
40
1
41
1
10
60.6907514841049
20
-8.02612927590428
30
0
41
1
10
61.017953869407
20
-7.46329712773414
30
0
41
1
10
61.3452351248328
20
-6.90133659609549
30
0
0
SPLINE
5
1D9
100
AcDbEntity
8
1
62
256
6
ByLayer
370
18
48
1
60
0
100
AcDbSpline
70
4
71
3
72
11
73
7
40
0
40
0
40
0
40
0
40
0.177782397588985
40
0.4282464359765
40
0.749842747232033
40
1
40
1
40
1
40
1
41
1
10
59.3393908463159
20
-6.91660952879229
30
0
41
1
10
59.3622855851496
20
-6.88602072088688
30
0
41
1
10
59.419239039477
20
-6.82707831914155
30
0
41
1
10
59.539956378962
20
-6.79979224942906
30
0
41
1
10
59.6499488352234
20
-6.82651023679628
30
0
41
1
10
59.6918497183122
20
-6.85050443447579
30
0
41
1
10
59.7048734181322
20
-6.86437860635036
30
0
0
SPLINE
5
1DA
100
AcDbEntity
8
1
62
256
6
ByLayer
370
18
48
1
60
0
100
AcDbSpline
70
4
71
2
72
6
73
3
40
0
40
0
40
0
40
1
40
1
40
1
41
1
10
58.6798953014293
20
-8.05601606482841
30
0
41
1
10
59.0072854006683
20
-7.49116928666987
30
0
41
1
10
59.3347852773823
20
-6.92697650168958
30
0
0
SPLINE
5
1DB
100
AcDbEntity
8
1
62
256
6
ByLayer
370
18
48
1
60
0
100
AcDbSpline
70
4
71
2
72
6
73
3
40
0
40
0
40
0
40
1
40
1
40
1
41
1
10
57.7797079304246
20
-6.93736686452971
30
0
41
1
10
58.1081501048948
20
-7.5041521333859
30
0
41
1
10
58.4362770417866
20
-8.0711239468647
30
0
0
SPLINE
5
1DC
100
AcDbEntity
8
1
62
256
6
ByLayer
370
18
48
1
60
0
100
AcDbSpline
70
4
71
3
72
12
73
8
40
0
40
0
40
0
40
0
40
0.240835187438497
40
0.505516525225893
40
0.644193346417798
40
0.782590166619073
40
1
40
1
40
1
40
1
41
1
10
57.3301628405549
20
-6.93598819436295
30
0
41
1
10
57.3483946396995
20
-6.90228062714345
30
0
41
1
10
57.4008107356104
20
-6.84724902044428
30
0
41
1
10
57.5210074217681
20
-6.80322332006008
30
0
41
1
10
57.6275419524106
20
-6.81485594764217
30
0
41
1
10
57.7193956824836
20
-6.85418241329597
30
0
41
1
10
57.7670399854104
20
-6.90035621126802
30
0
41
1
10
57.7903321969324
20
-6.93593018624617
30
0
0
SPLINE
5
1DD
100
AcDbEntity
8
1
62
256
6
ByLayer
370
18
48
1
60
0
100
AcDbSpline
70
4
71
2
72
6
73
3
40
0
40
0
40
0
40
1
40
1
40
1
41
1
10
56.6714648483175
20
-8.07284632014287
30
0
41
1
10
56.9991949019911
20
-7.50679258115971
30
0
41
1
10
57.3271077531914
20
-6.94111350407636
30
0
0
SPLINE
5
1DE
100
AcDbEntity
8
1
62
256
6
ByLayer
370
18
48
1
60
0
100
AcDbSpline
70
4
71
2
72
6
73
3
40
0
40
0
40
0
40
1
40
1
40
1
41
1
10
55.7970150499948
20
-6.95702106833664
30
0
41
1
10
56.1241861922406
20
-7.52255867161009
30
0
41
1
10
56.4512872404295
20
-8.08811794015708
30
0
0
SPLINE
5
1DF
100
AcDbEntity
8
1
62
256
6
ByLayer
370
18
48
1
60
0
100
AcDbSpline
70
4
71
3
72
11
73
7
40
0
40
0
40
0
40
0
40
0.242573708823476
40
0.497133817388679
40
0.755375955611969
40
1
40
1
40
1
40
1
41
1
10
55.3252054852451
20
-6.94389369722813
30
0
41
1
10
55.3415453022943
20
-6.91050408362443
30
0
41
1
10
55.3915913152225
20
-6.85726171926277
30
0
41
1
10
55.5343454478156
20
-6.79781867606224
30
0
41
1
10
55.7002267075918
20
-6.83931370797788
30
0
41
1
10
55.7661032580139
20
-6.90842948150518
30
0
41
1
10
55.7924190346235
20
-6.95383537878948
30
0
0
SPLINE
5
1E0
100
AcDbEntity
8
1
62
256
6
ByLayer
370
18
48
1
60
0
100
AcDbSpline
70
4
71
2
72
6
73
3
40
0
40
0
40
0
40
1
40
1
40
1
41
1
10
54.6683110870825
20
-8.07755845836422
30
0
41
1
10
54.9970000886965
20
-7.51015233095541
30
0
41
1
10
55.3261964483914
20
-6.94243260168759
30
0
0
SPLINE
5
1E1
100
AcDbEntity
8
1
62
256
6
ByLayer
370
18
48
1
60
0
100
AcDbSpline
70
4
71
3
72
14
73
10
40
0
40
0
40
0
40
0
40
0.242872455174627
40
0.432328587182175
40
0.569475826102916
40
0.596945385397274
40
0.667909473066661
40
0.804704638573247
40
1
40
1
40
1
40
1
41
1
10
53.3292646724071
20
-6.93758995798564
30
0
41
1
10
53.3376569911528
20
-6.91699619832627
30
0
41
1
10
53.3690229723524
20
-6.88255737041726
30
0
41
1
10
53.4440774670897
20
-6.83259651204477
30
0
41
1
10
53.5139571449545
20
-6.81448256493107
30
0
41
1
10
53.5744525794655
20
-6.81399567294349
30
0
41
1
10
53.6308837040381
20
-6.82120086429302
30
0
41
1
10
53.7192461413182
20
-6.86045344057786
30
0
41
1
10
53.7641116794985
20
-6.90729821683925
30
0
41
1
10
53.7825457946565
20
-6.94197446295306
30
0
0
SPLINE
5
1E2
100
AcDbEntity
8
1
62
256
6
ByLayer
370
18
48
1
60
0
100
AcDbSpline
70
4
71
2
72
6
73
3
40
0
40
0
40
0
40
1
40
1
40
1
41
1
10
53.786339618711
20
-6.94728826682257
30
0
41
1
10
54.1137320934588
20
-7.51270672035531
30
0
41
1
10
54.4410246605439
20
-8.078379098168
30
0
0
SPLINE
5
1E3
100
AcDbEntity
8
1
62
256
6
ByLayer
370
18
48
1
60
0
100
AcDbSpline
70
4
71
3
72
13
73
9
40
0
40
0
40
0
40
0
40
0.230506211940916
40
0.390725463532235
40
0.476407069352557
40
0.523543288430455
40
0.70351645708686
40
1
40
1
40
1
40
1
41
1
10
51.3293219128956
20
-6.93738481733695
30
0
41
1
10
51.3456667028589
20
-6.90495728566168
30
0
41
1
10
51.3897942001077
20
-6.8609199723974
30
0
41
1
10
51.4806198173236
20
-6.82055390945837
30
0
41
1
10
51.5467165017926
20
-6.81321259717373
30
0
41
1
10
51.6277106046934
20
-6.81952464284507
30
0
41
1
10
51.7116933330065
20
-6.85737853390728
30
0
41
1
10
51.7623691669022
20
-6.8982216555458
30
0
41
1
10
51.776209871023
20
-6.93096537835933
30
0
0
SPLINE
5
1E4
100
AcDbEntity
8
1
62
256
6
ByLayer
370
18
48
1
60
0
100
AcDbSpline
70
4
71
2
72
6
73
3
40
0
40
0
40
0
40
1
40
1
40
1
41
1
10
52.6722929105075
20
-8.07146660055176
30
0
41
1
10
53.0016771828994
20
-7.50254519864484
30
0
41
1
10
53.3319213507181
20
-6.93278172737465
30
0
0
SPLINE
5
1E5
100
AcDbEntity
8
1
62
256
6
ByLayer
370
18
48
1
60
0
100
AcDbSpline
70
4
71
2
72
6
73
3
40
0
40
0
40
0
40
1
40
1
40
1
41
1
10
51.7782384285426
20
-6.93481719548444
30
0
41
1
10
52.1060539431907
20
-7.50041041006011
30
0
41
1
10
52.4336986960077
20
-8.06645602174072
30
0
0
SPLINE
5
1E6
100
AcDbEntity
8
1
62
256
6
ByLayer
370
18
48
1
60
0
100
AcDbSpline
70
4
71
3
72
11
73
7
40
0
40
0
40
0
40
0
40
0.22976581752767
40
0.476752643669199
40
0.736207497509572
40
1
40
1
40
1
40
1
41
1
10
49.3294676819429
20
-6.93720467065492
30
0
41
1
10
49.3454864773713
20
-6.90629576727855
30
0
41
1
10
49.393837850413
20
-6.85603417404681
30
0
41
1
10
49.5347946674868
20
-6.79851424391094
30
0
41
1
10
49.6977555029746
20
-6.83998740419921
30
0
41
1
10
49.7574109666212
20
-6.89745739780443
30
0
41
1
10
49.779728018142
20
-6.93741935586769
30
0
0
SPLINE
5
1E7
100
AcDbEntity
8
1
62
256
6
ByLayer
370
18
48
1
60
0
100
AcDbSpline
70
4
71
2
72
6
73
3
40
0
40
0
40
0
40
1
40
1
40
1
41
1
10
50.6723856129401
20
-8.07119477028112
30
0
41
1
10
51.0006890395769
20
-7.50416493972421
30
0
41
1
10
51.3293471139968
20
-6.93734135936177
30
0
0
SPLINE
5
1E8
100
AcDbEntity
8
1
62
256
6
ByLayer
370
18
48
1
60
0
100
AcDbSpline
70
4
71
2
72
6
73
3
40
0
40
0
40
0
40
1
40
1
40
1
41
1
10
49.7757843072128
20
-6.93009848856198
30
0
41
1
10
50.1049225455539
20
-7.49811230356792
30
0
41
1
10
50.4335636286043
20
-8.0661523521309
30
0
0
SPLINE
5
1E9
100
AcDbEntity
8
1
62
256
6
ByLayer
370
18
48
1
60
0
100
AcDbSpline
70
4
71
3
72
15
73
11
40
0
40
0
40
0
40
0
40
0.212419176745493
40
0.381497893821953
40
0.507645390750273
40
0.533936751299918
40
0.563075185625831
40
0.612146482871917
40
0.768946423428688
40
1
40
1
40
1
40
1
41
1
10
47.3320098759998
20
-6.93251217267985
30
0
41
1
10
47.3411474523462
20
-6.91205315428476
30
0
41
1
10
47.3729053230886
20
-6.87822548281628
30
0
41
1
10
47.4494013200268
20
-6.8304677282616
30
0
41
1
10
47.5185246828823
20
-6.81437782400067
30
0
41
1
10
47.5685934919881
20
-6.81482498912672
30
0
41
1
10
47.5913605753101
20
-6.81686640840977
30
0
41
1
10
47.6407631742715
20
-6.82550539190314
30
0
41
1
10
47.720793192833
20
-6.86273215804289
30
0
41
1
10
47.763447908084
20
-6.90565714055344
30
0
41
1
10
47.7796650938888
20
-6.93734160946548
30
0
0
SPLINE
5
1EA
100
AcDbEntity
8
1
62
256
6
ByLayer
370
18
48
1
60
0
100
AcDbSpline
70
4
71
2
72
6
73
3
40
0
40
0
40
0
40
1
40
1
40
1
41
1
10
47.1984663583854
20
-7.1626510793848
30
0
41
1
10
47.2657782546289
20
-7.04649380742794
30
0
41
1
10
47.3331229844313
20
-6.93034637270918
30
0
0
SPLINE
5
1EB
100
AcDbEntity
8
1
62
256
6
ByLayer
370
18
48
1
60
0
100
AcDbSpline
70
4
71
2
72
6
73
3
40
0
40
0
40
0
40
1
40
1
40
1
41
1
10
48.6886228934556
20
-8.04322296042051
30
0
41
1
10
49.0088643534714
20
-7.49012769967499
30
0
41
1
10
49.3294425200269
20
-6.93724818758429
30
0
0
SPLINE
5
1EC
100
AcDbEntity
8
1
62
256
6
ByLayer
370
18
48
1
60
0
100
AcDbSpline
70
4
71
2
72
6
73
3
40
0
40
0
40
0
40
1
40
1
40
1
41
1
10
47.7795775621737
20
-6.93718977823352
30
0
41
1
10
48.0996087803159
20
-7.48947733494453
30
0
41
1
10
48.4193388459158
20
-8.04195807750079
30
0
0
LINE
5
7F
100
AcDbEntity
8
80
62
256
6
ByLayer
370
18
48
1
60
0
100
AcDbLine
10
0
20
0
30
0
11
-5
21
0
31
0
39
0
210
0
220
0
230
1
0
LINE
5
80
100
AcDbEntity
8
4
62
256
6
ByLayer
370
18
48
0.05
60
0
100
AcDbLine
10
0
20
0
30
0
11
68
21
0
31
0
39
0
210
0
220
0
230
1
0
LINE
5
82
100
AcDbEntity
8
81
62
256
6
ByLayer
370
18
48
1
60
0
100
AcDbLine
10
68
20
0
30
0
11
73
21
0
31
0
39
0
210
0
220
0
230
1
0
LINE
5
83
100
AcDbEntity
8
SK4
62
256
6
ByLayer
370
18
48
0.05
60
0
100
AcDbLine
10
-42
20
0
30
0
11
68
21
0
31
0
39
0
210
0
220
0
230
1
0
LINE
5
85
100
AcDbEntity
8
1
62
256
6
ByLayer
370
18
48
1
60
0
100
AcDbLine
10
0
20
6
30
0
11
0
21
-6
31
0
39
0
210
0
220
0
230
1
0
LINE
5
86
100
AcDbEntity
8
1
62
256
6
ByLayer
370
18
48
1
60
0
100
AcDbLine
10
65.043445
20
7.392721
30
0
11
65.046614
21
7.397833
31
0
39
0
210
0
220
0
230
1
0
LINE
5
87
100
AcDbEntity
8
1
62
256
6
ByLayer
370
18
48
1
60
0
100
AcDbLine
10
62.765354
20
-7.910765
30
0
11
62.760134
21
-7.918697
31
0
39
0
210
0
220
0
230
1
0
LINE
5
88
100
AcDbEntity
8
1
62
256
6
ByLayer
370
18
48
1
60
0
100
AcDbLine
10
57.327007
20
-6.941271
30
0
11
57.329663
21
-6.936871
31
0
39
0
210
0
220
0
230
1
0
LINE
5
89
100
AcDbEntity
8
1
62
256
6
ByLayer
370
18
48
1
60
0
100
AcDbLine
10
55.792916
20
-6.95425
30
0
11
55.796975
21
-6.957
31
0
39
0
210
0
220
0
230
1
0
LINE
5
8A
100
AcDbEntity
8
1
62
256
6
ByLayer
370
18
48
1
60
0
100
AcDbLine
10
55.32416
20
-6.945363
30
0
11
55.326217
21
-6.942401
31
0
39
0
210
0
220
0
230
1
0
LINE
5
8B
100
AcDbEntity
8
1
62
256
6
ByLayer
370
18
48
1
60
0
100
AcDbLine
10
53.783705
20
-6.943702
30
0
11
53.786409
21
-6.947377
31
0
39
0
210
0
220
0
230
1
0
LINE
5
8C
100
AcDbEntity
8
1
62
256
6
ByLayer
370
18
48
1
60
0
100
AcDbLine
10
49.775897
20
-6.930323
30
0
11
49.780249
21
-6.938306
31
0
39
0
210
0
220
0
230
1
0
LINE
5
8D
100
AcDbEntity
8
1
62
256
6
ByLayer
370
18
48
1
60
0
100
AcDbLine
10
47.331332
20
-6.93379
30
0
11
47.333099
21
-6.930395
31
0
39
0
210
0
220
0
230
1
0
LINE
5
8E
100
AcDbEntity
8
1
62
256
6
ByLayer
370
18
48
1
60
0
100
AcDbLine
10
60.445221
20
-8.079971
30
0
11
60.453994
21
-8.083056
31
0
39
0
210
0
220
0
230
1
0
LINE
5
8F
100
AcDbEntity
8
1
62
256
6
ByLayer
370
18
48
1
60
0
100
AcDbLine
10
60.654718
20
-8.083054
30
0
11
60.648138
21
-8.081319
31
0
39
0
210
0
220
0
230
1
0
LINE
5
90
100
AcDbEntity
8
1
62
256
6
ByLayer
370
13
48
1
60
0
100
AcDbLine
10
46.826218
20
-6.55
30
0
11
46.826218
21
-5.822844
31
0
39
0
210
0
220
0
230
1
0
LINE
5
91
100
AcDbEntity
8
1
62
256
6
ByLayer
370
13
48
1
60
0
100
AcDbLine
10
45.613782
20
-5.85
30
0
11
45.613782
21
-5.101959
31
0
39
0
210
0
220
0
230
1
0
LINE
5
92
100
AcDbEntity
8
1
62
256
6
ByLayer
370
13
48
1
60
0
100
AcDbLine
10
8.653835
20
-5.85
30
0
11
8.653835
21
5.85
31
0
39
0
210
0
220
0
230
1
0
LINE
5
93
100
AcDbEntity
8
1
62
256
6
ByLayer
370
18
48
1
60
0
100
AcDbLine
10
8
20
6
30
0
11
8
21
-6
31
0
39
0
210
0
220
0
230
1
0
LINE
5
94
100
AcDbEntity
8
1
62
256
6
ByLayer
370
13
48
1
60
0
100
AcDbLine
10
45.613782
20
1.450543
30
0
11
45.613782
21
5.029766
31
0
39
0
210
0
220
0
230
1
0
LINE
5
95
100
AcDbEntity
8
1
62
256
6
ByLayer
370
13
48
1
60
0
100
AcDbLine
10
46.826218
20
5.509064
30
0
11
46.826218
21
1.250806
31
0
39
0
210
0
220
0
230
1
0
LINE
5
96
100
AcDbEntity
8
1
62
256
6
ByLayer
370
18
48
1
60
0
100
AcDbLine
10
47.711325
20
6.73306
30
0
11
47.711325
21
5.582699
31
0
39
0
210
0
220
0
230
1
0
LINE
5
97
100
AcDbEntity
8
SK1
62
256
6
ByLayer
370
18
48
1
60
0
100
AcDbLine
10
-42
20
4.16
30
0
11
-42
21
-4.16
31
0
39
0
210
0
220
0
230
1
0
LINE
5
99
100
AcDbEntity
8
SK1
62
256
6
ByLayer
370
18
48
1
60
0
100
AcDbLine
10
-30
20
4.5
30
0
11
-28.74
21
5.76
31
0
39
0
210
0
220
0
230
1
0
LINE
5
9A
100
AcDbEntity
8
SK1
62
256
6
ByLayer
370
18
48
1
60
0
100
AcDbLine
10
-40.4
20
4.5
30
0
11
-30
21
4.5
31
0
39
0
210
0
220
0
230
1
0
LINE
5
9B
100
AcDbEntity
8
SK1
62
256
6
ByLayer
370
18
48
1
60
0
100
AcDbLine
10
-40.4
20
3.595497
30
0
11
-40.4
21
4.5
31
0
39
0
210
0
220
0
230
1
0
LINE
5
9C
100
AcDbEntity
8
SK1
62
256
6
ByLayer
370
18
48
1
60
0
100
AcDbLine
10
-30
20
3.595497
30
0
11
-40.4
21
3.595497
31
0
39
0
210
0
220
0
230
1
0
LINE
5
9D
100
AcDbEntity
8
SK1
62
256
6
ByLayer
370
18
48
1
60
0
100
AcDbLine
10
-40.4
20
-3.595497
30
0
11
-30
21
-3.595497
31
0
39
0
210
0
220
0
230
1
0
LINE
5
9E
100
AcDbEntity
8
SK1
62
256
6
ByLayer
370
18
48
1
60
0
100
AcDbLine
10
-40.4
20
-4.5
30
0
11
-40.4
21
-3.595497
31
0
39
0
210
0
220
0
230
1
0
LINE
5
9F
100
AcDbEntity
8
SK1
62
256
6
ByLayer
370
18
48
1
60
0
100
AcDbLine
10
-30
20
-4.5
30
0
11
-40.4
21
-4.5
31
0
39
0
210
0
220
0
230
1
0
LINE
5
A0
100
AcDbEntity
8
SK1
62
256
6
ByLayer
370
18
48
1
60
0
100
AcDbLine
10
-30
20
-4.5
30
0
11
-28.74
21
-5.76
31
0
39
0
210
0
220
0
230
1
0
LINE
5
A1
100
AcDbEntity
8
SK1
62
256
6
ByLayer
370
18
48
1
60
0
100
AcDbLine
10
-30
20
3.595497
30
0
11
-30
21
-3.595497
31
0
39
0
210
0
220
0
230
1
0
LINE
5
A2
100
AcDbEntity
8
SK1
62
256
6
ByLayer
370
18
48
1
60
0
100
AcDbLine
10
-27.6
20
5.76
30
0
11
-27.6
21
-5.76
31
0
39
0
210
0
220
0
230
1
0
LINE
5
A3
100
AcDbEntity
8
SK1
62
256
6
ByLayer
370
18
48
1
60
0
100
AcDbLine
10
0
20
6
30
0
11
0
21
-6
31
0
39
0
210
0
220
0
230
1
0
LINE
5
A4
100
AcDbEntity
8
SK1
62
256
6
ByLayer
370
18
48
1
60
0
100
AcDbLine
10
-27.36
20
-6
30
0
11
-27.36
21
6
31
0
39
0
210
0
220
0
230
1
0
LINE
5
A5
100
AcDbEntity
8
1
62
256
6
ByLayer
370
18
48
1
60
0
100
AcDbLine
10
8
20
6
30
0
11
0
21
6
31
0
39
0
210
0
220
0
230
1
0
LINE
5
A6
100
AcDbEntity
8
1
62
256
6
ByLayer
370
18
48
1
60
0
100
AcDbLine
10
0
20
-6
30
0
11
8
21
-6
31
0
39
0
210
0
220
0
230
1
0
LINE
5
A7
100
AcDbEntity
8
1
62
256
6
ByLayer
370
18
48
1
60
0
100
AcDbLine
10
60.453992
20
-8.083051
30
0
11
60.654715
21
-8.083051
31
0
39
0
210
0
220
0
230
1
0
LINE
5
A8
100
AcDbEntity
8
1
62
256
6
ByLayer
370
18
48
1
60
0
100
AcDbLine
10
58.453973
20
-8.083051
30
0
11
58.654714
21
-8.083051
31
0
39
0
210
0
220
0
230
1
0
LINE
5
A9
100
AcDbEntity
8
1
62
256
6
ByLayer
370
18
48
1
60
0
100
AcDbLine
10
56.454025
20
-8.083051
30
0
11
56.654729
21
-8.083051
31
0
39
0
210
0
220
0
230
1
0
LINE
5
AA
100
AcDbEntity
8
1
62
256
6
ByLayer
370
18
48
1
60
0
100
AcDbLine
10
54.454009
20
-8.083051
30
0
11
54.654709
21
-8.083051
31
0
39
0
210
0
220
0
230
1
0
LINE
5
AB
100
AcDbEntity
8
1
62
256
6
ByLayer
370
18
48
1
60
0
100
AcDbLine
10
52.453983
20
-8.083051
30
0
11
52.654729
21
-8.083051
31
0
39
0
210
0
220
0
230
1
0
LINE
5
AC
100
AcDbEntity
8
1
62
256
6
ByLayer
370
18
48
1
60
0
100
AcDbLine
10
50.453991
20
-8.083051
30
0
11
50.654724
21
-8.083051
31
0
39
0
210
0
220
0
230
1
0
LINE
5
AD
100
AcDbEntity
8
1
62
256
6
ByLayer
370
18
48
1
60
0
100
AcDbLine
10
46.826218
20
-6.55
30
0
11
47.171494
21
-7.148035
31
0
39
0
210
0
220
0
230
1
0
LINE
5
AE
100
AcDbEntity
8
1
62
256
6
ByLayer
370
18
48
1
60
0
100
AcDbLine
10
48.453977
20
-8.083051
30
0
11
48.654678
21
-8.083051
31
0
39
0
210
0
220
0
230
1
0
LINE
5
AF
100
AcDbEntity
8
1
62
256
6
ByLayer
370
18
48
1
60
0
100
AcDbLine
10
8.653835
20
-5.85
30
0
11
17.622204
21
-5.85
31
0
39
0
210
0
220
0
230
1
0
LINE
5
B0
100
AcDbEntity
8
1
62
256
6
ByLayer
370
18
48
1
60
0
100
AcDbLine
10
37.702822
20
-5.85
30
0
11
45.613782
21
-5.85
31
0
39
0
210
0
220
0
230
1
0
LINE
5
B1
100
AcDbEntity
8
1
62
256
6
ByLayer
370
18
48
1
60
0
100
AcDbLine
10
30.418751
20
5.85
30
0
11
8.653835
21
5.85
31
0
39
0
210
0
220
0
230
1
0
LINE
5
B2
100
AcDbEntity
8
SK1
62
256
6
ByLayer
370
18
48
1
60
0
100
AcDbLine
10
-42
20
-4.16
30
0
11
-41.66
21
-4.5
31
0
39
0
210
0
220
0
230
1
0
LINE
5
B3
100
AcDbEntity
8
SK1
62
256
6
ByLayer
370
18
48
1
60
0
100
AcDbLine
10
-41.66
20
4.5
30
0
11
-42
21
4.16
31
0
39
0
210
0
220
0
230
1
0
LINE
5
B4
100
AcDbEntity
8
SK1
62
256
6
ByLayer
370
18
48
1
60
0
100
AcDbLine
10
-27.6
20
5.76
30
0
11
-28.74
21
5.76
31
0
39
0
210
0
220
0
230
1
0
LINE
5
B5
100
AcDbEntity
8
SK1
62
256
6
ByLayer
370
18
48
1
60
0
100
AcDbLine
10
-28.74
20
-5.76
30
0
11
-27.6
21
-5.76
31
0
39
0
210
0
220
0
230
1
0
LINE
5
B6
100
AcDbEntity
8
SK1
62
256
6
ByLayer
370
18
48
1
60
0
100
AcDbLine
10
-27.6
20
-5.76
30
0
11
-27.36
21
-6
31
0
39
0
210
0
220
0
230
1
0
LINE
5
B7
100
AcDbEntity
8
SK1
62
256
6
ByLayer
370
18
48
1
60
0
100
AcDbLine
10
-27.36
20
6
30
0
11
-27.6
21
5.76
31
0
39
0
210
0
220
0
230
1
0
LINE
5
B8
100
AcDbEntity
8
SK1
62
256
6
ByLayer
370
18
48
1
60
0
100
AcDbLine
10
0
20
6
30
0
11
-27.36
21
6
31
0
39
0
210
0
220
0
230
1
0
LINE
5
B9
100
AcDbEntity
8
SK1
62
256
6
ByLayer
370
18
48
1
60
0
100
AcDbLine
10
-27.36
20
-6
30
0
11
0
21
-6
31
0
39
0
210
0
220
0
230
1
0
LINE
5
BA
100
AcDbEntity
8
SK2
62
256
6
ByLayer
370
18
48
1
60
0
100
AcDbLine
10
-1.68
20
-6
30
0
11
-1.68
21
20.333771
31
0
39
0
210
0
220
0
230
1
0
LINE
5
BC
100
AcDbEntity
8
1
62
256
6
ByLayer
370
18
48
1
60
1
100
AcDbLine
10
-1.68
20
6
30
0
11
-1.219216
21
2.500002
31
0
39
0
210
0
220
0
230
1
0
LINE
5
BD
100
AcDbEntity
8
1
62
256
6
ByLayer
370
18
48
1
60
1
100
AcDbLine
10
-1.219216
20
2.500002
30
0
11
-2.140784
21
2.499998
31
0
39
0
210
0
220
0
230
1
0
LINE
5
BE
100
AcDbEntity
8
1
62
256
6
ByLayer
370
18
48
1
60
1
100
AcDbLine
10
-2.140784
20
2.499998
30
0
11
-1.68
21
6
31
0
39
0
210
0
220
0
230
1
0
LINE
5
BF
100
AcDbEntity
8
1
62
256
6
ByLayer
370
18
48
1
60
1
100
AcDbLine
10
-1.68
20
-6
30
0
11
-2.140784
21
-2.500002
31
0
39
0
210
0
220
0
230
1
0
LINE
5
C0
100
AcDbEntity
8
1
62
256
6
ByLayer
370
18
48
1
60
1
100
AcDbLine
10
-2.140784
20
-2.500002
30
0
11
-1.219216
21
-2.499998
31
0
39
0
210
0
220
0
230
1
0
LINE
5
C1
100
AcDbEntity
8
1
62
256
6
ByLayer
370
18
48
1
60
1
100
AcDbLine
10
-1.219216
20
-2.499998
30
0
11
-1.68
21
-6
31
0
39
0
210
0
220
0
230
1
0
LINE
5
C2
100
AcDbEntity
8
2
62
256
6
ByLayer
370
18
48
1
60
0
100
AcDbLine
10
68
20
-45.583051
30
0
11
-42
21
-45.583051
31
0
39
0
210
0
220
0
230
1
0
LINE
5
C4
100
AcDbEntity
8
2
62
256
6
ByLayer
370
18
48
1
60
0
100
AcDbLine
10
-42
20
-5.7475
30
0
11
-42
21
-47.583051
31
0
39
0
210
0
220
0
230
1
0
LINE
5
C5
100
AcDbEntity
8
2
62
256
6
ByLayer
370
18
48
1
60
0
100
AcDbLine
10
68
20
-9.670551
30
0
11
68
21
-47.583051
31
0
39
0
210
0
220
0
230
1
0
LINE
5
C6
100
AcDbEntity
8
1
62
256
6
ByLayer
370
18
48
1
60
1
100
AcDbLine
10
-42
20
-45.583051
30
0
11
-38.500002
21
-45.122267
31
0
39
0
210
0
220
0
230
1
0
LINE
5
C7
100
AcDbEntity
8
1
62
256
6
ByLayer
370
18
48
1
60
1
100
AcDbLine
10
-38.500002
20
-45.122267
30
0
11
-38.499998
21
-46.043834
31
0
39
0
210
0
220
0
230
1
0
LINE
5
C8
100
AcDbEntity
8
1
62
256
6
ByLayer
370
18
48
1
60
1
100
AcDbLine
10
-38.499998
20
-46.043834
30
0
11
-42
21
-45.583051
31
0
39
0
210
0
220
0
230
1
0
LINE
5
C9
100
AcDbEntity
8
1
62
256
6
ByLayer
370
18
48
1
60
1
100
AcDbLine
10
68
20
-45.583051
30
0
11
64.500002
21
-46.043834
31
0
39
0
210
0
220
0
230
1
0
LINE
5
CA
100
AcDbEntity
8
1
62
256
6
ByLayer
370
18
48
1
60
1
100
AcDbLine
10
64.500002
20
-46.043834
30
0
11
64.499998
21
-45.122267
31
0
39
0
210
0
220
0
230
1
0
LINE
5
CB
100
AcDbEntity
8
1
62
256
6
ByLayer
370
18
48
1
60
1
100
AcDbLine
10
64.499998
20
-45.122267
30
0
11
68
21
-45.583051
31
0
39
0
210
0
220
0
230
1
0
LINE
5
1F1
100
AcDbEntity
8
1
62
256
6
ByLayer
370
18
48
1
60
1
100
AcDbLine
10
-1.68
20
6
30
0
11
-1.219216
21
2.500002
31
0
39
0
210
0
220
0
230
1
0
LINE
5
1F2
100
AcDbEntity
8
1
62
256
6
ByLayer
370
18
48
1
60
1
100
AcDbLine
10
-1.219216
20
2.500002
30
0
11
-2.140784
21
2.499998
31
0
39
0
210
0
220
0
230
1
0
LINE
5
1F3
100
AcDbEntity
8
1
62
256
6
ByLayer
370
18
48
1
60
1
100
AcDbLine
10
-2.140784
20
2.499998
30
0
11
-1.68
21
6
31
0
39
0
210
0
220
0
230
1
0
LINE
5
1F5
100
AcDbEntity
8
1
62
256
6
ByLayer
370
18
48
1
60
1
100
AcDbLine
10
-1.68
20
-6
30
0
11
-2.140784
21
-2.500002
31
0
39
0
210
0
220
0
230
1
0
LINE
5
1F6
100
AcDbEntity
8
1
62
256
6
ByLayer
370
18
48
1
60
1
100
AcDbLine
10
-2.140784
20
-2.500002
30
0
11
-1.219216
21
-2.499998
31
0
39
0
210
0
220
0
230
1
0
LINE
5
1F7
100
AcDbEntity
8
1
62
256
6
ByLayer
370
18
48
1
60
1
100
AcDbLine
10
-1.219216
20
-2.499998
30
0
11
-1.68
21
-6
31
0
39
0
210
0
220
0
230
1
0
LINE
5
1FA
100
AcDbEntity
8
1
62
256
6
ByLayer
370
18
48
1
60
1
100
AcDbLine
10
-42
20
-45.583051
30
0
11
-38.500002
21
-45.122267
31
0
39
0
210
0
220
0
230
1
0
LINE
5
1FB
100
AcDbEntity
8
1
62
256
6
ByLayer
370
18
48
1
60
1
100
AcDbLine
10
-38.500002
20
-45.122267
30
0
11
-38.499998
21
-46.043834
31
0
39
0
210
0
220
0
230
1
0
LINE
5
1FC
100
AcDbEntity
8
1
62
256
6
ByLayer
370
18
48
1
60
1
100
AcDbLine
10
-38.499998
20
-46.043834
30
0
11
-42
21
-45.583051
31
0
39
0
210
0
220
0
230
1
0
LINE
5
1FE
100
AcDbEntity
8
1
62
256
6
ByLayer
370
18
48
1
60
1
100
AcDbLine
10
68
20
-45.583051
30
0
11
64.500002
21
-46.043834
31
0
39
0
210
0
220
0
230
1
0
LINE
5
1FF
100
AcDbEntity
8
1
62
256
6
ByLayer
370
18
48
1
60
1
100
AcDbLine
10
64.500002
20
-46.043834
30
0
11
64.499998
21
-45.122267
31
0
39
0
210
0
220
0
230
1
0
LINE
5
200
100
AcDbEntity
8
1
62
256
6
ByLayer
370
18
48
1
60
1
100
AcDbLine
10
64.499998
20
-45.122267
30
0
11
68
21
-45.583051
31
0
39
0
210
0
220
0
230
1
0
MTEXT
5
1ED
100
AcDbEntity
8
SK2
62
256
6
ByLayer
370
18
48
1
60
0
100
AcDbMText
10
-3.021114
20
11.658437
30
0
210
0
220
0
230
1
1
%%c
40
3
41
0
44
1.084337
50
90
71
7
72
5
7
iso_b_vert
0
MTEXT
5
1F0
100
AcDbEntity
8
SK2
62
256
6
ByLayer
370
18
48
1
60
0
100
AcDbMText
10
-3.021114
20
17.635
30
0
210
0
220
0
230
1
1
\W0.5321;12
40
3
41
0
44
1.084337
50
90
71
7
72
5
7
iso_b_vert
0
MTEXT
5
1F9
100
AcDbEntity
8
2
62
256
6
ByLayer
370
18
48
1
60
0
100
AcDbMText
10
10.996143
20
-44.697936
30
0
210
0
220
0
230
1
1
\W0.5296;110
40
3
41
0
44
1.084337
50
0
71
7
72
5
7
iso_b_vert
0
MTEXT
5
202
100
AcDbEntity
8
SK6
62
256
6
ByLayer
370
18
48
1
60
0
100
AcDbMText
10
2.924197
20
-82.114886
30
0
210
0
220
0
230
1
1
\W0.7295;T300-XM101DA-M16    B150
40
3
41
0
44
1.084337
50
0
71
7
72
5
7
iso_b_vert
0
HATCH
5
1F4
100
AcDbEntity
8
SK2
62
256
6
ByLayer
370
13
48
1
60
0
100
AcDbHatch
10
0
20
0
30
0
210
0
220
0
230
1
2
ANSI31
70
0
71
0
91
1
92
5
93
3
72
1
10
-1.68000000000001
20
6
11
-1.21921625844723
21
2.50000169255318
72
1
10
-1.21921625844723
20
2.50000169255318
11
-2.14078374155278
21
2.49999830744682
72
1
10
-2.14078374155278
20
2.49999830744682
11
-1.68000000000001
21
6
97
0
75
0
76
1
52
0
41
0.0062
77
0
78
1
53
45
43
0
44
0
45
-0.0139193969876572
46
0.0139193969876572
79
0
47
0
98
1
10
0
20
0
0
HATCH
5
1F8
100
AcDbEntity
8
SK2
62
256
6
ByLayer
370
13
48
1
60
0
100
AcDbHatch
10
0
20
0
30
0
210
0
220
0
230
1
2
ANSI31
70
0
71
0
91
1
92
5
93
3
72
1
10
-1.68000000000001
20
-6
11
-2.14078374155278
21
-2.50000169255318
72
1
10
-2.14078374155278
20
-2.50000169255318
11
-1.21921625844723
21
-2.49999830744682
72
1
10
-1.21921625844723
20
-2.49999830744682
11
-1.68000000000001
21
-6
97
0
75
0
76
1
52
0
41
0.0062
77
0
78
1
53
45
43
0
44
0
45
-0.0139193969876572
46
0.0139193969876572
79
0
47
0
98
1
10
0
20
0
0
HATCH
5
1FD
100
AcDbEntity
8
2
62
256
6
ByLayer
370
13
48
1
60
0
100
AcDbHatch
10
0
20
0
30
0
210
0
220
0
230
1
2
ANSI31
70
0
71
0
91
1
92
5
93
3
72
1
10
-42
20
-45.5830505237384
11
-38.5000016925532
21
-45.1222667821856
72
1
10
-38.5000016925532
20
-45.1222667821856
11
-38.4999983074468
21
-46.0438342652912
72
1
10
-38.4999983074468
20
-46.0438342652912
11
-42
21
-45.5830505237384
97
0
75
0
76
1
52
0
41
0.0062
77
0
78
1
53
45
43
0
44
0
45
-0.0139193969876572
46
0.0139193969876572
79
0
47
0
98
1
10
0
20
0
0
HATCH
5
201
100
AcDbEntity
8
2
62
256
6
ByLayer
370
13
48
1
60
0
100
AcDbHatch
10
0
20
0
30
0
210
0
220
0
230
1
2
ANSI31
70
0
71
0
91
1
92
5
93
3
72
1
10
68
20
-45.5830505237384
11
64.5000016925532
21
-46.0438342652912
72
1
10
64.5000016925532
20
-46.0438342652912
11
64.4999983074468
21
-45.1222667821856
72
1
10
64.4999983074468
20
-45.1222667821856
11
68
21
-45.5830505237384
97
0
75
0
76
1
52
0
41
0.0062
77
0
78
1
53
45
43
0
44
0
45
-0.0139193969876572
46
0.0139193969876572
79
0
47
0
98
1
10
0
20
0
0
DIMENSION
5
205
100
AcDbEntity
8
2
62
256
6
ByLayer
370
18
48
1
60
0
100
AcDbDimension
2
_U0
10
87.5
20
-8.083051
30
0
11
87.5
21
23.297336
31
0
70
32
71
1
72
1
41
1
210
0
220
0
230
1
3
Standard
100
AcDbAlignedDimension
13
68
23
8.083051
33
0
14
68
24
-8.083051
34
0
50
90
100
AcDbRotatedDimension
1001
ACAD
1000
DSTYLE
1002
{
1070
   371
1070
    13
1070
   372
1070
    13
1070
     3
1000

1070
   170
1070
     0
1070
   144
1040
1.0
1070
   277
1070
     2
1070
   284
1070
     8
1070
   278
1070
    46
1070
   146
1040
1.166667
1070
   345
1005
16
1070
   347
1005
16
1070
   346
1005
16
1070
   344
1005
0
1070
   343
1005
0
1070
   172
1070
     1
1070
    76
1070
     0
1070
    75
1070
     0
1070
   282
1070
     0
1070
   281
1070
     0
1070
    71
1070
     0
1070
    74
1070
     0
1070
   279
1070
     0
1070
   173
1070
     1
1070
   340
1005
1EE
1070
   271
1070
     3
1070
   272
1070
     3
1070
    77
1070
     1
1070
    73
1070
     0
1070
   171
1070
     3
1070
   274
1070
     4
1070
   177
1070
     2
1070
   176
1070
     2
1070
   178
1070
     2
1070
    78
1070
     8
1070
    48
1040
-0.1
1070
    41
1040
3.5
1070
   147
1040
1.5
1070
    42
1040
1.5875
1070
    44
1040
2.0
1070
   140
1040
3.0
1002
}
1001
ACAD_DSTYLE_DIM_LINETYPE
1070
   380
1005
16
1001
ACAD_DSTYLE_DIM_EXT1_LINETYPE
1070
   381
1005
16
1001
ACAD_DSTYLE_DIM_EXT2_LINETYPE
1070
   382
1005
16
0
DIMENSION
5
21F
100
AcDbEntity
8
SK2
62
256
6
ByLayer
370
18
48
1
60
0
100
AcDbDimension
2
_U1
10
62.5
20
17.098844
30
0
11
65.25
21
17.098844
31
0
70
32
71
1
72
1
41
1
210
0
220
0
230
1
3
Standard
100
AcDbAlignedDimension
13
68
23
8.083051
33
0
14
62.5
24
0
34
0
50
0
100
AcDbRotatedDimension
1001
ACAD
1000
DSTYLE
1002
{
1070
   371
1070
    13
1070
   372
1070
    13
1070
   170
1070
     0
1070
   144
1040
1.0
1070
   277
1070
     2
1070
   284
1070
     8
1070
   278
1070
    46
1070
   146
1040
1.166667
1070
   345
1005
16
1070
   347
1005
16
1070
   346
1005
16
1070
   344
1005
0
1070
   343
1005
0
1070
   172
1070
     1
1070
    76
1070
     0
1070
    75
1070
     0
1070
   282
1070
     0
1070
   281
1070
     0
1070
    71
1070
     0
1070
    74
1070
     0
1070
   279
1070
     0
1070
   173
1070
     1
1070
   340
1005
1EE
1070
   271
1070
     3
1070
   272
1070
     3
1070
    77
1070
     1
1070
    73
1070
     1
1070
   171
1070
     3
1070
   274
1070
     4
1070
   177
1070
     2
1070
   176
1070
     2
1070
   178
1070
     2
1070
    78
1070
     8
1070
    48
1040
-0.1
1070
    41
1040
3.5
1070
   147
1040
1.5
1070
    42
1040
1.5875
1070
    44
1040
2.0
1070
   140
1040
3.0
1002
}
1001
ACAD_DSTYLE_DIM_LINETYPE
1070
   380
1005
16
1001
ACAD_DSTYLE_DIM_EXT1_LINETYPE
1070
   381
1005
16
1001
ACAD_DSTYLE_DIM_EXT2_LINETYPE
1070
   382
1005
16
0
DIMENSION
5
239
100
AcDbEntity
8
SK2
62
256
6
ByLayer
370
18
48
1
60
0
100
AcDbDimension
2
_U2
10
48
20
-15.083051
30
0
11
58.47619
21
-15.083051
31
0
70
32
71
1
72
1
41
1
210
0
220
0
230
1
3
Standard
100
AcDbAlignedDimension
13
68
23
-8.083051
33
0
14
48
24
-8.083051
34
0
50
0
100
AcDbRotatedDimension
1001
ACAD
1000
DSTYLE
1002
{
1070
   371
1070
    13
1070
   372
1070
    13
1070
   170
1070
     0
1070
   144
1040
1.0
1070
   277
1070
     2
1070
   284
1070
     8
1070
   278
1070
    46
1070
   146
1040
0.833333
1070
   345
1005
16
1070
   347
1005
16
1070
   346
1005
16
1070
   344
1005
0
1070
   343
1005
0
1070
   172
1070
     1
1070
    76
1070
     0
1070
    75
1070
     0
1070
   282
1070
     0
1070
   281
1070
     0
1070
    47
1040
0.5
1070
    72
1070
     0
1070
    71
1070
     1
1070
    74
1070
     0
1070
   279
1070
     0
1070
   173
1070
     1
1070
   340
1005
1EE
1070
   271
1070
     1
1070
   272
1070
     3
1070
    77
1070
     1
1070
    73
1070
     1
1070
   171
1070
     3
1070
   274
1070
     4
1070
   177
1070
     2
1070
   176
1070
     2
1070
   178
1070
     2
1070
    78
1070
     8
1070
    48
1040
0.5
1070
    41
1040
3.5
1070
   147
1040
1.5
1070
    42
1040
1.5875
1070
    44
1040
2.0
1070
   140
1040
3.0
1002
}
1001
ACAD_DSTYLE_DIM_LINETYPE
1070
   380
1005
16
1001
ACAD_DSTYLE_DIM_EXT1_LINETYPE
1070
   381
1005
16
1001
ACAD_DSTYLE_DIM_EXT2_LINETYPE
1070
   382
1005
16
0
DIMENSION
5
252
100
AcDbEntity
8
SK2
62
256
6
ByLayer
370
18
48
1
60
0
100
AcDbDimension
2
_U3
10
8
20
-37.583051
30
0
11
38
21
-37.583051
31
0
70
32
71
1
72
1
41
1
210
0
220
0
230
1
3
Standard
100
AcDbAlignedDimension
13
68
23
-8.083051
33
0
14
8
24
-5.85
34
0
50
0
100
AcDbRotatedDimension
1001
ACAD
1000
DSTYLE
1002
{
1070
   371
1070
    13
1070
   372
1070
    13
1070
   170
1070
     0
1070
   144
1040
1.0
1070
   277
1070
     2
1070
   284
1070
     8
1070
   278
1070
    46
1070
   146
1040
1.166667
1070
   345
1005
16
1070
   347
1005
16
1070
   346
1005
16
1070
   344
1005
0
1070
   343
1005
0
1070
   172
1070
     1
1070
    76
1070
     0
1070
    75
1070
     0
1070
   282
1070
     0
1070
   281
1070
     0
1070
    71
1070
     0
1070
    74
1070
     0
1070
   279
1070
     0
1070
   173
1070
     1
1070
   340
1005
1EE
1070
   271
1070
     1
1070
   272
1070
     3
1070
    77
1070
     1
1070
    73
1070
     1
1070
   171
1070
     3
1070
   274
1070
     4
1070
   177
1070
     2
1070
   176
1070
     2
1070
   178
1070
     2
1070
    78
1070
     8
1070
    48
1040
-0.1
1070
    41
1040
3.5
1070
   147
1040
1.5
1070
    42
1040
1.5875
1070
    44
1040
2.0
1070
   140
1040
3.0
1002
}
1001
ACAD_DSTYLE_DIM_LINETYPE
1070
   380
1005
16
1001
ACAD_DSTYLE_DIM_EXT1_LINETYPE
1070
   381
1005
16
1001
ACAD_DSTYLE_DIM_EXT2_LINETYPE
1070
   382
1005
16
0
DIMENSION
5
26A
100
AcDbEntity
8
2
62
256
6
ByLayer
370
18
48
1
60
0
100
AcDbDimension
2
_U4
10
17
20
-26.583051
30
0
11
42.5
21
-26.583051
31
0
70
32
71
1
72
1
41
1
210
0
220
0
230
1
3
Standard
100
AcDbAlignedDimension
13
68
23
-8.083051
33
0
14
17
24
0
34
0
50
0
100
AcDbRotatedDimension
1001
ACAD
1000
DSTYLE
1002
{
1070
   371
1070
    13
1070
   372
1070
    13
1070
   170
1070
     0
1070
   144
1040
1.0
1070
   277
1070
     2
1070
   284
1070
     8
1070
   278
1070
    46
1070
   146
1040
1.166667
1070
   345
1005
16
1070
   347
1005
16
1070
   346
1005
16
1070
   344
1005
0
1070
   343
1005
0
1070
   172
1070
     1
1070
    76
1070
     0
1070
    75
1070
     0
1070
   282
1070
     0
1070
   281
1070
     0
1070
    71
1070
     0
1070
    74
1070
     0
1070
   279
1070
     0
1070
   173
1070
     1
1070
   340
1005
1EE
1070
   271
1070
     1
1070
   272
1070
     3
1070
    77
1070
     1
1070
    73
1070
     1
1070
   171
1070
     3
1070
   274
1070
     4
1070
   177
1070
     2
1070
   176
1070
     2
1070
   178
1070
     2
1070
    78
1070
     8
1070
    48
1040
-0.1
1070
    41
1040
3.5
1070
   147
1040
1.5
1070
    42
1040
1.5875
1070
    44
1040
2.0
1070
   140
1040
3.0
1002
}
1001
ACAD_DSTYLE_DIM_LINETYPE
1070
   380
1005
16
1001
ACAD_DSTYLE_DIM_EXT1_LINETYPE
1070
   381
1005
16
1001
ACAD_DSTYLE_DIM_EXT2_LINETYPE
1070
   382
1005
16
0
ENDSEC
0
SECTION
2
OBJECTS
0
DICTIONARY
5
2f2
330
0
100
AcDbDictionary
280
0
281
1
3
ACAD_GROUP
350
2f3
3
ACAD_MLINESTYLE
350
2f4
0
DICTIONARY
5
2f3
330
0
100
AcDbDictionary
280
0
281
1
0
DICTIONARY
5
2f4
330
0
100
AcDbDictionary
280
0
281
1
3
Standard
350
18
0
MLINESTYLE
5
18
330
2f4
100
AcDbMlineStyle
2
Standard
70
0
3

62
256
51
90
52
90
71
2
49
-0.5
62
256
6
ByLayer
49
0.5
62
256
6
ByLayer
0
RASTERVARIABLES
5
2e0
330

100
AcDbRasterVariables
90
0
70
1
71
1
72
1
0
ENDSEC
0
EOF
