0
SECTION
2
HEADER
9
$ACADVER
1
AC1015
9
$DWGCODEPAGE
3
ANSI_1252
9
$HANDSEED
5
2ee
9
$ANGBASE
50
0
9
$ANGDIR
70
0
9
$ATTMODE
70
1
9
$AUNITS
70
0
9
$AUPREC
70
0
9
$CECOLOR
62
256
9
$CELTSCALE
40
1
9
$CELTYPE
6
ByLayer
9
$CELWEIGHT
370
18
9
$CLAYER
8
0
9
$CMLJUST
70
0
9
$CMLSCALE
40
1
9
$CMLSTYLE
2
Standard
9
$DIMSTYLE
2
Standard
9
$TEXTSIZE
40
0.2
9
$TEXTSTYLE
7
Standard
9
$LUNITS
70
2
9
$LUPREC
70
4
9
$EXTNAMES
290
1
9
$INSUNITS
70
4
9
$LTSCALE
40
1
9
$LWDISPLAY
290
1
9
$PDMODE
70
0
9
$PDSIZE
40
0
9
$PLINEGEN
70
0
0
ENDSEC
0
SECTION
2
CLASSES
0
CLASS
1
RASTERVARIABLES
2
AcDbRasterVariables
3
ISM
90
0
280
0
281
0
0
ENDSEC
0
SECTION
2
TABLES
0
TABLE
2
VPORT
5
2e4
100
AcDbSymbolTable
0
VPORT
5
1
100
AcDbSymbolTableRecord
100
AcDbViewportTableRecord
2
*Active
70
0
10
0
20
0
11
1
21
1
12
-1
22
1
13
0
23
0
14
0.5
24
0.5
15
10
25
10
16
0
26
0
36
1
17
0
27
0
37
0
0
ENDTAB
0
TABLE
2
LTYPE
5
2e5
100
AcDbSymbolTable
0
LTYPE
5
14
100
AcDbSymbolTableRecord
100
AcDbLinetypeTableRecord
70
0
2
ByBlock
3

72
65
73
0
40
0
0
LTYPE
5
15
100
AcDbSymbolTableRecord
100
AcDbLinetypeTableRecord
70
0
2
ByLayer
3

72
65
73
0
40
0
0
LTYPE
5
16
100
AcDbSymbolTableRecord
100
AcDbLinetypeTableRecord
70
0
2
Continuous
3
Solid line
72
65
73
0
40
0
0
LTYPE
5
6E
100
AcDbSymbolTableRecord
100
AcDbLinetypeTableRecord
70
0
2
CENTER
3
____ _ ____ _ ____ _ ____
72
65
73
4
40
47.5
49
22
74
0
49
-8.5
74
0
49
8.5
74
0
49
-8.5
74
0
0
LTYPE
5
6F
100
AcDbSymbolTableRecord
100
AcDbLinetypeTableRecord
70
0
2
DASHED
3
__ __ __ __ __ __ __ __ __
72
65
73
2
40
25.72
49
12.86
74
0
49
-12.86
74
0
0
ENDTAB
0
TABLE
2
LAYER
5
2e6
100
AcDbSymbolTable
0
LAYER
5
10
100
AcDbSymbolTableRecord
100
AcDbLayerTableRecord
2
0
70
0
62
7
6
Continuous
290
1
370
-3
390
0
0
LAYER
5
71
100
AcDbSymbolTableRecord
100
AcDbLayerTableRecord
2
80
70
0
62
-6
6
Continuous
290
1
370
-3
390
0
0
LAYER
5
73
100
AcDbSymbolTableRecord
100
AcDbLayerTableRecord
2
81
70
0
62
-3
6
Continuous
290
1
370
-3
390
0
0
LAYER
5
75
100
AcDbSymbolTableRecord
100
AcDbLayerTableRecord
2
1
70
0
62
4
6
Continuous
290
1
370
-3
390
0
0
LAYER
5
81
100
AcDbSymbolTableRecord
100
AcDbLayerTableRecord
2
4
70
0
62
-2
6
CENTER
290
1
370
-3
390
0
0
LAYER
5
C2
100
AcDbSymbolTableRecord
100
AcDbLayerTableRecord
2
2
70
0
62
7
6
Continuous
290
1
370
-3
390
0
0
LAYER
5
1F4
100
AcDbSymbolTableRecord
100
AcDbLayerTableRecord
2
Defpoints
70
0
62
7
6
Continuous
290
0
370
-3
390
0
0
LAYER
5
2d0
100
AcDbSymbolTableRecord
100
AcDbLayerTableRecord
2
SK4
70
0
62
2
6
CENTER
290
1
370
-3
390
0
0
LAYER
5
2d1
100
AcDbSymbolTableRecord
100
AcDbLayerTableRecord
2
SK1
70
0
62
4
6
Continuous
290
1
370
-3
390
0
0
LAYER
5
2d2
100
AcDbSymbolTableRecord
100
AcDbLayerTableRecord
2
SK2
70
0
62
7
6
Continuous
290
1
370
-3
390
0
0
LAYER
5
2d3
100
AcDbSymbolTableRecord
100
AcDbLayerTableRecord
2
SK6
70
0
62
5
6
Continuous
290
1
370
-3
390
0
0
ENDTAB
0
TABLE
2
STYLE
5
2e7
100
AcDbSymbolTable
0
STYLE
5
11
100
AcDbSymbolTableRecord
100
AcDbTextStyleTableRecord
2
Standard
3
txt
70
0
71
0
40
0
41
1
42
0
50
0
0
STYLE
5
1DA
100
AcDbSymbolTableRecord
100
AcDbTextStyleTableRecord
2
iso_b_vert
3
simplex.shx
70
0
71
0
40
0
41
1
42
0
50
0
0
STYLE
5
1DB
100
AcDbSymbolTableRecord
100
AcDbTextStyleTableRecord
2
DWGDirectTextStyle
3
simplex
70
0
71
0
40
0
41
1
42
0
50
0
0
ENDTAB
0
TABLE
2
DIMSTYLE
5
2e8
100
AcDbSymbolTable
100
AcDbDimStyleTable
0
DIMSTYLE
105
27
100
AcDbSymbolTableRecord
100
AcDbDimStyleTableRecord
2
Standard
70
0
3
<>
41
0.18
42
0.0625
44
0.18
140
0.18
147
0.09
73
0
74
0
77
1
271
2
275
0
278
52
280
0
340
11
0
ENDTAB
0
TABLE
2
VIEW
5
2e9
100
AcDbSymbolTable
0
ENDTAB
0
TABLE
2
UCS
5
2ea
100
AcDbSymbolTable
0
ENDTAB
0
TABLE
2
APPID
5
2eb
100
AcDbSymbolTable
0
APPID
5
12
100
AcDbSymbolTableRecord
100
AcDbRegAppTableRecord
2
ACAD
70
0
0
APPID
5
1F0
100
AcDbSymbolTableRecord
100
AcDbRegAppTableRecord
2
ACAD_DSTYLE_DIMBREAK
70
0
0
APPID
5
28F
100
AcDbSymbolTableRecord
100
AcDbRegAppTableRecord
2
ACAD_DSTYLE_DIM_LINETYPE
70
0
0
APPID
5
290
100
AcDbSymbolTableRecord
100
AcDbRegAppTableRecord
2
ACAD_DSTYLE_DIM_EXT1_LINETYPE
70
0
0
APPID
5
291
100
AcDbSymbolTableRecord
100
AcDbRegAppTableRecord
2
ACAD_DSTYLE_DIM_EXT2_LINETYPE
70
0
0
APPID
5
2CC
100
AcDbSymbolTableRecord
100
AcDbRegAppTableRecord
2
ACAD_MLEADERVER
70
0
0
ENDTAB
0
TABLE
2
BLOCK_RECORD
5
2ec
100
AcDbSymbolTable
0
BLOCK_RECORD
5
1F
100
AcDbSymbolTableRecord
100
AcDbBlockTableRecord
2
*Model_Space
340
0
70
0
0
BLOCK_RECORD
5
1B
100
AcDbSymbolTableRecord
100
AcDbBlockTableRecord
2
*Paper_Space
340
0
70
0
0
BLOCK_RECORD
5
23
100
AcDbSymbolTableRecord
100
AcDbBlockTableRecord
2
*Paper_Space0
340
0
70
0
0
BLOCK_RECORD
5
1F5
100
AcDbSymbolTableRecord
100
AcDbBlockTableRecord
2
*D1
340
0
70
0
0
BLOCK_RECORD
5
203
100
AcDbSymbolTableRecord
100
AcDbBlockTableRecord
2
_U0
340
0
70
0
0
BLOCK_RECORD
5
20F
100
AcDbSymbolTableRecord
100
AcDbBlockTableRecord
2
*D3
340
0
70
0
0
BLOCK_RECORD
5
21C
100
AcDbSymbolTableRecord
100
AcDbBlockTableRecord
2
_U1
340
0
70
0
0
BLOCK_RECORD
5
229
100
AcDbSymbolTableRecord
100
AcDbBlockTableRecord
2
*D5
340
0
70
0
0
BLOCK_RECORD
5
237
100
AcDbSymbolTableRecord
100
AcDbBlockTableRecord
2
_U2
340
0
70
0
0
BLOCK_RECORD
5
244
100
AcDbSymbolTableRecord
100
AcDbBlockTableRecord
2
*D7
340
0
70
0
0
BLOCK_RECORD
5
250
100
AcDbSymbolTableRecord
100
AcDbBlockTableRecord
2
_U3
340
0
70
0
0
BLOCK_RECORD
5
25C
100
AcDbSymbolTableRecord
100
AcDbBlockTableRecord
2
*D9
340
0
70
0
0
BLOCK_RECORD
5
268
100
AcDbSymbolTableRecord
100
AcDbBlockTableRecord
2
_U4
340
0
70
0
0
ENDTAB
0
ENDSEC
0
SECTION
2
BLOCKS
0
BLOCK
5
20
100
AcDbEntity
8
0
100
AcDbBlockBegin
2
*Model_Space
70
0
10
0
20
0
30
0
3
*Model_Space
0
ENDBLK
5
21
100
AcDbEntity
8
0
100
AcDbBlockEnd
0
BLOCK
5
1C
100
AcDbEntity
8
0
100
AcDbBlockBegin
2
*Paper_Space
70
0
10
0
20
0
30
0
3
*Paper_Space
0
ENDBLK
5
1D
100
AcDbEntity
8
0
100
AcDbBlockEnd
0
BLOCK
5
24
100
AcDbEntity
8
0
100
AcDbBlockBegin
2
*Paper_Space0
70
0
10
0
20
0
30
0
3
*Paper_Space0
0
ENDBLK
5
25
100
AcDbEntity
8
0
100
AcDbBlockEnd
0
BLOCK
5
1F6
100
AcDbEntity
8
0
100
AcDbBlockBegin
2
*D1
70
1
10
0
20
0
30
0
3
*D1
0
LINE
5
1F8
100
AcDbEntity
8
0
62
256
6
ByLayer
370
-2
48
1
60
0
100
AcDbLine
10
67.5875
20
4.064208
30
0
11
87.5
21
4.064208
31
0
39
0
210
0
220
0
230
1
0
LINE
5
1F9
100
AcDbEntity
8
0
62
256
6
ByLayer
370
-2
48
1
60
0
100
AcDbLine
10
67.5875
20
-4.064208
30
0
11
87.5
21
-4.064208
31
0
39
0
210
0
220
0
230
1
0
LINE
5
1FA
100
AcDbEntity
8
0
62
256
6
ByLayer
370
-2
48
1
60
0
100
AcDbLine
10
85.5
20
4.064208
30
0
11
85.5
21
32.064208
31
0
39
0
210
0
220
0
230
1
0
LINE
5
1FB
100
AcDbEntity
8
0
62
256
6
ByLayer
370
-2
48
1
60
0
100
AcDbLine
10
85.5
20
7.564208
30
0
11
85.5
21
11.064208
31
0
39
0
210
0
220
0
230
1
0
LINE
5
1FC
100
AcDbEntity
8
0
62
256
6
ByLayer
370
-2
48
1
60
0
100
AcDbLine
10
85.5
20
-7.564208
30
0
11
85.5
21
-11.064208
31
0
39
0
210
0
220
0
230
1
0
SOLID
5
1FD
100
AcDbEntity
8
0
62
256
6
ByLayer
370
-1
48
1
60
0
100
AcDbTrace
10
84.916667
20
7.564208
30
0
11
86.083333
21
7.564208
31
0
12
85.5
22
4.064208
32
0
13
85.5
23
4.064208
33
0
39
0
210
0
220
0
230
1
0
SOLID
5
1FE
100
AcDbEntity
8
0
62
256
6
ByLayer
370
-1
48
1
60
0
100
AcDbTrace
10
86.083333
20
-7.564208
30
0
11
84.916667
21
-7.564208
31
0
12
85.5
22
-4.064208
32
0
13
85.5
23
-4.064208
33
0
39
0
210
0
220
0
230
1
0
MTEXT
5
1FF
100
AcDbEntity
8
0
62
256
6
ByLayer
370
18
48
1
60
0
100
AcDbMText
10
79.5
20
21.564208
30
0
210
0
220
0
230
1
1
\A1;8.128
40
3
41
0
44
1
50
90
71
5
72
5
7
iso_b_vert
0
POINT
5
200
100
AcDbEntity
8
Defpoints
62
0
6
ByLayer
370
-1
48
1
60
0
100
AcDbPoint
10
66
20
4.064208
30
0
39
0
210
0
220
0
230
1
50
360
0
POINT
5
201
100
AcDbEntity
8
Defpoints
62
0
6
ByLayer
370
-1
48
1
60
0
100
AcDbPoint
10
66
20
-4.064208
30
0
39
0
210
0
220
0
230
1
50
360
0
POINT
5
202
100
AcDbEntity
8
Defpoints
62
0
6
ByLayer
370
-1
48
1
60
0
100
AcDbPoint
10
85.5
20
-4.064208
30
0
39
0
210
0
220
0
230
1
50
360
0
ENDBLK
5
1F7
100
AcDbEntity
8
0
100
AcDbBlockEnd
0
BLOCK
5
20A
100
AcDbEntity
8
0
100
AcDbBlockBegin
2
_U0
70
0
10
0
20
0
30
0
3
_U0
0
MTEXT
5
204
100
AcDbEntity
8
2
62
256
6
ByLayer
370
18
48
1
60
0
100
AcDbMText
10
84.908886
20
14.199208
30
0
210
0
220
0
230
1
1
\W0.7203;M8
40
3
41
0
44
1.084337
50
90
71
7
72
5
7
iso_b_vert
0
LINE
5
205
100
AcDbEntity
8
2
62
256
6
ByLayer
370
13
48
1
60
0
100
AcDbLine
10
67.5875
20
4.064208
30
0
11
87.5
21
4.064208
31
0
39
0
210
0
220
0
230
1
0
LINE
5
206
100
AcDbEntity
8
2
62
256
6
ByLayer
370
13
48
1
60
0
100
AcDbLine
10
67.5875
20
-4.064208
30
0
11
87.5
21
-4.064208
31
0
39
0
210
0
220
0
230
1
0
LINE
5
207
100
AcDbEntity
8
2
62
256
6
ByLayer
370
13
48
1
60
0
100
AcDbLine
10
85.5
20
-4.064208
30
0
11
85.5
21
18.319008
31
0
39
0
210
0
220
0
230
1
0
SOLID
5
208
100
AcDbEntity
8
2
62
256
6
ByLayer
370
18
48
1
60
0
100
AcDbTrace
10
85.5
20
4.064208
30
0
11
85.960784
21
0.56421
31
0
12
85.039216
22
0.564207
32
0
13
85.039216
23
0.564207
33
0
39
0
210
0
220
0
230
1
0
SOLID
5
209
100
AcDbEntity
8
2
62
256
6
ByLayer
370
18
48
1
60
0
100
AcDbTrace
10
85.5
20
-4.064208
30
0
11
85.039216
21
-0.56421
31
0
12
85.960784
22
-0.564207
32
0
13
85.960784
23
-0.564207
33
0
39
0
210
0
220
0
230
1
0
ENDBLK
5
20B
100
AcDbEntity
8
0
100
AcDbBlockEnd
0
BLOCK
5
210
100
AcDbEntity
8
0
100
AcDbBlockBegin
2
*D3
70
1
10
0
20
0
30
0
3
*D3
0
LINE
5
212
100
AcDbEntity
8
0
62
256
6
ByLayer
370
-2
48
1
60
0
100
AcDbLine
10
66
20
5.651708
30
0
11
66
21
15.031085
31
0
39
0
210
0
220
0
230
1
0
LINE
5
213
100
AcDbEntity
8
0
62
256
6
ByLayer
370
-2
48
1
60
0
100
AcDbLine
10
62.56
20
1.5875
30
0
11
62.56
21
15.031085
31
0
39
0
210
0
220
0
230
1
0
LINE
5
214
100
AcDbEntity
8
0
62
256
6
ByLayer
370
-2
48
1
60
0
100
AcDbLine
10
69.5
20
13.031085
30
0
11
73
21
13.031085
31
0
39
0
210
0
220
0
230
1
0
LINE
5
215
100
AcDbEntity
8
0
62
256
6
ByLayer
370
-2
48
1
60
0
100
AcDbLine
10
59.06
20
13.031085
30
0
11
55.56
21
13.031085
31
0
39
0
210
0
220
0
230
1
0
SOLID
5
216
100
AcDbEntity
8
0
62
256
6
ByLayer
370
-1
48
1
60
0
100
AcDbTrace
10
69.5
20
13.614418
30
0
11
69.5
21
12.447752
31
0
12
66
22
13.031085
32
0
13
66
23
13.031085
33
0
39
0
210
0
220
0
230
1
0
SOLID
5
217
100
AcDbEntity
8
0
62
256
6
ByLayer
370
-1
48
1
60
0
100
AcDbTrace
10
59.06
20
12.447752
30
0
11
59.06
21
13.614418
31
0
12
62.56
22
13.031085
32
0
13
62.56
23
13.031085
33
0
39
0
210
0
220
0
230
1
0
MTEXT
5
218
100
AcDbEntity
8
0
62
256
6
ByLayer
370
18
48
1
60
0
100
AcDbMText
10
64.28
20
19.031085
30
0
210
0
220
0
230
1
1
\A1;3.44
40
3
41
0
44
1
50
0
71
5
72
5
7
iso_b_vert
0
POINT
5
219
100
AcDbEntity
8
Defpoints
62
0
6
ByLayer
370
-1
48
1
60
0
100
AcDbPoint
10
66
20
4.064208
30
0
39
0
210
0
220
0
230
1
50
360
0
POINT
5
21A
100
AcDbEntity
8
Defpoints
62
0
6
ByLayer
370
-1
48
1
60
0
100
AcDbPoint
10
62.56
20
0
30
0
39
0
210
0
220
0
230
1
50
360
0
POINT
5
21B
100
AcDbEntity
8
Defpoints
62
0
6
ByLayer
370
-1
48
1
60
0
100
AcDbPoint
10
62.56
20
13.031085
30
0
39
0
210
0
220
0
230
1
50
360
0
ENDBLK
5
211
100
AcDbEntity
8
0
100
AcDbBlockEnd
0
BLOCK
5
224
100
AcDbEntity
8
0
100
AcDbBlockBegin
2
_U1
70
0
10
0
20
0
30
0
3
_U1
0
MTEXT
5
21D
100
AcDbEntity
8
SK2
62
256
6
ByLayer
370
18
48
1
60
0
100
AcDbMText
10
60.629158
20
13.813718
30
0
210
0
220
0
230
1
1
\W0.6474;'C'
40
3.5
41
0
44
1.084337
50
0
71
7
72
5
7
iso_b_vert
0
MTEXT
5
21E
100
AcDbEntity
8
SK2
62
256
6
ByLayer
370
18
48
1
60
0
100
AcDbMText
10
60.602658
20
20.916199
30
0
210
0
220
0
230
1
1
\W0.7865;3.44
40
3
41
0
44
1.084337
50
0
71
7
72
5
7
iso_b_vert
0
LINE
5
21F
100
AcDbEntity
8
SK2
62
256
6
ByLayer
370
13
48
1
60
0
100
AcDbLine
10
66
20
5.651708
30
0
11
66
21
15.031085
31
0
39
0
210
0
220
0
230
1
0
LINE
5
220
100
AcDbEntity
8
SK2
62
256
6
ByLayer
370
13
48
1
60
0
100
AcDbLine
10
62.56
20
1.5875
30
0
11
62.56
21
15.031085
31
0
39
0
210
0
220
0
230
1
0
LINE
5
221
100
AcDbEntity
8
SK2
62
256
6
ByLayer
370
13
48
1
60
0
100
AcDbLine
10
73.5
20
13.031085
30
0
11
55.06
21
13.031085
31
0
39
0
210
0
220
0
230
1
0
SOLID
5
222
100
AcDbEntity
8
SK2
62
256
6
ByLayer
370
18
48
1
60
0
100
AcDbTrace
10
66
20
13.031085
30
0
11
69.499998
21
13.491869
31
0
12
69.500002
22
12.570301
32
0
13
69.500002
23
12.570301
33
0
39
0
210
0
220
0
230
1
0
SOLID
5
223
100
AcDbEntity
8
SK2
62
256
6
ByLayer
370
18
48
1
60
0
100
AcDbTrace
10
62.56
20
13.031085
30
0
11
59.060002
21
12.570301
31
0
12
59.059998
22
13.491869
32
0
13
59.059998
23
13.491869
33
0
39
0
210
0
220
0
230
1
0
ENDBLK
5
225
100
AcDbEntity
8
0
100
AcDbBlockEnd
0
BLOCK
5
22A
100
AcDbEntity
8
0
100
AcDbBlockBegin
2
*D5
70
1
10
0
20
0
30
0
3
*D5
0
LINE
5
22C
100
AcDbEntity
8
0
62
256
6
ByLayer
370
-2
48
1
60
0
100
AcDbLine
10
66
20
-5.651708
30
0
11
66
21
-13.064208
31
0
39
0
210
0
220
0
230
1
0
LINE
5
22D
100
AcDbEntity
8
0
62
256
6
ByLayer
370
-2
48
1
60
0
100
AcDbLine
10
54
20
-5.651708
30
0
11
54
21
-13.064208
31
0
39
0
210
0
220
0
230
1
0
LINE
5
22E
100
AcDbEntity
8
0
62
256
6
ByLayer
370
-2
48
1
60
0
100
AcDbLine
10
66
20
-11.064208
30
0
11
86.428571
21
-11.064208
31
0
39
0
210
0
220
0
230
1
0
LINE
5
22F
100
AcDbEntity
8
0
62
256
6
ByLayer
370
-2
48
1
60
0
100
AcDbLine
10
69.5
20
-11.064208
30
0
11
73
21
-11.064208
31
0
39
0
210
0
220
0
230
1
0
LINE
5
230
100
AcDbEntity
8
0
62
256
6
ByLayer
370
-2
48
1
60
0
100
AcDbLine
10
50.5
20
-11.064208
30
0
11
47
21
-11.064208
31
0
39
0
210
0
220
0
230
1
0
SOLID
5
231
100
AcDbEntity
8
0
62
256
6
ByLayer
370
-1
48
1
60
0
100
AcDbTrace
10
69.5
20
-10.480875
30
0
11
69.5
21
-11.647542
31
0
12
66
22
-11.064208
32
0
13
66
23
-11.064208
33
0
39
0
210
0
220
0
230
1
0
SOLID
5
232
100
AcDbEntity
8
0
62
256
6
ByLayer
370
-1
48
1
60
0
100
AcDbTrace
10
50.5
20
-11.647542
30
0
11
50.5
21
-10.480875
31
0
12
54
22
-11.064208
32
0
13
54
23
-11.064208
33
0
39
0
210
0
220
0
230
1
0
MTEXT
5
233
100
AcDbEntity
8
0
62
256
6
ByLayer
370
18
48
1
60
0
100
AcDbMText
10
79.714286
20
-5.064208
30
0
210
0
220
0
230
1
1
\A1;12
40
3
41
0
44
1
50
0
71
5
72
5
7
iso_b_vert
0
POINT
5
234
100
AcDbEntity
8
Defpoints
62
0
6
ByLayer
370
-1
48
1
60
0
100
AcDbPoint
10
66
20
-4.064208
30
0
39
0
210
0
220
0
230
1
50
360
0
POINT
5
235
100
AcDbEntity
8
Defpoints
62
0
6
ByLayer
370
-1
48
1
60
0
100
AcDbPoint
10
54
20
-4.064208
30
0
39
0
210
0
220
0
230
1
50
360
0
POINT
5
236
100
AcDbEntity
8
Defpoints
62
0
6
ByLayer
370
-1
48
1
60
0
100
AcDbPoint
10
54
20
-11.064208
30
0
39
0
210
0
220
0
230
1
50
360
0
ENDBLK
5
22B
100
AcDbEntity
8
0
100
AcDbBlockEnd
0
BLOCK
5
23F
100
AcDbEntity
8
0
100
AcDbBlockBegin
2
_U2
70
0
10
0
20
0
30
0
3
_U2
0
MTEXT
5
238
100
AcDbEntity
8
SK2
62
256
6
ByLayer
370
18
48
1
60
0
100
AcDbMText
10
72.159
20
-10.179094
30
0
210
0
220
0
230
1
1
\W0.5321;12
40
3
41
0
44
1.084337
50
0
71
7
72
5
7
iso_b_vert
0
MTEXT
5
239
100
AcDbEntity
8
SK2
62
256
6
ByLayer
370
18
48
1
60
0
100
AcDbMText
10
77.466271
20
-9.826613
30
0
210
0
220
0
230
1
1
\W0.8315;\W0.4158;%%p\W0.8315;0.5
40
2.5
41
0
44
1.084337
50
0
71
7
72
5
7
iso_b_vert
0
LINE
5
23A
100
AcDbEntity
8
SK2
62
256
6
ByLayer
370
13
48
1
60
0
100
AcDbLine
10
66
20
-5.651708
30
0
11
66
21
-13.064208
31
0
39
0
210
0
220
0
230
1
0
LINE
5
23B
100
AcDbEntity
8
SK2
62
256
6
ByLayer
370
13
48
1
60
0
100
AcDbLine
10
54
20
-5.651708
30
0
11
54
21
-13.064208
31
0
39
0
210
0
220
0
230
1
0
LINE
5
23C
100
AcDbEntity
8
SK2
62
256
6
ByLayer
370
13
48
1
60
0
100
AcDbLine
10
54
20
-11.064208
30
0
11
84.583008
21
-11.064208
31
0
39
0
210
0
220
0
230
1
0
SOLID
5
23D
100
AcDbEntity
8
SK2
62
256
6
ByLayer
370
18
48
1
60
0
100
AcDbTrace
10
66
20
-11.064208
30
0
11
62.500002
21
-11.524992
31
0
12
62.499998
22
-10.603425
32
0
13
62.499998
23
-10.603425
33
0
39
0
210
0
220
0
230
1
0
SOLID
5
23E
100
AcDbEntity
8
SK2
62
256
6
ByLayer
370
18
48
1
60
0
100
AcDbTrace
10
54
20
-11.064208
30
0
11
57.499998
21
-10.603425
31
0
12
57.500002
22
-11.524992
32
0
13
57.500002
23
-11.524992
33
0
39
0
210
0
220
0
230
1
0
ENDBLK
5
240
100
AcDbEntity
8
0
100
AcDbBlockEnd
0
BLOCK
5
245
100
AcDbEntity
8
0
100
AcDbBlockBegin
2
*D7
70
1
10
0
20
0
30
0
3
*D7
0
LINE
5
247
100
AcDbEntity
8
0
62
256
6
ByLayer
370
-2
48
1
60
0
100
AcDbLine
10
66
20
-5.651708
30
0
11
66
21
-35.564208
31
0
39
0
210
0
220
0
230
1
0
LINE
5
248
100
AcDbEntity
8
0
62
256
6
ByLayer
370
-2
48
1
60
0
100
AcDbLine
10
31
20
-4.5875
30
0
11
31
21
-35.564208
31
0
39
0
210
0
220
0
230
1
0
LINE
5
249
100
AcDbEntity
8
0
62
256
6
ByLayer
370
-2
48
1
60
0
100
AcDbLine
10
62.5
20
-33.564208
30
0
11
34.5
21
-33.564208
31
0
39
0
210
0
220
0
230
1
0
SOLID
5
24A
100
AcDbEntity
8
0
62
256
6
ByLayer
370
-1
48
1
60
0
100
AcDbTrace
10
62.5
20
-34.147542
30
0
11
62.5
21
-32.980875
31
0
12
66
22
-33.564208
32
0
13
66
23
-33.564208
33
0
39
0
210
0
220
0
230
1
0
SOLID
5
24B
100
AcDbEntity
8
0
62
256
6
ByLayer
370
-1
48
1
60
0
100
AcDbTrace
10
34.5
20
-32.980875
30
0
11
34.5
21
-34.147542
31
0
12
31
22
-33.564208
32
0
13
31
23
-33.564208
33
0
39
0
210
0
220
0
230
1
0
MTEXT
5
24C
100
AcDbEntity
8
0
62
256
6
ByLayer
370
18
48
1
60
0
100
AcDbMText
10
48.5
20
-27.564208
30
0
210
0
220
0
230
1
1
\A1;35
40
3
41
0
44
1
50
0
71
5
72
5
7
iso_b_vert
0
POINT
5
24D
100
AcDbEntity
8
Defpoints
62
0
6
ByLayer
370
-1
48
1
60
0
100
AcDbPoint
10
66
20
-4.064208
30
0
39
0
210
0
220
0
230
1
50
360
0
POINT
5
24E
100
AcDbEntity
8
Defpoints
62
0
6
ByLayer
370
-1
48
1
60
0
100
AcDbPoint
10
31
20
-3
30
0
39
0
210
0
220
0
230
1
50
360
0
POINT
5
24F
100
AcDbEntity
8
Defpoints
62
0
6
ByLayer
370
-1
48
1
60
0
100
AcDbPoint
10
31
20
-33.564208
30
0
39
0
210
0
220
0
230
1
50
360
0
ENDBLK
5
246
100
AcDbEntity
8
0
100
AcDbBlockEnd
0
BLOCK
5
257
100
AcDbEntity
8
0
100
AcDbBlockBegin
2
_U3
70
0
10
0
20
0
30
0
3
_U3
0
MTEXT
5
251
100
AcDbEntity
8
SK2
62
256
6
ByLayer
370
18
48
1
60
0
100
AcDbMText
10
46.867172
20
-32.679094
30
0
210
0
220
0
230
1
1
\W0.6740;35
40
3
41
0
44
1.084337
50
0
71
7
72
5
7
iso_b_vert
0
LINE
5
252
100
AcDbEntity
8
SK2
62
256
6
ByLayer
370
13
48
1
60
0
100
AcDbLine
10
66
20
-5.651708
30
0
11
66
21
-35.564208
31
0
39
0
210
0
220
0
230
1
0
LINE
5
253
100
AcDbEntity
8
SK2
62
256
6
ByLayer
370
13
48
1
60
0
100
AcDbLine
10
31
20
-4.5875
30
0
11
31
21
-35.564208
31
0
39
0
210
0
220
0
230
1
0
LINE
5
254
100
AcDbEntity
8
SK2
62
256
6
ByLayer
370
13
48
1
60
0
100
AcDbLine
10
66
20
-33.564208
30
0
11
31
21
-33.564208
31
0
39
0
210
0
220
0
230
1
0
SOLID
5
255
100
AcDbEntity
8
SK2
62
256
6
ByLayer
370
18
48
1
60
0
100
AcDbTrace
10
66
20
-33.564208
30
0
11
62.500002
21
-34.024992
31
0
12
62.499998
22
-33.103425
32
0
13
62.499998
23
-33.103425
33
0
39
0
210
0
220
0
230
1
0
SOLID
5
256
100
AcDbEntity
8
SK2
62
256
6
ByLayer
370
18
48
1
60
0
100
AcDbTrace
10
31
20
-33.564208
30
0
11
34.499998
21
-33.103425
31
0
12
34.500002
22
-34.024992
32
0
13
34.500002
23
-34.024992
33
0
39
0
210
0
220
0
230
1
0
ENDBLK
5
258
100
AcDbEntity
8
0
100
AcDbBlockEnd
0
BLOCK
5
25D
100
AcDbEntity
8
0
100
AcDbBlockBegin
2
*D9
70
1
10
0
20
0
30
0
3
*D9
0
LINE
5
25F
100
AcDbEntity
8
0
62
256
6
ByLayer
370
-2
48
1
60
0
100
AcDbLine
10
66
20
-5.651708
30
0
11
66
21
-24.564208
31
0
39
0
210
0
220
0
230
1
0
LINE
5
260
100
AcDbEntity
8
0
62
256
6
ByLayer
370
-2
48
1
60
0
100
AcDbLine
10
36.25
20
-1.5875
30
0
11
36.25
21
-24.564208
31
0
39
0
210
0
220
0
230
1
0
LINE
5
261
100
AcDbEntity
8
0
62
256
6
ByLayer
370
-2
48
1
60
0
100
AcDbLine
10
62.5
20
-22.564208
30
0
11
39.75
21
-22.564208
31
0
39
0
210
0
220
0
230
1
0
SOLID
5
262
100
AcDbEntity
8
0
62
256
6
ByLayer
370
-1
48
1
60
0
100
AcDbTrace
10
62.5
20
-23.147542
30
0
11
62.5
21
-21.980875
31
0
12
66
22
-22.564208
32
0
13
66
23
-22.564208
33
0
39
0
210
0
220
0
230
1
0
SOLID
5
263
100
AcDbEntity
8
0
62
256
6
ByLayer
370
-1
48
1
60
0
100
AcDbTrace
10
39.75
20
-21.980875
30
0
11
39.75
21
-23.147542
31
0
12
36.25
22
-22.564208
32
0
13
36.25
23
-22.564208
33
0
39
0
210
0
220
0
230
1
0
MTEXT
5
264
100
AcDbEntity
8
0
62
256
6
ByLayer
370
18
48
1
60
0
100
AcDbMText
10
51.125
20
-16.564208
30
0
210
0
220
0
230
1
1
\A1;29.8
40
3
41
0
44
1
50
0
71
5
72
5
7
iso_b_vert
0
POINT
5
265
100
AcDbEntity
8
Defpoints
62
0
6
ByLayer
370
-1
48
1
60
0
100
AcDbPoint
10
66
20
-4.064208
30
0
39
0
210
0
220
0
230
1
50
360
0
POINT
5
266
100
AcDbEntity
8
Defpoints
62
0
6
ByLayer
370
-1
48
1
60
0
100
AcDbPoint
10
36.25
20
0
30
0
39
0
210
0
220
0
230
1
50
360
0
POINT
5
267
100
AcDbEntity
8
Defpoints
62
0
6
ByLayer
370
-1
48
1
60
0
100
AcDbPoint
10
36.25
20
-22.564208
30
0
39
0
210
0
220
0
230
1
50
360
0
ENDBLK
5
25E
100
AcDbEntity
8
0
100
AcDbBlockEnd
0
BLOCK
5
26F
100
AcDbEntity
8
0
100
AcDbBlockBegin
2
_U4
70
0
10
0
20
0
30
0
3
_U4
0
MTEXT
5
269
100
AcDbEntity
8
2
62
256
6
ByLayer
370
18
48
1
60
0
100
AcDbMText
10
47.763544
20
-21.679094
30
0
210
0
220
0
230
1
1
\W0.7346;29.8
40
3
41
0
44
1.084337
50
0
71
7
72
5
7
iso_b_vert
0
LINE
5
26A
100
AcDbEntity
8
2
62
256
6
ByLayer
370
13
48
1
60
0
100
AcDbLine
10
66
20
-5.651708
30
0
11
66
21
-24.564208
31
0
39
0
210
0
220
0
230
1
0
LINE
5
26B
100
AcDbEntity
8
2
62
256
6
ByLayer
370
13
48
1
60
0
100
AcDbLine
10
36.25
20
-1.5875
30
0
11
36.25
21
-24.564208
31
0
39
0
210
0
220
0
230
1
0
LINE
5
26C
100
AcDbEntity
8
2
62
256
6
ByLayer
370
13
48
1
60
0
100
AcDbLine
10
66
20
-22.564208
30
0
11
36.25
21
-22.564208
31
0
39
0
210
0
220
0
230
1
0
SOLID
5
26D
100
AcDbEntity
8
2
62
256
6
ByLayer
370
18
48
1
60
0
100
AcDbTrace
10
66
20
-22.564208
30
0
11
62.500002
21
-23.024992
31
0
12
62.499998
22
-22.103425
32
0
13
62.499998
23
-22.103425
33
0
39
0
210
0
220
0
230
1
0
SOLID
5
26E
100
AcDbEntity
8
2
62
256
6
ByLayer
370
18
48
1
60
0
100
AcDbTrace
10
36.25
20
-22.564208
30
0
11
39.749998
21
-22.103425
31
0
12
39.750002
22
-23.024992
32
0
13
39.750002
23
-23.024992
33
0
39
0
210
0
220
0
230
1
0
ENDBLK
5
270
100
AcDbEntity
8
0
100
AcDbBlockEnd
0
ENDSEC
0
SECTION
2
ENTITIES
0
ARC
5
CB
100
AcDbEntity
8
SK1
62
256
6
ByLayer
370
18
48
1
60
0
100
AcDbCircle
39
0
10
-18.1
20
0
30
0
40
3.84000000000008
210
0
220
0
230
1
100
AcDbArc
50
323.832158
51
36.167842
0
ARC
5
CC
100
AcDbEntity
8
1
62
256
6
ByLayer
370
18
48
1
60
0
100
AcDbCircle
39
0
10
53.071851
20
-3.9
30
0
40
0.9
210
0
220
0
230
1
100
AcDbArc
50
88.24242
51
90
0
ARC
5
CD
100
AcDbEntity
8
1
62
256
6
ByLayer
370
18
48
1
60
0
100
AcDbCircle
39
0
10
31.096238
20
-4.1
30
0
40
1.1
210
0
220
0
230
1
100
AcDbArc
50
90
51
100
0
ARC
5
CE
100
AcDbEntity
8
1
62
256
6
ByLayer
370
18
48
1
60
0
100
AcDbCircle
39
0
10
31.096238
20
4.1
30
0
40
1.1
210
0
220
0
230
1
100
AcDbArc
50
260
51
270
0
POINT
5
70
100
AcDbEntity
8
80
62
256
6
ByLayer
370
18
48
1
60
0
100
AcDbPoint
10
0
20
0
30
0
39
0
210
0
220
0
230
1
50
360
0
POINT
5
72
100
AcDbEntity
8
81
62
256
6
ByLayer
370
18
48
1
60
0
100
AcDbPoint
10
67.55
20
0
30
0
39
0
210
0
220
0
230
1
50
360
0
POINT
5
74
100
AcDbEntity
8
1
62
256
6
ByLayer
370
18
48
1
60
1
100
AcDbPoint
10
66
20
4.064208
30
0
39
0
210
0
220
0
230
1
50
360
0
POINT
5
76
100
AcDbEntity
8
1
62
256
6
ByLayer
370
18
48
1
60
1
100
AcDbPoint
10
66
20
-4.064208
30
0
39
0
210
0
220
0
230
1
50
360
0
POINT
5
77
100
AcDbEntity
8
1
62
256
6
ByLayer
370
18
48
1
60
1
100
AcDbPoint
10
66
20
4.064208
30
0
39
0
210
0
220
0
230
1
50
360
0
POINT
5
78
100
AcDbEntity
8
1
62
256
6
ByLayer
370
18
48
1
60
1
100
AcDbPoint
10
62.56
20
0
30
0
39
0
210
0
220
0
230
1
50
360
0
POINT
5
79
100
AcDbEntity
8
1
62
256
6
ByLayer
370
18
48
1
60
1
100
AcDbPoint
10
66
20
-4.064208
30
0
39
0
210
0
220
0
230
1
50
360
0
POINT
5
7A
100
AcDbEntity
8
1
62
256
6
ByLayer
370
18
48
1
60
1
100
AcDbPoint
10
54
20
-4.064208
30
0
39
0
210
0
220
0
230
1
50
360
0
POINT
5
7B
100
AcDbEntity
8
1
62
256
6
ByLayer
370
18
48
1
60
1
100
AcDbPoint
10
66
20
-4.064208
30
0
39
0
210
0
220
0
230
1
50
360
0
POINT
5
7C
100
AcDbEntity
8
1
62
256
6
ByLayer
370
18
48
1
60
1
100
AcDbPoint
10
31
20
-3
30
0
39
0
210
0
220
0
230
1
50
360
0
POINT
5
7D
100
AcDbEntity
8
1
62
256
6
ByLayer
370
18
48
1
60
1
100
AcDbPoint
10
66
20
-4.064208
30
0
39
0
210
0
220
0
230
1
50
360
0
POINT
5
7E
100
AcDbEntity
8
1
62
256
6
ByLayer
370
18
48
1
60
1
100
AcDbPoint
10
36.25
20
0
30
0
39
0
210
0
220
0
230
1
50
360
0
SPLINE
5
CF
100
AcDbEntity
8
1
62
256
6
ByLayer
370
18
48
1
60
0
100
AcDbSpline
70
4
71
3
72
10
73
6
40
0
40
0
40
0
40
0
40
0.466239722261995
40
0.466239722261995
40
1
40
1
40
1
40
1
41
1
10
65.3012579300831
20
3.29398076967615
30
0
41
1
10
65.3041009736874
20
3.30159516316752
30
0
41
1
10
65.306958445735
20
3.30821974691872
30
0
41
1
10
65.3130880531415
20
3.32020020199386
30
0
41
1
10
65.3163626216473
20
3.32524465870046
30
0
41
1
10
65.3196428654098
20
3.32893382626457
30
0
0
SPLINE
5
D0
100
AcDbEntity
8
1
62
256
6
ByLayer
370
13
48
1
60
0
100
AcDbSpline
70
4
71
3
72
8
73
4
40
0
40
0
40
0
40
0
40
1
40
1
40
1
40
1
41
1
10
64.4278984577628
20
-3.33834678430807
30
0
41
1
10
64.4242570128513
20
-3.34457204114332
30
0
41
1
10
64.4206155652383
20
-3.34911911093721
30
0
41
1
10
64.4169741123737
20
-3.3519791404062
30
0
0
SPLINE
5
D1
100
AcDbEntity
8
1
62
256
6
ByLayer
370
18
48
1
60
0
100
AcDbSpline
70
4
71
3
72
8
73
4
40
0
40
0
40
0
40
0
40
1
40
1
40
1
40
1
41
1
10
64.3022580893275
20
-3.55185413788095
30
0
41
1
10
64.2992465953779
20
-3.55500525585978
30
0
41
1
10
64.2962409511068
20
-3.55697540887906
30
0
41
1
10
64.2932417457271
20
-3.55775784334836
30
0
0
SPLINE
5
D2
100
AcDbEntity
8
1
62
256
6
ByLayer
370
13
48
1
60
0
100
AcDbSpline
70
4
71
3
72
9
73
5
40
0
40
0
40
0
40
0
40
0.641447761374989
40
1
40
1
40
1
40
1
41
1
10
55.3270183486015
20
3.34069011625337
30
0
41
1
10
55.3342921610631
20
3.35227100970957
30
0
41
1
10
55.345631841074
20
3.35990963093101
30
0
41
1
10
55.3569715202684
20
3.35110030865812
30
0
41
1
10
55.3610373875818
20
3.34584617668025
30
0
0
SPLINE
5
D3
100
AcDbEntity
8
1
62
256
6
ByLayer
370
18
48
1
60
0
100
AcDbSpline
70
4
71
3
72
8
73
4
40
0
40
0
40
0
40
0
40
1
40
1
40
1
40
1
41
1
10
63.6569656499375
20
-3.69273963132525
30
0
41
1
10
63.6586362944701
20
-3.696414271256
30
0
41
1
10
63.660304957837
20
-3.69968962108129
30
0
41
1
10
63.6619714647006
20
-3.70256787986835
30
0
0
SPLINE
5
D4
100
AcDbEntity
8
1
62
256
6
ByLayer
370
18
48
1
60
0
100
AcDbSpline
70
4
71
3
72
9
73
5
40
0
40
0
40
0
40
0
40
0.634262276969628
40
1
40
1
40
1
40
1
41
1
10
63.4604420852664
20
-3.35111232210662
30
0
41
1
10
63.4583379229661
20
-3.34927441854035
30
0
41
1
10
63.4550204273761
20
-3.34548236711945
30
0
41
1
10
63.451702931769
20
-3.34027473091402
30
0
41
1
10
63.4504895984775
20
-3.33818176136276
30
0
0
SPLINE
5
D5
100
AcDbEntity
8
1
62
256
6
ByLayer
370
13
48
1
60
0
100
AcDbSpline
70
4
71
3
72
8
73
4
40
0
40
0
40
0
40
0
40
1
40
1
40
1
40
1
41
1
10
63.4504890969458
20
-3.33818089622238
30
0
41
1
10
63.4477164824326
20
-3.33339808700282
30
0
41
1
10
63.4449438679089
20
-3.32763180521047
30
0
41
1
10
63.442171253378
20
-3.32089414859212
30
0
0
SPLINE
5
D6
100
AcDbEntity
8
1
62
256
6
ByLayer
370
18
48
1
60
0
100
AcDbSpline
70
4
71
3
72
10
73
6
40
0
40
0
40
0
40
0
40
0.210885561421462
40
0.210885561421462
40
1
40
1
40
1
40
1
41
1
10
55.4974009051348
20
3.61816435868593
30
0
41
1
10
55.4993756902224
20
3.61844770759493
30
0
41
1
10
55.5013489776526
20
3.61827859906583
30
0
41
1
10
55.5107052821644
20
3.61534754170975
30
0
41
1
10
55.5180754739097
20
3.60675823853822
30
0
41
1
10
55.5254428744107
20
3.59191474846213
30
0
0
SPLINE
5
D7
100
AcDbEntity
8
1
62
256
6
ByLayer
370
18
48
1
60
0
100
AcDbSpline
70
4
71
3
72
12
73
8
40
0
40
0
40
0
40
0
40
0.40520592338219
40
0.40520592338219
40
0.810411846764381
40
0.810411846764381
40
1
40
1
40
1
40
1
41
1
10
56.1298420369321
20
3.58855866015483
30
0
41
1
10
56.1235103484625
20
3.61965555441358
30
0
41
1
10
56.1172270101326
20
3.64420975043936
30
0
41
1
10
56.1046765139321
20
3.68048901000495
30
0
41
1
10
56.0984008214816
20
3.6922125251308
30
0
41
1
10
56.089122341405
20
3.69989070337803
30
0
41
1
10
56.0861574104744
20
3.70091435430734
30
0
41
1
10
56.0831838523524
20
3.70049064899646
30
0
0
SPLINE
5
D8
100
AcDbEntity
8
1
62
256
6
ByLayer
370
13
48
1
60
0
100
AcDbSpline
70
4
71
3
72
8
73
4
40
0
40
0
40
0
40
0
40
1
40
1
40
1
40
1
41
1
10
56.3037477764226
20
3.33680859850122
30
0
41
1
10
56.3144782179151
20
3.31766906246878
30
0
41
1
10
56.3252086316894
20
3.28392025265327
30
0
41
1
10
56.3359390508114
20
3.23607518297743
30
0
0
SPLINE
5
D9
100
AcDbEntity
8
1
62
256
6
ByLayer
370
13
48
1
60
0
100
AcDbSpline
70
4
71
3
72
9
73
5
40
0
40
0
40
0
40
0
40
0.568958108283827
40
1
40
1
40
1
40
1
41
1
10
63.1758706559806
20
-3.3414070048735
30
0
41
1
10
63.1645879180271
20
-3.35881188091534
30
0
41
1
10
63.144757431422
20
-3.36124101135547
30
0
41
1
10
63.1249270521174
20
-3.31309249982738
30
0
41
1
10
63.1163793451203
20
-3.2832878489591
30
0
0
SPLINE
5
DA
100
AcDbEntity
8
1
62
256
6
ByLayer
370
18
48
1
60
0
100
AcDbSpline
70
4
71
3
72
15
73
11
40
0
40
0
40
0
40
0
40
0.147381260883601
40
0.232643134795242
40
0.232643134795242
40
0.317905008706882
40
0.317905008706882
40
0.658952504353441
40
0.658952504353441
40
1
40
1
40
1
40
1
41
1
10
62.8193703234832
20
-3.94463119125655
30
0
41
1
10
62.8162823156312
20
-3.94547048756539
30
0
41
1
10
62.811418396985
20
-3.94455770092946
30
0
41
1
10
62.8065505674049
20
-3.94006352940892
30
0
41
1
10
62.8029762707361
20
-3.93579763397909
30
0
41
1
10
62.8011835690037
20
-3.93317532371248
30
0
41
1
10
62.7922221477066
20
-3.91765201971557
30
0
41
1
10
62.7851129173757
20
-3.89760540230861
30
0
41
1
10
62.7709316896347
20
-3.84279960380025
30
0
41
1
10
62.7638312235438
20
-3.80808786027541
30
0
41
1
10
62.756647882147
20
-3.7660558186189
30
0
0
SPLINE
5
DB
100
AcDbEntity
8
1
62
256
6
ByLayer
370
18
48
1
60
0
100
AcDbSpline
70
4
71
3
72
18
73
14
40
0
40
0
40
0
40
0
40
0.297553653453324
40
0.297553653453324
40
0.595107306906647
40
0.595107306906647
40
0.669495720269978
40
0.669495720269978
40
0.743884133633309
40
0.743884133633309
40
0.892660960359971
40
0.892660960359971
40
1
40
1
40
1
40
1
41
1
10
62.5252485968294
20
-3.7610956684905
30
0
41
1
10
62.5323216327167
20
-3.8101492482779
30
0
41
1
10
62.5393660584639
20
-3.85176963957051
30
0
41
1
10
62.5536239753026
20
-3.92052259377576
30
0
41
1
10
62.5608143385896
20
-3.94760902471964
30
0
41
1
10
62.5698547231024
20
-3.97193081015092
30
0
41
1
10
62.5716649360036
20
-3.97631766613276
30
0
41
1
10
62.5752881143948
20
-3.9841225522438
30
0
41
1
10
62.5771025236291
20
-3.98754143114854
30
0
41
1
10
62.5825155898845
20
-3.9962765846245
30
0
41
1
10
62.5860940716829
20
-4.00009803913963
30
0
41
1
10
62.5922074038319
20
-4.00329770076158
30
0
41
1
10
62.5947545803494
20
-4.00361855598251
30
0
41
1
10
62.5972913759117
20
-4.00292692747834
30
0
0
SPLINE
5
DC
100
AcDbEntity
8
1
62
256
6
ByLayer
370
13
48
1
60
0
100
AcDbSpline
70
4
71
3
72
9
73
5
40
0
40
0
40
0
40
0
40
0.852327452923312
40
1
40
1
40
1
40
1
41
1
10
62.1415503417018
20
-3.09286452166958
30
0
41
1
10
62.1574960937609
20
-3.19718490511392
30
0
41
1
10
62.1762045769116
20
-3.28450807495719
30
0
41
1
10
62.194913057498
20
-3.32761348480989
30
0
41
1
10
62.1976757864367
20
-3.33301367347016
30
0
0
SPLINE
5
DD
100
AcDbEntity
8
1
62
256
6
ByLayer
370
13
48
1
60
0
100
AcDbSpline
70
4
71
3
72
9
73
5
40
0
40
0
40
0
40
0
40
0.408076197461224
40
1
40
1
40
1
40
1
41
1
10
56.5772266416198
20
3.34102274627955
30
0
41
1
10
56.58872114456
20
3.35908659718047
30
0
41
1
10
56.6168886844623
20
3.36244172154056
30
0
41
1
10
56.6450562279642
20
3.26462887020159
30
0
41
1
10
56.6617292659387
20
3.17316210081418
30
0
0
SPLINE
5
DE
100
AcDbEntity
8
1
62
256
6
ByLayer
370
18
48
1
60
0
100
AcDbSpline
70
4
71
3
72
18
73
14
40
0
40
0
40
0
40
0
40
0.0008107413576874
40
0.0008107413576874
40
0.250608056018266
40
0.250608056018266
40
0.375506713348555
40
0.375506713348555
40
0.500405370678843
40
0.500405370678843
40
0.750202685339422
40
0.750202685339422
40
1
40
1
40
1
40
1
41
1
10
56.8578799277171
20
3.80936707672859
30
0
41
1
10
56.8579044813737
20
3.80937049569531
30
0
41
1
10
56.8579290348162
20
3.80937384110817
30
0
41
1
10
56.86551867745
20
3.81038520629895
30
0
41
1
10
56.8730699690609
20
3.8044116150881
30
0
41
1
10
56.8844826874716
20
3.78487329943124
30
0
41
1
10
56.8882976123576
20
3.77659345402742
30
0
41
1
10
56.8959509405443
20
3.75643457191296
30
0
41
1
10
56.8997977422358
20
3.74451797283123
30
0
41
1
10
56.9112611285769
20
3.7037161258786
30
0
41
1
10
56.918831516485
20
3.66973565065283
30
0
41
1
10
56.9339654717837
20
3.58856772569769
30
0
41
1
10
56.9415452121614
20
3.54138216555256
30
0
41
1
10
56.9491463130068
20
3.48754090549861
30
0
0
SPLINE
5
DF
100
AcDbEntity
8
1
62
256
6
ByLayer
370
18
48
1
60
0
100
AcDbSpline
70
4
71
3
72
20
73
16
40
0
40
0
40
0
40
0
40
0.210575730685532
40
0.210575730685532
40
0.421151461371065
40
0.421151461371065
40
0.526439326713831
40
0.526439326713831
40
0.579083259385214
40
0.579083259385214
40
0.631727192056598
40
0.631727192056598
40
0.842302922742133
40
0.842302922742133
40
1
40
1
40
1
40
1
41
1
10
57.3312800035488
20
3.40145053244296
30
0
41
1
10
57.3248288277527
20
3.4658915675823
30
0
41
1
10
57.3184178511485
20
3.5236706969838
30
0
41
1
10
57.3055511695745
20
3.62612004519463
30
0
41
1
10
57.2991098375242
20
3.6707924205256
30
0
41
1
10
57.2894148980877
20
3.72781709134563
30
0
41
1
10
57.2861770946821
20
3.74515785292206
30
0
41
1
10
57.2813021363426
20
3.76861512423449
30
0
41
1
10
57.279671873681
20
3.77601685653835
30
0
41
1
10
57.2764205883122
20
3.78988525347148
30
0
41
1
10
57.274798194742
20
3.79635974833079
30
0
41
1
10
57.2666965893565
20
3.82645917262462
30
0
41
1
10
57.2602359668223
20
3.84328244066435
30
0
41
1
10
57.2489531254898
20
3.86032164384289
30
0
41
1
10
57.2441304184119
20
3.8636472102373
30
0
41
1
10
57.2393020388589
20
3.86297454620865
30
0
0
SPLINE
5
E0
100
AcDbEntity
8
1
62
256
6
ByLayer
370
13
48
1
60
0
100
AcDbSpline
70
4
71
3
72
10
73
6
40
0
40
0
40
0
40
0
40
0.127183048806716
40
0.7460439148559
40
1
40
1
40
1
40
1
41
1
10
57.5516603826352
20
3.34034752696175
30
0
41
1
10
57.5552650186136
20
3.33456723631573
30
0
41
1
10
57.5764094827065
20
3.2910108243384
30
0
41
1
10
57.604751699201
20
3.15683010454956
30
0
41
1
10
57.6294892244699
20
2.96804921353083
30
0
41
1
10
57.6366868886921
20
2.90742739021692
30
0
0
SPLINE
5
E1
100
AcDbEntity
8
1
62
256
6
ByLayer
370
13
48
1
60
0
100
AcDbSpline
70
4
71
3
72
10
73
6
40
0
40
0
40
0
40
0
40
0.0793063324562806
40
0.54902906497635
40
1
40
1
40
1
40
1
41
1
10
61.8157777465474
20
-3.00379866779653
30
0
41
1
10
61.8187391224131
20
-3.02606939636877
30
0
41
1
10
61.83924039155
20
-3.17332879398057
30
0
41
1
10
61.8765811202647
20
-3.35203387070345
30
0
41
1
10
61.9109606807849
20
-3.36712294474421
30
0
41
1
10
61.9278003405736
20
-3.33847329586143
30
0
0
SPLINE
5
E2
100
AcDbEntity
8
1
62
256
6
ByLayer
370
18
48
1
60
0
100
AcDbSpline
70
4
71
3
72
8
73
4
40
0
40
0
40
0
40
0
40
1
40
1
40
1
40
1
41
1
10
57.8295390045735
20
3.34445883173825
30
0
41
1
10
57.8320472534498
20
3.34791005749204
30
0
41
1
10
57.8345555023633
20
3.35056262974103
30
0
41
1
10
57.8370637513002
20
3.35241691546622
30
0
0
SPLINE
5
E3
100
AcDbEntity
8
1
62
256
6
ByLayer
370
13
48
1
60
0
100
AcDbSpline
70
4
71
3
72
10
73
6
40
0
40
0
40
0
40
0
40
0.299145894392791
40
0.718707661688477
40
1
40
1
40
1
40
1
41
1
10
57.8370629471926
20
3.35241632098223
30
0
41
1
10
57.849568803874
20
3.36166243879833
30
0
41
1
10
57.8796145293823
20
3.33619901392811
30
0
41
1
10
57.9214197313744
20
3.14175603518675
30
0
41
1
10
57.9507190828623
20
2.90473119630801
30
0
41
1
10
57.9624785672335
20
2.79498333571337
30
0
0
SPLINE
5
E4
100
AcDbEntity
8
1
62
256
6
ByLayer
370
18
48
1
60
0
100
AcDbSpline
70
4
71
3
72
8
73
4
40
0
40
0
40
0
40
0
40
1
40
1
40
1
40
1
41
1
10
58.8029013064636
20
3.33825335593483
30
0
41
1
10
58.8052605244611
20
3.33421987036854
30
0
41
1
10
58.8076197422637
20
3.32948414786685
30
0
41
1
10
58.8099789596702
20
3.32404823669802
30
0
0
SPLINE
5
E5
100
AcDbEntity
8
1
62
256
6
ByLayer
370
13
48
1
60
0
100
AcDbSpline
70
4
71
3
72
11
73
7
40
0
40
0
40
0
40
0
40
0.120561235526558
40
0.533410504066791
40
0.946259772607023
40
1
40
1
40
1
40
1
41
1
10
58.809978561541
20
3.32404915402736
30
0
41
1
10
58.8151006027237
20
3.31224754671732
30
0
41
1
10
58.8377625268594
20
3.24543034524132
30
0
41
1
10
58.8779641994507
20
3.01301599308172
30
0
41
1
10
58.9153272334051
20
2.64825267321996
30
0
41
1
10
58.9351502372951
20
2.41769993604083
30
0
41
1
10
58.9374333840236
20
2.39067212262529
30
0
0
SPLINE
5
E6
100
AcDbEntity
8
1
62
256
6
ByLayer
370
18
48
1
60
0
100
AcDbSpline
70
4
71
3
72
27
73
23
40
0
40
0
40
0
40
0
40
0.090273800646405
40
0.090273800646405
40
0.128179058952805
40
0.128179058952805
40
0.166084317259205
40
0.166084317259205
40
0.241894833872004
40
0.241894833872004
40
0.393515867097603
40
0.545136900323202
40
0.545136900323202
40
0.583042158629602
40
0.583042158629602
40
0.620947416936002
40
0.620947416936002
40
0.696757933548802
40
0.696757933548802
40
0.848378966774401
40
0.848378966774401
40
1
40
1
40
1
40
1
41
1
10
58.2182693580617
20
4.00056141862905
30
0
41
1
10
58.2229097959674
20
4.0012198795776
30
0
41
1
10
58.2275552551012
20
3.99911666349519
30
0
41
1
10
58.2341733645281
20
3.99215176623247
30
0
41
1
10
58.2361335099994
20
3.98959673477387
30
0
41
1
10
58.240062622257
20
3.98348442117822
30
0
41
1
10
58.2420318169392
20
3.97992471721241
30
0
41
1
10
58.2479210090709
20
3.96780825847171
30
0
41
1
10
58.2518371592852
20
3.95779891891397
30
0
41
1
10
58.2635655719523
20
3.92209291051304
30
0
41
1
10
58.2791289647387
20
3.85937267025517
30
0
41
1
10
58.2946185722129
20
3.76685147935842
30
0
41
1
10
58.3043739867926
20
3.69952944359469
30
0
41
1
10
58.306329295225
20
3.68558899408291
30
0
41
1
10
58.3102505360716
20
3.65674599606902
30
0
41
1
10
58.3122185060195
20
3.64182489349878
30
0
41
1
10
58.3181202605801
20
3.59573135116528
30
0
41
1
10
58.3220388686336
20
3.56333443775256
30
0
41
1
10
58.3337520325668
20
3.46124227796935
30
0
41
1
10
58.3415006025793
20
3.38665899815803
30
0
41
1
10
58.3569856573321
20
3.22465140494003
30
0
41
1
10
58.3647353010032
20
3.13722918257241
30
0
41
1
10
58.3725519041583
20
3.04326616830826
30
0
0
SPLINE
5
E7
100
AcDbEntity
8
1
62
256
6
ByLayer
370
18
48
1
60
0
100
AcDbSpline
70
4
71
3
72
25
73
21
40
0
40
0
40
0
40
0
40
0.144326289697294
40
0.288652579394589
40
0.288652579394589
40
0.360815724243235
40
0.360815724243235
40
0.432978869091882
40
0.432978869091882
40
0.577305158789177
40
0.577305158789177
40
0.721631448486472
40
0.721631448486472
40
0.79379459333512
40
0.79379459333512
40
0.829876165759443
40
0.829876165759443
40
0.865957738183767
40
0.865957738183767
40
1
40
1
40
1
40
1
41
1
10
58.5325569802946
20
2.97205750862975
30
0
41
1
10
58.5259735380905
20
3.06952110847678
30
0
41
1
10
58.512837416635
20
3.25197803712752
30
0
41
1
10
58.4997404400695
20
3.40984357377005
30
0
41
1
10
58.4898516156892
20
3.51882132790922
30
0
41
1
10
58.4865416139464
20
3.55359038024417
30
0
41
1
10
58.4798827428654
20
3.61983492793533
30
0
41
1
10
58.4765627607006
20
3.65104077643508
30
0
41
1
10
58.4666335175969
20
3.73903977171361
30
0
41
1
10
58.4600579171791
20
3.79023068790096
30
0
41
1
10
58.4469343568574
20
3.87793888296545
30
0
41
1
10
58.4403853394868
20
3.91445581531571
30
0
41
1
10
58.4304688013969
20
3.95804005347253
30
0
41
1
10
58.4271495022938
20
3.97069925301784
30
0
41
1
10
58.4221500437819
20
3.98682579320382
30
0
41
1
10
58.4204781256589
20
3.99172819018673
30
0
41
1
10
58.4171445434548
20
4.0005219499227
30
0
41
1
10
58.4154812422969
20
4.00441975138313
30
0
41
1
10
58.4076530718329
20
4.0204674844673
30
0
41
1
10
58.4015299271349
20
4.02630977364919
30
0
41
1
10
58.3954051246156
20
4.02545245698181
30
0
0
SPLINE
5
E8
100
AcDbEntity
8
1
62
256
6
ByLayer
370
18
48
1
60
0
100
AcDbSpline
70
4
71
3
72
10
73
6
40
0
40
0
40
0
40
0
40
0.216073150836733
40
0.579062751002016
40
1
40
1
40
1
40
1
41
1
10
66
20
0.451010269997511
30
0
41
1
10
66
20
0.302196397066126
30
0
41
1
10
66.0000000000001
20
-0.102536061840652
30
0
41
1
10
66.0000000000001
20
-0.807101509936132
30
0
41
1
10
66.0000000000001
20
-1.32041451380133
30
0
41
1
10
66.0000000000001
20
-1.57197206625034
30
0
0
SPLINE
5
E9
100
AcDbEntity
8
1
62
256
6
ByLayer
370
13
48
1
60
0
100
AcDbSpline
70
4
71
3
72
11
73
7
40
0
40
0
40
0
40
0
40
0.195936821614043
40
0.532278410228809
40
0.868619998843575
40
1
40
1
40
1
40
1
41
1
10
59.1067971727435
20
3.35053131459119
30
0
41
1
10
59.1170150745802
20
3.34100707388862
30
0
41
1
10
59.14477284126
20
3.27921536549488
30
0
41
1
10
59.1900704837362
20
3.02105624461444
30
0
41
1
10
59.232001542886
20
2.61463399944589
30
0
41
1
10
59.2563927405407
20
2.32192919130054
30
0
41
1
10
59.2632440719122
20
2.23574258433587
30
0
0
SPLINE
5
EA
100
AcDbEntity
8
1
62
256
6
ByLayer
370
13
48
1
60
0
100
AcDbSpline
70
4
71
3
72
11
73
7
40
0
40
0
40
0
40
0
40
0.0420003830492513
40
0.378230450905616
40
0.71446051876198
40
1
40
1
40
1
40
1
41
1
10
60.0816419875229
20
3.25452605108464
30
0
41
1
10
60.0838329883703
20
3.24552886045578
30
0
41
1
10
60.1035638453297
20
3.15916396977528
30
0
41
1
10
60.1408347277312
20
2.90561981955591
30
0
41
1
10
60.1908098469016
20
2.37364517998887
30
0
41
1
10
60.2232452386071
20
1.93543259845396
30
0
41
1
10
60.2381407646058
20
1.71971098543071
30
0
0
SPLINE
5
EB
100
AcDbEntity
8
1
62
256
6
ByLayer
370
18
48
1
60
0
100
AcDbSpline
70
4
71
3
72
10
73
6
40
0
40
0
40
0
40
0
40
0.352869535050968
40
0.705365659790456
40
1
40
1
40
1
40
1
41
1
10
65.7000000305204
20
-1.61719862708722
30
0
41
1
10
65.7000000360304
20
-1.37201679115941
30
0
41
1
10
65.699999997607
20
-0.845037074328189
30
0
41
1
10
65.6999999269839
20
-0.0452912507118697
30
0
41
1
10
65.6999999183033
20
0.468023452730506
30
0
41
1
10
65.6999999175177
20
0.695464379297505
30
0
0
SPLINE
5
EC
100
AcDbEntity
8
1
62
256
6
ByLayer
370
18
48
1
60
0
100
AcDbSpline
70
4
71
3
72
29
73
25
40
0
40
0
40
0
40
0
40
0.0625000000000006
40
0.0625000000000006
40
0.125000000000001
40
0.125000000000001
40
0.250000000000001
40
0.250000000000001
40
0.375000000000001
40
0.375000000000001
40
0.500000000000002
40
0.500000000000002
40
0.531250000000001
40
0.531250000000001
40
0.562500000000001
40
0.625000000000001
40
0.625000000000001
40
0.750000000000001
40
0.750000000000001
40
0.875000000000001
40
0.875000000000001
40
0.937500000000001
40
0.937500000000001
40
1
40
1
40
1
40
1
41
1
10
65.4513057018479
20
0.872222541649563
30
0
41
1
10
65.4545148162733
20
0.821015338286259
30
0
41
1
10
65.4577732997222
20
0.769479621046059
30
0
41
1
10
65.4643497440821
20
0.665750482269658
30
0
41
1
10
65.4676679442053
20
0.613551408063529
30
0
41
1
10
65.4775790281239
20
0.457099162468921
30
0
41
1
10
65.4841510946837
20
0.352613832906769
30
0
41
1
10
65.496929027756
20
0.143265611744624
30
0
41
1
10
65.5031062556454
20
0.0384009537075656
30
0
41
1
10
65.5149537542553
20
-0.171719938460029
30
0
41
1
10
65.5208460724936
20
-0.276963789579526
30
0
41
1
10
65.5284796374236
20
-0.408735375161342
30
0
41
1
10
65.530016916991
20
-0.43513717812985
30
0
41
1
10
65.5330937674811
20
-0.487757527515725
30
0
41
1
10
65.5377110267262
20
-0.566392301613746
30
0
41
1
10
65.5423201731637
20
-0.644153646594475
30
0
41
1
10
65.5514762685905
20
-0.798538154074635
30
0
41
1
10
65.557441766971
20
-0.899950116206469
30
0
41
1
10
65.5691884787338
20
-1.09978386374723
30
0
41
1
10
65.5750232130918
20
-1.19820284083349
30
0
41
1
10
65.5841230265553
20
-1.34350380875975
30
0
41
1
10
65.5872145149717
20
-1.39154862703944
30
0
41
1
10
65.593579736401
20
-1.48683588810965
30
0
41
1
10
65.5968704930975
20
-1.53408358896618
30
0
41
1
10
65.6001937694525
20
-1.58060112331228
30
0
0
SPLINE
5
ED
100
AcDbEntity
8
1
62
256
6
ByLayer
370
13
48
1
60
0
100
AcDbSpline
70
4
71
3
72
11
73
7
40
0
40
0
40
0
40
0
40
0.1591434125303
40
0.496588483390113
40
0.834033554249925
40
1
40
1
40
1
40
1
41
1
10
54.0121451373364
20
1.36040131592281
30
0
41
1
10
54.0204171915474
20
1.23286282270021
30
0
41
1
10
54.0462291648288
20
0.823914147306823
30
0
41
1
10
54.0895807188531
20
0.0956884022146482
30
0
41
1
10
54.133287221206
20
-0.643937125970552
30
0
41
1
10
54.1594537487254
20
-1.06626636919199
30
0
41
1
10
54.1680804167334
20
-1.20212069312387
30
0
0
SPLINE
5
EE
100
AcDbEntity
8
1
62
256
6
ByLayer
370
18
48
1
60
0
100
AcDbSpline
70
4
71
3
72
8
73
4
40
0
40
0
40
0
40
0
40
1
40
1
40
1
40
1
41
1
10
54
20
1.09440830701331
30
0
41
1
10
53.9951501636083
20
1.19934528771452
30
0
41
1
10
53.9903316076251
20
1.30150563870123
30
0
41
1
10
53.9855318663204
20
1.40098182784067
30
0
0
SPLINE
5
EF
100
AcDbEntity
8
1
62
256
6
ByLayer
370
18
48
1
60
0
100
AcDbSpline
70
4
71
3
72
22
73
18
40
0
40
0
40
0
40
0
40
0.249999999999999
40
0.249999999999999
40
0.374999999999999
40
0.374999999999999
40
0.437499999999998
40
0.437499999999998
40
0.499999999999998
40
0.499999999999998
40
0.75
40
0.75
40
0.875
40
0.875
40
0.9375
40
0.9375
40
1
40
1
40
1
40
1
41
1
10
54.127095648665
20
-1.21950879870624
30
0
41
1
10
54.1164858182056
20
-1.03434015099998
30
0
41
1
10
54.1060220423631
20
-0.845436225615344
30
0
41
1
10
54.0902005030098
20
-0.556630472411399
30
0
41
1
10
54.0849164798117
20
-0.459448278050473
30
0
41
1
10
54.0769583020199
20
-0.312277031697221
30
0
41
1
10
54.0742999440043
20
-0.262986639083238
30
0
41
1
10
54.0689656340741
20
-0.163930583325936
30
0
41
1
10
54.0663018352251
20
-0.114390838847129
30
0
41
1
10
54.0530337559747
20
0.132346521135929
30
0
41
1
10
54.0424876937429
20
0.327707445669347
30
0
41
1
10
54.0266435350293
20
0.617765420682446
30
0
41
1
10
54.0213592852875
20
0.713951494443052
30
0
41
1
10
54.0133865573018
20
0.857461046090094
30
0
41
1
10
54.0107197957213
20
0.90518986354968
30
0
41
1
10
54.0053643987941
20
1.00029787178707
30
0
41
1
10
54.002683767089
20
1.04751937358768
30
0
41
1
10
54
20
1.09440830701354
30
0
0
SPLINE
5
F0
100
AcDbEntity
8
1
62
256
6
ByLayer
370
18
48
1
60
0
100
AcDbSpline
70
4
71
3
72
30
73
26
40
0
40
0
40
0
40
0
40
0.0625000000000001
40
0.0625000000000001
40
0.125
40
0.125
40
0.250000000000001
40
0.250000000000001
40
0.375000000000003
40
0.375000000000003
40
0.437500000000003
40
0.437500000000003
40
0.468750000000003
40
0.468750000000003
40
0.500000000000003
40
0.500000000000003
40
0.625000000000002
40
0.625000000000002
40
0.750000000000002
40
0.750000000000002
40
0.875000000000001
40
0.875000000000001
40
0.9375
40
0.9375
40
1
40
1
40
1
40
1
41
1
10
65.5121482621017
20
-1.54733247841813
30
0
41
1
10
65.5089324057706
20
-1.49975928980993
30
0
41
1
10
65.50564572603
20
-1.45152372325973
30
0
41
1
10
65.4989357485175
20
-1.35397689100208
30
0
41
1
10
65.4955321040945
20
-1.3048452255253
30
0
41
1
10
65.4852447648828
20
-1.1563903743309
30
0
41
1
10
65.4782863100375
20
-1.05601061538508
30
0
41
1
10
65.4645355705853
20
-0.852422358083231
30
0
41
1
10
65.4577988575666
20
-0.749201362797265
30
0
41
1
10
65.4477250272369
20
-0.592236278920041
30
0
41
1
10
65.4443657433211
20
-0.539559615636108
30
0
41
1
10
65.4392926789321
20
-0.460007745536046
30
0
41
1
10
65.4375960345629
20
-0.433400908124213
30
0
41
1
10
65.4341869516603
20
-0.380006552434509
30
0
41
1
10
65.4324723245119
20
-0.353184917438739
30
0
41
1
10
65.4238773590816
20
-0.219050796353656
30
0
41
1
10
65.4168600535452
20
-0.112095353004946
30
0
41
1
10
65.4032784627182
20
0.101155249711013
30
0
41
1
10
65.3967840768435
20
0.207453115539551
30
0
41
1
10
65.3840161506355
20
0.419392874734228
30
0
41
1
10
65.3777442443665
20
0.525034841099739
30
0
41
1
10
65.3682138484937
20
0.682986332553583
30
0
41
1
10
65.3650126973695
20
0.735609662841824
30
0
41
1
10
65.3585333538693
20
0.840415764685361
30
0
41
1
10
65.3552632640788
20
0.892466226585441
30
0
41
1
10
65.3519386130862
20
0.944164405625116
30
0
0
SPLINE
5
F1
100
AcDbEntity
8
1
62
256
6
ByLayer
370
18
48
1
60
0
100
AcDbSpline
70
4
71
3
72
27
73
23
40
0
40
0
40
0
40
0
40
0.124999999999999
40
0.124999999999999
40
0.249999999999997
40
0.249999999999997
40
0.374999999999996
40
0.374999999999996
40
0.406249999999995
40
0.406249999999995
40
0.437499999999995
40
0.499999999999995
40
0.499999999999995
40
0.624999999999996
40
0.624999999999996
40
0.749999999999997
40
0.749999999999997
40
0.812499999999997
40
0.812499999999997
40
0.874999999999998
40
0.874999999999998
40
1
40
1
40
1
40
1
41
1
10
64.4113341724645
20
1.64732464052278
30
0
41
1
10
64.4179890966752
20
1.5412932225608
30
0
41
1
10
64.4245617822323
20
1.43321788427673
30
0
41
1
10
64.4376949819727
20
1.21316033992076
30
0
41
1
10
64.4442581526028
20
1.1011803024717
30
0
41
1
10
64.4575398201373
20
0.873351579056845
30
0
41
1
10
64.4642723220126
20
0.757502797457477
30
0
41
1
10
64.4727913639874
20
0.610197451251679
30
0
41
1
10
64.4745025238319
20
0.580568650136115
30
0
41
1
10
64.477918645284
20
0.521322237260648
30
0
41
1
10
64.4830342879938
20
0.432456884090186
30
0
41
1
10
64.4881207471108
20
0.343603986620451
30
0
41
1
10
64.4982459325154
20
0.165914108722774
30
0
41
1
10
64.5049272578282
20
0.0474750951883607
30
0
41
1
10
64.5181446119854
20
-0.189361304533975
30
0
41
1
10
64.5247007273578
20
-0.307757699441538
30
0
41
1
10
64.5346422056692
20
-0.485308748664124
30
0
41
1
10
64.5379753124088
20
-0.544485077515446
30
0
41
1
10
64.5446984349282
20
-0.662821736409626
30
0
41
1
10
64.548065565536
20
-0.721622429501451
30
0
41
1
10
64.55816137625
20
-0.896732259048548
30
0
41
1
10
64.5648781783102
20
-1.01183799150962
30
0
41
1
10
64.5715993941059
20
-1.12531594505299
30
0
0
SPLINE
5
F2
100
AcDbEntity
8
1
62
256
6
ByLayer
370
13
48
1
60
0
100
AcDbSpline
70
4
71
3
72
11
73
7
40
0
40
0
40
0
40
0
40
0.17369705634155
40
0.696753919011081
40
0.958282350345847
40
1
40
1
40
1
40
1
41
1
10
64.4661083783675
20
-0.961092930191086
30
0
41
1
10
64.4570247917466
20
-0.814328392334517
30
0
41
1
10
64.4205876479841
20
-0.213675415082974
30
0
41
1
10
64.3704737267045
20
0.648476682853982
30
0
41
1
10
64.327261742998
20
1.33373278483819
30
0
41
1
10
64.3114033169038
20
1.57082154204019
30
0
41
1
10
64.3092216687241
20
1.60314861522389
30
0
0
SPLINE
5
F3
100
AcDbEntity
8
1
62
256
6
ByLayer
370
13
48
1
60
0
100
AcDbSpline
70
4
71
3
72
11
73
7
40
0
40
0
40
0
40
0
40
0.290718483976942
40
0.62680892500492
40
0.962899366032898
40
1
40
1
40
1
40
1
41
1
10
60.4074248540075
20
3.19603457910708
30
0
41
1
10
60.4225968503016
20
3.11800540189668
30
0
41
1
10
60.4553087095526
20
2.88953667628437
30
0
41
1
10
60.5055604478804
20
2.35806522991814
30
0
41
1
10
60.5425763817419
20
1.85120412648098
30
0
41
1
10
60.5620524530137
20
1.56110688394096
30
0
41
1
10
60.563988658472
20
1.53204865396862
30
0
0
SPLINE
5
F4
100
AcDbEntity
8
1
62
256
6
ByLayer
370
13
48
1
60
0
100
AcDbSpline
70
4
71
3
72
11
73
7
40
0
40
0
40
0
40
0
40
0.0863632315755891
40
0.609425999456355
40
0.870957383396738
40
1
40
1
40
1
40
1
41
1
10
64.1402998652543
20
-0.754330401835915
30
0
41
1
10
64.1357834721192
20
-0.68013471837952
30
0
41
1
10
64.1039133854143
20
-0.152467844526399
30
0
41
1
10
64.0583670443452
20
0.631281941456365
30
0
41
1
10
64.0105892186028
20
1.39052186521585
30
0
41
1
10
63.9901641977937
20
1.69139896672155
30
0
41
1
10
63.9834159146412
20
1.78772356628289
30
0
0
SPLINE
5
F5
100
AcDbEntity
8
1
62
256
6
ByLayer
370
18
48
1
60
0
100
AcDbSpline
70
4
71
3
72
27
73
23
40
0
40
0
40
0
40
0
40
0.125
40
0.125
40
0.25
40
0.25
40
0.375000000000001
40
0.375000000000001
40
0.406250000000001
40
0.406250000000001
40
0.437500000000001
40
0.5
40
0.5
40
0.625
40
0.625
40
0.75
40
0.75
40
0.8125
40
0.8125
40
0.875
40
0.875
40
1
40
1
40
1
40
1
41
1
10
63.9474219141347
20
-0.782394818243262
30
0
41
1
10
63.9404562989184
20
-0.657261014060367
30
0
41
1
10
63.9334825750437
20
-0.531674554325264
30
0
41
1
10
63.9194739075285
20
-0.279622637939411
30
0
41
1
10
63.9124646976435
20
-0.153155292087803
30
0
41
1
10
63.8986235167878
20
0.100694684887941
30
0
41
1
10
63.8918070012332
20
0.228079995213562
30
0
41
1
10
63.8832579633769
20
0.387884914154313
30
0
41
1
10
63.8815496517711
20
0.41981750312732
30
0
41
1
10
63.8781444920104
20
0.483388227590922
30
0
41
1
10
63.8730481902224
20
0.57841066178753
30
0
41
1
10
63.8679666465783
20
0.672446536481374
30
0
41
1
10
63.8577738383607
20
0.859227250108717
30
0
41
1
10
63.8509183312449
20
0.982031191731551
30
0
41
1
10
63.8370061099827
20
1.22422066738707
30
0
41
1
10
63.8299687596782
20
1.34360642210595
30
0
41
1
10
63.8193413716433
20
1.52001680786853
30
0
41
1
10
63.8157796549359
20
1.57850359499548
30
0
41
1
10
63.8086992847313
20
1.69353098652107
30
0
41
1
10
63.8051763483666
20
1.75015308004572
30
0
41
1
10
63.7946709531594
20
1.91735879226968
30
0
41
1
10
63.7877587133108
20
2.02528541145716
30
0
41
1
10
63.7808876925991
20
2.12966101129078
30
0
0
SPLINE
5
F6
100
AcDbEntity
8
1
62
256
6
ByLayer
370
18
48
1
60
0
100
AcDbSpline
70
4
71
3
72
27
73
23
40
0
40
0
40
0
40
0
40
0.124999999999998
40
0.124999999999998
40
0.249999999999997
40
0.249999999999997
40
0.312499999999996
40
0.343749999999996
40
0.343749999999996
40
0.374999999999995
40
0.374999999999995
40
0.499999999999996
40
0.499999999999996
40
0.624999999999996
40
0.624999999999996
40
0.687499999999997
40
0.687499999999997
40
0.749999999999998
40
0.749999999999998
40
0.874999999999999
40
0.874999999999999
40
1
40
1
40
1
40
1
41
1
10
63.2796119561468
20
2.51001611649778
30
0
41
1
10
63.2866634644914
20
2.40903966137262
30
0
41
1
10
63.2936694766411
20
2.30409303706398
30
0
41
1
10
63.307610841443
20
2.08632965988437
30
0
41
1
10
63.3145654912699
20
1.97351125346256
30
0
41
1
10
63.3249781110275
20
1.79832066279513
30
0
41
1
10
63.3301780174063
20
1.70923298847728
30
0
41
1
10
63.3353782959597
20
1.6178777271943
30
0
41
1
10
63.3388476562408
20
1.55646566377314
30
0
41
1
10
63.3405803816896
20
1.52556070141645
30
0
41
1
10
63.3492084271336
20
1.37064058655773
30
0
41
1
10
63.3560309773933
20
1.24488315289003
30
0
41
1
10
63.3697024534338
20
0.98987188217933
30
0
41
1
10
63.3765508791411
20
0.860617563291271
30
0
41
1
10
63.3869716297095
20
0.66410332111181
30
0
41
1
10
63.3904722574044
20
0.598158551459051
30
0
41
1
10
63.3975294709331
20
0.465372808726869
30
0
41
1
10
63.4010856854068
20
0.398491538414788
30
0
41
1
10
63.411789787551
20
0.196713671300671
30
0
41
1
10
63.4188722222463
20
0.0624754437015156
30
0
41
1
10
63.4328188493982
20
-0.205450813375222
30
0
41
1
10
63.4397066626289
20
-0.339139164062374
30
0
41
1
10
63.4466157056332
20
-0.472547866412242
30
0
0
SPLINE
5
F7
100
AcDbEntity
8
1
62
256
6
ByLayer
370
13
48
1
60
0
100
AcDbSpline
70
4
71
3
72
10
73
6
40
0
40
0
40
0
40
0
40
0.252063657455488
40
0.775557071790986
40
1
40
1
40
1
40
1
41
1
10
63.1653993842036
20
-0.119537164929369
30
0
41
1
10
63.1522285647413
20
0.102490278739168
30
0
41
1
10
63.1117041896257
20
0.788026376530581
30
0
41
1
10
63.0594522308242
20
1.62748094784206
30
0
41
1
10
63.0203710898116
20
2.14860483420358
30
0
41
1
10
63.0086435069441
20
2.29304321251803
30
0
0
SPLINE
5
F8
100
AcDbEntity
8
1
62
256
6
ByLayer
370
18
48
1
60
0
100
AcDbSpline
70
4
71
3
72
21
73
17
40
0
40
0
40
0
40
0
40
0.0486926360683791
40
0.167606056559832
40
0.167606056559832
40
0.286519477051284
40
0.286519477051284
40
0.524346318034189
40
0.524346318034189
40
0.643259738525642
40
0.643259738525642
40
0.762173159017095
40
0.762173159017095
40
0.881086579508547
40
0.881086579508547
40
1
40
1
40
1
40
1
41
1
10
58.9287605703647
20
3.2650067599148
30
0
41
1
10
58.9319097016867
20
3.26469648821447
30
0
41
1
10
58.9427774706547
20
3.2638839551434
30
0
41
1
10
58.9537397427305
20
3.26395350098195
30
0
41
1
10
58.9693890648243
20
3.2649881679975
30
0
41
1
10
58.9773080321636
20
3.26598379462038
30
0
41
1
10
59.0007916850498
20
3.27043219209659
30
0
41
1
10
59.0160826704794
20
3.27528738544297
30
0
41
1
10
59.038355800148
20
3.2858282646786
30
0
41
1
10
59.0457071100598
20
3.28992375866963
30
0
41
1
10
59.0597571011938
20
3.29911575880968
30
0
41
1
10
59.0664965218954
20
3.30422404216279
30
0
41
1
10
59.0793518227276
20
3.31555638497915
30
0
41
1
10
59.0855061779453
20
3.32182616380419
30
0
41
1
10
59.0969007372769
20
3.33542921131308
30
0
41
1
10
59.1021137691395
20
3.34271479093007
30
0
41
1
10
59.1067971727435
20
3.35053131459119
30
0
0
SPLINE
5
F9
100
AcDbEntity
8
1
62
256
6
ByLayer
370
18
48
1
60
0
100
AcDbSpline
70
4
71
3
72
10
73
6
40
0
40
0
40
0
40
0
40
0.5
40
0.5
40
1
40
1
40
1
40
1
41
1
10
59.1067971727435
20
3.35053131459119
30
0
41
1
10
59.1774056569122
20
3.46837571448734
30
0
41
1
10
59.2476668761081
20
3.58487018459417
30
0
41
1
10
59.3876894384161
20
3.81509660223682
30
0
41
1
10
59.4572989885229
20
3.92857695442498
30
0
41
1
10
59.5265815456535
20
4.04033827476474
30
0
0
SPLINE
5
FA
100
AcDbEntity
8
1
62
256
6
ByLayer
370
18
48
1
60
0
100
AcDbSpline
70
4
71
3
72
10
73
6
40
0
40
0
40
0
40
0
40
0.5
40
0.5
40
1
40
1
40
1
40
1
41
1
10
59.6493534623012
20
4.02856616790933
30
0
41
1
10
59.7205322564
20
3.9029453734347
30
0
41
1
10
59.7920852546158
20
3.77551877464245
30
0
41
1
10
59.9362413988397
20
3.51717634919223
30
0
41
1
10
60.0086831919114
20
3.38654815519698
30
0
41
1
10
60.0816419875229
20
3.25452605108464
30
0
0
SPLINE
5
FB
100
AcDbEntity
8
1
62
256
6
ByLayer
370
18
48
1
60
0
100
AcDbSpline
70
4
71
3
72
31
73
27
40
0
40
0
40
0
40
0
40
0.125000000000098
40
0.125000000000098
40
0.187500000000148
40
0.187500000000148
40
0.250000000000199
40
0.250000000000199
40
0.375000000000229
40
0.375000000000229
40
0.437500000000206
40
0.437500000000206
40
0.500000000000183
40
0.56250000000016
40
0.56250000000016
40
0.625000000000137
40
0.625000000000137
40
0.750000000000091
40
0.750000000000091
40
0.812500000000068
40
0.812500000000068
40
0.875000000000045
40
0.875000000000045
40
0.937500000000023
40
0.937500000000023
40
1
40
1
40
1
40
1
41
1
10
60.0816419875229
20
3.25452605108464
30
0
41
1
10
60.0904438575757
20
3.23859868557975
30
0
41
1
10
60.1007533463532
20
3.22438105449083
30
0
41
1
10
60.1180250357468
20
3.20509253229611
30
0
41
1
10
60.1240895708747
20
3.19900994519753
30
0
41
1
10
60.1368129325836
20
3.18751648521899
30
0
41
1
10
60.1434780318257
20
3.18210916990637
30
0
41
1
10
60.1638857492796
20
3.16722007038516
30
0
41
1
10
60.1781795816989
20
3.15891308923676
30
0
41
1
10
60.2006044752837
20
3.14880559436324
30
0
41
1
10
60.2082212810079
20
3.14584890653887
30
0
41
1
10
60.223486478205
20
3.14084041086053
30
0
41
1
10
60.2388516484428
20
3.13670479054963
30
0
41
1
10
60.2544062660426
20
3.13432350104702
30
0
41
1
10
60.2700546673655
20
3.1328643134477
30
0
41
1
10
60.2779728601656
20
3.13259861298892
30
0
41
1
10
60.3014499094928
20
3.13330298953932
30
0
41
1
10
60.3167363610584
20
3.1357159317819
30
0
41
1
10
60.3390025247489
20
3.14267160315595
30
0
41
1
10
60.3463512701353
20
3.14557857548573
30
0
41
1
10
60.3603963364914
20
3.1524850356129
30
0
41
1
10
60.367133484426
20
3.15648988528687
30
0
41
1
10
60.3799846105202
20
3.16570024496048
30
0
41
1
10
60.3861368277904
20
3.17094473990184
30
0
41
1
10
60.3975292216633
20
3.18263022547751
30
0
41
1
10
60.4027416437334
20
3.18902773173633
30
0
41
1
10
60.4074248540076
20
3.19603457910708
30
0
0
SPLINE
5
FC
100
AcDbEntity
8
1
62
256
6
ByLayer
370
18
48
1
60
0
100
AcDbSpline
70
4
71
3
72
10
73
6
40
0
40
0
40
0
40
0
40
0.5
40
0.5
40
1
40
1
40
1
40
1
41
1
10
60.4074248540076
20
3.19603457910708
30
0
41
1
10
60.478039390278
20
3.30168545720895
30
0
41
1
10
60.548307030633
20
3.40482816517601
30
0
41
1
10
60.6883466376239
20
3.60610487943026
30
0
41
1
10
60.75796970945
20
3.70402310897805
30
0
41
1
10
60.8272701352969
20
3.79916829478552
30
0
0
SPLINE
5
FD
100
AcDbEntity
8
1
62
256
6
ByLayer
370
18
48
1
60
0
100
AcDbSpline
70
4
71
3
72
31
73
27
40
0
40
0
40
0
40
0
40
0.124999999999859
40
0.124999999999859
40
0.187499999999819
40
0.187499999999819
40
0.249999999999779
40
0.249999999999779
40
0.374999999999768
40
0.374999999999768
40
0.4374999999998
40
0.4374999999998
40
0.499999999999832
40
0.562499999999864
40
0.562499999999864
40
0.624999999999895
40
0.624999999999895
40
0.74999999999988
40
0.74999999999988
40
0.81249999999991
40
0.81249999999991
40
0.87499999999994
40
0.87499999999994
40
0.93749999999997
40
0.93749999999997
40
1
40
1
40
1
40
1
41
1
10
61.3822392721074
20
2.9441477770917
30
0
41
1
10
61.3910458572075
20
2.92762298674353
30
0
41
1
10
61.4013611497152
20
2.91249252705359
30
0
41
1
10
61.4186423156546
20
2.89146299457442
30
0
41
1
10
61.424710150661
20
2.88473662043876
30
0
41
1
10
61.4374403788047
20
2.8718323650468
30
0
41
1
10
61.4441088305443
20
2.86565712144863
30
0
41
1
10
61.4645262216016
20
2.84833629600732
30
0
41
1
10
61.4788265106537
20
2.83822423047735
30
0
41
1
10
61.5012598141357
20
2.82513361621844
30
0
41
1
10
61.5088779593981
20
2.82113951349186
30
0
41
1
10
61.5241456545866
20
2.81400010332763
30
0
41
1
10
61.5395125825755
20
2.80766882669369
30
0
41
1
10
61.5550674298967
20
2.80295657300914
30
0
41
1
10
61.5707152759534
20
2.79909270736229
30
0
41
1
10
61.5786326807879
20
2.79758019098406
30
0
41
1
10
61.6021018988334
20
2.79448784924958
30
0
41
1
10
61.6173826890897
20
2.79429692591066
30
0
41
1
10
61.6396400346135
20
2.79720749249523
30
0
41
1
10
61.6469855861194
20
2.79873433411188
30
0
41
1
10
61.6610247777353
20
2.80290083435648
30
0
41
1
10
61.6677592685063
20
2.8055390445536
30
0
41
1
10
61.6806056807272
20
2.81202272387352
30
0
41
1
10
61.6867555151298
20
2.81589788746408
30
0
41
1
10
61.6981461911799
20
2.82489984175263
30
0
41
1
10
61.7033583928276
20
2.82999023579299
30
0
41
1
10
61.7080418907919
20
2.8357289130486
30
0
0
SPLINE
5
FE
100
AcDbEntity
8
1
62
256
6
ByLayer
370
18
48
1
60
0
100
AcDbSpline
70
4
71
3
72
31
73
27
40
0
40
0
40
0
40
0
40
0.125000000000027
40
0.125000000000027
40
0.18750000000004
40
0.18750000000004
40
0.250000000000053
40
0.250000000000053
40
0.375000000000147
40
0.375000000000147
40
0.437500000000156
40
0.437500000000156
40
0.500000000000165
40
0.562500000000175
40
0.562500000000175
40
0.625000000000184
40
0.625000000000184
40
0.750000000000122
40
0.750000000000122
40
0.812500000000092
40
0.812500000000092
40
0.875000000000061
40
0.875000000000061
40
0.937500000000031
40
0.937500000000031
40
1
40
1
40
1
40
1
41
1
10
62.68281322132
20
2.44475861715966
30
0
41
1
10
62.6916287202073
20
2.42870476192113
30
0
41
1
10
62.7019557637295
20
2.41363781962357
30
0
41
1
10
62.7192546349033
20
2.39222038120363
30
0
41
1
10
62.7253284018017
20
2.38528228516034
30
0
41
1
10
62.7380700846867
20
2.37179438115706
30
0
41
1
10
62.7447431560304
20
2.36524682103303
30
0
41
1
10
62.7651722854452
20
2.34660071281775
30
0
41
1
10
62.779478611573
20
2.335325414995
30
0
41
1
10
62.8019171644587
20
2.32007443835735
30
0
41
1
10
62.8095332880587
20
2.31529385921306
30
0
41
1
10
62.824798180292
20
2.30646767350729
30
0
41
1
10
62.840161815404
20
2.29833070043642
30
0
41
1
10
62.8557125862545
20
2.29156950716134
30
0
41
1
10
62.8713561429264
20
2.28552688548626
30
0
41
1
10
62.8792709890112
20
2.28285281586616
30
0
41
1
10
62.9027250416427
20
2.27612779639276
30
0
41
1
10
62.9179980717026
20
2.27331998060086
30
0
41
1
10
62.940248015863
20
2.27196153980458
30
0
41
1
10
62.9475909456491
20
2.27199806602599
30
0
41
1
10
62.961625388044
20
2.27313311925767
30
0
41
1
10
62.9683584235034
20
2.27422349454281
30
0
41
1
10
62.9812034942138
20
2.27754140269389
30
0
41
1
10
62.9873535649824
20
2.27978780598065
30
0
41
1
10
62.9987449814962
20
2.2855057421076
30
0
41
1
10
63.0039583543197
20
2.28895136338113
30
0
41
1
10
63.0086435069441
20
2.29304321251803
30
0
0
SPLINE
5
FF
100
AcDbEntity
8
1
62
256
6
ByLayer
370
18
48
1
60
0
100
AcDbSpline
70
4
71
3
72
10
73
6
40
0
40
0
40
0
40
0
40
0.5
40
0.5
40
1
40
1
40
1
40
1
41
1
10
63.0086435069441
20
2.29304321251806
30
0
41
1
10
63.0540656403984
20
2.3327133220038
30
0
41
1
10
63.0993426546649
20
2.37061695709636
30
0
41
1
10
63.1896602731476
20
2.44293928745307
30
0
41
1
10
63.2347211761364
20
2.47737159169711
30
0
41
1
10
63.2796119561468
20
2.51001611649781
30
0
0
SPLINE
5
100
100
AcDbEntity
8
1
62
256
6
ByLayer
370
18
48
1
60
0
100
AcDbSpline
70
4
71
3
72
10
73
6
40
0
40
0
40
0
40
0
40
0.5
40
0.5
40
1
40
1
40
1
40
1
41
1
10
63.2796119561471
20
2.51001611649778
30
0
41
1
10
63.3623087002819
20
2.44771719669998
30
0
41
1
10
63.4454322462155
20
2.3848250111775
30
0
41
1
10
63.6126102280232
20
2.25792789187545
30
0
41
1
10
63.6967334574327
20
2.19387175941199
30
0
41
1
10
63.780887692599
20
2.12966101129066
30
0
0
SPLINE
5
101
100
AcDbEntity
8
1
62
256
6
ByLayer
370
18
48
1
60
0
100
AcDbSpline
70
4
71
3
72
8
73
4
40
0
40
0
40
0
40
0
40
1
40
1
40
1
40
1
41
1
10
63.780887692599
20
2.12966101129066
30
0
41
1
10
63.8480498582834
20
2.0134950233556
30
0
41
1
10
63.9155174119762
20
1.89948879204002
30
0
41
1
10
63.9834159146412
20
1.78772356628292
30
0
0
SPLINE
5
102
100
AcDbEntity
8
1
62
256
6
ByLayer
370
18
48
1
60
0
100
AcDbSpline
70
4
71
3
72
31
73
27
40
0
40
0
40
0
40
0
40
0.12499999999987
40
0.12499999999987
40
0.187499999999805
40
0.187499999999805
40
0.249999999999741
40
0.249999999999741
40
0.37499999999968
40
0.37499999999968
40
0.437499999999688
40
0.437499999999688
40
0.499999999999696
40
0.562499999999704
40
0.562499999999704
40
0.624999999999712
40
0.624999999999712
40
0.749999999999808
40
0.749999999999808
40
0.812499999999856
40
0.812499999999856
40
0.874999999999904
40
0.874999999999904
40
0.937499999999952
40
0.937499999999952
40
1
40
1
40
1
40
1
41
1
10
63.983415914642
20
1.78772356628218
30
0
41
1
10
63.9922335769083
20
1.77320913702187
30
0
41
1
10
64.0025645371826
20
1.75920743988618
30
0
41
1
10
64.0198713183083
20
1.73882654821702
30
0
41
1
10
64.0259480728532
20
1.73213826556238
30
0
41
1
10
64.0386965234935
20
1.71896458602802
30
0
41
1
10
64.0453738985768
20
1.71247947381988
30
0
41
1
10
64.0658157846877
20
1.69374961769753
30
0
41
1
10
64.0801313058964
20
1.68206645131937
30
0
41
1
10
64.1025835381233
20
1.66568481979672
30
0
41
1
10
64.1102031910025
20
1.66044107673861
30
0
41
1
10
64.1254746691207
20
1.65052960960236
30
0
41
1
10
64.1408440895825
20
1.6411454080359
30
0
41
1
10
64.1563987008329
20
1.63280753341368
30
0
41
1
10
64.1720448321427
20
1.62501256912111
30
0
41
1
10
64.1799600933602
20
1.62136815497027
30
0
41
1
10
64.2034052818893
20
1.61150141230957
30
0
41
1
10
64.2186693027838
20
1.60629433217073
30
0
41
1
10
64.2409018631641
20
1.60080087159619
30
0
41
1
10
64.248237709099
20
1.59935934617522
30
0
41
1
10
64.2622566738434
20
1.59741453561426
30
0
41
1
10
64.2689818219256
20
1.59689680693222
30
0
41
1
10
64.2818113003977
20
1.59684944852668
30
0
41
1
10
64.2879532131714
20
1.59732638787082
30
0
41
1
10
64.2993321581379
20
1.59939472328094
30
0
41
1
10
64.3045403929203
20
1.60097195422043
30
0
41
1
10
64.3092216687241
20
1.60314861522391
30
0
0
SPLINE
5
103
100
AcDbEntity
8
1
62
256
6
ByLayer
370
18
48
1
60
0
100
AcDbSpline
70
4
71
3
72
8
73
4
40
0
40
0
40
0
40
0
40
1
40
1
40
1
40
1
41
1
10
64.3092216687241
20
1.60314861522389
30
0
41
1
10
64.3433405241547
20
1.61901291914697
30
0
41
1
10
64.3773731406413
20
1.63372084052523
30
0
41
1
10
64.4113341724645
20
1.64732464052278
30
0
0
SPLINE
5
104
100
AcDbEntity
8
1
62
256
6
ByLayer
370
18
48
1
60
0
100
AcDbSpline
70
4
71
3
72
12
73
8
40
0
40
0
40
0
40
0
40
0.250000000000007
40
0.250000000000007
40
0.500000000000014
40
0.500000000000014
40
1
40
1
40
1
40
1
41
1
10
64.4113341724645
20
1.64732464052278
30
0
41
1
10
64.4888104717241
20
1.58807866423459
30
0
41
1
10
64.5666042837352
20
1.52888410488393
30
0
41
1
10
64.722820291783
20
1.41061425375949
30
0
41
1
10
64.8010557686978
20
1.35166795878348
30
0
41
1
10
65.036221322429
20
1.17558696951389
30
0
41
1
10
65.1936455534782
20
1.05921826830885
30
0
41
1
10
65.3519386130861
20
0.944164405625116
30
0
0
SPLINE
5
105
100
AcDbEntity
8
1
62
256
6
ByLayer
370
18
48
1
60
0
100
AcDbSpline
70
4
71
3
72
10
73
6
40
0
40
0
40
0
40
0
40
0.5
40
0.5
40
1
40
1
40
1
40
1
41
1
10
65.3519386130861
20
0.944164405625116
30
0
41
1
10
65.367113820354
20
0.931049185628183
30
0
41
1
10
65.3831455246705
20
0.918428579754419
30
0
41
1
10
65.4168342568536
20
0.894090958326416
30
0
41
1
10
65.433965258054
20
0.882752773939956
30
0
41
1
10
65.4513057018468
20
0.87222254164945
30
0
0
SPLINE
5
106
100
AcDbEntity
8
1
62
256
6
ByLayer
370
18
48
1
60
0
100
AcDbSpline
70
4
71
3
72
8
73
4
40
0
40
0
40
0
40
0
40
1
40
1
40
1
40
1
41
1
10
65.4513057018469
20
0.872222541649563
30
0
41
1
10
65.5338171504761
20
0.81273956403453
30
0
41
1
10
65.6166477973117
20
0.75372788782451
30
0
41
1
10
65.6999999175177
20
0.695464379297562
30
0
0
SPLINE
5
107
100
AcDbEntity
8
1
62
256
6
ByLayer
370
18
48
1
60
0
100
AcDbSpline
70
4
71
3
72
10
73
6
40
0
40
0
40
0
40
0
40
0.5
40
0.5
40
1
40
1
40
1
40
1
41
1
10
65.6999999175177
20
0.695464379297562
30
0
41
1
10
65.7484892397943
20
0.649219909186712
30
0
41
1
10
65.7976773739368
20
0.605590147739917
30
0
41
1
10
65.8977354370334
20
0.52381531741176
30
0
41
1
10
65.9484859127505
20
0.48576405935043
30
0
41
1
10
66.0000000000001
20
0.451010269997511
30
0
0
SPLINE
5
108
100
AcDbEntity
8
1
62
256
6
ByLayer
370
18
48
1
60
0
100
AcDbSpline
70
4
71
3
72
26
73
22
40
0
40
0
40
0
40
0
40
0.0080898602437865
40
0.0080898602437865
40
0.0422936581664148
40
0.0422936581664148
40
0.179108849856928
40
0.179108849856928
40
0.247516445702185
40
0.247516445702185
40
0.281720243624813
40
0.281720243624813
40
0.315924041547441
40
0.315924041547441
40
0.384331637392697
40
0.384331637392697
40
0.452739233237953
40
0.452739233237953
40
0.726369616618977
40
0.726369616618977
40
1
40
1
40
1
40
1
41
1
10
66
20
0.440609795973557
30
0
41
1
10
66
20
0.440551893005534
30
0
41
1
10
66
20
0.440514648292577
30
0
41
1
10
65.9999999999999
20
0.4404283175069
30
0
41
1
10
65.9999999999999
20
0.440730089991916
30
0
41
1
10
65.9999999999999
20
0.444121202867535
30
0
41
1
10
66.0000000000001
20
0.452806901611893
30
0
41
1
10
66.0000000000001
20
0.47426636099172
30
0
41
1
10
65.9999999999999
20
0.482827950308774
30
0
41
1
10
65.9999999999999
20
0.497861775481567
30
0
41
1
10
66.0000000000001
20
0.503250637115229
30
0
41
1
10
66.0000000000001
20
0.514704041528319
30
0
41
1
10
66
20
0.520750282937712
30
0
41
1
10
66
20
0.539429894494987
30
0
41
1
10
66.0000000000001
20
0.552650635688934
30
0
41
1
10
66.0000000000001
20
0.580437579029507
30
0
41
1
10
65.9999999999999
20
0.595031689496494
30
0
41
1
10
66
20
0.671087928139343
30
0
41
1
10
66
20
0.742057639610863
30
0
41
1
10
65.9999999999999
20
0.903512217676905
30
0
41
1
10
65.9999999999999
20
0.994029592816958
30
0
41
1
10
65.9999999999999
20
1.09463880534236
30
0
0
SPLINE
5
109
100
AcDbEntity
8
1
62
256
6
ByLayer
370
18
48
1
60
0
100
AcDbSpline
70
4
71
3
72
8
73
4
40
0
40
0
40
0
40
0
40
1
40
1
40
1
40
1
41
1
10
66
20
1.2531812317165
30
0
41
1
10
66.0090070087952
20
1.1983409425585
30
0
41
1
10
66.0096534818084
20
1.14500080592822
30
0
41
1
10
66.0000000000001
20
1.09463880534236
30
0
0
SPLINE
5
10A
100
AcDbEntity
8
1
62
256
6
ByLayer
370
18
48
1
60
0
100
AcDbSpline
70
4
71
3
72
30
73
26
40
0
40
0
40
0
40
0
40
0.25
40
0.25
40
0.375
40
0.375
40
0.4375
40
0.4375
40
0.5
40
0.5
40
0.53125
40
0.53125
40
0.5625
40
0.5625
40
0.625
40
0.625
40
0.750000000000001
40
0.750000000000001
40
0.781250000000001
40
0.781250000000001
40
0.812500000000001
40
0.812500000000001
40
0.875000000000001
40
0.875000000000001
40
1
40
1
40
1
40
1
41
1
10
66.0000000000001
20
1.25318123170101
30
0
41
1
10
66.0000000000001
20
1.36287801547132
30
0
41
1
10
66
20
1.48014859519824
30
0
41
1
10
66
20
1.66716204383997
30
0
41
1
10
66
20
1.73136060887893
30
0
41
1
10
66.0000000000001
20
1.83047889593004
30
0
41
1
10
66.0000000000001
20
1.86400378269553
30
0
41
1
10
66.0000000000001
20
1.93195819099304
30
0
41
1
10
66
20
1.96624845070013
30
0
41
1
10
65.9999999999999
20
2.01951820106962
30
0
41
1
10
66.0000000000001
20
2.03748991899917
30
0
41
1
10
66
20
2.07365191429429
30
0
41
1
10
66
20
2.09187306995378
30
0
41
1
10
66
20
2.14695187973166
30
0
41
1
10
66
20
2.18422611424663
30
0
41
1
10
66
20
2.2976997578202
30
0
41
1
10
66.0000000000001
20
2.37551469529774
30
0
41
1
10
66.0000000000001
20
2.47560365559414
30
0
41
1
10
65.9999999999999
20
2.49579899145275
30
0
41
1
10
65.9999999999999
20
2.53612309712187
30
0
41
1
10
65.9999999999999
20
2.55628790900542
30
0
41
1
10
65.9999999999999
20
2.61679044166476
30
0
41
1
10
65.9999999999999
20
2.65713623271131
30
0
41
1
10
66
20
2.77820549001029
30
0
41
1
10
66
20
2.85896105824764
30
0
41
1
10
66
20
2.93976006192676
30
0
0
SPLINE
5
10B
100
AcDbEntity
8
1
62
256
6
ByLayer
370
18
48
1
60
0
100
AcDbSpline
70
4
71
3
72
10
73
6
40
0
40
0
40
0
40
0
40
0.5
40
0.5
40
1
40
1
40
1
40
1
41
1
10
66
20
2.93976006192676
30
0
41
1
10
65.9506418983009
20
2.98963332744424
30
0
41
1
10
65.9009301001516
20
3.03956006408961
30
0
41
1
10
65.8008979758152
20
3.1396205367333
30
0
41
1
10
65.7505830539542
20
3.1897477163578
30
0
41
1
10
65.7000000305205
20
3.24002465003372
30
0
0
SPLINE
5
10C
100
AcDbEntity
8
1
62
256
6
ByLayer
370
18
48
1
60
0
100
AcDbSpline
70
4
71
3
72
10
73
6
40
0
40
0
40
0
40
0
40
0.5
40
0.5
40
1
40
1
40
1
40
1
41
1
10
65.7000000305204
20
3.24002465003369
30
0
41
1
10
65.6363085250683
20
3.25613405721208
30
0
41
1
10
65.5727083249399
20
3.27162598143138
30
0
41
1
10
65.4458909577975
20
3.30128644523214
30
0
41
1
10
65.3826776695824
20
3.31545146511647
30
0
41
1
10
65.3196428654098
20
3.32893382626457
30
0
0
SPLINE
5
10D
100
AcDbEntity
8
1
62
256
6
ByLayer
370
18
48
1
60
0
100
AcDbSpline
70
4
71
3
72
30
73
26
40
0
40
0
40
0
40
0
40
0.12499999999998
40
0.12499999999998
40
0.187500000000003
40
0.187500000000003
40
0.250000000000026
40
0.250000000000026
40
0.375000000000147
40
0.375000000000147
40
0.500000000000269
40
0.500000000000269
40
0.562500000000287
40
0.562500000000287
40
0.625000000000305
40
0.625000000000305
40
0.750000000000258
40
0.750000000000258
40
0.812500000000194
40
0.812500000000194
40
0.875000000000129
40
0.875000000000129
40
0.937500000000065
40
0.937500000000065
40
1
40
1
40
1
40
1
41
1
10
65.3196428654099
20
3.32893382626307
30
0
41
1
10
65.3103700170751
20
3.31691720722154
30
0
41
1
10
65.2999830809343
20
3.3061958032103
30
0
41
1
10
65.2828832285547
20
3.29187682277541
30
0
41
1
10
65.2769066838902
20
3.28739125420361
30
0
41
1
10
65.2646684562805
20
3.27916474026099
30
0
41
1
10
65.2583845213754
20
3.27540218168986
30
0
41
1
10
65.2390549128484
20
3.26513448831057
30
0
41
1
10
65.2254871068442
20
3.25962179764906
30
0
41
1
10
65.1972468610706
20
3.25150688289978
30
0
41
1
10
65.1828862402851
20
3.2489832082195
30
0
41
1
10
65.1610031115278
20
3.24758564642155
30
0
41
1
10
65.1536511765992
20
3.2475212433817
30
0
41
1
10
65.1388277372951
20
3.24826130231372
30
0
41
1
10
65.1313111935346
20
3.24907399523033
30
0
41
1
10
65.1089212784468
20
3.25292116625926
30
0
41
1
10
65.094299931218
20
3.2572961650672
30
0
41
1
10
65.0729451599441
20
3.26707907091569
30
0
41
1
10
65.0658970660012
20
3.2709096832082
30
0
41
1
10
65.0524398226037
20
3.27955741485167
30
0
41
1
10
65.0459820124559
20
3.28439082114267
30
0
41
1
10
65.0336604087943
20
3.29517173633585
30
0
41
1
10
65.0277536310411
20
3.30117472157227
30
0
41
1
10
65.0169055796887
20
3.31412548499844
30
0
41
1
10
65.0119497591978
20
3.32106881815821
30
0
41
1
10
65.0074972416243
20
3.32851698504103
30
0
0
SPLINE
5
10E
100
AcDbEntity
8
1
62
256
6
ByLayer
370
18
48
1
60
0
100
AcDbSpline
70
4
71
3
72
8
73
4
40
0
40
0
40
0
40
0
40
1
40
1
40
1
40
1
41
1
10
65.0074972416243
20
3.32851698504101
30
0
41
1
10
64.9937062104028
20
3.35158660808676
30
0
41
1
10
64.9799209547302
20
3.37460629276708
30
0
41
1
10
64.9661412737515
20
3.39757601249076
30
0
0
SPLINE
5
10F
100
AcDbEntity
8
1
62
256
6
ByLayer
370
18
48
1
60
0
100
AcDbSpline
70
4
71
3
72
12
73
8
40
0
40
0
40
0
40
0
40
0.499999999999981
40
0.499999999999981
40
0.749999999999991
40
0.749999999999991
40
1
40
1
40
1
40
1
41
1
10
64.9661412737515
20
3.3975760124909
30
0
41
1
10
64.8368711963408
20
3.42005308162442
30
0
41
1
10
64.7082324267922
20
3.43945823706716
30
0
41
1
10
64.5160035648926
20
3.46369539489569
30
0
41
1
10
64.4520199487011
20
3.47097971142267
30
0
41
1
10
64.3240828919534
20
3.48401762238535
30
0
41
1
10
64.2601474435943
20
3.48973936425315
30
0
41
1
10
64.1964567554431
20
3.49460324763103
30
0
0
SPLINE
5
110
100
AcDbEntity
8
1
62
256
6
ByLayer
370
18
48
1
60
0
100
AcDbSpline
70
4
71
3
72
8
73
4
40
0
40
0
40
0
40
0
40
1
40
1
40
1
40
1
41
1
10
64.196456755443
20
3.49460324763118
30
0
41
1
10
64.1420317324493
20
3.39316148674106
30
0
41
1
10
64.0874262699805
20
3.29081182648289
30
0
41
1
10
64.0325702611378
20
3.18755748047872
30
0
0
SPLINE
5
111
100
AcDbEntity
8
1
62
256
6
ByLayer
370
18
48
1
60
0
100
AcDbSpline
70
4
71
3
72
32
73
28
40
0
40
0
40
0
40
0
40
0.125000000000048
40
0.125000000000048
40
0.187500000000045
40
0.187500000000045
40
0.250000000000043
40
0.250000000000043
40
0.375000000000037
40
0.375000000000037
40
0.437500000000034
40
0.437500000000034
40
0.50000000000003
40
0.50000000000003
40
0.625000000000023
40
0.625000000000023
40
0.687500000000019
40
0.687500000000019
40
0.750000000000015
40
0.750000000000015
40
0.812500000000011
40
0.812500000000011
40
0.875000000000008
40
0.875000000000008
40
0.937500000000004
40
0.937500000000004
40
1
40
1
40
1
40
1
41
1
10
64.0325702611377
20
3.18755748047866
30
0
41
1
10
64.0240326011236
20
3.17148721726124
30
0
41
1
10
64.0140711730588
20
3.15689973917753
30
0
41
1
10
63.9973711344032
20
3.13684212009349
30
0
41
1
10
63.9915062881775
20
3.13046571998993
30
0
41
1
10
63.9791942848196
20
3.11831756895032
30
0
41
1
10
63.9727498396828
20
3.11255604058718
30
0
41
1
10
63.9529540138604
20
3.09649899281828
30
0
41
1
10
63.9390229105904
20
3.0872857416679
30
0
41
1
10
63.9170414295151
20
3.07569719310288
30
0
41
1
10
63.9095009628535
20
3.07220159585066
30
0
41
1
10
63.8943421109302
20
3.06612064232343
30
0
41
1
10
63.8866953824705
20
3.06351669703361
30
0
41
1
10
63.8635591094423
20
3.05703360028207
30
0
41
1
10
63.8478772458351
20
3.05445539360972
30
0
41
1
10
63.8239341415684
20
3.05368668006261
30
0
41
1
10
63.8159706664426
20
3.05396179325896
30
0
41
1
10
63.8002938942183
20
3.05563163162063
30
0
41
1
10
63.7925492349214
20
3.05702441535632
30
0
41
1
10
63.7772745537625
20
3.06103885467562
30
0
41
1
10
63.7696852557079
20
3.06368964420733
30
0
41
1
10
63.7551264529977
20
3.07025329724374
30
0
41
1
10
63.7481510372448
20
3.07415338110229
30
0
41
1
10
63.7348643306261
20
3.08329776326622
30
0
41
1
10
63.7285040674154
20
3.088593403065
30
0
41
1
10
63.7168214113906
20
3.10046875070327
30
0
41
1
10
63.711509388977
20
3.1070157752184
30
0
41
1
10
63.7067677420055
20
3.11422320565649
30
0
0
SPLINE
5
112
100
AcDbEntity
8
1
62
256
6
ByLayer
370
18
48
1
60
0
100
AcDbSpline
70
4
71
3
72
10
73
6
40
0
40
0
40
0
40
0
40
0.5
40
0.5
40
1
40
1
40
1
40
1
41
1
10
63.7067677420055
20
3.1142232056564
30
0
41
1
10
63.6618448205471
20
3.18250724987752
30
0
41
1
10
63.6169804874535
20
3.24977672214411
30
0
41
1
10
63.5273509097801
20
3.38226292993738
30
0
41
1
10
63.4825810533629
20
3.44748100713815
30
0
41
1
10
63.4379177799172
20
3.51156986216915
30
0
0
SPLINE
5
113
100
AcDbEntity
8
1
62
256
6
ByLayer
370
18
48
1
60
0
100
AcDbSpline
70
4
71
3
72
8
73
4
40
0
40
0
40
0
40
0
40
1
40
1
40
1
40
1
41
1
10
63.4379177799171
20
3.51156986216921
30
0
41
1
10
63.315263230807
20
3.50737281899728
30
0
41
1
10
63.1931888824396
20
3.49966802871984
30
0
41
1
10
63.0714566392796
20
3.48844054732572
30
0
0
SPLINE
5
114
100
AcDbEntity
8
1
62
256
6
ByLayer
370
18
48
1
60
0
100
AcDbSpline
70
4
71
3
72
10
73
6
40
0
40
0
40
0
40
0
40
0.5
40
0.5
40
1
40
1
40
1
40
1
41
1
10
63.0714566392796
20
3.48844054732572
30
0
41
1
10
63.015312194588
20
3.37750990332631
30
0
41
1
10
62.9589170751472
20
3.26613318611822
30
0
41
1
10
62.8457051747122
20
3.04307819587268
30
0
41
1
10
62.7888915489725
20
2.93141909808503
30
0
41
1
10
62.731819849159
20
2.81965557420676
30
0
0
SPLINE
5
115
100
AcDbEntity
8
1
62
256
6
ByLayer
370
18
48
1
60
0
100
AcDbSpline
70
4
71
3
72
20
73
16
40
0
40
0
40
0
40
0
40
0.22793296121292
40
0.22793296121292
40
0.341899441819329
40
0.341899441819329
40
0.455865922425737
40
0.455865922425737
40
0.683798883638554
40
0.683798883638554
40
0.797765364244895
40
0.797765364244895
40
0.911731844851237
40
0.911731844851237
40
1
40
1
40
1
40
1
41
1
10
62.731819849159
20
2.81965557420676
30
0
41
1
10
62.7232792506003
20
2.80293051793404
30
0
41
1
10
62.7133139336191
20
2.78741746156342
30
0
41
1
10
62.6966074791949
20
2.76564116545836
30
0
41
1
10
62.6907404033562
20
2.75863574643751
30
0
41
1
10
62.6784238715601
20
2.74511971425071
30
0
41
1
10
62.6719770665903
20
2.73861927609707
30
0
41
1
10
62.6521746963838
20
2.72022874638199
30
0
41
1
10
62.6382395013854
20
2.70929247266335
30
0
41
1
10
62.6162556751028
20
2.69486057055326
30
0
41
1
10
62.6087151988
20
2.69036944266597
30
0
41
1
10
62.5935570771294
20
2.68224419424212
30
0
41
1
10
62.5859108901159
20
2.67858787453619
30
0
41
1
10
62.5722267568224
20
2.67282921870233
30
0
41
1
10
62.5662154833735
20
2.67055856568206
30
0
41
1
10
62.5601642981892
20
2.66854741978446
30
0
0
SPLINE
5
116
100
AcDbEntity
8
1
62
256
6
ByLayer
370
18
48
1
60
0
100
AcDbSpline
70
4
71
3
72
8
73
4
40
0
40
0
40
0
40
0
40
1
40
1
40
1
40
1
41
1
10
61.8669147296649
20
3.12396292617015
30
0
41
1
10
61.9078109960507
20
3.14481797785268
30
0
41
1
10
61.9487443968009
20
3.16538783764491
30
0
41
1
10
61.9897186610561
20
3.18566814217357
30
0
0
SPLINE
5
117
100
AcDbEntity
8
1
62
256
6
ByLayer
370
18
48
1
60
0
100
AcDbSpline
70
4
71
3
72
8
73
4
40
0
40
0
40
0
40
0
40
1
40
1
40
1
40
1
41
1
10
61.8669147296649
20
3.12396292617021
30
0
41
1
10
61.8253279477619
20
3.04066566953247
30
0
41
1
10
61.7836399159876
20
2.95759931516864
30
0
41
1
10
61.7418323031969
20
2.87479356933639
30
0
0
SPLINE
5
118
100
AcDbEntity
8
1
62
256
6
ByLayer
370
18
48
1
60
0
100
AcDbSpline
70
4
71
3
72
10
73
6
40
0
40
0
40
0
40
0
40
0.5
40
0.5
40
1
40
1
40
1
40
1
41
1
10
61.7080418907919
20
2.8357289130486
30
0
41
1
10
61.7786623100035
20
2.92225991970108
30
0
41
1
10
61.8489321111357
20
3.00528533474295
30
0
41
1
10
61.9889757419552
20
3.16442247429137
30
0
41
1
10
62.0586026225465
20
3.24036284365292
30
0
41
1
10
62.1279107303007
20
3.3126679695861
30
0
0
SPLINE
5
119
100
AcDbEntity
8
1
62
256
6
ByLayer
370
13
48
1
60
0
100
AcDbSpline
70
4
71
3
72
11
73
7
40
0
40
0
40
0
40
0
40
0.0496006820556683
40
0.385533219622398
40
0.721465757189128
40
1
40
1
40
1
40
1
41
1
10
61.7080418907919
20
2.83572891304885
30
0
41
1
10
61.7106316646626
20
2.81237806504566
30
0
41
1
10
61.7307613040853
20
2.62526735629234
30
0
41
1
10
61.7684308042142
20
2.19521850756166
30
0
41
1
10
61.8180535048971
20
1.48474811364619
30
0
41
1
10
61.8501363281424
20
0.969494248899906
30
0
41
1
10
61.8646792870563
20
0.730077891192877
30
0
0
SPLINE
5
11A
100
AcDbEntity
8
1
62
256
6
ByLayer
370
13
48
1
60
0
100
AcDbSpline
70
4
71
3
72
11
73
7
40
0
40
0
40
0
40
0
40
0.137083669294015
40
0.473121697715027
40
0.80915972613604
40
1
40
1
40
1
40
1
41
1
10
61.3822392721074
20
2.9441477770917
30
0
41
1
10
61.3893944997899
20
2.88625248932806
30
0
41
1
10
61.4140895974443
20
2.66677533578439
30
0
41
1
10
61.4563247244065
20
2.18195599372632
30
0
41
1
10
61.5013653967481
20
1.53494067662001
30
0
41
1
10
61.5288664090203
20
1.09930501962523
30
0
41
1
10
61.538827534458
20
0.937995742793021
30
0
0
SPLINE
5
11B
100
AcDbEntity
8
1
62
256
6
ByLayer
370
18
48
1
60
0
100
AcDbSpline
70
4
71
3
72
10
73
6
40
0
40
0
40
0
40
0
40
0.5
40
0.5
40
1
40
1
40
1
40
1
41
1
10
60.9500275992778
20
3.76339833946182
30
0
41
1
10
61.0212313127129
20
3.62758912439787
30
0
41
1
10
61.0928053400585
20
3.49125627777676
30
0
41
1
10
61.2369234755838
20
3.21782302019872
30
0
41
1
10
61.3093093636717
20
3.08099440189722
30
0
41
1
10
61.3822392721074
20
2.9441477770917
30
0
0
SPLINE
5
11C
100
AcDbEntity
8
1
62
256
6
ByLayer
370
18
48
1
60
0
100
AcDbSpline
70
4
71
3
72
32
73
28
40
0
40
0
40
0
40
0
40
0.124999999999998
40
0.124999999999998
40
0.187499999999997
40
0.187499999999997
40
0.218749999999996
40
0.218749999999996
40
0.249999999999996
40
0.249999999999996
40
0.374999999999997
40
0.374999999999997
40
0.499999999999998
40
0.499999999999998
40
0.562499999999998
40
0.562499999999998
40
0.624999999999999
40
0.624999999999999
40
0.749999999999999
40
0.749999999999999
40
0.875
40
0.875
40
0.9375
40
0.9375
40
0.96875
40
0.96875
40
1
40
1
40
1
40
1
41
1
10
62.1279107303007
20
3.3126679695861
30
0
41
1
10
62.135074644441
20
3.22797445608416
30
0
41
1
10
62.1422478711624
20
3.13690863669393
30
0
41
1
10
62.1530372702424
20
2.99060895973264
30
0
41
1
10
62.156639542779
20
2.94022212119506
30
0
41
1
10
62.1620620183717
20
2.86216067706579
30
0
41
1
10
62.1638751294587
20
2.83569050847123
30
0
41
1
10
62.1674899166713
20
2.78221585480071
30
0
41
1
10
62.1692933672185
20
2.75518681434619
30
0
41
1
10
62.1782980790588
20
2.61860027934449
30
0
41
1
10
62.1854763424527
20
2.5047322471448
30
0
41
1
10
62.1998093902703
20
2.26802069546088
30
0
41
1
10
62.2069574489084
20
2.14517652065391
30
0
41
1
10
62.217716849309
20
1.95410722246723
30
0
41
1
10
62.2213103487017
20
1.8892812187533
30
0
41
1
10
62.2285325642461
20
1.75731477141093
30
0
41
1
10
62.2321721419931
20
1.69001271635247
30
0
41
1
10
62.2430344786045
20
1.48693916024499
30
0
41
1
10
62.2502244952823
20
1.34940015794646
30
0
41
1
10
62.2645400946822
20
1.07013137297079
30
0
41
1
10
62.2716656430102
20
0.928401294912021
30
0
41
1
10
62.2824172698965
20
0.712646710423314
30
0
41
1
10
62.2860150068701
20
0.640200972652934
30
0
41
1
10
62.2914347269629
20
0.530727908784769
30
0
41
1
10
62.2932449514338
20
0.494102725078676
30
0
41
1
10
62.2968728684164
20
0.420580874131503
30
0
41
1
10
62.2986922925052
20
0.383648840911803
30
0
41
1
10
62.3005048879558
20
0.346800498264031
30
0
0
SPLINE
5
11D
100
AcDbEntity
8
1
62
256
6
ByLayer
370
18
48
1
60
0
100
AcDbSpline
70
4
71
3
72
8
73
4
40
0
40
0
40
0
40
0
40
1
40
1
40
1
40
1
41
1
10
62.2507617857111
20
3.25520199589161
30
0
41
1
10
62.2098008220627
20
3.27468035466194
30
0
41
1
10
62.1688509420019
20
3.29383576711234
30
0
41
1
10
62.1279107303007
20
3.3126679695861
30
0
0
SPLINE
5
11E
100
AcDbEntity
8
1
62
256
6
ByLayer
370
13
48
1
60
0
100
AcDbSpline
70
4
71
3
72
11
73
7
40
0
40
0
40
0
40
0
40
0.164389571188422
40
0.687959648078436
40
0.949744686523443
40
1
40
1
40
1
40
1
41
1
10
62.8395451034464
20
0.0951348226107029
30
0
41
1
10
62.830956664532
20
0.239927459195371
30
0
41
1
10
62.7950146700807
20
0.844729014704455
30
0
41
1
10
62.7453964027727
20
1.64345942596142
30
0
41
1
10
62.7017411048492
20
2.22207839121194
30
0
41
1
10
62.6854387788696
20
2.41442016555092
30
0
41
1
10
62.6828132213192
20
2.44475861716066
30
0
0
SPLINE
5
11F
100
AcDbEntity
8
1
62
256
6
ByLayer
370
18
48
1
60
0
100
AcDbSpline
70
4
71
3
72
10
73
6
40
0
40
0
40
0
40
0
40
0.5
40
0.5
40
1
40
1
40
1
40
1
41
1
10
62.2507617857108
20
3.2552019958826
30
0
41
1
10
62.3219490211887
20
3.11819752900857
30
0
41
1
10
62.3934919183834
20
2.9820147095366
30
0
41
1
10
62.5375682137774
20
2.71149834078244
30
0
41
1
10
62.6099419227175
20
2.57746412751101
30
0
41
1
10
62.6828132213192
20
2.44475861716063
30
0
0
SPLINE
5
120
100
AcDbEntity
8
1
62
256
6
ByLayer
370
18
48
1
60
0
100
AcDbSpline
70
4
71
3
72
30
73
26
40
0
40
0
40
0
40
0
40
0.125000000000001
40
0.125000000000001
40
0.250000000000001
40
0.250000000000001
40
0.312500000000002
40
0.312500000000002
40
0.343750000000002
40
0.343750000000002
40
0.375000000000003
40
0.375000000000003
40
0.500000000000005
40
0.500000000000005
40
0.625000000000007
40
0.625000000000007
40
0.687500000000007
40
0.687500000000007
40
0.718750000000007
40
0.718750000000007
40
0.750000000000007
40
0.750000000000007
40
0.875000000000004
40
0.875000000000004
40
1
40
1
40
1
40
1
41
1
10
62.4232337582278
20
0.249275735177491
30
0
41
1
10
62.4160623759156
20
0.396204706956581
30
0
41
1
10
62.4089320070522
20
0.541763417856913
30
0
41
1
10
62.3945336613628
20
0.830179523595888
30
0
41
1
10
62.3872899740964
20
0.973038129124149
30
0
41
1
10
62.3764039573956
20
1.18526988097094
30
0
41
1
10
62.3727710402606
20
1.25567032342374
30
0
41
1
10
62.3673131278154
20
1.36074428200055
30
0
41
1
10
62.3654927510242
20
1.3956727305887
30
0
41
1
10
62.3618704601556
20
1.46492319393406
30
0
41
1
10
62.3600657271002
20
1.49929957434026
30
0
41
1
10
62.3510700991839
20
1.66995087838905
30
0
41
1
10
62.3439670918198
20
1.8025451320255
30
0
41
1
10
62.3297839964193
20
2.06004578977505
30
0
41
1
10
62.3226899298531
20
2.18495137877656
30
0
41
1
10
62.3119241911652
20
2.36646344396297
30
0
41
1
10
62.3083203536192
20
2.42599122177595
30
0
41
1
10
62.3028913198432
20
2.51378929369517
30
0
41
1
10
62.3010751136827
20
2.54284705213084
30
0
41
1
10
62.2974472672592
20
2.60024887130365
30
0
41
1
10
62.2956374641845
20
2.62856491426243
30
0
41
1
10
62.2866059451346
20
2.76824409908741
30
0
41
1
10
62.2794336722098
20
2.87392116282157
30
0
41
1
10
62.2651051621361
20
3.07345479409668
30
0
41
1
10
62.2579572813819
20
3.16731100782363
30
0
41
1
10
62.2507617857049
20
3.25520199589022
30
0
0
SPLINE
5
121
100
AcDbEntity
8
1
62
256
6
ByLayer
370
18
48
1
60
0
100
AcDbSpline
70
4
71
3
72
8
73
4
40
0
40
0
40
0
40
0
40
1
40
1
40
1
40
1
41
1
10
60.9500275992797
20
3.76339833947344
30
0
41
1
10
60.9091531521152
20
3.77567919761793
30
0
41
1
10
60.8682344341323
20
3.78760305352014
30
0
41
1
10
60.8272701352969
20
3.79916829478552
30
0
0
SPLINE
5
122
100
AcDbEntity
8
1
62
256
6
ByLayer
370
18
48
1
60
0
100
AcDbSpline
70
4
71
3
72
8
73
4
40
0
40
0
40
0
40
0
40
1
40
1
40
1
40
1
41
1
10
54.1680804167334
20
-1.20212069312387
30
0
41
1
10
54.1544133600518
20
-1.20810544528925
30
0
41
1
10
54.1407518364592
20
-1.21390161577034
30
0
41
1
10
54.1270956486649
20
-1.2195087987063
30
0
0
SPLINE
5
123
100
AcDbEntity
8
1
62
256
6
ByLayer
370
18
48
1
60
0
100
AcDbSpline
70
4
71
3
72
8
73
4
40
0
40
0
40
0
40
0
40
1
40
1
40
1
40
1
41
1
10
54.1270956486649
20
-1.21950879870619
30
0
41
1
10
54.0847795036896
20
-1.18928625693579
30
0
41
1
10
54.0424165832238
20
-1.1590059754831
30
0
41
1
10
54
20
-1.1286767654189
30
0
0
SPLINE
5
124
100
AcDbEntity
8
1
62
256
6
ByLayer
370
18
48
1
60
0
100
AcDbSpline
70
4
71
3
72
10
73
6
40
0
40
0
40
0
40
0
40
0.502000060102631
40
0.502000060102631
40
1
40
1
40
1
40
1
41
1
10
41.2923184224381
20
2.13151555069743
30
0
41
1
10
41.3193613047126
20
2.18809374163547
30
0
41
1
10
41.344703559507
20
2.24749940075139
30
0
41
1
10
41.3908018652753
20
2.36892455246431
30
0
41
1
10
41.4116229523533
20
2.43079249093375
30
0
41
1
10
41.4303849962479
20
2.49400835817303
30
0
0
SPLINE
5
125
100
AcDbEntity
8
1
62
256
6
ByLayer
370
18
48
1
60
0
100
AcDbSpline
70
4
71
3
72
12
73
8
40
0
40
0
40
0
40
0
40
0.250000000000014
40
0.250000000000014
40
0.500000000000027
40
0.500000000000027
40
1
40
1
40
1
40
1
41
1
10
53.5353850503503
20
-3.12764175573341
30
0
41
1
10
53.5740615404764
20
-3.15036601508109
30
0
41
1
10
53.6128033235088
20
-3.17291441730276
30
0
41
1
10
53.6904447221307
20
-3.21770130485922
30
0
41
1
10
53.7293598628104
20
-3.23995406733741
30
0
41
1
10
53.8458406979295
20
-3.30589172653117
30
0
41
1
10
53.9230827542592
20
-3.34869799696637
30
0
41
1
10
54.0000000000001
20
-3.3902985043425
30
0
0
SPLINE
5
126
100
AcDbEntity
8
1
62
256
6
ByLayer
370
18
48
1
60
0
100
AcDbSpline
70
4
71
3
72
8
73
4
40
0
40
0
40
0
40
0
40
1
40
1
40
1
40
1
41
1
10
54.0000000000003
20
-3.39029850434233
30
0
41
1
10
54.127606063095
20
-3.39986792105773
30
0
41
1
10
54.2545679687771
20
-3.40632595163038
30
0
41
1
10
54.3809499383467
20
-3.40964003512113
30
0
0
SPLINE
5
127
100
AcDbEntity
8
1
62
256
6
ByLayer
370
18
48
1
60
0
100
AcDbSpline
70
4
71
3
72
8
73
4
40
0
40
0
40
0
40
0
40
1
40
1
40
1
40
1
41
1
10
54.3809499383468
20
-3.40964003512116
30
0
41
1
10
54.4024738257532
20
-3.37147235245976
30
0
41
1
10
54.424037894012
20
-3.33315430868987
30
0
41
1
10
54.4456462349623
20
-3.29468712258898
30
0
0
SPLINE
5
128
100
AcDbEntity
8
1
62
256
6
ByLayer
370
18
48
1
60
0
100
AcDbSpline
70
4
71
3
72
31
73
27
40
0
40
0
40
0
40
0
40
0.124999999999966
40
0.124999999999966
40
0.187499999999979
40
0.187499999999979
40
0.249999999999992
40
0.249999999999992
40
0.375000000000017
40
0.375000000000017
40
0.437499999999992
40
0.437499999999992
40
0.499999999999966
40
0.562499999999941
40
0.562499999999941
40
0.624999999999916
40
0.624999999999916
40
0.749999999999944
40
0.749999999999944
40
0.812499999999958
40
0.812499999999958
40
0.874999999999972
40
0.874999999999972
40
0.937499999999986
40
0.937499999999986
40
1
40
1
40
1
40
1
41
1
10
54.4456462349623
20
-3.29468712258898
30
0
41
1
10
54.454433113235
20
-3.27904471475506
30
0
41
1
10
54.4647228844597
20
-3.26515579981682
30
0
41
1
10
54.4819629760612
20
-3.24641605491047
30
0
41
1
10
54.4880166090951
20
-3.24052582772319
30
0
41
1
10
54.5007177223728
20
-3.22943596201796
30
0
41
1
10
54.5073709295497
20
-3.22424046453972
30
0
41
1
10
54.5277460332631
20
-3.20999884015413
30
0
41
1
10
54.5420206340274
20
-3.20214493136896
30
0
41
1
10
54.5644211131986
20
-3.1927532251155
30
0
41
1
10
54.5720349272671
20
-3.19003892666802
30
0
41
1
10
54.5872941478589
20
-3.18552091239292
30
0
41
1
10
54.6026551827163
20
-3.18188264575554
30
0
41
1
10
54.6182096381854
20
-3.18001449574987
30
0
41
1
10
54.6338600076116
20
-3.1790777622831
30
0
41
1
10
54.6417802443476
20
-3.17907928256142
30
0
41
1
10
54.6652868434365
20
-3.1805906340386
30
0
41
1
10
54.680594470102
20
-3.18354756250918
30
0
41
1
10
54.7028930344363
20
-3.19133237034842
30
0
41
1
10
54.7102546700663
20
-3.19452040769389
30
0
41
1
10
54.724326904926
20
-3.20198241997355
30
0
41
1
10
54.7310769554654
20
-3.20626236359914
30
0
41
1
10
54.7439523608413
20
-3.21601795168087
30
0
41
1
10
54.7501166856146
20
-3.22153518696666
30
0
41
1
10
54.7615264405194
20
-3.23374720810838
30
0
41
1
10
54.7667451957442
20
-3.24039791865476
30
0
41
1
10
54.7714324262748
20
-3.24764659990967
30
0
0
SPLINE
5
129
100
AcDbEntity
8
1
62
256
6
ByLayer
370
18
48
1
60
0
100
AcDbSpline
70
4
71
3
72
8
73
4
40
0
40
0
40
0
40
0
40
1
40
1
40
1
40
1
41
1
10
54.7714324262748
20
-3.24764659990967
30
0
41
1
10
54.8059858700515
20
-3.3010826104836
30
0
41
1
10
54.8404573725113
20
-3.35397345248916
30
0
41
1
10
54.8748578993435
20
-3.40631825819452
30
0
0
SPLINE
5
12A
100
AcDbEntity
8
1
62
256
6
ByLayer
370
18
48
1
60
0
100
AcDbSpline
70
4
71
3
72
10
73
6
40
0
40
0
40
0
40
0
40
0.5
40
0.5
40
1
40
1
40
1
40
1
41
1
10
54.8748578993435
20
-3.40631825819449
30
0
41
1
10
54.9927935017918
20
-3.40155931810168
30
0
41
1
10
55.110188314816
20
-3.39386356270487
30
0
41
1
10
55.3447312838726
20
-3.37292618271584
30
0
41
1
10
55.4618055806071
20
-3.35965101914294
30
0
41
1
10
55.5787195536944
20
-3.34352341907635
30
0
0
SPLINE
5
12B
100
AcDbEntity
8
1
62
256
6
ByLayer
370
18
48
1
60
0
100
AcDbSpline
70
4
71
3
72
8
73
4
40
0
40
0
40
0
40
0
40
1
40
1
40
1
40
1
41
1
10
55.5787195536922
20
-3.34352341907368
30
0
41
1
10
55.6343157243161
20
-3.2387080567276
30
0
41
1
10
55.6901424020762
20
-3.1336520015071
30
0
41
1
10
55.7462722501397
20
-3.02839012847164
30
0
0
SPLINE
5
12C
100
AcDbEntity
8
1
62
256
6
ByLayer
370
18
48
1
60
0
100
AcDbSpline
70
4
71
3
72
31
73
27
40
0
40
0
40
0
40
0
40
0.124999999999996
40
0.124999999999996
40
0.187499999999996
40
0.187499999999996
40
0.249999999999995
40
0.249999999999995
40
0.37500000000006
40
0.37500000000006
40
0.437500000000055
40
0.437500000000055
40
0.500000000000049
40
0.562500000000043
40
0.562500000000043
40
0.625000000000037
40
0.625000000000037
40
0.750000000000025
40
0.750000000000025
40
0.812500000000019
40
0.812500000000019
40
0.875000000000012
40
0.875000000000012
40
0.937500000000006
40
0.937500000000006
40
1
40
1
40
1
40
1
41
1
10
55.7462722501397
20
-3.02839012847167
30
0
41
1
10
55.7550608631583
20
-3.01190859681535
30
0
41
1
10
55.7653530816768
20
-2.99689149718881
30
0
41
1
10
55.7825973197318
20
-2.97611839875435
30
0
41
1
10
55.7886524181055
20
-2.96949219104852
30
0
41
1
10
55.8013566414171
20
-2.95681716048324
30
0
41
1
10
55.8080117665108
20
-2.95077122474962
30
0
41
1
10
55.8283921272936
20
-2.93387029606649
30
0
41
1
10
55.8426698498336
20
-2.92408339404801
30
0
41
1
10
55.8650747790614
20
-2.91155140329482
30
0
41
1
10
55.8726893114953
20
-2.90775255668811
30
0
41
1
10
55.8879499307059
20
-2.90102387187073
30
0
41
1
10
55.9033120935638
20
-2.89512372695873
30
0
41
1
10
55.9188671233967
20
-2.89088590785252
30
0
41
1
10
55.9345177866841
20
-2.88752035870294
30
0
41
1
10
55.9424381226933
20
-2.88627030696779
30
0
41
1
10
55.9659396642382
20
-2.88399113132692
30
0
41
1
10
55.9812435320085
20
-2.88437960692926
30
0
41
1
10
56.0035361364812
20
-2.88822549055851
30
0
41
1
10
56.0108951146633
20
-2.89007780091598
30
0
41
1
10
56.0249610332009
20
-2.89490520534008
30
0
41
1
10
56.031707956184
20
-2.89787992474561
30
0
41
1
10
56.044577220943
20
-2.90505032745728
30
0
41
1
10
56.0507384363205
20
-2.90927901873087
30
0
41
1
10
56.0621427429661
20
-2.9189865153389
30
0
41
1
10
56.0673592536306
20
-2.92442807247895
30
0
41
1
10
56.0720447921089
20
-2.93051552296353
30
0
0
SPLINE
5
12D
100
AcDbEntity
8
1
62
256
6
ByLayer
370
18
48
1
60
0
100
AcDbSpline
70
4
71
3
72
8
73
4
40
0
40
0
40
0
40
0
40
1
40
1
40
1
40
1
41
1
10
56.0720447921089
20
-2.93051552296353
30
0
41
1
10
56.1462090117818
20
-3.02686965964958
30
0
41
1
10
56.2200013574966
20
-3.11958709043799
30
0
41
1
10
56.2935155679738
20
-3.20864959626766
30
0
0
SPLINE
5
12E
100
AcDbEntity
8
1
62
256
6
ByLayer
370
18
48
1
60
0
100
AcDbSpline
70
4
71
3
72
12
73
8
40
0
40
0
40
0
40
0
40
0.250000000000014
40
0.250000000000014
40
0.500000000000027
40
0.500000000000027
40
1
40
1
40
1
40
1
41
1
10
56.2935155679739
20
-3.20864959626763
30
0
41
1
10
56.333905250575
20
-3.19893860508023
30
0
41
1
10
56.3742882842584
20
-3.18886716157178
30
0
41
1
10
56.4550477439086
20
-3.16799697769915
30
0
41
1
10
56.4954546960994
20
-3.15718957743809
30
0
41
1
10
56.6163823950326
20
-3.12374764541326
30
0
41
1
10
56.6966243295283
20
-3.10008292178978
30
0
41
1
10
56.776653939237
20
-3.07518472722364
30
0
0
SPLINE
5
12F
100
AcDbEntity
8
1
62
256
6
ByLayer
370
18
48
1
60
0
100
AcDbSpline
70
4
71
3
72
10
73
6
40
0
40
0
40
0
40
0
40
0.554929596049896
40
0.554929596049896
40
1
40
1
40
1
40
1
41
1
10
56.776653939237
20
-3.07518472722364
30
0
41
1
10
56.8213545536057
20
-2.98984343686808
30
0
41
1
10
56.8662487057561
20
-2.9047279252369
30
0
41
1
10
56.947395500692
20
-2.75210592363797
30
0
41
1
10
56.9836147820899
20
-2.68442095755054
30
0
41
1
10
57.0199580597735
20
-2.61699045511338
30
0
0
SPLINE
5
130
100
AcDbEntity
8
1
62
256
6
ByLayer
370
18
48
1
60
0
100
AcDbSpline
70
4
71
3
72
10
73
6
40
0
40
0
40
0
40
0
40
0.5
40
0.5
40
1
40
1
40
1
40
1
41
1
10
60.6717293823239
20
-3.34724034404613
30
0
41
1
10
60.6020185011701
20
-3.46703260802798
30
0
41
1
10
60.532423327175
20
-3.5865929437486
30
0
41
1
10
60.3935592377496
20
-3.82488901947613
30
0
41
1
10
60.3243390672814
20
-3.94353856398899
30
0
41
1
10
60.2554094519517
20
-4.06139725597501
30
0
0
SPLINE
5
131
100
AcDbEntity
8
1
62
256
6
ByLayer
370
18
48
1
60
0
100
AcDbSpline
70
4
71
3
72
10
73
6
40
0
40
0
40
0
40
0
40
0.5
40
0.5
40
1
40
1
40
1
40
1
41
1
10
58.9374333840235
20
2.39067212262532
30
0
41
1
10
58.8696477867715
20
2.48195373920296
30
0
41
1
10
58.8019751640436
20
2.57615394709333
30
0
41
1
10
58.6669296505667
20
2.77018307379808
30
0
41
1
10
58.5996049208881
20
2.86992374185522
30
0
41
1
10
58.5325569802946
20
2.97205750862977
30
0
0
SPLINE
5
132
100
AcDbEntity
8
1
62
256
6
ByLayer
370
18
48
1
60
0
100
AcDbSpline
70
4
71
3
72
8
73
4
40
0
40
0
40
0
40
0
40
1
40
1
40
1
40
1
41
1
10
58.5325569802946
20
2.97205750862975
30
0
41
1
10
58.4793197497302
20
2.99641962845718
30
0
41
1
10
58.4259896986387
20
3.02016034681427
30
0
41
1
10
58.3725519041491
20
3.04326616830687
30
0
0
SPLINE
5
133
100
AcDbEntity
8
1
62
256
6
ByLayer
370
18
48
1
60
0
100
AcDbSpline
70
4
71
3
72
12
73
8
40
0
40
0
40
0
40
0
40
0.25
40
0.25
40
0.500000000000001
40
0.500000000000001
40
1
40
1
40
1
40
1
41
1
10
58.3725519041546
20
3.04326616830076
30
0
41
1
10
58.3387052833858
20
3.0272711104048
30
0
41
1
10
58.3047910560505
20
3.01013212827334
30
0
41
1
10
58.236781751635
20
2.973478585262
30
0
41
1
10
58.2026723544223
20
2.95394622316707
30
0
41
1
10
58.100109689189
20
2.8918019023811
30
0
41
1
10
58.0314880415994
20
2.84575382419348
30
0
41
1
10
57.9624785672335
20
2.79498333571337
30
0
0
SPLINE
5
134
100
AcDbEntity
8
1
62
256
6
ByLayer
370
18
48
1
60
0
100
AcDbSpline
70
4
71
3
72
32
73
28
40
0
40
0
40
0
40
0
40
0.125000000000119
40
0.125000000000119
40
0.187500000000178
40
0.187500000000178
40
0.250000000000238
40
0.250000000000238
40
0.37500000000029
40
0.37500000000029
40
0.437500000000316
40
0.437500000000316
40
0.500000000000342
40
0.500000000000342
40
0.625000000000315
40
0.625000000000315
40
0.687500000000263
40
0.687500000000263
40
0.75000000000021
40
0.75000000000021
40
0.812500000000158
40
0.812500000000158
40
0.875000000000105
40
0.875000000000105
40
0.937500000000053
40
0.937500000000053
40
1
40
1
40
1
40
1
41
1
10
57.9624785672313
20
2.79498333571593
30
0
41
1
10
57.9539394555642
20
2.78870108426412
30
0
41
1
10
57.943976240821
20
2.78403652412675
30
0
41
1
10
57.9272705270551
20
2.77901389071317
30
0
41
1
10
57.9214033701514
20
2.77767528706116
30
0
41
1
10
57.9090858999853
20
2.77565457797564
30
0
41
1
10
57.9026375186377
20
2.77497766078426
30
0
41
1
10
57.8828301063185
20
2.7739492145844
30
0
41
1
10
57.8688905486476
20
2.77456096722668
30
0
41
1
10
57.846900506728
20
2.77744182610704
30
0
41
1
10
57.8393577463122
20
2.77874189824081
30
0
41
1
10
57.8241952289317
20
2.78197876842927
30
0
41
1
10
57.8165471708206
20
2.78391689106252
30
0
41
1
10
57.7934076416033
20
2.79071487056109
30
0
41
1
10
57.7777240526908
20
2.79653716198681
30
0
41
1
10
57.7537833683802
20
2.80761434253364
30
0
41
1
10
57.7458236025241
20
2.81166427136651
30
0
41
1
10
57.7301545283025
20
2.82042796274862
30
0
41
1
10
57.7224147534366
20
2.82515509483238
30
0
41
1
10
57.7071506811082
20
2.83537861610813
30
0
41
1
10
57.6995672643414
20
2.84092426519234
30
0
41
1
10
57.6850187158119
20
2.85262367117124
30
0
41
1
10
57.6780482628016
20
2.85877078940865
30
0
41
1
10
57.6647707864924
20
2.87171488624716
30
0
41
1
10
57.6584150360929
20
2.87857200796162
30
0
41
1
10
57.6467374848086
20
2.89271574544446
30
0
41
1
10
57.6414272898984
20
2.89997260769852
30
0
41
1
10
57.6366868886922
20
2.90742739021658
30
0
0
SPLINE
5
135
100
AcDbEntity
8
1
62
256
6
ByLayer
370
18
48
1
60
0
100
AcDbSpline
70
4
71
3
72
10
73
6
40
0
40
0
40
0
40
0
40
0.5
40
0.5
40
1
40
1
40
1
40
1
41
1
10
57.6366868886922
20
2.90742739021655
30
0
41
1
10
57.5856292281339
20
2.98772096427976
30
0
41
1
10
57.5346480428256
20
3.06905960185966
30
0
41
1
10
57.4328100112549
20
3.2338261722791
30
0
41
1
10
57.3819818176087
20
3.31720842630355
30
0
41
1
10
57.3312800035488
20
3.40145053244296
30
0
0
SPLINE
5
136
100
AcDbEntity
8
1
62
256
6
ByLayer
370
18
48
1
60
0
100
AcDbSpline
70
4
71
3
72
8
73
4
40
0
40
0
40
0
40
0
40
1
40
1
40
1
40
1
41
1
10
57.3312800035488
20
3.40145053244296
30
0
41
1
10
57.2039325942924
20
3.43418972937681
30
0
41
1
10
57.0766287835192
20
3.46290510671352
30
0
41
1
10
56.949146313007
20
3.48754090549866
30
0
0
SPLINE
5
137
100
AcDbEntity
8
1
62
256
6
ByLayer
370
18
48
1
60
0
100
AcDbSpline
70
4
71
3
72
10
73
6
40
0
40
0
40
0
40
0
40
0.5
40
0.5
40
1
40
1
40
1
40
1
41
1
10
56.9491463130069
20
3.4875409054988
30
0
41
1
10
56.9015478819358
20
3.43912222144851
30
0
41
1
10
56.8537703914956
20
3.38868617399328
30
0
41
1
10
56.7579919167785
20
3.28393774026276
30
0
41
1
10
56.7099650885406
20
3.22959098987141
30
0
41
1
10
56.6617292659387
20
3.17316210081418
30
0
0
SPLINE
5
138
100
AcDbEntity
8
1
62
256
6
ByLayer
370
18
48
1
60
0
100
AcDbSpline
70
4
71
3
72
32
73
28
40
0
40
0
40
0
40
0
40
0.125000000000087
40
0.125000000000087
40
0.18750000000013
40
0.18750000000013
40
0.250000000000172
40
0.250000000000172
40
0.375000000000257
40
0.375000000000257
40
0.437500000000263
40
0.437500000000263
40
0.500000000000269
40
0.500000000000269
40
0.625000000000201
40
0.625000000000201
40
0.687500000000168
40
0.687500000000168
40
0.750000000000134
40
0.750000000000134
40
0.812500000000101
40
0.812500000000101
40
0.875000000000067
40
0.875000000000067
40
0.937500000000034
40
0.937500000000034
40
1
40
1
40
1
40
1
41
1
10
56.6617292659387
20
3.17316210081418
30
0
41
1
10
56.6531913973362
20
3.16317403770736
30
0
41
1
10
56.6432296897888
20
3.15490479855543
30
0
41
1
10
56.6265248636948
20
3.14460158610876
30
0
41
1
10
56.6206577850203
20
3.14152420727277
30
0
41
1
10
56.6083399359231
20
3.13606795827204
30
0
41
1
10
56.6018910693765
20
3.13369612983212
30
0
41
1
10
56.5820815607299
20
3.1277459809223
30
0
41
1
10
56.5681396668978
20
3.12525619183887
30
0
41
1
10
56.5461464077654
20
3.12374968795777
30
0
41
1
10
56.5386024402655
20
3.12362701880952
30
0
41
1
10
56.5234378782542
20
3.12416436800422
30
0
41
1
10
56.5157891426966
20
3.1248194220214
30
0
41
1
10
56.4926485117969
20
3.12796835256995
30
0
41
1
10
56.4769654184116
20
3.13162093190863
30
0
41
1
10
56.4530266721545
20
3.13989627603865
30
0
41
1
10
56.4450673838889
20
3.14310021309018
30
0
41
1
10
56.4293996629176
20
3.15037698515488
30
0
41
1
10
56.4216606497523
20
3.15445950353441
30
0
41
1
10
56.4063981819023
20
3.16360972738835
30
0
41
1
10
56.398815606358
20
3.16872461604433
30
0
41
1
10
56.3842681358889
20
3.1798269833553
30
0
41
1
10
56.3772981981249
20
3.18580500401004
30
0
41
1
10
56.3640216496334
20
3.19869172091796
30
0
41
1
10
56.3576663169769
20
3.20566298722179
30
0
41
1
10
56.34598922697
20
3.2203491381147
30
0
41
1
10
56.340679258469
20
3.22803017847306
30
0
41
1
10
56.3359390508114
20
3.23607518297743
30
0
0
SPLINE
5
139
100
AcDbEntity
8
1
62
256
6
ByLayer
370
18
48
1
60
0
100
AcDbSpline
70
4
71
3
72
8
73
4
40
0
40
0
40
0
40
0
40
1
40
1
40
1
40
1
41
1
10
56.335939050811
20
3.2360751829776
30
0
41
1
10
56.2671110310466
20
3.35288899558407
30
0
41
1
10
56.1983971182325
20
3.47044032999258
30
0
41
1
10
56.1298420369321
20
3.58855866015489
30
0
0
SPLINE
5
13A
100
AcDbEntity
8
1
62
256
6
ByLayer
370
18
48
1
60
0
100
AcDbSpline
70
4
71
3
72
8
73
4
40
0
40
0
40
0
40
0
40
1
40
1
40
1
40
1
41
1
10
56.1298420369322
20
3.58855866015483
30
0
41
1
10
55.9298304983402
20
3.59949415446462
30
0
41
1
10
55.7285219988924
20
3.60065642932784
30
0
41
1
10
55.5254428743982
20
3.59191474846028
30
0
0
SPLINE
5
13B
100
AcDbEntity
8
1
62
256
6
ByLayer
370
18
48
1
60
0
100
AcDbSpline
70
4
71
3
72
8
73
4
40
0
40
0
40
0
40
0
40
1
40
1
40
1
40
1
41
1
10
55.5254428744058
20
3.59191474845278
30
0
41
1
10
55.4708242380786
20
3.51187025342489
30
0
41
1
10
55.4160473018617
20
3.42986512324461
30
0
41
1
10
55.3610373875818
20
3.34584617668023
30
0
0
SPLINE
5
13C
100
AcDbEntity
8
1
62
256
6
ByLayer
370
18
48
1
60
0
100
AcDbSpline
70
4
71
3
72
32
73
28
40
0
40
0
40
0
40
0
40
0.124999999999878
40
0.124999999999878
40
0.187499999999816
40
0.187499999999816
40
0.249999999999754
40
0.249999999999754
40
0.374999999999695
40
0.374999999999695
40
0.437499999999702
40
0.437499999999702
40
0.499999999999709
40
0.499999999999709
40
0.624999999999722
40
0.624999999999722
40
0.687499999999769
40
0.687499999999769
40
0.749999999999815
40
0.749999999999815
40
0.812499999999861
40
0.812499999999861
40
0.874999999999907
40
0.874999999999907
40
0.937499999999954
40
0.937499999999954
40
1
40
1
40
1
40
1
41
1
10
55.3610373875805
20
3.34584617668003
30
0
41
1
10
55.3524896176788
20
3.33279080962461
30
0
41
1
10
55.3425182139187
20
3.32145585834203
30
0
41
1
10
55.3258046103925
20
3.30655616023247
30
0
41
1
10
55.3199355155295
20
3.30194682071414
30
0
41
1
10
55.3076163102007
20
3.29342606677639
30
0
41
1
10
55.3011692962717
20
3.28952379432502
30
0
41
1
10
55.2813680373204
20
3.27906934006842
30
0
41
1
10
55.2674363445019
20
3.27366096861178
30
0
41
1
10
55.2454633442068
20
3.26788953503876
30
0
41
1
10
55.2379279605206
20
3.26635927069944
30
0
41
1
10
55.2227804307867
20
3.26417243604513
30
0
41
1
10
55.2151396187163
20
3.26350501842526
30
0
41
1
10
55.1920199884337
20
3.26280488925005
30
0
41
1
10
55.1763472713769
20
3.26404681941179
30
0
41
1
10
55.1524137098186
20
3.26897317362796
30
0
41
1
10
55.1444502942606
20
3.27112006126851
30
0
41
1
10
55.1287732788311
20
3.27643203150379
30
0
41
1
10
55.1210275768113
20
3.27960271408631
30
0
41
1
10
55.1057484406803
20
3.28708392036046
30
0
41
1
10
55.0981556790288
20
3.29143656224772
30
0
41
1
10
55.0835856040424
20
3.30122631415088
30
0
41
1
10
55.0766037015516
20
3.30665164881972
30
0
41
1
10
55.0633029493468
20
3.3186583909474
30
0
41
1
10
55.0569349474177
20
3.32530140898868
30
0
41
1
10
55.0452370108678
20
3.33959824741643
30
0
41
1
10
55.0399178055359
20
3.34721743103151
30
0
41
1
10
55.0351699464368
20
3.35534502676592
30
0
0
SPLINE
5
13D
100
AcDbEntity
8
1
62
256
6
ByLayer
370
18
48
1
60
0
100
AcDbSpline
70
4
71
3
72
8
73
4
40
0
40
0
40
0
40
0
40
1
40
1
40
1
40
1
41
1
10
55.0351699464368
20
3.35534502676592
30
0
41
1
10
54.9994927699108
20
3.41641879953275
30
0
41
1
10
54.9638522023938
20
3.47734400487479
30
0
41
1
10
54.9282443485622
20
3.5381143750171
30
0
0
SPLINE
5
13E
100
AcDbEntity
8
1
62
256
6
ByLayer
370
18
48
1
60
0
100
AcDbSpline
70
4
71
3
72
10
73
6
40
0
40
0
40
0
40
0
40
0.5
40
0.5
40
1
40
1
40
1
40
1
41
1
10
54.9282443485622
20
3.53811437501702
30
0
41
1
10
54.791146311488
20
3.51942946720268
30
0
41
1
10
54.6537285658731
20
3.4964625623814
30
0
41
1
10
54.3781546417246
20
3.44220052865811
30
0
41
1
10
54.2399887032557
20
3.41090135955903
30
0
41
1
10
54.1013018854604
20
3.37549811438109
30
0
0
SPLINE
5
13F
100
AcDbEntity
8
1
62
256
6
ByLayer
370
18
48
1
60
0
100
AcDbSpline
70
4
71
3
72
8
73
4
40
0
40
0
40
0
40
0
40
1
40
1
40
1
40
1
41
1
10
54.101301885467
20
3.37549811437549
30
0
41
1
10
54.0876567995934
20
3.35121498778807
30
0
41
1
10
54.0739985178322
20
3.32685112416661
30
0
41
1
10
54.060325858955
20
3.30240622093493
30
0
0
SPLINE
5
140
100
AcDbEntity
8
1
62
256
6
ByLayer
370
18
48
1
60
0
100
AcDbSpline
70
4
71
3
72
26
73
22
40
0
40
0
40
0
40
0
40
0.124999999999962
40
0.124999999999962
40
0.249999999999924
40
0.249999999999924
40
0.312499999999905
40
0.312499999999905
40
0.374999999999885
40
0.374999999999885
40
0.499999999999848
40
0.499999999999848
40
0.56249999999983
40
0.56249999999983
40
0.624999999999811
40
0.624999999999811
40
0.749999999999874
40
0.749999999999874
40
0.874999999999937
40
0.874999999999937
40
1
40
1
40
1
40
1
41
1
10
54.060325858955
20
3.30240622093493
30
0
41
1
10
54.0536808540009
20
3.29052583215784
30
0
41
1
10
54.0461688102325
20
3.2796197131658
30
0
41
1
10
54.0296812852458
20
3.25944107534835
30
0
41
1
10
54.0207023026313
20
3.25017250777932
30
0
41
1
10
54.0061853133564
20
3.23744152167191
30
0
41
1
10
54.0011799483216
20
3.23340611963201
30
0
41
1
10
53.9909805581095
20
3.22584310606865
30
0
41
1
10
53.9857683943325
20
3.22229918054967
30
0
41
1
10
53.9698049643407
20
3.21236178831126
30
0
41
1
10
53.958729403035
20
3.20665661541014
30
0
41
1
10
53.9414584176626
20
3.19951731121213
30
0
41
1
10
53.9355880848674
20
3.197377384254
30
0
41
1
10
53.9238128798586
20
3.19365040955301
30
0
41
1
10
53.9178850377476
20
3.19205304775903
30
0
41
1
10
53.8999834409216
20
3.18806601853061
30
0
41
1
10
53.8878926475207
20
3.18647278310402
30
0
41
1
10
53.8633893959785
20
3.18563545062454
30
0
41
1
10
53.8508717715139
20
3.18642297925274
30
0
41
1
10
53.8264573580785
20
3.19066829036146
30
0
41
1
10
53.8144713953552
20
3.19409758955109
30
0
41
1
10
53.8027594775725
20
3.19907611954423
30
0
0
SPLINE
5
141
100
AcDbEntity
8
1
62
256
6
ByLayer
370
18
48
1
60
0
100
AcDbSpline
70
4
71
3
72
12
73
8
40
0
40
0
40
0
40
0
40
0.250000000000001
40
0.250000000000001
40
0.500000000000001
40
0.500000000000001
40
1
40
1
40
1
40
1
41
1
10
53.8027594775725
20
3.19907611954423
30
0
41
1
10
53.7806832813035
20
3.18198071624266
30
0
41
1
10
53.7585856115851
20
3.16476304123387
30
0
41
1
10
53.7143505337915
20
3.130086525493
30
0
41
1
10
53.6922211734101
20
3.11262850731245
30
0
41
1
10
53.6255839000191
20
3.05987057770665
30
0
41
1
10
53.5807650639444
20
3.02417812808753
30
0
41
1
10
53.5353850503502
20
2.98799909546966
30
0
0
SPLINE
5
142
100
AcDbEntity
8
1
62
256
6
ByLayer
370
18
48
1
60
0
100
AcDbSpline
70
4
71
3
72
14
73
10
40
0
40
0
40
0
40
0
40
0.500000000000031
40
0.500000000000031
40
0.750000000000046
40
0.750000000000046
40
0.875000000000023
40
0.875000000000023
40
1
40
1
40
1
40
1
41
1
10
53.5353850503502
20
2.98799909546969
30
0
41
1
10
53.4661941616317
20
2.93283693879451
30
0
41
1
10
53.3920971835266
20
2.88651453683141
30
0
41
1
10
53.2755381497931
20
2.83018229221579
30
0
41
1
10
53.2357690485684
20
2.81360447269552
30
0
41
1
10
53.1748806238465
20
2.79214329851234
30
0
41
1
10
53.1543605907662
20
2.78555562129296
30
0
41
1
10
53.1132243891912
20
2.77363090901142
30
0
41
1
10
53.092573450665
20
2.76828041539582
30
0
41
1
10
53.0718507829311
20
2.7635469695069
30
0
0
SPLINE
5
143
100
AcDbEntity
8
1
62
256
6
ByLayer
370
18
48
1
60
0
100
AcDbSpline
70
4
71
3
72
20
73
16
40
0
40
0
40
0
40
0
40
0.243842924699798
40
0.243842924699798
40
0.487685849399597
40
0.487685849399597
40
0.609607311749496
40
0.609607311749496
40
0.731528774099395
40
0.731528774099395
40
0.853450236449294
40
0.853450236449294
40
0.975371698799194
40
0.975371698799194
40
1
40
1
40
1
40
1
41
1
10
53.0718507829312
20
2.7635469695069
30
0
41
1
10
52.9494659612125
20
2.73559198134265
30
0
41
1
10
52.8274193437679
20
2.70532585396839
30
0
41
1
10
52.5839586979546
20
2.64023442317665
30
0
41
1
10
52.4625339268782
20
2.60541583153324
30
0
41
1
10
52.2807397765637
20
2.54987876748899
30
0
41
1
10
52.2202011919161
20
2.53081270444031
30
0
41
1
10
52.0992115386171
20
2.49160119591477
30
0
41
1
10
52.0387321663494
20
2.4714812185766
30
0
41
1
10
51.9175982363454
20
2.43043359676281
30
0
41
1
10
51.8569956214284
20
2.40945708156582
30
0
41
1
10
51.7358793634059
20
2.36643993846724
30
0
41
1
10
51.6753534683359
20
2.34441047813485
30
0
41
1
10
51.6026128440362
20
2.31733176946761
30
0
41
1
10
51.5903884187888
20
2.31276125605334
30
0
41
1
10
51.5781639140433
20
2.30817093446569
30
0
0
SPLINE
5
144
100
AcDbEntity
8
1
62
256
6
ByLayer
370
18
48
1
60
0
100
AcDbSpline
70
4
71
3
72
8
73
4
40
0
40
0
40
0
40
0
40
1
40
1
40
1
40
1
41
1
10
53.9855318663278
20
1.40098182783461
30
0
41
1
10
53.9943957391917
20
1.38740643198807
30
0
41
1
10
54.003266731823
20
1.37387952911081
30
0
41
1
10
54.0121451373364
20
1.36040131592281
30
0
0
SPLINE
5
145
100
AcDbEntity
8
1
62
256
6
ByLayer
370
18
48
1
60
0
100
AcDbSpline
70
4
71
3
72
31
73
27
40
0
40
0
40
0
40
0
40
0.124999999999921
40
0.124999999999921
40
0.187499999999911
40
0.187499999999911
40
0.2499999999999
40
0.2499999999999
40
0.374999999999878
40
0.374999999999878
40
0.437499999999867
40
0.437499999999867
40
0.499999999999856
40
0.562499999999845
40
0.562499999999845
40
0.624999999999834
40
0.624999999999834
40
0.74999999999989
40
0.74999999999989
40
0.812499999999917
40
0.812499999999917
40
0.874999999999945
40
0.874999999999945
40
0.937499999999972
40
0.937499999999972
40
1
40
1
40
1
40
1
41
1
10
54.0121451373364
20
1.36040131592281
30
0
41
1
10
54.0209282716484
20
1.34706773293451
30
0
41
1
10
54.031212887599
20
1.33397593188508
30
0
41
1
10
54.0484443734055
20
1.31464257053671
30
0
41
1
10
54.0544950056503
20
1.30824946205303
30
0
41
1
10
54.0671899858547
20
1.29556152057225
30
0
41
1
10
54.0738401339642
20
1.2892661048156
30
0
41
1
10
54.0942067241596
20
1.27093579663747
30
0
41
1
10
54.1084762381932
20
1.25930183289444
30
0
41
1
10
54.1308704216988
20
1.24268084852559
30
0
41
1
10
54.138483321782
20
1.23729699557353
30
0
41
1
10
54.1537409185353
20
1.22701161749794
30
0
41
1
10
54.169100917623
20
1.21715531962957
30
0
41
1
10
54.1846556726243
20
1.20814755942789
30
0
41
1
10
54.2003070570445
20
1.1995786172786
30
0
41
1
10
54.2082281417227
20
1.19549142078768
30
0
41
1
10
54.2317420407753
20
1.18413339381644
30
0
41
1
10
54.2470548120485
20
1.17775209135794
30
0
41
1
10
54.2693611001314
20
1.17017647327205
30
0
41
1
10
54.2767255093026
20
1.16798098259082
30
0
41
1
10
54.2908027482754
20
1.16445310126707
30
0
41
1
10
54.2975550013568
20
1.1631034257874
30
0
41
1
10
54.3104341571045
20
1.16130411134751
30
0
41
1
10
54.3166001634632
20
1.16085505797901
30
0
41
1
10
54.3280115190749
20
1.16099915256629
30
0
41
1
10
54.3332305779577
20
1.16158425640586
30
0
41
1
10
54.3379177267711
20
1.16273457118516
30
0
0
SPLINE
5
146
100
AcDbEntity
8
1
62
256
6
ByLayer
370
18
48
1
60
0
100
AcDbSpline
70
4
71
3
72
8
73
4
40
0
40
0
40
0
40
0
40
1
40
1
40
1
40
1
41
1
10
54.3379177267711
20
1.16273457118518
30
0
41
1
10
54.3593270513923
20
1.16798882350508
30
0
41
1
10
54.3807055186866
20
1.17279124162312
30
0
41
1
10
54.4020557159119
20
1.17714499841611
30
0
0
SPLINE
5
147
100
AcDbEntity
8
1
62
256
6
ByLayer
370
18
48
1
60
0
100
AcDbSpline
70
4
71
3
72
31
73
27
40
0
40
0
40
0
40
0
40
0.124999999999954
40
0.124999999999954
40
0.187499999999931
40
0.187499999999931
40
0.249999999999907
40
0.249999999999907
40
0.37499999999986
40
0.37499999999986
40
0.437499999999874
40
0.437499999999874
40
0.499999999999887
40
0.562499999999901
40
0.562499999999901
40
0.624999999999914
40
0.624999999999914
40
0.749999999999943
40
0.749999999999943
40
0.812499999999957
40
0.812499999999957
40
0.874999999999971
40
0.874999999999971
40
0.937499999999986
40
0.937499999999986
40
1
40
1
40
1
40
1
41
1
10
61.8157777465473
20
-3.0037986677965
30
0
41
1
10
61.8245844875053
20
-2.99452865963414
30
0
41
1
10
61.8349008717469
20
-2.98724035205095
30
0
41
1
10
61.8521840988111
20
-2.97865693489129
30
0
41
1
10
61.8582526892029
20
-2.97619616501632
30
0
41
1
10
61.8709844675844
20
-2.97205056080557
30
0
41
1
10
61.877654239365
20
-2.9703710263789
30
0
41
1
10
61.8980747903613
20
-2.96657028162858
30
0
41
1
10
61.9123765442281
20
-2.96561337971764
30
0
41
1
10
61.9348113885752
20
-2.96648814267809
30
0
41
1
10
61.9424296544858
20
-2.96717260672253
30
0
41
1
10
61.9576975360333
20
-2.96929776119836
30
0
41
1
10
61.9730644964216
20
-2.97218090770156
30
0
41
1
10
61.988618998655
20
-2.97659929565756
30
0
41
1
10
62.004266300999
20
-2.98183052905966
30
0
41
1
10
62.0121833047751
20
-2.98487443183868
30
0
41
1
10
62.0356479014825
20
-2.99516025818519
30
0
41
1
10
62.050925256858
20
-3.00351247714525
30
0
41
1
10
62.0731776064226
20
-3.01864295140015
30
0
41
1
10
62.0805209767836
20
-3.0241633466504
30
0
41
1
10
62.0945546954158
20
-3.0358844752152
30
0
41
1
10
62.1012864595698
20
-3.04210701515942
30
0
41
1
10
62.1141275031941
20
-3.05534167208697
30
0
41
1
10
62.1202748091624
20
-3.06240294820384
30
0
41
1
10
62.1316595731423
20
-3.07719332865423
30
0
41
1
10
62.1368691038655
20
-3.08487333141264
30
0
41
1
10
62.1415503417017
20
-3.09286452166958
30
0
0
SPLINE
5
148
100
AcDbEntity
8
1
62
256
6
ByLayer
370
18
48
1
60
0
100
AcDbSpline
70
4
71
3
72
10
73
6
40
0
40
0
40
0
40
0
40
0.5
40
0.5
40
1
40
1
40
1
40
1
41
1
10
62.1415503417017
20
-3.09286452166958
30
0
41
1
10
62.2060403127356
20
-3.20295327302671
30
0
41
1
10
62.2702368265093
20
-3.31376509087963
30
0
41
1
10
62.3981934769846
20
-3.53673292715064
30
0
41
1
10
62.4618771775489
20
-3.64875694617515
30
0
41
1
10
62.5252485968294
20
-3.7610956684905
30
0
0
SPLINE
5
149
100
AcDbEntity
8
1
62
256
6
ByLayer
370
18
48
1
60
0
100
AcDbSpline
70
4
71
3
72
8
73
4
40
0
40
0
40
0
40
0
40
1
40
1
40
1
40
1
41
1
10
62.5252485968294
20
-3.7610956684905
30
0
41
1
10
62.6021963210093
20
-3.76440138718544
30
0
41
1
10
62.6793178489756
20
-3.76604928872501
30
0
41
1
10
62.756647882147
20
-3.7660558186189
30
0
0
SPLINE
5
14A
100
AcDbEntity
8
1
62
256
6
ByLayer
370
18
48
1
60
0
100
AcDbSpline
70
4
71
3
72
10
73
6
40
0
40
0
40
0
40
0
40
0.5
40
0.5
40
1
40
1
40
1
40
1
41
1
10
62.756647882147
20
-3.7660558186189
30
0
41
1
10
62.8159818905791
20
-3.69064147457453
30
0
41
1
10
62.8756332568539
20
-3.61264390921048
30
0
41
1
10
62.9955545124998
20
-3.45162987370742
30
0
41
1
10
63.0557870415997
20
-3.36867500600584
30
0
41
1
10
63.1163793451203
20
-3.2832878489591
30
0
0
SPLINE
5
14B
100
AcDbEntity
8
1
62
256
6
ByLayer
370
18
48
1
60
0
100
AcDbSpline
70
4
71
3
72
31
73
27
40
0
40
0
40
0
40
0
40
0.125000000000029
40
0.125000000000029
40
0.187500000000043
40
0.187500000000043
40
0.250000000000057
40
0.250000000000057
40
0.375000000000087
40
0.375000000000087
40
0.437500000000101
40
0.437500000000101
40
0.500000000000116
40
0.562500000000131
40
0.562500000000131
40
0.625000000000146
40
0.625000000000146
40
0.750000000000097
40
0.750000000000097
40
0.812500000000073
40
0.812500000000073
40
0.875000000000049
40
0.875000000000049
40
0.937500000000025
40
0.937500000000025
40
1
40
1
40
1
40
1
41
1
10
63.1163793451203
20
-3.2832878489591
30
0
41
1
10
63.125192618972
20
-3.27086811320473
30
0
41
1
10
63.1355172570413
20
-3.26045296815238
30
0
41
1
10
63.1528137664534
20
-3.2472087293167
30
0
41
1
10
63.1588869563015
20
-3.24319924020924
30
0
41
1
10
63.1716282038011
20
-3.2359651726162
30
0
41
1
10
63.1783022611609
20
-3.23274578077917
30
0
41
1
10
63.1987348175884
20
-3.22444033541248
30
0
41
1
10
63.2130442618404
20
-3.22059577900268
30
0
41
1
10
63.2354894855497
20
-3.21730015309359
30
0
41
1
10
63.2431084844483
20
-3.21662708590992
30
0
41
1
10
63.2583786344078
20
-3.21614053862046
30
0
41
1
10
63.2737474317866
20
-3.2165028977729
30
0
41
1
10
63.2893028086702
20
-3.2185790173223
30
0
41
1
10
63.3049504493203
20
-3.22155969035802
30
0
41
1
10
63.3128670885459
20
-3.22351829610477
30
0
41
1
10
63.3363212326553
20
-3.23074816229766
30
0
41
1
10
63.3515916181891
20
-3.23732467497467
30
0
41
1
10
63.3738337288309
20
-3.25022918512281
30
0
41
1
10
63.3811728434254
20
-3.25507836319471
30
0
41
1
10
63.3951975921703
20
-3.26565432932247
30
0
41
1
10
63.4019252989985
20
-3.27139858480547
30
0
41
1
10
63.4147590816229
20
-3.2838813766036
30
0
41
1
10
63.4209030310203
20
-3.29066784098473
30
0
41
1
10
63.4322828619668
20
-3.30515249630963
30
0
41
1
10
63.4374908168866
20
-3.3128008053568
30
0
41
1
10
63.442171253378
20
-3.32089414859212
30
0
0
SPLINE
5
14C
100
AcDbEntity
8
1
62
256
6
ByLayer
370
18
48
1
60
0
100
AcDbSpline
70
4
71
3
72
8
73
4
40
0
40
0
40
0
40
0
40
1
40
1
40
1
40
1
41
1
10
63.442171253378
20
-3.32089414859212
30
0
41
1
10
63.5140975576656
20
-3.44526807596338
30
0
41
1
10
63.5856638494391
20
-3.56924102496484
30
0
41
1
10
63.6569656499375
20
-3.69273963132525
30
0
0
SPLINE
5
14D
100
AcDbEntity
8
1
62
256
6
ByLayer
370
18
48
1
60
0
100
AcDbSpline
70
4
71
3
72
8
73
4
40
0
40
0
40
0
40
0
40
1
40
1
40
1
40
1
41
1
10
63.6569656499375
20
-3.69273963132528
30
0
41
1
10
63.8681175128819
20
-3.65890676024506
30
0
41
1
10
64.0800328354476
20
-3.61370790448564
30
0
41
1
10
64.2932417457267
20
-3.55775784334844
30
0
0
SPLINE
5
14E
100
AcDbEntity
8
1
62
256
6
ByLayer
370
18
48
1
60
0
100
AcDbSpline
70
4
71
3
72
8
73
4
40
0
40
0
40
0
40
0
40
1
40
1
40
1
40
1
41
1
10
64.2932417457268
20
-3.55775784334881
30
0
41
1
10
64.3343461749496
20
-3.48992211628953
30
0
41
1
10
64.3755765164298
20
-3.421335556537
30
0
41
1
10
64.4169741123737
20
-3.3519791404062
30
0
0
SPLINE
5
14F
100
AcDbEntity
8
1
62
256
6
ByLayer
370
18
48
1
60
0
100
AcDbSpline
70
4
71
3
72
31
73
27
40
0
40
0
40
0
40
0
40
0.124999999999961
40
0.124999999999961
40
0.18749999999994
40
0.18749999999994
40
0.24999999999992
40
0.24999999999992
40
0.374999999999947
40
0.374999999999947
40
0.437499999999961
40
0.437499999999961
40
0.499999999999975
40
0.562499999999989
40
0.562499999999989
40
0.625000000000003
40
0.625000000000003
40
0.749999999999952
40
0.749999999999952
40
0.812499999999964
40
0.812499999999964
40
0.874999999999976
40
0.874999999999976
40
0.937499999999988
40
0.937499999999988
40
1
40
1
40
1
40
1
41
1
10
64.4169741123737
20
-3.3519791404062
30
0
41
1
10
64.4257895707568
20
-3.33720995910318
30
0
41
1
10
64.4361160454577
20
-3.32433473214866
30
0
41
1
10
64.4534141468914
20
-3.3072704746331
30
0
41
1
10
64.4594877044306
20
-3.30196537358347
30
0
41
1
10
64.47222958931
20
-3.29209632289275
30
0
41
1
10
64.4789035149032
20
-3.28753720445781
30
0
41
1
10
64.499336182232
20
-3.27523748549365
30
0
41
1
10
64.5136465453398
20
-3.26873321529359
30
0
41
1
10
64.5360939049091
20
-3.26144629195781
30
0
41
1
10
64.5437131944066
20
-3.25944775440851
30
0
41
1
10
64.5589843928265
20
-3.25635775089094
30
0
41
1
10
64.5743543940879
20
-3.25415236841638
30
0
41
1
10
64.5899108541624
20
-3.25372795701887
30
0
41
1
10
64.6055592741843
20
-3.2542410245882
30
0
41
1
10
64.6134761109176
20
-3.25497529559019
30
0
41
1
10
64.6369303957343
20
-3.25864906136198
30
0
41
1
10
64.6522002830568
20
-3.26300377954763
30
0
41
1
10
64.6744411993818
20
-3.27281773104195
30
0
41
1
10
64.6817802066914
20
-3.27667299752233
30
0
41
1
10
64.6958054986172
20
-3.28540415180066
30
0
41
1
10
64.7025334817395
20
-3.29029120438071
30
0
41
1
10
64.7153678625782
20
-3.30120071680901
30
0
41
1
10
64.7215117966742
20
-3.30726643621725
30
0
41
1
10
64.7328942809417
20
-3.32049776616788
30
0
41
1
10
64.738103723666
20
-3.32761477779937
30
0
41
1
10
64.7427857208078
20
-3.33528236575214
30
0
0
SPLINE
5
150
100
AcDbEntity
8
1
62
256
6
ByLayer
370
18
48
1
60
0
100
AcDbSpline
70
4
71
3
72
8
73
4
40
0
40
0
40
0
40
0
40
1
40
1
40
1
40
1
41
1
10
64.7427857208078
20
-3.33528236575214
30
0
41
1
10
64.7580041927869
20
-3.3602052712713
30
0
41
1
10
64.7732061841687
20
-3.38505198484208
30
0
41
1
10
64.7883927305859
20
-3.4098225930457
30
0
0
SPLINE
5
151
100
AcDbEntity
8
1
62
256
6
ByLayer
370
18
48
1
60
0
100
AcDbSpline
70
4
71
3
72
12
73
8
40
0
40
0
40
0
40
0
40
0.499999999999985
40
0.499999999999985
40
0.749999999999992
40
0.749999999999992
40
1
40
1
40
1
40
1
41
1
10
64.7883927305859
20
-3.40982259304559
30
0
41
1
10
64.9388791162442
20
-3.35963549355878
30
0
41
1
10
65.0898982301251
20
-3.30473576716739
30
0
41
1
10
65.3175898281866
20
-3.21587068765353
30
0
41
1
10
65.3936560873088
20
-3.18515894086707
30
0
41
1
10
65.5463182265826
20
-3.12164302092836
30
0
41
1
10
65.6229367862965
20
-3.08884009458484
30
0
41
1
10
65.6999999175177
20
-3.0550654283106
30
0
0
SPLINE
5
152
100
AcDbEntity
8
1
62
256
6
ByLayer
370
18
48
1
60
0
100
AcDbSpline
70
4
71
3
72
10
73
6
40
0
40
0
40
0
40
0
40
0.5
40
0.5
40
1
40
1
40
1
40
1
41
1
10
65.6999999175177
20
-3.05506542831057
30
0
41
1
10
65.7484892397943
20
-2.99836307260705
30
0
41
1
10
65.7976773739367
20
-2.94127213072352
30
0
41
1
10
65.8977354370334
20
-2.82651872871412
30
0
41
1
10
65.9484859127504
20
-2.76898976399943
30
0
41
1
10
66.0000000000001
20
-2.71162355987161
30
0
0
SPLINE
5
153
100
AcDbEntity
8
1
62
256
6
ByLayer
370
18
48
1
60
0
100
AcDbSpline
70
4
71
3
72
27
73
23
40
0
40
0
40
0
40
0
40
0.0624999999999993
40
0.0937499999999991
40
0.0937499999999991
40
0.124999999999999
40
0.124999999999999
40
0.25
40
0.25
40
0.3125
40
0.3125
40
0.34375
40
0.34375
40
0.375000000000001
40
0.375000000000001
40
0.437500000000001
40
0.437500000000001
40
0.500000000000001
40
0.500000000000001
40
0.75
40
0.75
40
1
40
1
40
1
40
1
41
1
10
65.9999999999999
20
-2.71162355987147
30
0
41
1
10
65.9999999999999
20
-2.67480447206339
30
0
41
1
10
66.0000000000001
20
-2.620370348927
30
0
41
1
10
66
20
-2.56713813723121
30
0
41
1
10
66
20
-2.53192068926248
30
0
41
1
10
65.9999999999999
20
-2.51441171306172
30
0
41
1
10
66
20
-2.42815149847206
30
0
41
1
10
66
20
-2.36309001676315
30
0
41
1
10
66
20
-2.27113204334719
30
0
41
1
10
66
20
-2.24142020185568
30
0
41
1
10
66
20
-2.19832425290127
30
0
41
1
10
66.0000000000001
20
-2.18421251670568
30
0
41
1
10
66.0000000000001
20
-2.15644533175489
30
0
41
1
10
65.9999999999999
20
-2.14277817549061
30
0
41
1
10
65.9999999999999
20
-2.10214217293085
30
0
41
1
10
66.0000000000001
20
-2.07552953018791
30
0
41
1
10
66
20
-2.02355806553888
30
0
41
1
10
66
20
-1.99819326402104
30
0
41
1
10
66.0000000000001
20
-1.8745155518553
30
0
41
1
10
66
20
-1.78550412288737
30
0
41
1
10
66
20
-1.62683235746718
30
0
41
1
10
66
20
-1.55719980508394
30
0
41
1
10
66.0000000000001
20
-1.49768744421036
30
0
0
SPLINE
5
154
100
AcDbEntity
8
1
62
256
6
ByLayer
370
18
48
1
60
0
100
AcDbSpline
70
4
71
3
72
10
73
6
40
0
40
0
40
0
40
0
40
0.5
40
0.5
40
1
40
1
40
1
40
1
41
1
10
66
20
-1.57197206625034
30
0
41
1
10
65.9506418983009
20
-1.57773100730353
30
0
41
1
10
65.9009301001516
20
-1.58434419764888
30
0
41
1
10
65.8008979758152
20
-1.59933283180672
30
0
41
1
10
65.7505830539542
20
-1.60773300127281
30
0
41
1
10
65.7000000305205
20
-1.61719862708728
30
0
0
SPLINE
5
155
100
AcDbEntity
8
1
62
256
6
ByLayer
370
18
48
1
60
0
100
AcDbSpline
70
4
71
3
72
8
73
4
40
0
40
0
40
0
40
0
40
1
40
1
40
1
40
1
41
1
10
65.7000000305204
20
-1.61719862708722
30
0
41
1
10
65.6667012520941
20
-1.60516806244334
30
0
41
1
10
65.6334286528049
20
-1.59297534565235
30
0
41
1
10
65.6001937694524
20
-1.58060112331222
30
0
0
SPLINE
5
156
100
AcDbEntity
8
1
62
256
6
ByLayer
370
18
48
1
60
0
100
AcDbSpline
70
4
71
3
72
12
73
8
40
0
40
0
40
0
40
0
40
0.249999999999999
40
0.249999999999999
40
0.499999999999997
40
0.499999999999997
40
1
40
1
40
1
40
1
41
1
10
65.6001937694524
20
-1.58060112331222
30
0
41
1
10
65.5929019388719
20
-1.57658549586438
30
0
41
1
10
65.5855527846691
20
-1.57283150999987
30
0
41
1
10
65.570734925943
20
-1.56588527249315
30
0
41
1
10
65.5632186317686
20
-1.56267581322314
30
0
41
1
10
65.5409022149422
20
-1.55415232392238
30
0
41
1
10
65.5263309439893
20
-1.54990339862385
30
0
41
1
10
65.5121482621037
20
-1.54733247841767
30
0
0
SPLINE
5
157
100
AcDbEntity
8
1
62
256
6
ByLayer
370
18
48
1
60
0
100
AcDbSpline
70
4
71
3
72
8
73
4
40
0
40
0
40
0
40
0
40
1
40
1
40
1
40
1
41
1
10
65.5121482621037
20
-1.54733247841764
30
0
41
1
10
65.1944228202976
20
-1.42543435240529
30
0
41
1
10
64.8816085283449
20
-1.2843649586402
30
0
41
1
10
64.5715993941059
20
-1.12531594505299
30
0
0
SPLINE
5
158
100
AcDbEntity
8
1
62
256
6
ByLayer
370
18
48
1
60
0
100
AcDbSpline
70
4
71
3
72
8
73
4
40
0
40
0
40
0
40
0
40
1
40
1
40
1
40
1
41
1
10
64.5715993941059
20
-1.12531594505299
30
0
41
1
10
64.5365263077935
20
-1.06974798333994
30
0
41
1
10
64.5013736703183
20
-1.01498572924291
30
0
41
1
10
64.4661083783675
20
-0.961092930191512
30
0
0
SPLINE
5
159
100
AcDbEntity
8
1
62
256
6
ByLayer
370
18
48
1
60
0
100
AcDbSpline
70
4
71
3
72
32
73
28
40
0
40
0
40
0
40
0
40
0.125000000000057
40
0.125000000000057
40
0.187500000000059
40
0.187500000000059
40
0.25000000000006
40
0.25000000000006
40
0.375000000000063
40
0.375000000000063
40
0.437500000000065
40
0.437500000000065
40
0.500000000000066
40
0.500000000000066
40
0.624999999999991
40
0.624999999999991
40
0.687499999999992
40
0.687499999999992
40
0.749999999999994
40
0.749999999999994
40
0.812499999999995
40
0.812499999999995
40
0.874999999999997
40
0.874999999999997
40
0.937499999999999
40
0.937499999999999
40
1
40
1
40
1
40
1
41
1
10
64.4661083783675
20
-0.961092930191853
30
0
41
1
10
64.4575750320825
20
-0.948052178474427
30
0
41
1
10
64.4476211375567
20
-0.935129619532916
30
0
41
1
10
64.4309341377451
20
-0.915906073708129
30
0
41
1
10
64.425073932241
20
-0.9095251437017
30
0
41
1
10
64.412771284969
20
-0.896816124290609
30
0
41
1
10
64.4063317010481
20
-0.890495159880544
30
0
41
1
10
64.386548520511
20
-0.871984726439166
30
0
41
1
10
64.3726236687716
20
-0.86011132204149
30
0
41
1
10
64.3506467295483
20
-0.842982137690086
30
0
41
1
10
64.34310627408
20
-0.83736633050998
30
0
41
1
10
64.3279453020133
20
-0.826580612047962
30
0
41
1
10
64.3202971256944
20
-0.82138706734392
30
0
41
1
10
64.297156130153
20
-0.8063999308782
30
0
41
1
10
64.2814710089013
20
-0.797187300152984
30
0
41
1
10
64.2575235052469
20
-0.784699402091746
30
0
41
1
10
64.2495536320371
20
-0.780807989492445
30
0
41
1
10
64.2338686619869
20
-0.773701151735565
30
0
41
1
10
64.2261201306282
20
-0.770468015512392
30
0
41
1
10
64.2108382127112
20
-0.764696531392246
30
0
41
1
10
64.2032454664411
20
-0.762141925256486
30
0
41
1
10
64.1886775685069
20
-0.757935544001612
30
0
41
1
10
64.1816983804789
20
-0.756275280111424
30
0
41
1
10
64.1684056524628
20
-0.753913199485453
30
0
41
1
10
64.1620432654859
20
-0.75321077586716
30
0
41
1
10
64.1503558110766
20
-0.752923220028407
30
0
41
1
10
64.1450422856995
20
-0.753328047550838
30
0
41
1
10
64.1402998652543
20
-0.754330401835944
30
0
0
SPLINE
5
15A
100
AcDbEntity
8
1
62
256
6
ByLayer
370
18
48
1
60
0
100
AcDbSpline
70
4
71
3
72
8
73
4
40
0
40
0
40
0
40
0
40
1
40
1
40
1
40
1
41
1
10
64.1402998652543
20
-0.754330401835944
30
0
41
1
10
64.0758897262272
20
-0.767944078565932
30
0
41
1
10
64.0116068183917
20
-0.777337564381412
30
0
41
1
10
63.9474219141347
20
-0.782394818243205
30
0
0
SPLINE
5
15B
100
AcDbEntity
8
1
62
256
6
ByLayer
370
18
48
1
60
0
100
AcDbSpline
70
4
71
3
72
8
73
4
40
0
40
0
40
0
40
0
40
1
40
1
40
1
40
1
41
1
10
63.9474219141347
20
-0.782394818243262
30
0
41
1
10
63.7792419301621
20
-0.68359842420054
30
0
41
1
10
63.6124131138437
20
-0.580227336775579
30
0
41
1
10
63.4466157056332
20
-0.472547866412327
30
0
0
SPLINE
5
15C
100
AcDbEntity
8
1
62
256
6
ByLayer
370
18
48
1
60
0
100
AcDbSpline
70
4
71
3
72
10
73
6
40
0
40
0
40
0
40
0
40
0.5
40
0.5
40
1
40
1
40
1
40
1
41
1
10
63.4466157056332
20
-0.472547866412242
30
0
41
1
10
63.4000247301167
20
-0.410173556062375
30
0
41
1
10
63.3532669263897
20
-0.349468602916886
30
0
41
1
10
63.2595470609554
20
-0.231733390519395
30
0
41
1
10
63.2125623698373
20
-0.174681255172231
30
0
41
1
10
63.1653993842036
20
-0.119537164929369
30
0
0
SPLINE
5
15D
100
AcDbEntity
8
1
62
256
6
ByLayer
370
18
48
1
60
0
100
AcDbSpline
70
4
71
3
72
32
73
28
40
0
40
0
40
0
40
0
40
0.124999999999906
40
0.124999999999906
40
0.187499999999859
40
0.187499999999859
40
0.249999999999812
40
0.249999999999812
40
0.374999999999782
40
0.374999999999782
40
0.437499999999804
40
0.437499999999804
40
0.499999999999826
40
0.499999999999826
40
0.62499999999987
40
0.62499999999987
40
0.687499999999891
40
0.687499999999891
40
0.749999999999913
40
0.749999999999913
40
0.812499999999935
40
0.812499999999935
40
0.874999999999957
40
0.874999999999957
40
0.937499999999978
40
0.937499999999978
40
1
40
1
40
1
40
1
41
1
10
63.1653993842036
20
-0.119537164929369
30
0
41
1
10
63.1568590066922
20
-0.109551551383703
30
0
41
1
10
63.1468968734133
20
-0.0992415033057057
30
0
41
1
10
63.130200507424
20
-0.0833905377805877
30
0
41
1
10
63.1243376636904
20
-0.0780411231552591
30
0
41
1
10
63.1120314068137
20
-0.0672137931307475
30
0
41
1
10
63.1055915880815
20
-0.0617414502122813
30
0
41
1
10
63.0858099512126
20
-0.0454601236926067
30
0
41
1
10
63.0718894880084
20
-0.0346755810288357
30
0
41
1
10
63.0499265556974
20
-0.0185811196688803
30
0
41
1
10
63.0423927084531
20
-0.0132099850851546
30
0
41
1
10
63.0272456613972
20
-0.0026973219445665
30
0
41
1
10
63.0196042804239
20
0.0024660255931508
30
0
41
1
10
62.996481398408
20
0.0176852613374479
30
0
41
1
10
62.9808048443289
20
0.027475270192781
30
0
41
1
10
62.9568614766668
20
0.0415834455359061
30
0
41
1
10
62.9488902497761
20
0.0461388701755254
30
0
41
1
10
62.9332009304814
20
0.0548181409874076
30
0
41
1
10
62.9254491197657
20
0.0589623395357251
30
0
41
1
10
62.910158016833
20
0.0668311771194965
30
0
41
1
10
62.9025590979579
20
0.0705831407949802
30
0
41
1
10
62.8879779697757
20
0.0774379422851439
30
0
41
1
10
62.8809913160955
20
0.0805467073752766
30
0
41
1
10
62.8676829380301
20
0.0860780373882619
30
0
41
1
10
62.8613119500048
20
0.0885171450710516
30
0
41
1
10
62.8496117079735
20
0.0925085544538717
30
0
41
1
10
62.8442923913629
20
0.0940625255796874
30
0
41
1
10
62.8395451034465
20
0.0951348226100208
30
0
0
SPLINE
5
15E
100
AcDbEntity
8
1
62
256
6
ByLayer
370
18
48
1
60
0
100
AcDbSpline
70
4
71
3
72
10
73
6
40
0
40
0
40
0
40
0
40
0.5
40
0.5
40
1
40
1
40
1
40
1
41
1
10
62.8395451034443
20
0.0951348226154494
30
0
41
1
10
62.7698409295542
20
0.110879302407142
30
0
41
1
10
62.7002535655421
20
0.131559232347058
30
0
41
1
10
62.5613861666637
20
0.183091278821081
30
0
41
1
10
62.4921688797286
20
0.213837011717743
30
0
41
1
10
62.4232337582278
20
0.249275735177008
30
0
0
SPLINE
5
15F
100
AcDbEntity
8
1
62
256
6
ByLayer
370
18
48
1
60
0
100
AcDbSpline
70
4
71
3
72
8
73
4
40
0
40
0
40
0
40
0
40
1
40
1
40
1
40
1
41
1
10
62.3005048879556
20
0.346800498264031
30
0
41
1
10
62.3414182583742
20
0.314315719418118
30
0
41
1
10
62.3823260589674
20
0.281805172305212
30
0
41
1
10
62.4232337582278
20
0.249275735177491
30
0
0
SPLINE
5
160
100
AcDbEntity
8
1
62
256
6
ByLayer
370
18
48
1
60
0
100
AcDbSpline
70
4
71
3
72
10
73
6
40
0
40
0
40
0
40
0
40
0.5
40
0.5
40
1
40
1
40
1
40
1
41
1
10
62.3005048879558
20
0.346800498263946
30
0
41
1
10
62.2285469112148
20
0.420542466684367
30
0
41
1
10
62.1562763699773
20
0.489485643502547
30
0
41
1
10
62.0109308896064
20
0.617484899418031
30
0
41
1
10
61.9380156365409
20
0.676436227275445
30
0
41
1
10
61.8646792870562
20
0.730077891192877
30
0
0
SPLINE
5
161
100
AcDbEntity
8
1
62
256
6
ByLayer
370
18
48
1
60
0
100
AcDbSpline
70
4
71
3
72
32
73
28
40
0
40
0
40
0
40
0
40
0.12499999999994
40
0.12499999999994
40
0.18749999999991
40
0.18749999999991
40
0.24999999999988
40
0.24999999999988
40
0.374999999999888
40
0.374999999999888
40
0.437499999999891
40
0.437499999999891
40
0.499999999999895
40
0.499999999999895
40
0.624999999999981
40
0.624999999999981
40
0.687499999999984
40
0.687499999999984
40
0.749999999999987
40
0.749999999999987
40
0.81249999999999
40
0.81249999999999
40
0.874999999999994
40
0.874999999999994
40
0.937499999999997
40
0.937499999999997
40
1
40
1
40
1
40
1
41
1
10
61.8646792870562
20
0.730077891192877
30
0
41
1
10
61.8561375741484
20
0.736325702766607
30
0
41
1
10
61.8461724813696
20
0.743315750919464
30
0
41
1
10
61.8294689103016
20
0.754699619514241
30
0
41
1
10
61.8236032274477
20
0.758647138965131
30
0
41
1
10
61.8112904592437
20
0.766841191063662
30
0
41
1
10
61.8048463182862
20
0.771085212261085
30
0
41
1
10
61.7850519236399
20
0.78400338625093
30
0
41
1
10
61.7711223830723
20
0.792942580176884
30
0
41
1
10
61.7491479461868
20
0.8068677621348
30
0
41
1
10
61.7416105178089
20
0.811615579168091
30
0
41
1
10
61.7264571471177
20
0.821113729901413
30
0
41
1
10
61.7188130673801
20
0.825882155583599
30
0
41
1
10
61.6956837391172
20
0.840259845017755
30
0
41
1
10
61.6800048894248
20
0.849939030779041
30
0
41
1
10
61.656065016905
20
0.864689934003422
30
0
41
1
10
61.6480981367239
20
0.869594305305185
30
0
41
1
10
61.6324179645536
20
0.879253653309917
30
0
41
1
10
61.6246717707311
20
0.884028918639387
30
0
41
1
10
61.6093933288167
20
0.893470266983854
30
0
41
1
10
61.6018017336432
20
0.898173352240008
30
0
41
1
10
61.5872325985974
20
0.907238087849095
30
0
41
1
10
61.5802517989212
20
0.91160150940857
30
0
41
1
10
61.5669540853499
20
0.919965387360122
30
0
41
1
10
61.5605882441771
20
0.923997254038852
30
0
41
1
10
61.5488923944001
20
0.931468292056167
30
0
41
1
10
61.5435743222553
20
0.934899006915117
30
0
41
1
10
61.538827534458
20
0.937995742793021
30
0
0
SPLINE
5
162
100
AcDbEntity
8
1
62
256
6
ByLayer
370
18
48
1
60
0
100
AcDbSpline
70
4
71
3
72
10
73
6
40
0
40
0
40
0
40
0
40
0.5
40
0.5
40
1
40
1
40
1
40
1
41
1
10
61.5388275344567
20
0.937995742795891
30
0
41
1
10
61.4691205509388
20
0.983471573192503
30
0
41
1
10
61.3995317466321
20
1.03358344412027
30
0
41
1
10
61.2606671801461
20
1.1427552735517
30
0
41
1
10
61.1914426553702
20
1.20179120274926
30
0
41
1
10
61.122508541592
20
1.26508043516392
30
0
0
SPLINE
5
163
100
AcDbEntity
8
1
62
256
6
ByLayer
370
18
48
1
60
0
100
AcDbSpline
70
4
71
3
72
10
73
6
40
0
40
0
40
0
40
0
40
0.5
40
0.5
40
1
40
1
40
1
40
1
41
1
10
60.9997639521172
20
1.3575509788098
30
0
41
1
10
60.927833741074
20
1.3974043228593
30
0
41
1
10
60.855573562439
20
1.43191858373902
30
0
41
1
10
60.7102406204413
20
1.4902127322747
30
0
41
1
10
60.6373216512255
20
1.51395228174229
30
0
41
1
10
60.563988658472
20
1.53204865396879
30
0
0
SPLINE
5
164
100
AcDbEntity
8
1
62
256
6
ByLayer
370
18
48
1
60
0
100
AcDbSpline
70
4
71
3
72
32
73
28
40
0
40
0
40
0
40
0
40
0.124999999999949
40
0.124999999999949
40
0.187499999999924
40
0.187499999999924
40
0.249999999999899
40
0.249999999999899
40
0.374999999999917
40
0.374999999999917
40
0.437499999999925
40
0.437499999999925
40
0.499999999999934
40
0.499999999999934
40
0.62499999999995
40
0.62499999999995
40
0.687499999999959
40
0.687499999999959
40
0.749999999999967
40
0.749999999999967
40
0.812499999999975
40
0.812499999999975
40
0.874999999999983
40
0.874999999999983
40
0.937499999999992
40
0.937499999999992
40
1
40
1
40
1
40
1
41
1
10
60.563988658472
20
1.53204865396879
30
0
41
1
10
60.5554431749724
20
1.53415742172061
30
0
41
1
10
60.5454726225732
20
1.53738066586666
30
0
41
1
10
60.5287588455695
20
1.5435713916109
30
0
41
1
10
60.5228894449401
20
1.54586553169298
30
0
41
1
10
60.510568770465
20
1.55090475810081
30
0
41
1
10
60.5041202283247
20
1.55365009770654
30
0
41
1
10
60.4843133797422
20
1.56238328480418
30
0
41
1
10
60.4703760990108
20
1.56890994856241
30
0
41
1
10
60.4483923650245
20
1.57978089646883
30
0
41
1
10
60.4408527834769
20
1.58360325217066
30
0
41
1
10
60.4256970075444
20
1.59148197398298
30
0
41
1
10
60.4180521968384
20
1.59555173542836
30
0
41
1
10
60.394921868187
20
1.60817099047964
30
0
41
1
10
60.3792437761217
20
1.61712083710569
30
0
41
1
10
60.3553086296021
20
1.63156506115638
30
0
41
1
10
60.3473477920404
20
1.63650042625622
30
0
41
1
10
60.3316767315166
20
1.64650994672886
30
0
41
1
10
60.3239352154475
20
1.65160269442438
30
0
41
1
10
60.3086662211511
20
1.66199262800711
30
0
41
1
10
60.3010795572662
20
1.66733382759887
30
0
41
1
10
60.2865208187437
20
1.67799844632415
30
0
41
1
10
60.2795447093964
20
1.68332067439732
30
0
41
1
10
60.2662552439871
20
1.69394721501723
30
0
41
1
10
60.2598930461227
20
1.6992956444829
30
0
41
1
10
60.2482026366306
20
1.70973217275724
30
0
41
1
10
60.2428864138518
20
1.71480309458013
30
0
41
1
10
60.2381407646059
20
1.71971098542923
30
0
0
SPLINE
5
165
100
AcDbEntity
8
1
62
256
6
ByLayer
370
18
48
1
60
0
100
AcDbSpline
70
4
71
3
72
10
73
6
40
0
40
0
40
0
40
0
40
0.5
40
0.5
40
1
40
1
40
1
40
1
41
1
10
60.2381407646059
20
1.71971098542917
30
0
41
1
10
60.1684189835065
20
1.79181637580106
30
0
41
1
10
60.0988150909632
20
1.86791298976351
30
0
41
1
10
59.9599362200909
20
2.02783611873914
30
0
41
1
10
59.8907092277684
20
2.11159474311475
30
0
41
1
10
59.82176476845
20
2.19874288428676
30
0
0
SPLINE
5
166
100
AcDbEntity
8
1
62
256
6
ByLayer
370
18
48
1
60
0
100
AcDbSpline
70
4
71
3
72
10
73
6
40
0
40
0
40
0
40
0
40
0.5
40
0.5
40
1
40
1
40
1
40
1
41
1
10
59.6989686225347
20
2.2803592964774
30
0
41
1
10
59.6270464972532
20
2.28390028854415
30
0
41
1
10
59.5548036431778
20
2.2819788589365
30
0
41
1
10
59.4094984870988
20
2.26716952910564
30
0
41
1
10
59.3365892560211
20
2.25430686623329
30
0
41
1
10
59.2632440719122
20
2.23574258433587
30
0
0
SPLINE
5
167
100
AcDbEntity
8
1
62
256
6
ByLayer
370
18
48
1
60
0
100
AcDbSpline
70
4
71
3
72
32
73
28
40
0
40
0
40
0
40
0
40
0.12499999999992
40
0.12499999999992
40
0.187499999999908
40
0.187499999999908
40
0.249999999999896
40
0.249999999999896
40
0.374999999999874
40
0.374999999999874
40
0.437499999999864
40
0.437499999999864
40
0.499999999999854
40
0.499999999999854
40
0.624999999999831
40
0.624999999999831
40
0.68749999999986
40
0.68749999999986
40
0.749999999999888
40
0.749999999999888
40
0.812499999999916
40
0.812499999999916
40
0.874999999999944
40
0.874999999999944
40
0.937499999999972
40
0.937499999999972
40
1
40
1
40
1
40
1
41
1
10
59.2632440719119
20
2.23574258433638
30
0
41
1
10
59.2547020373073
20
2.23358052365984
30
0
41
1
10
59.2447352530974
20
2.2328302834625
30
0
41
1
10
59.2280253927465
20
2.23342580112421
30
0
41
1
10
59.2221570423462
20
2.2339169118969
30
0
41
1
10
59.2098377497393
20
2.23547145734997
30
0
41
1
10
59.2033890310519
20
2.23653783216974
30
0
41
1
10
59.1835812515589
20
2.24051173867761
30
0
41
1
10
59.1696424615661
20
2.24419545793262
30
0
41
1
10
59.1476549986149
20
2.25129373048938
30
0
41
1
10
59.1401136579732
20
2.25393804810969
30
0
41
1
10
59.1249543220746
20
2.25967645495859
30
0
41
1
10
59.1173078271985
20
2.26277814851872
30
0
41
1
10
59.0941726944073
20
2.27280295465917
30
0
41
1
10
59.0784916255937
20
2.28042979801214
30
0
41
1
10
59.0545532439602
20
2.2936074173092
30
0
41
1
10
59.0465936060793
20
2.29824642075363
30
0
41
1
10
59.0309242773116
20
2.30793957294006
30
0
41
1
10
59.0231840247903
20
2.31301002170943
30
0
41
1
10
59.0079183609494
20
2.3236541303022
30
0
41
1
10
59.0003338168711
20
2.32927594878765
30
0
41
1
10
58.9857820027524
20
2.34082435356081
30
0
41
1
10
58.9788096407446
20
2.34674719212393
30
0
41
1
10
58.965527997355
20
2.35891984263523
30
0
41
1
10
58.9591699304935
20
2.36522352426314
30
0
41
1
10
58.9474879777613
20
2.3779186867483
30
0
41
1
10
58.942175662064
20
2.38428606388507
30
0
41
1
10
58.9374333840235
20
2.39067212262532
30
0
0
SPLINE
5
168
100
AcDbEntity
8
1
62
256
6
ByLayer
370
18
48
1
60
0
100
AcDbSpline
70
4
71
3
72
25
73
21
40
0
40
0
40
0
40
0
40
0.0574018800761409
40
0.245921504060913
40
0.245921504060913
40
0.340181316053299
40
0.340181316053299
40
0.387311222049492
40
0.387311222049492
40
0.434441128045685
40
0.434441128045685
40
0.622960752030456
40
0.622960752030456
40
0.811480376015228
40
0.811480376015228
40
0.905740188007614
40
0.905740188007614
40
0.952870094003807
40
0.952870094003807
40
1
40
1
40
1
40
1
41
1
10
61.497960287295
20
-4.06421149586788
30
0
41
1
10
61.4957808783651
20
-4.06420491315126
30
0
41
1
10
61.4864539634609
20
-4.06104179604566
30
0
41
1
10
61.4771570720715
20
-4.04452276990887
30
0
41
1
10
61.4663750038796
20
-4.01355658033299
30
0
41
1
10
61.4627633854472
20
-4.0012350474077
30
0
41
1
10
61.4573211586674
20
-3.97968754093097
30
0
41
1
10
61.4555031633626
20
-3.97199275041689
30
0
41
1
10
61.4518811184913
20
-3.9556760756663
30
0
41
1
10
61.4500742557371
20
-3.94704352381785
30
0
41
1
10
61.4410589501882
20
-3.90153611859438
30
0
41
1
10
61.4339115819265
20
-3.85764810287719
30
0
41
1
10
61.4196352141292
20
-3.75524071052936
30
0
41
1
10
61.4124899371696
20
-3.69672121697121
30
0
41
1
10
61.4016984297655
20
-3.59783038562793
30
0
41
1
10
61.3980921884841
20
-3.56301080838202
30
0
41
1
10
61.3926656658043
20
-3.50794236000678
30
0
41
1
10
61.3908514850216
20
-3.48908678611545
30
0
41
1
10
61.38722793291
20
-3.45054365531925
30
0
41
1
10
61.3854210287577
20
-3.43088373144053
30
0
41
1
10
61.3836181328218
20
-3.41084021274924
30
0
0
SPLINE
5
169
100
AcDbEntity
8
1
62
256
6
ByLayer
370
13
48
1
60
0
100
AcDbSpline
70
4
71
3
72
10
73
6
40
0
40
0
40
0
40
0
40
0.300561403583796
40
0.780259702237941
40
1
40
1
40
1
40
1
41
1
10
60.8409281177986
20
-2.6655531466908
30
0
41
1
10
60.8519179570658
20
-2.7781468588407
30
0
41
1
10
60.8804476645243
20
-3.03884176051685
30
0
41
1
10
60.9170120313788
20
-3.25504087870942
30
0
41
1
10
60.9425865637987
20
-3.32465589118101
30
0
41
1
10
60.9506212295873
20
-3.33838221611347
30
0
0
SPLINE
5
16A
100
AcDbEntity
8
1
62
256
6
ByLayer
370
18
48
1
60
0
100
AcDbSpline
70
4
71
3
72
26
73
22
40
0
40
0
40
0
40
0
40
0.180918232176929
40
0.180918232176929
40
0.226147790221161
40
0.226147790221161
40
0.271377348265392
40
0.271377348265392
40
0.361836464353855
40
0.361836464353855
40
0.542754696530779
40
0.542754696530779
40
0.723672928707703
40
0.723672928707703
40
0.768902486751934
40
0.768902486751934
40
0.814132044796165
40
0.814132044796165
40
0.904591160884628
40
0.904591160884628
40
1
40
1
40
1
40
1
41
1
10
61.2608298462172
20
-3.35650564331741
30
0
41
1
10
61.2679737540466
20
-3.43889358046235
30
0
41
1
10
61.2751110821373
20
-3.51490133727708
30
0
41
1
10
61.2841280770447
20
-3.60172755993048
30
0
41
1
10
61.2859364826734
20
-3.61868248076641
30
0
41
1
10
61.2895627683282
20
-3.6517617914958
30
0
41
1
10
61.2913806803778
20
-3.66788458054839
30
0
41
1
10
61.2968146989273
20
-3.71470907238759
30
0
41
1
10
61.3004221340977
20
-3.74397267528363
30
0
41
1
10
61.3112053483736
20
-3.82602230061718
30
0
41
1
10
61.3183387292435
20
-3.87308352737349
30
0
41
1
10
61.3326107846977
20
-3.95213510818527
30
0
41
1
10
61.3397672626501
20
-3.98412559758879
30
0
41
1
10
61.3487827295212
20
-4.0144917436005
30
0
41
1
10
61.3505887087106
20
-4.02008254192091
30
0
41
1
10
61.3542069647386
20
-4.03028868410931
30
0
41
1
10
61.3560215576347
20
-4.03490911599368
30
0
41
1
10
61.3614595087266
20
-4.04725079000235
30
0
41
1
10
61.3650654501043
20
-4.05343354230848
30
0
41
1
10
61.3724479965455
20
-4.06202820721592
30
0
41
1
10
61.376222858785
20
-4.06422002957049
30
0
41
1
10
61.3799946743507
20
-4.0642126564868
30
0
0
SPLINE
5
16B
100
AcDbEntity
8
1
62
256
6
ByLayer
370
13
48
1
60
0
100
AcDbSpline
70
4
71
3
72
10
73
6
40
0
40
0
40
0
40
0
40
0.319632772421801
40
0.680258008990097
40
1
40
1
40
1
40
1
41
1
10
60.5151530929562
20
-2.53055624350313
30
0
41
1
10
60.5306991953242
20
-2.70273408525011
30
0
41
1
10
60.5637851323236
20
-3.01973353116415
30
0
41
1
10
60.6124227459531
20
-3.30331568120755
30
0
41
1
10
60.6455138740118
20
-3.35951857985708
30
0
41
1
10
60.6610652490313
20
-3.35510461277693
30
0
0
SPLINE
5
16C
100
AcDbEntity
8
1
62
256
6
ByLayer
370
18
48
1
60
0
100
AcDbSpline
70
4
71
3
72
9
73
5
40
0
40
0
40
0
40
0
40
0.559395735717882
40
1
40
1
40
1
40
1
41
1
10
60.6610649771792
20
-3.35510468993394
30
0
41
1
10
60.663053516926
20
-3.35454032603818
30
0
41
1
10
60.6666083175193
20
-3.35263041272663
30
0
41
1
10
60.6701631205399
20
-3.34910558410252
30
0
41
1
10
60.6717293823238
20
-3.34724034404624
30
0
0
SPLINE
5
16D
100
AcDbEntity
8
1
62
256
6
ByLayer
370
18
48
1
60
0
100
AcDbSpline
70
4
71
3
72
8
73
4
40
0
40
0
40
0
40
0
40
1
40
1
40
1
40
1
41
1
10
41.4303846430948
20
2.49400716827796
30
0
41
1
10
41.2504707544348
20
2.43097649631611
30
0
41
1
10
41.0685482512235
20
2.36573963787362
30
0
41
1
10
40.8834961156209
20
2.30142377064618
30
0
0
SPLINE
5
16E
100
AcDbEntity
8
1
62
256
6
ByLayer
370
18
48
1
60
0
100
AcDbSpline
70
4
71
3
72
16
73
12
40
0
40
0
40
0
40
0
40
0.0506326215719716
40
0.0506326215719716
40
0.367088414381331
40
0.367088414381331
40
0.525316310786002
40
0.525316310786002
40
0.683544207190674
40
0.683544207190674
40
1
40
1
40
1
40
1
41
1
10
37.7569406527987
20
3.00000076879334
30
0
41
1
10
37.7837173992158
20
2.99999557043083
30
0
41
1
10
37.8105394352972
20
2.99977336231495
30
0
41
1
10
38.0052988315154
20
2.9966192268551
30
0
41
1
10
38.1747685291334
20
2.98561804448806
30
0
41
1
10
38.4306935856936
20
2.95727272277071
30
0
41
1
10
38.5162986436078
20
2.94584027792399
30
0
41
1
10
38.6881016599771
20
2.91902086320016
30
0
41
1
10
38.7743825904599
20
2.90361315900006
30
0
41
1
10
39.0330387092814
20
2.85169724617015
30
0
41
1
10
39.2054961304991
20
2.80944975222008
30
0
41
1
10
39.3785303332957
20
2.75992031161553
30
0
0
SPLINE
5
16F
100
AcDbEntity
8
1
62
256
6
ByLayer
370
18
48
1
60
0
100
AcDbSpline
70
4
71
3
72
32
73
28
40
0
40
0
40
0
40
0
40
0.0207267049051497
40
0.0207267049051497
40
0.0860115912448068
40
0.0860115912448068
40
0.216581363924121
40
0.216581363924121
40
0.347151136603435
40
0.347151136603435
40
0.379793579773264
40
0.379793579773264
40
0.412436022943093
40
0.412436022943093
40
0.47772090928275
40
0.47772090928275
40
0.608290681962063
40
0.608290681962063
40
0.738860454641376
40
0.738860454641376
40
0.804145340981033
40
0.804145340981033
40
0.836787784150861
40
0.836787784150861
40
0.869430227320688
40
0.869430227320688
40
1
40
1
40
1
40
1
41
1
10
60.2479964829764
20
-4.06420798480522
30
0
41
1
10
60.2468438764737
20
-4.06420773220188
30
0
41
1
10
60.2456909194029
20
-4.06400401455318
30
0
41
1
10
60.2409177417491
20
-4.0623166442893
30
0
41
1
10
60.2373113146262
20
-4.05902926004998
30
0
41
1
10
60.2265320020599
20
-4.04326924417103
30
0
41
1
10
60.2194022629781
20
-4.02491549575433
30
0
41
1
10
60.2051268291696
20
-3.97273713175383
30
0
41
1
10
60.1979626657662
20
-3.93891305225853
30
0
41
1
10
60.1889537161317
20
-3.88676258879431
30
0
41
1
10
60.1871494665019
20
-3.87583760280725
30
0
41
1
10
60.1835352850729
20
-3.85298714541085
30
0
41
1
10
60.1817236288391
20
-3.84104977915069
30
0
41
1
10
60.1762898512562
20
-3.80379692795947
30
0
41
1
10
60.172687370194
20
-3.77717103762683
30
0
41
1
10
60.1619175388821
20
-3.69204209759033
30
0
41
1
10
60.1547838919781
20
-3.62830282433197
30
0
41
1
10
60.140465903546
20
-3.48711002689575
30
0
41
1
10
60.1333010328043
20
-3.40965604630787
30
0
41
1
10
60.1225206776904
20
-3.2830179733792
30
0
41
1
10
60.1189208445781
20
-3.23905870670939
30
0
41
1
10
60.1135001254137
20
-3.17044293065294
30
0
41
1
10
60.1116894039668
20
-3.14711968257274
30
0
41
1
10
60.1080806283562
20
-3.0998675748599
30
0
41
1
10
60.1062797739792
20
-3.07590372653399
30
0
41
1
10
60.0972856973387
20
-2.95441467944934
30
0
41
1
10
60.090111401979
20
-2.85189533901456
30
0
41
1
10
60.0829528867196
20
-2.74416753324087
30
0
0
SPLINE
5
170
100
AcDbEntity
8
1
62
256
6
ByLayer
370
13
48
1
60
0
100
AcDbSpline
70
4
71
3
72
11
73
7
40
0
40
0
40
0
40
0
40
0.119842928391596
40
0.468568294867613
40
0.817293661343631
40
1
40
1
40
1
40
1
41
1
10
59.5403244235766
20
-2.06686004121059
30
0
41
1
10
59.5463521728498
20
-2.14696385013516
30
0
41
1
10
59.569919789303
20
-2.44905014160474
30
0
41
1
10
59.61102726727
20
-2.89110186217783
30
0
41
1
10
59.6552965973374
20
-3.19797465569906
30
0
41
1
10
59.6820260554896
20
-3.29560699079633
30
0
41
1
10
59.6912156492896
20
-3.31858260999189
30
0
0
SPLINE
5
171
100
AcDbEntity
8
1
62
256
6
ByLayer
370
18
48
1
60
0
100
AcDbSpline
70
4
71
3
72
8
73
4
40
0
40
0
40
0
40
0
40
1
40
1
40
1
40
1
41
1
10
59.6912156642343
20
-3.31858264735664
30
0
41
1
10
59.6930685883461
20
-3.32321528492923
30
0
41
1
10
59.6949215124631
20
-3.32741736121505
30
0
41
1
10
59.6967744365909
20
-3.33118699319462
30
0
0
SPLINE
5
172
100
AcDbEntity
8
1
62
256
6
ByLayer
370
18
48
1
60
0
100
AcDbSpline
70
4
71
3
72
29
73
25
40
0
40
0
40
0
40
0
40
0.126907591021585
40
0.126907591021585
40
0.253815182043171
40
0.253815182043171
40
0.285542079798567
40
0.285542079798567
40
0.317268977553964
40
0.317268977553964
40
0.380722773064756
40
0.380722773064756
40
0.507630364086341
40
0.634537955107926
40
0.634537955107926
40
0.697991750618719
40
0.697991750618719
40
0.729718648374115
40
0.729718648374115
40
0.761445546129511
40
0.761445546129511
40
0.888353137151098
40
0.888353137151098
40
1
40
1
40
1
40
1
41
1
10
59.9601752202427
20
-2.67126525332583
30
0
41
1
10
59.9673526409562
20
-2.78193632327751
30
0
41
1
10
59.974520425436
20
-2.88681798458816
30
0
41
1
10
59.9888619996554
20
-3.08515724818273
30
0
41
1
10
59.9960267865894
20
-3.17861538749469
30
0
41
1
10
60.0050240991972
20
-3.28814140952326
30
0
41
1
10
60.0068259169987
20
-3.30968075650102
30
0
41
1
10
60.0104366745623
20
-3.35201957798628
30
0
41
1
10
60.0122481293668
20
-3.37284718080616
30
0
41
1
10
60.0176786195079
20
-3.4339931043867
30
0
41
1
10
60.0212872125502
20
-3.47288566546774
30
0
41
1
10
60.0320942475473
20
-3.58407226801089
30
0
41
1
10
60.0464311714312
20
-3.71771034468188
30
0
41
1
10
60.0606989358189
20
-3.82263369788464
30
0
41
1
10
60.071481568349
20
-3.89036643467352
30
0
41
1
10
60.0750927108095
20
-3.91111341971867
30
0
41
1
10
60.0805392046344
20
-3.93942645944506
30
0
41
1
10
60.0823574935362
20
-3.94838466459297
30
0
41
1
10
60.0859813060103
20
-3.96525866260404
30
0
41
1
10
60.0877894163199
20
-3.97318815452141
30
0
41
1
10
60.0968121451986
20
-4.01032587069133
30
0
41
1
10
60.1039692040786
20
-4.03202720242317
30
0
41
1
10
60.1173978649571
20
-4.05808731841336
30
0
41
1
10
60.1236810932427
20
-4.06421739826536
30
0
41
1
10
60.1300037163951
20
-4.06420910937885
30
0
0
SPLINE
5
173
100
AcDbEntity
8
1
62
256
6
ByLayer
370
18
48
1
60
0
100
AcDbSpline
70
4
71
3
72
34
73
30
40
0
40
0
40
0
40
0
40
0.0625000000000005
40
0.0625000000000005
40
0.0937500000000005
40
0.0937500000000005
40
0.125000000000001
40
0.125000000000001
40
0.250000000000001
40
0.250000000000001
40
0.375000000000002
40
0.375000000000002
40
0.437500000000002
40
0.437500000000002
40
0.468750000000002
40
0.468750000000002
40
0.500000000000001
40
0.500000000000001
40
0.625000000000002
40
0.625000000000002
40
0.750000000000002
40
0.750000000000002
40
0.812500000000002
40
0.812500000000002
40
0.843750000000002
40
0.843750000000002
40
0.875000000000001
40
0.875000000000001
40
1
40
1
40
1
40
1
41
1
10
59.5265815456535
20
4.04033827476476
30
0
41
1
10
59.5301648509621
20
4.0324079402665
30
0
41
1
10
59.5337536392049
20
4.02248982007592
30
0
41
1
10
59.5391590630416
20
4.00457394119275
30
0
41
1
10
59.540965629854
20
3.99809138984136
30
0
41
1
10
59.5445851905776
20
3.98411589514802
30
0
41
1
10
59.5463920922044
20
3.97664791995925
30
0
41
1
10
59.5554165497082
20
3.93693708443919
30
0
41
1
10
59.5625954327965
20
3.89760266105617
30
0
41
1
10
59.5768955727688
20
3.80421832260083
30
0
41
1
10
59.584016784776
20
3.75016742761781
30
0
41
1
10
59.59475003748
20
3.65797487313202
30
0
41
1
10
59.5983383709061
20
3.62538740641446
30
0
41
1
10
59.6037498288753
20
3.57367441834225
30
0
41
1
10
59.6055579101582
20
3.55596451151621
30
0
41
1
10
59.6091823303233
20
3.51958898468629
30
0
41
1
10
59.6109998678531
20
3.50090935624456
30
0
41
1
10
59.6200532831184
20
3.40568505834435
30
0
41
1
10
59.6272245338719
20
3.32326559502019
30
0
41
1
10
59.641505744258
20
3.14634329535565
30
0
41
1
10
59.6486206646404
20
3.05183951923462
30
0
41
1
10
59.6593706208841
20
2.9009964192845
30
0
41
1
10
59.6629633505596
20
2.84919746471078
30
0
41
1
10
59.6683672869005
20
2.76918854466322
30
0
41
1
10
59.6701711245641
20
2.74213360893035
30
0
41
1
10
59.6737846189603
20
2.68724487274736
30
0
41
1
10
59.6755957796332
20
2.65938761420017
30
0
41
1
10
59.6846527173525
20
2.51838557919746
30
0
41
1
10
59.6918164504852
20
2.4013920241666
30
0
41
1
10
59.6989686225347
20
2.2803592964774
30
0
0
SPLINE
5
174
100
AcDbEntity
8
1
62
256
6
ByLayer
370
18
48
1
60
0
100
AcDbSpline
70
4
71
3
72
28
73
24
40
0
40
0
40
0
40
0
40
0.125000000000001
40
0.125000000000001
40
0.250000000000003
40
0.250000000000003
40
0.281250000000003
40
0.281250000000003
40
0.312500000000003
40
0.375000000000004
40
0.375000000000004
40
0.500000000000004
40
0.500000000000004
40
0.625000000000004
40
0.625000000000004
40
0.656250000000004
40
0.656250000000004
40
0.687500000000003
40
0.750000000000002
40
0.750000000000002
40
0.875000000000001
40
0.875000000000001
40
1
40
1
40
1
40
1
41
1
10
59.82176476845
20
2.19874288428676
30
0
41
1
10
59.8145914918628
20
2.32182788923319
30
0
41
1
10
59.8074516773997
20
2.4402913942576
30
0
41
1
10
59.7931509387099
20
2.66797190782387
30
0
41
1
10
59.785982345921
20
2.77718955999128
30
0
41
1
10
59.7769078973852
20
2.9077224832694
30
0
41
1
10
59.7750901697136
20
2.93350032797909
30
0
41
1
10
59.7714673230065
20
2.98414581999259
30
0
41
1
10
59.7660441355677
20
3.05886000298722
30
0
41
1
10
59.7606530512523
20
3.12985643119657
30
0
41
1
10
59.7499013087305
20
3.26696713941686
30
0
41
1
10
59.7427773056575
20
3.35187873602499
30
0
41
1
10
59.7284722770474
20
3.50875968189121
30
0
41
1
10
59.7212773061219
20
3.58072979349808
30
0
41
1
10
59.7122238149529
20
3.66234881589418
30
0
41
1
10
59.7104072316594
20
3.67827758379372
30
0
41
1
10
59.7067824852132
20
3.70915508189699
30
0
41
1
10
59.7013597303008
20
3.7539904086205
30
0
41
1
10
59.6959740377599
20
3.7944400781889
30
0
41
1
10
59.6852277193867
20
3.86959224969905
30
0
41
1
10
59.6780870510879
20
3.91204701228867
30
0
41
1
10
59.663747788944
20
3.98178636055539
30
0
41
1
10
59.6565683605507
20
4.0090720573159
30
0
41
1
10
59.6493534622932
20
4.028566167923
30
0
0
SPLINE
5
175
100
AcDbEntity
8
1
62
256
6
ByLayer
370
13
48
1
60
0
100
AcDbSpline
70
4
71
3
72
11
73
7
40
0
40
0
40
0
40
0
40
0.203082227902846
40
0.539411795875945
40
0.875741363849044
40
1
40
1
40
1
40
1
41
1
10
59.2145287648827
20
-1.89430319669617
30
0
41
1
10
59.2251196497552
20
-2.04175065477079
30
0
41
1
10
59.2532503417325
20
-2.41206230606127
30
0
41
1
10
59.2989211236939
20
-2.90006407719898
30
0
41
1
10
59.3404809499343
20
-3.18486168973141
30
0
41
1
10
59.3645009844176
20
-3.27856449663452
30
0
41
1
10
59.3709811710487
20
-3.2986062190958
30
0
0
SPLINE
5
176
100
AcDbEntity
8
1
62
256
6
ByLayer
370
18
48
1
60
0
100
AcDbSpline
70
4
71
3
72
29
73
25
40
0
40
0
40
0
40
0
40
0.125000000000002
40
0.125000000000002
40
0.250000000000003
40
0.250000000000003
40
0.281250000000004
40
0.281250000000004
40
0.312500000000004
40
0.312500000000004
40
0.375000000000004
40
0.375000000000004
40
0.500000000000004
40
0.625000000000003
40
0.625000000000003
40
0.656250000000003
40
0.656250000000003
40
0.687500000000003
40
0.687500000000003
40
0.750000000000003
40
0.750000000000003
40
0.875000000000001
40
0.875000000000001
40
1
40
1
40
1
40
1
41
1
10
58.9546584147314
20
-3.96814036917428
30
0
41
1
10
58.9474930700754
20
-3.93643638652779
30
0
41
1
10
58.9403499923121
20
-3.89714991520307
30
0
41
1
10
58.9260140472099
20
-3.80357235319153
30
0
41
1
10
58.9188395271825
20
-3.74928162740255
30
0
41
1
10
58.90982927315
20
-3.67180808665114
30
0
41
1
10
58.9080248326052
20
-3.65583152877156
30
0
41
1
10
58.9044091483977
20
-3.62290334158769
30
0
41
1
10
58.9025964327594
20
-3.60593624626853
30
0
41
1
10
58.8971771965509
20
-3.55387580306547
30
0
41
1
10
58.8935795583574
20
-3.51753490091036
30
0
41
1
10
58.8827958899191
20
-3.40371158093319
30
0
41
1
10
58.8684540200776
20
-3.23917262344915
30
0
41
1
10
58.8541646774736
20
-3.04945641432593
30
0
41
1
10
58.8451766786798
20
-2.92285577678447
30
0
41
1
10
58.8433759476654
20
-2.89713314460639
30
0
41
1
10
58.8397652566437
20
-2.84487431862203
30
0
41
1
10
58.8379537524638
20
-2.81831724757222
30
0
41
1
10
58.832510397596
20
-2.73754590067196
30
0
41
1
10
58.8288927626014
20
-2.6825545382851
30
0
41
1
10
58.8180759626402
20
-2.51422635305283
30
0
41
1
10
58.8109162485426
20
-2.39754490007013
30
0
41
1
10
58.7966296120755
20
-2.15542457533428
30
0
41
1
10
58.7895007877772
20
-2.02998567226706
30
0
41
1
10
58.7823030934998
20
-1.90009957755572
30
0
0
SPLINE
5
177
100
AcDbEntity
8
1
62
256
6
ByLayer
370
18
48
1
60
0
100
AcDbSpline
70
4
71
3
72
8
73
4
40
0
40
0
40
0
40
0
40
1
40
1
40
1
40
1
41
1
10
58.6584293474876
20
-1.81196187194411
30
0
41
1
10
58.6626846116706
20
-1.88356148427249
30
0
41
1
10
58.6669308248838
20
-1.9539671080434
30
0
41
1
10
58.6711696071824
20
-2.02318898574444
30
0
0
SPLINE
5
178
100
AcDbEntity
8
1
62
256
6
ByLayer
370
13
48
1
60
0
100
AcDbSpline
70
4
71
3
72
11
73
7
40
0
40
0
40
0
40
0
40
0.0202629436735589
40
0.356899282085924
40
0.69353562049829
40
1
40
1
40
1
40
1
41
1
10
58.2397504075721
20
-1.33562150341226
30
0
41
1
10
58.2408061739624
20
-1.35195825190399
30
0
41
1
10
58.2594018070124
20
-1.63870657574131
30
0
41
1
10
58.2955373033845
20
-2.16048534754896
30
0
41
1
10
58.3465848468582
20
-2.75178329519716
30
0
41
1
10
58.3800925153797
20
-3.02271870640706
30
0
41
1
10
58.3960603223588
20
-3.12157727095175
30
0
0
SPLINE
5
179
100
AcDbEntity
8
1
62
256
6
ByLayer
370
18
48
1
60
0
100
AcDbSpline
70
4
71
3
72
28
73
24
40
0
40
0
40
0
40
0
40
0.124999999999999
40
0.124999999999999
40
0.249999999999999
40
0.249999999999999
40
0.374999999999998
40
0.374999999999998
40
0.437499999999998
40
0.437499999999998
40
0.499999999999998
40
0.499999999999998
40
0.624999999999999
40
0.624999999999999
40
0.749999999999999
40
0.749999999999999
40
0.812499999999999
40
0.812499999999999
40
0.843749999999999
40
0.843749999999999
40
0.874999999999999
40
0.874999999999999
40
1
40
1
40
1
40
1
41
1
10
58.6711696071825
20
-2.02318898574444
30
0
41
1
10
58.6779251285074
20
-2.14273713314753
30
0
41
1
10
58.6846129435893
20
-2.25784468274438
30
0
41
1
10
58.6979385612273
20
-2.47945862431266
30
0
41
1
10
58.7045851895212
20
-2.58596389900001
30
0
41
1
10
58.7179441920494
20
-2.79038278603252
30
0
41
1
10
58.7246412543326
20
-2.88829759038248
30
0
41
1
10
58.734740349441
20
-3.02853873139858
30
0
41
1
10
58.7381223960302
20
-3.07425207592396
30
0
41
1
10
58.7448433143337
20
-3.16244490335345
30
0
41
1
10
58.7481905105664
20
-3.20504447091514
30
0
41
1
10
58.7582179814712
20
-3.32843061690872
30
0
41
1
10
58.7648964153506
20
-3.4048152799962
30
0
41
1
10
58.7782498997576
20
-3.54598218759597
30
0
41
1
10
58.7849198744127
20
-3.61076469760937
30
0
41
1
10
58.7949620435501
20
-3.69907656467279
30
0
41
1
10
58.7983163173972
20
-3.72703408328894
30
0
41
1
10
58.8033705135884
20
-3.7667039499168
30
0
41
1
10
58.8050586869856
20
-3.77954459029971
30
0
41
1
10
58.8084258784047
20
-3.80432312848771
30
0
41
1
10
58.8101075405247
20
-3.81628035996465
30
0
41
1
10
58.8185087246849
20
-3.87392905981591
30
0
41
1
10
58.8252006820924
20
-3.91322490555086
30
0
41
1
10
58.8318713043755
20
-3.94585156144385
30
0
0
SPLINE
5
17A
100
AcDbEntity
8
1
62
256
6
ByLayer
370
13
48
1
60
0
100
AcDbSpline
70
4
71
3
72
11
73
7
40
0
40
0
40
0
40
0
40
0.0714772285807903
40
0.408805401629819
40
0.746133574678849
40
1
40
1
40
1
40
1
41
1
10
54.3379177267704
20
1.16273457119576
30
0
41
1
10
54.3416342886916
20
1.10393118432981
30
0
41
1
10
54.3628907171662
20
0.764135480046463
30
0
41
1
10
54.4016870139863
20
0.113036577453187
30
0
41
1
10
54.449966890166
20
-0.70447768888269
30
0
41
1
10
54.4807069123672
20
-1.19728486385321
30
0
41
1
10
54.4939070654301
20
-1.3996572077956
30
0
0
SPLINE
5
17B
100
AcDbEntity
8
1
62
256
6
ByLayer
370
18
48
1
60
0
100
AcDbSpline
70
4
71
3
72
29
73
25
40
0
40
0
40
0
40
0
40
0.125000000000001
40
0.125000000000001
40
0.250000000000002
40
0.250000000000002
40
0.312500000000001
40
0.343750000000001
40
0.343750000000001
40
0.375
40
0.375
40
0.5
40
0.5
40
0.625
40
0.625
40
0.75
40
0.75
40
0.781250000000001
40
0.781250000000001
40
0.812500000000001
40
0.812500000000001
40
0.875000000000001
40
0.875000000000001
40
1
40
1
40
1
40
1
41
1
10
54.4020557159119
20
1.17714499841611
30
0
41
1
10
54.4093447395364
20
1.06764061734003
30
0
41
1
10
54.416595337106
20
0.956792511234823
30
0
41
1
10
54.4310895827211
20
0.732477121537187
30
0
41
1
10
54.4383214435082
20
0.619008637213909
30
0
41
1
10
54.4491854272769
20
0.446829640484253
30
0
41
1
10
54.4546223358025
20
0.360245238783563
30
0
41
1
10
54.4600821525518
20
0.272908780802993
30
0
41
1
10
54.4637294501817
20
0.214515703366146
30
0
41
1
10
54.4655590429917
20
0.185198569559333
30
0
41
1
10
54.4747040339525
20
0.0386314210064711
30
0
41
1
10
54.4819788932822
20
-0.0779667685354468
30
0
41
1
10
54.4964574182795
20
-0.309895736464739
30
0
41
1
10
54.5036601194037
20
-0.425226428325971
30
0
41
1
10
54.5180703575521
20
-0.654621293233873
30
0
41
1
10
54.5252824389405
20
-0.768685316317004
30
0
41
1
10
54.5343822575393
20
-0.910448982296373
30
0
41
1
10
54.5362057891799
20
-0.938760829987245
30
0
41
1
10
54.5398601217984
20
-0.995301812894979
30
0
41
1
10
54.5416888418541
20
-1.02349847363058
30
0
41
1
10
54.5471572621073
20
-1.10751511866818
30
0
41
1
10
54.5507879244596
20
-1.16289896587796
30
0
41
1
10
54.5616453586684
20
-1.32720022805017
30
0
41
1
10
54.5688354550758
20
-1.43427187371117
30
0
41
1
10
54.5760305972108
20
-1.53890790163268
30
0
0
SPLINE
5
17C
100
AcDbEntity
8
1
62
256
6
ByLayer
370
18
48
1
60
0
100
AcDbSpline
70
4
71
3
72
27
73
23
40
0
40
0
40
0
40
0
40
0.125000000000002
40
0.125000000000002
40
0.250000000000005
40
0.250000000000005
40
0.312500000000006
40
0.343750000000006
40
0.343750000000006
40
0.375000000000006
40
0.375000000000006
40
0.500000000000005
40
0.500000000000005
40
0.625000000000004
40
0.625000000000004
40
0.750000000000003
40
0.750000000000003
40
0.812500000000002
40
0.812500000000002
40
0.875000000000001
40
0.875000000000001
40
1
40
1
40
1
40
1
41
1
10
55.328798494774
20
-2.06552027824858
30
0
41
1
10
55.3225849392786
20
-1.96551630940238
30
0
41
1
10
55.3163964529965
20
-1.86264458582511
30
0
41
1
10
55.3040169670732
20
-1.65129196187533
30
0
41
1
10
55.297835461873
20
-1.54281105624346
30
0
41
1
10
55.2885397661923
20
-1.37584766508078
30
0
41
1
10
55.2838852760337
20
-1.29130345836677
30
0
41
1
10
55.2792066464756
20
-1.20514001901807
30
0
41
1
10
55.2760800663406
20
-1.14733367418114
30
0
41
1
10
55.2745108502578
20
-1.11820737990379
30
0
41
1
10
55.266678415105
20
-0.972364812264743
30
0
41
1
10
55.2604423361379
20
-0.854795528980276
30
0
41
1
10
55.2480225063529
20
-0.617924988396993
30
0
41
1
10
55.2418389783394
20
-0.498623558707379
30
0
41
1
10
55.2294511174751
20
-0.258294323777818
30
0
41
1
10
55.2232402872729
20
-0.137266845682092
30
0
41
1
10
55.2138257351705
20
0.0456041164138412
30
0
41
1
10
55.2106681323004
20
0.106894797870609
30
0
41
1
10
55.2043886241303
20
0.228659126871349
30
0
41
1
10
55.2012596861361
20
0.289269455713878
30
0
41
1
10
55.1918954341002
20
0.470295966360538
30
0
41
1
10
55.1856847193624
20
0.589909862550627
30
0
41
1
10
55.1794553916887
20
0.708455520148448
30
0
0
SPLINE
5
17D
100
AcDbEntity
8
1
62
256
6
ByLayer
370
13
48
1
60
0
100
AcDbSpline
70
4
71
3
72
11
73
7
40
0
40
0
40
0
40
0
40
0.254401517354723
40
0.591599598636458
40
0.928797679918192
40
1
40
1
40
1
40
1
41
1
10
55.3127518707615
20
0.544709254929757
30
0
41
1
10
55.3259849712054
20
0.324465156725182
30
0
41
1
10
55.3567579859863
20
-0.196123671971691
30
0
41
1
10
55.4050706999207
20
-1.00652014160278
30
0
41
1
10
55.4438543032686
20
-1.60539390830621
30
0
41
1
10
55.4650978427361
20
-1.90254022534606
30
0
41
1
10
55.4688015323896
20
-1.9533317785324
30
0
0
SPLINE
5
17E
100
AcDbEntity
8
1
62
256
6
ByLayer
370
13
48
1
60
0
100
AcDbSpline
70
4
71
3
72
11
73
7
40
0
40
0
40
0
40
0
40
0.108087123825604
40
0.444751055333781
40
0.781414986841959
40
1
40
1
40
1
40
1
41
1
10
57.9139177274664
20
-1.13631947201617
30
0
41
1
10
57.9195489639073
20
-1.22569188502894
30
0
41
1
10
57.9427200802976
20
-1.58782242683915
30
0
41
1
10
57.9834312029947
20
-2.17372815314673
30
0
41
1
10
58.0298988379463
20
-2.70904471328771
30
0
41
1
10
58.0588268265836
20
-2.95459833339646
30
0
41
1
10
58.0702149111382
20
-3.03637407166042
30
0
0
SPLINE
5
17F
100
AcDbEntity
8
1
62
256
6
ByLayer
370
13
48
1
60
0
100
AcDbSpline
70
4
71
3
72
11
73
7
40
0
40
0
40
0
40
0
40
0.166649901617754
40
0.503717019112434
40
0.840784136607115
40
1
40
1
40
1
40
1
41
1
10
55.6385416352372
20
0.332922260912199
30
0
41
1
10
55.6472135489473
20
0.18736396923606
30
0
41
1
10
55.6734253287689
20
-0.25546311319772
30
0
41
1
10
55.7171769780171
20
-0.989967012816237
30
0
41
1
10
55.7605417737998
20
-1.66125225312248
30
0
41
1
10
55.7863667130003
20
-2.015675558726
30
0
41
1
10
55.7946517846326
20
-2.12387089390896
30
0
0
SPLINE
5
180
100
AcDbEntity
8
1
62
256
6
ByLayer
370
13
48
1
60
0
100
AcDbSpline
70
4
71
3
72
11
73
7
40
0
40
0
40
0
40
0
40
0.0127384719349876
40
0.349734042418945
40
0.686729612902902
40
1
40
1
40
1
40
1
41
1
10
56.613332446145
20
-0.305591682002216
30
0
41
1
10
56.6139954554092
20
-0.316727874030221
30
0
41
1
10
56.6321983410275
20
-0.622330371186621
30
0
41
1
10
56.6679412725659
20
-1.2139701862217
30
0
41
1
10
56.7193258272442
20
-1.98218467361011
30
0
41
1
10
56.7531707340544
20
-2.40176830797901
30
0
41
1
10
56.7694757600621
20
-2.57784389753985
30
0
0
SPLINE
5
181
100
AcDbEntity
8
1
62
256
6
ByLayer
370
18
48
1
60
0
100
AcDbSpline
70
4
71
3
72
29
73
25
40
0
40
0
40
0
40
0
40
0.125000000000002
40
0.125000000000002
40
0.250000000000004
40
0.250000000000004
40
0.312500000000005
40
0.312500000000005
40
0.343750000000005
40
0.343750000000005
40
0.375000000000006
40
0.375000000000006
40
0.500000000000005
40
0.500000000000005
40
0.625000000000005
40
0.625000000000005
40
0.687500000000005
40
0.718750000000004
40
0.718750000000004
40
0.750000000000004
40
0.750000000000004
40
0.875000000000002
40
0.875000000000002
40
1
40
1
40
1
40
1
41
1
10
55.8206589485547
20
0.285896120874327
30
0
41
1
10
55.8281682495182
20
0.159217722707012
30
0
41
1
10
55.835615700132
20
0.0327069041653374
30
0
41
1
10
55.8505335816734
20
-0.219977745515905
30
0
41
1
10
55.8580073566228
20
-0.346151388134842
30
0
41
1
10
55.8692480993779
20
-0.535155000978733
30
0
41
1
10
55.8730006844521
20
-0.598113276058854
30
0
41
1
10
55.8786455565852
20
-0.692484657826157
30
0
41
1
10
55.8805319617339
20
-0.723965180695529
30
0
41
1
10
55.8843024310259
20
-0.786743838486672
30
0
41
1
10
55.88618292512
20
-0.817982637626159
30
0
41
1
10
55.8955672200228
20
-0.973432837912156
30
0
41
1
10
55.9030251804254
20
-1.09541892479768
30
0
41
1
10
55.9179422163739
20
-1.33476814147767
30
0
41
1
10
55.9253847048983
20
-1.45213110982448
30
0
41
1
10
55.93655884943
20
-1.6246896009761
30
0
41
1
10
55.942149588297
20
-1.71009563973649
30
0
41
1
10
55.9477623150547
20
-1.79417238125569
30
0
41
1
10
55.9515115874047
20
-1.84992480869872
30
0
41
1
10
55.9533917963721
20
-1.877679159336
30
0
41
1
10
55.9627968806039
20
-2.0153801740295
30
0
41
1
10
55.9702826501466
20
-2.1212588118228
30
0
41
1
10
55.9851913445653
20
-2.32471849358169
30
0
41
1
10
55.9926123791687
20
-2.42229870592544
30
0
41
1
10
56.0000435006119
20
-2.51572860052462
30
0
0
SPLINE
5
182
100
AcDbEntity
8
1
62
256
6
ByLayer
370
18
48
1
60
0
100
AcDbSpline
70
4
71
3
72
23
73
19
40
0
40
0
40
0
40
0
40
0.125
40
0.25
40
0.25
40
0.312500000000001
40
0.312500000000001
40
0.375000000000001
40
0.375000000000001
40
0.500000000000001
40
0.500000000000001
40
0.625
40
0.625
40
0.75
40
0.75
40
0.875
40
0.875
40
1
40
1
40
1
40
1
41
1
10
56.5303255299251
20
-2.85009590858178
30
0
41
1
10
56.5239457327807
20
-2.76432382283974
30
0
41
1
10
56.5112555592468
20
-2.58364467927643
30
0
41
1
10
56.4986258112868
20
-2.38504737950237
30
0
41
1
10
56.4890893828413
20
-2.22929173256804
30
0
41
1
10
56.4858974244941
20
-2.1762362094627
30
0
41
1
10
56.4794829468876
20
-2.0678088328161
30
0
41
1
10
56.4762546522739
20
-2.01231374104341
30
0
41
1
10
56.4666325904992
20
-1.84419148428134
30
0
41
1
10
56.4602737070653
20
-1.72943718552565
30
0
41
1
10
56.4475919696595
20
-1.49473083058481
30
0
41
1
10
56.4412636951416
20
-1.37477838602803
30
0
41
1
10
56.4285190277846
20
-1.12965253697738
30
0
41
1
10
56.422116876403
20
-1.00447494427291
30
0
41
1
10
56.409220992666
20
-0.748723888618343
30
0
41
1
10
56.4028340127424
20
-0.620275548463979
30
0
41
1
10
56.3900702048639
20
-0.362270923537295
30
0
41
1
10
56.3836798352407
20
-0.232715074830224
30
0
41
1
10
56.3772713163348
20
-0.102604436845127
30
0
0
SPLINE
5
183
100
AcDbEntity
8
1
62
256
6
ByLayer
370
18
48
1
60
0
100
AcDbSpline
70
4
71
3
72
30
73
26
40
0
40
0
40
0
40
0
40
0.125
40
0.125
40
0.25
40
0.25
40
0.3125
40
0.3125
40
0.34375
40
0.34375
40
0.375
40
0.375
40
0.500000000000001
40
0.500000000000001
40
0.625000000000002
40
0.625000000000002
40
0.687500000000002
40
0.687500000000002
40
0.718750000000002
40
0.718750000000002
40
0.750000000000003
40
0.750000000000003
40
0.875000000000001
40
0.875000000000001
40
1
40
1
40
1
40
1
41
1
10
57.7316911188859
20
-3.51397736794115
30
0
41
1
10
57.7251881856517
20
-3.45079481000124
30
0
41
1
10
57.7187340752124
20
-3.38142196484287
30
0
41
1
10
57.7058113380535
20
-3.23048909060307
30
0
41
1
10
57.6993265813877
20
-3.14892768032172
30
0
41
1
10
57.689540063594
20
-3.01728527941546
30
0
41
1
10
57.6862693732123
20
-2.97185135472998
30
0
41
1
10
57.681346288971
20
-2.90132022694431
30
0
41
1
10
57.679702046494
20
-2.8774068149516
30
0
41
1
10
57.6764264202463
20
-2.82907468468375
30
0
41
1
10
57.6747925466639
20
-2.80462070884866
30
0
41
1
10
57.6666387295911
20
-2.68092700443913
30
0
41
1
10
57.6601657479902
20
-2.57742797859811
30
0
41
1
10
57.6471822690849
20
-2.36154180876002
30
0
41
1
10
57.6406850524416
20
-2.24915508799415
30
0
41
1
10
57.6309132290423
20
-2.07383710030376
30
0
41
1
10
57.6276509342644
20
-2.01427243458127
30
0
41
1
10
57.622741185801
20
-1.92320613687866
30
0
41
1
10
57.6211018377096
20
-1.89256399394157
30
0
41
1
10
57.6178155525333
20
-1.83069905382098
30
0
41
1
10
57.616173043878
20
-1.79955936561208
30
0
41
1
10
57.6079766906162
20
-1.64319044686417
30
0
41
1
10
57.6014391109503
20
-1.51559691469612
30
0
41
1
10
57.5883740306738
20
-1.25552383847247
30
0
41
1
10
57.5818541868944
20
-1.12304415784388
30
0
41
1
10
57.57531193906
20
-0.98809261400919
30
0
0
SPLINE
5
184
100
AcDbEntity
8
1
62
256
6
ByLayer
370
18
48
1
60
0
100
AcDbSpline
70
4
71
3
72
28
73
24
40
0
40
0
40
0
40
0
40
0.124999999999999
40
0.124999999999999
40
0.249999999999998
40
0.249999999999998
40
0.312499999999997
40
0.312499999999997
40
0.374999999999997
40
0.374999999999997
40
0.499999999999996
40
0.499999999999996
40
0.624999999999996
40
0.624999999999996
40
0.687499999999996
40
0.687499999999996
40
0.718749999999996
40
0.718749999999996
40
0.749999999999996
40
0.749999999999996
40
0.874999999999998
40
0.874999999999998
40
1
40
1
40
1
40
1
41
1
10
57.2394829991678
20
-0.735753767123356
30
0
41
1
10
57.2471970836829
20
-0.870872058689883
30
0
41
1
10
57.2548523661885
20
-1.00396675691257
30
0
41
1
10
57.2701504604681
20
-1.26616157429859
30
0
41
1
10
57.2778067982846
20
-1.39526154897993
30
0
41
1
10
57.2893818892103
20
-1.58585264430931
30
0
41
1
10
57.2932541443178
20
-1.64890951912736
30
0
41
1
10
57.3010171432218
20
-1.77382413624917
30
0
41
1
10
57.3048772673661
20
-1.83518959871961
30
0
41
1
10
57.3164112040993
20
-2.01608397409612
30
0
41
1
10
57.3240358449442
20
-2.13241959722302
30
0
41
1
10
57.3393175490656
20
-2.3567363286183
30
0
41
1
10
57.3469785657582
20
-2.46471753583654
30
0
41
1
10
57.3585019516017
20
-2.62033146144404
30
0
41
1
10
57.3623491709773
20
-2.67114095121875
30
0
41
1
10
57.3681371218936
20
-2.74573030924012
30
0
41
1
10
57.3700720692215
20
-2.77035616733553
30
0
41
1
10
57.3739307858647
20
-2.81882130936356
30
0
41
1
10
57.3758555839537
20
-2.84267482617298
30
0
41
1
10
57.3854628899618
20
-2.96006781885393
30
0
41
1
10
57.3931068697707
20
-3.04800042691241
30
0
41
1
10
57.4084054407913
20
-3.21216244851013
30
0
41
1
10
57.4160430276945
20
-3.28839019899496
30
0
41
1
10
57.4236984167544
20
-3.35869431426209
30
0
0
SPLINE
5
185
100
AcDbEntity
8
1
62
256
6
ByLayer
370
13
48
1
60
0
100
AcDbSpline
70
4
71
3
72
11
73
7
40
0
40
0
40
0
40
0
40
0.261782877078219
40
0.598665951943573
40
0.935549026808927
40
1
40
1
40
1
40
1
41
1
10
56.9391580505283
20
-0.518204734848126
30
0
41
1
10
56.9527878139637
20
-0.74534313254577
30
0
41
1
10
56.9839574425563
20
-1.25646983074748
30
0
41
1
10
57.0326669419499
20
-1.98665478535057
30
0
41
1
10
57.0711023171197
20
-2.46189544951903
30
0
41
1
10
57.0919978333109
20
-2.67688000834801
30
0
41
1
10
57.0953534827748
20
-2.71024798441763
30
0
0
SPLINE
5
186
100
AcDbEntity
8
1
62
256
6
ByLayer
370
18
48
1
60
0
100
AcDbSpline
70
4
71
3
72
65
73
61
40
0
40
0
40
0
40
0
40
0.0411645304814005
40
0.0411645304814005
40
0.0847479609140693
40
0.0847479609140693
40
0.106539676130402
40
0.106539676130402
40
0.128331391346734
40
0.128331391346734
40
0.171914821779399
40
0.171914821779399
40
0.215498252212065
40
0.215498252212065
40
0.25908168264473
40
0.25908168264473
40
0.280873397861062
40
0.280873397861062
40
0.302665113077395
40
0.302665113077395
40
0.324456828293727
40
0.324456828293727
40
0.34624854351006
40
0.34624854351006
40
0.389831973942725
40
0.389831973942725
40
0.43341540437539
40
0.45520711959172
40
0.45520711959172
40
0.476998834808051
40
0.476998834808051
40
0.498790550024382
40
0.498790550024382
40
0.520582265240713
40
0.520582265240713
40
0.564165695673374
40
0.564165695673374
40
0.607749126106036
40
0.607749126106036
40
0.651332556538697
40
0.651332556538697
40
0.694915986971358
40
0.694915986971358
40
0.716707702187691
40
0.716707702187691
40
0.738499417404024
40
0.738499417404024
40
0.782082847836689
40
0.782082847836689
40
0.825666278269354
40
0.825666278269354
40
0.847457993485685
40
0.847457993485685
40
0.869249708702016
40
0.869249708702016
40
0.912833139134677
40
0.912833139134677
40
0.956416569567339
40
0.956416569567339
40
1
40
1
40
1
40
1
41
1
10
49.7712279024293
20
-2.99999999538161
30
0
41
1
10
49.6561582973917
20
-3.00000503139228
30
0
41
1
10
49.5413628444709
20
-2.99772474348987
30
0
41
1
10
49.305472278699
20
-2.98833748235074
30
0
41
1
10
49.1844012076497
20
-2.98095449054657
30
0
41
1
10
49.0030340017353
20
-2.96605801945748
30
0
41
1
10
48.9425978146603
20
-2.96045825610727
30
0
41
1
10
48.8215268648792
20
-2.94807790008565
30
0
41
1
10
48.7609415264114
20
-2.94128637298357
30
0
41
1
10
48.5792664148036
20
-2.91904425545968
30
0
41
1
10
48.458120857113
20
-2.90177313742967
30
0
41
1
10
48.2158536539765
20
-2.8622949618906
30
0
41
1
10
48.0947198890042
20
-2.84008993348132
30
0
41
1
10
47.8523385902583
20
-2.79073195274017
30
0
41
1
10
47.7311279162965
20
-2.7635500453668
30
0
41
1
10
47.5489430018567
20
-2.719186114861
30
0
41
1
10
47.4881503693344
20
-2.70380222777038
30
0
41
1
10
47.3663283577055
20
-2.67192834721229
30
0
41
1
10
47.3052729135504
20
-2.65546123351177
30
0
41
1
10
47.1829888359453
20
-2.62138050425651
30
0
41
1
10
47.1217314779973
20
-2.6037298717159
30
0
41
1
10
46.9994787509225
20
-2.56736793465495
30
0
41
1
10
46.9384494520519
20
-2.54865111142789
30
0
41
1
10
46.755602115051
20
-2.4909496773212
30
0
41
1
10
46.6340307578343
20
-2.45041010166054
30
0
41
1
10
46.3914885974994
20
-2.36526599828014
30
0
41
1
10
46.2100212555262
20
-2.29836891532747
30
0
41
1
10
46.0290489757615
20
-2.22709443282147
30
0
41
1
10
45.9084935532845
20
-2.17862395661365
30
0
41
1
10
45.8482538434308
20
-2.15391987631312
30
0
41
1
10
45.7275853296033
20
-2.10390765827424
30
0
41
1
10
45.6671955036777
20
-2.07855482694117
30
0
41
1
10
45.5464799604461
20
-2.02694525022977
30
0
41
1
10
45.4861285647208
20
-2.00071960765243
30
0
41
1
10
45.3050578963268
20
-1.92082783983506
30
0
41
1
10
45.1843699659759
20
-1.86588602803653
30
0
41
1
10
44.9429944345433
20
-1.75267814123501
30
0
41
1
10
44.8223023735745
20
-1.69441764041133
30
0
41
1
10
44.5808072515476
20
-1.57466685776456
30
0
41
1
10
44.4599801301734
20
-1.51320391885662
30
0
41
1
10
44.2174995605511
20
-1.38810167012699
30
0
41
1
10
44.0958316716324
20
-1.32449947196847
30
0
41
1
10
43.9129629224376
20
-1.22707046193761
30
0
41
1
10
43.8519256898111
20
-1.19428692277208
30
0
41
1
10
43.7296471906658
20
-1.12817007736598
30
0
41
1
10
43.6683925224935
20
-1.09482685176803
30
0
41
1
10
43.4850958894014
20
-0.994314456961121
30
0
41
1
10
43.3633073505492
20
-0.926480568374473
30
0
41
1
10
43.1204545723282
20
-0.78932298437627
30
0
41
1
10
42.999376082511
20
-0.720023554486886
30
0
41
1
10
42.8181370409741
20
-0.615238757330133
30
0
41
1
10
42.7577935068015
20
-0.580160170061845
30
0
41
1
10
42.6369581449409
20
-0.510196784184132
30
0
41
1
10
42.5764866324145
20
-0.475277309658708
30
0
41
1
10
42.3952247909214
20
-0.370166134129192
30
0
41
1
10
42.2745918931419
20
-0.299612856672667
30
0
41
1
10
42.0333689705318
20
-0.158191983864327
30
0
41
1
10
41.9127960338659
20
-0.0872951494468452
30
0
41
1
10
41.6716467390912
20
0.054733026508103
30
0
41
1
10
41.5510750169825
20
0.125872564442233
30
0
41
1
10
41.4303840296324
20
0.196926320992645
30
0
0
SPLINE
5
187
100
AcDbEntity
8
1
62
256
6
ByLayer
370
18
48
1
60
0
100
AcDbSpline
70
4
71
3
72
48
73
44
40
0
40
0
40
0
40
0
40
0.0312451158924375
40
0.0312451158924375
40
0.062490231784875
40
0.062490231784875
40
0.12498046356975
40
0.12498046356975
40
0.187470695354625
40
0.187470695354625
40
0.218715811247063
40
0.218715811247063
40
0.2499609271395
40
0.2499609271395
40
0.312451158924371
40
0.312451158924371
40
0.374941390709241
40
0.374941390709241
40
0.406186506601676
40
0.406186506601676
40
0.437431622494112
40
0.437431622494112
40
0.468676738386547
40
0.468676738386547
40
0.499921854278982
40
0.499921854278982
40
0.624902317848724
40
0.624902317848724
40
0.687392549633594
40
0.687392549633594
40
0.718637665526029
40
0.718637665526029
40
0.749882781418465
40
0.749882781418465
40
0.87486324498821
40
0.87486324498821
40
0.906108360880647
40
0.906108360880647
40
0.937353476773083
40
0.937353476773083
40
0.99984370855796
40
0.99984370855796
40
1
40
1
40
1
40
1
41
1
10
39.3786562305332
20
-2.39830469673183
30
0
41
1
10
39.4502537999485
20
-2.42358302921704
30
0
41
1
10
39.521726209574
20
-2.44814813588707
30
0
41
1
10
39.6645212988097
20
-2.49575527667298
30
0
41
1
10
39.7358770669403
20
-2.51876514017647
30
0
41
1
10
39.9498329469647
20
-2.58543651979537
30
0
41
1
10
40.0922876799225
20
-2.62677352849354
30
0
41
1
10
40.3769543473068
20
-2.7032100518598
30
0
41
1
10
40.5191531514722
20
-2.73832005990539
30
0
41
1
10
40.7323351586625
20
-2.78625333837738
30
0
41
1
10
40.8033808137528
20
-2.80143916453574
30
0
41
1
10
40.9454432839989
20
-2.83021730197598
30
0
41
1
10
41.0164500860848
20
-2.84381443948678
30
0
41
1
10
41.2295561989242
20
-2.88212425149649
30
0
41
1
10
41.3718348992666
20
-2.90430944149782
30
0
41
1
10
41.6570322321079
20
-2.94188666876968
30
0
41
1
10
41.7999466741546
20
-2.95728401161472
30
0
41
1
10
42.0148464310884
20
-2.97522996227957
30
0
41
1
10
42.0865650889908
20
-2.98035339039845
30
0
41
1
10
42.2301902912365
20
-2.98886047108258
30
0
41
1
10
42.3021748884224
20
-2.99224605787404
30
0
41
1
10
42.4458345098354
20
-2.99723484098726
30
0
41
1
10
42.5175281770688
20
-2.99884139046864
30
0
41
1
10
42.660667872202
20
-3.00028143125996
30
0
41
1
10
42.7321147460776
20
-3.00011256889803
30
0
41
1
10
43.089266023712
20
-2.99488176068033
30
0
41
1
10
43.3741533292159
20
-2.97673898492818
30
0
41
1
10
43.8007175081331
20
-2.92914781457094
30
0
41
1
10
43.942793068206
20
-2.90988029453618
30
0
41
1
10
44.1558065116268
20
-2.87584977894042
30
0
41
1
10
44.2268007807059
20
-2.86365215776172
30
0
41
1
10
44.3689145921922
20
-2.83762120705674
30
0
41
1
10
44.4400331977817
20
-2.82378897724939
30
0
41
1
10
44.7959569959355
20
-2.75057160344207
30
0
41
1
10
45.0817789634493
20
-2.67910049057397
30
0
41
1
10
45.4407694719313
20
-2.57345537451613
30
0
41
1
10
45.5127280508949
20
-2.55147785126624
30
0
41
1
10
45.6563035070765
20
-2.50608852419177
30
0
41
1
10
45.7279342013496
20
-2.48264659912212
30
0
41
1
10
45.9425238237103
20
-2.41025895092628
30
0
41
1
10
46.0853646297093
20
-2.35945142668899
30
0
41
1
10
46.2282831755815
20
-2.30596080537612
30
0
41
1
10
46.2286397292844
20
-2.30582734052285
30
0
41
1
10
46.228996281459
20
-2.30569385998442
30
0
0
SPLINE
5
188
100
AcDbEntity
8
1
62
256
6
ByLayer
370
18
48
1
60
0
100
AcDbSpline
70
4
71
3
72
8
73
4
40
0
40
0
40
0
40
0
40
1
40
1
40
1
40
1
41
1
10
59.6493534623014
20
4.02856616792357
30
0
41
1
10
59.6084231232797
20
4.03288504442301
30
0
41
1
10
59.567500053843
20
4.03680842246391
30
0
41
1
10
59.5265815456535
20
4.04033827476476
30
0
0
SPLINE
5
189
100
AcDbEntity
8
1
62
256
6
ByLayer
370
18
48
1
60
0
100
AcDbSpline
70
4
71
3
72
28
73
24
40
0
40
0
40
0
40
0
40
0.125
40
0.125
40
0.25
40
0.25
40
0.3125
40
0.3125
40
0.374999999999999
40
0.374999999999999
40
0.499999999999999
40
0.499999999999999
40
0.624999999999999
40
0.624999999999999
40
0.687499999999999
40
0.687499999999999
40
0.718749999999999
40
0.718749999999999
40
0.749999999999999
40
0.749999999999999
40
0.874999999999999
40
0.874999999999999
40
1
40
1
40
1
40
1
41
1
10
60.8272701352969
20
3.79916829478552
30
0
41
1
10
60.8345001398335
20
3.74679724207684
30
0
41
1
10
60.8416642364379
20
3.68731487957706
30
0
41
1
10
60.8559592977831
20
3.55446854852286
30
0
41
1
10
60.8631030859518
20
3.48110431957784
30
0
41
1
10
60.8738947388417
20
3.36053388387489
30
0
41
1
10
60.8775009427956
20
3.31858586899824
30
0
41
1
10
60.8847353629567
20
3.23110748716468
30
0
41
1
10
60.8883716055066
20
3.18546478693887
30
0
41
1
10
60.8992026701673
20
3.04471979634741
30
0
41
1
10
60.9063525325566
20
2.94541325027376
30
0
41
1
10
60.9206741033622
20
2.73615747588141
30
0
41
1
10
60.9278472101173
20
2.62620772488418
30
0
41
1
10
60.9386255285744
20
2.45324474781842
30
0
41
1
10
60.9422222617989
20
2.39424784356064
30
0
41
1
10
60.947631427492
20
2.30370494951916
30
0
41
1
10
60.9494368855779
20
2.27318253692928
30
0
41
1
10
60.9530546924156
20
2.21144680469004
30
0
41
1
10
60.954868499515
20
2.18020735030081
30
0
41
1
10
60.9639062993218
20
2.02322118278951
30
0
41
1
10
60.9710914943669
20
1.89442896178397
30
0
41
1
10
60.9854460159985
20
1.6306451541316
30
0
41
1
10
60.9926002553436
20
1.49565236097183
30
0
41
1
10
60.9997639521172
20
1.35755097880983
30
0
0
SPLINE
5
18A
100
AcDbEntity
8
1
62
256
6
ByLayer
370
18
48
1
60
0
100
AcDbSpline
70
4
71
3
72
31
73
27
40
0
40
0
40
0
40
0
40
0.0312499999999999
40
0.0312499999999999
40
0.0624999999999998
40
0.124999999999999
40
0.124999999999999
40
0.249999999999998
40
0.249999999999998
40
0.374999999999997
40
0.374999999999997
40
0.406249999999996
40
0.406249999999996
40
0.437499999999996
40
0.499999999999996
40
0.499999999999996
40
0.624999999999997
40
0.749999999999998
40
0.749999999999998
40
0.781249999999998
40
0.781249999999998
40
0.812499999999999
40
0.812499999999999
40
0.874999999999999
40
0.874999999999999
40
1
40
1
40
1
40
1
41
1
10
61.122508541592
20
1.26508043516392
30
0
41
1
10
61.1206978639617
20
1.30026845883628
30
0
41
1
10
61.1188864138402
20
1.3353288595641
30
0
41
1
10
61.1152765603083
20
1.40487600979134
30
0
41
1
10
61.1098740158353
20
1.5084770123822
30
0
41
1
10
61.1044977263964
20
1.60994374320205
30
0
41
1
10
61.0937445218751
20
1.81007282970472
30
0
41
1
10
61.0865757925659
20
1.93976114616697
30
0
41
1
10
61.0722392239432
20
2.19170439899176
30
0
41
1
10
61.0650717814784
20
2.31395990993076
30
0
41
1
10
61.0560429664221
20
2.46198310449475
30
0
41
1
10
61.0542306207869
20
2.49139201555039
30
0
41
1
10
61.05061203714
20
2.54945637346432
30
0
41
1
10
61.0451929746231
20
2.63542070023848
30
0
41
1
10
61.0397904742164
20
2.71803163159905
30
0
41
1
10
61.029010146105
20
2.878859015476
30
0
41
1
10
61.0147094335051
20
3.08160162791634
30
0
41
1
10
61.0004177732637
20
3.2611386744816
30
0
41
1
10
60.9913833674032
20
3.36589466754509
30
0
41
1
10
60.9895717448765
20
3.38647209500621
30
0
41
1
10
60.9859393559126
20
3.4268700508236
30
0
41
1
10
60.9841228530687
20
3.44664221702021
30
0
41
1
10
60.97869040801
20
3.50449440724407
30
0
41
1
10
60.9750843243712
20
3.54119396389782
30
0
41
1
10
60.9643038545897
20
3.64579388540986
30
0
41
1
10
60.9571704981798
20
3.70821121547431
30
0
41
1
10
60.9500275992706
20
3.76339833947316
30
0
0
SPLINE
5
18B
100
AcDbEntity
8
1
62
256
6
ByLayer
370
18
48
1
60
0
100
AcDbSpline
70
4
71
3
72
10
73
6
40
0
40
0
40
0
40
0
40
0.5
40
0.5
40
1
40
1
40
1
40
1
41
1
10
58.0702149111382
20
-3.03637407166042
30
0
41
1
10
58.0135984566389
20
-3.11960498978769
30
0
41
1
10
57.9570749836328
20
-3.2010503406928
30
0
41
1
10
57.8441728883176
20
-3.36036294124494
30
0
41
1
10
57.7878417847745
20
-3.43815832083459
30
0
41
1
10
57.7316911188859
20
-3.51397736794115
30
0
0
SPLINE
5
18C
100
AcDbEntity
8
1
62
256
6
ByLayer
370
18
48
1
60
0
100
AcDbSpline
70
4
71
3
72
8
73
4
40
0
40
0
40
0
40
0
40
1
40
1
40
1
40
1
41
1
10
57.7316911188859
20
-3.51397736794115
30
0
41
1
10
57.6289518895088
20
-3.46408084451099
30
0
41
1
10
57.5263087618908
20
-3.41229015395484
30
0
41
1
10
57.4236984167544
20
-3.35869431426209
30
0
0
SPLINE
5
18D
100
AcDbEntity
8
1
62
256
6
ByLayer
370
18
48
1
60
0
100
AcDbSpline
70
4
71
3
72
10
73
6
40
0
40
0
40
0
40
0
40
0.5
40
0.5
40
1
40
1
40
1
40
1
41
1
10
57.4236984167544
20
-3.35869431426212
30
0
41
1
10
57.3693628486627
20
-3.25074141128772
30
0
41
1
10
57.3147913518469
20
-3.1425550304576
30
0
41
1
10
57.2053466465986
20
-2.92631244740286
30
0
41
1
10
57.1504662638972
20
-2.81823839544259
30
0
41
1
10
57.0953534827746
20
-2.71024798441533
30
0
0
SPLINE
5
18E
100
AcDbEntity
8
1
62
256
6
ByLayer
370
18
48
1
60
0
100
AcDbSpline
70
4
71
3
72
32
73
28
40
0
40
0
40
0
40
0
40
0.12500000000005
40
0.12500000000005
40
0.187500000000046
40
0.187500000000046
40
0.250000000000042
40
0.250000000000042
40
0.375000000000033
40
0.375000000000033
40
0.437500000000029
40
0.437500000000029
40
0.500000000000025
40
0.500000000000025
40
0.625000000000019
40
0.625000000000019
40
0.687500000000016
40
0.687500000000016
40
0.750000000000012
40
0.750000000000012
40
0.812500000000009
40
0.812500000000009
40
0.875000000000006
40
0.875000000000006
40
0.937500000000003
40
0.937500000000003
40
1
40
1
40
1
40
1
41
1
10
57.0953534827747
20
-2.71024798441556
30
0
41
1
10
57.0868048760589
20
-2.69349746785403
30
0
41
1
10
57.0768319398701
20
-2.67788674315321
30
0
41
1
10
57.0601151679327
20
-2.65587442524145
30
0
41
1
10
57.0542449003651
20
-2.64877512229222
30
0
41
1
10
57.0419229535373
20
-2.63504123618048
30
0
41
1
10
57.0354744672223
20
-2.62841728378504
30
0
41
1
10
57.0156680801809
20
-2.60961761880074
30
0
41
1
10
57.0017317989123
20
-2.59835637566093
30
0
41
1
10
56.9797509652539
20
-2.58335496323903
30
0
41
1
10
56.9722128730317
20
-2.57865944102838
30
0
41
1
10
56.9570603788142
20
-2.57010353053309
30
0
41
1
10
56.9494172274969
20
-2.56622023033111
30
0
41
1
10
56.9262916767634
20
-2.55576811388895
30
0
41
1
10
56.9106164238471
20
-2.55037284752672
30
0
41
1
10
56.8866846548892
20
-2.54505322245916
30
0
41
1
10
56.8787236988203
20
-2.54377230466878
30
0
41
1
10
56.8630520109664
20
-2.54228445865669
30
0
41
1
10
56.8553096883989
20
-2.54206954744109
30
0
41
1
10
56.8400380126391
20
-2.54280366594065
30
0
41
1
10
56.8324494417083
20
-2.5437677187976
30
0
41
1
10
56.8178849350097
20
-2.54696729950217
30
0
41
1
10
56.8109054282192
20
-2.54918967153509
30
0
41
1
10
56.7976084153011
20
-2.55498889689167
30
0
41
1
10
56.7912418694148
20
-2.55860314149632
30
0
41
1
10
56.7795439713835
20
-2.56720729268761
30
0
41
1
10
56.774224306361
20
-2.57216844785961
30
0
41
1
10
56.7694757600621
20
-2.57784389753985
30
0
0
SPLINE
5
18F
100
AcDbEntity
8
1
62
256
6
ByLayer
370
18
48
1
60
0
100
AcDbSpline
70
4
71
3
72
10
73
6
40
0
40
0
40
0
40
0
40
0.5
40
0.5
40
1
40
1
40
1
40
1
41
1
10
56.7694757600619
20
-2.57784389753937
30
0
41
1
10
56.7295303062909
20
-2.62558659573861
30
0
41
1
10
56.6896299655311
20
-2.67216290316415
30
0
41
1
10
56.6099073204117
20
-2.76295993067526
30
0
41
1
10
56.570074131183
20
-2.80717394865056
30
0
41
1
10
56.5303255299251
20
-2.85009590858178
30
0
0
SPLINE
5
190
100
AcDbEntity
8
1
62
256
6
ByLayer
370
18
48
1
60
0
100
AcDbSpline
70
4
71
3
72
10
73
6
40
0
40
0
40
0
40
0
40
0.5
40
0.5
40
1
40
1
40
1
40
1
41
1
10
56.5303255299251
20
-2.85009590858178
30
0
41
1
10
56.4423681180202
20
-2.79646871202678
30
0
41
1
10
56.3542544268387
20
-2.74173875363527
30
0
41
1
10
56.1775398295998
20
-2.63023706233699
30
0
41
1
10
56.0889292497838
20
-2.57347408759114
30
0
41
1
10
56.0000435006045
20
-2.51572860052431
30
0
0
SPLINE
5
191
100
AcDbEntity
8
1
62
256
6
ByLayer
370
18
48
1
60
0
100
AcDbSpline
70
4
71
3
72
8
73
4
40
0
40
0
40
0
40
0
40
1
40
1
40
1
40
1
41
1
10
56.000043500609
20
-2.51572860052303
30
0
41
1
10
55.9318528979194
20
-2.38379299392588
30
0
41
1
10
55.8634354495208
20
-2.2531362514253
30
0
41
1
10
55.7946517846327
20
-2.12387089390899
30
0
0
SPLINE
5
192
100
AcDbEntity
8
1
62
256
6
ByLayer
370
18
48
1
60
0
100
AcDbSpline
70
4
71
3
72
32
73
28
40
0
40
0
40
0
40
0
40
0.125000000000051
40
0.125000000000051
40
0.187500000000048
40
0.187500000000048
40
0.250000000000044
40
0.250000000000044
40
0.375000000000037
40
0.375000000000037
40
0.437500000000032
40
0.437500000000032
40
0.500000000000028
40
0.500000000000028
40
0.625000000000021
40
0.625000000000021
40
0.687500000000017
40
0.687500000000017
40
0.750000000000014
40
0.750000000000014
40
0.81250000000001
40
0.81250000000001
40
0.875000000000007
40
0.875000000000007
40
0.937500000000003
40
0.937500000000003
40
1
40
1
40
1
40
1
41
1
10
55.7946517846327
20
-2.12387089390896
30
0
41
1
10
55.786103111391
20
-2.10780534542923
30
0
41
1
10
55.7761288157914
20
-2.0925118850333
30
0
41
1
10
55.7594071090097
20
-2.07052931804228
30
0
41
1
10
55.7535346987254
20
-2.0633640486071
30
0
41
1
10
55.7412074010326
20
-2.04934985591552
30
0
41
1
10
55.7347552367158
20
-2.04251029249329
30
0
41
1
10
55.7149378692747
20
-2.02286091265319
30
0
41
1
10
55.7009937381334
20
-2.01076289737745
30
0
41
1
10
55.6790014295488
20
-1.99409489850279
30
0
41
1
10
55.6714597360855
20
-1.98877149343034
30
0
41
1
10
55.6563013930838
20
-1.97884003814019
30
0
41
1
10
55.6486557232461
20
-1.97420714341271
30
0
41
1
10
55.6255241054917
20
-1.96131452224719
30
0
41
1
10
55.6098467810791
20
-1.95404089216882
30
0
41
1
10
55.5859160911941
20
-1.9454396324621
30
0
41
1
10
55.5779610343096
20
-1.94299914187991
30
0
41
1
10
55.5622982024043
20
-1.93907501113498
30
0
41
1
10
55.5545608075371
20
-1.93757994551939
30
0
41
1
10
55.5392998457053
20
-1.93561440450102
30
0
41
1
10
55.5317172471865
20
-1.93514669687335
30
0
41
1
10
55.5171668570097
20
-1.93539129781266
30
0
41
1
10
55.5101942562884
20
-1.93609178842848
30
0
41
1
10
55.4969103871315
20
-1.93875002712693
30
0
41
1
10
55.4905502787657
20
-1.94073111872612
30
0
41
1
10
55.4788626775834
20
-1.94603279187905
30
0
41
1
10
55.4735470964065
20
-1.94933091759071
30
0
41
1
10
55.4688015323897
20
-1.9533317785332
30
0
0
SPLINE
5
193
100
AcDbEntity
8
1
62
256
6
ByLayer
370
18
48
1
60
0
100
AcDbSpline
70
4
71
3
72
8
73
4
40
0
40
0
40
0
40
0
40
1
40
1
40
1
40
1
41
1
10
55.4688015323885
20
-1.95333177853064
30
0
41
1
10
55.4220718623387
20
-1.99272834152978
30
0
41
1
10
55.3754078286719
20
-2.03013260030866
30
0
41
1
10
55.3287984947739
20
-2.06552027824873
30
0
0
SPLINE
5
194
100
AcDbEntity
8
1
62
256
6
ByLayer
370
18
48
1
60
0
100
AcDbSpline
70
4
71
3
72
12
73
8
40
0
40
0
40
0
40
0
40
0.250000000000009
40
0.250000000000009
40
0.500000000000018
40
0.500000000000018
40
1
40
1
40
1
40
1
41
1
10
55.328798494774
20
-2.06552027824856
30
0
41
1
10
55.2663094112261
20
-2.0224339653102
30
0
41
1
10
55.2038445795387
20
-1.97904385806058
30
0
41
1
10
55.078694957095
20
-1.89197316180909
30
0
41
1
10
55.0159960861878
20
-1.84830995427234
30
0
41
1
10
54.8277856100726
20
-1.71665781866287
30
0
41
1
10
54.7020611030928
20
-1.62812026740568
30
0
41
1
10
54.5760305971979
20
-1.53890790163263
30
0
0
SPLINE
5
195
100
AcDbEntity
8
1
62
256
6
ByLayer
370
18
48
1
60
0
100
AcDbSpline
70
4
71
3
72
8
73
4
40
0
40
0
40
0
40
0
40
1
40
1
40
1
40
1
41
1
10
54.5760305972058
20
-1.53890790163251
30
0
41
1
10
54.5487088686604
20
-1.49208898565831
30
0
41
1
10
54.521337620996
20
-1.44566846025813
30
0
41
1
10
54.4939070654301
20
-1.39965720779557
30
0
0
SPLINE
5
196
100
AcDbEntity
8
1
62
256
6
ByLayer
370
18
48
1
60
0
100
AcDbSpline
70
4
71
3
72
32
73
28
40
0
40
0
40
0
40
0
40
0.124999999999953
40
0.124999999999953
40
0.187499999999957
40
0.187499999999957
40
0.249999999999961
40
0.249999999999961
40
0.374999999999969
40
0.374999999999969
40
0.437499999999973
40
0.437499999999973
40
0.499999999999976
40
0.499999999999976
40
0.624999999999983
40
0.624999999999983
40
0.687499999999986
40
0.687499999999986
40
0.749999999999989
40
0.749999999999989
40
0.812499999999991
40
0.812499999999991
40
0.874999999999994
40
0.874999999999994
40
0.937499999999997
40
0.937499999999997
40
1
40
1
40
1
40
1
41
1
10
54.4939070654289
20
-1.39965720779278
30
0
41
1
10
54.4853598341502
20
-1.38532031930797
30
0
41
1
10
54.4753867417054
20
-1.37133765760504
30
0
41
1
10
54.4586656225127
20
-1.3508125769053
30
0
41
1
10
54.4527931568981
20
-1.34404672287192
30
0
41
1
10
54.4404651629318
20
-1.33066228981406
30
0
41
1
10
54.4340119476169
20
-1.32405124078588
30
0
41
1
10
54.414191301744
20
-1.30482698032989
30
0
41
1
10
54.4002445031334
20
-1.29267589066407
30
0
41
1
10
54.3782478198119
20
-1.27541935726458
30
0
41
1
10
54.370704497942
20
-1.26981186045546
30
0
41
1
10
54.355543191199
20
-1.25914552708244
30
0
41
1
10
54.347896192275
20
-1.25406167686001
30
0
41
1
10
54.324761137349
20
-1.23955925590377
30
0
41
1
10
54.3090822558511
20
-1.23087536090446
30
0
41
1
10
54.2851506680911
20
-1.21954691847495
30
0
41
1
10
54.2771974792212
20
-1.21610442841291
30
0
41
1
10
54.2615374747851
20
-1.20999915543527
30
0
41
1
10
54.2538017809918
20
-1.20732212132234
30
0
41
1
10
54.2385447382609
20
-1.20278905781913
30
0
41
1
10
54.2309644193693
20
-1.20092338557953
30
0
41
1
10
54.2164204353369
20
-1.19820757812713
30
0
41
1
10
54.209451134455
20
-1.19734731275466
30
0
41
1
10
54.1961738570362
20
-1.19670804639878
30
0
41
1
10
54.1898170842613
20
-1.19693707463438
30
0
41
1
10
54.1781361138906
20
-1.19861217982836
30
0
41
1
10
54.1728235047362
20
-1.2000437129183
30
0
41
1
10
54.1680804167334
20
-1.20212069312387
30
0
0
SPLINE
5
197
100
AcDbEntity
8
1
62
256
6
ByLayer
370
18
48
1
60
0
100
AcDbSpline
70
4
71
3
72
12
73
8
40
0
40
0
40
0
40
0
40
0.500000000000022
40
0.500000000000022
40
0.750000000000011
40
0.750000000000011
40
1
40
1
40
1
40
1
41
1
10
54.0000000000001
20
-1.12867676541899
30
0
41
1
10
53.9232925069558
20
-1.05307218212982
30
0
41
1
10
53.846379864632
20
-0.97859815300626
30
0
41
1
10
53.7305893121934
20
-0.868689985825341
30
0
41
1
10
53.6919892492385
20
-0.832258892602226
30
0
41
1
10
53.6142290296037
20
-0.760588432445729
30
0
41
1
10
53.5750167289702
20
-0.725422320123869
30
0
41
1
10
53.5353850503502
20
-0.691028687052864
30
0
0
SPLINE
5
198
100
AcDbEntity
8
1
62
256
6
ByLayer
370
18
48
1
60
0
100
AcDbSpline
70
4
71
3
72
14
73
10
40
0
40
0
40
0
40
0
40
0.499999999999969
40
0.499999999999969
40
0.749999999999954
40
0.749999999999954
40
0.874999999999977
40
0.874999999999977
40
1
40
1
40
1
40
1
41
1
10
53.5353850503502
20
-0.691028687052864
30
0
41
1
10
53.4661941616317
20
-0.630982629926109
30
0
41
1
10
53.3920971835266
20
-0.575584464440283
30
0
41
1
10
53.2755381497931
20
-0.496230856552614
30
0
41
1
10
53.2357690485684
20
-0.470423713261198
30
0
41
1
10
53.1748806238465
20
-0.432401406557233
30
0
41
1
10
53.1543605907662
20
-0.41983306127554
30
0
41
1
10
53.1132243891912
20
-0.395069185650669
30
0
41
1
10
53.092573450665
20
-0.3828517223061
30
0
41
1
10
53.0718507829312
20
-0.37078084853033
30
0
0
SPLINE
5
199
100
AcDbEntity
8
1
62
256
6
ByLayer
370
18
48
1
60
0
100
AcDbSpline
70
4
71
3
72
94
73
90
40
0
40
0
40
0
40
0
40
0.031250000000005
40
0.031250000000005
40
0.0625000000000099
40
0.0625000000000099
40
0.0781250000000124
40
0.0781250000000124
40
0.0937500000000149
40
0.0937500000000149
40
0.109375000000017
40
0.109375000000017
40
0.12500000000002
40
0.12500000000002
40
0.156250000000022
40
0.156250000000022
40
0.187500000000025
40
0.187500000000025
40
0.203125000000026
40
0.203125000000026
40
0.218750000000027
40
0.218750000000027
40
0.234375000000028
40
0.234375000000028
40
0.250000000000029
40
0.250000000000029
40
0.26562500000003
40
0.26562500000003
40
0.281250000000031
40
0.281250000000031
40
0.312500000000036
40
0.312500000000036
40
0.343750000000041
40
0.343750000000041
40
0.359375000000042
40
0.359375000000042
40
0.375000000000044
40
0.375000000000044
40
0.406250000000046
40
0.406250000000046
40
0.437500000000048
40
0.437500000000048
40
0.46875000000005
40
0.46875000000005
40
0.48437500000005
40
0.48437500000005
40
0.50000000000005
40
0.50000000000005
40
0.51562500000005
40
0.51562500000005
40
0.53125000000005
40
0.53125000000005
40
0.562500000000049
40
0.562500000000049
40
0.593750000000049
40
0.593750000000049
40
0.609375000000048
40
0.609375000000048
40
0.625000000000046
40
0.625000000000046
40
0.640625000000045
40
0.640625000000045
40
0.656250000000043
40
0.656250000000043
40
0.68750000000004
40
0.68750000000004
40
0.718750000000037
40
0.718750000000037
40
0.750000000000034
40
0.750000000000034
40
0.781250000000031
40
0.781250000000031
40
0.79687500000003
40
0.79687500000003
40
0.812500000000028
40
0.812500000000028
40
0.843750000000025
40
0.843750000000025
40
0.875000000000023
40
0.875000000000023
40
0.89062500000002
40
0.89062500000002
40
0.906250000000017
40
0.906250000000017
40
0.937500000000011
40
0.937500000000011
40
0.968750000000006
40
0.968750000000006
40
1
40
1
40
1
40
1
41
1
10
53.0718507829312
20
-0.37078084853033
30
0
41
1
10
52.9494659612125
20
-0.299492163404921
30
0
41
1
10
52.8274193437679
20
-0.22804710473676
30
0
41
1
10
52.5839586979546
20
-0.0849154577171305
30
0
41
1
10
52.4625339268782
20
-0.013248217259644
30
0
41
1
10
52.2807397765637
20
0.0942031279032278
30
0
41
1
10
52.2202011919161
20
0.130015968384726
30
0
41
1
10
52.0992115386172
20
0.201578333748756
30
0
41
1
10
52.0387321663495
20
0.237278561538574
30
0
41
1
10
51.9175982363454
20
0.308165765766887
30
0
41
1
10
51.8569956214285
20
0.343442752685377
30
0
41
1
10
51.7358793634059
20
0.413939521258925
30
0
41
1
10
51.6753534683359
20
0.449137994207945
30
0
41
1
10
51.4938046946225
20
0.554466899197081
30
0
41
1
10
51.3727664096455
20
0.624256028062803
30
0
41
1
10
51.1306382246543
20
0.762902662586725
30
0
41
1
10
51.0095530473456
20
0.831767430229917
30
0
41
1
10
50.8277137922058
20
0.934069967983561
30
0
41
1
10
50.7670663691163
20
0.968006618374005
30
0
41
1
10
50.6456797689774
20
1.03551225423561
30
0
41
1
10
50.58495329578
20
1.06910198491971
30
0
41
1
10
50.4632971393107
20
1.13573010269798
30
0
41
1
10
50.4023293011163
20
1.16870646288413
30
0
41
1
10
50.2802475997065
20
1.23420324160063
30
0
41
1
10
50.2191548881044
20
1.26675779230811
30
0
41
1
10
50.0968346117594
20
1.33142627584789
30
0
41
1
10
50.0356240649749
20
1.3635265315115
30
0
41
1
10
49.91345629591
20
1.42699897510457
30
0
41
1
10
49.8524486387915
20
1.45840255188307
30
0
41
1
10
49.6696502092712
20
1.55161514357042
30
0
41
1
10
49.54809569883
20
1.61244380523957
30
0
41
1
10
49.305472278699
20
1.73127571343002
30
0
41
1
10
49.1844012076497
20
1.78927546419362
30
0
41
1
10
49.0030340017353
20
1.87397245426268
30
0
41
1
10
48.9425978146602
20
1.90179175815274
30
0
41
1
10
48.8215268648792
20
1.95630172797752
30
0
41
1
10
48.7609415264114
20
1.98306041950994
30
0
41
1
10
48.5792664148036
20
2.06215613147839
30
0
41
1
10
48.458120857113
20
2.11313636703738
30
0
41
1
10
48.2158536539765
20
2.21168637463435
30
0
41
1
10
48.0947198890042
20
2.25923901037172
30
0
41
1
10
47.8523385902584
20
2.35071467790715
30
0
41
1
10
47.7311279162965
20
2.39467391597563
30
0
41
1
10
47.5489430018567
20
2.45754016751923
30
0
41
1
10
47.4881503693344
20
2.47798094697501
30
0
41
1
10
47.3663283577055
20
2.51772761701866
30
0
41
1
10
47.3052729135503
20
2.53700958391195
30
0
41
1
10
47.1829888359453
20
2.57450771574671
30
0
41
1
10
47.1217314779973
20
2.5927587705248
30
0
41
1
10
46.9994787509225
20
2.62809098981333
30
0
41
1
10
46.9384494520519
20
2.64518032484639
30
0
41
1
10
46.755602115051
20
2.69468701579373
30
0
41
1
10
46.6340307578343
20
2.72535103494312
30
0
41
1
10
46.3914885974994
20
2.78199468163246
30
0
41
1
10
46.2705103695174
20
2.80796704482535
30
0
41
1
10
46.089372961134
20
2.84333246542283
30
0
41
1
10
46.0290489757615
20
2.85452214724506
30
0
41
1
10
45.9084935532845
20
2.87569216210693
30
0
41
1
10
45.8482538434306
20
2.88566572093185
30
0
41
1
10
45.7275853296032
20
2.90428321613032
30
0
41
1
10
45.6671955036777
20
2.91294933614535
30
0
41
1
10
45.546479960446
20
2.92908187929444
30
0
41
1
10
45.4861285647208
20
2.93653615774005
30
0
41
1
10
45.3050578963269
20
2.95705300759479
30
0
41
1
10
45.1843699659759
20
2.96828786412084
30
0
41
1
10
44.9429944345433
20
2.98580965846253
30
0
41
1
10
44.8223023735745
20
2.99209474326514
30
0
41
1
10
44.5808072515476
20
2.99960425166483
30
0
41
1
10
44.4599801301734
20
3.00081461633283
30
0
41
1
10
44.2174995605511
20
2.99811470993453
30
0
41
1
10
44.0958316716324
20
2.99422681719491
30
0
41
1
10
43.9129629224376
20
2.98454427197049
30
0
41
1
10
43.8519256898111
20
2.9806751167383
30
0
41
1
10
43.729647190666
20
2.97165399925225
30
0
41
1
10
43.6683925224935
20
2.96649960896005
30
0
41
1
10
43.4850958894014
20
2.94916730618459
30
0
41
1
10
43.3633073505492
20
2.93509520448424
30
0
41
1
10
43.1204545723282
20
2.90196449530316
30
0
41
1
10
42.999376082511
20
2.88290988985182
30
0
41
1
10
42.8181370409741
20
2.85066303442005
30
0
41
1
10
42.7577935068015
20
2.83929756623891
30
0
41
1
10
42.6369581449408
20
2.81551311723857
30
0
41
1
10
42.5764866324145
20
2.80308687473089
30
0
41
1
10
42.3952247909214
20
2.76403568665074
30
0
41
1
10
42.274591893142
20
2.73562274740155
30
0
41
1
10
42.0333689705319
20
2.67428450262605
30
0
41
1
10
41.912796033866
20
2.64135175911031
30
0
41
1
10
41.6716467390914
20
2.5710052045292
30
0
41
1
10
41.5510750169825
20
2.53358445455072
30
0
41
1
10
41.4303840296325
20
2.49400960080232
30
0
0
SPLINE
5
19A
100
AcDbEntity
8
1
62
256
6
ByLayer
370
18
48
1
60
0
100
AcDbSpline
70
4
71
3
72
83
73
79
40
0
40
0
40
0
40
0
40
0.0156250000000032
40
0.0156250000000032
40
0.0312500000000063
40
0.0312500000000063
40
0.0625000000000104
40
0.0625000000000104
40
0.0937500000000144
40
0.0937500000000144
40
0.109375000000016
40
0.109375000000016
40
0.125000000000018
40
0.125000000000018
40
0.156250000000025
40
0.156250000000025
40
0.187500000000031
40
0.187500000000031
40
0.203125000000033
40
0.203125000000033
40
0.218750000000035
40
0.218750000000035
40
0.234375000000037
40
0.234375000000037
40
0.250000000000039
40
0.250000000000039
40
0.312500000000047
40
0.312500000000047
40
0.34375000000005
40
0.34375000000005
40
0.35937500000005
40
0.35937500000005
40
0.375000000000051
40
0.375000000000051
40
0.43750000000005
40
0.43750000000005
40
0.45312500000005
40
0.45312500000005
40
0.46875000000005
40
0.46875000000005
40
0.500000000000053
40
0.500000000000053
40
0.562500000000057
40
0.562500000000057
40
0.593750000000058
40
0.593750000000058
40
0.62500000000006
40
0.62500000000006
40
0.656250000000062
40
0.656250000000062
40
0.687500000000064
40
0.687500000000064
40
0.695312500000063
40
0.695312500000063
40
0.703125000000062
40
0.703125000000062
40
0.718750000000059
40
0.718750000000059
40
0.750000000000049
40
0.750000000000049
40
0.781250000000039
40
0.781250000000039
40
0.796875000000036
40
0.796875000000036
40
0.812500000000032
40
0.812500000000032
40
0.87500000000002
40
0.87500000000002
40
0.906250000000014
40
0.906250000000014
40
0.921875000000012
40
0.921875000000012
40
0.93750000000001
40
0.93750000000001
40
0.953125000000008
40
0.953125000000008
40
0.968750000000006
40
1
40
1
40
1
40
1
41
1
10
39.3786562305332
20
2.75995372465488
30
0
41
1
10
39.4502537999485
20
2.74346115233396
30
0
41
1
10
39.521726209574
20
2.72615651417004
30
0
41
1
10
39.6645212988097
20
2.69000379298333
30
0
41
1
10
39.7358770669403
20
2.67118192062566
30
0
41
1
10
39.9498329469647
20
2.61252188938118
30
0
41
1
10
40.0922876799225
20
2.57046300952649
30
0
41
1
10
40.3769543473068
20
2.48062523194284
30
0
41
1
10
40.5191531514722
20
2.43283399266531
30
0
41
1
10
40.7323351586624
20
2.35691825259085
30
0
41
1
10
40.8033808137527
20
2.33091242637616
30
0
41
1
10
40.9454432839989
20
2.27749330378108
30
0
41
1
10
41.0164500860848
20
2.25006788387634
30
0
41
1
10
41.2295561989241
20
2.16581166205108
30
0
41
1
10
41.3718348992666
20
2.10711370371672
30
0
41
1
10
41.6570322321078
20
1.9849553862247
30
0
41
1
10
41.7999466741546
20
1.92149275910256
30
0
41
1
10
42.0148464310883
20
1.82275799105088
30
0
41
1
10
42.0865650889907
20
1.78925184882033
30
0
41
1
10
42.2301902912363
20
1.72105880734566
30
0
41
1
10
42.3021748884223
20
1.68633258931988
30
0
41
1
10
42.4458345098353
20
1.61596098012538
30
0
41
1
10
42.5175281770687
20
1.58030720188159
30
0
41
1
10
42.660667872202
20
1.50810254807854
30
0
41
1
10
42.7321147460775
20
1.47155229693811
30
0
41
1
10
43.089266023712
20
1.28739998132161
30
0
41
1
10
43.3741533292151
20
1.13474009835639
30
0
41
1
10
43.8007175081323
20
0.89865336784311
30
0
41
1
10
43.942793068206
20
0.818796398507857
30
0
41
1
10
44.1558065116267
20
0.697368424305665
30
0
41
1
10
44.2268007807059
20
0.656628846786106
30
0
41
1
10
44.3689145921922
20
0.574868707967056
30
0
41
1
10
44.4400331977816
20
0.533847018059873
30
0
41
1
10
44.7959569959353
20
0.328072873884565
30
0
41
1
10
45.0817789634492
20
0.161385135965844
30
0
41
1
10
45.4407694719311
20
-0.049058289897431
30
0
41
1
10
45.5127280508947
20
-0.091303512133436
30
0
41
1
10
45.6563035070764
20
-0.175582588228337
30
0
41
1
10
45.7279342013494
20
-0.217676024782889
30
0
41
1
10
45.9425238237101
20
-0.343517470827464
30
0
41
1
10
46.0853646297092
20
-0.42650000055275
30
0
41
1
10
46.5130506016296
20
-0.67313922120286
30
0
41
1
10
46.7971967734698
20
-0.834254502082331
30
0
41
1
10
47.2225449883263
20
-1.06999639128713
30
0
41
1
10
47.3641316743992
20
-1.14766130084143
30
0
41
1
10
47.647811443892
20
-1.29970781750862
30
0
41
1
10
47.7898633438102
20
-1.37416237385486
30
0
41
1
10
48.0744153227988
20
-1.51990324659394
30
0
41
1
10
48.21692088468
20
-1.59118079148792
30
0
41
1
10
48.502467020798
20
-1.73039941925458
30
0
41
1
10
48.6454962160079
20
-1.7983562388302
30
0
41
1
10
48.8247440585183
20
-1.88098513355612
30
0
41
1
10
48.8606119567212
20
-1.89740171361547
30
0
41
1
10
48.9324213581603
20
-1.9299628728983
30
0
41
1
10
48.9683700090835
20
-1.94610410765768
30
0
41
1
10
49.0761097124035
20
-1.99395248788787
30
0
41
1
10
49.1478562738746
20
-2.02515677924768
30
0
41
1
10
49.3627877716988
20
-2.11681546255599
30
0
41
1
10
49.5057045606427
20
-2.17526194499601
30
0
41
1
10
49.7909377564809
20
-2.28677106055
30
0
41
1
10
49.9332501730387
20
-2.33983928839547
30
0
41
1
10
50.1463264101846
20
-2.41535557882355
30
0
41
1
10
50.217287426744
20
-2.43984477789473
30
0
41
1
10
50.3591082451572
20
-2.48742487668824
30
0
41
1
10
50.429954847204
20
-2.51052752132671
30
0
41
1
10
50.7842704485054
20
-2.62221865874977
30
0
41
1
10
51.0681044506049
20
-2.69931327993385
30
0
41
1
10
51.4948287788183
20
-2.79635168502938
30
0
41
1
10
51.6372281772075
20
-2.8255875148856
30
0
41
1
10
51.85117396072
20
-2.86461553584863
30
0
41
1
10
51.9225264318321
20
-2.87683043906384
30
0
41
1
10
52.0654214523305
20
-2.89958942851499
30
0
41
1
10
52.1370267515632
20
-2.91010448474827
30
0
41
1
10
52.2805291716217
20
-2.929420633658
30
0
41
1
10
52.3524536414673
20
-2.93823349752725
30
0
41
1
10
52.496358156468
20
-2.95411359492238
30
0
41
1
10
52.7121763425819
20
-2.97530426057582
30
0
41
1
10
52.9279613269606
20
-2.98861566439396
30
0
41
1
10
53.0718507829312
20
-2.99396090215242
30
0
0
SPLINE
5
19B
100
AcDbEntity
8
1
62
256
6
ByLayer
370
18
48
1
60
0
100
AcDbSpline
70
4
71
3
72
16
73
12
40
0
40
0
40
0
40
0
40
0.25
40
0.25
40
0.5
40
0.5
40
0.75
40
0.75
40
0.875
40
0.875
40
1
40
1
40
1
40
1
41
1
10
53.0718507829312
20
-2.99396090215242
30
0
41
1
10
53.1120964660452
20
-2.99545595780847
30
0
41
1
10
53.15201175337
20
-2.99934108989416
30
0
41
1
10
53.231071588526
20
-3.01179028317566
30
0
41
1
10
53.2702169436553
20
-3.02035236333964
30
0
41
1
10
53.3476687771134
20
-3.04228819625402
30
0
41
1
10
53.3859755677561
20
-3.05565736981663
30
0
41
1
10
53.4427735915481
20
-3.07966465093031
30
0
41
1
10
53.4616380143654
20
-3.08835135703356
30
0
41
1
10
53.498871703447
20
-3.10701238746387
30
0
41
1
10
53.5172495192007
20
-3.11698627710601
30
0
41
1
10
53.5353850503554
20
-3.12764175571897
30
0
0
SPLINE
5
19C
100
AcDbEntity
8
1
62
256
6
ByLayer
370
18
48
1
60
0
100
AcDbSpline
70
4
71
3
72
32
73
28
40
0
40
0
40
0
40
0
40
0.125000000000032
40
0.125000000000032
40
0.18750000000002
40
0.18750000000002
40
0.250000000000007
40
0.250000000000007
40
0.374999999999984
40
0.374999999999984
40
0.437500000000009
40
0.437500000000009
40
0.500000000000035
40
0.500000000000035
40
0.625000000000085
40
0.625000000000085
40
0.687500000000071
40
0.687500000000071
40
0.750000000000057
40
0.750000000000057
40
0.812500000000042
40
0.812500000000042
40
0.875000000000028
40
0.875000000000028
40
0.937500000000014
40
0.937500000000014
40
1
40
1
40
1
40
1
41
1
10
59.6967744365909
20
-3.33118699319462
30
0
41
1
10
59.6882358786457
20
-3.31633986129319
30
0
41
1
10
59.6782725954485
20
-3.30312086213925
30
0
41
1
10
59.6615667017346
20
-3.28529239379119
30
0
41
1
10
59.6556994722686
20
-3.27968915082923
30
0
41
1
10
59.6433820003641
20
-3.26914656766357
30
0
41
1
10
59.6369337450514
20
-3.2642164406858
30
0
41
1
10
59.6171272503997
20
-3.25069235078306
30
0
41
1
10
59.6031889984772
20
-3.24323446138348
30
0
41
1
10
59.5812018093959
20
-3.2343820372206
30
0
41
1
10
59.5736601027531
20
-3.23181949230488
30
0
41
1
10
59.5584995668577
20
-3.22760518384311
30
0
41
1
10
59.5508525090366
20
-3.22593845703679
30
0
41
1
10
59.5277157432746
20
-3.2222815978883
30
0
41
1
10
59.5120336689336
20
-3.22160693336397
30
0
41
1
10
59.4880935313176
20
-3.2237384823253
30
0
41
1
10
59.4801329756773
20
-3.22497690209087
30
0
41
1
10
59.4644624769945
20
-3.22854235729434
30
0
41
1
10
59.4567217732906
20
-3.2308711030166
30
0
41
1
10
59.4414554609756
20
-3.23673434708863
30
0
41
1
10
59.4338706889459
20
-3.24030513071276
30
0
41
1
10
59.4193196426609
20
-3.24864022533581
30
0
41
1
10
59.4123479352657
20
-3.25339221912901
30
0
41
1
10
59.3990680765135
20
-3.26416808210993
30
0
41
1
10
59.3927111103629
20
-3.27024918488249
30
0
41
1
10
59.3810323805256
20
-3.28358055724058
30
0
41
1
10
59.3757217900817
20
-3.29079612629326
30
0
41
1
10
59.3709811710488
20
-3.29860621909583
30
0
0
SPLINE
5
19D
100
AcDbEntity
8
1
62
256
6
ByLayer
370
18
48
1
60
0
100
AcDbSpline
70
4
71
3
72
10
73
6
40
0
40
0
40
0
40
0
40
0.5
40
0.5
40
1
40
1
40
1
40
1
41
1
10
59.3709811710488
20
-3.2986062190958
30
0
41
1
10
59.3012695932704
20
-3.41345491039118
30
0
41
1
10
59.2316741746997
20
-3.5268146739337
30
0
41
1
10
59.0928088576322
20
-3.75020337615453
30
0
41
1
10
59.0235882957923
20
-3.86015743202952
30
0
41
1
10
58.9546584147314
20
-3.96814036917428
30
0
0
SPLINE
5
19E
100
AcDbEntity
8
1
62
256
6
ByLayer
370
18
48
1
60
0
100
AcDbSpline
70
4
71
3
72
8
73
4
40
0
40
0
40
0
40
0
40
1
40
1
40
1
40
1
41
1
10
58.8318713043754
20
-3.94585156144385
30
0
41
1
10
58.8727920565847
20
-3.95366409728484
30
0
41
1
10
58.9137198635808
20
-3.96109394742751
30
0
41
1
10
58.9546584147314
20
-3.96814036917428
30
0
0
SPLINE
5
19F
100
AcDbEntity
8
1
62
256
6
ByLayer
370
18
48
1
60
0
100
AcDbSpline
70
4
71
3
72
10
73
6
40
0
40
0
40
0
40
0
40
0.5
40
0.5
40
1
40
1
40
1
40
1
41
1
10
58.8318713043755
20
-3.94585156144385
30
0
41
1
10
58.7599012455375
20
-3.81160920494972
30
0
41
1
10
58.6876243465156
20
-3.67566467551109
30
0
41
1
10
58.5422833473386
20
-3.4005848406542
30
0
41
1
10
58.4693748909802
20
-3.26173070318586
30
0
41
1
10
58.3960603223588
20
-3.12157727095172
30
0
0
SPLINE
5
1A0
100
AcDbEntity
8
1
62
256
6
ByLayer
370
18
48
1
60
0
100
AcDbSpline
70
4
71
3
72
32
73
28
40
0
40
0
40
0
40
0
40
0.124999999999937
40
0.124999999999937
40
0.187499999999935
40
0.187499999999935
40
0.249999999999933
40
0.249999999999933
40
0.374999999999931
40
0.374999999999931
40
0.43749999999993
40
0.43749999999993
40
0.499999999999929
40
0.499999999999929
40
0.625000000000007
40
0.625000000000007
40
0.687500000000006
40
0.687500000000006
40
0.750000000000004
40
0.750000000000004
40
0.812500000000003
40
0.812500000000003
40
0.875000000000002
40
0.875000000000002
40
0.937500000000001
40
0.937500000000001
40
1
40
1
40
1
40
1
41
1
10
58.3960603223587
20
-3.12157727095163
30
0
41
1
10
58.3875200796623
20
-3.10525112529572
30
0
41
1
10
58.3775585613897
20
-3.09035572862464
30
0
41
1
10
58.3608625231262
20
-3.06976911412485
30
0
41
1
10
58.3549997711582
20
-3.06320506425305
30
0
41
1
10
58.3426937513018
20
-3.05065907451549
30
0
41
1
10
58.3362534056123
20
-3.04468757721418
30
0
41
1
10
58.3164706054509
20
-3.02797803517416
30
0
41
1
10
58.3025494346407
20
-3.0182967988824
30
0
41
1
10
58.2805858317681
20
-3.00595453935648
30
0
41
1
10
58.2730515722172
20
-3.00219770247463
30
0
41
1
10
58.2579029596437
20
-2.99558596085112
30
0
41
1
10
58.2502606429524
20
-2.99271171560917
30
0
41
1
10
58.2271332482343
20
-2.98540418894373
30
0
41
1
10
58.2114506980352
20
-2.98225947422506
30
0
41
1
10
58.1875010945819
20
-2.98060861507619
30
0
41
1
10
58.1795278067268
20
-2.98058720137152
30
0
41
1
10
58.1638377819118
20
-2.98166620212624
30
0
41
1
10
58.156086886963
20
-2.98276315676154
30
0
41
1
10
58.140800006864
20
-2.98618471703142
30
0
41
1
10
58.1332045825637
20
-2.98853587529695
30
0
41
1
10
58.1186283863922
20
-2.99451556438592
30
0
41
1
10
58.1116450056492
20
-2.99813004387053
30
0
41
1
10
58.0983438681904
20
-3.00671627411782
30
0
41
1
10
58.0919773404432
20
-3.01173670636027
30
0
41
1
10
58.0802798253904
20
-3.0230935629443
30
0
41
1
10
58.0749615339369
20
-3.02939613959043
30
0
41
1
10
58.0702149111382
20
-3.03637407166039
30
0
0
SPLINE
5
1A1
100
AcDbEntity
8
1
62
256
6
ByLayer
370
18
48
1
60
0
100
AcDbSpline
70
4
71
3
72
37
73
33
40
0
40
0
40
0
40
0
40
0.0643473231341925
40
0.0643473231341925
40
0.149406657394739
40
0.149406657394739
40
0.170671490959875
40
0.170671490959875
40
0.191936324525012
40
0.191936324525012
40
0.234465991655279
40
0.234465991655279
40
0.319525325915808
40
0.319525325915808
40
0.404584660176335
40
0.404584660176335
40
0.447114327306599
40
0.447114327306599
40
0.489643994436864
40
0.489643994436864
40
0.659762662957913
40
0.659762662957913
40
0.744821997218435
40
0.744821997218435
40
0.787351664348696
40
0.787351664348696
40
0.829881331478957
40
0.829881331478957
40
0.872410998609218
40
0.872410998609218
40
0.914940665739479
40
1
40
1
40
1
40
1
41
1
10
48.0361136444577
20
3.00000045121405
30
0
41
1
10
48.1438316044549
20
3.00000156701657
30
0
41
1
10
48.2516862328912
20
2.99801966468465
30
0
41
1
10
48.5024670207981
20
2.98876472518114
30
0
41
1
10
48.645496216008
20
2.97998943929494
30
0
41
1
10
48.8247440585185
20
2.96453676633769
30
0
41
1
10
48.8606119567215
20
2.96122048006919
30
0
41
1
10
48.9324213581606
20
2.95414398965116
30
0
41
1
10
48.9683700090837
20
2.95038422036745
30
0
41
1
10
49.0761097124037
20
2.93848305255261
30
0
41
1
10
49.1478562738747
20
2.92970510770954
30
0
41
1
10
49.3627877716988
20
2.90085137424339
30
0
41
1
10
49.5057045606427
20
2.87827132980527
30
0
41
1
10
49.7909377564807
20
2.82660413571568
30
0
41
1
10
49.9332501730386
20
2.79751567137805
30
0
41
1
10
50.1463264101844
20
2.74905517935162
30
0
41
1
10
50.2172874267437
20
2.73209688895344
30
0
41
1
10
50.359108245157
20
2.69658605148402
30
0
41
1
10
50.4299548472038
20
2.67802230248367
30
0
41
1
10
50.784270448505
20
2.58147466915057
30
0
41
1
10
51.0681044506046
20
2.4924813309766
30
0
41
1
10
51.4948287788181
20
2.341841457643
30
0
41
1
10
51.6372281772073
20
2.28875254181159
30
0
41
1
10
51.8511739607199
20
2.20483541960439
30
0
41
1
10
51.922526431832
20
2.17612306286503
30
0
41
1
10
52.0654214523305
20
2.11733778626964
30
0
41
1
10
52.1370267515631
20
2.08734528240831
30
0
41
1
10
52.2805291716217
20
2.0261340747104
30
0
41
1
10
52.3524536414675
20
1.99487099030046
30
0
41
1
10
52.4963581564681
20
1.93119250207869
30
0
41
1
10
52.7121763425819
20
1.83400181975455
30
0
41
1
10
52.9279613269607
20
1.73192129197798
30
0
41
1
10
53.0718507829312
20
1.66174873469495
30
0
0
SPLINE
5
1A2
100
AcDbEntity
8
1
62
256
6
ByLayer
370
18
48
1
60
0
100
AcDbSpline
70
4
71
3
72
16
73
12
40
0
40
0
40
0
40
0
40
0.249999999999985
40
0.249999999999985
40
0.49999999999997
40
0.49999999999997
40
0.749999999999954
40
0.749999999999954
40
0.874999999999977
40
0.874999999999977
40
1
40
1
40
1
40
1
41
1
10
53.0718507829312
20
1.66174873469495
30
0
41
1
10
53.1120964660452
20
1.6421215668482
30
0
41
1
10
53.15201175337
20
1.62406169662429
30
0
41
1
10
53.231071588526
20
1.59082341654292
30
0
41
1
10
53.2702169436552
20
1.57564451143207
30
0
41
1
10
53.3476687771134
20
1.54818018753977
30
0
41
1
10
53.385975567756
20
1.53589128271156
30
0
41
1
10
53.442773591548
20
1.51987620357696
30
0
41
1
10
53.4616380143653
20
1.51493408532238
30
0
41
1
10
53.4988717034469
20
1.50601060670121
30
0
41
1
10
53.5172495192007
20
1.5020249222101
30
0
41
1
10
53.5353850503554
20
1.49856036266092
30
0
0
SPLINE
5
1A3
100
AcDbEntity
8
1
62
256
6
ByLayer
370
18
48
1
60
0
100
AcDbSpline
70
4
71
3
72
12
73
8
40
0
40
0
40
0
40
0
40
0.249999999999986
40
0.249999999999986
40
0.499999999999973
40
0.499999999999973
40
1
40
1
40
1
40
1
41
1
10
53.5353850503502
20
1.49856036266934
30
0
41
1
10
53.5728493602699
20
1.49140328899026
30
0
41
1
10
53.6103749397926
20
1.48411580789326
30
0
41
1
10
53.6855733708597
20
1.46936807931615
30
0
41
1
10
53.7232648354085
20
1.46195724394846
30
0
41
1
10
53.8361237785711
20
1.43840088083743
30
0
41
1
10
53.9109849583579
20
1.42068836857044
30
0
41
1
10
53.9855318663223
20
1.40098182784578
30
0
0
SPLINE
5
1A4
100
AcDbEntity
8
1
62
256
6
ByLayer
370
18
48
1
60
0
100
AcDbSpline
70
4
71
3
72
12
73
8
40
0
40
0
40
0
40
0
40
0.5
40
0.5
40
0.75
40
0.75
40
1
40
1
40
1
40
1
41
1
10
54.4020557159119
20
1.17714499841611
30
0
41
1
10
54.5327839413937
20
1.10311837876173
30
0
41
1
10
54.6628894548013
20
1.02701285797298
30
0
41
1
10
54.8571884796214
20
0.909787605674609
30
0
41
1
10
54.9218182459765
20
0.870210932040038
30
0
41
1
10
55.0508032110496
20
0.790040283380449
30
0
41
1
10
55.115146465842
20
0.74942772336442
30
0
41
1
10
55.1794553916887
20
0.708455520148249
30
0
0
SPLINE
5
1A5
100
AcDbEntity
8
1
62
256
6
ByLayer
370
18
48
1
60
0
100
AcDbSpline
70
4
71
3
72
8
73
4
40
0
40
0
40
0
40
0
40
1
40
1
40
1
40
1
41
1
10
55.1794553916886
20
0.708455520148277
30
0
41
1
10
55.2237141895882
20
0.65227682029726
30
0
41
1
10
55.2681351074389
20
0.597693918384266
30
0
41
1
10
55.3127518707615
20
0.544709254929757
30
0
0
SPLINE
5
1A6
100
AcDbEntity
8
1
62
256
6
ByLayer
370
18
48
1
60
0
100
AcDbSpline
70
4
71
3
72
31
73
27
40
0
40
0
40
0
40
0
40
0.12499999999992
40
0.12499999999992
40
0.187499999999909
40
0.187499999999909
40
0.249999999999898
40
0.249999999999898
40
0.374999999999876
40
0.374999999999876
40
0.437499999999865
40
0.437499999999865
40
0.499999999999854
40
0.562499999999842
40
0.562499999999842
40
0.624999999999831
40
0.624999999999831
40
0.749999999999888
40
0.749999999999888
40
0.812499999999916
40
0.812499999999916
40
0.874999999999944
40
0.874999999999944
40
0.937499999999972
40
0.937499999999972
40
1
40
1
40
1
40
1
41
1
10
55.3127518707615
20
0.544709254929728
30
0
41
1
10
55.3215396684079
20
0.53427330068024
30
0
41
1
10
55.3318301170176
20
0.523572889554117
30
0
41
1
10
55.3490705797734
20
0.507224669930622
30
0
41
1
10
55.3551242483871
20
0.501724058356075
30
0
41
1
10
55.3678252707387
20
0.49062224848825
30
0
41
1
10
55.3744782788486
20
0.485019254433411
30
0
41
1
10
55.3948527074513
20
0.468432076827128
30
0
41
1
10
55.4091267067952
20
0.457539214179661
30
0
41
1
10
55.4315263437719
20
0.441413275628349
30
0
41
1
10
55.439139620718
20
0.436089628765359
30
0
41
1
10
55.4543981189912
20
0.425712680126765
30
0
41
1
10
55.4697586463984
20
0.415555122649153
30
0
41
1
10
55.485313127259
20
0.40582188121931
30
0
41
1
10
55.5009638065087
20
0.396303065959103
30
0
41
1
10
55.508884366781
20
0.391624248295216
30
0
41
1
10
55.5323916737652
20
0.378158543419545
30
0
41
1
10
55.5477001211698
20
0.369941006906203
30
0
41
1
10
55.5700000601105
20
0.358863362079916
30
0
41
1
10
55.5773620961994
20
0.355364722966129
30
0
41
1
10
55.5914348356987
20
0.349019033828654
30
0
41
1
10
55.5981851045894
20
0.346150305563611
30
0
41
1
10
55.6110608158355
20
0.341072637207788
30
0
41
1
10
55.617225161609
20
0.338851492876046
30
0
41
1
10
55.6286352338757
20
0.335237348087617
30
0
41
1
10
55.6338541767933
20
0.33384884737751
30
0
41
1
10
55.6385416352372
20
0.332922260912227
30
0
0
SPLINE
5
1A7
100
AcDbEntity
8
1
62
256
6
ByLayer
370
18
48
1
60
0
100
AcDbSpline
70
4
71
3
72
8
73
4
40
0
40
0
40
0
40
0
40
1
40
1
40
1
40
1
41
1
10
55.6385416352372
20
0.332922260912199
30
0
41
1
10
55.6994783351898
20
0.320876688222825
30
0
41
1
10
55.7601634564684
20
0.30517545786546
30
0
41
1
10
55.8206589485548
20
0.285896120874327
30
0
0
SPLINE
5
1A8
100
AcDbEntity
8
1
62
256
6
ByLayer
370
18
48
1
60
0
100
AcDbSpline
70
4
71
3
72
8
73
4
40
0
40
0
40
0
40
0
40
1
40
1
40
1
40
1
41
1
10
55.8206589485549
20
0.285896120874241
30
0
41
1
10
56.0064201275933
20
0.159501169858316
30
0
41
1
10
56.1919033025267
20
0.0299791792759834
30
0
41
1
10
56.3772713163347
20
-0.102604436845269
30
0
0
SPLINE
5
1A9
100
AcDbEntity
8
1
62
256
6
ByLayer
370
18
48
1
60
0
100
AcDbSpline
70
4
71
3
72
8
73
4
40
0
40
0
40
0
40
0
40
1
40
1
40
1
40
1
41
1
10
56.3772713163348
20
-0.102604436845297
30
0
41
1
10
56.4554878836609
20
-0.175933484660305
30
0
41
1
10
56.5341219925615
20
-0.243680436711372
30
0
41
1
10
56.613332446145
20
-0.305591682002216
30
0
0
SPLINE
5
1AA
100
AcDbEntity
8
1
62
256
6
ByLayer
370
18
48
1
60
0
100
AcDbSpline
70
4
71
3
72
31
73
27
40
0
40
0
40
0
40
0
40
0.124999999999872
40
0.124999999999872
40
0.187499999999836
40
0.187499999999836
40
0.249999999999801
40
0.249999999999801
40
0.374999999999731
40
0.374999999999731
40
0.437499999999734
40
0.437499999999734
40
0.499999999999737
40
0.56249999999974
40
0.56249999999974
40
0.624999999999743
40
0.624999999999743
40
0.749999999999828
40
0.749999999999828
40
0.812499999999871
40
0.812499999999871
40
0.874999999999914
40
0.874999999999914
40
0.937499999999957
40
0.937499999999957
40
1
40
1
40
1
40
1
41
1
10
56.613332446145
20
-0.305591682002216
30
0
41
1
10
56.622127700687
20
-0.312466092344749
30
0
41
1
10
56.6324266739796
20
-0.320098134514097
30
0
41
1
10
56.6496785476233
20
-0.332430229829612
30
0
41
1
10
56.6557357977272
20
-0.336692036375524
30
0
41
1
10
56.6684432740726
20
-0.345509551850085
30
0
41
1
10
56.6750987188685
20
-0.350068011008148
30
0
41
1
10
56.6954792728732
20
-0.363870698252441
30
0
41
1
10
56.7097559606098
20
-0.373339663741888
30
0
41
1
10
56.7321579825357
20
-0.387959474528941
30
0
41
1
10
56.7397701976064
20
-0.392889011904543
30
0
41
1
10
56.7550272173194
20
-0.402706867585692
30
0
41
1
10
56.7703860978784
20
-0.412528860546246
30
0
41
1
10
56.7859385637191
20
-0.422377391929103
30
0
41
1
10
56.8015870229251
20
-0.43224928813919
30
0
41
1
10
56.8095063136516
20
-0.437226334851459
30
0
41
1
10
56.8330075252374
20
-0.451955892920353
30
0
41
1
10
56.8483128667586
20
-0.461494617764885
30
0
41
1
10
56.8706092287765
20
-0.475380144767939
30
0
41
1
10
56.8779703330848
20
-0.479962871187695
30
0
41
1
10
56.8920424658601
20
-0.488729625018152
30
0
41
1
10
56.8987927938685
20
-0.492938174550005
30
0
41
1
10
56.9116692142946
20
-0.500977278851053
30
0
41
1
10
56.9178339374067
20
-0.504831872487898
30
0
41
1
10
56.9292474172218
20
-0.511980553668394
30
0
41
1
10
56.9344684140005
20
-0.515257312547732
30
0
41
1
10
56.9391580505283
20
-0.518204734848155
30
0
0
SPLINE
5
1AB
100
AcDbEntity
8
1
62
256
6
ByLayer
370
18
48
1
60
0
100
AcDbSpline
70
4
71
3
72
10
73
6
40
0
40
0
40
0
40
0
40
0.5
40
0.5
40
1
40
1
40
1
40
1
41
1
10
56.9391580505283
20
-0.518204734848155
30
0
41
1
10
56.9895234894516
20
-0.549859260092319
30
0
41
1
10
57.0397162567564
20
-0.583851737950027
30
0
41
1
10
57.1398267030827
20
-0.656415121710666
30
0
41
1
10
57.1897604809523
20
-0.695002421752065
30
0
41
1
10
57.2394829991678
20
-0.735753767123356
30
0
0
SPLINE
5
1AC
100
AcDbEntity
8
1
62
256
6
ByLayer
370
18
48
1
60
0
100
AcDbSpline
70
4
71
3
72
8
73
4
40
0
40
0
40
0
40
0
40
1
40
1
40
1
40
1
41
1
10
57.2394829991678
20
-0.735753767123356
30
0
41
1
10
57.3518248808977
20
-0.819734718213141
30
0
41
1
10
57.4637539393959
20
-0.903867505273041
30
0
41
1
10
57.57531193906
20
-0.98809261400919
30
0
0
SPLINE
5
1AD
100
AcDbEntity
8
1
62
256
6
ByLayer
370
18
48
1
60
0
100
AcDbSpline
70
4
71
3
72
10
73
6
40
0
40
0
40
0
40
0
40
0.5
40
0.5
40
1
40
1
40
1
40
1
41
1
10
57.57531193906
20
-0.988092614009219
30
0
41
1
10
57.631216849977
20
-1.01905328004494
30
0
41
1
10
57.6874201119733
20
-1.04695200639105
30
0
41
1
10
57.8002876641693
20
-1.0964089683543
30
0
41
1
10
57.8569497438245
20
-1.11797647607415
30
0
41
1
10
57.9139177274664
20
-1.13631947201614
30
0
0
SPLINE
5
1AE
100
AcDbEntity
8
1
62
256
6
ByLayer
370
18
48
1
60
0
100
AcDbSpline
70
4
71
3
72
31
73
27
40
0
40
0
40
0
40
0
40
0.124999999999979
40
0.124999999999979
40
0.187499999999997
40
0.187499999999997
40
0.250000000000016
40
0.250000000000016
40
0.375000000000052
40
0.375000000000052
40
0.43750000000007
40
0.43750000000007
40
0.500000000000089
40
0.562500000000107
40
0.562500000000107
40
0.625000000000125
40
0.625000000000125
40
0.750000000000084
40
0.750000000000084
40
0.812500000000063
40
0.812500000000063
40
0.875000000000042
40
0.875000000000042
40
0.937500000000021
40
0.937500000000021
40
1
40
1
40
1
40
1
41
1
10
57.9139177274664
20
-1.13631947201617
30
0
41
1
10
57.9227201161111
20
-1.13915373380445
30
0
41
1
10
57.933029625491
20
-1.14318915357907
30
0
41
1
10
57.9503008229725
20
-1.15065647462964
30
0
41
1
10
57.9563651052017
20
-1.15338698254658
30
0
41
1
10
57.9690876858296
20
-1.15931704995967
30
0
41
1
10
57.9757513299568
20
-1.16252057487046
30
0
41
1
10
57.9961552560972
20
-1.17260143148533
30
0
41
1
10
58.0104469069958
20
-1.18000674416456
30
0
41
1
10
58.0328678663798
20
-1.19214086571412
30
0
41
1
10
58.0404836732908
20
-1.19634727409991
30
0
41
1
10
58.0557468615202
20
-1.20495298198171
30
0
41
1
10
58.0711100647765
20
-1.21378845201471
30
0
41
1
10
58.0866625602557
20
-1.22310467041211
30
0
41
1
10
58.1023086358321
20
-1.23268310887778
30
0
41
1
10
58.1102254243651
20
-1.23763383313238
30
0
41
1
10
58.1337045345434
20
-1.25266364497793
30
0
41
1
10
58.1489933555046
20
-1.26290378258096
30
0
41
1
10
58.1712656465911
20
-1.2786961648838
30
0
41
1
10
58.1786179649509
20
-1.28406538240932
30
0
41
1
10
58.1926733555999
20
-1.29468334996412
30
0
41
1
10
58.19941619953
20
-1.2999583923189
30
0
41
1
10
58.2122795606042
20
-1.31043675678779
30
0
41
1
10
58.2184384974754
20
-1.31567430625989
30
0
41
1
10
58.2298438371337
20
-1.32589277307858
30
0
41
1
10
58.2350622020284
20
-1.33084479952254
30
0
41
1
10
58.239750407572
20
-1.33562150341226
30
0
0
SPLINE
5
1AF
100
AcDbEntity
8
1
62
256
6
ByLayer
370
18
48
1
60
0
100
AcDbSpline
70
4
71
3
72
10
73
6
40
0
40
0
40
0
40
0
40
0.5
40
0.5
40
1
40
1
40
1
40
1
41
1
10
58.239750407572
20
-1.33562150341226
30
0
41
1
10
58.3101557500223
20
-1.40735587384611
30
0
41
1
10
58.3802235298452
20
-1.48300719702408
30
0
41
1
10
58.5198704170108
20
-1.64203936497435
30
0
41
1
10
58.5893063031315
20
-1.72524497384262
30
0
41
1
10
58.6584293474876
20
-1.81196187194411
30
0
0
SPLINE
5
1B0
100
AcDbEntity
8
1
62
256
6
ByLayer
370
18
48
1
60
0
100
AcDbSpline
70
4
71
3
72
8
73
4
40
0
40
0
40
0
40
0
40
1
40
1
40
1
40
1
41
1
10
58.6584293474876
20
-1.81196187194411
30
0
41
1
10
58.6626761119329
20
-1.81517442490608
30
0
41
1
10
58.666922864064
20
-1.81838639440375
30
0
41
1
10
58.6711696071824
20
-1.82159777572247
30
0
0
SPLINE
5
1B1
100
AcDbEntity
8
1
62
256
6
ByLayer
370
18
48
1
60
0
100
AcDbSpline
70
4
71
3
72
8
73
4
40
0
40
0
40
0
40
0
40
1
40
1
40
1
40
1
41
1
10
58.7823030935086
20
-1.90009957755279
30
0
41
1
10
58.7452497760897
20
-1.8740809717257
30
0
41
1
10
58.7082058868799
20
-1.84791304654064
30
0
41
1
10
58.6711696071825
20
-1.82159777572247
30
0
0
SPLINE
5
1B2
100
AcDbEntity
8
1
62
256
6
ByLayer
370
18
48
1
60
0
100
AcDbSpline
70
4
71
3
72
10
73
6
40
0
40
0
40
0
40
0
40
0.5
40
0.5
40
1
40
1
40
1
40
1
41
1
10
58.7823030935079
20
-1.90009957754739
30
0
41
1
10
58.853497930594
20
-1.90962011748627
30
0
41
1
10
58.9250725484235
20
-1.91393675707164
30
0
41
1
10
59.069204664541
20
-1.91204027241568
30
0
41
1
10
59.1416152730327
20
-1.90583151978046
30
0
41
1
10
59.2145287648827
20
-1.89430319669611
30
0
0
SPLINE
5
1B3
100
AcDbEntity
8
1
62
256
6
ByLayer
370
18
48
1
60
0
100
AcDbSpline
70
4
71
3
72
31
73
27
40
0
40
0
40
0
40
0
40
0.124999999999982
40
0.124999999999982
40
0.187499999999974
40
0.187499999999974
40
0.249999999999966
40
0.249999999999966
40
0.37499999999995
40
0.37499999999995
40
0.437499999999979
40
0.437499999999979
40
0.500000000000008
40
0.562500000000036
40
0.562500000000036
40
0.625000000000065
40
0.625000000000065
40
0.750000000000043
40
0.750000000000043
40
0.812500000000032
40
0.812500000000032
40
0.875000000000022
40
0.875000000000022
40
0.937500000000011
40
0.937500000000011
40
1
40
1
40
1
40
1
41
1
10
59.2145287648827
20
-1.89430319669611
30
0
41
1
10
59.2233306548057
20
-1.89291153339471
30
0
41
1
10
59.2336404679928
20
-1.89308632623957
30
0
41
1
10
59.2509130362575
20
-1.89519999606307
30
0
41
1
10
59.2569779171053
20
-1.89622038317847
30
0
41
1
10
59.2697020264498
20
-1.8988741907589
30
0
41
1
10
59.2763672506081
20
-1.90051259993783
30
0
41
1
10
59.29677541
20
-1.90620992363247
30
0
41
1
10
59.311069803255
20
-1.91106452146346
30
0
41
1
10
59.3334952581957
20
-1.91991019603554
30
0
41
1
10
59.3411122343356
20
-1.92311563575851
30
0
41
1
10
59.3563775466618
20
-1.92993799980701
30
0
41
1
10
59.3717426280191
20
-1.93719836889846
30
0
41
1
10
59.3872967233323
20
-1.94535659304043
30
0
41
1
10
59.4029444165696
20
-1.95399552170383
30
0
41
1
10
59.4108621332305
20
-1.95858466285489
30
0
41
1
10
59.4343383688793
20
-1.97289692515884
30
0
41
1
10
59.4496244010434
20
-1.98313871652132
30
0
41
1
10
59.4718905643566
20
-1.99975567542907
30
0
41
1
10
59.4792396101375
20
-2.0055426592601
30
0
41
1
10
59.4932860743939
20
-2.01728112434034
30
0
41
1
10
59.5000240912822
20
-2.02325917653619
30
0
41
1
10
59.5128773181795
20
-2.03545451415039
30
0
41
1
10
59.5190307843149
20
-2.04171385643286
30
0
41
1
10
59.5304260257737
20
-2.05429725503333
30
0
41
1
10
59.5356398892678
20
-2.06058314606784
30
0
41
1
10
59.5403244235766
20
-2.06686004121059
30
0
0
SPLINE
5
1B4
100
AcDbEntity
8
1
62
256
6
ByLayer
370
18
48
1
60
0
100
AcDbSpline
70
4
71
3
72
10
73
6
40
0
40
0
40
0
40
0
40
0.5
40
0.5
40
1
40
1
40
1
40
1
41
1
10
59.5403244235766
20
-2.06686004121059
30
0
41
1
10
59.6109517250731
20
-2.16149488354179
30
0
41
1
10
59.6812203033564
20
-2.25934246643689
30
0
41
1
10
59.8212510936401
20
-2.46118575852734
30
0
41
1
10
59.8908696636071
20
-2.56491983172003
30
0
41
1
10
59.9601752202428
20
-2.67126525332589
30
0
0
SPLINE
5
1B5
100
AcDbEntity
8
1
62
256
6
ByLayer
370
18
48
1
60
0
100
AcDbSpline
70
4
71
3
72
8
73
4
40
0
40
0
40
0
40
0
40
1
40
1
40
1
40
1
41
1
10
60.0829528867288
20
-2.74416753323968
30
0
41
1
10
60.042011339553
20
-2.7201350156422
30
0
41
1
10
60.0010863780299
20
-2.69583352735612
30
0
41
1
10
59.9601752202428
20
-2.67126525332583
30
0
0
SPLINE
5
1B6
100
AcDbEntity
8
1
62
256
6
ByLayer
370
18
48
1
60
0
100
AcDbSpline
70
4
71
3
72
10
73
6
40
0
40
0
40
0
40
0
40
0.5
40
0.5
40
1
40
1
40
1
40
1
41
1
10
60.0829528867282
20
-2.74416753323075
30
0
41
1
10
60.1541265034572
20
-2.71868921509088
30
0
41
1
10
60.225693572608
20
-2.6881464416268
30
0
41
1
10
60.3698243844243
20
-2.61688650852707
30
0
41
1
10
60.4422371975086
20
-2.57624306014057
30
0
41
1
10
60.5151530929562
20
-2.5305562435031
30
0
0
SPLINE
5
1B7
100
AcDbEntity
8
1
62
256
6
ByLayer
370
18
48
1
60
0
100
AcDbSpline
70
4
71
3
72
31
73
27
40
0
40
0
40
0
40
0
40
0.124999999999984
40
0.124999999999984
40
0.187499999999945
40
0.187499999999945
40
0.249999999999906
40
0.249999999999906
40
0.374999999999899
40
0.374999999999899
40
0.437499999999933
40
0.437499999999933
40
0.499999999999968
40
0.562500000000002
40
0.562500000000002
40
0.625000000000037
40
0.625000000000037
40
0.750000000000025
40
0.750000000000025
40
0.812500000000019
40
0.812500000000019
40
0.875000000000013
40
0.875000000000013
40
0.937500000000006
40
0.937500000000006
40
1
40
1
40
1
40
1
41
1
10
60.5151530929563
20
-2.53055624350304
30
0
41
1
10
60.5239560060596
20
-2.52504061382649
30
0
41
1
10
60.5342676644988
20
-2.52135705371285
30
0
41
1
10
60.5515437360435
20
-2.51800123324125
30
0
41
1
10
60.557609913713
20
-2.51725253010989
30
0
41
1
10
60.5703368988105
20
-2.51647255775012
30
0
41
1
10
60.5770041490992
20
-2.51644667443804
30
0
41
1
10
60.5974179414742
20
-2.5174126296161
30
0
41
1
10
60.6117159666664
20
-2.51941685907778
30
0
41
1
10
60.6341466354301
20
-2.52442479646555
30
0
41
1
10
60.6417647477508
20
-2.5264297817952
30
0
41
1
10
60.6570321780029
20
-2.53104341839821
30
0
41
1
10
60.6723990444773
20
-2.53627525066784
30
0
41
1
10
60.687954167375
20
-2.54276482007859
30
0
41
1
10
60.7036024688193
20
-2.54992308913691
30
0
41
1
10
60.7115202633492
20
-2.55386300768771
30
0
41
1
10
60.7349914954999
20
-2.56656080248516
30
0
41
1
10
60.7502733278282
20
-2.57616121669767
30
0
41
1
10
60.7725324413976
20
-2.59255544142655
30
0
41
1
10
60.7798784083259
20
-2.59839478447967
30
0
41
1
10
60.7939174742763
20
-2.61051037641107
30
0
41
1
10
60.8006517482213
20
-2.61681171006273
30
0
41
1
10
60.8134975048211
20
-2.62994658247518
30
0
41
1
10
60.8196471677491
20
-2.63682733127777
30
0
41
1
10
60.8310352954541
20
-2.65096749129262
30
0
41
1
10
60.8362460676292
20
-2.65818206523881
30
0
41
1
10
60.8409281177986
20
-2.6655531466908
30
0
0
SPLINE
5
1B8
100
AcDbEntity
8
1
62
256
6
ByLayer
370
18
48
1
60
0
100
AcDbSpline
70
4
71
3
72
10
73
6
40
0
40
0
40
0
40
0
40
0.5
40
0.5
40
1
40
1
40
1
40
1
41
1
10
60.8409281177986
20
-2.6655531466908
30
0
41
1
10
60.9115701077544
20
-2.77676679094063
30
0
41
1
10
60.9818570870016
20
-2.89007525458041
30
0
41
1
10
61.1219210753712
20
-3.12071382555436
30
0
41
1
10
61.1915416006156
20
-3.23780088662318
30
0
41
1
10
61.2608298462172
20
-3.35650564331743
30
0
0
SPLINE
5
1B9
100
AcDbEntity
8
1
62
256
6
ByLayer
370
18
48
1
60
0
100
AcDbSpline
70
4
71
3
72
8
73
4
40
0
40
0
40
0
40
0
40
1
40
1
40
1
40
1
41
1
10
61.3836181328215
20
-3.41084021274924
30
0
41
1
10
61.342666738009
20
-3.39306683420304
30
0
41
1
10
61.3017492969175
20
-3.37494716958835
30
0
41
1
10
61.2608298462172
20
-3.35650564331743
30
0
0
SPLINE
5
1BA
100
AcDbEntity
8
1
62
256
6
ByLayer
370
18
48
1
60
0
100
AcDbSpline
70
4
71
3
72
10
73
6
40
0
40
0
40
0
40
0
40
0.5
40
0.5
40
1
40
1
40
1
40
1
41
1
10
61.3836181328215
20
-3.41084021274966
30
0
41
1
10
61.454762950376
20
-3.35210761403329
30
0
41
1
10
61.5263180926901
20
-3.28873513410736
30
0
41
1
10
61.6704363650153
20
-3.15289635954056
30
0
41
1
10
61.7428517209939
20
-3.08056087249338
30
0
41
1
10
61.8157777465473
20
-3.0037986677965
30
0
0
SPLINE
5
1BB
100
AcDbEntity
8
1
62
256
6
ByLayer
370
18
48
1
60
0
100
AcDbSpline
70
4
71
3
72
8
73
4
40
0
40
0
40
0
40
0
40
1
40
1
40
1
40
1
41
1
10
60.9997639521172
20
1.35755097880983
30
0
41
1
10
61.0406924670791
20
1.32686047441828
30
0
41
1
10
61.0816041597956
20
1.29603322530988
30
0
41
1
10
61.122508541592
20
1.26508043516392
30
0
0
SPLINE
5
1BC
100
AcDbEntity
8
1
62
256
6
ByLayer
370
18
48
1
60
0
100
AcDbSpline
70
4
71
3
72
8
73
4
40
0
40
0
40
0
40
0
40
1
40
1
40
1
40
1
41
1
10
59.6989686225347
20
2.2803592964774
30
0
41
1
10
59.7399222321072
20
2.25338408185621
30
0
41
1
10
59.7808592926174
20
2.22618411675319
30
0
41
1
10
59.82176476845
20
2.19874288428676
30
0
0
SPLINE
5
1BD
100
AcDbEntity
8
1
62
256
6
ByLayer
370
18
48
1
60
0
100
AcDbSpline
70
4
71
3
72
103
73
99
40
0
40
0
40
0
40
0
40
0.0625000000000391
40
0.0625000000000391
40
0.125000000000078
40
0.125000000000078
40
0.187500000000117
40
0.187500000000117
40
0.218750000000139
40
0.218750000000139
40
0.226562500000144
40
0.226562500000144
40
0.234375000000149
40
0.234375000000149
40
0.250000000000156
40
0.250000000000156
40
0.257812500000158
40
0.257812500000158
40
0.265625000000159
40
0.281250000000158
40
0.296875000000157
40
0.296875000000157
40
0.312500000000156
40
0.312500000000156
40
0.343750000000155
40
0.343750000000155
40
0.359375000000155
40
0.359375000000155
40
0.375000000000155
40
0.375000000000155
40
0.406250000000156
40
0.406250000000156
40
0.437500000000158
40
0.437500000000158
40
0.453125000000158
40
0.453125000000158
40
0.468750000000158
40
0.468750000000158
40
0.484375000000158
40
0.484375000000158
40
0.492187500000157
40
0.492187500000157
40
0.500000000000156
40
0.500000000000156
40
0.515625000000154
40
0.515625000000154
40
0.523437500000153
40
0.523437500000153
40
0.531250000000153
40
0.539062500000152
40
0.539062500000152
40
0.546875000000151
40
0.546875000000151
40
0.562500000000149
40
0.562500000000149
40
0.566406250000149
40
0.566406250000149
40
0.570312500000148
40
0.570312500000148
40
0.578125000000147
40
0.578125000000147
40
0.585937500000146
40
0.585937500000146
40
0.589843750000146
40
0.589843750000146
40
0.593750000000145
40
0.593750000000145
40
0.609375000000144
40
0.609375000000144
40
0.617187500000143
40
0.617187500000143
40
0.625000000000142
40
0.625000000000142
40
0.640625000000139
40
0.640625000000139
40
0.656250000000136
40
0.656250000000136
40
0.687500000000131
40
0.687500000000131
40
0.695312500000128
40
0.695312500000128
40
0.703125000000126
40
0.703125000000126
40
0.718750000000119
40
0.718750000000119
40
0.750000000000106
40
0.750000000000106
40
0.781250000000094
40
0.781250000000094
40
0.812500000000081
40
0.812500000000081
40
0.875000000000055
40
0.875000000000055
40
0.906250000000041
40
0.906250000000041
40
0.937500000000028
40
0.937500000000028
40
1
40
1
40
1
40
1
41
1
10
41.4303846430948
20
0.196930688407377
30
0
41
1
10
41.248928353916
20
0.311067571233537
30
0
41
1
10
41.0654288628832
20
0.418962637074031
30
0
41
1
10
40.6920432828044
20
0.61790896391048
30
0
41
1
10
40.5021817752774
20
0.709019963524895
30
0
41
1
10
40.1139891407879
20
0.870746392322133
30
0
41
1
10
39.9156210468209
20
0.941284544086159
30
0
41
1
10
39.6101173591652
20
1.02897197821781
30
0
41
1
10
39.5069503380435
20
1.05516528289522
30
0
41
1
10
39.3760839620827
20
1.08365747202939
30
0
41
1
10
39.3498150671846
20
1.08914289865933
30
0
41
1
10
39.2970779839229
20
1.09967191664413
30
0
41
1
10
39.2705848713659
20
1.10471969787599
30
0
41
1
10
39.1911028536929
20
1.11912169029028
30
0
41
1
10
39.138045722824
20
1.1277494456503
30
0
41
1
10
39.0583515047234
20
1.13918080692179
30
0
41
1
10
39.0317671358662
20
1.14271838005595
30
0
41
1
10
38.9785736183471
20
1.14944865397257
30
0
41
1
10
38.8987437583739
20
1.15899343765821
30
0
41
1
10
38.7655025467378
20
1.17224898836909
30
0
41
1
10
38.6587151182627
20
1.18017705972989
30
0
41
1
10
38.5518331471653
20
1.18681065754112
30
0
41
1
10
38.4983445826524
20
1.18947598872558
30
0
41
1
10
38.3377195150927
20
1.19529814118005
30
0
41
1
10
38.230426958789
20
1.19632801271331
30
0
41
1
10
38.0691289774111
20
1.19298285383596
30
0
41
1
10
38.0153030016744
20
1.19105075546804
30
0
41
1
10
37.9075215077059
20
1.18541743504841
30
0
41
1
10
37.8536573477115
20
1.18171860353502
30
0
41
1
10
37.6927808867385
20
1.16783395590701
30
0
41
1
10
37.5862371312928
20
1.15488652399634
30
0
41
1
10
37.3748578225963
20
1.11993647684477
30
0
41
1
10
37.2700154272582
20
1.09797438100952
30
0
41
1
10
37.1144449586488
20
1.05585512133041
30
0
41
1
10
37.06276962607
20
1.04022830603768
30
0
41
1
10
36.9612024536344
20
1.00559127627969
30
0
41
1
10
36.9112019078776
20
0.986565240203333
30
0
41
1
10
36.8131203875649
20
0.94427204898787
30
0
41
1
10
36.7650256563811
20
0.921034832781316
30
0
41
1
10
36.6946397716499
20
0.88223788470853
30
0
41
1
10
36.6714506579205
20
0.868625699420932
30
0
41
1
10
36.6262161082869
20
0.840190143329778
30
0
41
1
10
36.6041140471637
20
0.825338116519958
30
0
41
1
10
36.5395319102673
20
0.778644980066247
30
0
41
1
10
36.4987454508264
20
0.744706213241074
30
0
41
1
10
36.4420911562989
20
0.688116568619762
30
0
41
1
10
36.4238995223686
20
0.668182524661006
30
0
41
1
10
36.3899074522353
20
0.626903707258009
30
0
41
1
10
36.3581923630159
20
0.584120274855309
30
0
41
1
10
36.3314209873244
20
0.538046293602577
30
0
41
1
10
36.3073585726745
20
0.490155876534658
30
0
41
1
10
36.2966475494175
20
0.465160159622627
30
0
41
1
10
36.2697067075205
20
0.389354110334523
30
0
41
1
10
36.2583145814752
20
0.337196257935062
30
0
41
1
10
36.2518084027304
20
0.270045491897662
30
0
41
1
10
36.2508949250043
20
0.256490048629814
30
0
41
1
10
36.2498449441782
20
0.229304038848568
30
0
41
1
10
36.2497094733364
20
0.215748161032934
30
0
41
1
10
36.2504023438134
20
0.175184782239398
30
0
41
1
10
36.25233406439
20
0.148281968507007
30
0
41
1
10
36.2593158484655
20
0.0947754741902145
30
0
41
1
10
36.2643181990639
20
0.0681667182983574
30
0
41
1
10
36.2739414518774
20
0.0284554268035606
30
0
41
1
10
36.277504017178
20
0.015255609205866
30
0
41
1
10
36.2852143497016
20
-0.0107903707952062
30
0
41
1
10
36.2893708367412
20
-0.0236751217064466
30
0
41
1
10
36.3115382293606
20
-0.0874631340601297
30
0
41
1
10
36.3337215067384
20
-0.136451797291215
30
0
41
1
10
36.3715908622579
20
-0.207816500853227
30
0
41
1
10
36.3849700019357
20
-0.23125592641415
30
0
41
1
10
36.4130133765546
20
-0.277540153748191
30
0
41
1
10
36.4276231609815
20
-0.300289778972939
30
0
41
1
10
36.4726541010958
20
-0.367132752702673
30
0
41
1
10
36.5043800532936
20
-0.410027784782414
30
0
41
1
10
36.5703180485204
20
-0.493347333990982
30
0
41
1
10
36.6045389039563
20
-0.533763729650843
30
0
41
1
10
36.7101172721959
20
-0.652069849959787
30
0
41
1
10
36.784275260565
20
-0.727118490122251
30
0
41
1
10
36.8800910010379
20
-0.81764566988835
30
0
41
1
10
36.899414051471
20
-0.835583176108685
30
0
41
1
10
36.9383533596389
20
-0.87114712382305
30
0
41
1
10
36.9579838992673
20
-0.888785839651717
30
0
41
1
10
37.0170854993196
20
-0.941096627328591
30
0
41
1
10
37.0568149622548
20
-0.975212201377303
30
0
41
1
10
37.1768009511035
20
-1.07560440760284
30
0
41
1
10
37.2578455229693
20
-1.13994317351066
30
0
41
1
10
37.4213784006195
20
-1.26456648320536
30
0
41
1
10
37.5038718105568
20
-1.32484214251866
30
0
41
1
10
37.669908733818
20
-1.44199296874638
30
0
41
1
10
37.7534545752433
20
-1.49886398078138
30
0
41
1
10
38.0052988315153
20
-1.6649726103557
30
0
41
1
10
38.1747685291334
20
-1.76976135086656
30
0
41
1
10
38.4306935856936
20
-1.91902058353639
30
0
41
1
10
38.5162986436078
20
-1.96743689067978
30
0
41
1
10
38.688101659977
20
-2.0616033855205
30
0
41
1
10
38.7743825904599
20
-2.10739298613629
30
0
41
1
10
39.0330387092814
20
-2.24006566402605
30
0
41
1
10
39.2054961304991
20
-2.3224495647674
30
0
41
1
10
39.3785303332957
20
-2.39835590655949
30
0
0
SPLINE
5
1BE
100
AcDbEntity
8
1
62
256
6
ByLayer
370
18
48
1
60
0
100
AcDbSpline
70
4
71
3
72
36
73
32
40
0
40
0
40
0
40
0
40
0.0744593519644835
40
0.0744593519644835
40
0.133173543413907
40
0.133173543413907
40
0.191887734863332
40
0.191887734863332
40
0.250601926312756
40
0.250601926312756
40
0.30931611776218
40
0.30931611776218
40
0.426744500661028
40
0.426744500661028
40
0.485458692110452
40
0.485458692110452
40
0.544172883559875
40
0.544172883559875
40
0.661601266458719
40
0.661601266458719
40
0.720315457908141
40
0.720315457908141
40
0.779029649357562
40
0.779029649357562
40
0.837743840806984
40
0.837743840806984
40
0.896458032256405
40
0.896458032256405
40
0.955172223705827
40
0.955172223705827
40
1
40
1
40
1
40
1
41
1
10
39.3785304371453
20
-2.39835507795615
30
0
41
1
10
39.3887150772607
20
-2.31709328879123
30
0
41
1
10
39.4050681841819
20
-2.23072399500074
30
0
41
1
10
39.4458903217696
20
-2.06775493246849
30
0
41
1
10
39.4682519962755
20
-1.992207501536
30
0
41
1
10
39.520312929636
20
-1.83990321894029
30
0
41
1
10
39.5506153674984
20
-1.76237314706682
30
0
41
1
10
39.6172189420398
20
-1.60537811421108
30
0
41
1
10
39.6532075089281
20
-1.52560248766858
30
0
41
1
10
39.7291497195515
20
-1.36754218988725
30
0
41
1
10
39.7691179773757
20
-1.28913049700074
30
0
41
1
10
39.8951412392495
20
-1.05579012386053
30
0
41
1
10
39.9887454491793
20
-0.900739336126293
30
0
41
1
10
40.1352233449193
20
-0.683995400336613
30
0
41
1
10
40.1851758094256
20
-0.614081377498252
30
0
41
1
10
40.2873363608333
20
-0.478926679656411
30
0
41
1
10
40.3399095845796
20
-0.413269344194504
30
0
41
1
10
40.4984414570565
20
-0.226737968101986
30
0
41
1
10
40.6038682300816
20
-0.117503407023065
30
0
41
1
10
40.7616373709782
20
0.0248670659242691
30
0
41
1
10
40.8144367033928
20
0.0691945837337187
30
0
41
1
10
40.9167113072962
20
0.146835677901635
30
0
41
1
10
40.9659962672011
20
0.178370279280358
30
0
41
1
10
41.0611320808362
20
0.227931873560891
30
0
41
1
10
41.1071767413708
20
0.245862071528848
30
0
41
1
10
41.1919300925204
20
0.267283844354267
30
0
41
1
10
41.2311875737261
20
0.271083060959825
30
0
41
1
10
41.303992410569
20
0.266028707001624
30
0
41
1
10
41.3377765239468
20
0.256938269763566
30
0
41
1
10
41.3908018652753
20
0.230209465392562
30
0
41
1
10
41.4116229523533
20
0.21521807910591
30
0
41
1
10
41.4303849962479
20
0.196930344182675
30
0
0
SPLINE
5
1BF
100
AcDbEntity
8
SK1
62
256
6
ByLayer
370
18
48
1
60
0
100
AcDbSpline
70
4
71
3
72
25
73
21
40
0
40
0
40
0
40
0
40
0.0625082018148191
40
0.0625082018148191
40
0.125016403629638
40
0.125016403629638
40
0.250032807259277
40
0.250032807259277
40
0.500065614518554
40
0.500065614518554
40
0.625082018148193
40
0.625082018148193
40
0.687590219963012
40
0.718844320870422
40
0.718844320870422
40
0.750098421777832
40
0.750098421777832
40
0.875114825407471
40
0.875114825407471
40
1
40
1
40
1
40
1
41
1
10
-22.8
20
3.09999999999997
30
0
41
1
10
-22.8255580387326
20
3.09999999999997
30
0
41
1
10
-22.8507859698115
20
3.09999999999997
30
0
41
1
10
-22.900515272324
20
3.09999999999997
30
0
41
1
10
-22.9250377452358
20
3.09999999999997
30
0
41
1
10
-22.9972279312134
20
3.09999999999997
30
0
41
1
10
-23.0434983576829
20
3.09999999999997
30
0
41
1
10
-23.1757222997548
20
3.09999999999997
30
0
41
1
10
-23.2551635800205
20
3.09999999999997
30
0
41
1
10
-23.3559652856179
20
3.09999999999997
30
0
41
1
10
-23.386487399267
20
3.09999999999997
30
0
41
1
10
-23.4268208094404
20
3.09999999999997
30
0
41
1
10
-23.4456232733698
20
3.09999999999997
30
0
41
1
10
-23.4622079504984
20
3.09999999999997
30
0
41
1
10
-23.4727515433793
20
3.09999999999997
30
0
41
1
10
-23.4777720281785
20
3.09999999999997
30
0
41
1
10
-23.5014388703221
20
3.09999999999997
30
0
41
1
10
-23.5158360601473
20
3.09999999999997
30
0
41
1
10
-23.5351008116891
20
3.09999999999997
30
0
41
1
10
-23.5399770627359
20
3.09999999999997
30
0
41
1
10
-23.5400000000009
20
3.09999999999997
30
0
0
SPLINE
5
1C0
100
AcDbEntity
8
SK1
62
256
6
ByLayer
370
18
48
1
60
0
100
AcDbSpline
70
4
71
3
72
25
73
21
40
0
40
0
40
0
40
0
40
0.1248851563414
40
0.1248851563414
40
0.249901562578343
40
0.249901562578343
40
0.281155664137579
40
0.281155664137579
40
0.312409765696815
40
0.374917968815286
40
0.374917968815286
40
0.499934375052229
40
0.499934375052229
40
0.749967187526114
40
0.749967187526114
40
0.874983593763057
40
0.874983593763057
40
0.937491796881528
40
0.937491796881528
40
1
40
1
40
1
40
1
41
1
10
-23.5399999999894
20
-3.10000000000002
30
0
41
1
10
-23.5399770611072
20
-3.10000000000002
30
0
41
1
10
-23.5351008100813
20
-3.10000000000002
30
0
41
1
10
-23.5158360601473
20
-3.10000000000002
30
0
41
1
10
-23.501438870322
20
-3.10000000000002
30
0
41
1
10
-23.4777720281785
20
-3.10000000000002
30
0
41
1
10
-23.4727515433793
20
-3.10000000000002
30
0
41
1
10
-23.4622079504984
20
-3.10000000000002
30
0
41
1
10
-23.4456232733698
20
-3.10000000000002
30
0
41
1
10
-23.4268208094403
20
-3.10000000000002
30
0
41
1
10
-23.3864873992669
20
-3.10000000000002
30
0
41
1
10
-23.3559652856179
20
-3.10000000000002
30
0
41
1
10
-23.2551635800205
20
-3.10000000000002
30
0
41
1
10
-23.1757222997547
20
-3.10000000000002
30
0
41
1
10
-23.0434983576829
20
-3.10000000000002
30
0
41
1
10
-22.9972279312133
20
-3.10000000000002
30
0
41
1
10
-22.9250377452358
20
-3.10000000000002
30
0
41
1
10
-22.9005152723239
20
-3.10000000000002
30
0
41
1
10
-22.8507859698115
20
-3.10000000000002
30
0
41
1
10
-22.8255580387326
20
-3.10000000000002
30
0
41
1
10
-22.8
20
-3.10000000000002
30
0
0
SPLINE
5
1C1
100
AcDbEntity
8
SK1
62
256
6
ByLayer
370
18
48
1
60
0
100
AcDbSpline
70
4
71
3
72
42
73
38
40
0
40
0
40
0
40
0
40
0.0625
40
0.0625
40
0.09375
40
0.09375
40
0.125
40
0.125
40
0.25
40
0.25
40
0.375
40
0.375
40
0.390625
40
0.390625
40
0.40625
40
0.40625
40
0.4375
40
0.4375
40
0.5
40
0.5625
40
0.5625
40
0.625
40
0.625
40
0.640625
40
0.640625
40
0.65625
40
0.6875
40
0.6875
40
0.75
40
0.75
40
0.875
40
0.875
40
0.9375
40
0.9375
40
0.96875
40
0.96875
40
1
40
1
40
1
40
1
41
1
10
-22.8
20
-2.26618622359246
30
0
41
1
10
-22.8508894316494
20
-2.17995526185629
30
0
41
1
10
-22.9004658050821
20
-2.09275503916427
30
0
41
1
10
-22.9724426999165
20
-1.96019220081689
30
0
41
1
10
-22.996036028223
20
-1.91571008013594
30
0
41
1
10
-23.0423408985636
20
-1.82609493008272
30
0
41
1
10
-23.0650757832331
20
-1.78091234802616
30
0
41
1
10
-23.1758387500034
20
-1.55417609606832
30
0
41
1
10
-23.2554566958293
20
-1.36974721051177
30
0
41
1
10
-23.3897816515624
20
-0.992468314566707
30
0
41
1
10
-23.444474755522
20
-0.799613603282126
30
0
41
1
10
-23.486994699949
20
-0.57622580404788
30
0
41
1
10
-23.4914541484178
20
-0.551315357845539
30
0
41
1
10
-23.4998243597224
20
-0.501308982638278
30
0
41
1
10
-23.5037398055586
20
-0.476178764178911
30
0
41
1
10
-23.5145929273497
20
-0.40080194939722
30
0
41
1
10
-23.5206393479445
20
-0.350580412204323
30
0
41
1
10
-23.5351619313951
20
-0.200006058842433
30
0
41
1
10
-23.5448636827396
20
0.0005186273750724
30
0
41
1
10
-23.535110928051
20
0.200557804829629
30
0
41
1
10
-23.5158360601473
20
0.400359347393845
30
0
41
1
10
-23.5014388703221
20
0.500141333692056
30
0
41
1
10
-23.4777720281785
20
0.62472730657376
30
0
41
1
10
-23.4727515433793
20
0.649653694457953
30
0
41
1
10
-23.4622079504984
20
0.69924920209607
30
0
41
1
10
-23.4456232733698
20
0.773343264923909
30
0
41
1
10
-23.4268208094403
20
0.846574765308077
30
0
41
1
10
-23.386487399267
20
0.991976579143682
30
0
41
1
10
-23.3559652856179
20
1.08749807377382
30
0
41
1
10
-23.2551635800205
20
1.37047065302403
30
0
41
1
10
-23.1757222997547
20
1.55435848789429
30
0
41
1
10
-23.0434983576829
20
1.82511003621912
30
0
41
1
10
-22.9972279312134
20
1.91450654932038
30
0
41
1
10
-22.9250377452358
20
2.04751832711881
30
0
41
1
10
-22.9005152723239
20
2.09166174892783
30
0
41
1
10
-22.8507859698115
20
2.17932232815221
30
0
41
1
10
-22.8255580387326
20
2.22287871968496
30
0
41
1
10
-22.8
20
2.26618622359243
30
0
0
SPLINE
5
1C2
100
AcDbEntity
8
1
62
256
6
ByLayer
370
18
48
1
60
0
100
AcDbSpline
70
4
71
2
72
6
73
3
40
0
40
0
40
0
40
1
40
1
40
1
41
1
10
64.3090647833543
20
-3.54278645298251
30
0
41
1
10
64.3685181536134
20
-3.44045153530121
30
0
41
1
10
64.4280159850809
20
-3.3381452819882
30
0
0
SPLINE
5
1C3
100
AcDbEntity
8
1
62
256
6
ByLayer
370
18
48
1
60
0
100
AcDbSpline
70
4
71
1
72
4
73
2
40
0
40
0
40
1
40
1
41
1
10
66
20
2.94052560695681
30
0
41
1
10
65.8430825425431
20
3.09742330781793
30
0
0
SPLINE
5
1C4
100
AcDbEntity
8
1
62
256
6
ByLayer
370
18
48
1
60
0
100
AcDbSpline
70
4
71
2
72
6
73
3
40
0
40
0
40
0
40
1
40
1
40
1
41
1
10
55.3231167100059
20
3.33383791069267
30
0
41
1
10
55.2608362173536
20
3.23433835584166
30
0
41
1
10
55.1580127241874
20
3.28362642708794
30
0
0
SPLINE
5
1C5
100
AcDbEntity
8
1
62
256
6
ByLayer
370
18
48
1
60
0
100
AcDbSpline
70
4
71
1
72
4
73
2
40
0
40
0
40
1
40
1
41
1
10
63.6932169534564
20
-3.71150623581377
30
0
41
1
10
64.3044348415161
20
-3.55127740616481
30
0
0
SPLINE
5
1C6
100
AcDbEntity
8
1
62
256
6
ByLayer
370
18
48
1
60
0
100
AcDbSpline
70
4
71
2
72
6
73
3
40
0
40
0
40
0
40
1
40
1
40
1
41
1
10
55.4828378645359
20
3.60917272935566
30
0
41
1
10
55.4049235181061
20
3.47486116719409
30
0
41
1
10
55.3269731562279
20
3.34061807791414
30
0
0
SPLINE
5
1C7
100
AcDbEntity
8
1
62
256
6
ByLayer
370
18
48
1
60
0
100
AcDbSpline
70
4
71
2
72
6
73
3
40
0
40
0
40
0
40
1
40
1
40
1
41
1
10
63.4505285126913
20
-3.33824882282897
30
0
41
1
10
63.5569747418214
20
-3.52152462166689
30
0
41
1
10
63.6633152930748
20
-3.7048868089577
30
0
0
SPLINE
5
1C8
100
AcDbEntity
8
1
62
256
6
ByLayer
370
18
48
1
60
0
100
AcDbSpline
70
4
71
3
72
11
73
7
40
0
40
0
40
0
40
0
40
0.244963822940131
40
0.500566832806419
40
0.75583864335286
40
1
40
1
40
1
40
1
41
1
10
63.1765776096263
20
-3.34029548498111
30
0
41
1
10
63.1888507069106
20
-3.31775449422744
30
0
41
1
10
63.2231457145465
20
-3.28334065713244
30
0
41
1
10
63.3177906431864
20
-3.25409967405247
30
0
41
1
10
63.4125239429559
20
-3.28791234983189
30
0
41
1
10
63.4468449213315
20
-3.32570374524394
30
0
41
1
10
63.4591509023535
20
-3.34991330664437
30
0
0
SPLINE
5
1C9
100
AcDbEntity
8
1
62
256
6
ByLayer
370
18
48
1
60
0
100
AcDbSpline
70
4
71
2
72
6
73
3
40
0
40
0
40
0
40
1
40
1
40
1
41
1
10
56.2997918678136
20
3.34320181101083
30
0
41
1
10
56.1970922105488
20
3.51995016798591
30
0
41
1
10
56.0944358921229
20
3.69683286022521
30
0
0
SPLINE
5
1CA
100
AcDbEntity
8
1
62
256
6
ByLayer
370
18
48
1
60
0
100
AcDbSpline
70
4
71
3
72
11
73
7
40
0
40
0
40
0
40
0
40
0.272789805623924
40
0.534932446636529
40
0.778101700131556
40
1
40
1
40
1
40
1
41
1
10
56.5754378561166
20
3.33807688374247
30
0
41
1
10
56.5603184599515
20
3.31226389144825
30
0
41
1
10
56.5216325281838
20
3.27657169752328
30
0
41
1
10
56.4166098029461
20
3.25666204667527
30
0
41
1
10
56.3370856356468
20
3.29468101616942
30
0
41
1
10
56.3117559469649
20
3.32055017539878
30
0
41
1
10
56.3043436068338
20
3.3357308238391
30
0
0
SPLINE
5
1CB
100
AcDbEntity
8
1
62
256
6
ByLayer
370
18
48
1
60
0
100
AcDbSpline
70
4
71
2
72
6
73
3
40
0
40
0
40
0
40
1
40
1
40
1
41
1
10
62.8320093351688
20
-3.93366334282973
30
0
41
1
10
63.0048368952671
20
-3.63570255724858
30
0
41
1
10
63.1779907294193
20
-3.33794806503153
30
0
0
SPLINE
5
1CC
100
AcDbEntity
8
1
62
256
6
ByLayer
370
18
48
1
60
0
100
AcDbSpline
70
4
71
1
72
4
73
2
40
0
40
0
40
1
40
1
41
1
10
62.6003547244755
20
-4.0021208229511
30
0
41
1
10
62.8230214062402
20
-3.94367296343512
30
0
0
SPLINE
5
1CD
100
AcDbEntity
8
1
62
256
6
ByLayer
370
18
48
1
60
0
100
AcDbSpline
70
4
71
2
72
6
73
3
40
0
40
0
40
0
40
1
40
1
40
1
41
1
10
62.197735183499
20
-3.33312962565131
30
0
41
1
10
62.3879797043747
20
-3.66062005045143
30
0
41
1
10
62.5778318092767
20
-3.98838812222127
30
0
0
SPLINE
5
1CE
100
AcDbEntity
8
1
62
256
6
ByLayer
370
18
48
1
60
0
100
AcDbSpline
70
4
71
3
72
10
73
6
40
0
40
0
40
0
40
0
40
0.464824555683788
40
0.727174397880637
40
1
40
1
40
1
40
1
41
1
10
61.9303726203971
20
-3.33381669138404
30
0
41
1
10
61.9546710308198
20
-3.29204607673734
30
0
41
1
10
62.0054253456373
20
-3.25755255167309
30
0
41
1
10
62.1461096880885
20
-3.2742879435495
30
0
41
1
10
62.1847338085548
20
-3.3117941394656
30
0
41
1
10
62.2004163966225
20
-3.33805395614499
30
0
0
SPLINE
5
1CF
100
AcDbEntity
8
1
62
256
6
ByLayer
370
18
48
1
60
0
100
AcDbSpline
70
4
71
2
72
6
73
3
40
0
40
0
40
0
40
1
40
1
40
1
41
1
10
56.8329191696276
20
3.781803683269
30
0
41
1
10
56.7042697423677
20
3.55989417969644
30
0
41
1
10
56.5754491573018
20
3.33809634091128
30
0
0
SPLINE
5
1D0
100
AcDbEntity
8
1
62
256
6
ByLayer
370
18
48
1
60
0
100
AcDbSpline
70
4
71
2
72
6
73
3
40
0
40
0
40
0
40
1
40
1
40
1
41
1
10
57.5530517718722
20
3.33803463634558
30
0
41
1
10
57.4002145504264
20
3.60084485571784
30
0
41
1
10
57.2476390975278
20
3.86381646375887
30
0
0
SPLINE
5
1D1
100
AcDbEntity
8
1
62
256
6
ByLayer
370
18
48
1
60
0
100
AcDbSpline
70
4
71
3
72
11
73
7
40
0
40
0
40
0
40
0
40
0.251211723176965
40
0.507523178140665
40
0.75730978467561
40
1
40
1
40
1
40
1
41
1
10
57.8289105078536
20
3.34357733645459
30
0
41
1
10
57.8110948612281
20
3.31500464861455
30
0
41
1
10
57.76856458334
20
3.27374617842924
30
0
41
1
10
57.6604238170031
20
3.25729065175273
30
0
41
1
10
57.5828200451999
20
3.29881483900652
30
0
41
1
10
57.5588500532485
20
3.3234843461365
30
0
41
1
10
57.5529328838598
20
3.33823864661864
30
0
0
SPLINE
5
1D2
100
AcDbEntity
8
1
62
256
6
ByLayer
370
18
48
1
60
0
100
AcDbSpline
70
4
71
2
72
6
73
3
40
0
40
0
40
0
40
1
40
1
40
1
41
1
10
61.5136586973214
20
-4.05160919723454
30
0
41
1
10
61.7207052115143
20
-3.69458447844013
30
0
41
1
10
61.9279750075211
20
-3.33817483901052
30
0
0
SPLINE
5
1D3
100
AcDbEntity
8
1
62
256
6
ByLayer
370
18
48
1
60
0
100
AcDbSpline
70
4
71
3
72
13
73
9
40
0
40
0
40
0
40
0
40
0.24135881659401
40
0.369711556588417
40
0.50063803910481
40
0.631466259312404
40
0.759541487432601
40
1
40
1
40
1
40
1
41
1
10
60.661416105338
20
-3.354999798189
30
0
41
1
10
60.674168185701
20
-3.32948908794865
30
0
41
1
10
60.7016392881634
20
-3.29830535229931
30
0
41
1
10
60.7579027622859
20
-3.26940914330766
30
0
41
1
10
60.8066499299699
20
-3.26062838169318
30
0
41
1
10
60.8553994992261
20
-3.26584795975953
30
0
41
1
10
60.9116570683366
20
-3.29006869802532
30
0
41
1
10
60.9391385246176
20
-3.31754659484872
30
0
41
1
10
60.9519208386366
20
-3.34053141060522
30
0
0
SPLINE
5
1D4
100
AcDbEntity
8
1
62
256
6
ByLayer
370
18
48
1
60
0
100
AcDbSpline
70
4
71
2
72
6
73
3
40
0
40
0
40
0
40
1
40
1
40
1
41
1
10
60.9505067215004
20
-3.33818604049625
30
0
41
1
10
61.1582853241613
20
-3.6959777757092
30
0
41
1
10
61.3656832035755
20
-4.05402209056737
30
0
0
SPLINE
5
1D5
100
AcDbEntity
8
1
62
256
6
ByLayer
370
18
48
1
60
0
100
AcDbSpline
70
4
71
2
72
6
73
3
40
0
40
0
40
0
40
1
40
1
40
1
41
1
10
58.9295161288329
20
3.27344278749746
30
0
41
1
10
58.8387021120276
20
3.26553324866165
30
0
41
1
10
58.8116526445954
20
3.32007443483747
30
0
0
SPLINE
5
1D6
100
AcDbEntity
8
1
62
256
6
ByLayer
370
18
48
1
60
0
100
AcDbSpline
70
4
71
2
72
6
73
3
40
0
40
0
40
0
40
1
40
1
40
1
41
1
10
58.2086573338594
20
3.99425512270974
30
0
41
1
10
58.022840732008
20
3.67324341193296
30
0
41
1
10
57.8369464304056
20
3.35232960089459
30
0
0
SPLINE
5
1D7
100
AcDbEntity
8
1
62
256
6
ByLayer
370
18
48
1
60
0
100
AcDbSpline
70
4
71
2
72
6
73
3
40
0
40
0
40
0
40
1
40
1
40
1
41
1
10
58.8029291514517
20
3.33820571757059
30
0
41
1
10
58.6015216476077
20
3.68453621706718
30
0
41
1
10
58.4002943003749
20
4.03147416563129
30
0
0
SPLINE
5
1D8
100
AcDbEntity
8
1
62
256
6
ByLayer
370
18
48
1
60
0
100
AcDbSpline
70
4
71
2
72
6
73
3
40
0
40
0
40
0
40
1
40
1
40
1
41
1
10
59.6911133605462
20
-3.31832643257451
30
0
41
1
10
59.8976324632876
20
-3.67221886250999
30
0
41
1
10
60.1040613986733
20
-4.02701255672241
30
0
0
LINE
5
7F
100
AcDbEntity
8
80
62
256
6
ByLayer
370
18
48
1
60
0
100
AcDbLine
10
0
20
0
30
0
11
-5
21
0
31
0
39
0
210
0
220
0
230
1
0
LINE
5
80
100
AcDbEntity
8
4
62
256
6
ByLayer
370
18
48
0.05
60
0
100
AcDbLine
10
0
20
0
30
0
11
67.55
21
0
31
0
39
0
210
0
220
0
230
1
0
LINE
5
82
100
AcDbEntity
8
81
62
256
6
ByLayer
370
18
48
1
60
0
100
AcDbLine
10
67.55
20
0
30
0
11
72.55
21
0
31
0
39
0
210
0
220
0
230
1
0
LINE
5
83
100
AcDbEntity
8
SK4
62
256
6
ByLayer
370
18
48
0.05
60
0
100
AcDbLine
10
-24
20
0
30
0
11
67.55
21
0
31
0
39
0
210
0
220
0
230
1
0
LINE
5
85
100
AcDbEntity
8
1
62
256
6
ByLayer
370
18
48
1
60
0
100
AcDbLine
10
0
20
4
30
0
11
0
21
-4
31
0
39
0
210
0
220
0
230
1
0
LINE
5
86
100
AcDbEntity
8
1
62
256
6
ByLayer
370
18
48
1
60
0
100
AcDbLine
10
66
20
2.940525
30
0
11
66
21
2.93976
31
0
39
0
210
0
220
0
230
1
0
LINE
5
87
100
AcDbEntity
8
1
62
256
6
ByLayer
370
18
48
1
60
0
100
AcDbLine
10
56.299695
20
3.343342
30
0
11
56.303748
21
3.336809
31
0
39
0
210
0
220
0
230
1
0
LINE
5
88
100
AcDbEntity
8
1
62
256
6
ByLayer
370
18
48
1
60
0
100
AcDbLine
10
63.177965
20
-3.337992
30
0
11
63.175871
21
-3.341407
31
0
39
0
210
0
220
0
230
1
0
LINE
5
89
100
AcDbEntity
8
1
62
256
6
ByLayer
370
18
48
1
60
0
100
AcDbLine
10
62.197676
20
-3.333014
30
0
11
62.201753
21
-3.340282
31
0
39
0
210
0
220
0
230
1
0
LINE
5
8A
100
AcDbEntity
8
1
62
256
6
ByLayer
370
18
48
1
60
0
100
AcDbLine
10
56.575392
20
3.337998
30
0
11
56.577227
21
3.341023
31
0
39
0
210
0
220
0
230
1
0
LINE
5
8B
100
AcDbEntity
8
1
62
256
6
ByLayer
370
18
48
1
60
0
100
AcDbLine
10
61.9278
20
-3.338474
30
0
11
61.929611
21
-3.335253
31
0
39
0
210
0
220
0
230
1
0
LINE
5
8C
100
AcDbEntity
8
1
62
256
6
ByLayer
370
18
48
1
60
0
100
AcDbLine
10
54
20
1.094408
30
0
11
54
21
-1.128677
31
0
39
0
210
0
220
0
230
1
0
LINE
5
8D
100
AcDbEntity
8
1
62
256
6
ByLayer
370
13
48
1
60
0
100
AcDbLine
10
53.071851
20
-3
30
0
11
53.071851
21
-2.993961
31
0
39
0
210
0
220
0
230
1
0
LINE
5
8E
100
AcDbEntity
8
1
62
256
6
ByLayer
370
13
48
1
60
0
100
AcDbLine
10
31.096238
20
-3
30
0
11
31.096238
21
3
31
0
39
0
210
0
220
0
230
1
0
LINE
5
8F
100
AcDbEntity
8
1
62
256
6
ByLayer
370
13
48
1
60
0
100
AcDbLine
10
53.071851
20
-0.370781
30
0
11
53.071851
21
1.661749
31
0
39
0
210
0
220
0
230
1
0
LINE
5
90
100
AcDbEntity
8
1
62
256
6
ByLayer
370
13
48
1
60
0
100
AcDbLine
10
53.535385
20
1.49856
30
0
11
53.535385
21
-0.691029
31
0
39
0
210
0
220
0
230
1
0
LINE
5
91
100
AcDbEntity
8
1
62
256
6
ByLayer
370
18
48
1
60
0
100
AcDbLine
10
58.67117
20
-1.821598
30
0
11
58.67117
21
-2.023189
31
0
39
0
210
0
220
0
230
1
0
LINE
5
92
100
AcDbEntity
8
1
62
256
6
ByLayer
370
13
48
1
60
0
100
AcDbLine
10
30.905225
20
3.016711
30
0
11
30.905225
21
-3.016711
31
0
39
0
210
0
220
0
230
1
0
LINE
5
93
100
AcDbEntity
8
1
62
256
6
ByLayer
370
18
48
1
60
0
100
AcDbLine
10
25.328718
20
4
30
0
11
25.328718
21
-4
31
0
39
0
210
0
220
0
230
1
0
LINE
5
94
100
AcDbEntity
8
SK1
62
256
6
ByLayer
370
18
48
1
60
0
100
AcDbLine
10
-24
20
2.64
30
0
11
-24
21
-2.64
31
0
39
0
210
0
220
0
230
1
0
LINE
5
96
100
AcDbEntity
8
SK1
62
256
6
ByLayer
370
18
48
1
60
0
100
AcDbLine
10
-15
20
3.1
30
0
11
-14.26
21
3.84
31
0
39
0
210
0
220
0
230
1
0
LINE
5
97
100
AcDbEntity
8
SK1
62
256
6
ByLayer
370
18
48
1
60
0
100
AcDbLine
10
-22.8
20
3.1
30
0
11
-15
21
3.1
31
0
39
0
210
0
220
0
230
1
0
LINE
5
98
100
AcDbEntity
8
SK1
62
256
6
ByLayer
370
18
48
1
60
0
100
AcDbLine
10
-22.8
20
2.266186
30
0
11
-22.8
21
3.1
31
0
39
0
210
0
220
0
230
1
0
LINE
5
99
100
AcDbEntity
8
SK1
62
256
6
ByLayer
370
18
48
1
60
0
100
AcDbLine
10
-15
20
2.266186
30
0
11
-22.8
21
2.266186
31
0
39
0
210
0
220
0
230
1
0
LINE
5
9A
100
AcDbEntity
8
SK1
62
256
6
ByLayer
370
18
48
1
60
0
100
AcDbLine
10
-22.8
20
-2.266186
30
0
11
-15
21
-2.266186
31
0
39
0
210
0
220
0
230
1
0
LINE
5
9B
100
AcDbEntity
8
SK1
62
256
6
ByLayer
370
18
48
1
60
0
100
AcDbLine
10
-22.8
20
-3.1
30
0
11
-22.8
21
-2.266186
31
0
39
0
210
0
220
0
230
1
0
LINE
5
9C
100
AcDbEntity
8
SK1
62
256
6
ByLayer
370
18
48
1
60
0
100
AcDbLine
10
-15
20
-3.1
30
0
11
-22.8
21
-3.1
31
0
39
0
210
0
220
0
230
1
0
LINE
5
9D
100
AcDbEntity
8
SK1
62
256
6
ByLayer
370
18
48
1
60
0
100
AcDbLine
10
-15
20
-3.1
30
0
11
-14.26
21
-3.84
31
0
39
0
210
0
220
0
230
1
0
LINE
5
9E
100
AcDbEntity
8
SK1
62
256
6
ByLayer
370
18
48
1
60
0
100
AcDbLine
10
-15
20
2.266186
30
0
11
-15
21
-2.266186
31
0
39
0
210
0
220
0
230
1
0
LINE
5
9F
100
AcDbEntity
8
SK1
62
256
6
ByLayer
370
18
48
1
60
0
100
AcDbLine
10
-14.1
20
3.84
30
0
11
-14.1
21
-3.84
31
0
39
0
210
0
220
0
230
1
0
LINE
5
A0
100
AcDbEntity
8
SK1
62
256
6
ByLayer
370
18
48
1
60
0
100
AcDbLine
10
0
20
4
30
0
11
0
21
-4
31
0
39
0
210
0
220
0
230
1
0
LINE
5
A1
100
AcDbEntity
8
SK1
62
256
6
ByLayer
370
18
48
1
60
0
100
AcDbLine
10
-13.94
20
-4
30
0
11
-13.94
21
4
31
0
39
0
210
0
220
0
230
1
0
LINE
5
A2
100
AcDbEntity
8
1
62
256
6
ByLayer
370
18
48
1
60
0
100
AcDbLine
10
56.082227
20
3.700356
30
0
11
55.495248
21
3.617862
31
0
39
0
210
0
220
0
230
1
0
LINE
5
A3
100
AcDbEntity
8
1
62
256
6
ByLayer
370
18
48
1
60
0
100
AcDbLine
10
25.328718
20
4
30
0
11
0
21
4
31
0
39
0
210
0
220
0
230
1
0
LINE
5
A4
100
AcDbEntity
8
1
62
256
6
ByLayer
370
18
48
1
60
0
100
AcDbLine
10
0
20
-4
30
0
11
25.328718
21
-4
31
0
39
0
210
0
220
0
230
1
0
LINE
5
A5
100
AcDbEntity
8
1
62
256
6
ByLayer
370
18
48
1
60
0
100
AcDbLine
10
57.237574
20
3.86273
30
0
11
56.857299
21
3.809285
31
0
39
0
210
0
220
0
230
1
0
LINE
5
A6
100
AcDbEntity
8
1
62
256
6
ByLayer
370
18
48
1
60
0
100
AcDbLine
10
58.394962
20
4.02539
30
0
11
58.217537
21
4.000454
31
0
39
0
210
0
220
0
230
1
0
LINE
5
A7
100
AcDbEntity
8
1
62
256
6
ByLayer
370
18
48
1
60
0
100
AcDbLine
10
67.55
20
0
30
0
11
66
21
1.55
31
0
39
0
210
0
220
0
230
1
0
LINE
5
A8
100
AcDbEntity
8
1
62
256
6
ByLayer
370
18
48
1
60
0
100
AcDbLine
10
66
20
-1.55
30
0
11
67.55
21
0
31
0
39
0
210
0
220
0
230
1
0
LINE
5
A9
100
AcDbEntity
8
1
62
256
6
ByLayer
370
18
48
1
60
0
100
AcDbLine
10
61.379987
20
-4.064208
30
0
11
61.497983
21
-4.064208
31
0
39
0
210
0
220
0
230
1
0
LINE
5
AA
100
AcDbEntity
8
1
62
256
6
ByLayer
370
18
48
1
60
0
100
AcDbLine
10
31.096238
20
-3
30
0
11
42.676542
21
-3
31
0
39
0
210
0
220
0
230
1
0
LINE
5
AB
100
AcDbEntity
8
1
62
256
6
ByLayer
370
18
48
1
60
0
100
AcDbLine
10
49.771447
20
-3
30
0
11
53.071851
21
-3
31
0
39
0
210
0
220
0
230
1
0
LINE
5
AC
100
AcDbEntity
8
1
62
256
6
ByLayer
370
18
48
1
60
0
100
AcDbLine
10
48.036276
20
3
30
0
11
44.434088
21
3
31
0
39
0
210
0
220
0
230
1
0
LINE
5
AD
100
AcDbEntity
8
1
62
256
6
ByLayer
370
18
48
1
60
0
100
AcDbLine
10
37.757535
20
3
30
0
11
31.096238
21
3
31
0
39
0
210
0
220
0
230
1
0
LINE
5
AE
100
AcDbEntity
8
1
62
256
6
ByLayer
370
18
48
1
60
0
100
AcDbLine
10
60.130004
20
-4.064208
30
0
11
60.247997
21
-4.064208
31
0
39
0
210
0
220
0
230
1
0
LINE
5
AF
100
AcDbEntity
8
1
62
256
6
ByLayer
370
18
48
1
60
0
100
AcDbLine
10
30.905225
20
3.016711
30
0
11
25.328718
21
4
31
0
39
0
210
0
220
0
230
1
0
LINE
5
B0
100
AcDbEntity
8
1
62
256
6
ByLayer
370
18
48
1
60
0
100
AcDbLine
10
25.328718
20
-4
30
0
11
30.905225
21
-3.016711
31
0
39
0
210
0
220
0
230
1
0
LINE
5
B1
100
AcDbEntity
8
SK1
62
256
6
ByLayer
370
18
48
1
60
0
100
AcDbLine
10
-24
20
-2.64
30
0
11
-23.54
21
-3.1
31
0
39
0
210
0
220
0
230
1
0
LINE
5
B2
100
AcDbEntity
8
SK1
62
256
6
ByLayer
370
18
48
1
60
0
100
AcDbLine
10
-23.54
20
3.1
30
0
11
-24
21
2.64
31
0
39
0
210
0
220
0
230
1
0
LINE
5
B3
100
AcDbEntity
8
SK1
62
256
6
ByLayer
370
18
48
1
60
0
100
AcDbLine
10
-14.1
20
3.84
30
0
11
-14.26
21
3.84
31
0
39
0
210
0
220
0
230
1
0
LINE
5
B4
100
AcDbEntity
8
SK1
62
256
6
ByLayer
370
18
48
1
60
0
100
AcDbLine
10
-14.26
20
-3.84
30
0
11
-14.1
21
-3.84
31
0
39
0
210
0
220
0
230
1
0
LINE
5
B5
100
AcDbEntity
8
SK1
62
256
6
ByLayer
370
18
48
1
60
0
100
AcDbLine
10
-14.1
20
-3.84
30
0
11
-13.94
21
-4
31
0
39
0
210
0
220
0
230
1
0
LINE
5
B6
100
AcDbEntity
8
SK1
62
256
6
ByLayer
370
18
48
1
60
0
100
AcDbLine
10
-13.94
20
4
30
0
11
-14.1
21
3.84
31
0
39
0
210
0
220
0
230
1
0
LINE
5
B7
100
AcDbEntity
8
SK1
62
256
6
ByLayer
370
18
48
1
60
0
100
AcDbLine
10
0
20
4
30
0
11
-13.94
21
4
31
0
39
0
210
0
220
0
230
1
0
LINE
5
B8
100
AcDbEntity
8
SK1
62
256
6
ByLayer
370
18
48
1
60
0
100
AcDbLine
10
-13.94
20
-4
30
0
11
0
21
-4
31
0
39
0
210
0
220
0
230
1
0
LINE
5
B9
100
AcDbEntity
8
SK2
62
256
6
ByLayer
370
18
48
1
60
0
100
AcDbLine
10
13.694359
20
-4
30
0
11
13.694359
21
16.841828
31
0
39
0
210
0
220
0
230
1
0
LINE
5
BB
100
AcDbEntity
8
1
62
256
6
ByLayer
370
18
48
1
60
1
100
AcDbLine
10
13.694359
20
4
30
0
11
14.155143
21
0.500002
31
0
39
0
210
0
220
0
230
1
0
LINE
5
BC
100
AcDbEntity
8
1
62
256
6
ByLayer
370
18
48
1
60
1
100
AcDbLine
10
14.155143
20
0.500002
30
0
11
13.233575
21
0.499998
31
0
39
0
210
0
220
0
230
1
0
LINE
5
BD
100
AcDbEntity
8
1
62
256
6
ByLayer
370
18
48
1
60
1
100
AcDbLine
10
13.233575
20
0.499998
30
0
11
13.694359
21
4
31
0
39
0
210
0
220
0
230
1
0
LINE
5
BE
100
AcDbEntity
8
1
62
256
6
ByLayer
370
18
48
1
60
1
100
AcDbLine
10
13.694359
20
-4
30
0
11
13.233575
21
-0.500002
31
0
39
0
210
0
220
0
230
1
0
LINE
5
BF
100
AcDbEntity
8
1
62
256
6
ByLayer
370
18
48
1
60
1
100
AcDbLine
10
13.233575
20
-0.500002
30
0
11
14.155143
21
-0.499998
31
0
39
0
210
0
220
0
230
1
0
LINE
5
C0
100
AcDbEntity
8
1
62
256
6
ByLayer
370
18
48
1
60
1
100
AcDbLine
10
14.155143
20
-0.499998
30
0
11
13.694359
21
-4
31
0
39
0
210
0
220
0
230
1
0
LINE
5
C1
100
AcDbEntity
8
2
62
256
6
ByLayer
370
18
48
1
60
0
100
AcDbLine
10
66
20
-41.564208
30
0
11
-24
21
-41.564208
31
0
39
0
210
0
220
0
230
1
0
LINE
5
C3
100
AcDbEntity
8
2
62
256
6
ByLayer
370
18
48
1
60
0
100
AcDbLine
10
-24
20
-4.2275
30
0
11
-24
21
-43.564208
31
0
39
0
210
0
220
0
230
1
0
LINE
5
C4
100
AcDbEntity
8
2
62
256
6
ByLayer
370
18
48
1
60
0
100
AcDbLine
10
66
20
-5.651708
30
0
11
66
21
-43.564208
31
0
39
0
210
0
220
0
230
1
0
LINE
5
C5
100
AcDbEntity
8
1
62
256
6
ByLayer
370
18
48
1
60
1
100
AcDbLine
10
-24
20
-41.564208
30
0
11
-20.500002
21
-41.103425
31
0
39
0
210
0
220
0
230
1
0
LINE
5
C6
100
AcDbEntity
8
1
62
256
6
ByLayer
370
18
48
1
60
1
100
AcDbLine
10
-20.500002
20
-41.103425
30
0
11
-20.499998
21
-42.024992
31
0
39
0
210
0
220
0
230
1
0
LINE
5
C7
100
AcDbEntity
8
1
62
256
6
ByLayer
370
18
48
1
60
1
100
AcDbLine
10
-20.499998
20
-42.024992
30
0
11
-24
21
-41.564208
31
0
39
0
210
0
220
0
230
1
0
LINE
5
C8
100
AcDbEntity
8
1
62
256
6
ByLayer
370
18
48
1
60
1
100
AcDbLine
10
66
20
-41.564208
30
0
11
62.500002
21
-42.024992
31
0
39
0
210
0
220
0
230
1
0
LINE
5
C9
100
AcDbEntity
8
1
62
256
6
ByLayer
370
18
48
1
60
1
100
AcDbLine
10
62.500002
20
-42.024992
30
0
11
62.499998
21
-41.103425
31
0
39
0
210
0
220
0
230
1
0
LINE
5
CA
100
AcDbEntity
8
1
62
256
6
ByLayer
370
18
48
1
60
1
100
AcDbLine
10
62.499998
20
-41.103425
30
0
11
66
21
-41.564208
31
0
39
0
210
0
220
0
230
1
0
LINE
5
1DD
100
AcDbEntity
8
1
62
256
6
ByLayer
370
18
48
1
60
1
100
AcDbLine
10
13.694359
20
4
30
0
11
14.155143
21
0.500002
31
0
39
0
210
0
220
0
230
1
0
LINE
5
1DE
100
AcDbEntity
8
1
62
256
6
ByLayer
370
18
48
1
60
1
100
AcDbLine
10
14.155143
20
0.500002
30
0
11
13.233575
21
0.499998
31
0
39
0
210
0
220
0
230
1
0
LINE
5
1DF
100
AcDbEntity
8
1
62
256
6
ByLayer
370
18
48
1
60
1
100
AcDbLine
10
13.233575
20
0.499998
30
0
11
13.694359
21
4
31
0
39
0
210
0
220
0
230
1
0
LINE
5
1E1
100
AcDbEntity
8
1
62
256
6
ByLayer
370
18
48
1
60
1
100
AcDbLine
10
13.694359
20
-4
30
0
11
13.233575
21
-0.500002
31
0
39
0
210
0
220
0
230
1
0
LINE
5
1E2
100
AcDbEntity
8
1
62
256
6
ByLayer
370
18
48
1
60
1
100
AcDbLine
10
13.233575
20
-0.500002
30
0
11
14.155143
21
-0.499998
31
0
39
0
210
0
220
0
230
1
0
LINE
5
1E3
100
AcDbEntity
8
1
62
256
6
ByLayer
370
18
48
1
60
1
100
AcDbLine
10
14.155143
20
-0.499998
30
0
11
13.694359
21
-4
31
0
39
0
210
0
220
0
230
1
0
LINE
5
1E6
100
AcDbEntity
8
1
62
256
6
ByLayer
370
18
48
1
60
1
100
AcDbLine
10
-24
20
-41.564208
30
0
11
-20.500002
21
-41.103425
31
0
39
0
210
0
220
0
230
1
0
LINE
5
1E7
100
AcDbEntity
8
1
62
256
6
ByLayer
370
18
48
1
60
1
100
AcDbLine
10
-20.500002
20
-41.103425
30
0
11
-20.499998
21
-42.024992
31
0
39
0
210
0
220
0
230
1
0
LINE
5
1E8
100
AcDbEntity
8
1
62
256
6
ByLayer
370
18
48
1
60
1
100
AcDbLine
10
-20.499998
20
-42.024992
30
0
11
-24
21
-41.564208
31
0
39
0
210
0
220
0
230
1
0
LINE
5
1EA
100
AcDbEntity
8
1
62
256
6
ByLayer
370
18
48
1
60
1
100
AcDbLine
10
66
20
-41.564208
30
0
11
62.500002
21
-42.024992
31
0
39
0
210
0
220
0
230
1
0
LINE
5
1EB
100
AcDbEntity
8
1
62
256
6
ByLayer
370
18
48
1
60
1
100
AcDbLine
10
62.500002
20
-42.024992
30
0
11
62.499998
21
-41.103425
31
0
39
0
210
0
220
0
230
1
0
LINE
5
1EC
100
AcDbEntity
8
1
62
256
6
ByLayer
370
18
48
1
60
1
100
AcDbLine
10
62.499998
20
-41.103425
30
0
11
66
21
-41.564208
31
0
39
0
210
0
220
0
230
1
0
MTEXT
5
1D9
100
AcDbEntity
8
SK2
62
256
6
ByLayer
370
18
48
1
60
0
100
AcDbMText
10
12.353245
20
9.658437
30
0
210
0
220
0
230
1
1
%%c
40
3
41
0
44
1.084337
50
90
71
7
72
5
7
iso_b_vert
0
MTEXT
5
1DC
100
AcDbEntity
8
SK2
62
256
6
ByLayer
370
18
48
1
60
0
100
AcDbMText
10
12.353245
20
15.635
30
0
210
0
220
0
230
1
1
\W0.5404;8
40
3
41
0
44
1.084337
50
90
71
7
72
5
7
iso_b_vert
0
MTEXT
5
1E5
100
AcDbEntity
8
2
62
256
6
ByLayer
370
18
48
1
60
0
100
AcDbMText
10
19.367172
20
-40.679094
30
0
210
0
220
0
230
1
1
\W0.6740;90
40
3
41
0
44
1.084337
50
0
71
7
72
5
7
iso_b_vert
0
MTEXT
5
1EE
100
AcDbEntity
8
SK6
62
256
6
ByLayer
370
18
48
1
60
0
100
AcDbMText
10
2.969291
20
-82.114886
30
0
210
0
220
0
230
1
1
\W0.7426;T300-XM150DA-M8     B150
40
3
41
0
44
1.084337
50
0
71
7
72
5
7
iso_b_vert
0
HATCH
5
1E0
100
AcDbEntity
8
SK2
62
256
6
ByLayer
370
13
48
1
60
0
100
AcDbHatch
10
0
20
0
30
0
210
0
220
0
230
1
2
ANSI31
70
0
71
0
91
1
92
5
93
3
72
1
10
13.6943590901912
20
4.00000000000003
11
14.1551428317439
21
0.500001692553212
72
1
10
14.1551428317439
20
0.500001692553212
11
13.2335753486384
21
0.499998307446845
72
1
10
13.2335753486384
20
0.499998307446845
11
13.6943590901912
21
4.00000000000003
97
0
75
0
76
1
52
0
41
0.0062
77
0
78
1
53
45
43
0
44
0
45
-0.0139193969876572
46
0.0139193969876572
79
0
47
0
98
1
10
0
20
0
0
HATCH
5
1E4
100
AcDbEntity
8
SK2
62
256
6
ByLayer
370
13
48
1
60
0
100
AcDbHatch
10
0
20
0
30
0
210
0
220
0
230
1
2
ANSI31
70
0
71
0
91
1
92
5
93
3
72
1
10
13.6943590901912
20
-3.99999999999997
11
13.2335753486384
21
-0.500001692553155
72
1
10
13.2335753486384
20
-0.500001692553155
11
14.1551428317439
21
-0.499998307446788
72
1
10
14.1551428317439
20
-0.499998307446788
11
13.6943590901912
21
-3.99999999999997
97
0
75
0
76
1
52
0
41
0.0062
77
0
78
1
53
45
43
0
44
0
45
-0.0139193969876572
46
0.0139193969876572
79
0
47
0
98
1
10
0
20
0
0
HATCH
5
1E9
100
AcDbEntity
8
2
62
256
6
ByLayer
370
13
48
1
60
0
100
AcDbHatch
10
0
20
0
30
0
210
0
220
0
230
1
2
ANSI31
70
0
71
0
91
1
92
5
93
3
72
1
10
-24
20
-41.5642083312539
11
-20.5000016925532
21
-41.1034245897011
72
1
10
-20.5000016925532
20
-41.1034245897011
11
-20.4999983074468
21
-42.0249920728067
72
1
10
-20.4999983074468
20
-42.0249920728067
11
-24
21
-41.5642083312539
97
0
75
0
76
1
52
0
41
0.0062
77
0
78
1
53
45
43
0
44
0
45
-0.0139193969876572
46
0.0139193969876572
79
0
47
0
98
1
10
0
20
0
0
HATCH
5
1ED
100
AcDbEntity
8
2
62
256
6
ByLayer
370
13
48
1
60
0
100
AcDbHatch
10
0
20
0
30
0
210
0
220
0
230
1
2
ANSI31
70
0
71
0
91
1
92
5
93
3
72
1
10
66
20
-41.5642083312539
11
62.5000016925532
21
-42.0249920728067
72
1
10
62.5000016925532
20
-42.0249920728067
11
62.4999983074468
21
-41.1034245897011
72
1
10
62.4999983074468
20
-41.1034245897011
11
66
21
-41.5642083312539
97
0
75
0
76
1
52
0
41
0.0062
77
0
78
1
53
45
43
0
44
0
45
-0.0139193969876572
46
0.0139193969876572
79
0
47
0
98
1
10
0
20
0
0
DIMENSION
5
1F1
100
AcDbEntity
8
2
62
256
6
ByLayer
370
18
48
1
60
0
100
AcDbDimension
2
_U0
10
85.5
20
-4.064208
30
0
11
85.5
21
21.564208
31
0
70
32
71
1
72
1
41
1
210
0
220
0
230
1
3
Standard
100
AcDbAlignedDimension
13
66
23
4.064208
33
0
14
66
24
-4.064208
34
0
50
90
100
AcDbRotatedDimension
1001
ACAD
1000
DSTYLE
1002
{
1070
   371
1070
    13
1070
   372
1070
    13
1070
     3
1000

1070
   170
1070
     0
1070
   144
1040
1.0
1070
   277
1070
     2
1070
   284
1070
     8
1070
   278
1070
    46
1070
   146
1040
1.166667
1070
   345
1005
16
1070
   347
1005
16
1070
   346
1005
16
1070
   344
1005
0
1070
   343
1005
0
1070
   172
1070
     1
1070
    76
1070
     0
1070
    75
1070
     0
1070
   282
1070
     0
1070
   281
1070
     0
1070
    71
1070
     0
1070
    74
1070
     0
1070
   279
1070
     0
1070
   173
1070
     1
1070
   340
1005
1DA
1070
   271
1070
     3
1070
   272
1070
     3
1070
    77
1070
     1
1070
    73
1070
     0
1070
   171
1070
     3
1070
   274
1070
     4
1070
   177
1070
     2
1070
   176
1070
     2
1070
   178
1070
     2
1070
    78
1070
     8
1070
    48
1040
-0.1
1070
    41
1040
3.5
1070
   147
1040
1.5
1070
    42
1040
1.5875
1070
    44
1040
2.0
1070
   140
1040
3.0
1002
}
1001
ACAD_DSTYLE_DIM_LINETYPE
1070
   380
1005
16
1001
ACAD_DSTYLE_DIM_EXT1_LINETYPE
1070
   381
1005
16
1001
ACAD_DSTYLE_DIM_EXT2_LINETYPE
1070
   382
1005
16
0
DIMENSION
5
20C
100
AcDbEntity
8
SK2
62
256
6
ByLayer
370
18
48
1
60
0
100
AcDbDimension
2
_U1
10
62.56
20
13.031085
30
0
11
64.28
21
13.031085
31
0
70
32
71
1
72
1
41
1
210
0
220
0
230
1
3
Standard
100
AcDbAlignedDimension
13
66
23
4.064208
33
0
14
62.56
24
0
34
0
50
0
100
AcDbRotatedDimension
1001
ACAD
1000
DSTYLE
1002
{
1070
   371
1070
    13
1070
   372
1070
    13
1070
   170
1070
     0
1070
   144
1040
1.0
1070
   277
1070
     2
1070
   284
1070
     8
1070
   278
1070
    46
1070
   146
1040
1.166667
1070
   345
1005
16
1070
   347
1005
16
1070
   346
1005
16
1070
   344
1005
0
1070
   343
1005
0
1070
   172
1070
     1
1070
    76
1070
     0
1070
    75
1070
     0
1070
   282
1070
     0
1070
   281
1070
     0
1070
    71
1070
     0
1070
    74
1070
     0
1070
   279
1070
     0
1070
   173
1070
     1
1070
   340
1005
1DA
1070
   271
1070
     3
1070
   272
1070
     3
1070
    77
1070
     1
1070
    73
1070
     1
1070
   171
1070
     3
1070
   274
1070
     4
1070
   177
1070
     2
1070
   176
1070
     2
1070
   178
1070
     2
1070
    78
1070
     8
1070
    48
1040
-0.1
1070
    41
1040
3.5
1070
   147
1040
1.5
1070
    42
1040
1.5875
1070
    44
1040
2.0
1070
   140
1040
3.0
1002
}
1001
ACAD_DSTYLE_DIM_LINETYPE
1070
   380
1005
16
1001
ACAD_DSTYLE_DIM_EXT1_LINETYPE
1070
   381
1005
16
1001
ACAD_DSTYLE_DIM_EXT2_LINETYPE
1070
   382
1005
16
0
DIMENSION
5
226
100
AcDbEntity
8
SK2
62
256
6
ByLayer
370
18
48
1
60
0
100
AcDbDimension
2
_U2
10
54
20
-11.064208
30
0
11
79.714286
21
-11.064208
31
0
70
32
71
1
72
1
41
1
210
0
220
0
230
1
3
Standard
100
AcDbAlignedDimension
13
66
23
-4.064208
33
0
14
54
24
-4.064208
34
0
50
0
100
AcDbRotatedDimension
1001
ACAD
1000
DSTYLE
1002
{
1070
   371
1070
    13
1070
   372
1070
    13
1070
   170
1070
     0
1070
   144
1040
1.0
1070
   277
1070
     2
1070
   284
1070
     8
1070
   278
1070
    46
1070
   146
1040
0.833333
1070
   345
1005
16
1070
   347
1005
16
1070
   346
1005
16
1070
   344
1005
0
1070
   343
1005
0
1070
   172
1070
     1
1070
    76
1070
     0
1070
    75
1070
     0
1070
   282
1070
     0
1070
   281
1070
     0
1070
    47
1040
0.5
1070
    72
1070
     0
1070
    71
1070
     1
1070
    74
1070
     0
1070
   279
1070
     0
1070
   173
1070
     1
1070
   340
1005
1DA
1070
   271
1070
     1
1070
   272
1070
     3
1070
    77
1070
     1
1070
    73
1070
     1
1070
   171
1070
     3
1070
   274
1070
     4
1070
   177
1070
     2
1070
   176
1070
     2
1070
   178
1070
     2
1070
    78
1070
     8
1070
    48
1040
0.5
1070
    41
1040
3.5
1070
   147
1040
1.5
1070
    42
1040
1.5875
1070
    44
1040
2.0
1070
   140
1040
3.0
1002
}
1001
ACAD_DSTYLE_DIM_LINETYPE
1070
   380
1005
16
1001
ACAD_DSTYLE_DIM_EXT1_LINETYPE
1070
   381
1005
16
1001
ACAD_DSTYLE_DIM_EXT2_LINETYPE
1070
   382
1005
16
0
DIMENSION
5
241
100
AcDbEntity
8
SK2
62
256
6
ByLayer
370
18
48
1
60
0
100
AcDbDimension
2
_U3
10
31
20
-33.564208
30
0
11
48.5
21
-33.564208
31
0
70
32
71
1
72
1
41
1
210
0
220
0
230
1
3
Standard
100
AcDbAlignedDimension
13
66
23
-4.064208
33
0
14
31
24
-3
34
0
50
0
100
AcDbRotatedDimension
1001
ACAD
1000
DSTYLE
1002
{
1070
   371
1070
    13
1070
   372
1070
    13
1070
   170
1070
     0
1070
   144
1040
1.0
1070
   277
1070
     2
1070
   284
1070
     8
1070
   278
1070
    46
1070
   146
1040
1.166667
1070
   345
1005
16
1070
   347
1005
16
1070
   346
1005
16
1070
   344
1005
0
1070
   343
1005
0
1070
   172
1070
     1
1070
    76
1070
     0
1070
    75
1070
     0
1070
   282
1070
     0
1070
   281
1070
     0
1070
    71
1070
     0
1070
    74
1070
     0
1070
   279
1070
     0
1070
   173
1070
     1
1070
   340
1005
1DA
1070
   271
1070
     1
1070
   272
1070
     3
1070
    77
1070
     1
1070
    73
1070
     1
1070
   171
1070
     3
1070
   274
1070
     4
1070
   177
1070
     2
1070
   176
1070
     2
1070
   178
1070
     2
1070
    78
1070
     8
1070
    48
1040
-0.1
1070
    41
1040
3.5
1070
   147
1040
1.5
1070
    42
1040
1.5875
1070
    44
1040
2.0
1070
   140
1040
3.0
1002
}
1001
ACAD_DSTYLE_DIM_LINETYPE
1070
   380
1005
16
1001
ACAD_DSTYLE_DIM_EXT1_LINETYPE
1070
   381
1005
16
1001
ACAD_DSTYLE_DIM_EXT2_LINETYPE
1070
   382
1005
16
0
DIMENSION
5
259
100
AcDbEntity
8
2
62
256
6
ByLayer
370
18
48
1
60
0
100
AcDbDimension
2
_U4
10
36.25
20
-22.564208
30
0
11
51.125
21
-22.564208
31
0
70
32
71
1
72
1
41
1
210
0
220
0
230
1
3
Standard
100
AcDbAlignedDimension
13
66
23
-4.064208
33
0
14
36.25
24
0
34
0
50
0
100
AcDbRotatedDimension
1001
ACAD
1000
DSTYLE
1002
{
1070
   371
1070
    13
1070
   372
1070
    13
1070
   170
1070
     0
1070
   144
1040
1.0
1070
   277
1070
     2
1070
   284
1070
     8
1070
   278
1070
    46
1070
   146
1040
1.166667
1070
   345
1005
16
1070
   347
1005
16
1070
   346
1005
16
1070
   344
1005
0
1070
   343
1005
0
1070
   172
1070
     1
1070
    76
1070
     0
1070
    75
1070
     0
1070
   282
1070
     0
1070
   281
1070
     0
1070
    71
1070
     0
1070
    74
1070
     0
1070
   279
1070
     0
1070
   173
1070
     1
1070
   340
1005
1DA
1070
   271
1070
     1
1070
   272
1070
     3
1070
    77
1070
     1
1070
    73
1070
     1
1070
   171
1070
     3
1070
   274
1070
     4
1070
   177
1070
     2
1070
   176
1070
     2
1070
   178
1070
     2
1070
    78
1070
     8
1070
    48
1040
-0.1
1070
    41
1040
3.5
1070
   147
1040
1.5
1070
    42
1040
1.5875
1070
    44
1040
2.0
1070
   140
1040
3.0
1002
}
1001
ACAD_DSTYLE_DIM_LINETYPE
1070
   380
1005
16
1001
ACAD_DSTYLE_DIM_EXT1_LINETYPE
1070
   381
1005
16
1001
ACAD_DSTYLE_DIM_EXT2_LINETYPE
1070
   382
1005
16
0
ENDSEC
0
SECTION
2
OBJECTS
0
DICTIONARY
5
2e1
330
0
100
AcDbDictionary
280
0
281
1
3
ACAD_GROUP
350
2e2
3
ACAD_MLINESTYLE
350
2e3
0
DICTIONARY
5
2e2
330
0
100
AcDbDictionary
280
0
281
1
0
DICTIONARY
5
2e3
330
0
100
AcDbDictionary
280
0
281
1
3
Standard
350
18
0
MLINESTYLE
5
18
330
2e3
100
AcDbMlineStyle
2
Standard
70
0
3

62
256
51
90
52
90
71
2
49
-0.5
62
256
6
ByLayer
49
0.5
62
256
6
ByLayer
0
RASTERVARIABLES
5
2cf
330

100
AcDbRasterVariables
90
0
70
1
71
1
72
1
0
ENDSEC
0
EOF
