0
SECTION
2
HEADER
9
$ACADVER
1
AC1015
9
$DWGCODEPAGE
3
ANSI_1252
9
$HANDSEED
5
310
9
$ANGBASE
50
0
9
$ANGDIR
70
0
9
$ATTMODE
70
1
9
$AUNITS
70
0
9
$AUPREC
70
0
9
$CECOLOR
62
256
9
$CELTSCALE
40
1
9
$CELTYPE
6
ByLayer
9
$CELWEIGHT
370
18
9
$CLAYER
8
0
9
$CMLJUST
70
0
9
$CMLSCALE
40
1
9
$CMLSTYLE
2
Standard
9
$DIMSTYLE
2
Standard
9
$TEXTSIZE
40
0.2
9
$TEXTSTYLE
7
Standard
9
$LUNITS
70
2
9
$LUPREC
70
4
9
$EXTNAMES
290
1
9
$INSUNITS
70
4
9
$LTSCALE
40
1
9
$LWDISPLAY
290
1
9
$PDMODE
70
0
9
$PDSIZE
40
0
9
$PLINEGEN
70
0
0
ENDSEC
0
SECTION
2
CLASSES
0
CLASS
1
RASTERVARIABLES
2
AcDbRasterVariables
3
ISM
90
0
280
0
281
0
0
ENDSEC
0
SECTION
2
TABLES
0
TABLE
2
VPORT
5
306
100
AcDbSymbolTable
0
VPORT
5
1
100
AcDbSymbolTableRecord
100
AcDbViewportTableRecord
2
*Active
70
0
10
0
20
0
11
1
21
1
12
-1
22
1
13
0
23
0
14
0.5
24
0.5
15
10
25
10
16
0
26
0
36
1
17
0
27
0
37
0
0
ENDTAB
0
TABLE
2
LTYPE
5
307
100
AcDbSymbolTable
0
LTYPE
5
14
100
AcDbSymbolTableRecord
100
AcDbLinetypeTableRecord
70
0
2
ByBlock
3

72
65
73
0
40
0
0
LTYPE
5
15
100
AcDbSymbolTableRecord
100
AcDbLinetypeTableRecord
70
0
2
ByLayer
3

72
65
73
0
40
0
0
LTYPE
5
16
100
AcDbSymbolTableRecord
100
AcDbLinetypeTableRecord
70
0
2
Continuous
3
Solid line
72
65
73
0
40
0
0
LTYPE
5
6E
100
AcDbSymbolTableRecord
100
AcDbLinetypeTableRecord
70
0
2
CENTER
3
____ _ ____ _ ____ _ ____
72
65
73
4
40
47.5
49
22
74
0
49
-8.5
74
0
49
8.5
74
0
49
-8.5
74
0
0
LTYPE
5
6F
100
AcDbSymbolTableRecord
100
AcDbLinetypeTableRecord
70
0
2
DASHED
3
__ __ __ __ __ __ __ __ __
72
65
73
2
40
25.72
49
12.86
74
0
49
-12.86
74
0
0
ENDTAB
0
TABLE
2
LAYER
5
308
100
AcDbSymbolTable
0
LAYER
5
10
100
AcDbSymbolTableRecord
100
AcDbLayerTableRecord
2
0
70
0
62
7
6
Continuous
290
1
370
-3
390
0
0
LAYER
5
71
100
AcDbSymbolTableRecord
100
AcDbLayerTableRecord
2
81
70
0
62
-3
6
Continuous
290
1
370
-3
390
0
0
LAYER
5
73
100
AcDbSymbolTableRecord
100
AcDbLayerTableRecord
2
80
70
0
62
-6
6
Continuous
290
1
370
-3
390
0
0
LAYER
5
75
100
AcDbSymbolTableRecord
100
AcDbLayerTableRecord
2
1
70
0
62
4
6
Continuous
290
1
370
-3
390
0
0
LAYER
5
82
100
AcDbSymbolTableRecord
100
AcDbLayerTableRecord
2
4
70
0
62
-2
6
CENTER
290
1
370
-3
390
0
0
LAYER
5
CA
100
AcDbSymbolTableRecord
100
AcDbLayerTableRecord
2
2
70
0
62
7
6
Continuous
290
1
370
-3
390
0
0
LAYER
5
215
100
AcDbSymbolTableRecord
100
AcDbLayerTableRecord
2
Defpoints
70
0
62
7
6
Continuous
290
0
370
-3
390
0
0
LAYER
5
2f2
100
AcDbSymbolTableRecord
100
AcDbLayerTableRecord
2
SK4
70
0
62
2
6
CENTER
290
1
370
-3
390
0
0
LAYER
5
2f3
100
AcDbSymbolTableRecord
100
AcDbLayerTableRecord
2
SK1
70
0
62
4
6
Continuous
290
1
370
-3
390
0
0
LAYER
5
2f4
100
AcDbSymbolTableRecord
100
AcDbLayerTableRecord
2
SK2
70
0
62
7
6
Continuous
290
1
370
-3
390
0
0
LAYER
5
2f5
100
AcDbSymbolTableRecord
100
AcDbLayerTableRecord
2
SK6
70
0
62
5
6
Continuous
290
1
370
-3
390
0
0
ENDTAB
0
TABLE
2
STYLE
5
309
100
AcDbSymbolTable
0
STYLE
5
11
100
AcDbSymbolTableRecord
100
AcDbTextStyleTableRecord
2
Standard
3
txt
70
0
71
0
40
0
41
1
42
0
50
0
0
STYLE
5
1FB
100
AcDbSymbolTableRecord
100
AcDbTextStyleTableRecord
2
iso_b_vert
3
simplex.shx
70
0
71
0
40
0
41
1
42
0
50
0
0
STYLE
5
1FC
100
AcDbSymbolTableRecord
100
AcDbTextStyleTableRecord
2
DWGDirectTextStyle
3
simplex
70
0
71
0
40
0
41
1
42
0
50
0
0
ENDTAB
0
TABLE
2
DIMSTYLE
5
30a
100
AcDbSymbolTable
100
AcDbDimStyleTable
0
DIMSTYLE
105
27
100
AcDbSymbolTableRecord
100
AcDbDimStyleTableRecord
2
Standard
70
0
3
<>
41
0.18
42
0.0625
44
0.18
140
0.18
147
0.09
73
0
74
0
77
1
271
2
275
0
278
52
280
0
340
11
0
ENDTAB
0
TABLE
2
VIEW
5
30b
100
AcDbSymbolTable
0
ENDTAB
0
TABLE
2
UCS
5
30c
100
AcDbSymbolTable
0
ENDTAB
0
TABLE
2
APPID
5
30d
100
AcDbSymbolTable
0
APPID
5
12
100
AcDbSymbolTableRecord
100
AcDbRegAppTableRecord
2
ACAD
70
0
0
APPID
5
211
100
AcDbSymbolTableRecord
100
AcDbRegAppTableRecord
2
ACAD_DSTYLE_DIMBREAK
70
0
0
APPID
5
2B1
100
AcDbSymbolTableRecord
100
AcDbRegAppTableRecord
2
ACAD_DSTYLE_DIM_LINETYPE
70
0
0
APPID
5
2B2
100
AcDbSymbolTableRecord
100
AcDbRegAppTableRecord
2
ACAD_DSTYLE_DIM_EXT1_LINETYPE
70
0
0
APPID
5
2B3
100
AcDbSymbolTableRecord
100
AcDbRegAppTableRecord
2
ACAD_DSTYLE_DIM_EXT2_LINETYPE
70
0
0
APPID
5
2EE
100
AcDbSymbolTableRecord
100
AcDbRegAppTableRecord
2
ACAD_MLEADERVER
70
0
0
ENDTAB
0
TABLE
2
BLOCK_RECORD
5
30e
100
AcDbSymbolTable
0
BLOCK_RECORD
5
1F
100
AcDbSymbolTableRecord
100
AcDbBlockTableRecord
2
*Model_Space
340
0
70
0
0
BLOCK_RECORD
5
1B
100
AcDbSymbolTableRecord
100
AcDbBlockTableRecord
2
*Paper_Space
340
0
70
0
0
BLOCK_RECORD
5
23
100
AcDbSymbolTableRecord
100
AcDbBlockTableRecord
2
*Paper_Space0
340
0
70
0
0
BLOCK_RECORD
5
216
100
AcDbSymbolTableRecord
100
AcDbBlockTableRecord
2
*D1
340
0
70
0
0
BLOCK_RECORD
5
224
100
AcDbSymbolTableRecord
100
AcDbBlockTableRecord
2
_U0
340
0
70
0
0
BLOCK_RECORD
5
230
100
AcDbSymbolTableRecord
100
AcDbBlockTableRecord
2
*D3
340
0
70
0
0
BLOCK_RECORD
5
23D
100
AcDbSymbolTableRecord
100
AcDbBlockTableRecord
2
_U1
340
0
70
0
0
BLOCK_RECORD
5
24A
100
AcDbSymbolTableRecord
100
AcDbBlockTableRecord
2
*D5
340
0
70
0
0
BLOCK_RECORD
5
258
100
AcDbSymbolTableRecord
100
AcDbBlockTableRecord
2
_U2
340
0
70
0
0
BLOCK_RECORD
5
265
100
AcDbSymbolTableRecord
100
AcDbBlockTableRecord
2
*D7
340
0
70
0
0
BLOCK_RECORD
5
271
100
AcDbSymbolTableRecord
100
AcDbBlockTableRecord
2
_U3
340
0
70
0
0
BLOCK_RECORD
5
27D
100
AcDbSymbolTableRecord
100
AcDbBlockTableRecord
2
*D9
340
0
70
0
0
BLOCK_RECORD
5
28A
100
AcDbSymbolTableRecord
100
AcDbBlockTableRecord
2
_U4
340
0
70
0
0
ENDTAB
0
ENDSEC
0
SECTION
2
BLOCKS
0
BLOCK
5
20
100
AcDbEntity
8
0
100
AcDbBlockBegin
2
*Model_Space
70
0
10
0
20
0
30
0
3
*Model_Space
0
ENDBLK
5
21
100
AcDbEntity
8
0
100
AcDbBlockEnd
0
BLOCK
5
1C
100
AcDbEntity
8
0
100
AcDbBlockBegin
2
*Paper_Space
70
0
10
0
20
0
30
0
3
*Paper_Space
0
ENDBLK
5
1D
100
AcDbEntity
8
0
100
AcDbBlockEnd
0
BLOCK
5
24
100
AcDbEntity
8
0
100
AcDbBlockBegin
2
*Paper_Space0
70
0
10
0
20
0
30
0
3
*Paper_Space0
0
ENDBLK
5
25
100
AcDbEntity
8
0
100
AcDbBlockEnd
0
BLOCK
5
217
100
AcDbEntity
8
0
100
AcDbBlockBegin
2
*D1
70
1
10
0
20
0
30
0
3
*D1
0
LINE
5
219
100
AcDbEntity
8
0
62
256
6
ByLayer
370
-2
48
1
60
0
100
AcDbLine
10
36.5875
20
1.540348
30
0
11
55.844652
21
1.540348
31
0
39
0
210
0
220
0
230
1
0
LINE
5
21A
100
AcDbEntity
8
0
62
256
6
ByLayer
370
-2
48
1
60
0
100
AcDbLine
10
36.5875
20
-1.540348
30
0
11
55.844652
21
-1.540348
31
0
39
0
210
0
220
0
230
1
0
LINE
5
21B
100
AcDbEntity
8
0
62
256
6
ByLayer
370
-2
48
1
60
0
100
AcDbLine
10
53.844652
20
1.540348
30
0
11
53.844652
21
28.683205
31
0
39
0
210
0
220
0
230
1
0
LINE
5
21C
100
AcDbEntity
8
0
62
256
6
ByLayer
370
-2
48
1
60
0
100
AcDbLine
10
53.844652
20
5.040348
30
0
11
53.844652
21
8.540348
31
0
39
0
210
0
220
0
230
1
0
LINE
5
21D
100
AcDbEntity
8
0
62
256
6
ByLayer
370
-2
48
1
60
0
100
AcDbLine
10
53.844652
20
-5.040348
30
0
11
53.844652
21
-8.540348
31
0
39
0
210
0
220
0
230
1
0
SOLID
5
21E
100
AcDbEntity
8
0
62
256
6
ByLayer
370
-1
48
1
60
0
100
AcDbTrace
10
53.261319
20
5.040348
30
0
11
54.427986
21
5.040348
31
0
12
53.844652
22
1.540348
32
0
13
53.844652
23
1.540348
33
0
39
0
210
0
220
0
230
1
0
SOLID
5
21F
100
AcDbEntity
8
0
62
256
6
ByLayer
370
-1
48
1
60
0
100
AcDbTrace
10
54.427986
20
-5.040348
30
0
11
53.261319
21
-5.040348
31
0
12
53.844652
22
-1.540348
32
0
13
53.844652
23
-1.540348
33
0
39
0
210
0
220
0
230
1
0
MTEXT
5
220
100
AcDbEntity
8
0
62
256
6
ByLayer
370
18
48
1
60
0
100
AcDbMText
10
47.844652
20
18.611776
30
0
210
0
220
0
230
1
1
\A1;3.081
40
3
41
0
44
1
50
90
71
5
72
5
7
iso_b_vert
0
POINT
5
221
100
AcDbEntity
8
Defpoints
62
0
6
ByLayer
370
-1
48
1
60
0
100
AcDbPoint
10
35
20
1.540348
30
0
39
0
210
0
220
0
230
1
50
360
0
POINT
5
222
100
AcDbEntity
8
Defpoints
62
0
6
ByLayer
370
-1
48
1
60
0
100
AcDbPoint
10
35
20
-1.540348
30
0
39
0
210
0
220
0
230
1
50
360
0
POINT
5
223
100
AcDbEntity
8
Defpoints
62
0
6
ByLayer
370
-1
48
1
60
0
100
AcDbPoint
10
53.844652
20
-1.540348
30
0
39
0
210
0
220
0
230
1
50
360
0
ENDBLK
5
218
100
AcDbEntity
8
0
100
AcDbBlockEnd
0
BLOCK
5
22B
100
AcDbEntity
8
0
100
AcDbBlockBegin
2
_U0
70
0
10
0
20
0
30
0
3
_U0
0
MTEXT
5
225
100
AcDbEntity
8
2
62
256
6
ByLayer
370
18
48
1
60
0
100
AcDbMText
10
53.253538
20
11.675348
30
0
210
0
220
0
230
1
1
\W0.7203;M3
40
3
41
0
44
1.084337
50
90
71
7
72
5
7
iso_b_vert
0
LINE
5
226
100
AcDbEntity
8
2
62
256
6
ByLayer
370
13
48
1
60
0
100
AcDbLine
10
36.5875
20
1.540348
30
0
11
55.844652
21
1.540348
31
0
39
0
210
0
220
0
230
1
0
LINE
5
227
100
AcDbEntity
8
2
62
256
6
ByLayer
370
13
48
1
60
0
100
AcDbLine
10
36.5875
20
-1.540348
30
0
11
55.844652
21
-1.540348
31
0
39
0
210
0
220
0
230
1
0
LINE
5
228
100
AcDbEntity
8
2
62
256
6
ByLayer
370
13
48
1
60
0
100
AcDbLine
10
53.844652
20
-9.040348
30
0
11
53.844652
21
15.795147
31
0
39
0
210
0
220
0
230
1
0
SOLID
5
229
100
AcDbEntity
8
2
62
256
6
ByLayer
370
18
48
1
60
0
100
AcDbTrace
10
53.844652
20
1.540348
30
0
11
53.383869
21
5.040346
31
0
12
54.305436
22
5.040349
32
0
13
54.305436
23
5.040349
33
0
39
0
210
0
220
0
230
1
0
SOLID
5
22A
100
AcDbEntity
8
2
62
256
6
ByLayer
370
18
48
1
60
0
100
AcDbTrace
10
53.844652
20
-1.540348
30
0
11
54.305436
21
-5.040346
31
0
12
53.383869
22
-5.040349
32
0
13
53.383869
23
-5.040349
33
0
39
0
210
0
220
0
230
1
0
ENDBLK
5
22C
100
AcDbEntity
8
0
100
AcDbBlockEnd
0
BLOCK
5
231
100
AcDbEntity
8
0
100
AcDbBlockBegin
2
*D3
70
1
10
0
20
0
30
0
3
*D3
0
LINE
5
233
100
AcDbEntity
8
0
62
256
6
ByLayer
370
-2
48
1
60
0
100
AcDbLine
10
35
20
3.127848
30
0
11
35
21
12.6
31
0
39
0
210
0
220
0
230
1
0
LINE
5
234
100
AcDbEntity
8
0
62
256
6
ByLayer
370
-2
48
1
60
0
100
AcDbLine
10
33.62
20
1.5875
30
0
11
33.62
21
12.6
31
0
39
0
210
0
220
0
230
1
0
LINE
5
235
100
AcDbEntity
8
0
62
256
6
ByLayer
370
-2
48
1
60
0
100
AcDbLine
10
38.5
20
10.6
30
0
11
42
21
10.6
31
0
39
0
210
0
220
0
230
1
0
LINE
5
236
100
AcDbEntity
8
0
62
256
6
ByLayer
370
-2
48
1
60
0
100
AcDbLine
10
30.12
20
10.6
30
0
11
26.62
21
10.6
31
0
39
0
210
0
220
0
230
1
0
SOLID
5
237
100
AcDbEntity
8
0
62
256
6
ByLayer
370
-1
48
1
60
0
100
AcDbTrace
10
38.5
20
11.183333
30
0
11
38.5
21
10.016667
31
0
12
35
22
10.6
32
0
13
35
23
10.6
33
0
39
0
210
0
220
0
230
1
0
SOLID
5
238
100
AcDbEntity
8
0
62
256
6
ByLayer
370
-1
48
1
60
0
100
AcDbTrace
10
30.12
20
10.016667
30
0
11
30.12
21
11.183333
31
0
12
33.62
22
10.6
32
0
13
33.62
23
10.6
33
0
39
0
210
0
220
0
230
1
0
MTEXT
5
239
100
AcDbEntity
8
0
62
256
6
ByLayer
370
18
48
1
60
0
100
AcDbMText
10
34.31
20
16.6
30
0
210
0
220
0
230
1
1
\A1;1.38
40
3
41
0
44
1
50
0
71
5
72
5
7
iso_b_vert
0
POINT
5
23A
100
AcDbEntity
8
Defpoints
62
0
6
ByLayer
370
-1
48
1
60
0
100
AcDbPoint
10
35
20
1.540348
30
0
39
0
210
0
220
0
230
1
50
360
0
POINT
5
23B
100
AcDbEntity
8
Defpoints
62
0
6
ByLayer
370
-1
48
1
60
0
100
AcDbPoint
10
33.62
20
0
30
0
39
0
210
0
220
0
230
1
50
360
0
POINT
5
23C
100
AcDbEntity
8
Defpoints
62
0
6
ByLayer
370
-1
48
1
60
0
100
AcDbPoint
10
33.62
20
10.6
30
0
39
0
210
0
220
0
230
1
50
360
0
ENDBLK
5
232
100
AcDbEntity
8
0
100
AcDbBlockEnd
0
BLOCK
5
245
100
AcDbEntity
8
0
100
AcDbBlockBegin
2
_U1
70
0
10
0
20
0
30
0
3
_U1
0
MTEXT
5
23E
100
AcDbEntity
8
SK2
62
256
6
ByLayer
370
18
48
1
60
0
100
AcDbMText
10
31.349986
20
11.382634
30
0
210
0
220
0
230
1
1
\W0.6474;'C'
40
3.5
41
0
44
1.084337
50
0
71
7
72
5
7
iso_b_vert
0
MTEXT
5
23F
100
AcDbEntity
8
SK2
62
256
6
ByLayer
370
18
48
1
60
0
100
AcDbMText
10
31.323486
20
18.485114
30
0
210
0
220
0
230
1
1
\W0.6563;1.38
40
3
41
0
44
1.084337
50
0
71
7
72
5
7
iso_b_vert
0
LINE
5
240
100
AcDbEntity
8
SK2
62
256
6
ByLayer
370
13
48
1
60
0
100
AcDbLine
10
35
20
3.127848
30
0
11
35
21
12.6
31
0
39
0
210
0
220
0
230
1
0
LINE
5
241
100
AcDbEntity
8
SK2
62
256
6
ByLayer
370
13
48
1
60
0
100
AcDbLine
10
33.62
20
1.5875
30
0
11
33.62
21
12.6
31
0
39
0
210
0
220
0
230
1
0
LINE
5
242
100
AcDbEntity
8
SK2
62
256
6
ByLayer
370
13
48
1
60
0
100
AcDbLine
10
42.5
20
10.6
30
0
11
26.12
21
10.6
31
0
39
0
210
0
220
0
230
1
0
SOLID
5
243
100
AcDbEntity
8
SK2
62
256
6
ByLayer
370
18
48
1
60
0
100
AcDbTrace
10
35
20
10.6
30
0
11
38.499998
21
11.060784
31
0
12
38.500002
22
10.139216
32
0
13
38.500002
23
10.139216
33
0
39
0
210
0
220
0
230
1
0
SOLID
5
244
100
AcDbEntity
8
SK2
62
256
6
ByLayer
370
18
48
1
60
0
100
AcDbTrace
10
33.62
20
10.6
30
0
11
30.120002
21
10.139216
31
0
12
30.119998
22
11.060784
32
0
13
30.119998
23
11.060784
33
0
39
0
210
0
220
0
230
1
0
ENDBLK
5
246
100
AcDbEntity
8
0
100
AcDbBlockEnd
0
BLOCK
5
24B
100
AcDbEntity
8
0
100
AcDbBlockBegin
2
*D5
70
1
10
0
20
0
30
0
3
*D5
0
LINE
5
24D
100
AcDbEntity
8
0
62
256
6
ByLayer
370
-2
48
1
60
0
100
AcDbLine
10
35
20
-3.127848
30
0
11
35
21
-10.540348
31
0
39
0
210
0
220
0
230
1
0
LINE
5
24E
100
AcDbEntity
8
0
62
256
6
ByLayer
370
-2
48
1
60
0
100
AcDbLine
10
29
20
-3.127848
30
0
11
29
21
-10.540348
31
0
39
0
210
0
220
0
230
1
0
LINE
5
24F
100
AcDbEntity
8
0
62
256
6
ByLayer
370
-2
48
1
60
0
100
AcDbLine
10
35
20
-8.540348
30
0
11
52.857143
21
-8.540348
31
0
39
0
210
0
220
0
230
1
0
LINE
5
250
100
AcDbEntity
8
0
62
256
6
ByLayer
370
-2
48
1
60
0
100
AcDbLine
10
38.5
20
-8.540348
30
0
11
42
21
-8.540348
31
0
39
0
210
0
220
0
230
1
0
LINE
5
251
100
AcDbEntity
8
0
62
256
6
ByLayer
370
-2
48
1
60
0
100
AcDbLine
10
25.5
20
-8.540348
30
0
11
22
21
-8.540348
31
0
39
0
210
0
220
0
230
1
0
SOLID
5
252
100
AcDbEntity
8
0
62
256
6
ByLayer
370
-1
48
1
60
0
100
AcDbTrace
10
38.5
20
-7.957014
30
0
11
38.5
21
-9.123681
31
0
12
35
22
-8.540348
32
0
13
35
23
-8.540348
33
0
39
0
210
0
220
0
230
1
0
SOLID
5
253
100
AcDbEntity
8
0
62
256
6
ByLayer
370
-1
48
1
60
0
100
AcDbTrace
10
25.5
20
-9.123681
30
0
11
25.5
21
-7.957014
31
0
12
29
22
-8.540348
32
0
13
29
23
-8.540348
33
0
39
0
210
0
220
0
230
1
0
MTEXT
5
254
100
AcDbEntity
8
0
62
256
6
ByLayer
370
18
48
1
60
0
100
AcDbMText
10
47.428571
20
-2.540348
30
0
210
0
220
0
230
1
1
\A1;6
40
3
41
0
44
1
50
0
71
5
72
5
7
iso_b_vert
0
POINT
5
255
100
AcDbEntity
8
Defpoints
62
0
6
ByLayer
370
-1
48
1
60
0
100
AcDbPoint
10
35
20
-1.540348
30
0
39
0
210
0
220
0
230
1
50
360
0
POINT
5
256
100
AcDbEntity
8
Defpoints
62
0
6
ByLayer
370
-1
48
1
60
0
100
AcDbPoint
10
29
20
-1.540348
30
0
39
0
210
0
220
0
230
1
50
360
0
POINT
5
257
100
AcDbEntity
8
Defpoints
62
0
6
ByLayer
370
-1
48
1
60
0
100
AcDbPoint
10
29
20
-8.540348
30
0
39
0
210
0
220
0
230
1
50
360
0
ENDBLK
5
24C
100
AcDbEntity
8
0
100
AcDbBlockEnd
0
BLOCK
5
260
100
AcDbEntity
8
0
100
AcDbBlockBegin
2
_U2
70
0
10
0
20
0
30
0
3
_U2
0
MTEXT
5
259
100
AcDbEntity
8
SK2
62
256
6
ByLayer
370
18
48
1
60
0
100
AcDbMText
10
41.159
20
-7.655233
30
0
210
0
220
0
230
1
1
\W0.5404;6
40
3
41
0
44
1.084337
50
0
71
7
72
5
7
iso_b_vert
0
MTEXT
5
25A
100
AcDbEntity
8
SK2
62
256
6
ByLayer
370
18
48
1
60
0
100
AcDbMText
10
44.974328
20
-7.302752
30
0
210
0
220
0
230
1
1
\W0.8315;\W0.4158;%%p\W0.8315;0.5
40
2.5
41
0
44
1.084337
50
0
71
7
72
5
7
iso_b_vert
0
LINE
5
25B
100
AcDbEntity
8
SK2
62
256
6
ByLayer
370
13
48
1
60
0
100
AcDbLine
10
35
20
-3.127848
30
0
11
35
21
-10.540348
31
0
39
0
210
0
220
0
230
1
0
LINE
5
25C
100
AcDbEntity
8
SK2
62
256
6
ByLayer
370
13
48
1
60
0
100
AcDbLine
10
29
20
-3.127848
30
0
11
29
21
-10.540348
31
0
39
0
210
0
220
0
230
1
0
LINE
5
25D
100
AcDbEntity
8
SK2
62
256
6
ByLayer
370
13
48
1
60
0
100
AcDbLine
10
21.5
20
-8.540348
30
0
11
52.091065
21
-8.540348
31
0
39
0
210
0
220
0
230
1
0
SOLID
5
25E
100
AcDbEntity
8
SK2
62
256
6
ByLayer
370
18
48
1
60
0
100
AcDbTrace
10
35
20
-8.540348
30
0
11
38.499998
21
-8.079564
31
0
12
38.500002
22
-9.001131
32
0
13
38.500002
23
-9.001131
33
0
39
0
210
0
220
0
230
1
0
SOLID
5
25F
100
AcDbEntity
8
SK2
62
256
6
ByLayer
370
18
48
1
60
0
100
AcDbTrace
10
29
20
-8.540348
30
0
11
25.500002
21
-9.001131
31
0
12
25.499998
22
-8.079564
32
0
13
25.499998
23
-8.079564
33
0
39
0
210
0
220
0
230
1
0
ENDBLK
5
261
100
AcDbEntity
8
0
100
AcDbBlockEnd
0
BLOCK
5
266
100
AcDbEntity
8
0
100
AcDbBlockBegin
2
*D7
70
1
10
0
20
0
30
0
3
*D7
0
LINE
5
268
100
AcDbEntity
8
0
62
256
6
ByLayer
370
-2
48
1
60
0
100
AcDbLine
10
35
20
-3.127848
30
0
11
35
21
-33.040348
31
0
39
0
210
0
220
0
230
1
0
LINE
5
269
100
AcDbEntity
8
0
62
256
6
ByLayer
370
-2
48
1
60
0
100
AcDbLine
10
17
20
-2.7225
30
0
11
17
21
-33.040348
31
0
39
0
210
0
220
0
230
1
0
LINE
5
26A
100
AcDbEntity
8
0
62
256
6
ByLayer
370
-2
48
1
60
0
100
AcDbLine
10
31.5
20
-31.040348
30
0
11
20.5
21
-31.040348
31
0
39
0
210
0
220
0
230
1
0
SOLID
5
26B
100
AcDbEntity
8
0
62
256
6
ByLayer
370
-1
48
1
60
0
100
AcDbTrace
10
31.5
20
-31.623681
30
0
11
31.5
21
-30.457014
31
0
12
35
22
-31.040348
32
0
13
35
23
-31.040348
33
0
39
0
210
0
220
0
230
1
0
SOLID
5
26C
100
AcDbEntity
8
0
62
256
6
ByLayer
370
-1
48
1
60
0
100
AcDbTrace
10
20.5
20
-30.457014
30
0
11
20.5
21
-31.623681
31
0
12
17
22
-31.040348
32
0
13
17
23
-31.040348
33
0
39
0
210
0
220
0
230
1
0
MTEXT
5
26D
100
AcDbEntity
8
0
62
256
6
ByLayer
370
18
48
1
60
0
100
AcDbMText
10
26
20
-25.040348
30
0
210
0
220
0
230
1
1
\A1;18
40
3
41
0
44
1
50
0
71
5
72
5
7
iso_b_vert
0
POINT
5
26E
100
AcDbEntity
8
Defpoints
62
0
6
ByLayer
370
-1
48
1
60
0
100
AcDbPoint
10
35
20
-1.540348
30
0
39
0
210
0
220
0
230
1
50
360
0
POINT
5
26F
100
AcDbEntity
8
Defpoints
62
0
6
ByLayer
370
-1
48
1
60
0
100
AcDbPoint
10
17
20
-1.135
30
0
39
0
210
0
220
0
230
1
50
360
0
POINT
5
270
100
AcDbEntity
8
Defpoints
62
0
6
ByLayer
370
-1
48
1
60
0
100
AcDbPoint
10
17
20
-31.040348
30
0
39
0
210
0
220
0
230
1
50
360
0
ENDBLK
5
267
100
AcDbEntity
8
0
100
AcDbBlockEnd
0
BLOCK
5
278
100
AcDbEntity
8
0
100
AcDbBlockBegin
2
_U3
70
0
10
0
20
0
30
0
3
_U3
0
MTEXT
5
272
100
AcDbEntity
8
SK2
62
256
6
ByLayer
370
18
48
1
60
0
100
AcDbMText
10
24.742115
20
-30.155233
30
0
210
0
220
0
230
1
1
\W0.5321;18
40
3
41
0
44
1.084337
50
0
71
7
72
5
7
iso_b_vert
0
LINE
5
273
100
AcDbEntity
8
SK2
62
256
6
ByLayer
370
13
48
1
60
0
100
AcDbLine
10
35
20
-3.127848
30
0
11
35
21
-33.040348
31
0
39
0
210
0
220
0
230
1
0
LINE
5
274
100
AcDbEntity
8
SK2
62
256
6
ByLayer
370
13
48
1
60
0
100
AcDbLine
10
17
20
-2.7225
30
0
11
17
21
-33.040348
31
0
39
0
210
0
220
0
230
1
0
LINE
5
275
100
AcDbEntity
8
SK2
62
256
6
ByLayer
370
13
48
1
60
0
100
AcDbLine
10
35
20
-31.040348
30
0
11
17
21
-31.040348
31
0
39
0
210
0
220
0
230
1
0
SOLID
5
276
100
AcDbEntity
8
SK2
62
256
6
ByLayer
370
18
48
1
60
0
100
AcDbTrace
10
35
20
-31.040348
30
0
11
31.500002
21
-31.501131
31
0
12
31.499998
22
-30.579564
32
0
13
31.499998
23
-30.579564
33
0
39
0
210
0
220
0
230
1
0
SOLID
5
277
100
AcDbEntity
8
SK2
62
256
6
ByLayer
370
18
48
1
60
0
100
AcDbTrace
10
17
20
-31.040348
30
0
11
20.499998
21
-30.579564
31
0
12
20.500002
22
-31.501131
32
0
13
20.500002
23
-31.501131
33
0
39
0
210
0
220
0
230
1
0
ENDBLK
5
279
100
AcDbEntity
8
0
100
AcDbBlockEnd
0
BLOCK
5
27E
100
AcDbEntity
8
0
100
AcDbBlockBegin
2
*D9
70
1
10
0
20
0
30
0
3
*D9
0
LINE
5
280
100
AcDbEntity
8
0
62
256
6
ByLayer
370
-2
48
1
60
0
100
AcDbLine
10
35
20
-3.127848
30
0
11
35
21
-22.040348
31
0
39
0
210
0
220
0
230
1
0
LINE
5
281
100
AcDbEntity
8
0
62
256
6
ByLayer
370
-2
48
1
60
0
100
AcDbLine
10
19.7
20
-1.5875
30
0
11
19.7
21
-22.040348
31
0
39
0
210
0
220
0
230
1
0
LINE
5
282
100
AcDbEntity
8
0
62
256
6
ByLayer
370
-2
48
1
60
0
100
AcDbLine
10
38.5
20
-20.040348
30
0
11
42
21
-20.040348
31
0
39
0
210
0
220
0
230
1
0
LINE
5
283
100
AcDbEntity
8
0
62
256
6
ByLayer
370
-2
48
1
60
0
100
AcDbLine
10
16.2
20
-20.040348
30
0
11
12.7
21
-20.040348
31
0
39
0
210
0
220
0
230
1
0
SOLID
5
284
100
AcDbEntity
8
0
62
256
6
ByLayer
370
-1
48
1
60
0
100
AcDbTrace
10
38.5
20
-19.457014
30
0
11
38.5
21
-20.623681
31
0
12
35
22
-20.040348
32
0
13
35
23
-20.040348
33
0
39
0
210
0
220
0
230
1
0
SOLID
5
285
100
AcDbEntity
8
0
62
256
6
ByLayer
370
-1
48
1
60
0
100
AcDbTrace
10
16.2
20
-20.623681
30
0
11
16.2
21
-19.457014
31
0
12
19.7
22
-20.040348
32
0
13
19.7
23
-20.040348
33
0
39
0
210
0
220
0
230
1
0
MTEXT
5
286
100
AcDbEntity
8
0
62
256
6
ByLayer
370
18
48
1
60
0
100
AcDbMText
10
27.35
20
-14.040348
30
0
210
0
220
0
230
1
1
\A1;15.3
40
3
41
0
44
1
50
0
71
5
72
5
7
iso_b_vert
0
POINT
5
287
100
AcDbEntity
8
Defpoints
62
0
6
ByLayer
370
-1
48
1
60
0
100
AcDbPoint
10
35
20
-1.540348
30
0
39
0
210
0
220
0
230
1
50
360
0
POINT
5
288
100
AcDbEntity
8
Defpoints
62
0
6
ByLayer
370
-1
48
1
60
0
100
AcDbPoint
10
19.7
20
0
30
0
39
0
210
0
220
0
230
1
50
360
0
POINT
5
289
100
AcDbEntity
8
Defpoints
62
0
6
ByLayer
370
-1
48
1
60
0
100
AcDbPoint
10
19.7
20
-20.040348
30
0
39
0
210
0
220
0
230
1
50
360
0
ENDBLK
5
27F
100
AcDbEntity
8
0
100
AcDbBlockEnd
0
BLOCK
5
291
100
AcDbEntity
8
0
100
AcDbBlockBegin
2
_U4
70
0
10
0
20
0
30
0
3
_U4
0
MTEXT
5
28B
100
AcDbEntity
8
2
62
256
6
ByLayer
370
18
48
1
60
0
100
AcDbMText
10
24.363486
20
-19.155233
30
0
210
0
220
0
230
1
1
\W0.6563;15.3
40
3
41
0
44
1.084337
50
0
71
7
72
5
7
iso_b_vert
0
LINE
5
28C
100
AcDbEntity
8
2
62
256
6
ByLayer
370
13
48
1
60
0
100
AcDbLine
10
35
20
-3.127848
30
0
11
35
21
-22.040348
31
0
39
0
210
0
220
0
230
1
0
LINE
5
28D
100
AcDbEntity
8
2
62
256
6
ByLayer
370
13
48
1
60
0
100
AcDbLine
10
19.7
20
-1.5875
30
0
11
19.7
21
-22.040348
31
0
39
0
210
0
220
0
230
1
0
LINE
5
28E
100
AcDbEntity
8
2
62
256
6
ByLayer
370
13
48
1
60
0
100
AcDbLine
10
35
20
-20.040348
30
0
11
19.7
21
-20.040348
31
0
39
0
210
0
220
0
230
1
0
SOLID
5
28F
100
AcDbEntity
8
2
62
256
6
ByLayer
370
18
48
1
60
0
100
AcDbTrace
10
35
20
-20.040348
30
0
11
31.500002
21
-20.501131
31
0
12
31.499998
22
-19.579564
32
0
13
31.499998
23
-19.579564
33
0
39
0
210
0
220
0
230
1
0
SOLID
5
290
100
AcDbEntity
8
2
62
256
6
ByLayer
370
18
48
1
60
0
100
AcDbTrace
10
19.7
20
-20.040348
30
0
11
23.199998
21
-19.579564
31
0
12
23.200002
22
-20.501131
32
0
13
23.200002
23
-20.501131
33
0
39
0
210
0
220
0
230
1
0
ENDBLK
5
292
100
AcDbEntity
8
0
100
AcDbBlockEnd
0
ENDSEC
0
SECTION
2
ENTITIES
0
ARC
5
D3
100
AcDbEntity
8
SK1
62
256
6
ByLayer
370
18
48
1
60
0
100
AcDbCircle
39
0
10
-16.35
20
0
30
0
40
1.6800000000001
210
0
220
0
230
1
100
AcDbArc
50
323.472515
51
36.527485
0
ARC
5
D4
100
AcDbEntity
8
1
62
256
6
ByLayer
370
18
48
1
60
0
100
AcDbCircle
39
0
10
17.043744
20
-1.635
30
0
40
0.5
210
0
220
0
230
1
100
AcDbArc
50
90
51
100
0
ARC
5
D5
100
AcDbEntity
8
1
62
256
6
ByLayer
370
18
48
1
60
0
100
AcDbCircle
39
0
10
17.043744
20
1.635
30
0
40
0.5
210
0
220
0
230
1
100
AcDbArc
50
260
51
270
0
POINT
5
70
100
AcDbEntity
8
81
62
256
6
ByLayer
370
18
48
1
60
0
100
AcDbPoint
10
35.965
20
0
30
0
39
0
210
0
220
0
230
1
50
360
0
POINT
5
72
100
AcDbEntity
8
80
62
256
6
ByLayer
370
18
48
1
60
0
100
AcDbPoint
10
0
20
0
30
0
39
0
210
0
220
0
230
1
50
360
0
POINT
5
74
100
AcDbEntity
8
1
62
256
6
ByLayer
370
18
48
1
60
1
100
AcDbPoint
10
35
20
1.540348
30
0
39
0
210
0
220
0
230
1
50
360
0
POINT
5
76
100
AcDbEntity
8
1
62
256
6
ByLayer
370
18
48
1
60
1
100
AcDbPoint
10
35
20
-1.540348
30
0
39
0
210
0
220
0
230
1
50
360
0
POINT
5
77
100
AcDbEntity
8
1
62
256
6
ByLayer
370
18
48
1
60
1
100
AcDbPoint
10
35
20
1.540348
30
0
39
0
210
0
220
0
230
1
50
360
0
POINT
5
78
100
AcDbEntity
8
1
62
256
6
ByLayer
370
18
48
1
60
1
100
AcDbPoint
10
33.62
20
0
30
0
39
0
210
0
220
0
230
1
50
360
0
POINT
5
79
100
AcDbEntity
8
1
62
256
6
ByLayer
370
18
48
1
60
1
100
AcDbPoint
10
35
20
-1.540348
30
0
39
0
210
0
220
0
230
1
50
360
0
POINT
5
7A
100
AcDbEntity
8
1
62
256
6
ByLayer
370
18
48
1
60
1
100
AcDbPoint
10
29
20
-1.540348
30
0
39
0
210
0
220
0
230
1
50
360
0
POINT
5
7B
100
AcDbEntity
8
1
62
256
6
ByLayer
370
18
48
1
60
1
100
AcDbPoint
10
35
20
-1.540348
30
0
39
0
210
0
220
0
230
1
50
360
0
POINT
5
7C
100
AcDbEntity
8
1
62
256
6
ByLayer
370
18
48
1
60
1
100
AcDbPoint
10
17
20
-1.135
30
0
39
0
210
0
220
0
230
1
50
360
0
POINT
5
7D
100
AcDbEntity
8
1
62
256
6
ByLayer
370
18
48
1
60
1
100
AcDbPoint
10
35
20
-1.540348
30
0
39
0
210
0
220
0
230
1
50
360
0
POINT
5
7E
100
AcDbEntity
8
1
62
256
6
ByLayer
370
18
48
1
60
1
100
AcDbPoint
10
19.7
20
0
30
0
39
0
210
0
220
0
230
1
50
360
0
SPLINE
5
D6
100
AcDbEntity
8
1
62
256
6
ByLayer
370
13
48
1
60
0
100
AcDbSpline
70
4
71
3
72
8
73
4
40
0
40
0
40
0
40
0
40
1
40
1
40
1
40
1
41
1
10
30.3649121018226
20
-1.24687775987539
30
0
41
1
10
30.3691723777824
20
-1.25102760642179
30
0
41
1
10
30.373432655249
20
-1.2498349541053
30
0
41
1
10
30.3776929339531
20
-1.24335211981861
30
0
0
SPLINE
5
D7
100
AcDbEntity
8
1
62
256
6
ByLayer
370
18
48
1
60
0
100
AcDbSpline
70
4
71
3
72
8
73
4
40
0
40
0
40
0
40
0
40
1
40
1
40
1
40
1
41
1
10
34.0528273920377
20
-1.35325280374366
30
0
41
1
10
34.0570667753282
20
-1.36404399673464
30
0
41
1
10
34.0611990093699
20
-1.37169505354964
30
0
41
1
10
34.0652538656737
20
-1.37626557502344
30
0
0
SPLINE
5
D8
100
AcDbEntity
8
1
62
256
6
ByLayer
370
13
48
1
60
0
100
AcDbSpline
70
4
71
3
72
9
73
5
40
0
40
0
40
0
40
0
40
0.266909664176922
40
1
40
1
40
1
40
1
41
1
10
31.2365615770319
20
1.24216426537618
30
0
41
1
10
31.2377831701534
20
1.24426187675175
30
0
41
1
10
31.2423599739026
20
1.25045796712584
30
0
41
1
10
31.2469367782383
20
1.25033490099457
30
0
41
1
10
31.250291989486
20
1.24692814138416
30
0
0
SPLINE
5
D9
100
AcDbEntity
8
1
62
256
6
ByLayer
370
13
48
1
60
0
100
AcDbSpline
70
4
71
3
72
9
73
5
40
0
40
0
40
0
40
0
40
0.192266387831318
40
1
40
1
40
1
40
1
41
1
10
33.9887179330041
20
-1.24544588737771
30
0
41
1
10
33.9881647355565
20
-1.24473901989504
30
0
41
1
10
33.985287490815
20
-1.24059082144294
30
0
41
1
10
33.9824102458959
20
-1.23398690970791
30
0
41
1
10
33.980086198388
20
-1.22708519700043
30
0
0
SPLINE
5
DA
100
AcDbEntity
8
1
62
256
6
ByLayer
370
18
48
1
60
0
100
AcDbSpline
70
4
71
3
72
14
73
10
40
0
40
0
40
0
40
0
40
0.125258758119587
40
0.125258758119587
40
0.343944068589691
40
0.343944068589691
40
0.562629379059793
40
0.562629379059793
40
1
40
1
40
1
40
1
41
1
10
30.2927302399147
20
-1.38948902613186
30
0
41
1
10
30.2920504023619
20
-1.39054823489613
30
0
41
1
10
30.2913709503279
20
-1.39143241716835
30
0
41
1
10
30.2895063387821
20
-1.39337958072133
30
0
41
1
10
30.2883210822754
20
-1.39407927087208
30
0
41
1
10
30.2859474784159
20
-1.3943819988863
30
0
41
1
10
30.2847574734162
20
-1.39398163514778
30
0
41
1
10
30.2812049075964
20
-1.39112923748689
30
0
41
1
10
30.2788516035914
20
-1.38703719686296
30
0
41
1
10
30.2764844471361
20
-1.38076641362341
30
0
0
SPLINE
5
DB
100
AcDbEntity
8
1
62
256
6
ByLayer
370
18
48
1
60
0
100
AcDbSpline
70
4
71
3
72
10
73
6
40
0
40
0
40
0
40
0
40
0.743283827247675
40
0.743283827247675
40
1
40
1
40
1
40
1
41
1
10
30.0382926476525
20
-1.31465641553692
30
0
41
1
10
30.0439090573427
20
-1.33770871811606
30
0
41
1
10
30.0493736015897
20
-1.35234166330827
30
0
41
1
10
30.0567268537234
20
-1.36102563990463
30
0
41
1
10
30.0586160407817
20
-1.36227283947124
30
0
41
1
10
30.0605190331493
20
-1.36252046823321
30
0
0
SPLINE
5
DC
100
AcDbEntity
8
1
62
256
6
ByLayer
370
13
48
1
60
0
100
AcDbSpline
70
4
71
3
72
8
73
4
40
0
40
0
40
0
40
0
40
1
40
1
40
1
40
1
41
1
10
29.9732348772578
20
-1.20198720905623
30
0
41
1
10
29.9777956429449
20
-1.22147268745405
30
0
41
1
10
29.9823564082217
20
-1.23508624252119
30
0
41
1
10
29.9869171733401
20
-1.24261327465484
30
0
0
SPLINE
5
DD
100
AcDbEntity
8
1
62
256
6
ByLayer
370
13
48
1
60
0
100
AcDbSpline
70
4
71
3
72
9
73
5
40
0
40
0
40
0
40
0
40
0.53396237952756
40
1
40
1
40
1
40
1
41
1
10
31.6288227933583
20
1.24167001399539
30
0
41
1
10
31.6311581450674
20
1.23762741870036
30
0
41
1
10
31.6355317709764
20
1.22704451168076
30
0
41
1
10
31.6399053954032
20
1.2107941763696
30
0
41
1
10
31.6419436685325
20
1.2020314996096
30
0
0
SPLINE
5
DE
100
AcDbEntity
8
1
62
256
6
ByLayer
370
13
48
1
60
0
100
AcDbSpline
70
4
71
3
72
9
73
5
40
0
40
0
40
0
40
0
40
0.545364172248572
40
1
40
1
40
1
40
1
41
1
10
33.877985992782
20
-1.24309069564447
30
0
41
1
10
33.8727380617286
20
-1.25141205157186
30
0
41
1
10
33.8631152906931
20
-1.25184123429284
30
0
41
1
10
33.8534922742595
20
-1.22479012237127
30
0
41
1
10
33.8491173140733
20
-1.20703216542984
30
0
0
SPLINE
5
DF
100
AcDbEntity
8
1
62
256
6
ByLayer
370
13
48
1
60
0
100
AcDbSpline
70
4
71
3
72
9
73
5
40
0
40
0
40
0
40
0
40
0.871287926341933
40
1
40
1
40
1
40
1
41
1
10
29.8422847375939
20
-1.17469243116429
30
0
41
1
10
29.8529930692182
20
-1.2317918163705
30
0
41
1
10
29.8652833656869
20
-1.26069616887466
30
0
41
1
10
29.8775735933295
20
-1.24401023486533
30
0
41
1
10
29.8791554930702
20
-1.24112075828594
30
0
0
SPLINE
5
E0
100
AcDbEntity
8
1
62
256
6
ByLayer
370
18
48
1
60
0
100
AcDbSpline
70
4
71
3
72
16
73
12
40
0
40
0
40
0
40
0
40
0.0049135672159542
40
0.0049135672159542
40
0.502456783607976
40
0.502456783607976
40
0.626842587705982
40
0.626842587705982
40
0.751228391803988
40
0.751228391803988
40
1
40
1
40
1
40
1
41
1
10
33.7476282790973
20
-1.46581385704522
30
0
41
1
10
33.7475980219623
20
-1.46582270835978
30
0
41
1
10
33.7475677936487
20
-1.46583060796229
30
0
41
1
10
33.7444796329005
20
-1.46654112845039
30
0
41
1
10
33.7417170535412
20
-1.4575573707497
30
0
41
1
10
33.7385648110565
20
-1.43368689741001
30
0
41
1
10
33.7379504243854
20
-1.42825708129931
30
0
41
1
10
33.7367604964036
20
-1.41618897807723
30
0
41
1
10
33.7361828396787
20
-1.40955802655378
30
0
41
1
10
33.7344682549533
20
-1.38793932298736
30
0
41
1
10
33.7333480967632
20
-1.37123363111806
30
0
41
1
10
33.7321841190627
20
-1.35230390262359
30
0
0
SPLINE
5
E1
100
AcDbEntity
8
1
62
256
6
ByLayer
370
18
48
1
60
0
100
AcDbSpline
70
4
71
3
72
15
73
11
40
0
40
0
40
0
40
0
40
0.305681046253817
40
0.611362092507634
40
0.611362092507634
40
0.764202615634543
40
0.764202615634543
40
0.917043138761451
40
0.917043138761451
40
1
40
1
40
1
40
1
41
1
10
33.5882527823043
20
-1.33507064745845
30
0
41
1
10
33.592109010523
20
-1.35808654299956
30
0
41
1
10
33.5997989052084
20
-1.39924897605752
30
0
41
1
10
33.6074821848698
20
-1.43079879116388
30
0
41
1
10
33.6132274958049
20
-1.45069805241627
30
0
41
1
10
33.6151390613085
20
-1.45670116475682
30
0
41
1
10
33.6189511037025
20
-1.46739589252221
30
0
41
1
10
33.620859179683
20
-1.47209981904501
30
0
41
1
10
33.6237658019375
20
-1.47826550928593
30
0
41
1
10
33.6247816516131
20
-1.48022935670031
30
0
41
1
10
33.6257909871254
20
-1.4819901434696
30
0
0
SPLINE
5
E2
100
AcDbEntity
8
1
62
256
6
ByLayer
370
13
48
1
60
0
100
AcDbSpline
70
4
71
3
72
9
73
5
40
0
40
0
40
0
40
0
40
0.846598196700943
40
1
40
1
40
1
40
1
41
1
10
33.457465957892
20
-1.11137965583805
30
0
41
1
10
33.4656548084059
20
-1.17005109256033
30
0
41
1
10
33.4753274619711
20
-1.21869527911363
30
0
41
1
10
33.4850001190815
20
-1.23945958998499
30
0
41
1
10
33.4864839221841
20
-1.24199190859778
30
0
0
SPLINE
5
E3
100
AcDbEntity
8
1
62
256
6
ByLayer
370
18
48
1
60
0
100
AcDbSpline
70
4
71
3
72
14
73
10
40
0
40
0
40
0
40
0
40
0.0255267853041795
40
0.0255267853041795
40
0.51276339265209
40
0.51276339265209
40
0.756381696326045
40
0.756381696326045
40
1
40
1
40
1
40
1
41
1
10
29.8238403382255
20
-1.32925670104294
30
0
41
1
10
29.8235966714258
20
-1.32922569697106
30
0
41
1
10
29.8233530469873
20
-1.32917322096961
30
0
41
1
10
29.818460407826
20
-1.32768965441588
30
0
41
1
10
29.8138434530987
20
-1.31855557429449
30
0
41
1
10
29.8069561203033
20
-1.29341322931174
30
0
41
1
10
29.8046643649324
20
-1.28311301805678
30
0
41
1
10
29.8000569252606
20
-1.25853960667911
30
0
41
1
10
29.7977646887419
20
-1.24438755727135
30
0
41
1
10
29.7954668357528
20
-1.22844169882939
30
0
0
SPLINE
5
E4
100
AcDbEntity
8
1
62
256
6
ByLayer
370
18
48
1
60
0
100
AcDbSpline
70
4
71
3
72
14
73
10
40
0
40
0
40
0
40
0
40
0.419826960511854
40
0.419826960511854
40
0.629740440767782
40
0.629740440767782
40
0.839653921023711
40
0.839653921023711
40
1
40
1
40
1
40
1
41
1
10
29.4682463845586
20
-1.08667683828466
30
0
41
1
10
29.4736724974645
20
-1.12922417259472
30
0
41
1
10
29.4789830567414
20
-1.16505502958049
30
0
41
1
10
29.4869100438827
20
-1.20896053790935
30
0
41
1
10
29.489549137807
20
-1.22194871601661
30
0
41
1
10
29.4948696516863
20
-1.2445251303555
30
0
41
1
10
29.4975165063856
20
-1.25395766275281
30
0
41
1
10
29.5022113064267
20
-1.26743703946906
30
0
41
1
10
29.50424731721
20
-1.27223538864041
30
0
41
1
10
29.5062844904836
20
-1.27599081157626
30
0
0
SPLINE
5
E5
100
AcDbEntity
8
1
62
256
6
ByLayer
370
13
48
1
60
0
100
AcDbSpline
70
4
71
3
72
9
73
5
40
0
40
0
40
0
40
0
40
0.669960070093706
40
1
40
1
40
1
40
1
41
1
10
31.7357000794758
20
1.24042552864296
30
0
41
1
10
31.7440152701156
20
1.25593102388189
30
0
41
1
10
31.7564267411179
20
1.24902884486846
30
0
41
1
10
31.7688382073668
20
1.19643102771806
30
0
41
1
10
31.7729344867207
20
1.17442770229314
30
0
0
SPLINE
5
E6
100
AcDbEntity
8
1
62
256
6
ByLayer
370
13
48
1
60
0
100
AcDbSpline
70
4
71
3
72
9
73
5
40
0
40
0
40
0
40
0
40
0.749715903949145
40
1
40
1
40
1
40
1
41
1
10
29.4506013391947
20
-1.05809932090187
30
0
41
1
10
29.4600033025474
20
-1.13649082923052
30
0
41
1
10
29.4725439993018
20
-1.2116930552082
30
0
41
1
10
29.4850847054681
20
-1.24036903167388
30
0
41
1
10
29.4882234451333
20
-1.2446470493914
30
0
0
SPLINE
5
E7
100
AcDbEntity
8
1
62
256
6
ByLayer
370
13
48
1
60
0
100
AcDbSpline
70
4
71
3
72
9
73
5
40
0
40
0
40
0
40
0
40
0.643516186778273
40
1
40
1
40
1
40
1
41
1
10
29.319647955619
20
-1.0081706467434
30
0
41
1
10
29.3310954188517
20
-1.11421174237225
30
0
41
1
10
29.3488844418999
20
-1.23014052854018
30
0
41
1
10
29.366673339777
20
-1.25229018062723
30
0
41
1
10
29.3730147909907
20
-1.24841836340741
30
0
0
SPLINE
5
E8
100
AcDbEntity
8
1
62
256
6
ByLayer
370
13
48
1
60
0
100
AcDbSpline
70
4
71
3
72
9
73
5
40
0
40
0
40
0
40
0
40
0.764199921244185
40
1
40
1
40
1
40
1
41
1
10
32.1288707869607
20
1.24145128451425
30
0
41
1
10
32.1379964888071
20
1.22526945017938
30
0
41
1
10
32.1499380052287
20
1.17225904889418
30
0
41
1
10
32.1618795488247
20
1.08055895455186
30
0
41
1
10
32.1646953664428
20
1.05694828709983
30
0
0
SPLINE
5
E9
100
AcDbEntity
8
1
62
256
6
ByLayer
370
18
48
1
60
0
100
AcDbSpline
70
4
71
3
72
22
73
18
40
0
40
0
40
0
40
0
40
0.147324432975657
40
0.147324432975657
40
0.289437027479712
40
0.289437027479712
40
0.360493324731741
40
0.360493324731741
40
0.431549621983769
40
0.431549621983769
40
0.715774810991884
40
0.715774810991884
40
0.786831108243914
40
0.786831108243914
40
0.857887405495943
40
0.857887405495943
40
1
40
1
40
1
40
1
41
1
10
29.3613544494498
20
-1.26426929756542
30
0
41
1
10
29.3590766527307
20
-1.26396526097909
30
0
41
1
10
29.3568112922145
20
-1.26181621032717
30
0
41
1
10
29.3523536170612
20
-1.25401370073993
30
0
41
1
10
29.3501598031878
20
-1.24847634272203
30
0
41
1
10
29.3468229542861
20
-1.23754448331846
30
0
41
1
10
29.3457028287938
20
-1.23346216007087
30
0
41
1
10
29.343466581733
20
-1.22450068512066
30
0
41
1
10
29.3423482821489
20
-1.21961345172096
30
0
41
1
10
29.3367612483576
20
-1.19317686878551
30
0
41
1
10
29.3323157954712
20
-1.16567563530253
30
0
41
1
10
29.3267760024401
20
-1.12336424679501
30
0
41
1
10
29.3256682699517
20
-1.11450214624571
30
0
41
1
10
29.323450333743
20
-1.09596581091003
30
0
41
1
10
29.3223379777794
20
-1.08627182817585
30
0
41
1
10
29.3190070442617
20
-1.05609066072711
30
0
41
1
10
29.3168034180831
20
-1.03458999258461
30
0
41
1
10
29.3145951098908
20
-1.01173279754218
30
0
0
SPLINE
5
EA
100
AcDbEntity
8
1
62
256
6
ByLayer
370
13
48
1
60
0
100
AcDbSpline
70
4
71
3
72
9
73
5
40
0
40
0
40
0
40
0
40
0.653867254867572
40
1
40
1
40
1
40
1
41
1
10
33.3264994272552
20
-1.06783653853941
30
0
41
1
10
33.3367381996346
20
-1.15114256203429
30
0
41
1
10
33.3523969676715
20
-1.23808123344327
30
0
41
1
10
33.3680557265416
20
-1.25188739375324
30
0
41
1
10
33.3734757391717
20
-1.24806740572833
30
0
0
SPLINE
5
EB
100
AcDbEntity
8
1
62
256
6
ByLayer
370
13
48
1
60
0
100
AcDbSpline
70
4
71
3
72
9
73
5
40
0
40
0
40
0
40
0
40
0.512223447461801
40
1
40
1
40
1
40
1
41
1
10
32.9348308691903
20
-0.906572708213901
30
0
41
1
10
32.9437583230963
20
-1.00294461148425
30
0
41
1
10
32.96118715408
20
-1.15794671366496
30
0
41
1
10
32.9786159783171
20
-1.22923380408676
30
0
41
1
10
32.9871173492316
20
-1.2429041958585
30
0
0
SPLINE
5
EC
100
AcDbEntity
8
1
62
256
6
ByLayer
370
13
48
1
60
0
100
AcDbSpline
70
4
71
3
72
9
73
5
40
0
40
0
40
0
40
0
40
0.729771219545654
40
1
40
1
40
1
40
1
41
1
10
32.2417223921212
20
1.24834528941994
30
0
41
1
10
32.2548365720328
20
1.25734884186392
30
0
41
1
10
32.2728068474082
20
1.19870410934189
30
0
41
1
10
32.2907770975772
20
1.05215593271066
30
0
41
1
10
32.2956331759409
20
1.0069699599168
30
0
0
SPLINE
5
ED
100
AcDbEntity
8
1
62
256
6
ByLayer
370
18
48
1
60
0
100
AcDbSpline
70
4
71
3
72
19
73
15
40
0
40
0
40
0
40
0
40
0.125
40
0.125
40
0.250000000000001
40
0.250000000000001
40
0.500000000000001
40
0.500000000000001
40
0.562500000000001
40
0.562500000000001
40
0.625000000000001
40
0.75
40
0.75
40
1
40
1
40
1
40
1
41
1
10
29.2073928771015
20
0.626233900872165
30
0
41
1
10
29.2052687143409
20
0.658165787159703
30
0
41
1
10
29.2031456881546
20
0.689308247161364
30
0
41
1
10
29.19890630482
20
0.749140577712041
30
0
41
1
10
29.1967753295945
20
0.777938492630113
30
0
41
1
10
29.1903623329961
20
0.861042140354073
30
0
41
1
10
29.186080262244
20
0.912087047407454
30
0
41
1
10
29.180748284857
20
0.970262579706201
30
0
41
1
10
29.1796816077431
20
0.981618589715339
30
0
41
1
10
29.1775685947171
20
1.00352820274679
30
0
41
1
10
29.1744209779272
20
1.03528001787694
30
0
41
1
10
29.1713240821167
20
1.06375513272215
30
0
41
1
10
29.165129052796
20
1.11639525814081
30
0
41
1
10
29.1609429157862
20
1.14576909727384
30
0
41
1
10
29.1566533912672
20
1.16918609156207
30
0
0
SPLINE
5
EE
100
AcDbEntity
8
1
62
256
6
ByLayer
370
13
48
1
60
0
100
AcDbSpline
70
4
71
3
72
10
73
6
40
0
40
0
40
0
40
0
40
0.0393013749408177
40
0.736923072144319
40
1
40
1
40
1
40
1
41
1
10
29.2763907074402
20
1.15491940476991
30
0
41
1
10
29.2771424628095
20
1.15042065038324
30
0
41
1
10
29.2912383016955
20
1.06312615990987
30
0
41
1
10
29.3103662475129
20
0.870234190618646
30
0
41
1
10
29.3287424668945
20
0.623332981956253
30
0
41
1
10
29.3337745962764
20
0.552429038917865
30
0
0
SPLINE
5
EF
100
AcDbEntity
8
1
62
256
6
ByLayer
370
13
48
1
60
0
100
AcDbSpline
70
4
71
3
72
9
73
5
40
0
40
0
40
0
40
0
40
0.570815984315962
40
1
40
1
40
1
40
1
41
1
10
32.8038650854931
20
-0.842978393111821
30
0
41
1
10
32.8148421437461
20
-0.970048471141098
30
0
41
1
10
32.8340725670529
20
-1.15045667878815
30
0
41
1
10
32.8533030753322
20
-1.22870162680346
30
0
41
1
10
32.8615565035185
20
-1.24241300432942
30
0
0
SPLINE
5
F0
100
AcDbEntity
8
1
62
256
6
ByLayer
370
18
48
1
60
0
100
AcDbSpline
70
4
71
3
72
22
73
18
40
0
40
0
40
0
40
0
40
0.249999999999999
40
0.249999999999999
40
0.374999999999999
40
0.374999999999999
40
0.437499999999998
40
0.437499999999998
40
0.499999999999998
40
0.499999999999998
40
0.75
40
0.75
40
0.8125
40
0.8125
40
0.875000000000001
40
0.875000000000001
40
1
40
1
40
1
40
1
41
1
10
29.2781603199824
20
1.15746510223187
30
0
41
1
10
29.2834400530686
20
1.12882080758101
30
0
41
1
10
29.2887506881781
20
1.09407210103694
30
0
41
1
10
29.2966934911982
20
1.03302902181025
30
0
41
1
10
29.2993375257756
20
1.01118533201358
30
0
41
1
10
29.303306388301
20
0.976122919148736
30
0
41
1
10
29.3046294503258
20
0.964054368854619
30
0
41
1
10
29.3072547253975
20
0.939383691143519
30
0
41
1
10
29.3085601398381
20
0.926753802934883
30
0
41
1
10
29.3150625781902
20
0.862155870041448
30
0
41
1
10
29.3201785714717
20
0.805875925395412
30
0
41
1
10
29.3267351798566
20
0.729817365951959
30
0
41
1
10
29.3280535159094
20
0.714317909810745
30
0
41
1
10
29.3307016003438
20
0.68273430164345
30
0
41
1
10
29.3320342068473
20
0.666614827560664
30
0
41
1
10
29.3360243988896
20
0.617638015711975
30
0
41
1
10
29.3386675997812
20
0.584243720647493
30
0
41
1
10
29.3412948650541
20
0.550120520966885
30
0
0
SPLINE
5
F1
100
AcDbEntity
8
1
62
256
6
ByLayer
370
18
48
1
60
0
100
AcDbSpline
70
4
71
3
72
20
73
16
40
0
40
0
40
0
40
0
40
0.25
40
0.25
40
0.3125
40
0.3125
40
0.375
40
0.375
40
0.5
40
0.5
40
0.75
40
0.75
40
0.875
40
0.875
40
1
40
1
40
1
40
1
41
1
10
29.6896237815255
20
0.325378591767361
30
0
41
1
10
29.6851096007607
20
0.403861158823474
30
0
41
1
10
29.6806494637552
20
0.479510289490264
30
0
41
1
10
29.6749392373327
20
0.570576164274769
30
0
41
1
10
29.6737931974399
20
0.588613452799507
30
0
41
1
10
29.6714948139092
20
0.624332454105001
30
0
41
1
10
29.6703399840968
20
0.642051715820031
30
0
41
1
10
29.6668855880836
20
0.694384065199017
30
0
41
1
10
29.6646051119951
20
0.728050183215942
30
0
41
1
10
29.6578161131048
20
0.825493033239468
30
0
41
1
10
29.6533687535907
20
0.885744832362747
30
0
41
1
10
29.6466024884503
20
0.968925476413091
30
0
41
1
10
29.6443187495183
20
0.995539459817138
30
0
41
1
10
29.6397325008144
20
1.04542041897679
30
0
41
1
10
29.6374288482671
20
1.06877662206165
30
0
41
1
10
29.6351243419892
20
1.09056734200033
30
0
0
SPLINE
5
F2
100
AcDbEntity
8
1
62
256
6
ByLayer
370
13
48
1
60
0
100
AcDbSpline
70
4
71
3
72
10
73
6
40
0
40
0
40
0
40
0
40
0.107391313739597
40
0.804507172494441
40
1
40
1
40
1
40
1
41
1
10
29.6680813555904
20
1.02764070648757
30
0
41
1
10
29.6701370295494
20
1.0093159367168
30
0
41
1
10
29.685536839238
20
0.864308410249947
30
0
41
1
10
29.7046789079176
20
0.614932858175195
30
0
41
1
10
29.7217650414764
20
0.359145465877759
30
0
41
1
10
29.7255071203256
20
0.30211891847415
30
0
0
SPLINE
5
F3
100
AcDbEntity
8
1
62
256
6
ByLayer
370
13
48
1
60
0
100
AcDbSpline
70
4
71
3
72
9
73
5
40
0
40
0
40
0
40
0
40
0.502525404725418
40
1
40
1
40
1
40
1
41
1
10
32.4121996247686
20
-0.628942971112963
30
0
41
1
10
32.4218643996907
20
-0.759989410384492
30
0
41
1
10
32.441096818602
20
-0.993277092427888
30
0
41
1
10
32.4603292093909
20
-1.13956293538712
30
0
41
1
10
32.4698968366185
20
-1.18671091211411
30
0
0
SPLINE
5
F4
100
AcDbEntity
8
1
62
256
6
ByLayer
370
13
48
1
60
0
100
AcDbSpline
70
4
71
3
72
10
73
6
40
0
40
0
40
0
40
0
40
0.0825147832373158
40
0.775423953693903
40
1
40
1
40
1
40
1
41
1
10
33.1522874876341
20
1.14762223683712
30
0
41
1
10
33.1538765669571
20
1.13777925549027
30
0
41
1
10
33.1688097513305
20
1.03878553920893
30
0
41
1
10
33.1880675311878
20
0.83351251689399
30
0
41
1
10
33.2057365525583
20
0.591764757959623
30
0
41
1
10
33.2100614673938
20
0.530249131493861
30
0
0
SPLINE
5
F5
100
AcDbEntity
8
1
62
256
6
ByLayer
370
13
48
1
60
0
100
AcDbSpline
70
4
71
3
72
11
73
7
40
0
40
0
40
0
40
0
40
0.0117502869277155
40
0.416660888220895
40
0.821571489514075
40
1
40
1
40
1
40
1
41
1
10
34.3864078950907
20
-0.252410375500489
30
0
41
1
10
34.386181048739
20
-0.248921995140222
30
0
41
1
10
34.3781371598717
20
-0.125115729307907
30
0
41
1
10
34.3622762294624
20
0.126361521136033
30
0
41
1
10
34.3431974810718
20
0.419976402852797
30
0
41
1
10
34.3319357723915
20
0.57876373696476
30
0
41
1
10
34.3284911039283
20
0.625581524034345
30
0
0
SPLINE
5
F6
100
AcDbEntity
8
1
62
256
6
ByLayer
370
13
48
1
60
0
100
AcDbSpline
70
4
71
3
72
10
73
6
40
0
40
0
40
0
40
0
40
0.0007428753617141
40
0.697426988460196
40
1
40
1
40
1
40
1
41
1
10
29.7990225761159
20
0.974700372948092
30
0
41
1
10
29.7990368049344
20
0.974560613214038
30
0
41
1
10
29.8123951184926
20
0.843306400071157
30
0
41
1
10
29.831548803451
20
0.594765224411987
30
0
41
1
10
29.8506882915079
20
0.304264407563238
30
0
41
1
10
29.8564836898701
20
0.214605088854114
30
0
0
SPLINE
5
F7
100
AcDbEntity
8
1
62
256
6
ByLayer
370
13
48
1
60
0
100
AcDbSpline
70
4
71
3
72
10
73
6
40
0
40
0
40
0
40
0
40
0.0688498119048761
40
0.765757066765238
40
1
40
1
40
1
40
1
41
1
10
30.190712780212
20
0.787074070302054
30
0
41
1
10
30.1920310813286
20
0.771009045393498
30
0
41
1
10
30.2066934142136
20
0.588698209689397
30
0
41
1
10
30.2258410444237
20
0.300496923851199
30
0
41
1
10
30.2436702682677
20
0.0198765710338762
30
0
41
1
10
30.2481554388084
20
-0.0504866610451415
30
0
0
SPLINE
5
F8
100
AcDbEntity
8
1
62
256
6
ByLayer
370
18
48
1
60
0
100
AcDbSpline
70
4
71
3
72
22
73
18
40
0
40
0
40
0
40
0
40
0.249999999999999
40
0.249999999999999
40
0.374999999999998
40
0.374999999999998
40
0.437499999999998
40
0.437499999999998
40
0.499999999999998
40
0.499999999999998
40
0.749999999999999
40
0.749999999999999
40
0.812499999999999
40
0.812499999999999
40
0.875
40
0.875
40
1
40
1
40
1
40
1
41
1
10
29.8481096064765
20
1.02772489228249
30
0
41
1
10
29.853653972484
20
0.974210902924
30
0
41
1
10
29.8591940635616
20
0.915199721479723
30
0
41
1
10
29.8674258403931
20
0.818673758131723
30
0
41
1
10
29.8701596775426
20
0.785154867461756
30
0
41
1
10
29.8742640533819
20
0.732812082505461
30
0
41
1
10
29.8756366765486
20
0.714970515701623
30
0
41
1
10
29.8783677491052
20
0.67886851918206
30
0
41
1
10
29.8797258516656
20
0.660615084298172
30
0
41
1
10
29.8864971953416
20
0.568356225639434
30
0
41
1
10
29.8918905725871
20
0.491405985189885
30
0
41
1
10
29.8987705948628
20
0.391334771369031
30
0
41
1
10
29.9001501830267
20
0.371124352534309
30
0
41
1
10
29.9029151604406
20
0.330305008527006
30
0
41
1
10
29.9043030887341
20
0.30965788784593
30
0
41
1
10
29.9084573173625
20
0.247383203153959
30
0
41
1
10
29.9112015706644
20
0.205601846067424
30
0
41
1
10
29.9139303212302
20
0.163560000637233
30
0
0
SPLINE
5
F9
100
AcDbEntity
8
1
62
256
6
ByLayer
370
18
48
1
60
0
100
AcDbSpline
70
4
71
3
72
22
73
18
40
0
40
0
40
0
40
0
40
0.25
40
0.25
40
0.374999999999999
40
0.374999999999999
40
0.4375
40
0.4375
40
0.5
40
0.5
40
0.75
40
0.75
40
0.8125
40
0.8125
40
0.875
40
0.875
40
1
40
1
40
1
40
1
41
1
10
30.1723784647905
20
-0.0344622485677633
30
0
41
1
10
30.1677261269394
20
0.0535758341270594
30
0
41
1
10
30.1631553468772
20
0.140546180961081
30
0
41
1
10
30.1561133263759
20
0.269423404530556
30
0
41
1
10
30.1537469972839
20
0.312118518794733
30
0
41
1
10
30.1501800907716
20
0.375755363353932
30
0
41
1
10
30.1489850209128
20
0.396953104433777
30
0
41
1
10
30.1466109615239
20
0.438815606984093
30
0
41
1
10
30.1454304983462
20
0.459507303672609
30
0
41
1
10
30.1395567503538
20
0.561788923859751
30
0
41
1
10
30.1349617587736
20
0.63988128867274
30
0
41
1
10
30.1291544198926
20
0.732824265965547
30
0
41
1
10
30.1279889730752
20
0.751177176112833
30
0
41
1
10
30.1256419469463
20
0.787403001347343
30
0
41
1
10
30.124457294101
20
0.805313812618095
30
0
41
1
10
30.1208916966046
20
0.857962826898216
30
0
41
1
10
30.1185038506188
20
0.891630853602521
30
0
41
1
10
30.1161161767788
20
0.923883555032859
30
0
0
SPLINE
5
FA
100
AcDbEntity
8
1
62
256
6
ByLayer
370
13
48
1
60
0
100
AcDbSpline
70
4
71
3
72
10
73
6
40
0
40
0
40
0
40
0
40
0.311144693974141
40
0.715800763500293
40
1
40
1
40
1
40
1
41
1
10
34.2554921142108
20
-0.165142476720803
30
0
41
1
10
34.2494813863956
20
-0.0716251228473652
30
0
41
1
10
34.2356533214312
20
0.14672708371441
30
0
41
1
10
34.2163357311839
20
0.444479926225483
30
0
41
1
10
34.2030284632393
20
0.629554422281444
30
0
41
1
10
34.197538325782
20
0.700911991395515
30
0
0
SPLINE
5
FB
100
AcDbEntity
8
1
62
256
6
ByLayer
370
13
48
1
60
0
100
AcDbSpline
70
4
71
3
72
9
73
5
40
0
40
0
40
0
40
0
40
0.609325767681436
40
1
40
1
40
1
40
1
41
1
10
32.2812457890482
20
-0.550394636159353
30
0
41
1
10
32.2929562697223
20
-0.715342921147226
30
0
41
1
10
32.3121748879899
20
-0.95663635433101
30
0
41
1
10
32.3313938187517
20
-1.11057959960459
30
0
41
1
10
32.3389021497272
20
-1.1554443014667
30
0
0
SPLINE
5
FC
100
AcDbEntity
8
1
62
256
6
ByLayer
370
13
48
1
60
0
100
AcDbSpline
70
4
71
3
72
9
73
5
40
0
40
0
40
0
40
0
40
0.541174735434778
40
1
40
1
40
1
40
1
41
1
10
31.8895719306541
20
-0.300804322120001
30
0
41
1
10
31.8999728416821
20
-0.459267905950327
30
0
41
1
10
31.9191919874135
20
-0.737986032947276
30
0
41
1
10
31.9384110986603
20
-0.950390033084972
30
0
41
1
10
31.947229314597
20
-1.02901482431363
30
0
0
SPLINE
5
FD
100
AcDbEntity
8
1
62
256
6
ByLayer
370
13
48
1
60
0
100
AcDbSpline
70
4
71
3
72
9
73
5
40
0
40
0
40
0
40
0
40
0.65881554340412
40
1
40
1
40
1
40
1
41
1
10
30.3216572857332
20
0.716144241257695
30
0
41
1
10
30.3342771256588
20
0.553738152823655
30
0
41
1
10
30.3534324564428
20
0.26549849962214
30
0
41
1
10
30.3725878035604
20
-0.0374939806000611
30
0
41
1
10
30.3791233107481
20
-0.139475008432953
30
0
0
SPLINE
5
FE
100
AcDbEntity
8
1
62
256
6
ByLayer
370
13
48
1
60
0
100
AcDbSpline
70
4
71
3
72
10
73
6
40
0
40
0
40
0
40
0
40
0.194187546061529
40
0.599441676293599
40
1
40
1
40
1
40
1
41
1
10
33.7327725195502
20
0.190262244471029
30
0
41
1
10
33.7290267208494
20
0.248369473187523
30
0
41
1
10
33.7174637306177
20
0.425791703458884
30
0
41
1
10
33.6981746064192
20
0.702606291711305
30
0
41
1
10
33.6826310102753
20
0.885698334051398
30
0
41
1
10
33.6749045171022
20
0.962993043420255
30
0
0
SPLINE
5
FF
100
AcDbEntity
8
1
62
256
6
ByLayer
370
13
48
1
60
0
100
AcDbSpline
70
4
71
3
72
9
73
5
40
0
40
0
40
0
40
0
40
0.669132039315568
40
1
40
1
40
1
40
1
41
1
10
33.2832299017466
20
1.10971210406632
30
0
41
1
10
33.296121100301
20
1.01664279957242
30
0
41
1
10
33.3153866721763
20
0.811182759988611
30
0
41
1
10
33.334652220718
20
0.541600664416251
30
0
41
1
10
33.3410265728278
20
0.448135020024267
30
0
0
SPLINE
5
100
100
AcDbEntity
8
1
62
256
6
ByLayer
370
18
48
1
60
0
100
AcDbSpline
70
4
71
3
72
8
73
4
40
0
40
0
40
0
40
0
40
1
40
1
40
1
40
1
41
1
10
33.5285667869671
20
0.322327419525067
30
0
41
1
10
33.5249133224316
20
0.346893840207969
30
0
41
1
10
33.5212315905501
20
0.371242540336397
30
0
41
1
10
33.5175202312206
20
0.39537714503976
30
0
0
SPLINE
5
101
100
AcDbEntity
8
1
62
256
6
ByLayer
370
18
48
1
60
0
100
AcDbSpline
70
4
71
3
72
8
73
4
40
0
40
0
40
0
40
0
40
1
40
1
40
1
40
1
41
1
10
33.5175202312233
20
0.395377145040186
30
0
41
1
10
33.518693733918
20
0.373213589240549
30
0
41
1
10
33.5198647833359
20
0.35093016208549
30
0
41
1
10
33.5210363019738
20
0.328527027796042
30
0
0
SPLINE
5
102
100
AcDbEntity
8
1
62
256
6
ByLayer
370
13
48
1
60
0
100
AcDbSpline
70
4
71
3
72
10
73
6
40
0
40
0
40
0
40
0
40
0.300012482718521
40
0.705389540481472
40
1
40
1
40
1
40
1
41
1
10
33.8637073706498
20
0.102159195111568
30
0
41
1
10
33.8579221147304
20
0.192689362210672
30
0
41
1
10
33.844319818003
20
0.403649000810901
30
0
41
1
10
33.8250364402201
20
0.679607527466118
30
0
41
1
10
33.8115383155332
20
0.842360772651148
30
0
41
1
10
33.8058572308434
20
0.903958856533109
30
0
0
SPLINE
5
103
100
AcDbEntity
8
1
62
256
6
ByLayer
370
18
48
1
60
0
100
AcDbSpline
70
4
71
3
72
22
73
18
40
0
40
0
40
0
40
0
40
0.249999999999997
40
0.249999999999997
40
0.312499999999998
40
0.312499999999998
40
0.374999999999998
40
0.374999999999998
40
0.499999999999999
40
0.499999999999999
40
0.75
40
0.75
40
0.812499999999999
40
0.812499999999999
40
0.874999999999999
40
0.874999999999999
40
1
40
1
40
1
40
1
41
1
10
33.897956718581
20
0.987242747685002
30
0
41
1
10
33.9055742048689
20
0.922538010396948
30
0
41
1
10
33.9129116032698
20
0.851589472608509
30
0
41
1
10
33.9218358102383
20
0.755067397962961
30
0
41
1
10
33.92361062885
20
0.735370732979248
30
0
41
1
10
33.9271434811391
20
0.695184046351557
30
0
41
1
10
33.928906041763
20
0.674639640215531
30
0
41
1
10
33.9341424376102
20
0.612199616571417
30
0
41
1
10
33.9375484979802
20
0.569702721283903
30
0
41
1
10
33.947614622835
20
0.439714725958538
30
0
41
1
10
33.9541627384876
20
0.349758267086912
30
0
41
1
10
33.9623008199082
20
0.233113902095511
30
0
41
1
10
33.9639237991818
20
0.209584929792896
30
0
41
1
10
33.9671331387898
20
0.162560627210809
30
0
41
1
10
33.9687234825941
20
0.139008472488655
30
0
41
1
10
33.9734565249655
20
0.0682329973406297
30
0
41
1
10
33.976562724614
20
0.0208910866766701
30
0
41
1
10
33.979630228483
20
-0.0266108057638803
30
0
0
SPLINE
5
104
100
AcDbEntity
8
1
62
256
6
ByLayer
370
18
48
1
60
0
100
AcDbSpline
70
4
71
3
72
20
73
16
40
0
40
0
40
0
40
0
40
0.25
40
0.25
40
0.375000000000001
40
0.375000000000001
40
0.437500000000001
40
0.437500000000001
40
0.500000000000001
40
0.500000000000001
40
0.75
40
0.75
40
0.875
40
0.875
40
1
40
1
40
1
40
1
41
1
10
34.1724388264682
20
-0.161057657132346
30
0
41
1
10
34.1681773080621
20
-0.0737331574709685
30
0
41
1
10
34.1643378133362
20
0.0132437158464427
30
0
41
1
10
34.1588186438843
20
0.143196993449891
30
0
41
1
10
34.1570133036191
20
0.18642852767411
30
0
41
1
10
34.154349460854
20
0.251142476066292
30
0
41
1
10
34.1534709924028
20
0.272645809788571
30
0
41
1
10
34.1517463774221
20
0.315145927915495
30
0
41
1
10
34.1508979984582
20
0.336196781434808
30
0
41
1
10
34.1467191941429
20
0.440468620562143
30
0
41
1
10
34.1435610087316
20
0.52077576626283
30
0
41
1
10
34.139044746564
20
0.636421039554477
30
0
41
1
10
34.1375804836056
20
0.674292500441027
30
0
41
1
10
34.1348068401497
20
0.746966269985677
30
0
41
1
10
34.1334915405374
20
0.781920038874603
30
0
41
1
10
34.132234412468
20
0.815490431351577
30
0
0
SPLINE
5
105
100
AcDbEntity
8
1
62
256
6
ByLayer
370
18
48
1
60
0
100
AcDbSpline
70
4
71
3
72
20
73
16
40
0
40
0
40
0
40
0
40
0.249999999999999
40
0.249999999999999
40
0.374999999999999
40
0.374999999999999
40
0.437499999999999
40
0.437499999999999
40
0.499999999999999
40
0.499999999999999
40
0.749999999999999
40
0.749999999999999
40
0.875
40
0.875
40
1
40
1
40
1
40
1
41
1
10
30.4182863400905
20
0.775433579657943
30
0
41
1
10
30.4240513457882
20
0.698064313140719
30
0
41
1
10
30.4297712118788
20
0.616629856943121
30
0
41
1
10
30.4382715214657
20
0.488497093381255
30
0
41
1
10
30.4410952720076
20
0.444782617812592
30
0
41
1
10
30.4453489119346
20
0.377657734916653
30
0
41
1
10
30.446763154492
20
0.355131995460255
30
0
41
1
10
30.4495782693936
20
0.310012819042271
30
0
41
1
10
30.4509814178706
20
0.287383526504186
30
0
41
1
10
30.4579994487327
20
0.173895507448776
30
0
41
1
10
30.4636830002305
20
0.0820266661598907
30
0
41
1
10
30.4722617098935
20
-0.0574190516626629
30
0
41
1
10
30.4751361708199
20
-0.104332588797462
30
0
41
1
10
30.480810789564
20
-0.197127780175521
30
0
41
1
10
30.4836211517128
20
-0.243173899051015
30
0
41
1
10
30.4864258392448
20
-0.28886847216441
30
0
0
SPLINE
5
106
100
AcDbEntity
8
1
62
256
6
ByLayer
370
18
48
1
60
0
100
AcDbSpline
70
4
71
3
72
20
73
16
40
0
40
0
40
0
40
0
40
0.250000000000002
40
0.250000000000002
40
0.375000000000003
40
0.375000000000003
40
0.437500000000003
40
0.437500000000003
40
0.500000000000003
40
0.500000000000003
40
0.750000000000001
40
0.750000000000001
40
0.875000000000001
40
0.875000000000001
40
1
40
1
40
1
40
1
41
1
10
30.6550519063427
20
-0.42808738846702
30
0
41
1
10
30.6502701018412
20
-0.337241049298967
30
0
41
1
10
30.6455890183224
20
-0.244899979139746
30
0
41
1
10
30.6383469908257
20
-0.104202700925725
30
0
41
1
10
30.6359065959215
20
-0.056936472338549
30
0
41
1
10
30.6322214534803
20
0.014532569521009
30
0
41
1
10
30.6309933592862
20
0.0383622968673762
30
0
41
1
10
30.6285544663103
20
0.0857166626502988
30
0
41
1
10
30.6273411497743
20
0.109290082750732
30
0
41
1
10
30.6213015201095
20
0.22664592928308
30
0
41
1
10
30.616571324326
20
0.318910384263319
30
0
41
1
10
30.60937640822
20
0.454829206773496
30
0
41
1
10
30.6069476956748
20
0.499876464759751
30
0
41
1
10
30.6020586742026
20
0.587640775758047
30
0
41
1
10
30.5995988344547
20
0.630503434390505
30
0
41
1
10
30.5971364462317
20
0.672348897401264
30
0
0
SPLINE
5
107
100
AcDbEntity
8
1
62
256
6
ByLayer
370
13
48
1
60
0
100
AcDbSpline
70
4
71
3
72
10
73
6
40
0
40
0
40
0
40
0
40
0.0301599397213161
40
0.725891522285782
40
1
40
1
40
1
40
1
41
1
10
30.7133516279006
20
0.483085744944049
30
0
41
1
10
30.7139300917007
20
0.474713085105464
30
0
41
1
10
30.7278526024453
20
0.272263066327213
30
0
41
1
10
30.7470326230898
20
-0.0362716367985172
30
0
41
1
10
30.7656340823541
20
-0.322045415321639
30
0
41
1
10
30.7708914579133
20
-0.400225282414652
30
0
0
SPLINE
5
108
100
AcDbEntity
8
1
62
256
6
ByLayer
370
13
48
1
60
0
100
AcDbSpline
70
4
71
3
72
9
73
5
40
0
40
0
40
0
40
0
40
0.6481966434322
40
1
40
1
40
1
40
1
41
1
10
31.7586259646286
20
-0.213755669245671
30
0
41
1
10
31.7710699569105
20
-0.40619438829188
30
0
41
1
10
31.7902676572405
20
-0.691004295088447
30
0
41
1
10
31.809465677817
20
-0.909071952248325
30
0
41
1
10
31.8162196043821
20
-0.975357311636031
30
0
0
SPLINE
5
109
100
AcDbEntity
8
1
62
256
6
ByLayer
370
13
48
1
60
0
100
AcDbSpline
70
4
71
3
72
9
73
5
40
0
40
0
40
0
40
0
40
0.58020771712967
40
1
40
1
40
1
40
1
41
1
10
31.3669307498977
20
0.0517105412451144
30
0
41
1
10
31.3780722920167
20
-0.123075847689194
30
0
41
1
10
31.3972749759429
20
-0.427120228728711
30
0
41
1
10
31.4164776352559
20
-0.689847532390672
30
0
41
1
10
31.424538764861
20
-0.788106848770127
30
0
0
SPLINE
5
10A
100
AcDbEntity
8
1
62
256
6
ByLayer
370
18
48
1
60
0
100
AcDbSpline
70
4
71
3
72
22
73
18
40
0
40
0
40
0
40
0
40
0.125
40
0.125
40
0.25
40
0.25
40
0.375
40
0.375
40
0.5
40
0.5
40
0.625
40
0.625
40
0.75
40
0.75
40
0.875
40
0.875
40
1
40
1
40
1
40
1
41
1
10
30.9018501922948
20
-0.483604445724552
30
0
41
1
10
30.898399424647
20
-0.477869145346375
30
0
41
1
10
30.8943778916629
20
-0.472253025077151
30
0
41
1
10
30.8854012250719
20
-0.461222563620908
30
0
41
1
10
30.8803874903718
20
-0.45575867687316
30
0
41
1
10
30.8697848199289
20
-0.44535289932972
30
0
41
1
10
30.8641918867536
20
-0.44039277778225
30
0
41
1
10
30.8524376789694
20
-0.430940831925085
30
0
41
1
10
30.8463093309347
20
-0.426485632206521
30
0
41
1
10
30.8339539100831
20
-0.418402561039159
30
0
41
1
10
30.827673197236
20
-0.414728406512637
30
0
41
1
10
30.8148925230161
20
-0.408218924434806
30
0
41
1
10
30.8085577809971
20
-0.405472351195129
30
0
41
1
10
30.7962924570127
20
-0.40125374919549
30
0
41
1
10
30.7903110559524
20
-0.399779240898511
30
0
41
1
10
30.7795846580164
20
-0.398594492023307
30
0
41
1
10
30.7747335445583
20
-0.398877792295536
30
0
41
1
10
30.7708914579141
20
-0.40022528241434
30
0
0
SPLINE
5
10B
100
AcDbEntity
8
1
62
256
6
ByLayer
370
18
48
1
60
0
100
AcDbSpline
70
4
71
3
72
8
73
4
40
0
40
0
40
0
40
0
40
1
40
1
40
1
40
1
41
1
10
30.7708914579133
20
-0.400225282414652
30
0
41
1
10
30.7321344287055
20
-0.413818082040308
30
0
41
1
10
30.6934607378228
20
-0.423006496539273
30
0
41
1
10
30.6550519063424
20
-0.428087388467134
30
0
0
SPLINE
5
10C
100
AcDbEntity
8
1
62
256
6
ByLayer
370
18
48
1
60
0
100
AcDbSpline
70
4
71
3
72
10
73
6
40
0
40
0
40
0
40
0
40
0.5
40
0.5
40
1
40
1
40
1
40
1
41
1
10
30.6550519063425
20
-0.428087388466878
30
0
41
1
10
30.6271252378689
20
-0.404885456043786
30
0
41
1
10
30.5991121360478
20
-0.381679036304263
30
0
41
1
10
30.5428710912878
20
-0.335308861052909
30
0
41
1
10
30.5146653183263
20
-0.312120062030715
30
0
41
1
10
30.4864258392353
20
-0.288868472164864
30
0
0
SPLINE
5
10D
100
AcDbEntity
8
1
62
256
6
ByLayer
370
18
48
1
60
0
100
AcDbSpline
70
4
71
3
72
8
73
4
40
0
40
0
40
0
40
0
40
1
40
1
40
1
40
1
41
1
10
30.4864258392408
20
-0.288868472166513
30
0
41
1
10
30.450901729072
20
-0.236418786678428
30
0
41
1
10
30.4151612927183
20
-0.186487857104169
30
0
41
1
10
30.3791233107481
20
-0.139475008432953
30
0
0
SPLINE
5
10E
100
AcDbEntity
8
1
62
256
6
ByLayer
370
18
48
1
60
0
100
AcDbSpline
70
4
71
3
72
22
73
18
40
0
40
0
40
0
40
0
40
0.125
40
0.125
40
0.25
40
0.25
40
0.375
40
0.375
40
0.5
40
0.5
40
0.625
40
0.625
40
0.75
40
0.75
40
0.875
40
0.875
40
1
40
1
40
1
40
1
41
1
10
30.3791233107481
20
-0.139475008432953
30
0
41
1
10
30.3756731868362
20
-0.134974197219293
30
0
41
1
10
30.37165345979
20
-0.130392142729363
30
0
41
1
10
30.3626821251046
20
-0.12110777808428
30
0
41
1
10
30.3576719719231
20
-0.11635903101984
30
0
41
1
10
30.3470761447032
20
-0.107032122059678
30
0
41
1
10
30.3414862898608
20
-0.102441362839613
30
0
41
1
10
30.329736853634
20
-0.0933877243719223
30
0
41
1
10
30.3236092409145
20
-0.0889557209729048
30
0
41
1
10
30.3112540128986
20
-0.0805526561480576
30
0
41
1
10
30.3049725852767
20
-0.0765384702394556
30
0
41
1
10
30.292188958886
20
-0.0689167983034906
30
0
41
1
10
30.2858479753016
20
-0.0654079496499378
30
0
41
1
10
30.2735743627632
20
-0.059211025570562
30
0
41
1
10
30.267587666815
20
-0.0565030357645355
30
0
41
1
10
30.2568534203712
20
-0.0524204943659186
30
0
41
1
10
30.2519991572462
20
-0.0510075988826486
30
0
41
1
10
30.2481554388092
20
-0.0504866610453121
30
0
0
SPLINE
5
10F
100
AcDbEntity
8
1
62
256
6
ByLayer
370
18
48
1
60
0
100
AcDbSpline
70
4
71
3
72
8
73
4
40
0
40
0
40
0
40
0
40
1
40
1
40
1
40
1
41
1
10
30.2481554388083
20
-0.0504866610451415
30
0
41
1
10
30.2228419793804
20
-0.0470559365987526
30
0
41
1
10
30.1975688823981
20
-0.0416806929412132
30
0
41
1
10
30.1723784647905
20
-0.0344622485677633
30
0
0
SPLINE
5
110
100
AcDbEntity
8
1
62
256
6
ByLayer
370
18
48
1
60
0
100
AcDbSpline
70
4
71
3
72
12
73
8
40
0
40
0
40
0
40
0
40
0.25
40
0.25
40
0.5
40
0.5
40
1
40
1
40
1
40
1
41
1
10
30.1723784647905
20
-0.0344622485677633
30
0
41
1
10
30.1509349756129
20
-0.0173827592734028
30
0
41
1
10
30.1294991687095
20
-0.0004073753934222
30
0
41
1
10
30.0865174504444
20
0.0331617068436003
30
0
41
1
10
30.0649674673209
20
0.0497502116032535
30
0
41
1
10
30.0002555156817
20
0.0991038956516093
30
0
41
1
10
29.9570905565799
20
0.131540539117253
30
0
41
1
10
29.9139303212189
20
0.16356000063638
30
0
0
SPLINE
5
111
100
AcDbEntity
8
1
62
256
6
ByLayer
370
18
48
1
60
0
100
AcDbSpline
70
4
71
3
72
8
73
4
40
0
40
0
40
0
40
0
40
1
40
1
40
1
40
1
41
1
10
29.9139303212258
20
0.163560000632259
30
0
41
1
10
29.8948484104052
20
0.181507273597418
30
0
41
1
10
29.8757068310583
20
0.198532160517146
30
0
41
1
10
29.8564836898701
20
0.214605088854114
30
0
0
SPLINE
5
112
100
AcDbEntity
8
1
62
256
6
ByLayer
370
18
48
1
60
0
100
AcDbSpline
70
4
71
3
72
22
73
18
40
0
40
0
40
0
40
0
40
0.125
40
0.125
40
0.25
40
0.25
40
0.375
40
0.375
40
0.5
40
0.5
40
0.625
40
0.625
40
0.75
40
0.75
40
0.875
40
0.875
40
1
40
1
40
1
40
1
41
1
10
29.8564836898701
20
0.214605088854114
30
0
41
1
10
29.8530308942617
20
0.217492053884001
30
0
41
1
10
29.8490072115415
20
0.220654885836154
30
0
41
1
10
29.8400272081104
20
0.227417615687813
30
0
41
1
10
29.8350121842837
20
0.2310574116201
30
0
41
1
10
29.8244084069541
20
0.238537375257977
30
0
41
1
10
29.8188152660187
20
0.242383481827858
30
0
41
1
10
29.8070619869795
20
0.250305584261952
30
0
41
1
10
29.8009357089676
20
0.254357171873579
30
0
41
1
10
29.7885837845271
20
0.262412093985375
30
0
41
1
10
29.7823048869905
20
0.266451276256532
30
0
41
1
10
29.7695272333792
20
0.274594923214352
30
0
41
1
10
29.7631930014599
20
0.27859464655262
30
0
41
1
10
29.7509257670017
20
0.286304158461093
30
0
41
1
10
29.7449417288721
20
0.290046649786376
30
0
41
1
10
29.7342079028777
20
0.296738359117654
30
0
41
1
10
29.7293525286044
20
0.299754161350989
30
0
41
1
10
29.7255071203265
20
0.302118918473582
30
0
0
SPLINE
5
113
100
AcDbEntity
8
1
62
256
6
ByLayer
370
18
48
1
60
0
100
AcDbSpline
70
4
71
3
72
8
73
4
40
0
40
0
40
0
40
0
40
1
40
1
40
1
40
1
41
1
10
29.7255071203256
20
0.302118918474207
30
0
41
1
10
29.7135345885412
20
0.309481499445298
30
0
41
1
10
29.701573941384
20
0.317233208861865
30
0
41
1
10
29.6896237815255
20
0.325378591767361
30
0
0
SPLINE
5
114
100
AcDbEntity
8
1
62
256
6
ByLayer
370
18
48
1
60
0
100
AcDbSpline
70
4
71
3
72
12
73
8
40
0
40
0
40
0
40
0
40
0.5
40
0.5
40
0.75
40
0.75
40
1
40
1
40
1
40
1
41
1
10
29.6896237815255
20
0.325378591767361
30
0
41
1
10
29.6323763578258
20
0.365349811259279
30
0
41
1
10
29.5749539745346
20
0.404352068802325
30
0
41
1
10
29.4879275580658
20
0.460615625606891
30
0
41
1
10
29.4587532008458
20
0.478977050694965
30
0
41
1
10
29.4001689835138
20
0.515041241251993
30
0
41
1
10
29.3707336326868
20
0.532776441536072
30
0
41
1
10
29.3412948650448
20
0.550120520965777
30
0
0
SPLINE
5
115
100
AcDbEntity
8
1
62
256
6
ByLayer
370
18
48
1
60
0
100
AcDbSpline
70
4
71
3
72
8
73
4
40
0
40
0
40
0
40
0
40
1
40
1
40
1
40
1
41
1
10
29.3412948650504
20
0.550120520961343
30
0
41
1
10
29.3387895645461
20
0.550908015393389
30
0
41
1
10
29.3362828402704
20
0.551677606353735
30
0
41
1
10
29.3337745962764
20
0.552429038917836
30
0
0
SPLINE
5
116
100
AcDbEntity
8
1
62
256
6
ByLayer
370
18
48
1
60
0
100
AcDbSpline
70
4
71
3
72
26
73
22
40
0
40
0
40
0
40
0
40
0.124999999999975
40
0.124999999999975
40
0.24999999999995
40
0.24999999999995
40
0.374999999999925
40
0.374999999999925
40
0.4999999999999
40
0.4999999999999
40
0.624999999999875
40
0.624999999999875
40
0.749999999999849
40
0.749999999999849
40
0.812499999999887
40
0.812499999999887
40
0.874999999999925
40
0.874999999999925
40
0.937499999999962
40
0.937499999999962
40
1
40
1
40
1
40
1
41
1
10
29.3337745962764
20
0.552429038917836
30
0
41
1
10
29.3304811200796
20
0.553415715361297
30
0
41
1
10
29.3266668182042
20
0.554809028176606
30
0
41
1
10
29.3181821856175
20
0.558248951599211
30
0
41
1
10
29.3134601339821
20
0.560321343010202
30
0
41
1
10
29.3034411886995
20
0.564989940418485
30
0
41
1
10
29.2981627648145
20
0.567575053018601
30
0
41
1
10
29.2870905194048
20
0.573250115135437
30
0
41
1
10
29.2812733097581
20
0.576355396171067
30
0
41
1
10
29.2695515764266
20
0.582885823800666
30
0
41
1
10
29.2635962638172
20
0.586335243557727
30
0
41
1
10
29.2514917989184
20
0.593681405035653
30
0
41
1
10
29.2453415868118
20
0.597584213809711
30
0
41
1
10
29.2364375317026
20
0.603563184018554
30
0
41
1
10
29.233504942488
20
0.605588101683509
30
0
41
1
10
29.2277218854684
20
0.609713289723402
30
0
41
1
10
29.2248738109033
20
0.611813282158892
30
0
41
1
10
29.2194469910414
20
0.615969549974636
30
0
41
1
10
29.216846217814
20
0.618041064222922
30
0
41
1
10
29.2118960711416
20
0.622170307172667
30
0
41
1
10
29.2095365864916
20
0.624238914995772
30
0
41
1
10
29.2073928771015
20
0.626233900872222
30
0
0
SPLINE
5
117
100
AcDbEntity
8
1
62
256
6
ByLayer
370
18
48
1
60
0
100
AcDbSpline
70
4
71
3
72
8
73
4
40
0
40
0
40
0
40
0
40
1
40
1
40
1
40
1
41
1
10
29.2073928771015
20
0.626233900872165
30
0
41
1
10
29.1385039966042
20
0.663938123155816
30
0
41
1
10
29.0694643495363
20
0.699433726344949
30
0
41
1
10
29
20
0.732439997594838
30
0
0
SPLINE
5
118
100
AcDbEntity
8
1
62
256
6
ByLayer
370
18
48
1
60
0
100
AcDbSpline
70
4
71
3
72
8
73
4
40
0
40
0
40
0
40
0
40
1
40
1
40
1
40
1
41
1
10
29
20
-0.845907152102797
30
0
41
1
10
29.1059028818897
20
-0.904187647621995
30
0
41
1
10
29.2106855271643
20
-0.959603296302731
30
0
41
1
10
29.3145951098908
20
-1.01173279754226
30
0
0
SPLINE
5
119
100
AcDbEntity
8
1
62
256
6
ByLayer
370
18
48
1
60
0
100
AcDbSpline
70
4
71
3
72
8
73
4
40
0
40
0
40
0
40
0
40
1
40
1
40
1
40
1
41
1
10
29.3145951098908
20
-1.01173279754232
30
0
41
1
10
29.3162786064431
20
-1.0105530569231
30
0
41
1
10
29.317962880697
20
-1.00936568229426
30
0
41
1
10
29.319647955619
20
-1.00817064674297
30
0
0
SPLINE
5
11A
100
AcDbEntity
8
1
62
256
6
ByLayer
370
18
48
1
60
0
100
AcDbSpline
70
4
71
3
72
24
73
20
40
0
40
0
40
0
40
0
40
0.125
40
0.125
40
0.25
40
0.25
40
0.375
40
0.375
40
0.5
40
0.5
40
0.625
40
0.625
40
0.75
40
0.75
40
0.8125
40
0.8125
40
0.875
40
0.875
40
1
40
1
40
1
40
1
41
1
10
29.319647955619
20
-1.008170646743
30
0
41
1
10
29.3231695321576
20
-1.00567318558865
30
0
41
1
10
29.3272839839776
20
-1.00390136177791
30
0
41
1
10
29.3364591654001
20
-1.00150989298902
30
0
41
1
10
29.3415843653927
20
-1.0008995947218
30
0
41
1
10
29.3523904506158
20
-1.00080657656758
30
0
41
1
10
29.3580729438197
20
-1.00130780127603
30
0
41
1
10
29.3699756889516
20
-1.00339056347781
30
0
41
1
10
29.376116629678
20
-1.00496645475903
30
0
41
1
10
29.3884906887314
20
-1.00914504819872
30
0
41
1
10
29.3947920662191
20
-1.01176640948958
30
0
41
1
10
29.4074527897523
20
-1.01818559049389
30
0
41
1
10
29.4136463017575
20
-1.0218931711585
30
0
41
1
10
29.4226813270494
20
-1.0283366828366
30
0
41
1
10
29.4256708231079
20
-1.03065243603297
30
0
41
1
10
29.4314043130582
20
-1.03551012808833
30
0
41
1
10
29.4341553277792
20
-1.03805374513377
30
0
41
1
10
29.4420273570592
20
-1.04606255669302
30
0
41
1
10
29.4467902979762
20
-1.05195459271616
30
0
41
1
10
29.4506013391947
20
-1.05809932090185
30
0
0
SPLINE
5
11B
100
AcDbEntity
8
1
62
256
6
ByLayer
370
18
48
1
60
0
100
AcDbSpline
70
4
71
3
72
8
73
4
40
0
40
0
40
0
40
0
40
1
40
1
40
1
40
1
41
1
10
29.4506013391947
20
-1.05809932090185
30
0
41
1
10
29.4564879855956
20
-1.0675906488579
30
0
41
1
10
29.4623695667576
20
-1.0771165008461
30
0
41
1
10
29.4682463845586
20
-1.08667683828466
30
0
0
SPLINE
5
11C
100
AcDbEntity
8
1
62
256
6
ByLayer
370
18
48
1
60
0
100
AcDbSpline
70
4
71
3
72
10
73
6
40
0
40
0
40
0
40
0
40
0.5
40
0.5
40
1
40
1
40
1
40
1
41
1
10
29.4682463845586
20
-1.08667683828466
30
0
41
1
10
29.5229491876299
20
-1.11255951568163
30
0
41
1
10
29.5774873858007
20
-1.13739729027267
30
0
41
1
10
29.6865259983342
20
-1.18470474673643
30
0
41
1
10
29.7410071335804
20
-1.20719049037356
30
0
41
1
10
29.7954668357528
20
-1.22844169882939
30
0
0
SPLINE
5
11D
100
AcDbEntity
8
1
62
256
6
ByLayer
370
18
48
1
60
0
100
AcDbSpline
70
4
71
3
72
8
73
4
40
0
40
0
40
0
40
0
40
1
40
1
40
1
40
1
41
1
10
29.7954668357528
20
-1.22844169882939
30
0
41
1
10
29.8110146971253
20
-1.21107450767971
30
0
41
1
10
29.8266149521351
20
-1.19316262011782
30
0
41
1
10
29.8422847375938
20
-1.17469243116395
30
0
0
SPLINE
5
11E
100
AcDbEntity
8
1
62
256
6
ByLayer
370
18
48
1
60
0
100
AcDbSpline
70
4
71
3
72
24
73
20
40
0
40
0
40
0
40
0
40
0.12499999999999
40
0.12499999999999
40
0.24999999999998
40
0.24999999999998
40
0.37499999999997
40
0.37499999999997
40
0.499999999999959
40
0.499999999999959
40
0.624999999999949
40
0.624999999999949
40
0.749999999999939
40
0.749999999999939
40
0.812499999999934
40
0.812499999999934
40
0.874999999999929
40
0.874999999999929
40
1
40
1
40
1
40
1
41
1
10
29.8422847375947
20
-1.17469243116287
30
0
41
1
10
29.8458079657476
20
-1.17053955428551
30
0
41
1
10
29.8499245797892
20
-1.1671610678392
30
0
41
1
10
29.8591043355049
20
-1.16163420868932
30
0
41
1
10
29.8642321575617
20
-1.1594804074081
30
0
41
1
10
29.8750429882801
20
-1.15647157677316
30
0
41
1
10
29.8807277564266
20
-1.15559544100253
30
0
41
1
10
29.8926348282862
20
-1.15507784609605
30
0
41
1
10
29.8987761073353
20
-1.15544988942511
30
0
41
1
10
29.9111512355224
20
-1.15745930208754
30
0
41
1
10
29.9174546698707
20
-1.1591030169939
30
0
41
1
10
29.9301105941825
20
-1.16382918488134
30
0
41
1
10
29.9363016660782
20
-1.16684353978607
30
0
41
1
10
29.9453334608029
20
-1.17250637699126
30
0
41
1
10
29.9483217651281
20
-1.17460451807329
30
0
41
1
10
29.9540514439074
20
-1.17913392385097
30
0
41
1
10
29.9568006189708
20
-1.18156609256778
30
0
41
1
10
29.96466727848
20
-1.18941278081598
30
0
41
1
10
29.9694263021278
20
-1.19542983448414
30
0
41
1
10
29.9732348772579
20
-1.20198720905623
30
0
0
SPLINE
5
11F
100
AcDbEntity
8
1
62
256
6
ByLayer
370
18
48
1
60
0
100
AcDbSpline
70
4
71
3
72
8
73
4
40
0
40
0
40
0
40
0
40
1
40
1
40
1
40
1
41
1
10
29.9732348772578
20
-1.20198720905623
30
0
41
1
10
29.9949880223002
20
-1.23944046002086
30
0
41
1
10
30.0166828391007
20
-1.27702373633485
30
0
41
1
10
30.0382926476525
20
-1.31465641553694
30
0
0
SPLINE
5
120
100
AcDbEntity
8
1
62
256
6
ByLayer
370
18
48
1
60
0
100
AcDbSpline
70
4
71
3
72
10
73
6
40
0
40
0
40
0
40
0
40
0.5
40
0.5
40
1
40
1
40
1
40
1
41
1
10
30.0382926476526
20
-1.31465641553692
30
0
41
1
10
30.0783114228788
20
-1.32737864458235
30
0
41
1
10
30.1181203711403
20
-1.33926407926023
30
0
41
1
10
30.1974746720331
20
-1.36131200518614
30
0
41
1
10
30.2370324787005
20
-1.37147472252221
30
0
41
1
10
30.2764844471406
20
-1.38076641362318
30
0
0
SPLINE
5
121
100
AcDbEntity
8
1
62
256
6
ByLayer
370
18
48
1
60
0
100
AcDbSpline
70
4
71
3
72
8
73
4
40
0
40
0
40
0
40
0
40
1
40
1
40
1
40
1
41
1
10
30.2764844471377
20
-1.38076641361892
30
0
41
1
10
30.3057793990019
20
-1.33758536339525
30
0
41
1
10
30.3352227983772
20
-1.29295895355207
30
0
41
1
10
30.3649121018225
20
-1.24687775987533
30
0
0
SPLINE
5
122
100
AcDbEntity
8
1
62
256
6
ByLayer
370
18
48
1
60
0
100
AcDbSpline
70
4
71
3
72
24
73
20
40
0
40
0
40
0
40
0
40
0.124999999999987
40
0.124999999999987
40
0.249999999999974
40
0.249999999999974
40
0.374999999999961
40
0.374999999999961
40
0.499999999999948
40
0.499999999999948
40
0.624999999999935
40
0.624999999999935
40
0.749999999999922
40
0.749999999999922
40
0.812499999999962
40
0.812499999999962
40
0.875000000000001
40
0.875000000000001
40
1
40
1
40
1
40
1
41
1
10
30.3649121018235
20
-1.24687775987391
30
0
41
1
10
30.3684387488771
20
-1.24140400040363
30
0
41
1
10
30.372559888541
20
-1.23669093144241
30
0
41
1
10
30.381749460648
20
-1.22847343203358
30
0
41
1
10
30.386882784983
20
-1.22494931118206
30
0
41
1
10
30.3977029767112
20
-1.21926711679526
30
0
41
1
10
30.4033917187016
20
-1.21708482234285
30
0
41
1
10
30.4153041855336
20
-1.21400982349746
30
0
41
1
10
30.421444731501
20
-1.21314923617274
30
0
41
1
10
30.4338182359565
20
-1.21282730570405
30
0
41
1
10
30.4401217891313
20
-1.21335929872214
30
0
41
1
10
30.4527681749883
20
-1.21600812273448
30
0
41
1
10
30.4589548838416
20
-1.21808326853818
30
0
41
1
10
30.4679813930646
20
-1.22250320395858
30
0
41
1
10
30.470968007863
20
-1.2242124966867
30
0
41
1
10
30.4766943902243
20
-1.22804482273401
30
0
41
1
10
30.47944232667
20
-1.23016755723222
30
0
41
1
10
30.4873063787805
20
-1.23721379528067
30
0
41
1
10
30.4920650770392
20
-1.24286722646173
30
0
41
1
10
30.495874614353
20
-1.24930595019336
30
0
0
SPLINE
5
123
100
AcDbEntity
8
1
62
256
6
ByLayer
370
18
48
1
60
0
100
AcDbSpline
70
4
71
3
72
8
73
4
40
0
40
0
40
0
40
0
40
1
40
1
40
1
40
1
41
1
10
30.495874614353
20
-1.24930595019336
30
0
41
1
10
30.5336295051035
20
-1.31311771814313
30
0
41
1
10
30.571187295429
20
-1.37619576189954
30
0
41
1
10
30.6084833582202
20
-1.43819783874437
30
0
0
SPLINE
5
124
100
AcDbEntity
8
1
62
256
6
ByLayer
370
18
48
1
60
0
100
AcDbSpline
70
4
71
3
72
8
73
4
40
0
40
0
40
0
40
0
40
1
40
1
40
1
40
1
41
1
10
30.6084833582204
20
-1.43819783874488
30
0
41
1
10
30.658222089173
20
-1.44355262205295
30
0
41
1
10
30.7078986108766
20
-1.4473834650203
30
0
41
1
10
30.7576104231608
20
-1.44965636127662
30
0
0
SPLINE
5
125
100
AcDbEntity
8
1
62
256
6
ByLayer
370
18
48
1
60
0
100
AcDbSpline
70
4
71
3
72
10
73
6
40
0
40
0
40
0
40
0
40
0.5
40
0.5
40
1
40
1
40
1
40
1
41
1
10
30.7576104231608
20
-1.44965636127668
30
0
41
1
10
30.7790447883788
20
-1.41218856549651
30
0
41
1
10
30.8006079784726
20
-1.37414615572493
30
0
41
1
10
30.8439177694665
20
-1.29718358702979
30
0
41
1
10
30.8656682375707
20
-1.25825600785498
30
0
41
1
10
30.8875589647983
20
-1.21888241285865
30
0
0
SPLINE
5
126
100
AcDbEntity
8
1
62
256
6
ByLayer
370
18
48
1
60
0
100
AcDbSpline
70
4
71
3
72
24
73
20
40
0
40
0
40
0
40
0
40
0.125000000000001
40
0.125000000000001
40
0.250000000000001
40
0.250000000000001
40
0.375000000000001
40
0.375000000000001
40
0.500000000000002
40
0.500000000000002
40
0.625000000000002
40
0.625000000000002
40
0.750000000000003
40
0.750000000000003
40
0.812500000000003
40
0.812500000000003
40
0.875000000000002
40
0.875000000000002
40
1
40
1
40
1
40
1
41
1
10
30.8875589647992
20
-1.218882412857
30
0
41
1
10
30.8910848839886
20
-1.21254054432501
30
0
41
1
10
30.8952051772693
20
-1.20688158135192
30
0
41
1
10
30.9043931529131
20
-1.19664923002441
30
0
41
1
10
30.9095259329761
20
-1.19204321085255
30
0
41
1
10
30.920346706372
20
-1.18415013049849
30
0
41
1
10
30.9260362444254
20
-1.18083818397199
30
0
41
1
10
30.9379516940202
20
-1.17545355451051
30
0
41
1
10
30.944094403542
20
-1.17342924716814
30
0
41
1
10
30.9564715189738
20
-1.17080271406744
30
0
41
1
10
30.9627776032592
20
-1.17018052003124
30
0
41
1
10
30.975423223966
20
-1.1705442443924
30
0
41
1
10
30.9816083198917
20
-1.17151650981541
30
0
41
1
10
30.9906303174573
20
-1.1743415901563
30
0
41
1
10
30.9936149958469
20
-1.17552559097604
30
0
41
1
10
30.9993364183391
20
-1.1783535457034
30
0
41
1
10
31.0020815879689
20
-1.17999587092126
30
0
41
1
10
31.0099367845887
20
-1.18567085075657
30
0
41
1
10
31.0146893131022
20
-1.19049903344828
30
0
41
1
10
31.0184949026832
20
-1.19628849939772
30
0
0
SPLINE
5
127
100
AcDbEntity
8
1
62
256
6
ByLayer
370
18
48
1
60
0
100
AcDbSpline
70
4
71
3
72
10
73
6
40
0
40
0
40
0
40
0
40
0.5
40
0.5
40
1
40
1
40
1
40
1
41
1
10
31.0184949026832
20
-1.19628849939772
30
0
41
1
10
31.0454482117784
20
-1.23729272802186
30
0
41
1
10
31.0723057494803
20
-1.27739404837712
30
0
41
1
10
31.1257397584935
20
-1.3554661609393
30
0
41
1
10
31.1523295478755
20
-1.39345935663067
30
0
41
1
10
31.1787626878951
20
-1.43034027314948
30
0
0
SPLINE
5
128
100
AcDbEntity
8
1
62
256
6
ByLayer
370
18
48
1
60
0
100
AcDbSpline
70
4
71
3
72
8
73
4
40
0
40
0
40
0
40
0
40
1
40
1
40
1
40
1
41
1
10
31.1787626878952
20
-1.43034027314943
30
0
41
1
10
31.1987849379622
20
-1.42752044296435
30
0
41
1
10
31.2187707642772
20
-1.42443662324106
30
0
41
1
10
31.2387302537906
20
-1.42109447147547
30
0
0
SPLINE
5
129
100
AcDbEntity
8
1
62
256
6
ByLayer
370
18
48
1
60
0
100
AcDbSpline
70
4
71
3
72
10
73
6
40
0
40
0
40
0
40
0
40
0.5
40
0.5
40
1
40
1
40
1
40
1
41
1
10
31.2387302537906
20
-1.42109447147558
30
0
41
1
10
31.2669188139942
20
-1.36692101996675
30
0
41
1
10
31.2952858586004
20
-1.31239685358486
30
0
41
1
10
31.352465600555
20
-1.20282200003083
30
0
41
1
10
31.3812060657524
20
-1.14790076037676
30
0
41
1
10
31.410186768559
20
-1.0928847885483
30
0
0
SPLINE
5
12A
100
AcDbEntity
8
1
62
256
6
ByLayer
370
18
48
1
60
0
100
AcDbSpline
70
4
71
3
72
24
73
20
40
0
40
0
40
0
40
0
40
0.124999999999987
40
0.124999999999987
40
0.249999999999974
40
0.249999999999974
40
0.37499999999996
40
0.37499999999996
40
0.499999999999947
40
0.499999999999947
40
0.624999999999934
40
0.624999999999934
40
0.749999999999921
40
0.749999999999921
40
0.812499999999961
40
0.812499999999961
40
0.875
40
0.875
40
1
40
1
40
1
40
1
41
1
10
31.4101867685599
20
-1.09288478854657
30
0
41
1
10
31.4137161802346
20
-1.08618467452396
30
0
41
1
10
31.4178410254654
20
-1.08003639152463
30
0
41
1
10
31.4270386579564
20
-1.06861726807395
30
0
41
1
10
31.4321768150959
20
-1.0633036177241
30
0
41
1
10
31.443006978209
20
-1.05384451373555
30
0
41
1
10
31.4487007639102
20
-1.04967535049235
30
0
41
1
10
31.4606231171149
20
-1.04242644327095
30
0
41
1
10
31.4667658062818
20
-1.03940854277974
30
0
41
1
10
31.4791434462293
20
-1.03469919368649
30
0
41
1
10
31.4854515507439
20
-1.03297632458774
30
0
41
1
10
31.4980883157509
20
-1.03103272031771
30
0
41
1
10
31.5042690793853
20
-1.03082564182651
30
0
41
1
10
31.5132850804698
20
-1.03183091814171
30
0
41
1
10
31.5162675980938
20
-1.03239516824982
30
0
41
1
10
31.5219836913948
20
-1.03399280415971
30
0
41
1
10
31.5247264421364
20
-1.03502340217608
30
0
41
1
10
31.5325750746197
20
-1.03887372195786
30
0
41
1
10
31.5373238046875
20
-1.04249070856699
30
0
41
1
10
31.5411275654039
20
-1.04716786345369
30
0
0
SPLINE
5
12B
100
AcDbEntity
8
1
62
256
6
ByLayer
370
18
48
1
60
0
100
AcDbSpline
70
4
71
3
72
8
73
4
40
0
40
0
40
0
40
0
40
1
40
1
40
1
40
1
41
1
10
31.5411275654039
20
-1.04716786345369
30
0
41
1
10
31.5553250764349
20
-1.06462531229113
30
0
41
1
10
31.5694960712324
20
-1.08171331683454
30
0
41
1
10
31.5836344684467
20
-1.09840632566798
30
0
0
SPLINE
5
12C
100
AcDbEntity
8
1
62
256
6
ByLayer
370
18
48
1
60
0
100
AcDbSpline
70
4
71
3
72
8
73
4
40
0
40
0
40
0
40
0
40
1
40
1
40
1
40
1
41
1
10
31.6405652112923
20
-1.16363544212041
30
0
41
1
10
31.6650280537968
20
-1.19077534932686
30
0
41
1
10
31.6893684563955
20
-1.21659311674492
30
0
41
1
10
31.7135823887977
20
-1.24114665333866
30
0
0
SPLINE
5
12D
100
AcDbEntity
8
1
62
256
6
ByLayer
370
18
48
1
60
0
100
AcDbSpline
70
4
71
3
72
8
73
4
40
0
40
0
40
0
40
0
40
1
40
1
40
1
40
1
41
1
10
31.7539350049931
20
-1.22067519070669
30
0
41
1
10
31.740467806932
20
-1.22759329521944
30
0
41
1
10
31.7270212435937
20
-1.2344203533643
30
0
41
1
10
31.7135823887975
20
-1.2411466533382
30
0
0
SPLINE
5
12E
100
AcDbEntity
8
1
62
256
6
ByLayer
370
18
48
1
60
0
100
AcDbSpline
70
4
71
3
72
10
73
6
40
0
40
0
40
0
40
0
40
0.68512241694787
40
0.68512241694787
40
1
40
1
40
1
40
1
41
1
10
31.7539350049928
20
-1.22067519069839
30
0
41
1
10
31.7833221924836
20
-1.16288354845773
30
0
41
1
10
31.8129013101502
20
-1.10545614219009
30
0
41
1
10
31.8564441299559
20
-1.02222338149474
30
0
41
1
10
31.8701891302694
20
-0.99613604232573
30
0
41
1
10
31.8839788582855
20
-0.970177088224858
30
0
0
SPLINE
5
12F
100
AcDbEntity
8
1
62
256
6
ByLayer
370
18
48
1
60
0
100
AcDbSpline
70
4
71
3
72
20
73
16
40
0
40
0
40
0
40
0
40
0.0045794591559296
40
0.0045794591559296
40
0.170482882629941
40
0.170482882629941
40
0.336386306103953
40
0.336386306103953
40
0.502289729577965
40
0.502289729577965
40
0.668193153051976
40
0.668193153051976
40
0.834096576525988
40
0.834096576525988
40
1
40
1
40
1
40
1
41
1
10
32.9662782920301
20
-1.22230620016646
30
0
41
1
10
32.9661327262415
20
-1.22221489292806
30
0
41
1
10
32.9659869384922
20
-1.22212407316138
30
0
41
1
10
32.9605515129334
20
-1.21876129737669
30
0
41
1
10
32.9549717977329
20
-1.21610686470498
30
0
41
1
10
32.9432434132171
20
-1.21203074515395
30
0
41
1
10
32.9371258081989
20
-1.21063569495385
30
0
41
1
10
32.9247850449725
20
-1.20927286125502
30
0
41
1
10
32.9185085737424
20
-1.20928050764974
30
0
41
1
10
32.9057259826065
20
-1.21094176732157
30
0
41
1
10
32.8993685717027
20
-1.21258692706655
30
0
41
1
10
32.8870644689565
20
-1.21774247483958
30
0
41
1
10
32.8810562980208
20
-1.22130620034409
30
0
41
1
10
32.8702820867352
20
-1.23036432165199
30
0
41
1
10
32.865410192706
20
-1.2359564383313
30
0
41
1
10
32.8615565035194
20
-1.24241300432797
30
0
0
SPLINE
5
130
100
AcDbEntity
8
1
62
256
6
ByLayer
370
18
48
1
60
0
100
AcDbSpline
70
4
71
3
72
10
73
6
40
0
40
0
40
0
40
0
40
0.5
40
0.5
40
1
40
1
40
1
40
1
41
1
10
32.8615565035185
20
-1.24241300432942
30
0
41
1
10
32.832805437296
20
-1.29058325043943
30
0
41
1
10
32.8040998775372
20
-1.33825156855565
30
0
41
1
10
32.7468864904114
20
-1.43226994641805
30
0
41
1
10
32.718419735592
20
-1.47855869502783
30
0
41
1
10
32.6900721776846
20
-1.5240950903225
30
0
0
SPLINE
5
131
100
AcDbEntity
8
1
62
256
6
ByLayer
370
18
48
1
60
0
100
AcDbSpline
70
4
71
3
72
10
73
6
40
0
40
0
40
0
40
0
40
0.5
40
0.5
40
1
40
1
40
1
40
1
41
1
10
32.6497436499182
20
-1.51884450298627
30
0
41
1
10
32.6200834124895
20
-1.4653703870805
30
0
41
1
10
32.5902866463139
20
-1.41088589181371
30
0
41
1
10
32.5303000101713
20
-1.29999451117925
30
0
41
1
10
32.5001985508474
20
-1.243747972318
30
0
41
1
10
32.4698968366185
20
-1.18671091211414
30
0
0
SPLINE
5
132
100
AcDbEntity
8
1
62
256
6
ByLayer
370
18
48
1
60
0
100
AcDbSpline
70
4
71
3
72
22
73
18
40
0
40
0
40
0
40
0
40
0.125
40
0.125
40
0.25
40
0.25
40
0.375
40
0.375
40
0.5
40
0.5
40
0.625
40
0.625
40
0.75
40
0.75
40
0.875
40
0.875
40
1
40
1
40
1
40
1
41
1
10
32.4698968366185
20
-1.18671091211414
30
0
41
1
10
32.4664473694677
20
-1.18021796375942
30
0
41
1
10
32.4624285102771
20
-1.17432435136664
30
0
41
1
10
32.4534614249262
20
-1.16351030180866
30
0
41
1
10
32.4484555180046
20
-1.1585559032024
30
0
41
1
10
32.4378713903914
20
-1.14987734365835
30
0
41
1
10
32.4322880653639
20
-1.14612666720149
30
0
41
1
10
32.4205517702833
20
-1.13979614061594
30
0
41
1
10
32.4144299034207
20
-1.13724952911554
30
0
41
1
10
32.4020827969263
20
-1.13360106580279
30
0
41
1
10
32.3958039965432
20
-1.13246430047226
30
0
41
1
10
32.3830206253787
20
-1.13181980927106
30
0
41
1
10
32.3766692511539
20
-1.13233012694127
30
0
41
1
10
32.3643774019374
20
-1.13529648404364
30
0
41
1
10
32.3583775330595
20
-1.1377946561791
30
0
41
1
10
32.347618357887
20
-1.14494046920888
30
0
41
1
10
32.3427526355813
20
-1.1496674460316
30
0
41
1
10
32.3389021497281
20
-1.15544430146539
30
0
0
SPLINE
5
133
100
AcDbEntity
8
1
62
256
6
ByLayer
370
18
48
1
60
0
100
AcDbSpline
70
4
71
3
72
10
73
6
40
0
40
0
40
0
40
0
40
0.5
40
0.5
40
1
40
1
40
1
40
1
41
1
10
32.3389021497272
20
-1.1554443014667
30
0
41
1
10
32.3101412280497
20
-1.19859409944496
30
0
41
1
10
32.2814295722077
20
-1.24060679551155
30
0
41
1
10
32.2241998378142
20
-1.32219872394603
30
0
41
1
10
32.1957233435091
20
-1.36170802937676
30
0
41
1
10
32.1673697465415
20
-1.3998689007143
30
0
0
SPLINE
5
134
100
AcDbEntity
8
1
62
256
6
ByLayer
370
18
48
1
60
0
100
AcDbSpline
70
4
71
3
72
10
73
6
40
0
40
0
40
0
40
0
40
0.5
40
0.5
40
1
40
1
40
1
40
1
41
1
10
32.1273165385172
20
-1.38556119557785
30
0
41
1
10
32.0976270700314
20
-1.32659624121658
30
0
41
1
10
32.0677980562988
20
-1.26733000199059
30
0
41
1
10
32.007727050231
20
-1.1482847291247
30
0
41
1
10
31.9775760345638
20
-1.08867499642344
30
0
41
1
10
31.947229314597
20
-1.02901482431363
30
0
0
SPLINE
5
135
100
AcDbEntity
8
1
62
256
6
ByLayer
370
18
48
1
60
0
100
AcDbSpline
70
4
71
3
72
22
73
18
40
0
40
0
40
0
40
0
40
0.125
40
0.125
40
0.25
40
0.25
40
0.375
40
0.375
40
0.5
40
0.5
40
0.625
40
0.625
40
0.75
40
0.75
40
0.875
40
0.875
40
1
40
1
40
1
40
1
41
1
10
31.947229314597
20
-1.02901482431363
30
0
41
1
10
31.943774666155
20
-1.022223153884
30
0
41
1
10
31.9397495765187
20
-1.0159064435926
30
0
41
1
10
31.9307692166341
20
-1.00404562899826
30
0
41
1
10
31.925756089502
20
-0.998458934616082
30
0
41
1
10
31.9151592848007
20
-0.988361642164506
30
0
41
1
10
31.9095703445541
20
-0.983824745618335
30
0
41
1
10
31.8978256766393
20
-0.975762709791582
30
0
41
1
10
31.8917033034873
20
-0.97227571737173
30
0
41
1
10
31.8793564787533
20
-0.966640526028272
30
0
41
1
10
31.8730790340644
20
-0.964450584053765
30
0
41
1
10
31.8603017207772
20
-0.961545642268277
30
0
41
1
10
31.8539593549006
20
-0.96087513644963
30
0
41
1
10
31.8416804614665
20
-0.961398593154428
30
0
41
1
10
31.8356871167593
20
-0.962620616112986
30
0
41
1
10
31.8249361644993
20
-0.967260070617044
30
0
41
1
10
31.8200714016466
20
-0.970731962059546
30
0
41
1
10
31.8162196043822
20
-0.97535731163606
30
0
0
SPLINE
5
136
100
AcDbEntity
8
1
62
256
6
ByLayer
370
18
48
1
60
0
100
AcDbSpline
70
4
71
3
72
10
73
6
40
0
40
0
40
0
40
0
40
0.5
40
0.5
40
1
40
1
40
1
40
1
41
1
10
31.8162196043821
20
-0.975357311636031
30
0
41
1
10
31.787449721676
20
-1.00990501901958
30
0
41
1
10
31.7587362137862
20
-1.04267214664333
30
0
41
1
10
31.701508475971
20
-1.1048655360305
30
0
41
1
10
31.6730339918122
20
-1.13421705808511
30
0
41
1
10
31.6446750403238
20
-1.16187531004246
30
0
0
SPLINE
5
137
100
AcDbEntity
8
1
62
256
6
ByLayer
370
18
48
1
60
0
100
AcDbSpline
70
4
71
3
72
10
73
6
40
0
40
0
40
0
40
0
40
0.5
40
0.5
40
1
40
1
40
1
40
1
41
1
10
31.6043914225648
20
-1.13952476690451
30
0
41
1
10
31.5747540532165
20
-1.07993897542337
30
0
41
1
10
31.544968693739
20
-1.02079074158533
30
0
41
1
10
31.4849773468687
20
-0.903455171982728
30
0
41
1
10
31.4548584964726
20
-0.845433039277196
30
0
41
1
10
31.424538764861
20
-0.788106848770269
30
0
0
SPLINE
5
138
100
AcDbEntity
8
1
62
256
6
ByLayer
370
18
48
1
60
0
100
AcDbSpline
70
4
71
3
72
22
73
18
40
0
40
0
40
0
40
0
40
0.125
40
0.125
40
0.25
40
0.25
40
0.375
40
0.375
40
0.5
40
0.5
40
0.625
40
0.625
40
0.75
40
0.75
40
0.875
40
0.875
40
1
40
1
40
1
40
1
41
1
10
31.4245387648609
20
-0.788106848770127
30
0
41
1
10
31.4210874459967
20
-0.781581363477414
30
0
41
1
10
31.4170655174217
20
-0.775364667932365
30
0
41
1
10
31.4080891371269
20
-0.763438086590639
30
0
41
1
10
31.4030764448069
20
-0.757679980209701
30
0
41
1
10
31.3924775342431
20
-0.746996070420039
30
0
41
1
10
31.3868869010579
20
-0.742047189487806
30
0
41
1
10
31.3751378483412
20
-0.732920738823282
30
0
41
1
10
31.3690122151604
20
-0.728781949829454
30
0
41
1
10
31.3566606365823
20
-0.72163418857545
30
0
41
1
10
31.3503812059556
20
-0.718579236519957
30
0
41
1
10
31.3376007522022
20
-0.713676632715561
30
0
41
1
10
31.3312616664392
20
-0.711897974351615
30
0
41
1
10
31.3189879805938
20
-0.709978729360756
30
0
41
1
10
31.313000462265
20
-0.709851272234289
30
0
41
1
10
31.3022624289401
20
-0.711659410784335
30
0
41
1
10
31.2974059176685
20
-0.713619941059363
30
0
41
1
10
31.2935605405602
20
-0.716734037666441
30
0
0
SPLINE
5
139
100
AcDbEntity
8
1
62
256
6
ByLayer
370
18
48
1
60
0
100
AcDbSpline
70
4
71
3
72
8
73
4
40
0
40
0
40
0
40
0
40
1
40
1
40
1
40
1
41
1
10
29.377022110045
20
-1.24440665759704
30
0
41
1
10
29.3739305107395
20
-1.24971196020272
30
0
41
1
10
29.3708396271146
20
-1.25501617247767
30
0
41
1
10
29.3677494478702
20
-1.26031926310435
30
0
0
SPLINE
5
13A
100
AcDbEntity
8
1
62
256
6
ByLayer
370
18
48
1
60
0
100
AcDbSpline
70
4
71
3
72
10
73
6
40
0
40
0
40
0
40
0
40
0.133849052808766
40
0.133849052808766
40
1
40
1
40
1
40
1
41
1
10
29.2127065196248
20
-1.2433664269648
30
0
41
1
10
29.2032491664635
20
-1.24202693818486
30
0
41
1
10
29.193789105933
20
-1.24063179886852
30
0
41
1
10
29.1230890775505
20
-1.22979440717214
30
0
41
1
10
29.0617111983469
20
-1.21808072629713
30
0
41
1
10
29
20
-1.20409696023935
30
0
0
SPLINE
5
13B
100
AcDbEntity
8
1
62
256
6
ByLayer
370
18
48
1
60
0
100
AcDbSpline
70
4
71
3
72
8
73
4
40
0
40
0
40
0
40
0
40
1
40
1
40
1
40
1
41
1
10
32.237975254533
20
1.24436454551167
30
0
41
1
10
32.2960303310976
20
1.34405645126625
30
0
41
1
10
32.3535846850954
20
1.44283231923313
30
0
41
1
10
32.4104526737241
20
1.53948431253281
30
0
0
SPLINE
5
13C
100
AcDbEntity
8
1
62
256
6
ByLayer
370
18
48
1
60
0
100
AcDbSpline
70
4
71
3
72
10
73
6
40
0
40
0
40
0
40
0
40
0.5
40
0.5
40
1
40
1
40
1
40
1
41
1
10
32.9733502085866
20
1.48319248963074
30
0
41
1
10
33.00275716876
20
1.42830465674405
30
0
41
1
10
33.032346712553
20
1.37282859106904
30
0
41
1
10
33.0920298621307
20
1.26078180608144
30
0
41
1
10
33.1220303303334
20
1.20437826107516
30
0
41
1
10
33.1522874876341
20
1.14762223683689
30
0
0
SPLINE
5
13D
100
AcDbEntity
8
1
62
256
6
ByLayer
370
18
48
1
60
0
100
AcDbSpline
70
4
71
3
72
24
73
20
40
0
40
0
40
0
40
0
40
0.125
40
0.125
40
0.25
40
0.25
40
0.375
40
0.375
40
0.499999999999999
40
0.499999999999999
40
0.624999999999999
40
0.624999999999999
40
0.749999999999999
40
0.749999999999999
40
0.812499999999999
40
0.812499999999999
40
0.874999999999999
40
0.874999999999999
40
1
40
1
40
1
40
1
41
1
10
33.1522874876341
20
1.14762223683687
30
0
41
1
10
33.1558252258391
20
1.14098618860228
30
0
41
1
10
33.1599610039127
20
1.13495873364184
30
0
41
1
10
33.1691822488675
20
1.12386858142077
30
0
41
1
10
33.1743336978204
20
1.11876612866089
30
0
41
1
10
33.185188690542
20
1.10979849165071
30
0
41
1
10
33.1908939896248
20
1.10590913993863
30
0
41
1
10
33.2028350880133
20
1.09928498601957
30
0
41
1
10
33.2089796140024
20
1.09661014991511
30
0
41
1
10
33.2213598547337
20
1.09262543797436
30
0
41
1
10
33.227671417607
20
1.0912893758981
30
0
41
1
10
33.2402855320893
20
1.09016342605196
30
0
41
1
10
33.2464538153694
20
1.09037472214442
30
0
41
1
10
33.2554499633025
20
1.09202641264525
30
0
41
1
10
33.2584252809141
20
1.09281096291684
30
0
41
1
10
33.2641264015163
20
1.0948450389472
30
0
41
1
10
33.2668620887967
20
1.09609255654516
30
0
41
1
10
33.2746910232592
20
1.10058967851953
30
0
41
1
10
33.2794298141271
20
1.10463560327699
30
0
41
1
10
33.2832299017466
20
1.10971210406643
30
0
0
SPLINE
5
13E
100
AcDbEntity
8
1
62
256
6
ByLayer
370
18
48
1
60
0
100
AcDbSpline
70
4
71
3
72
8
73
4
40
0
40
0
40
0
40
0
40
1
40
1
40
1
40
1
41
1
10
33.2832299017466
20
1.10971210406643
30
0
41
1
10
33.3336813430524
20
1.17710970308556
30
0
41
1
10
33.3837613466391
20
1.24006646368594
30
0
41
1
10
33.433303957974
20
1.29818644694373
30
0
0
SPLINE
5
13F
100
AcDbEntity
8
1
62
256
6
ByLayer
370
18
48
1
60
0
100
AcDbSpline
70
4
71
3
72
8
73
4
40
0
40
0
40
0
40
0
40
1
40
1
40
1
40
1
41
1
10
33.433303957974
20
1.2981864469437
30
0
41
1
10
33.4660952353232
20
1.27807154782593
30
0
41
1
10
33.4990201922057
20
1.25742343420708
30
0
41
1
10
33.5320992608179
20
1.23626881018367
30
0
0
SPLINE
5
140
100
AcDbEntity
8
1
62
256
6
ByLayer
370
18
48
1
60
0
100
AcDbSpline
70
4
71
3
72
10
73
6
40
0
40
0
40
0
40
0
40
0.5
40
0.5
40
1
40
1
40
1
40
1
41
1
10
33.5320992608179
20
1.2362688101837
30
0
41
1
10
33.5556301701288
20
1.19042973708051
30
0
41
1
10
33.5793116399617
20
1.14464221937695
30
0
41
1
10
33.6269162342256
20
1.05347369465545
30
0
41
1
10
33.6508283634457
20
1.0081066673367
30
0
41
1
10
33.6749045171022
20
0.962993043420283
30
0
0
SPLINE
5
141
100
AcDbEntity
8
1
62
256
6
ByLayer
370
18
48
1
60
0
100
AcDbSpline
70
4
71
3
72
24
73
20
40
0
40
0
40
0
40
0
40
0.12500000000001
40
0.12500000000001
40
0.25000000000002
40
0.25000000000002
40
0.37500000000003
40
0.37500000000003
40
0.50000000000004
40
0.50000000000004
40
0.625000000000051
40
0.625000000000051
40
0.750000000000061
40
0.750000000000061
40
0.812500000000066
40
0.812500000000066
40
0.875000000000071
40
0.875000000000071
40
1
40
1
40
1
40
1
41
1
10
33.6749045171022
20
0.962993043420255
30
0
41
1
10
33.6784425541636
20
0.956363509663817
30
0
41
1
10
33.6825786836276
20
0.950175104940882
30
0
41
1
10
33.6918002048635
20
0.938498442183601
30
0
41
1
10
33.6969515582812
20
0.932962162566469
30
0
41
1
10
33.7078074630215
20
0.922905485691217
30
0
41
1
10
33.713513274278
20
0.918364340286161
30
0
41
1
10
33.7254551652447
20
0.910222896486715
30
0
41
1
10
33.7316006164968
20
0.906692478092481
30
0
41
1
10
33.743981708938
20
0.900828275966802
30
0
41
1
10
33.7502931353017
20
0.898456856429846
30
0
41
1
10
33.7629081665675
20
0.895075945486525
30
0
41
1
10
33.7690766735822
20
0.894093427071653
30
0
41
1
10
33.7780732064592
20
0.893833263876161
30
0
41
1
10
33.7810487542442
20
0.89395522458517
30
0
41
1
10
33.786750617877
20
0.894649784786651
30
0
41
1
10
33.7894866147902
20
0.895218720700029
30
0
41
1
10
33.7973163380053
20
0.897650135376921
30
0
41
1
10
33.8020559498715
20
0.900268233592982
30
0
41
1
10
33.8058572308434
20
0.903958856533137
30
0
0
SPLINE
5
142
100
AcDbEntity
8
1
62
256
6
ByLayer
370
18
48
1
60
0
100
AcDbSpline
70
4
71
3
72
8
73
4
40
0
40
0
40
0
40
0
40
1
40
1
40
1
40
1
41
1
10
33.8058572308434
20
0.903958856533137
30
0
41
1
10
33.8367220181879
20
0.933925147648495
30
0
41
1
10
33.8674143656633
20
0.961712769152683
30
0
41
1
10
33.8979567185811
20
0.987242747685457
30
0
0
SPLINE
5
143
100
AcDbEntity
8
1
62
256
6
ByLayer
370
18
48
1
60
0
100
AcDbSpline
70
4
71
3
72
10
73
6
40
0
40
0
40
0
40
0
40
0.5
40
0.5
40
1
40
1
40
1
40
1
41
1
10
33.8979567185817
20
0.987242747685002
30
0
41
1
10
33.936904090266
20
0.959272666129209
30
0
41
1
10
33.9758540392641
20
0.930925341089022
30
0
41
1
10
34.053927882664
20
0.87364846030178
30
0
41
1
10
34.0930371965981
20
0.844705143937489
30
0
41
1
10
34.132234412468
20
0.81549043135152
30
0
0
SPLINE
5
144
100
AcDbEntity
8
1
62
256
6
ByLayer
370
18
48
1
60
0
100
AcDbSpline
70
4
71
3
72
8
73
4
40
0
40
0
40
0
40
0
40
1
40
1
40
1
40
1
41
1
10
34.1322344124681
20
0.815490431351492
30
0
41
1
10
34.1538940507928
20
0.776741755994124
30
0
41
1
10
34.175647547162
20
0.738534628022052
30
0
41
1
10
34.197538325782
20
0.700911991395515
30
0
0
SPLINE
5
145
100
AcDbEntity
8
1
62
256
6
ByLayer
370
18
48
1
60
0
100
AcDbSpline
70
4
71
3
72
24
73
20
40
0
40
0
40
0
40
0
40
0.12500000000001
40
0.12500000000001
40
0.25000000000002
40
0.25000000000002
40
0.37500000000003
40
0.37500000000003
40
0.50000000000004
40
0.50000000000004
40
0.625000000000051
40
0.625000000000051
40
0.750000000000061
40
0.750000000000061
40
0.812500000000066
40
0.812500000000066
40
0.875000000000071
40
0.875000000000071
40
1
40
1
40
1
40
1
41
1
10
34.197538325782
20
0.700911991395515
30
0
41
1
10
34.2010783661874
20
0.694827892875111
30
0
41
1
10
34.2052170272707
20
0.688981459586444
30
0
41
1
10
34.2144437720285
20
0.677667428994596
30
0
41
1
10
34.2195978899763
20
0.672147349018587
30
0
41
1
10
34.2304590345121
20
0.661821187869464
30
0
41
1
10
34.236167311747
20
0.656998927132491
30
0
41
1
10
34.2481132360918
20
0.648005454836095
30
0
41
1
10
34.2542586943025
20
0.643909627270858
30
0
41
1
10
34.2666398864118
20
0.636647142757909
30
0
41
1
10
34.2729520784655
20
0.633434586918895
30
0
41
1
10
34.2855612249247
20
0.628078721845895
30
0
41
1
10
34.2917267491474
20
0.62598396662446
30
0
41
1
10
34.3007192805771
20
0.623835309817053
30
0
41
1
10
34.3036934429006
20
0.623285491175977
30
0
41
1
10
34.3093922453936
20
0.622585494372629
30
0
41
1
10
34.3121268601833
20
0.62243016391011
30
0
41
1
10
34.3199528546629
20
0.62259964750379
30
0
41
1
10
34.3246904978506
20
0.623577379032895
30
0
41
1
10
34.3284911039283
20
0.625581524034345
30
0
0
SPLINE
5
146
100
AcDbEntity
8
1
62
256
6
ByLayer
370
18
48
1
60
0
100
AcDbSpline
70
4
71
3
72
8
73
4
40
0
40
0
40
0
40
0
40
1
40
1
40
1
40
1
41
1
10
34.3284911039283
20
0.625581524034345
30
0
41
1
10
34.3396922821311
20
0.631488157041559
30
0
41
1
10
34.3508696480208
20
0.63706952550092
30
0
41
1
10
34.3620253384297
20
0.642319235259265
30
0
0
SPLINE
5
147
100
AcDbEntity
8
1
62
256
6
ByLayer
370
18
48
1
60
0
100
AcDbSpline
70
4
71
3
72
8
73
4
40
0
40
0
40
0
40
0
40
1
40
1
40
1
40
1
41
1
10
34.2834121112249
20
1.2805706710744
30
0
41
1
10
34.2597817514592
20
1.23530854589464
30
0
41
1
10
34.2360563793266
20
1.18967219327226
30
0
41
1
10
34.2122245553711
20
1.14374217603569
30
0
0
SPLINE
5
148
100
AcDbEntity
8
1
62
256
6
ByLayer
370
18
48
1
60
0
100
AcDbSpline
70
4
71
3
72
22
73
18
40
0
40
0
40
0
40
0
40
0.125
40
0.125
40
0.25
40
0.25
40
0.375
40
0.375
40
0.5
40
0.5
40
0.625
40
0.625
40
0.75
40
0.75
40
0.875
40
0.875
40
1
40
1
40
1
40
1
41
1
10
34.2122245553709
20
1.14374217603506
30
0
41
1
10
34.2087758571557
20
1.13709565293351
30
0
41
1
10
34.2047576110135
20
1.13101095834054
30
0
41
1
10
34.195792600225
20
1.11975503472732
30
0
41
1
10
34.1907877517365
20
1.11454619444027
30
0
41
1
10
34.1802038328644
20
1.10531622077212
30
0
41
1
10
34.1746200939443
20
1.10126936943556
30
0
41
1
10
34.1628811204862
20
1.09430531163989
30
0
41
1
10
34.1567564448002
20
1.0914225083709
30
0
41
1
10
34.1444061407777
20
1.08708208867702
30
0
41
1
10
34.1381265972681
20
1.08558639293309
30
0
41
1
10
34.1253432293664
20
1.0841890943129
30
0
41
1
10
34.118993426935
20
1.08431455586518
30
0
41
1
10
34.1067048212985
20
1.08650621365359
30
0
41
1
10
34.100708136937
20
1.08860989126833
30
0
41
1
10
34.0899591697406
20
1.09499405602551
30
0
41
1
10
34.0850998989495
20
1.09934542691593
30
0
41
1
10
34.0812540800451
20
1.10478563630852
30
0
0
SPLINE
5
149
100
AcDbEntity
8
1
62
256
6
ByLayer
370
18
48
1
60
0
100
AcDbSpline
70
4
71
3
72
10
73
6
40
0
40
0
40
0
40
0
40
0.5
40
0.5
40
1
40
1
40
1
40
1
41
1
10
34.0812540800451
20
1.10478563630852
30
0
41
1
10
34.0626406067787
20
1.13111583921429
30
0
41
1
10
34.0440630370554
20
1.1568603516227
30
0
41
1
10
34.0069692932359
20
1.20713779013047
30
0
41
1
10
33.9884406744887
20
1.23169654571194
30
0
41
1
10
33.9699810771055
20
1.25560650441662
30
0
0
SPLINE
5
14A
100
AcDbEntity
8
1
62
256
6
ByLayer
370
18
48
1
60
0
100
AcDbSpline
70
4
71
3
72
8
73
4
40
0
40
0
40
0
40
0
40
1
40
1
40
1
40
1
41
1
10
33.9699810771055
20
1.25560650441662
30
0
41
1
10
33.922056719881
20
1.24824262335011
30
0
41
1
10
33.8745557658734
20
1.23930414632426
30
0
41
1
10
33.8272062274876
20
1.22903534788208
30
0
0
SPLINE
5
14B
100
AcDbEntity
8
1
62
256
6
ByLayer
370
18
48
1
60
0
100
AcDbSpline
70
4
71
3
72
10
73
6
40
0
40
0
40
0
40
0
40
0.5
40
0.5
40
1
40
1
40
1
40
1
41
1
10
33.8272062274874
20
1.22903534788154
30
0
41
1
10
33.8044814669873
20
1.18342706300731
30
0
41
1
10
33.7816253244598
20
1.13777432155607
30
0
41
1
10
33.7357221925218
20
1.04664320967967
30
0
41
1
10
33.7126755739451
20
1.00115311590406
30
0
41
1
10
33.6895262442602
20
0.955833778685729
30
0
0
SPLINE
5
14C
100
AcDbEntity
8
1
62
256
6
ByLayer
370
18
48
1
60
0
100
AcDbSpline
70
4
71
3
72
8
73
4
40
0
40
0
40
0
40
0
40
1
40
1
40
1
40
1
41
1
10
31.119288364337
20
1.24949809859248
30
0
41
1
10
31.0716113537611
20
1.33073000910062
30
0
41
1
10
31.0240555342019
20
1.41120874409546
30
0
41
1
10
30.9769191964184
20
1.49010713463838
30
0
0
SPLINE
5
14D
100
AcDbEntity
8
1
62
256
6
ByLayer
370
18
48
1
60
0
100
AcDbSpline
70
4
71
3
72
8
73
4
40
0
40
0
40
0
40
0
40
1
40
1
40
1
40
1
41
1
10
30.9769191964185
20
1.49010713463809
30
0
41
1
10
30.9405868604338
20
1.48377693880624
30
0
41
1
10
30.9042516884849
20
1.47652075492999
30
0
41
1
10
30.8679208943718
20
1.46835776454705
30
0
0
SPLINE
5
14E
100
AcDbEntity
8
1
62
256
6
ByLayer
370
18
48
1
60
0
100
AcDbSpline
70
4
71
3
72
10
73
6
40
0
40
0
40
0
40
0
40
0.5
40
0.5
40
1
40
1
40
1
40
1
41
1
10
30.8679208943781
20
1.46835776454105
30
0
41
1
10
30.8447385906517
20
1.42815584995901
30
0
41
1
10
30.8214349165213
20
1.38720406902769
30
0
41
1
10
30.7746620707696
20
1.30405290504032
30
0
41
1
10
30.7512005823077
20
1.26186592950933
30
0
41
1
10
30.7276176962834
20
1.21904972332825
30
0
0
SPLINE
5
14F
100
AcDbEntity
8
1
62
256
6
ByLayer
370
18
48
1
60
0
100
AcDbSpline
70
4
71
3
72
22
73
18
40
0
40
0
40
0
40
0
40
0.125
40
0.125
40
0.25
40
0.25
40
0.375
40
0.375
40
0.5
40
0.5
40
0.625
40
0.625
40
0.75
40
0.75
40
0.875
40
0.875
40
1
40
1
40
1
40
1
41
1
10
30.7276176962818
20
1.21904972332686
30
0
41
1
10
30.724166414089
20
1.21278370440942
30
0
41
1
10
30.720146139944
20
1.20715168116908
30
0
41
1
10
30.7111767600206
20
1.19691354579984
30
0
41
1
10
30.7061697031975
20
1.19227721089399
30
0
41
1
10
30.6955837441261
20
1.18426580953175
30
0
41
1
10
30.6899998841938
20
1.18086472447678
30
0
41
1
10
30.6782636477694
20
1.17526613279548
30
0
41
1
10
30.6721430792445
20
1.17310001564789
30
0
41
1
10
30.659798125471
20
1.17021901901509
30
0
41
1
10
30.6535203235034
20
1.16947271202741
30
0
41
1
10
30.6407385501471
20
1.16962953415145
30
0
41
1
10
30.6343886689002
20
1.17054098895167
30
0
41
1
10
30.6220979992135
20
1.17429808369266
30
0
41
1
10
30.6160989764011
20
1.17718971101505
30
0
41
1
10
30.6053414761799
20
1.185063794841
30
0
41
1
10
30.6004770409433
20
1.19013295349362
30
0
41
1
10
30.5966278292228
20
1.19619336557074
30
0
0
SPLINE
5
150
100
AcDbEntity
8
1
62
256
6
ByLayer
370
18
48
1
60
0
100
AcDbSpline
70
4
71
3
72
8
73
4
40
0
40
0
40
0
40
0
40
1
40
1
40
1
40
1
41
1
10
30.596627829219
20
1.19619336557557
30
0
41
1
10
30.5623955046304
20
1.25009063298566
30
0
41
1
10
30.5282197031089
20
1.30268139819
30
0
41
1
10
30.4942319915367
20
1.35359560567161
30
0
0
SPLINE
5
151
100
AcDbEntity
8
1
62
256
6
ByLayer
370
18
48
1
60
0
100
AcDbSpline
70
4
71
3
72
10
73
6
40
0
40
0
40
0
40
0
40
0.5
40
0.5
40
1
40
1
40
1
40
1
41
1
10
30.4942319915369
20
1.35359560567099
30
0
41
1
10
30.4613890043551
20
1.34095504847789
30
0
41
1
10
30.4284864464772
20
1.32762112188175
30
0
41
1
10
30.362307718662
20
1.29964167639272
30
0
41
1
10
30.3290418366953
20
1.28499647038495
30
0
41
1
10
30.2956328144646
20
1.26968718752326
30
0
0
SPLINE
5
152
100
AcDbEntity
8
1
62
256
6
ByLayer
370
18
48
1
60
0
100
AcDbSpline
70
4
71
3
72
8
73
4
40
0
40
0
40
0
40
0
40
1
40
1
40
1
40
1
41
1
10
30.2956328144646
20
1.26968718752343
30
0
41
1
10
30.2655293008156
20
1.21091530744391
30
0
41
1
10
30.2352982788505
20
1.15181289107511
30
0
41
1
10
30.2048876179734
20
1.09240628238956
30
0
0
SPLINE
5
153
100
AcDbEntity
8
1
62
256
6
ByLayer
370
18
48
1
60
0
100
AcDbSpline
70
4
71
3
72
22
73
18
40
0
40
0
40
0
40
0
40
0.125
40
0.125
40
0.25
40
0.25
40
0.375
40
0.375
40
0.5
40
0.5
40
0.625
40
0.625
40
0.75
40
0.75
40
0.875
40
0.875
40
1
40
1
40
1
40
1
41
1
10
30.2048876179734
20
1.09240628238956
30
0
41
1
10
30.2014349520243
20
1.08566156954765
30
0
41
1
10
30.1974134175852
20
1.07943984819499
30
0
41
1
10
30.1884434482924
20
1.06784467648919
30
0
41
1
10
30.1834369761729
20
1.06243138656424
30
0
41
1
10
30.172854001439
20
1.05274132268514
30
0
41
1
10
30.1672727176318
20
1.04843832656019
30
0
41
1
10
30.1555432223269
20
1.04090631009015
30
0
41
1
10
30.1494273076069
20
1.03771372802939
30
0
41
1
10
30.1370895770571
20
1.03271615532682
30
0
41
1
10
30.1308146432805
20
1.03087141195803
30
0
41
1
10
30.1180342475241
20
1.02872972360677
30
0
41
1
10
30.111682603883
20
1.02846842639485
30
0
41
1
10
30.0993843339544
20
1.02987166774844
30
0
41
1
10
30.0933811457673
20
1.03156935899179
30
0
41
1
10
30.0826178041069
20
1.03717142684667
30
0
41
1
10
30.0777530307583
20
1.0411382524907
30
0
41
1
10
30.0739046666134
20
1.0462212934797
30
0
0
SPLINE
5
154
100
AcDbEntity
8
1
62
256
6
ByLayer
370
18
48
1
60
0
100
AcDbSpline
70
4
71
3
72
8
73
4
40
0
40
0
40
0
40
0
40
1
40
1
40
1
40
1
41
1
10
30.0739046666121
20
1.04622129348147
30
0
41
1
10
30.0531066464209
20
1.07369197586777
30
0
41
1
10
30.032329429836
20
1.10039924367723
30
0
41
1
10
30.0115993360936
20
1.12623558264235
30
0
0
SPLINE
5
155
100
AcDbEntity
8
1
62
256
6
ByLayer
370
18
48
1
60
0
100
AcDbSpline
70
4
71
3
72
8
73
4
40
0
40
0
40
0
40
0
40
1
40
1
40
1
40
1
41
1
10
30.0115993360936
20
1.12623558264235
30
0
41
1
10
29.9154641368831
20
1.07392177424052
30
0
41
1
10
29.819444501485
20
1.01751045146307
30
0
41
1
10
29.7230088813084
20
0.957504466487308
30
0
0
SPLINE
5
156
100
AcDbEntity
8
1
62
256
6
ByLayer
370
18
48
1
60
0
100
AcDbSpline
70
4
71
3
72
8
73
4
40
0
40
0
40
0
40
0
40
1
40
1
40
1
40
1
41
1
10
29
20
1.17642546178357
30
0
41
1
10
29.0524844053205
20
1.17545671209743
30
0
41
1
10
29.1046891984383
20
1.17304455202486
30
0
41
1
10
29.1566533912671
20
1.16918609156201
30
0
0
SPLINE
5
157
100
AcDbEntity
8
1
62
256
6
ByLayer
370
18
48
1
60
0
100
AcDbSpline
70
4
71
3
72
22
73
18
40
0
40
0
40
0
40
0
40
0.125
40
0.125
40
0.25
40
0.25
40
0.375
40
0.375
40
0.5
40
0.5
40
0.625
40
0.625
40
0.75
40
0.75
40
0.875
40
0.875
40
1
40
1
40
1
40
1
41
1
10
29.1566533912671
20
1.16918609156207
30
0
41
1
10
29.1606456098031
20
1.16436828148378
30
0
41
1
10
29.1650522192218
20
1.15992823614425
30
0
41
1
10
29.1744162601344
20
1.1519721229873
30
0
41
1
10
29.1793232064923
20
1.14848715085626
30
0
41
1
10
29.1895565993776
20
1.14244449152574
30
0
41
1
10
29.1949229650495
20
1.13987922383808
30
0
41
1
10
29.2057350376601
20
1.13585833406844
30
0
41
1
10
29.2112112052508
20
1.13437656557227
30
0
41
1
10
29.2222976597521
20
1.13253339836294
30
0
41
1
10
29.227959777258
20
1.13218068697302
30
0
41
1
10
29.2389798002405
20
1.13278832801214
30
0
41
1
10
29.2443766790224
20
1.13372880423668
30
0
41
1
10
29.254880438398
20
1.13713136185689
30
0
41
1
10
29.259847980972
20
1.13955725534783
30
0
41
1
10
29.2689119128203
20
1.14601105211582
30
0
41
1
10
29.2730241841772
20
1.15007392488752
30
0
41
1
10
29.2763907074365
20
1.15491940476329
30
0
0
SPLINE
5
158
100
AcDbEntity
8
1
62
256
6
ByLayer
370
18
48
1
60
0
100
AcDbSpline
70
4
71
3
72
8
73
4
40
0
40
0
40
0
40
0
40
1
40
1
40
1
40
1
41
1
10
29.2763907074403
20
1.15491940476892
30
0
41
1
10
29.2769806269214
20
1.15576848340416
30
0
41
1
10
29.2775704976777
20
1.15661704943682
30
0
41
1
10
29.2781603199821
20
1.15746510223164
30
0
0
SPLINE
5
159
100
AcDbEntity
8
1
62
256
6
ByLayer
370
18
48
1
60
0
100
AcDbSpline
70
4
71
3
72
10
73
6
40
0
40
0
40
0
40
0
40
0.5
40
0.5
40
1
40
1
40
1
40
1
41
1
10
29.2781603199824
20
1.15746510223184
30
0
41
1
10
29.3381677338914
20
1.15032886664366
30
0
41
1
10
29.3978708423288
20
1.14121084971353
30
0
41
1
10
29.5167197700193
20
1.11885653300652
30
0
41
1
10
29.5759303320926
20
1.10566679158524
30
0
41
1
10
29.6351243419889
20
1.09056734200027
30
0
0
SPLINE
5
15A
100
AcDbEntity
8
1
62
256
6
ByLayer
370
18
48
1
60
0
100
AcDbSpline
70
4
71
3
72
8
73
4
40
0
40
0
40
0
40
0
40
1
40
1
40
1
40
1
41
1
10
29.6351243419891
20
1.0905673420003
30
0
41
1
10
29.6460782027101
20
1.0695748048808
30
0
41
1
10
29.6570620043358
20
1.04859828278958
30
0
41
1
10
29.6680813555904
20
1.0276407064876
30
0
0
SPLINE
5
15B
100
AcDbEntity
8
1
62
256
6
ByLayer
370
18
48
1
60
0
100
AcDbSpline
70
4
71
3
72
24
73
20
40
0
40
0
40
0
40
0
40
0.12499999999999
40
0.12499999999999
40
0.24999999999998
40
0.24999999999998
40
0.37499999999997
40
0.37499999999997
40
0.49999999999996
40
0.49999999999996
40
0.62499999999995
40
0.62499999999995
40
0.74999999999994
40
0.74999999999994
40
0.812499999999935
40
0.812499999999935
40
0.87499999999993
40
0.87499999999993
40
1
40
1
40
1
40
1
41
1
10
29.6680813555905
20
1.02764070648755
30
0
41
1
10
29.6716046711386
20
1.020939753525
30
0
41
1
10
29.6757213598782
20
1.01473191778726
30
0
41
1
10
29.6849018029117
20
1.00310258117562
30
0
41
1
10
29.6900303259029
20
0.997635704661604
30
0
41
1
10
29.7008434226281
20
0.987792928066881
30
0
41
1
10
29.7065291138267
20
0.983393876281013
30
0
41
1
10
29.7184378724344
20
0.975611330123229
30
0
41
1
10
29.7245800605438
20
0.972290560001426
30
0
41
1
10
29.7369567942138
20
0.966923983499356
30
0
41
1
10
29.7432614505191
20
0.96484265793336
30
0
41
1
10
29.7559171378115
20
0.962118379302723
30
0
41
1
10
29.7621076088172
20
0.961502557574391
30
0
41
1
10
29.7711373077688
20
0.961858880648578
30
0
41
1
10
29.7741246637108
20
0.962198961027241
30
0
41
1
10
29.7798518140771
20
0.963346843158831
30
0
41
1
10
29.7825995904449
20
0.964151089318847
30
0
41
1
10
29.7904616983747
20
0.967317380416716
30
0
41
1
10
29.7952170630344
20
0.970468878021023
30
0
41
1
10
29.7990225761159
20
0.974700372948121
30
0
0
SPLINE
5
15C
100
AcDbEntity
8
1
62
256
6
ByLayer
370
18
48
1
60
0
100
AcDbSpline
70
4
71
3
72
8
73
4
40
0
40
0
40
0
40
0
40
1
40
1
40
1
40
1
41
1
10
29.7990225761159
20
0.974700372948092
30
0
41
1
10
29.8154212661163
20
0.992934700898502
30
0
41
1
10
29.8317839762149
20
1.01061766740486
30
0
41
1
10
29.8481096064765
20
1.02772489228249
30
0
0
SPLINE
5
15D
100
AcDbEntity
8
1
62
256
6
ByLayer
370
18
48
1
60
0
100
AcDbSpline
70
4
71
3
72
12
73
8
40
0
40
0
40
0
40
0
40
0.249999999999987
40
0.249999999999987
40
0.499999999999975
40
0.499999999999975
40
1
40
1
40
1
40
1
41
1
10
29.8481096064766
20
1.02772489228249
30
0
41
1
10
29.8706365092052
20
1.02016086871561
30
0
41
1
10
29.893186676646
20
1.01229241068634
30
0
41
1
10
29.9381345441987
20
0.996023295344116
30
0
41
1
10
29.9605353554823
20
0.987622452148031
30
0
41
1
10
30.0275369045747
20
0.96163530723345
30
0
41
1
10
30.0719306870839
20
0.943257799753212
30
0
41
1
10
30.1161161767831
20
0.92388355503661
30
0
0
SPLINE
5
15E
100
AcDbEntity
8
1
62
256
6
ByLayer
370
18
48
1
60
0
100
AcDbSpline
70
4
71
3
72
8
73
4
40
0
40
0
40
0
40
0
40
1
40
1
40
1
40
1
41
1
10
30.11611617678
20
0.923883555035275
30
0
41
1
10
30.1408431035215
20
0.877707277541276
30
0
41
1
10
30.1656873092319
20
0.832083453225522
30
0
41
1
10
30.1907127802121
20
0.787074070301259
30
0
0
SPLINE
5
15F
100
AcDbEntity
8
1
62
256
6
ByLayer
370
18
48
1
60
0
100
AcDbSpline
70
4
71
3
72
24
73
20
40
0
40
0
40
0
40
0
40
0.125000000000013
40
0.125000000000013
40
0.250000000000026
40
0.250000000000026
40
0.375000000000039
40
0.375000000000039
40
0.500000000000052
40
0.500000000000052
40
0.625000000000065
40
0.625000000000065
40
0.750000000000078
40
0.750000000000078
40
0.812500000000039
40
0.812500000000039
40
0.874999999999999
40
0.874999999999999
40
1
40
1
40
1
40
1
41
1
10
30.1907127802121
20
0.78707407030123
30
0
41
1
10
30.1942375629788
20
0.780734597314847
30
0
41
1
10
30.198355756958
20
0.774699461216926
30
0
41
1
10
30.207538477211
20
0.763116164614502
30
0
41
1
10
30.2126677455332
20
0.757517262951694
30
0
41
1
10
30.2234817289025
20
0.747135901690257
30
0
41
1
10
30.2291675892248
20
0.742333736022005
30
0
41
1
10
30.2410760425832
20
0.733480324137389
30
0
41
1
10
30.2472174581603
20
0.729497407112177
30
0
41
1
10
30.2595929324236
20
0.722572130842423
30
0
41
1
10
30.2658967167783
20
0.719586508810266
30
0
41
1
10
30.2785509844163
20
0.714785205537225
30
0
41
1
10
30.2847408315177
20
0.713024646783992
30
0
41
1
10
30.2937694689919
20
0.711472854176009
30
0
41
1
10
30.2967564969602
20
0.711139270167877
30
0
41
1
10
30.3024836836658
20
0.710899337462024
30
0
41
1
10
30.3052315200168
20
0.710988516309271
30
0
41
1
10
30.3130939390392
20
0.711939598141299
30
0
41
1
10
30.3178503427002
20
0.713508627704357
30
0
41
1
10
30.321657285733
20
0.716144241260082
30
0
0
SPLINE
5
160
100
AcDbEntity
8
1
62
256
6
ByLayer
370
18
48
1
60
0
100
AcDbSpline
70
4
71
3
72
8
73
4
40
0
40
0
40
0
40
0
40
1
40
1
40
1
40
1
41
1
10
30.321657285733
20
0.716144241259912
30
0
41
1
10
30.354022503065
20
0.738551249927724
30
0
41
1
10
30.3862489850743
20
0.758359351180928
30
0
41
1
10
30.4182863400905
20
0.775433579657999
30
0
0
SPLINE
5
161
100
AcDbEntity
8
1
62
256
6
ByLayer
370
18
48
1
60
0
100
AcDbSpline
70
4
71
3
72
8
73
4
40
0
40
0
40
0
40
0
40
1
40
1
40
1
40
1
41
1
10
30.4182863400906
20
0.775433579657971
30
0
41
1
10
30.4781011056066
20
0.742818304163535
30
0
41
1
10
30.5376596073529
20
0.708404655022974
30
0
41
1
10
30.5971364462305
20
0.672348897401463
30
0
0
SPLINE
5
162
100
AcDbEntity
8
1
62
256
6
ByLayer
370
18
48
1
60
0
100
AcDbSpline
70
4
71
3
72
10
73
6
40
0
40
0
40
0
40
0
40
0.5
40
0.5
40
1
40
1
40
1
40
1
41
1
10
30.5971364462316
20
0.672348897400923
30
0
41
1
10
30.6163309269934
20
0.63962717431238
30
0
41
1
10
30.6356290064219
20
0.607431278245002
30
0
41
1
10
30.6743582487314
20
0.544313621875801
30
0
41
1
10
30.693800726403
20
0.513370831585831
30
0
41
1
10
30.7133516279006
20
0.48308574494402
30
0
0
SPLINE
5
163
100
AcDbEntity
8
1
62
256
6
ByLayer
370
18
48
1
60
0
100
AcDbSpline
70
4
71
3
72
24
73
20
40
0
40
0
40
0
40
0
40
0.124999999999967
40
0.124999999999967
40
0.249999999999933
40
0.249999999999933
40
0.3749999999999
40
0.3749999999999
40
0.499999999999867
40
0.499999999999867
40
0.624999999999833
40
0.624999999999833
40
0.7499999999998
40
0.7499999999998
40
0.81249999999983
40
0.81249999999983
40
0.87499999999986
40
0.87499999999986
40
1
40
1
40
1
40
1
41
1
10
30.7133516279006
20
0.483085744944049
30
0
41
1
10
30.7168790399795
20
0.477621650082853
30
0
41
1
10
30.7210006891424
20
0.472247525687607
30
0
41
1
10
30.7301904041495
20
0.461645868412347
30
0
41
1
10
30.7353233786075
20
0.456366265549207
30
0
41
1
10
30.746143189141
20
0.446282420380072
30
0
41
1
10
30.7518315510905
20
0.441463714643305
30
0
41
1
10
30.7637438784248
20
0.432251707579496
30
0
41
1
10
30.7698847608277
20
0.427927815347715
30
0
41
1
10
30.7822595332359
20
0.420000663583892
30
0
41
1
10
30.7885639064104
20
0.416349532899631
30
0
41
1
10
30.8012119459913
20
0.409858366405757
30
0
41
1
10
30.8073988902696
20
0.407094719806082
30
0
41
1
10
30.8164241645258
20
0.403761154961586
30
0
41
1
10
30.8194101023429
20
0.40278161506231
30
0
41
1
10
30.8251345098082
20
0.401174828950985
30
0
41
1
10
30.8278811417919
20
0.400542527423028
30
0
41
1
10
30.8357404361385
20
0.399203841579407
30
0
41
1
10
30.8404952045493
20
0.399064661507055
30
0
41
1
10
30.8443016637409
20
0.399890791944216
30
0
0
SPLINE
5
164
100
AcDbEntity
8
1
62
256
6
ByLayer
370
18
48
1
60
0
100
AcDbSpline
70
4
71
3
72
24
73
20
40
0
40
0
40
0
40
0
40
0.124999999999977
40
0.124999999999977
40
0.249999999999954
40
0.249999999999954
40
0.37499999999993
40
0.37499999999993
40
0.499999999999907
40
0.499999999999907
40
0.624999999999884
40
0.624999999999884
40
0.749999999999861
40
0.749999999999861
40
0.812499999999896
40
0.812499999999896
40
0.87499999999993
40
0.87499999999993
40
1
40
1
40
1
40
1
41
1
10
31.2359799162218
20
0.140364889204079
30
0
41
1
10
31.2395078715625
20
0.136222525954906
30
0
41
1
10
31.2436303572661
20
0.13194765245018
30
0
41
1
10
31.2528222032208
20
0.123192338745554
30
0
41
1
10
31.2579566135975
20
0.118662669573752
30
0
41
1
10
31.2687797251895
20
0.109699275193975
30
0
41
1
10
31.2744699243055
20
0.105257632615405
30
0
41
1
10
31.2863861032414
20
0.0964402430223572
30
0
41
1
10
31.2925283316579
20
0.0921286798346728
30
0
41
1
10
31.3049053868124
20
0.0838495515710349
30
0
41
1
10
31.3112114877916
20
0.0798329516559875
30
0
41
1
10
31.3238573382359
20
0.0721859214710037
30
0
41
1
10
31.3300426597172
20
0.0686471654503862
30
0
41
1
10
31.3390648380125
20
0.0638061179133445
30
0
41
1
10
31.3420495773142
20
0.0622610714525536
30
0
41
1
10
31.3477713119764
20
0.0594194318695713
30
0
41
1
10
31.3505166092984
20
0.0581175423843661
30
0
41
1
10
31.3583720301671
20
0.0545987670906527
30
0
41
1
10
31.3631247951217
20
0.0527623686524805
30
0
41
1
10
31.3669307498977
20
0.0517105412459955
30
0
0
SPLINE
5
165
100
AcDbEntity
8
1
62
256
6
ByLayer
370
18
48
1
60
0
100
AcDbSpline
70
4
71
3
72
10
73
6
40
0
40
0
40
0
40
0
40
0.5
40
0.5
40
1
40
1
40
1
40
1
41
1
10
31.3669307498977
20
0.0517105412459955
30
0
41
1
10
31.3959527828924
20
0.0436899073992834
30
0
41
1
10
31.4248627854595
20
0.033401680709261
30
0
41
1
10
31.4823703023654
20
0.0083049178976466
30
0
41
1
10
31.5109735298509
20
-0.0064756618122317
30
0
41
1
10
31.5394065243503
20
-0.0233705058490159
30
0
0
SPLINE
5
166
100
AcDbEntity
8
1
62
256
6
ByLayer
370
18
48
1
60
0
100
AcDbSpline
70
4
71
3
72
10
73
6
40
0
40
0
40
0
40
0
40
0.5
40
0.5
40
1
40
1
40
1
40
1
41
1
10
31.5796622649577
20
-0.0570998016037549
30
0
41
1
10
31.6091119456415
20
-0.0876694958425048
30
0
41
1
10
31.6387413240902
20
-0.116010506309124
30
0
41
1
10
31.6984126759891
20
-0.168440600052321
30
0
41
1
10
31.7283750656915
20
-0.192415458367407
30
0
41
1
10
31.7586259646285
20
-0.213755669243909
30
0
0
SPLINE
5
167
100
AcDbEntity
8
1
62
256
6
ByLayer
370
18
48
1
60
0
100
AcDbSpline
70
4
71
3
72
24
73
20
40
0
40
0
40
0
40
0
40
0.125000000000034
40
0.125000000000034
40
0.250000000000068
40
0.250000000000068
40
0.375000000000101
40
0.375000000000101
40
0.500000000000135
40
0.500000000000135
40
0.625000000000169
40
0.625000000000169
40
0.750000000000202
40
0.750000000000202
40
0.812500000000172
40
0.812500000000172
40
0.875000000000142
40
0.875000000000142
40
1
40
1
40
1
40
1
41
1
10
31.7586259646284
20
-0.213755669243909
30
0
41
1
10
31.7621545681362
20
-0.216244889253915
30
0
41
1
10
31.7662778348812
20
-0.219078261380105
30
0
41
1
10
31.7754717273469
20
-0.22528515519042
30
0
41
1
10
31.7806074823807
20
-0.228701095384622
30
0
41
1
10
31.7914331341485
20
-0.235824806400046
30
0
41
1
10
31.7971243713996
20
-0.23953381582993
30
0
41
1
10
31.809041210132
20
-0.247252986297468
30
0
41
1
10
31.815183010577
20
-0.251209499982963
30
0
41
1
10
31.827558452812
20
-0.259183594637165
30
0
41
1
10
31.8338634361441
20
-0.263247193303471
30
0
41
1
10
31.8465052725862
20
-0.271445621991745
30
0
41
1
10
31.8526885608418
20
-0.275479926744993
30
0
41
1
10
31.861707858583
20
-0.281445601972507
30
0
41
1
10
31.8646916913115
20
-0.283433956349882
30
0
41
1
10
31.8704123089917
20
-0.287285662439871
30
0
41
1
10
31.873157173301
20
-0.289153967813576
30
0
41
1
10
31.8810116599996
20
-0.29457318617574
30
0
41
1
10
31.8857648833335
20
-0.29795985019382
30
0
41
1
10
31.8895719306541
20
-0.300804322120001
30
0
0
SPLINE
5
168
100
AcDbEntity
8
1
62
256
6
ByLayer
370
18
48
1
60
0
100
AcDbSpline
70
4
71
3
72
10
73
6
40
0
40
0
40
0
40
0
40
0.5
40
0.5
40
1
40
1
40
1
40
1
41
1
10
31.8895719306541
20
-0.300804322120001
30
0
41
1
10
31.918620485663
20
-0.322508228654215
30
0
41
1
10
31.9475554007463
20
-0.346286819304851
30
0
41
1
10
32.0051099346384
20
-0.397889101942951
30
0
41
1
10
32.0337348209502
20
-0.425693004647286
30
0
41
1
10
32.062186473798
20
-0.455360714695274
30
0
0
SPLINE
5
169
100
AcDbEntity
8
1
62
256
6
ByLayer
370
18
48
1
60
0
100
AcDbSpline
70
4
71
3
72
10
73
6
40
0
40
0
40
0
40
0
40
0.5
40
0.5
40
1
40
1
40
1
40
1
41
1
10
32.102296582622
20
-0.487352708061252
30
0
41
1
10
32.1317376805768
20
-0.502772832518389
30
0
41
1
10
32.1613453674107
20
-0.515782864855737
30
0
41
1
10
32.2210243152221
20
-0.536893412215449
30
0
41
1
10
32.251001935269
20
-0.544981776669914
30
0
41
1
10
32.2812457890481
20
-0.550394636158131
30
0
0
SPLINE
5
16A
100
AcDbEntity
8
1
62
256
6
ByLayer
370
18
48
1
60
0
100
AcDbSpline
70
4
71
3
72
24
73
20
40
0
40
0
40
0
40
0
40
0.125
40
0.125
40
0.250000000000001
40
0.250000000000001
40
0.375000000000001
40
0.375000000000001
40
0.500000000000001
40
0.500000000000001
40
0.625000000000002
40
0.625000000000002
40
0.750000000000002
40
0.750000000000002
40
0.812500000000002
40
0.812500000000002
40
0.875000000000002
40
0.875000000000002
40
1
40
1
40
1
40
1
41
1
10
32.2812457890481
20
-0.550394636158103
30
0
41
1
10
32.2847779142529
20
-0.551026794267756
30
0
41
1
10
32.288905714991
20
-0.552191342565237
30
0
41
1
10
32.2981087073945
20
-0.555359361871268
30
0
41
1
10
32.3032492756124
20
-0.557395141136112
30
0
41
1
10
32.3140829513122
20
-0.562125654634144
30
0
41
1
10
32.3197779798652
20
-0.564813881004056
30
0
41
1
10
32.3317020525612
20
-0.570833519317091
30
0
41
1
10
32.3378439777118
20
-0.574124715291532
30
0
41
1
10
32.3502213006531
20
-0.581168388522769
30
0
41
1
10
32.3565296581977
20
-0.584961444082808
30
0
41
1
10
32.3691642063515
20
-0.59306110604976
30
0
41
1
10
32.3753439279892
20
-0.597270036813399
30
0
41
1
10
32.3843580030667
20
-0.603884239518408
30
0
41
1
10
32.3873398338218
20
-0.606156727948587
30
0
41
1
10
32.393055107919
20
-0.610708283913453
30
0
41
1
10
32.3957975061739
20
-0.612992351530778
30
0
41
1
10
32.4036452187991
20
-0.619874492182561
30
0
41
1
10
32.4083944112764
20
-0.624536602741074
30
0
41
1
10
32.4121996247686
20
-0.628942971112906
30
0
0
SPLINE
5
16B
100
AcDbEntity
8
1
62
256
6
ByLayer
370
18
48
1
60
0
100
AcDbSpline
70
4
71
3
72
10
73
6
40
0
40
0
40
0
40
0
40
0.5
40
0.5
40
1
40
1
40
1
40
1
41
1
10
32.4121996247686
20
-0.628942971112906
30
0
41
1
10
32.441228346671
20
-0.662557705825094
30
0
41
1
10
32.4701431773659
20
-0.697887322521495
30
0
41
1
10
32.5276578104758
20
-0.771794979392951
30
0
41
1
10
32.5562627188748
20
-0.810359017115843
30
0
41
1
10
32.5846944201543
20
-0.850372263372037
30
0
0
SPLINE
5
16C
100
AcDbEntity
8
1
62
256
6
ByLayer
370
18
48
1
60
0
100
AcDbSpline
70
4
71
3
72
10
73
6
40
0
40
0
40
0
40
0
40
0.5
40
0.5
40
1
40
1
40
1
40
1
41
1
10
32.6250525890266
20
-0.878352569808044
30
0
41
1
10
32.654471588503
20
-0.877390368781363
30
0
41
1
10
32.6840540698233
20
-0.873989098522827
30
0
41
1
10
32.743683220747
20
-0.862230480464092
30
0
41
1
10
32.7736393350991
20
-0.853916948948466
30
0
41
1
10
32.8038650854931
20
-0.842978393111821
30
0
0
SPLINE
5
16D
100
AcDbEntity
8
1
62
256
6
ByLayer
370
18
48
1
60
0
100
AcDbSpline
70
4
71
3
72
24
73
20
40
0
40
0
40
0
40
0
40
0.125
40
0.125
40
0.25
40
0.25
40
0.375
40
0.375
40
0.5
40
0.5
40
0.625
40
0.625
40
0.75
40
0.75
40
0.8125
40
0.8125
40
0.875
40
0.875
40
1
40
1
40
1
40
1
41
1
10
32.8038650854931
20
-0.842978393111821
30
0
41
1
10
32.8074000318544
20
-0.841699112774734
30
0
41
1
10
32.811531534537
20
-0.841095786993918
30
0
41
1
10
32.8207421431329
20
-0.84095583448439
30
0
41
1
10
32.8258867585233
20
-0.841438665994559
30
0
41
1
10
32.8367272848758
20
-0.843377232101545
30
0
41
1
10
32.8424252475023
20
-0.844819709667661
30
0
41
1
10
32.8543530678703
20
-0.84863943072628
30
0
41
1
10
32.8604945977291
20
-0.850994648758956
30
0
41
1
10
32.8728704101139
20
-0.85652898381008
30
0
41
1
10
32.8791778003732
20
-0.859739171597738
30
0
41
1
10
32.8918047686967
20
-0.867080299989226
30
0
41
1
10
32.8979807627607
20
-0.871121283519614
30
0
41
1
10
32.9069899052586
20
-0.877845586398308
30
0
41
1
10
32.9099702088422
20
-0.880217397327641
30
0
41
1
10
32.9156836000185
20
-0.885100020061941
30
0
41
1
10
32.9184253861197
20
-0.88761470557273
30
0
41
1
10
32.9262722244244
20
-0.895401576475791
30
0
41
1
10
32.9310229571644
20
-0.900961480652029
30
0
41
1
10
32.9348308691903
20
-0.906572708213901
30
0
0
SPLINE
5
16E
100
AcDbEntity
8
1
62
256
6
ByLayer
370
18
48
1
60
0
100
AcDbSpline
70
4
71
3
72
10
73
6
40
0
40
0
40
0
40
0
40
0.5
40
0.5
40
1
40
1
40
1
40
1
41
1
10
32.9348308691903
20
-0.906572708213872
30
0
41
1
10
32.9639058686497
20
-0.949416775309942
30
0
41
1
10
32.9928634603435
20
-0.993486619255066
30
0
41
1
10
33.0504596292288
20
-1.08380534905265
30
0
41
1
10
33.0791030943372
20
-1.13004811569942
30
0
41
1
10
33.107572170346
20
-1.1771999750078
30
0
0
SPLINE
5
16F
100
AcDbEntity
8
1
62
256
6
ByLayer
370
18
48
1
60
0
100
AcDbSpline
70
4
71
3
72
10
73
6
40
0
40
0
40
0
40
0
40
0.5
40
0.5
40
1
40
1
40
1
40
1
41
1
10
33.1477376106005
20
-1.19860451577048
30
0
41
1
10
33.1771468966345
20
-1.18136142992878
30
0
41
1
10
33.2067198383423
20
-1.16182581225201
30
0
41
1
10
33.2663349002551
20
-1.11818821134594
30
0
41
1
10
33.2962853294251
20
-1.09417799912305
30
0
41
1
10
33.3264994272552
20
-1.06783653853935
30
0
0
SPLINE
5
170
100
AcDbEntity
8
1
62
256
6
ByLayer
370
18
48
1
60
0
100
AcDbSpline
70
4
71
3
72
24
73
20
40
0
40
0
40
0
40
0
40
0.124999999999967
40
0.124999999999967
40
0.249999999999934
40
0.249999999999934
40
0.374999999999901
40
0.374999999999901
40
0.499999999999868
40
0.499999999999868
40
0.624999999999836
40
0.624999999999836
40
0.749999999999803
40
0.749999999999803
40
0.812499999999833
40
0.812499999999833
40
0.874999999999862
40
0.874999999999862
40
1
40
1
40
1
40
1
41
1
10
33.3264994272552
20
-1.06783653853935
30
0
41
1
10
33.3300364618039
20
-1.06475285698545
30
0
41
1
10
33.3341705084949
20
-1.0624356440853
30
0
41
1
10
33.3433859773193
20
-1.05901097405268
30
0
41
1
10
33.3485329794563
20
-1.05790870280237
30
0
41
1
10
33.3593776015964
20
-1.05691179509694
30
0
41
1
10
33.3650775958424
20
-1.05699801869369
30
0
41
1
10
33.3770090992486
20
-1.05832006475862
30
0
41
1
10
33.3831505670438
20
-1.05955400682811
30
0
41
1
10
33.3955270012451
20
-1.06313928133406
30
0
41
1
10
33.4018358039608
20
-1.06551013489138
30
0
41
1
10
33.4144583027198
20
-1.07150270711281
30
0
41
1
10
33.4206320537403
20
-1.07504919643981
30
0
41
1
10
33.4296381267948
20
-1.08133826222999
30
0
41
1
10
33.4326173556264
20
-1.08361664146116
30
0
41
1
10
33.438327833311
20
-1.08843171753801
30
0
41
1
10
33.4410682164918
20
-1.09097140543719
30
0
41
1
10
33.4489110009016
20
-1.09902539626572
30
0
41
1
10
33.4536592033256
20
-1.10502587052727
30
0
41
1
10
33.457465957892
20
-1.11137965583808
30
0
0
SPLINE
5
171
100
AcDbEntity
8
1
62
256
6
ByLayer
370
18
48
1
60
0
100
AcDbSpline
70
4
71
3
72
8
73
4
40
0
40
0
40
0
40
0
40
1
40
1
40
1
40
1
41
1
10
33.457465957892
20
-1.11137965583805
30
0
41
1
10
33.5013758219892
20
-1.18466881715082
30
0
41
1
10
33.5450145787702
20
-1.25943600786616
30
0
41
1
10
33.5882527823044
20
-1.33507064745845
30
0
0
SPLINE
5
172
100
AcDbEntity
8
1
62
256
6
ByLayer
370
18
48
1
60
0
100
AcDbSpline
70
4
71
3
72
8
73
4
40
0
40
0
40
0
40
0
40
1
40
1
40
1
40
1
41
1
10
33.5882527823049
20
-1.33507064745831
30
0
41
1
10
33.6358856837145
20
-1.34253185044827
30
0
41
1
10
33.6838511977502
20
-1.34827971150904
30
0
41
1
10
33.7321841190627
20
-1.35230390262359
30
0
0
SPLINE
5
173
100
AcDbEntity
8
1
62
256
6
ByLayer
370
18
48
1
60
0
100
AcDbSpline
70
4
71
3
72
10
73
6
40
0
40
0
40
0
40
0
40
0.5
40
0.5
40
1
40
1
40
1
40
1
41
1
10
33.7321841190627
20
-1.35230390262359
30
0
41
1
10
33.7515003423536
20
-1.32967437984047
30
0
41
1
10
33.7709172899849
20
-1.30621812449351
30
0
41
1
10
33.8098848130674
20
-1.25779217341525
30
0
41
1
10
33.8294460479195
20
-1.23281020429943
30
0
41
1
10
33.8491173140733
20
-1.20703216542984
30
0
0
SPLINE
5
174
100
AcDbEntity
8
1
62
256
6
ByLayer
370
18
48
1
60
0
100
AcDbSpline
70
4
71
3
72
24
73
20
40
0
40
0
40
0
40
0
40
0.125000000000023
40
0.125000000000023
40
0.250000000000046
40
0.250000000000046
40
0.375000000000069
40
0.375000000000069
40
0.500000000000092
40
0.500000000000092
40
0.625000000000115
40
0.625000000000115
40
0.750000000000139
40
0.750000000000139
40
0.812500000000104
40
0.812500000000104
40
0.875000000000069
40
0.875000000000069
40
1
40
1
40
1
40
1
41
1
10
33.8491173140733
20
-1.20703216542984
30
0
41
1
10
33.8526583095352
20
-1.20239189886328
30
0
41
1
10
33.8567976961659
20
-1.19854734964866
30
0
41
1
10
33.8660248180775
20
-1.19211477571071
30
0
41
1
10
33.8711784688746
20
-1.1895171271602
30
0
41
1
10
33.8820357578875
20
-1.18566980496931
30
0
41
1
10
33.8877412986317
20
-1.18439717195679
30
0
41
1
10
33.8996809812851
20
-1.18312607180982
30
0
41
1
10
33.9058231709097
20
-1.18314660157063
30
0
41
1
10
33.9181997599435
20
-1.18450767814574
30
0
41
1
10
33.9245092610953
20
-1.18585492871207
30
0
41
1
10
33.9371208992147
20
-1.19002860467356
30
0
41
1
10
33.9432888861143
20
-1.19279989383872
30
0
41
1
10
33.9522862087326
20
-1.19815260471086
30
0
41
1
10
33.9552622907065
20
-1.20015558057173
30
0
41
1
10
33.9609661195023
20
-1.20451739318861
30
0
41
1
10
33.963703421191
20
-1.20687805004155
30
0
41
1
10
33.9715377382363
20
-1.21455024505184
30
0
41
1
10
33.9762814653567
20
-1.22050545311635
30
0
41
1
10
33.9800861983857
20
-1.22708519699634
30
0
0
SPLINE
5
175
100
AcDbEntity
8
1
62
256
6
ByLayer
370
18
48
1
60
0
100
AcDbSpline
70
4
71
3
72
8
73
4
40
0
40
0
40
0
40
0
40
1
40
1
40
1
40
1
41
1
10
33.980086198388
20
-1.22708519700043
30
0
41
1
10
34.0044348991301
20
-1.26919280704757
30
0
41
1
10
34.0286737529528
20
-1.31125424337378
30
0
41
1
10
34.0528273920377
20
-1.35325280374366
30
0
0
SPLINE
5
176
100
AcDbEntity
8
1
62
256
6
ByLayer
370
18
48
1
60
0
100
AcDbSpline
70
4
71
3
72
8
73
4
40
0
40
0
40
0
40
0
40
1
40
1
40
1
40
1
41
1
10
34.0528273920377
20
-1.35325280374366
30
0
41
1
10
34.1456817511449
20
-1.34598004127361
30
0
41
1
10
34.2389279905945
20
-1.33222160421172
30
0
41
1
10
34.3329532754734
20
-1.31241354601386
30
0
0
SPLINE
5
177
100
AcDbEntity
8
1
62
256
6
ByLayer
370
18
48
1
60
0
100
AcDbSpline
70
4
71
3
72
8
73
4
40
0
40
0
40
0
40
0
40
1
40
1
40
1
40
1
41
1
10
34.3329532754726
20
-1.31241354601221
30
0
41
1
10
34.3458411201087
20
-1.29158069209589
30
0
41
1
10
34.3587678570916
20
-1.27051387648757
30
0
41
1
10
34.3717430880999
20
-1.2492087507355
30
0
0
SPLINE
5
178
100
AcDbEntity
8
1
62
256
6
ByLayer
370
18
48
1
60
0
100
AcDbSpline
70
4
71
3
72
8
73
4
40
0
40
0
40
0
40
0
40
1
40
1
40
1
40
1
41
1
10
34.2554921142108
20
-0.165142476720803
30
0
41
1
10
34.227735948504
20
-0.16603461122034
30
0
41
1
10
34.2000589731254
20
-0.164669811540819
30
0
41
1
10
34.1724388264682
20
-0.161057657132346
30
0
0
SPLINE
5
179
100
AcDbEntity
8
1
62
256
6
ByLayer
370
18
48
1
60
0
100
AcDbSpline
70
4
71
3
72
10
73
6
40
0
40
0
40
0
40
0
40
0.5
40
0.5
40
1
40
1
40
1
40
1
41
1
10
34.1724388264683
20
-0.161057657132375
30
0
41
1
10
34.1402180518405
20
-0.139593731285942
30
0
41
1
10
34.1080469197277
20
-0.117631436237019
30
0
41
1
10
34.043751156568
20
-0.0727638519433924
30
0
41
1
10
34.0115707443497
20
-0.0498171143604225
30
0
41
1
10
33.979630228483
20
-0.0266108057638803
30
0
0
SPLINE
5
17A
100
AcDbEntity
8
1
62
256
6
ByLayer
370
18
48
1
60
0
100
AcDbSpline
70
4
71
3
72
8
73
4
40
0
40
0
40
0
40
0
40
1
40
1
40
1
40
1
41
1
10
33.979630228483
20
-0.0266108057638803
30
0
41
1
10
33.9412811677305
20
0.0199614563618411
30
0
41
1
10
33.9026571591647
20
0.063106085947112
30
0
41
1
10
33.8637073706499
20
0.102159195110033
30
0
0
SPLINE
5
17B
100
AcDbEntity
8
1
62
256
6
ByLayer
370
18
48
1
60
0
100
AcDbSpline
70
4
71
3
72
22
73
18
40
0
40
0
40
0
40
0
40
0.125
40
0.125
40
0.25
40
0.25
40
0.375
40
0.375
40
0.5
40
0.5
40
0.625
40
0.625
40
0.75
40
0.75
40
0.875
40
0.875
40
1
40
1
40
1
40
1
41
1
10
33.8637073706498
20
0.102159195111568
30
0
41
1
10
33.8602660174918
20
0.105609677018123
30
0
41
1
10
33.8562570050249
20
0.109269158675346
30
0
41
1
10
33.8473098923624
20
0.116919428041768
30
0
41
1
10
33.8423136939307
20
0.120952363389961
30
0
41
1
10
33.8317416778659
20
0.12909084921003
30
0
41
1
10
33.8261624588727
20
0.133203493749789
30
0
41
1
10
33.8144272548001
20
0.141529110220489
30
0
41
1
10
33.8082983795862
20
0.14571984962916
30
0
41
1
10
33.7959392483667
20
0.153902184737035
30
0
41
1
10
33.7896539123781
20
0.157933681185369
30
0
41
1
10
33.7768576131502
20
0.165894746070848
30
0
41
1
10
33.7704981975081
20
0.169728353571117
30
0
41
1
10
33.7582018166328
20
0.176906928861513
30
0
41
1
10
33.752204701081
20
0.180286312798131
30
0
41
1
10
33.74146316603
20
0.186069673723495
30
0
41
1
10
33.7366112619599
20
0.188532120624956
30
0
41
1
10
33.7327725195505
20
0.190262244467078
30
0
0
SPLINE
5
17C
100
AcDbEntity
8
1
62
256
6
ByLayer
370
18
48
1
60
0
100
AcDbSpline
70
4
71
3
72
10
73
6
40
0
40
0
40
0
40
0
40
0.5
40
0.5
40
1
40
1
40
1
40
1
41
1
10
33.7327725195489
20
0.190262244470858
30
0
41
1
10
33.7049046349714
20
0.202822319202255
30
0
41
1
10
33.6771150595347
20
0.217545604797749
30
0
41
1
10
33.62164871906
20
0.251321238353938
30
0
41
1
10
33.5940521473448
20
0.27029614960361
30
0
41
1
10
33.566570233981
20
0.29128623854325
30
0
0
SPLINE
5
17D
100
AcDbEntity
8
1
62
256
6
ByLayer
370
18
48
1
60
0
100
AcDbSpline
70
4
71
3
72
10
73
6
40
0
40
0
40
0
40
0
40
0.5
40
0.5
40
1
40
1
40
1
40
1
41
1
10
33.5210363019641
20
0.32852702779158
30
0
41
1
10
33.4913681989992
20
0.353334410420843
30
0
41
1
10
33.4615657618085
20
0.375785977467672
30
0
41
1
10
33.401530899165
20
0.415780350022885
30
0
41
1
10
33.3713925417285
20
0.433289935670814
30
0
41
1
10
33.341026572828
20
0.448135020021709
30
0
0
SPLINE
5
17E
100
AcDbEntity
8
1
62
256
6
ByLayer
370
18
48
1
60
0
100
AcDbSpline
70
4
71
3
72
22
73
18
40
0
40
0
40
0
40
0
40
0.125
40
0.125
40
0.25
40
0.25
40
0.375
40
0.375
40
0.5
40
0.5
40
0.625
40
0.625
40
0.75
40
0.75
40
0.875
40
0.875
40
1
40
1
40
1
40
1
41
1
10
33.3410265728269
20
0.448135020024097
30
0
41
1
10
33.3375819178046
20
0.449819016821067
30
0
41
1
10
33.3335695372393
20
0.451893804588536
30
0
41
1
10
33.3246175377144
20
0.456669839842846
30
0
41
1
10
33.3196202493726
20
0.459404657938364
30
0
41
1
10
33.3090507940323
20
0.465306796594604
30
0
41
1
10
33.3034741430658
20
0.468475154392081
30
0
41
1
10
33.2917464635796
20
0.475257550572735
30
0
41
1
10
33.285624330561
20
0.478856404446191
30
0
41
1
10
33.2732745514442
20
0.486269400571445
30
0
41
1
10
33.2669925399379
20
0.490113812340724
30
0
41
1
10
33.2541981896865
20
0.49816872951655
30
0
41
1
10
33.2478358038562
20
0.502286517809551
30
0
41
1
10
33.2355301252083
20
0.510581668528658
30
0
41
1
10
33.2295257374382
20
0.514806831777207
30
0
41
1
10
33.2187674319456
20
0.522867805255913
30
0
41
1
10
33.2139065890602
20
0.526786399076144
30
0
41
1
10
33.210061467394
20
0.530249131491672
30
0
0
SPLINE
5
17F
100
AcDbEntity
8
1
62
256
6
ByLayer
370
18
48
1
60
0
100
AcDbSpline
70
4
71
3
72
22
73
18
40
0
40
0
40
0
40
0
40
0.125
40
0.125
40
0.25
40
0.25
40
0.375
40
0.375
40
0.5
40
0.5
40
0.625
40
0.625
40
0.75
40
0.75
40
0.875
40
0.875
40
1
40
1
40
1
40
1
41
1
10
32.2956331759402
20
1.00696995991657
30
0
41
1
10
32.292190318307
20
1.00483477371463
30
0
41
1
10
32.288179905911
20
1.00333962481855
30
0
41
1
10
32.2792288255199
20
1.00137893422999
30
0
41
1
10
32.2742301101192
20
1.00092248211121
30
0
41
1
10
32.2636534959963
20
1.00102398667977
30
0
41
1
10
32.2580719441631
20
1.00156873231092
30
0
41
1
10
32.2463335765715
20
1.00365671419107
30
0
41
1
10
32.2402049078935
20
1.00520512813307
30
0
41
1
10
32.2278452697636
20
1.0092642927811
30
0
41
1
10
32.2215594765171
20
1.01178062068465
30
0
41
1
10
32.2087626721879
20
1.01800028401121
30
0
41
1
10
32.202406549085
20
1.0216356456597
30
0
41
1
10
32.1901152465764
20
1.03001336614216
30
0
41
1
10
32.1841214301498
20
1.03481563763628
30
0
41
1
10
32.173384345281
20
1.04525781210646
30
0
41
1
10
32.1685337138777
20
1.05100775941821
30
0
41
1
10
32.1646953664438
20
1.05694828709639
30
0
0
SPLINE
5
180
100
AcDbEntity
8
1
62
256
6
ByLayer
370
18
48
1
60
0
100
AcDbSpline
70
4
71
3
72
10
73
6
40
0
40
0
40
0
40
0
40
0.5
40
0.5
40
1
40
1
40
1
40
1
41
1
10
32.1646953664414
20
1.05694828709934
30
0
41
1
10
32.1359524233142
20
1.10143312130157
30
0
41
1
10
32.1072568607678
20
1.14697585571261
30
0
41
1
10
32.0500713526331
20
1.23985913946305
30
0
41
1
10
32.0216241013736
20
1.28711764499624
30
0
41
1
10
31.9933011122802
20
1.33510621051866
30
0
0
SPLINE
5
181
100
AcDbEntity
8
1
62
256
6
ByLayer
370
18
48
1
60
0
100
AcDbSpline
70
4
71
3
72
10
73
6
40
0
40
0
40
0
40
0
40
0.5
40
0.5
40
1
40
1
40
1
40
1
41
1
10
31.9531253574629
20
1.35163863710164
30
0
41
1
10
31.9234214684763
20
1.32649998429699
30
0
41
1
10
31.8935777256158
20
1.29916402232172
30
0
41
1
10
31.8334745741703
20
1.24003180375314
30
0
41
1
10
31.803305916856
20
1.20833727047133
30
0
41
1
10
31.7729344867207
20
1.17442770229314
30
0
0
SPLINE
5
182
100
AcDbEntity
8
1
62
256
6
ByLayer
370
18
48
1
60
0
100
AcDbSpline
70
4
71
3
72
22
73
18
40
0
40
0
40
0
40
0
40
0.125
40
0.125
40
0.25
40
0.25
40
0.375
40
0.375
40
0.5
40
0.5
40
0.625
40
0.625
40
0.75
40
0.75
40
0.875
40
0.875
40
1
40
1
40
1
40
1
41
1
10
31.7729344867206
20
1.17442770229317
30
0
41
1
10
31.7694860933474
20
1.17057758625734
30
0
41
1
10
31.7654707174297
20
1.16742578216997
30
0
41
1
10
31.7565141919886
20
1.16224436708242
30
0
41
1
10
31.751515719401
20
1.16021057338398
30
0
41
1
10
31.7409455471915
20
1.15733658205994
30
0
41
1
10
31.7353686745597
20
1.15647713113017
30
0
41
1
10
31.7236405593228
20
1.15591733267061
30
0
41
1
10
31.7175190213806
20
1.15623202149788
30
0
41
1
10
31.7051696084038
20
1.15808879285143
30
0
41
1
10
31.6988877010124
20
1.1596230769324
30
0
41
1
10
31.6860964650124
20
1.16415417424801
30
0
41
1
10
31.6797350157081
20
1.16710841067976
30
0
41
1
10
31.6674312274399
20
1.17452763567431
30
0
41
1
10
31.6614249602618
20
1.17905523134706
30
0
41
1
10
31.6506591614697
20
1.18948982398456
30
0
41
1
10
31.6457926312233
20
1.19550813200843
30
0
41
1
10
31.6419436685346
20
1.20203149960594
30
0
0
SPLINE
5
183
100
AcDbEntity
8
1
62
256
6
ByLayer
370
18
48
1
60
0
100
AcDbSpline
70
4
71
3
72
10
73
6
40
0
40
0
40
0
40
0
40
0.5
40
0.5
40
1
40
1
40
1
40
1
41
1
10
31.6419436685325
20
1.20203149960969
30
0
41
1
10
31.6132183048337
20
1.25071633289082
30
0
41
1
10
31.5845352254206
20
1.29976594957344
30
0
41
1
10
31.5273719761711
20
1.39837062144804
30
0
41
1
10
31.4989340094737
20
1.44783468018335
30
0
41
1
10
31.4706182487723
20
1.49738776773918
30
0
0
SPLINE
5
184
100
AcDbEntity
8
1
62
256
6
ByLayer
370
18
48
1
60
0
100
AcDbSpline
70
4
71
3
72
22
73
18
40
0
40
0
40
0
40
0
40
0.125
40
0.125
40
0.25
40
0.25
40
0.375
40
0.375
40
0.5
40
0.5
40
0.625
40
0.625
40
0.75
40
0.75
40
0.875
40
0.875
40
1
40
1
40
1
40
1
41
1
10
31.250291989486
20
1.24692814138416
30
0
41
1
10
31.2468384142331
20
1.24165270169479
30
0
41
1
10
31.2428154200736
20
1.23707297283695
30
0
41
1
10
31.2338402255163
20
1.22903612130102
30
0
41
1
10
31.2288301633666
20
1.22556112874992
30
0
41
1
10
31.2182388030727
20
1.21989523750059
30
0
41
1
10
31.2126524567076
20
1.21768072178594
30
0
41
1
10
31.200912022665
20
1.2144869565289
30
0
41
1
10
31.1947903964198
20
1.21353175504208
30
0
41
1
10
31.182444132831
20
1.21301711942453
30
0
41
1
10
31.1761662231141
20
1.21343744932054
30
0
41
1
10
31.163385797618
20
1.215897978898
30
0
41
1
10
31.1570386927247
20
1.21791794787421
30
0
41
1
10
31.1447525969232
20
1.22375107814724
30
0
41
1
10
31.138755936589
20
1.22761932858407
30
0
41
1
10
31.1280018560194
20
1.23716176369393
30
0
41
1
10
31.1231379165614
20
1.24293924605877
30
0
41
1
10
31.1192883643423
20
1.24949809858504
30
0
0
SPLINE
5
185
100
AcDbEntity
8
1
62
256
6
ByLayer
370
18
48
1
60
0
100
AcDbSpline
70
4
71
3
72
8
73
4
40
0
40
0
40
0
40
0
40
1
40
1
40
1
40
1
41
1
10
30.8443016637409
20
0.399890791944216
30
0
41
1
10
30.8927346124162
20
0.410402380548447
30
0
41
1
10
30.9408655663922
20
0.414593302697909
30
0
41
1
10
30.9885052127004
20
0.412441019730068
30
0
0
SPLINE
5
186
100
AcDbEntity
8
1
62
256
6
ByLayer
370
13
48
1
60
0
100
AcDbSpline
70
4
71
3
72
9
73
5
40
0
40
0
40
0
40
0
40
0.619206404836396
40
1
40
1
40
1
40
1
41
1
10
30.8443016637409
20
0.399890791944216
30
0
41
1
10
30.8561798058407
20
0.223166263771049
30
0
41
1
10
30.8753626501576
20
-0.0841727927735292
30
0
41
1
10
30.8945454893081
20
-0.377835087281
30
0
41
1
10
30.9018501922948
20
-0.483604445724552
30
0
0
SPLINE
5
187
100
AcDbEntity
8
1
62
256
6
ByLayer
370
18
48
1
60
0
100
AcDbSpline
70
4
71
3
72
10
73
6
40
0
40
0
40
0
40
0
40
0.5
40
0.5
40
1
40
1
40
1
40
1
41
1
10
31.0586594449019
20
-0.75910923000805
30
0
41
1
10
31.0328098887132
20
-0.711311251517316
30
0
41
1
10
31.0068036021069
20
-0.664376482992282
30
0
41
1
10
30.9545122876832
20
-0.572446961681578
30
0
41
1
10
30.9282599535836
20
-0.52749842218546
30
0
41
1
10
30.9018501922948
20
-0.483604445724524
30
0
0
SPLINE
5
188
100
AcDbEntity
8
1
62
256
6
ByLayer
370
18
48
1
60
0
100
AcDbSpline
70
4
71
3
72
8
73
4
40
0
40
0
40
0
40
0
40
1
40
1
40
1
40
1
41
1
10
31.2935605405593
20
-0.716734037667123
30
0
41
1
10
31.2412847179266
20
-0.759068497286165
30
0
41
1
10
31.1891931986415
20
-0.794232141695431
30
0
41
1
10
31.1376160816025
20
-0.822451386164914
30
0
0
SPLINE
5
189
100
AcDbEntity
8
1
62
256
6
ByLayer
370
13
48
1
60
0
100
AcDbSpline
70
4
71
3
72
9
73
5
40
0
40
0
40
0
40
0
40
0.687009462363886
40
1
40
1
40
1
40
1
41
1
10
31.2359799162218
20
0.140364889204079
30
0
41
1
10
31.2491660425641
20
-0.0653096926612591
30
0
41
1
10
31.2683595683732
20
-0.373370728173512
30
0
41
1
10
31.287553136357
20
-0.639499488106139
30
0
41
1
10
31.2935605405593
20
-0.716734037667123
30
0
0
SPLINE
5
18A
100
AcDbEntity
8
1
62
256
6
ByLayer
370
18
48
1
60
0
100
AcDbSpline
70
4
71
3
72
10
73
6
40
0
40
0
40
0
40
0
40
0.5
40
0.5
40
1
40
1
40
1
40
1
41
1
10
31.0782732380051
20
0.346764397776269
30
0
41
1
10
31.1042438940897
20
0.309452577607431
30
0
41
1
10
31.130369441431
20
0.273485603954327
30
0
41
1
10
31.1829448569641
20
0.204548974796978
30
0
41
1
10
31.209359504016
20
0.171621355507625
30
0
41
1
10
31.2359799162218
20
0.140364889204079
30
0
0
SPLINE
5
18B
100
AcDbEntity
8
1
62
256
6
ByLayer
370
18
48
1
60
0
100
AcDbSpline
70
4
71
3
72
22
73
18
40
0
40
0
40
0
40
0
40
0.25
40
0.25
40
0.3125
40
0.3125
40
0.375000000000001
40
0.375000000000001
40
0.500000000000001
40
0.500000000000001
40
0.750000000000002
40
0.750000000000002
40
0.812500000000001
40
0.812500000000001
40
0.875000000000001
40
0.875000000000001
40
1
40
1
40
1
40
1
41
1
10
30.9885052127004
20
0.412441019730039
30
0
41
1
10
30.9944442452465
20
0.315493495001931
30
0
41
1
10
31.0002900355306
20
0.21676558378482
30
0
41
1
10
31.0075552253272
20
0.0911529733255065
30
0
41
1
10
31.0090075006641
20
0.0659193717004598
30
0
41
1
10
31.0119179193202
20
0.0152267338466459
30
0
41
1
10
31.0133800220209
20
-0.0103014256275173
30
0
41
1
10
31.0177464117137
20
-0.0864730471720634
30
0
41
1
10
31.0206379384129
20
-0.136832463761351
30
0
41
1
10
31.0293954809995
20
-0.286677474953592
30
0
41
1
10
31.0353055326635
20
-0.384943829972031
30
0
41
1
10
31.0426824786828
20
-0.505673670200707
30
0
41
1
10
31.044156745544
20
-0.529680501210919
30
0
41
1
10
31.0470830099035
20
-0.577039469094501
30
0
41
1
10
31.0485382660677
20
-0.600445021219798
30
0
41
1
10
31.05288869041
20
-0.669845305451474
30
0
41
1
10
31.0557674311623
20
-0.715025732872874
30
0
41
1
10
31.0586594449018
20
-0.75910923000805
30
0
0
SPLINE
5
18C
100
AcDbEntity
8
1
62
256
6
ByLayer
370
18
48
1
60
0
100
AcDbSpline
70
4
71
3
72
8
73
4
40
0
40
0
40
0
40
0
40
1
40
1
40
1
40
1
41
1
10
31.1376160816026
20
-0.822451386164602
30
0
41
1
10
31.1113157836943
20
-0.801417389547908
30
0
41
1
10
31.0850039906902
20
-0.780294517412671
30
0
41
1
10
31.0586594449021
20
-0.759109230008079
30
0
0
SPLINE
5
18D
100
AcDbEntity
8
1
62
256
6
ByLayer
370
18
48
1
60
0
100
AcDbSpline
70
4
71
3
72
8
73
4
40
0
40
0
40
0
40
0
40
1
40
1
40
1
40
1
41
1
10
31.6043914225627
20
-1.13952476692003
30
0
41
1
10
31.6178313793833
20
-1.14705522132041
30
0
41
1
10
31.6312653382522
20
-1.15450089262293
30
0
41
1
10
31.6446750403239
20
-1.16187531004172
30
0
0
SPLINE
5
18E
100
AcDbEntity
8
1
62
256
6
ByLayer
370
18
48
1
60
0
100
AcDbSpline
70
4
71
3
72
10
73
6
40
0
40
0
40
0
40
0
40
0.5
40
0.5
40
1
40
1
40
1
40
1
41
1
10
31.4304305174333
20
1.50491561925426
30
0
41
1
10
31.4007368230762
20
1.46539056682178
30
0
41
1
10
31.3709013564578
20
1.4241051122963
30
0
41
1
10
31.3108174099465
20
1.33800142466987
30
0
41
1
10
31.2806565933106
20
1.29331098363872
30
0
41
1
10
31.250291989486
20
1.24692814138416
30
0
0
SPLINE
5
18F
100
AcDbEntity
8
1
62
256
6
ByLayer
370
13
48
1
60
0
100
AcDbSpline
70
4
71
3
72
9
73
5
40
0
40
0
40
0
40
0
40
0.288565960091676
40
1
40
1
40
1
40
1
41
1
10
34.38077203722
20
-1.23794400564262
30
0
41
1
10
34.3799035591763
20
-1.23980093234042
30
0
41
1
10
34.3768939203941
20
-1.24546692201
30
0
41
1
10
34.3738842629894
20
-1.24844551966299
30
0
41
1
10
34.3717430880995
20
-1.24920875073568
30
0
0
SPLINE
5
190
100
AcDbEntity
8
1
62
256
6
ByLayer
370
18
48
1
60
0
100
AcDbSpline
70
4
71
3
72
10
73
6
40
0
40
0
40
0
40
0
40
0.052353559168565
40
0.052353559168565
40
1
40
1
40
1
40
1
41
1
10
31.4131992829151
20
1.54034755311562
30
0
41
1
10
31.4135031942152
20
1.54035022102787
30
0
41
1
10
31.4138069981984
20
1.54031992447327
30
0
41
1
10
31.4196073946939
20
1.53911445156785
30
0
41
1
10
31.4250390248749
20
1.52732449008821
30
0
41
1
10
31.4304305174456
20
1.50491561927595
30
0
0
SPLINE
5
191
100
AcDbEntity
8
1
62
256
6
ByLayer
370
18
48
1
60
0
100
AcDbSpline
70
4
71
3
72
10
73
6
40
0
40
0
40
0
40
0
40
0.866921353367948
40
0.866921353367948
40
1
40
1
40
1
40
1
41
1
10
31.4706182487725
20
1.4973877677389
30
0
41
1
10
31.4652514201942
20
1.52193097419456
30
0
41
1
10
31.4597633696885
20
1.53612330859187
30
0
41
1
10
31.4533874308831
20
1.54007076971962
30
0
41
1
10
31.4525421554162
20
1.54033734516693
30
0
41
1
10
31.4516999203347
20
1.54034795289516
30
0
0
SPLINE
5
192
100
AcDbEntity
8
1
62
256
6
ByLayer
370
18
48
1
60
0
100
AcDbSpline
70
4
71
3
72
19
73
15
40
0
40
0
40
0
40
0
40
0.077394492693996
40
0.077394492693996
40
0.179906215727996
40
0.179906215727996
40
0.384929661795998
40
0.384929661795998
40
0.589953107863999
40
0.794976553932
40
0.794976553932
40
0.897488276966
40
0.897488276966
40
1
40
1
40
1
40
1
41
1
10
31.9133070488179
20
1.54034706893506
30
0
41
1
10
31.9143240154737
20
1.54032891804383
30
0
41
1
10
31.9153409035177
20
1.53992912059417
30
0
41
1
10
31.917707933558
20
1.5381023985787
30
0
41
1
10
31.9190616973596
20
1.53637948101439
30
0
41
1
10
31.9231266688198
20
1.52916341735195
30
0
41
1
10
31.9258168639297
20
1.52168281067225
30
0
41
1
10
31.9312491021024
20
1.50156201677069
30
0
41
1
10
31.9367259291052
20
1.47628078920661
30
0
41
1
10
31.9422137889815
20
1.44070581926451
30
0
41
1
10
31.9463302964017
20
1.4100523491708
30
0
41
1
10
31.9477054842464
20
1.3991458114001
30
0
41
1
10
31.95042909206
20
1.37624016571184
30
0
41
1
10
31.9517808667422
20
1.36421867813354
30
0
41
1
10
31.9531253574696
20
1.35163863711179
30
0
0
SPLINE
5
193
100
AcDbEntity
8
1
62
256
6
ByLayer
370
18
48
1
60
0
100
AcDbSpline
70
4
71
3
72
19
73
15
40
0
40
0
40
0
40
0
40
0.0979804776709905
40
0.0979804776709905
40
0.195960955341981
40
0.195960955341981
40
0.391921910683961
40
0.58788286602594
40
0.58788286602594
40
0.685863343696929
40
0.685863343696929
40
0.783843821367919
40
0.783843821367919
40
1
40
1
40
1
40
1
41
1
10
31.9933011122802
20
1.3351062105186
30
0
41
1
10
31.9919506511822
20
1.3482884753472
30
0
41
1
10
31.9905906387829
20
1.3609333259555
30
0
41
1
10
31.9878715995483
20
1.38485255110996
30
0
41
1
10
31.9865076032662
20
1.39616673303985
30
0
41
1
10
31.9824097950492
20
1.42820587913826
30
0
41
1
10
31.9769339933729
20
1.46585870531402
30
0
41
1
10
31.9714836055214
20
1.4934848097526
30
0
41
1
10
31.9673983692965
20
1.51036453728258
30
0
41
1
10
31.9660359542854
20
1.5153525042256
30
0
41
1
10
31.9633102251066
20
1.52400598628512
30
0
41
1
10
31.9619571448437
20
1.52763975321992
30
0
41
1
10
31.9576390108057
20
1.5371162230916
30
0
41
1
10
31.9546940805669
20
1.54036863528347
30
0
41
1
10
31.9517317028825
20
1.54036797320185
30
0
0
SPLINE
5
194
100
AcDbEntity
8
1
62
256
6
ByLayer
370
18
48
1
60
0
100
AcDbSpline
70
4
71
3
72
24
73
20
40
0
40
0
40
0
40
0
40
0.0004807873989864
40
0.0004807873989864
40
0.0718750168704873
40
0.0718750168704873
40
0.143269246341988
40
0.143269246341988
40
0.286057705284991
40
0.286057705284991
40
0.428846164227993
40
0.428846164227993
40
0.500240393699494
40
0.500240393699494
40
0.571634623170995
40
0.571634623170995
40
0.714423082113997
40
0.714423082113997
40
1
40
1
40
1
40
1
41
1
10
33.2046771856524
20
-1.53923305872146
30
0
41
1
10
33.2046680638387
20
-1.53923981337314
30
0
41
1
10
33.204658941993
20
-1.53924653756525
30
0
41
1
10
33.2032952724073
20
-1.54024721262977
30
0
41
1
10
33.2019361967614
20
-1.54056663014884
30
0
41
1
10
33.1992262235786
20
-1.53983379872213
30
0
41
1
10
33.197878369343
20
-1.53878652884606
30
0
41
1
10
33.193841906276
20
-1.53364338543415
30
0
41
1
10
33.1911597783467
20
-1.5275512596242
30
0
41
1
10
33.1857278351706
20
-1.51013033038953
30
0
41
1
10
33.1829865579389
20
-1.49880152157641
30
0
41
1
10
33.1788620952212
20
-1.47782384094364
30
0
41
1
10
33.1774849286033
20
-1.47016592159571
30
0
41
1
10
33.1747269122402
20
-1.45349364397629
30
0
41
1
10
33.1733450741169
20
-1.44446777511246
30
0
41
1
10
33.1692400519173
20
-1.41566357244665
30
0
41
1
10
33.1665423850126
20
-1.39407354005709
30
0
41
1
10
33.1585088236243
20
-1.32232827584801
30
0
41
1
10
33.1532402620347
20
-1.26524647968631
30
0
41
1
10
33.1477376105951
20
-1.19860451577699
30
0
0
SPLINE
5
195
100
AcDbEntity
8
1
62
256
6
ByLayer
370
18
48
1
60
0
100
AcDbSpline
70
4
71
3
72
18
73
14
40
0
40
0
40
0
40
0
40
0.292313086597705
40
0.292313086597705
40
0.365391358247132
40
0.365391358247132
40
0.438469629896558
40
0.438469629896558
40
0.584626173195411
40
0.584626173195411
40
0.876939259793116
40
0.876939259793116
40
1
40
1
40
1
40
1
41
1
10
33.1075721703459
20
-1.17719997500782
30
0
41
1
10
33.1130103634741
20
-1.24512608162397
30
0
41
1
10
33.1182913041779
20
-1.30412581571167
30
0
41
1
10
33.1249893416176
20
-1.3667612083274
30
0
41
1
10
33.1263350690928
20
-1.37872713959328
30
0
41
1
10
33.129051421471
20
-1.4015154957325
30
0
41
1
10
33.1304259778179
20
-1.41235192568141
30
0
41
1
10
33.1345445064362
20
-1.44277202187669
30
0
41
1
10
33.1372927903955
20
-1.46039842566171
30
0
41
1
10
33.1455035917104
20
-1.50553350624287
30
0
41
1
10
33.1509144464342
20
-1.52538000052201
30
0
41
1
10
33.1586467727148
20
-1.53843558918538
30
0
41
1
10
33.1609157389853
20
-1.54034446787071
30
0
41
1
10
33.1631815409668
20
-1.54034783862284
30
0
0
SPLINE
5
196
100
AcDbEntity
8
1
62
256
6
ByLayer
370
13
48
1
60
0
100
AcDbSpline
70
4
71
3
72
10
73
6
40
0
40
0
40
0
40
0
40
0.121066092727159
40
0.814680116931075
40
1
40
1
40
1
40
1
41
1
10
32.6296479716019
20
1.24024958280674
30
0
41
1
10
32.6319771110809
20
1.23583640516856
30
0
41
1
10
32.6476503728305
20
1.19538192171893
30
0
41
1
10
32.6668886159763
20
1.05654060391666
30
0
41
1
10
32.6837979892966
20
0.869173590218736
30
0
41
1
10
32.6873632717142
20
0.827182396468174
30
0
0
SPLINE
5
197
100
AcDbEntity
8
1
62
256
6
ByLayer
370
18
48
1
60
0
100
AcDbSpline
70
4
71
3
72
22
73
18
40
0
40
0
40
0
40
0
40
0.218288006882754
40
0.218288006882754
40
0.283430672975858
40
0.283430672975858
40
0.348573339068962
40
0.348573339068962
40
0.47885867125517
40
0.47885867125517
40
0.609144003441378
40
0.609144003441378
40
0.674286669534482
40
0.674286669534482
40
0.739429335627586
40
0.739429335627586
40
1
40
1
40
1
40
1
41
1
10
32.4131025105247
20
1.54035380437145
30
0
41
1
10
32.4176659489263
20
1.54040006211906
30
0
41
1
10
32.4222453187392
20
1.53295593088595
30
0
41
1
10
32.4281760685554
20
1.5134733286105
30
0
41
1
10
32.4295406513642
20
1.50831033912579
30
0
41
1
10
32.432269244451
20
1.4966153241088
30
0
41
1
10
32.4336238397201
20
1.49012499411427
30
0
41
1
10
32.4376682013108
20
1.46876708403923
30
0
41
1
10
32.4403377135226
20
1.45201738576054
30
0
41
1
10
32.4456951602464
20
1.41359372873848
30
0
41
1
10
32.4483885042877
20
1.39191978190178
30
0
41
1
10
32.4524963949856
20
1.35567335700273
30
0
41
1
10
32.4538742727332
20
1.34296738278519
30
0
41
1
10
32.456642500034
20
1.31628531467061
30
0
41
1
10
32.458036347705
20
1.30227033030593
30
0
41
1
10
32.4649569755987
20
1.2297278730492
30
0
41
1
10
32.4703560230819
20
1.16354361601245
30
0
41
1
10
32.4757143844181
20
1.08942352984562
30
0
0
SPLINE
5
198
100
AcDbEntity
8
1
62
256
6
ByLayer
370
18
48
1
60
0
100
AcDbSpline
70
4
71
3
72
22
73
18
40
0
40
0
40
0
40
0
40
0.124999999999999
40
0.124999999999999
40
0.187499999999999
40
0.187499999999999
40
0.249999999999999
40
0.249999999999999
40
0.499999999999999
40
0.499999999999999
40
0.562499999999999
40
0.562499999999999
40
0.624999999999999
40
0.624999999999999
40
0.749999999999999
40
0.749999999999999
40
1
40
1
40
1
40
1
41
1
10
32.5159993159502
20
1.06521217096082
30
0
41
1
10
32.5133271679636
20
1.10299969146635
30
0
41
1
10
32.5106482502546
20
1.13895043269568
30
0
41
1
10
32.5065543122568
20
1.19007535612511
30
0
41
1
10
32.5051789387449
20
1.20664931152717
30
0
41
1
10
32.5024118164464
20
1.23884331068828
30
0
41
1
10
32.501021359755
20
1.2544444604151
30
0
41
1
10
32.4941168027691
20
1.3291701725752
30
0
41
1
10
32.4887036508321
20
1.37930180343284
30
0
41
1
10
32.481984352607
20
1.43012018046338
30
0
41
1
10
32.4806415148731
20
1.43968569685992
30
0
41
1
10
32.4779501144519
20
1.45760211254591
30
0
41
1
10
32.4765992771966
20
1.4659658855764
30
0
41
1
10
32.4725380088938
20
1.48910716087494
30
0
41
1
10
32.4698433992885
20
1.50179324969
30
0
41
1
10
32.4616817836967
20
1.53190520358305
30
0
41
1
10
32.4561994106075
20
1.54146757815235
30
0
41
1
10
32.450727585705
20
1.54024458837495
30
0
0
SPLINE
5
199
100
AcDbEntity
8
1
62
256
6
ByLayer
370
18
48
1
60
0
100
AcDbSpline
70
4
71
3
72
8
73
4
40
0
40
0
40
0
40
0
40
1
40
1
40
1
40
1
41
1
10
20.8323063680356
20
1.13500002623474
30
0
41
1
10
20.8494896212495
20
1.13500061705966
30
0
41
1
10
20.8666708639803
20
1.13475829619605
30
0
41
1
10
20.8838545054696
20
1.13427209837528
30
0
0
SPLINE
5
19A
100
AcDbEntity
8
1
62
256
6
ByLayer
370
18
48
1
60
0
100
AcDbSpline
70
4
71
3
72
51
73
47
40
0
40
0
40
0
40
0
40
0.0448728639048872
40
0.0448728639048872
40
0.16558013397728
40
0.16558013397728
40
0.286287404049672
40
0.286287404049672
40
0.31646422156777
40
0.31646422156777
40
0.346641039085868
40
0.346641039085868
40
0.406994674122064
40
0.406994674122064
40
0.467348309158261
40
0.467348309158261
40
0.527701944194457
40
0.527701944194457
40
0.542790352953503
40
0.542790352953503
40
0.55787876171255
40
0.588055579230653
40
0.588055579230653
40
0.618232396748756
40
0.618232396748756
40
0.648409214266859
40
0.648409214266859
40
0.769116484339302
40
0.769116484339302
40
0.829470119375518
40
0.829470119375518
40
0.859646936893622
40
0.859646936893622
40
0.889823754411726
40
0.889823754411726
40
0.920000571929829
40
0.920000571929829
40
0.950177389447933
40
0.950177389447933
40
0.965265798206988
40
0.965265798206988
40
0.980354206966044
40
0.980354206966044
40
0.995442615725099
40
0.995442615725099
40
1
40
1
40
1
40
1
41
1
10
21.5844957439006
20
-1.13498728168045
30
0
41
1
10
21.5586796064663
20
-1.13491086941508
30
0
41
1
10
21.5326886766571
20
-1.13449005292483
30
0
41
1
10
21.4360392289797
20
-1.13185745639996
30
0
41
1
10
21.3641139368779
20
-1.1278135871284
30
0
41
1
10
21.216363571666
20
-1.11776996829636
30
0
41
1
10
21.1405691561321
20
-1.11176851999525
30
0
41
1
10
21.0428150412414
20
-1.1045791699531
30
0
41
1
10
21.0231127216561
20
-1.10315742709432
30
0
41
1
10
20.9833848223614
20
-1.10038689638157
30
0
41
1
10
20.9633120294809
20
-1.09903520668527
30
0
41
1
10
20.9030260668893
20
-1.09518062742157
30
0
41
1
10
20.8627173992765
20
-1.09287962960005
30
0
41
1
10
20.7818488473839
20
-1.08907794039322
30
0
41
1
10
20.7412900677883
20
-1.08757306168465
30
0
41
1
10
20.6598743578101
20
-1.08568071282323
30
0
41
1
10
20.6190177916808
20
-1.08529408868373
30
0
41
1
10
20.56772170185
20
-1.0856861936285
30
0
41
1
10
20.5574507817129
20
-1.0858096649765
30
0
41
1
10
20.5369007303535
20
-1.08608755636763
30
0
41
1
10
20.5060579018865
20
-1.0865717644453
30
0
41
1
10
20.4751618755053
20
-1.0872552021751
30
0
41
1
10
20.4339199491673
20
-1.08833577846215
30
0
41
1
10
20.4132686545317
20
-1.08896126484896
30
0
41
1
10
20.3721889854446
20
-1.09036055522759
30
0
41
1
10
20.3517266361594
20
-1.09113512979215
30
0
41
1
10
20.2497917657115
20
-1.09534000117873
30
0
41
1
10
20.1695017089635
20
-1.09989029184445
30
0
41
1
10
20.051787469978
20
-1.10808097983127
30
0
41
1
10
20.013003823872
20
-1.11103145075526
30
0
41
1
10
19.9557534357616
20
-1.11565006987132
30
0
41
1
10
19.9368256114928
20
-1.1172210342568
30
0
41
1
10
19.8993537799861
20
-1.12038554733286
30
0
41
1
10
19.8810025943902
20
-1.12196390474193
30
0
41
1
10
19.8452639314831
20
-1.12503106646739
30
0
41
1
10
19.8278675929165
20
-1.1265216977219
30
0
41
1
10
19.7942175040736
20
-1.12930447568053
30
0
41
1
10
19.77770932841
20
-1.13056443243053
30
0
41
1
10
19.755182740422
20
-1.132227540553
30
0
41
1
10
19.7480465274996
20
-1.13274413474298
30
0
41
1
10
19.7349067842808
20
-1.13366881707191
30
0
41
1
10
19.7289791753172
20
-1.13406819189424
30
0
41
1
10
19.7187221222323
20
-1.13467250810623
30
0
41
1
10
19.7143573807459
20
-1.13488003139511
30
0
41
1
10
19.7097395293126
20
-1.13498626108424
30
0
41
1
10
19.7087493373384
20
-1.13499908230918
30
0
41
1
10
19.7078397467798
20
-1.13499972497795
30
0
0
SPLINE
5
19B
100
AcDbEntity
8
1
62
256
6
ByLayer
370
18
48
1
60
0
100
AcDbSpline
70
4
71
3
72
22
73
18
40
0
40
0
40
0
40
0
40
0.250000000000002
40
0.250000000000002
40
0.375000000000003
40
0.375000000000003
40
0.437500000000003
40
0.437500000000003
40
0.500000000000003
40
0.500000000000003
40
0.750000000000002
40
0.750000000000002
40
0.812500000000001
40
0.812500000000001
40
0.875000000000001
40
0.875000000000001
40
1
40
1
40
1
40
1
41
1
10
32.6900721776847
20
-1.52409509032191
30
0
41
1
10
32.6845897706206
20
-1.50874476197671
30
0
41
1
10
32.6792839185059
20
-1.48294578069843
30
0
41
1
10
32.6712365860586
20
-1.4291363056719
30
0
41
1
10
32.6685277566825
20
-1.40866167789832
30
0
41
1
10
32.6643918751297
20
-1.37403179111729
30
0
41
1
10
32.6630012962677
20
-1.36180857291345
30
0
41
1
10
32.6602365902128
20
-1.3363208168926
30
0
41
1
10
32.6588589571712
20
-1.3230290347185
30
0
41
1
10
32.6519992776633
20
-1.25387862398253
30
0
41
1
10
32.6466244815765
20
-1.19002797769346
30
0
41
1
10
32.6399072653157
20
-1.09947248516963
30
0
41
1
10
32.6385625040082
20
-1.08081910432077
30
0
41
1
10
32.6358610511949
20
-1.04240428734269
30
0
41
1
10
32.634513547941
20
-1.02277320892281
30
0
41
1
10
32.6304754245553
20
-0.962801358723965
30
0
41
1
10
32.627774952358
20
-0.921313867607211
30
0
41
1
10
32.625052589017
20
-0.878352569817821
30
0
0
SPLINE
5
19C
100
AcDbEntity
8
1
62
256
6
ByLayer
370
18
48
1
60
0
100
AcDbSpline
70
4
71
3
72
26
73
22
40
0
40
0
40
0
40
0
40
0.0624999999999996
40
0.0624999999999996
40
0.124999999999999
40
0.124999999999999
40
0.249999999999999
40
0.374999999999998
40
0.374999999999998
40
0.499999999999998
40
0.499999999999998
40
0.562499999999999
40
0.562499999999999
40
0.624999999999999
40
0.624999999999999
40
0.749999999999999
40
0.875
40
0.875
40
0.9375
40
0.9375
40
1
40
1
40
1
40
1
41
1
10
32.5846944201542
20
-0.850372263372151
30
0
41
1
10
32.5860542990804
20
-0.872224641803911
30
0
41
1
10
32.5874132569472
20
-0.893751750860929
30
0
41
1
10
32.5901320278955
20
-0.936144818841285
30
0
41
1
10
32.5914954483827
20
-0.957064873581373
30
0
41
1
10
32.5955670416468
20
-1.01839673725115
30
0
41
1
10
32.6009225026475
20
-1.09606111746262
30
0
41
1
10
32.6062624201873
20
-1.16575891965067
30
0
41
1
10
32.6116851223174
20
-1.23147495363827
30
0
41
1
10
32.6144344685719
20
-1.26234258563898
30
0
41
1
10
32.6185875797758
20
-1.30556789689484
30
0
41
1
10
32.6199779768345
20
-1.31946766625069
30
0
41
1
10
32.6227352211064
20
-1.34591690455176
30
0
41
1
10
32.6241060782208
20
-1.3585094402396
30
0
41
1
10
32.628196661744
20
-1.3944228347066
30
0
41
1
10
32.6335900705856
20
-1.43734563972433
30
0
41
1
10
32.6389262021745
20
-1.47044684581778
30
0
41
1
10
32.6429563934271
20
-1.49151207970817
30
0
41
1
10
32.6443051851919
20
-1.49790764054583
30
0
41
1
10
32.647022751911
20
-1.50940691903998
30
0
41
1
10
32.6483810137235
20
-1.51446429558891
30
0
41
1
10
32.6497436499276
20
-1.51884450300258
30
0
0
SPLINE
5
19D
100
AcDbEntity
8
1
62
256
6
ByLayer
370
13
48
1
60
0
100
AcDbSpline
70
4
71
3
72
10
73
6
40
0
40
0
40
0
40
0
40
0.0147305077510867
40
0.708564250835178
40
1
40
1
40
1
40
1
41
1
10
32.7606020460372
20
1.22628460485117
30
0
41
1
10
32.7608853489795
20
1.22543127522562
30
0
41
1
10
32.7745127368152
20
1.18324298228734
30
0
41
1
10
32.7937451564964
20
1.04616694139463
30
0
41
1
10
32.8126942393481
20
0.828522183497313
30
0
41
1
10
32.8182992434636
20
0.758548770781886
30
0
0
SPLINE
5
19E
100
AcDbEntity
8
1
62
256
6
ByLayer
370
18
48
1
60
0
100
AcDbSpline
70
4
71
3
72
23
73
19
40
0
40
0
40
0
40
0
40
0.125
40
0.125
40
0.250000000000001
40
0.250000000000001
40
0.500000000000002
40
0.500000000000002
40
0.562500000000002
40
0.562500000000002
40
0.625000000000002
40
0.625000000000002
40
0.750000000000001
40
0.875
40
0.875
40
0.9375
40
0.9375
40
1
40
1
40
1
40
1
41
1
10
32.9332889843045
20
1.49191434206756
30
0
41
1
10
32.9360073695417
20
1.47887986148848
30
0
41
1
10
32.9387461640544
20
1.46322050700436
30
0
41
1
10
32.9442498522786
20
1.42645906952609
30
0
41
1
10
32.9469679485326
20
1.40566788357435
30
0
41
1
10
32.955044871552
20
1.33636512788104
30
0
41
1
10
32.9603134528636
20
1.28097469745893
30
0
41
1
10
32.9670877345465
20
1.20001129367552
30
0
41
1
10
32.9684575726222
20
1.18317562018703
30
0
41
1
10
32.9712044229326
20
1.14862721298968
30
0
41
1
10
32.9725810922043
20
1.13090533020323
30
0
41
1
10
32.9767114855838
20
1.07642179312441
30
0
41
1
10
32.9822175759898
20
1.00026938090832
30
0
41
1
10
32.9876748512901
20
0.917199817935796
30
0
41
1
10
32.991758526368
20
0.85225983351134
30
0
41
1
10
32.9931184818155
20
0.830172702125367
30
0
41
1
10
32.995840890498
20
0.785099555521043
30
0
41
1
10
32.9972002766624
20
0.762162093677318
30
0
41
1
10
32.9985492515285
20
0.739035469439727
30
0
0
SPLINE
5
19F
100
AcDbEntity
8
1
62
256
6
ByLayer
370
18
48
1
60
0
100
AcDbSpline
70
4
71
3
72
24
73
20
40
0
40
0
40
0
40
0
40
0.124999999999999
40
0.124999999999999
40
0.249999999999999
40
0.249999999999999
40
0.374999999999998
40
0.374999999999998
40
0.437499999999998
40
0.437499999999998
40
0.499999999999997
40
0.499999999999997
40
0.749999999999999
40
0.749999999999999
40
0.812499999999999
40
0.812499999999999
40
0.874999999999999
40
0.874999999999999
40
1
40
1
40
1
40
1
41
1
10
33.038618955803
20
0.709240531166756
30
0
41
1
10
33.0359139542687
20
0.756209891136194
30
0
41
1
10
33.0332303796661
20
0.801566270958944
30
0
41
1
10
33.0278179633296
20
0.889144954668325
30
0
41
1
10
33.0250816381863
20
0.931366759525332
30
0
41
1
10
33.019586303117
20
1.01267293020709
30
0
41
1
10
33.0168285980882
20
1.05175762011478
30
0
41
1
10
33.0126851708608
20
1.10795358260015
30
0
41
1
10
33.011306150427
20
1.1262288861129
30
0
41
1
10
33.0085741022219
20
1.16156163075937
30
0
41
1
10
33.0072175618927
20
1.17866697649327
30
0
41
1
10
33.0004707983512
20
1.26143200088128
30
0
41
1
10
32.9952087615738
20
1.31889249766024
30
0
41
1
10
32.9884156119817
20
1.37959812421207
30
0
41
1
10
32.9870407625125
20
1.39120374028073
30
0
41
1
10
32.9842857708408
20
1.41314047231768
30
0
41
1
10
32.9829099480964
20
1.42344162439119
30
0
41
1
10
32.9787929244645
20
1.45238449050586
30
0
41
1
10
32.9760632022711
20
1.46907066889079
30
0
41
1
10
32.9733502085762
20
1.48319248964782
30
0
0
SPLINE
5
1A0
100
AcDbEntity
8
1
62
256
6
ByLayer
370
18
48
1
60
0
100
AcDbSpline
70
4
71
3
72
88
73
84
40
0
40
0
40
0
40
0
40
0.0312500000000067
40
0.0312500000000067
40
0.0625000000000134
40
0.0625000000000134
40
0.125000000000031
40
0.125000000000031
40
0.187500000000049
40
0.187500000000049
40
0.203125000000054
40
0.203125000000054
40
0.218750000000058
40
0.218750000000058
40
0.250000000000067
40
0.250000000000067
40
0.281250000000076
40
0.281250000000076
40
0.312500000000085
40
0.312500000000085
40
0.320312500000086
40
0.320312500000086
40
0.328125000000087
40
0.343750000000083
40
0.343750000000083
40
0.35937500000008
40
0.35937500000008
40
0.375000000000077
40
0.375000000000077
40
0.437500000000053
40
0.437500000000053
40
0.468750000000043
40
0.468750000000043
40
0.484375000000039
40
0.484375000000039
40
0.500000000000034
40
0.500000000000034
40
0.515625000000029
40
0.515625000000029
40
0.531250000000024
40
0.531250000000024
40
0.539062500000024
40
0.539062500000024
40
0.546875000000023
40
0.546875000000023
40
0.554687500000023
40
0.554687500000023
40
0.562500000000022
40
0.562500000000022
40
0.570312500000022
40
0.570312500000022
40
0.578125000000021
40
0.578125000000021
40
0.585937500000021
40
0.585937500000021
40
0.59375000000002
40
0.59375000000002
40
0.609375000000019
40
0.609375000000019
40
0.625000000000018
40
0.625000000000018
40
0.632812500000018
40
0.632812500000018
40
0.640625000000017
40
0.656250000000016
40
0.656250000000016
40
0.687500000000015
40
0.687500000000015
40
0.718750000000013
40
0.718750000000013
40
0.734375000000014
40
0.734375000000014
40
0.750000000000015
40
0.750000000000015
40
0.812500000000011
40
0.812500000000011
40
0.875000000000008
40
0.875000000000008
40
0.937500000000004
40
0.937500000000004
40
0.968750000000002
40
0.968750000000002
40
1
40
1
40
1
40
1
41
1
10
21.7140176834906
20
0.496955489783318
30
0
41
1
10
21.6799653191161
20
0.517969341530858
30
0
41
1
10
21.6457180459965
20
0.53819438672312
30
0
41
1
10
21.5765889467171
20
0.576748051475022
30
0
41
1
10
21.5417248330094
20
0.595109979437694
30
0
41
1
10
21.4360392289797
20
0.647321930087855
30
0
41
1
10
21.3641139368779
20
0.678275074561753
30
0
41
1
10
21.2163635716661
20
0.732076908506599
30
0
41
1
10
21.1405691561321
20
0.754979427075483
30
0
41
1
10
21.0428150412414
20
0.778404925395193
30
0
41
1
10
21.0231127216561
20
0.782828500467161
30
0
41
1
10
20.9833848223614
20
0.791139924341309
30
0
41
1
10
20.9633120294809
20
0.795035706124082
30
0
41
1
10
20.9030260668893
20
0.805815035155803
30
0
41
1
10
20.8627173992765
20
0.811797991769282
30
0
41
1
10
20.781848847384
20
0.821371601026385
30
0
41
1
10
20.7412900677884
20
0.824972279452567
30
0
41
1
10
20.6598743578101
20
0.829458291912601
30
0
41
1
10
20.6190177916809
20
0.83034857818879
30
0
41
1
10
20.5677217018501
20
0.829431514055955
30
0
41
1
10
20.5574507817129
20
0.829142408292569
30
0
41
1
10
20.5369007303535
20
0.828489545619846
30
0
41
1
10
20.5060579018866
20
0.827349207025577
30
0
41
1
10
20.4751618755053
20
0.825724272381876
30
0
41
1
10
20.4339199491673
20
0.823121940890786
30
0
41
1
10
20.4132686545317
20
0.821601475479866
30
0
41
1
10
20.3721889854447
20
0.81814334034334
30
0
41
1
10
20.3517266361594
20
0.816203811731157
30
0
41
1
10
20.2497917657116
20
0.805459776525993
30
0
41
1
10
20.1695017089636
20
0.793427078578162
30
0
41
1
10
20.0517874699781
20
0.767100527527447
30
0
41
1
10
20.0130038238721
20
0.756937053760538
30
0
41
1
10
19.9557534357617
20
0.738687364997787
30
0
41
1
10
19.9368256114929
20
0.732097929861283
30
0
41
1
10
19.8993537799861
20
0.717632225240294
30
0
41
1
10
19.8810025943902
20
0.709824037480075
30
0
41
1
10
19.8452639314831
20
0.692842213425905
30
0
41
1
10
19.8278675929166
20
0.683664471752536
30
0
41
1
10
19.7942175040736
20
0.663591284177159
30
0
41
1
10
19.77770932841
20
0.652999388255211
30
0
41
1
10
19.755182740422
20
0.635061020801828
30
0
41
1
10
19.7480465274996
20
0.628722381725851
30
0
41
1
10
19.7349067842808
20
0.614956936473959
30
0
41
1
10
19.7289791753173
20
0.607623319047349
30
0
41
1
10
19.7187221222324
20
0.592220133222582
30
0
41
1
10
19.7143573807459
20
0.584114888999324
30
0
41
1
10
19.7072641542324
20
0.567013850605008
30
0
41
1
10
19.704605899455
20
0.558156267466103
30
0
41
1
10
19.7010338245147
20
0.540180031880254
30
0
41
1
10
19.7000976407573
20
0.531008817835328
30
0
41
1
10
19.6997833477574
20
0.51230949380502
30
0
41
1
10
19.7004118976419
20
0.502917168970129
30
0
41
1
10
19.7029422452833
20
0.484301135496338
30
0
41
1
10
19.7048434278063
20
0.475032002001768
30
0
41
1
10
19.709716035129
20
0.456546923513571
30
0
41
1
10
19.712702527068
20
0.447294123986865
30
0
41
1
10
19.7229396903866
20
0.419856959939637
30
0
41
1
10
19.7313636249486
20
0.402145242759531
30
0
41
1
10
19.7503540035076
20
0.367450008116322
30
0
41
1
10
19.760933771711
20
0.350472031650696
30
0
41
1
10
19.7779962368142
20
0.325383277342098
30
0
41
1
10
19.7838889144372
20
0.317080626483147
30
0
41
1
10
19.7959176237545
20
0.300726185072193
30
0
41
1
10
19.814367127027
20
0.276511955923013
30
0
41
1
10
19.8338482325804
20
0.253094459053358
30
0
41
1
10
19.8738532913321
20
0.207046382892287
30
0
41
1
10
19.9018969655907
20
0.177383039655865
30
0
41
1
10
19.9597493514198
20
0.119313685036872
30
0
41
1
10
19.9895714429937
20
0.0909187823613706
30
0
41
1
10
20.0352591178316
20
0.0489617805520481
30
0
41
1
10
20.050668920537
20
0.0350673588112898
30
0
41
1
10
20.0816105902604
20
0.0075962644857839
30
0
41
1
10
20.0971560134458
20
-0.0059933039833027
30
0
41
1
10
20.1751856014126
20
-0.0733157704016207
30
0
41
1
10
20.2385314125229
20
-0.125239883242784
30
0
41
1
10
20.3660992417842
20
-0.226642135131414
30
0
41
1
10
20.4303347774078
20
-0.276099325966072
30
0
41
1
10
20.5592803071199
20
-0.373103884109412
30
0
41
1
10
20.6240004080894
20
-0.420636459566964
30
0
41
1
10
20.7215046178188
20
-0.490393114857341
30
0
41
1
10
20.7540274932592
20
-0.513346383917423
30
0
41
1
10
20.8189578665285
20
-0.55844106650801
30
0
41
1
10
20.8514019081538
20
-0.580599559155303
30
0
41
1
10
20.8838545054696
20
-0.60233342317332
30
0
0
SPLINE
5
1A1
100
AcDbEntity
8
1
62
256
6
ByLayer
370
18
48
1
60
0
100
AcDbSpline
70
4
71
3
72
24
73
20
40
0
40
0
40
0
40
0
40
0.0625000000000012
40
0.0625000000000012
40
0.125000000000002
40
0.250000000000003
40
0.375000000000004
40
0.375000000000004
40
0.437500000000003
40
0.437500000000003
40
0.500000000000003
40
0.500000000000003
40
0.750000000000001
40
0.750000000000001
40
0.875
40
0.875
40
0.9375
40
0.9375
40
1
40
1
40
1
40
1
41
1
10
34.7419820464399
20
0.355824501772133
30
0
41
1
10
34.7407685421429
20
0.339346625303051
30
0
41
1
10
34.739574584958
20
0.322661510198486
30
0
41
1
10
34.7372461377882
20
0.289226600002081
30
0
41
1
10
34.7338333972805
20
0.238848761830752
30
0
41
1
10
34.7285128827756
20
0.153783128864404
30
0
41
1
10
34.724623723848
20
0.0845717059224569
30
0
41
1
10
34.7218505637919
20
0.0322214157573342
30
0
41
1
10
34.7209502766011
20
0.014697560531971
30
0
41
1
10
34.7192005570219
20
-0.020500560614181
30
0
41
1
10
34.7183490397222
20
-0.0382211123540515
30
0
41
1
10
34.7142599743294
20
-0.126502610273803
30
0
41
1
10
34.7115209247085
20
-0.196147170502542
30
0
41
1
10
34.7083102751837
20
-0.299174234612366
30
0
41
1
10
34.7073896258163
20
-0.333275221526009
30
0
41
1
10
34.7062413350532
20
-0.384056142693169
30
0
41
1
10
34.7058973069369
20
-0.400921270972049
30
0
41
1
10
34.705287220732
20
-0.434525365064587
30
0
41
1
10
34.7050226927334
20
-0.451187219158072
30
0
41
1
10
34.7047981319062
20
-0.467627627902516
30
0
0
SPLINE
5
1A2
100
AcDbEntity
8
1
62
256
6
ByLayer
370
18
48
1
60
0
100
AcDbSpline
70
4
71
3
72
21
73
17
40
0
40
0
40
0
40
0
40
0.249999999999997
40
0.249999999999997
40
0.312499999999997
40
0.312499999999997
40
0.374999999999997
40
0.374999999999997
40
0.499999999999996
40
0.499999999999996
40
0.749999999999996
40
0.749999999999996
40
0.812499999999997
40
0.812499999999997
40
0.874999999999997
40
1
40
1
40
1
40
1
41
1
10
34.3620253384295
20
0.642319235259151
30
0
41
1
10
34.3688296657326
20
0.57064708991939
30
0
41
1
10
34.3753535116468
20
0.495505204600164
30
0
41
1
10
34.3833905960261
20
0.397364866878405
30
0
41
1
10
34.3849908558382
20
0.377524450034201
30
0
41
1
10
34.3881804746594
20
0.337414273727973
30
0
41
1
10
34.3897711251025
20
0.317126319929002
30
0
41
1
10
34.3944848837832
20
0.256229408199829
30
0
41
1
10
34.3975656758993
20
0.215390506674595
30
0
41
1
10
34.4066807421077
20
0.0921719023537264
30
0
41
1
10
34.4126074556128
20
0.0090988227977959
30
0
41
1
10
34.4198068941646
20
-0.0959585888858214
30
0
41
1
10
34.421234396895
20
-0.117003047258066
30
0
41
1
10
34.4240428011732
20
-0.158812359397615
30
0
41
1
10
34.4281939807453
20
-0.221251476764337
30
0
41
1
10
34.4321843430151
20
-0.282869025419132
30
0
41
1
10
34.4347790541262
20
-0.323578176696941
30
0
0
SPLINE
5
1A3
100
AcDbEntity
8
1
62
256
6
ByLayer
370
18
48
1
60
0
100
AcDbSpline
70
4
71
3
72
22
73
18
40
0
40
0
40
0
40
0
40
0.124999999999999
40
0.124999999999999
40
0.187499999999999
40
0.187499999999999
40
0.249999999999999
40
0.249999999999999
40
0.499999999999999
40
0.499999999999999
40
0.624999999999999
40
0.624999999999999
40
0.687499999999999
40
0.687499999999999
40
0.749999999999998
40
0.749999999999998
40
1
40
1
40
1
40
1
41
1
10
32.1673697465417
20
-1.39986890071344
30
0
41
1
10
32.164675726001
20
-1.37804554425395
30
0
41
1
10
32.1619999676465
20
-1.3538198243923
30
0
41
1
10
32.157974888966
20
-1.31383484443552
30
0
41
1
10
32.1566310316659
20
-1.2998976299319
30
0
41
1
10
32.1539292432183
20
-1.27078373502402
30
0
41
1
10
32.1525679651497
20
-1.25556654224576
30
0
41
1
10
32.1457693912946
20
-1.17716561624494
30
0
41
1
10
32.1402648413591
20
-1.1067112719461
30
0
41
1
10
32.1320553366263
20
-0.9897245190771
30
0
41
1
10
32.1293256713178
20
-0.948830038196064
30
0
41
1
10
32.1252272932251
20
-0.88454120313537
30
0
41
1
10
32.1238665500251
20
-0.862717031278606
30
0
41
1
10
32.1211659600273
20
-0.81855092330548
30
0
41
1
10
32.119823577562
20
-0.796169370053434
30
0
41
1
10
32.113130951515
20
-0.682792378363132
30
0
41
1
10
32.10779868049
20
-0.58743658684466
30
0
41
1
10
32.1022965826136
20
-0.487352708068187
30
0
0
SPLINE
5
1A4
100
AcDbEntity
8
1
62
256
6
ByLayer
370
18
48
1
60
0
100
AcDbSpline
70
4
71
3
72
22
73
18
40
0
40
0
40
0
40
0
40
0.249999999999999
40
0.249999999999999
40
0.312499999999998
40
0.312499999999998
40
0.374999999999998
40
0.374999999999998
40
0.499999999999998
40
0.499999999999998
40
0.624999999999998
40
0.624999999999998
40
0.687499999999999
40
0.687499999999999
40
0.75
40
0.75
40
1
40
1
40
1
40
1
41
1
10
32.0621864737979
20
-0.455360714695502
30
0
41
1
10
32.067628304561
20
-0.555579147742804
30
0
41
1
10
32.0729649767214
20
-0.651945803788976
30
0
41
1
10
32.0797036408241
20
-0.767486647004631
30
0
41
1
10
32.0810600400356
20
-0.790411540423605
30
0
41
1
10
32.0837702114305
20
-0.835380001995759
30
0
41
1
10
32.0851233292302
20
-0.857415118479082
30
0
41
1
10
32.0891943315735
20
-0.922198717422447
30
0
41
1
10
32.0919338983733
20
-0.963628435886363
30
0
41
1
10
32.0974335614946
20
-1.04302507172957
30
0
41
1
10
32.1001903260678
20
-1.08099211529648
30
0
41
1
10
32.1043225364301
20
-1.13530505480284
30
0
41
1
10
32.1056997217827
20
-1.15296890361199
30
0
41
1
10
32.1084548677058
20
-1.18739795995555
30
0
41
1
10
32.1098317480405
20
-1.20414626822739
30
0
41
1
10
32.116647546673
20
-1.28467617125452
30
0
41
1
10
32.1219253161731
20
-1.33972426423935
30
0
41
1
10
32.1273165385242
20
-1.38556119558831
30
0
0
SPLINE
5
1A5
100
AcDbEntity
8
1
62
256
6
ByLayer
370
18
48
1
60
0
100
AcDbSpline
70
4
71
3
72
26
73
22
40
0
40
0
40
0
40
0
40
0.125
40
0.125
40
0.25
40
0.25
40
0.3125
40
0.3125
40
0.375
40
0.375
40
0.499999999999999
40
0.499999999999999
40
0.624999999999999
40
0.624999999999999
40
0.749999999999999
40
0.749999999999999
40
0.812499999999999
40
0.812499999999999
40
0.874999999999999
40
0.874999999999999
40
1
40
1
40
1
40
1
41
1
10
33.566570233981
20
0.29128623854325
30
0
41
1
10
33.5647801052058
20
0.340228457008266
30
0
41
1
10
33.5630309274422
20
0.388337366433802
30
0
41
1
10
33.5595635826326
20
0.482919383261674
30
0
41
1
10
33.5578466789345
20
0.529392480486337
30
0
41
1
10
33.5553282785008
20
0.597847570443264
30
0
41
1
10
33.5544984052501
20
0.620456274578345
30
0
41
1
10
33.5528635211841
20
0.665242928606688
30
0
41
1
10
33.5520561658275
20
0.687486501470801
30
0
41
1
10
33.5496963325031
20
0.752986973313227
30
0
41
1
10
33.548208625674
20
0.794979443538068
30
0
41
1
10
33.5453821627422
20
0.875682294143076
30
0
41
1
10
33.5440451750356
20
0.914392156667503
30
0
41
1
10
33.5415459319204
20
0.988501781927027
30
0
41
1
10
33.5403947926477
20
1.02388953330293
30
0
41
1
10
33.5386838569047
20
1.07450834247749
30
0
41
1
10
33.5381148327781
20
1.09098020638731
30
0
41
1
10
33.5369694129548
20
1.12280410452834
30
0
41
1
10
33.5363915538506
20
1.13819658760983
30
0
41
1
10
33.5346176023033
20
1.18284614818702
30
0
41
1
10
33.5333826482649
20
1.21058206297536
30
0
41
1
10
33.532099260818
20
1.23626881018364
30
0
0
SPLINE
5
1A6
100
AcDbEntity
8
1
62
256
6
ByLayer
370
18
48
1
60
0
100
AcDbSpline
70
4
71
3
72
23
73
19
40
0
40
0
40
0
40
0
40
0.125000000000001
40
0.250000000000002
40
0.250000000000002
40
0.312500000000003
40
0.312500000000003
40
0.375000000000004
40
0.375000000000004
40
0.500000000000004
40
0.500000000000004
40
0.750000000000003
40
0.750000000000003
40
0.812500000000002
40
0.812500000000002
40
0.875000000000002
40
0.875000000000002
40
1
40
1
40
1
40
1
41
1
10
33.433303957974
20
1.29818644694373
30
0
41
1
10
33.436959232958
20
1.27461904542181
30
0
41
1
10
33.4442760523431
20
1.22345411286003
30
0
41
1
10
33.4516549745958
20
1.16448662388874
30
0
41
1
10
33.4572060049614
20
1.11727924125185
30
0
41
1
10
33.459058907325
20
1.10104492393708
30
0
41
1
10
33.4627656503571
20
1.0675496443321
30
0
41
1
10
33.464624559471
20
1.05023953184769
30
0
41
1
10
33.4701536685465
20
0.997082743904258
30
0
41
1
10
33.4737524670723
20
0.960135856319141
30
0
41
1
10
33.4843407416318
20
0.844854592202807
30
0
41
1
10
33.4911894064019
20
0.762137677472197
30
0
41
1
10
33.4995876259593
20
0.651415931413396
30
0
41
1
10
33.5012634261823
20
0.628847907995578
30
0
41
1
10
33.5045831903507
20
0.58327130773651
30
0
41
1
10
33.5062267555434
20
0.560273176617329
30
0
41
1
10
33.5111197944926
20
0.490660116612474
30
0
41
1
10
33.5143312120142
20
0.443428204010132
30
0
41
1
10
33.5175202312229
20
0.395377145039959
30
0
0
SPLINE
5
1A7
100
AcDbEntity
8
1
62
256
6
ByLayer
370
18
48
1
60
0
100
AcDbSpline
70
4
71
3
72
26
73
22
40
0
40
0
40
0
40
0
40
0.0625000000000002
40
0.0625000000000002
40
0.125
40
0.125
40
0.25
40
0.25
40
0.375
40
0.375
40
0.4375
40
0.4375
40
0.500000000000001
40
0.500000000000001
40
0.750000000000001
40
0.750000000000001
40
0.812500000000001
40
0.812500000000001
40
0.875000000000001
40
0.875000000000001
40
1
40
1
40
1
40
1
41
1
10
31.644675040324
20
-1.16187531004172
30
0
41
1
10
31.6433222739713
20
-1.14457669124602
30
0
41
1
10
31.6419647448986
20
-1.12665447698564
30
0
41
1
10
31.6392676947925
20
-1.09001202492175
30
0
41
1
10
31.6379264485764
20
-1.0712731217468
30
0
41
1
10
31.6339110922892
20
-1.01382718079353
30
0
41
1
10
31.6312461277891
20
-0.973893976199207
30
0
41
1
10
31.6258498280699
20
-0.890804737504453
30
0
41
1
10
31.6231172414099
20
-0.847648850944893
30
0
41
1
10
31.6189955835098
20
-0.780455166589348
30
0
41
1
10
31.6176176659893
20
-0.757646514061776
30
0
41
1
10
31.6148555023431
20
-0.711190569895308
30
0
41
1
10
31.6134751002658
20
-0.687605784127214
30
0
41
1
10
31.6066331351242
20
-0.568904891979628
30
0
41
1
10
31.6013171064293
20
-0.470575118714777
30
0
41
1
10
31.5946351919387
20
-0.343528712166631
30
0
41
1
10
31.5932957051
20
-0.317910771775189
30
0
41
1
10
31.5905994689944
20
-0.26625159881155
30
0
41
1
10
31.5892394235528
20
-0.240149284193933
30
0
41
1
10
31.5851368190748
20
-0.161629112908315
30
0
41
1
10
31.582394256247
20
-0.109338001853132
30
0
41
1
10
31.5796622649484
20
-0.057099801603897
30
0
0
SPLINE
5
1A8
100
AcDbEntity
8
1
62
256
6
ByLayer
370
18
48
1
60
0
100
AcDbSpline
70
4
71
3
72
25
73
21
40
0
40
0
40
0
40
0
40
0.0624999999999995
40
0.0624999999999995
40
0.124999999999999
40
0.124999999999999
40
0.249999999999999
40
0.374999999999999
40
0.374999999999999
40
0.437499999999999
40
0.437499999999999
40
0.499999999999999
40
0.499999999999999
40
0.75
40
0.75
40
0.875
40
0.875
40
0.9375
40
0.9375
40
1
40
1
40
1
40
1
41
1
10
31.5394065243503
20
-0.023370505849357
30
0
41
1
10
31.5407757953718
20
-0.0496401329723426
30
0
41
1
10
31.5421473796018
20
-0.0759785107636901
30
0
41
1
10
31.5448955743699
20
-0.128795829447966
30
0
41
1
10
31.5462605055154
20
-0.155050222255909
30
0
41
1
10
31.5503305181539
20
-0.233330254983542
30
0
41
1
10
31.5556907346928
20
-0.336445029236728
30
0
41
1
10
31.5610090810671
20
-0.437088726466584
30
0
41
1
10
31.565038911778
20
-0.51163211879151
30
0
41
1
10
31.5663892717944
20
-0.536323044972931
30
0
41
1
10
31.5691166241526
20
-0.585385168685804
30
0
41
1
10
31.5704978320522
20
-0.60982503395465
30
0
41
1
10
31.5773916483769
20
-0.730068298705675
30
0
41
1
10
31.5828604712308
20
-0.820374004790153
30
0
41
1
10
31.5909575851356
20
-0.947253900393207
30
0
41
1
10
31.5936431835024
20
-0.98810605892379
30
0
41
1
10
31.5976871800127
20
-1.0471496605015
30
0
41
1
10
31.5990355511121
20
-1.06641760932518
30
0
41
1
10
31.6017168334631
20
-1.10377253591352
30
0
41
1
10
31.6030533820165
20
-1.12191298721751
30
0
41
1
10
31.6043914225757
20
-1.13952476691901
30
0
0
SPLINE
5
1A9
100
AcDbEntity
8
1
62
256
6
ByLayer
370
18
48
1
60
0
100
AcDbSpline
70
4
71
3
72
8
73
4
40
0
40
0
40
0
40
0
40
1
40
1
40
1
40
1
41
1
10
29
20
0.732439997594838
30
0
41
1
10
28.9802959025661
20
0.738410114979132
30
0
41
1
10
28.9605990151414
20
0.74398351182387
30
0
41
1
10
28.9407116621968
20
0.74885329525145
30
0
0
SPLINE
5
1AA
100
AcDbEntity
8
1
62
256
6
ByLayer
370
18
48
1
60
0
100
AcDbSpline
70
4
71
3
72
12
73
8
40
0
40
0
40
0
40
0
40
0.5
40
0.5
40
0.75
40
0.75
40
1
40
1
40
1
40
1
41
1
10
28.9407116621968
20
0.74885329525145
30
0
41
1
10
28.9177178236488
20
0.754483758702747
30
0
41
1
10
28.8930998396512
20
0.761193463048329
30
0
41
1
10
28.8542554799582
20
0.773787147958757
30
0
41
1
10
28.8409860869665
20
0.778408302772846
30
0
41
1
10
28.8138592578578
20
0.788673105039095
30
0
41
1
10
28.8000748237728
20
0.794291989107592
30
0
41
1
10
28.7862002397261
20
0.800421870704213
30
0
0
SPLINE
5
1AB
100
AcDbEntity
8
1
62
256
6
ByLayer
370
18
48
1
60
0
100
AcDbSpline
70
4
71
3
72
46
73
42
40
0
40
0
40
0
40
0
40
0.0795102268603728
40
0.0795102268603728
40
0.119265340290559
40
0.119265340290559
40
0.159020453720746
40
0.159020453720746
40
0.198775567150932
40
0.198775567150932
40
0.238530680581118
40
0.238530680581118
40
0.318040907441497
40
0.318040907441497
40
0.397551134301875
40
0.397551134301875
40
0.437306247732067
40
0.437306247732067
40
0.477061361162258
40
0.477061361162258
40
0.51681647459245
40
0.51681647459245
40
0.556571588022642
40
0.556571588022642
40
0.636081814883026
40
0.636081814883026
40
0.715592041743409
40
0.715592041743409
40
0.795102268603793
40
0.795102268603793
40
0.834857382033984
40
0.834857382033984
40
0.874612495464176
40
0.874612495464176
40
0.914367608894368
40
0.914367608894368
40
0.934245165609461
40
0.934245165609461
40
0.954122722324554
40
0.954122722324554
40
1
40
1
40
1
40
1
41
1
10
28.7862002397238
20
0.800421870715326
30
0
41
1
10
28.7119781118882
20
0.833213690200353
30
0
41
1
10
28.6382533619318
20
0.8639675298854
30
0
41
1
10
28.5278504016638
20
0.906501782093983
30
0
41
1
10
28.4910625797663
20
0.920066084526809
30
0
41
1
10
28.4174988569478
20
0.945983004287399
30
0
41
1
10
28.3807410352502
20
0.958349940383727
30
0
41
1
10
28.3070775331401
20
0.981759072597242
30
0
41
1
10
28.2702079036658
20
0.992837078802836
30
0
41
1
10
28.1965489524048
20
1.01387334797707
30
0
41
1
10
28.1597644952243
20
1.02383247988715
30
0
41
1
10
28.049481560692
20
1.0519518096404
30
0
41
1
10
27.9760734848263
20
1.06836087443222
30
0
41
1
10
27.8289336956048
20
1.09600182335063
30
0
41
1
10
27.7551448067953
20
1.10721403448673
30
0
41
1
10
27.6439424753702
20
1.11994560916739
30
0
41
1
10
27.6068594123499
20
1.12350135645389
30
0
41
1
10
27.5329695043938
20
1.12919099499589
30
0
41
1
10
27.4961048203336
20
1.13133003957606
30
0
41
1
10
27.4224438998112
20
1.13420677917671
30
0
41
1
10
27.3856585720098
20
1.13494323455629
30
0
41
1
10
27.3119417221293
20
1.13505042153614
30
0
41
1
10
27.2749824790873
20
1.13442981141509
30
0
41
1
10
27.1642489459998
20
1.13058719043426
30
0
41
1
10
27.0906287250274
20
1.12536782776263
30
0
41
1
10
26.9436962458767
20
1.10946036740034
30
0
41
1
10
26.8703556761122
20
1.0987628102545
30
0
41
1
10
26.7232747135325
20
1.07197461843222
30
0
41
1
10
26.6495523225539
20
1.05588576099834
30
0
41
1
10
26.5384410704453
20
1.02775912250857
30
0
41
1
10
26.5012937604135
20
1.01770763212372
30
0
41
1
10
26.4273162507984
20
0.996425120423453
30
0
41
1
10
26.3904246118871
20
0.985178255075567
30
0
41
1
10
26.316791375846
20
0.961519923476288
30
0
41
1
10
26.2800524791544
20
0.949106045249493
30
0
41
1
10
26.2250235337168
20
0.929647365691864
30
0
41
1
10
26.2066791092906
20
0.923034656958066
30
0
41
1
10
26.1698700357948
20
0.909678941205271
30
0
41
1
10
26.1514292095765
20
0.902913986887256
30
0
41
1
10
26.0904816116671
20
0.880081541646405
30
0
41
1
10
26.0479946230852
20
0.863471042719596
30
0
41
1
10
26.00554215592
20
0.846179597925271
30
0
0
SPLINE
5
1AC
100
AcDbEntity
8
1
62
256
6
ByLayer
370
18
48
1
60
0
100
AcDbSpline
70
4
71
3
72
58
73
54
40
0
40
0
40
0
40
0
40
0.0393562855159051
40
0.0393562855159051
40
0.054366343554719
40
0.054366343554719
40
0.069376401593533
40
0.069376401593533
40
0.0993965176711646
40
0.0993965176711646
40
0.129416633748796
40
0.129416633748796
40
0.159436749826428
40
0.159436749826428
40
0.219476981981691
40
0.219476981981691
40
0.279517214136954
40
0.279517214136954
40
0.339557446292217
40
0.339557446292217
40
0.369577562369849
40
0.369577562369849
40
0.384587620408663
40
0.384587620408663
40
0.399597678447477
40
0.399597678447477
40
0.459637910602729
40
0.459637910602729
40
0.519678142757981
40
0.519678142757981
40
0.579718374913233
40
0.579718374913233
40
0.60973849099086
40
0.60973849099086
40
0.639758607068486
40
0.639758607068486
40
0.669778723146112
40
0.669778723146112
40
0.699798839223738
40
0.699798839223738
40
0.759839071378991
40
0.759839071378991
40
0.819879303534243
40
0.819879303534243
40
0.879919535689495
40
0.879919535689495
40
0.909939651767121
40
0.909939651767121
40
0.939959767844748
40
0.939959767844748
40
0.969979883922374
40
0.969979883922374
40
1
40
1
40
1
40
1
41
1
10
24.6728859753465
20
1.13500235873477
30
0
41
1
10
24.7269460134166
20
1.13500312543013
30
0
41
1
10
24.7811060420108
20
1.13356095985625
30
0
41
1
10
24.856064814473
20
1.12952587561537
30
0
41
1
10
24.8767752755225
20
1.12819579362963
30
0
41
1
10
24.918225800482
20
1.12509538852117
30
0
41
1
10
24.9389792659515
20
1.12332338611122
30
0
41
1
10
25.0010508673659
20
1.11735908470067
30
0
41
1
10
25.0422436861274
20
1.1125118713671
30
0
41
1
10
25.1243494551371
20
1.10109265480548
30
0
41
1
10
25.165314313713
20
1.09453887480481
30
0
41
1
10
25.2472471300152
20
1.07985971935992
30
0
41
1
10
25.2881958339216
20
1.07172742524011
30
0
41
1
10
25.4110521104694
20
1.04504380275347
30
0
41
1
10
25.4929756717015
20
1.0242151327362
30
0
41
1
10
25.657068266819
20
0.976790491621017
30
0
41
1
10
25.7392410046064
20
0.950199956055343
30
0
41
1
10
25.9039616756711
20
0.891323799630442
30
0
41
1
10
25.9864920558956
20
0.8590294006639
30
0
41
1
10
26.1105049416196
20
0.805965577454117
30
0
41
1
10
26.1519662787626
20
0.787561645275417
30
0
41
1
10
26.2136497481485
20
0.758899081311313
30
0
41
1
10
26.2342146464553
20
0.749246001277015
30
0
41
1
10
26.275394385853
20
0.72980416521122
30
0
41
1
10
26.2959690667789
20
0.71996386947697
30
0
41
1
10
26.3987357344046
20
0.670129995822833
30
0
41
1
10
26.4807010191199
20
0.628357821790672
30
0
41
1
10
26.6447589771684
20
0.541981437615107
30
0
41
1
10
26.7268108004797
20
0.497326889051749
30
0
41
1
10
26.8910967571916
20
0.405333746819792
30
0
41
1
10
26.9733275020165
20
0.357992204307067
30
0
41
1
10
27.0968197001711
20
0.284917523121379
30
0
41
1
10
27.1380037900633
20
0.260207281835022
30
0
41
1
10
27.2204286275531
20
0.210082102309485
30
0
41
1
10
27.2616526716805
20
0.184638339599559
30
0
41
1
10
27.344259602844
20
0.13318316598199
30
0
41
1
10
27.38546566281
20
0.107437254277386
30
0
41
1
10
27.4678419237154
20
0.0562296180058581
30
0
41
1
10
27.5089768965311
20
0.030697444222028
30
0
41
1
10
27.6322911145739
20
-0.0455816649015333
30
0
41
1
10
27.7143985624969
20
-0.0959806947000743
30
0
41
1
10
27.8786332872301
20
-0.195547534134363
30
0
41
1
10
27.9607621058443
20
-0.244713456779095
30
0
41
1
10
28.1251429673685
20
-0.341649960742757
30
0
41
1
10
28.207386730241
20
-0.389434454193889
30
0
41
1
10
28.3308604392191
20
-0.459998060750962
30
0
41
1
10
28.3719947730962
20
-0.483396919688175
30
0
41
1
10
28.4545357023237
20
-0.529446312443866
30
0
41
1
10
28.4960201426682
20
-0.55207860460456
30
0
41
1
10
28.578896944977
20
-0.596419321537809
30
0
41
1
10
28.6203071330946
20
-0.618146127320216
30
0
41
1
10
28.7032050584566
20
-0.660535346138204
30
0
41
1
10
28.7446862189952
20
-0.681207878696171
30
0
41
1
10
28.7862002397239
20
-0.701358684721839
30
0
0
SPLINE
5
1AD
100
AcDbEntity
8
1
62
256
6
ByLayer
370
18
48
1
60
0
100
AcDbSpline
70
4
71
3
72
12
73
8
40
0
40
0
40
0
40
0
40
0.5
40
0.5
40
0.75
40
0.75
40
1
40
1
40
1
40
1
41
1
10
28.7862002397238
20
-0.701358684721839
30
0
41
1
10
28.8127821833692
20
-0.71426149636909
30
0
41
1
10
28.839051646899
20
-0.728668598450383
30
0
41
1
10
28.8777878931016
20
-0.752861021784554
30
0
41
1
10
28.8905908199382
20
-0.761355637831656
30
0
41
1
10
28.9159631971435
20
-0.779292608455478
30
0
41
1
10
28.9285218470708
20
-0.78873361774518
30
0
41
1
10
28.9407116621979
20
-0.798506331556013
30
0
0
SPLINE
5
1AE
100
AcDbEntity
8
1
62
256
6
ByLayer
370
18
48
1
60
0
100
AcDbSpline
70
4
71
3
72
8
73
4
40
0
40
0
40
0
40
0
40
1
40
1
40
1
40
1
41
1
10
28.9407116621968
20
-0.798506331557434
30
0
41
1
10
28.960446724763
20
-0.814328156292959
30
0
41
1
10
28.9802377569413
20
-0.830087752918075
30
0
41
1
10
29.0000000000009
20
-0.845907152103536
30
0
0
SPLINE
5
1AF
100
AcDbEntity
8
1
62
256
6
ByLayer
370
18
48
1
60
0
100
AcDbSpline
70
4
71
3
72
8
73
4
40
0
40
0
40
0
40
0
40
1
40
1
40
1
40
1
41
1
10
32.6497436499163
20
-1.5188445030027
30
0
41
1
10
32.6631864506517
20
-1.52071588885548
30
0
41
1
10
32.6766297713613
20
-1.52246604779248
30
0
41
1
10
32.6900721776847
20
-1.52409509032191
30
0
0
SPLINE
5
1B0
100
AcDbEntity
8
1
62
256
6
ByLayer
370
18
48
1
60
0
100
AcDbSpline
70
4
71
3
72
8
73
4
40
0
40
0
40
0
40
0
40
1
40
1
40
1
40
1
41
1
10
32.1273165385158
20
-1.38556119558956
30
0
41
1
10
32.1406654902957
20
-1.39044039660035
30
0
41
1
10
32.1540164778843
20
-1.39520966528164
30
0
41
1
10
32.1673697465417
20
-1.39986890071344
30
0
0
SPLINE
5
1B1
100
AcDbEntity
8
1
62
256
6
ByLayer
370
18
48
1
60
0
100
AcDbSpline
70
4
71
3
72
8
73
4
40
0
40
0
40
0
40
0
40
1
40
1
40
1
40
1
41
1
10
29
20
-1.20409696023933
30
0
41
1
10
28.9802959025661
20
-1.19030786048552
30
0
41
1
10
28.9605990151414
20
-1.17621741235325
30
0
41
1
10
28.9407116621968
20
-1.16177135451011
30
0
0
SPLINE
5
1B2
100
AcDbEntity
8
1
62
256
6
ByLayer
370
18
48
1
60
0
100
AcDbSpline
70
4
71
3
72
12
73
8
40
0
40
0
40
0
40
0
40
0.499999999999957
40
0.499999999999957
40
0.749999999999978
40
0.749999999999978
40
1
40
1
40
1
40
1
41
1
10
28.9407116621968
20
-1.16177135451011
30
0
41
1
10
28.9177178236488
20
-1.14506876354056
30
0
41
1
10
28.8930998396512
20
-1.13122048571975
30
0
41
1
10
28.8542554799582
20
-1.11490470924016
30
0
41
1
10
28.8409860869665
20
-1.11021241616666
30
0
41
1
10
28.8138592578578
20
-1.10240842107984
30
0
41
1
10
28.8000748237728
20
-1.09932117995098
30
0
41
1
10
28.7862002397261
20
-1.09710574208148
30
0
0
SPLINE
5
1B3
100
AcDbEntity
8
1
62
256
6
ByLayer
370
18
48
1
60
0
100
AcDbSpline
70
4
71
3
72
97
73
93
40
0
40
0
40
0
40
0
40
0.0333711534065784
40
0.0333711534065784
40
0.0500567301098687
40
0.0500567301098687
40
0.0667423068131591
40
0.0667423068131591
40
0.0834278835164494
40
0.0834278835164494
40
0.10011346021974
40
0.10011346021974
40
0.13348461362632
40
0.13348461362632
40
0.166855767032901
40
0.166855767032901
40
0.183541343736192
40
0.183541343736192
40
0.200226920439484
40
0.200226920439484
40
0.216912497142775
40
0.216912497142775
40
0.233598073846067
40
0.233598073846067
40
0.26696922725265
40
0.26696922725265
40
0.300340380659233
40
0.300340380659233
40
0.333711534065816
40
0.333711534065816
40
0.350397110769108
40
0.350397110769108
40
0.367082687472401
40
0.367082687472401
40
0.383768264175693
40
0.383768264175693
40
0.39211105252734
40
0.39211105252734
40
0.400453840878986
40
0.400453840878986
40
0.433824994285573
40
0.433824994285573
40
0.467196147692161
40
0.467196147692161
40
0.500567301098748
40
0.500567301098748
40
0.517252877802042
40
0.517252877802042
40
0.533938454505336
40
0.533938454505336
40
0.550624031208629
40
0.550624031208629
40
0.567309607911923
40
0.567309607911923
40
0.583995184615217
40
0.583995184615217
40
0.60068076131851
40
0.60068076131851
40
0.634051914725096
40
0.634051914725096
40
0.667423068131681
40
0.667423068131681
40
0.684108644834973
40
0.684108644834973
40
0.700794221538266
40
0.700794221538266
40
0.717479798241558
40
0.717479798241558
40
0.734165374944851
40
0.734165374944851
40
0.742508163296497
40
0.742508163296497
40
0.750850951648143
40
0.767536528351436
40
0.767536528351436
40
0.800907681758019
40
0.800907681758019
40
0.834278835164602
40
0.834278835164602
40
0.867649988571185
40
0.867649988571185
40
0.884335565274477
40
0.884335565274477
40
0.90102114197777
40
0.90102114197777
40
0.917706718681063
40
0.917706718681063
40
0.934392295384355
40
0.934392295384355
40
0.96776344879094
40
0.96776344879094
40
1
40
1
40
1
40
1
41
1
10
28.7862002397238
20
-1.09710574209708
30
0
41
1
10
28.7119781118881
20
-1.08525425075138
30
0
41
1
10
28.6382533619318
20
-1.07066826197473
30
0
41
1
10
28.5278504016638
20
-1.04507384038496
30
0
41
1
10
28.4910625797662
20
-1.03593752528144
30
0
41
1
10
28.4174988569477
20
-1.01649337903299
30
0
41
1
10
28.3807410352502
20
-1.00617022624803
30
0
41
1
10
28.30707753314
20
-0.984500644650524
30
0
41
1
10
28.2702079036658
20
-0.973130566460583
30
0
41
1
10
28.1965489524048
20
-0.949196870279707
30
0
41
1
10
28.1597644952243
20
-0.936626291744091
30
0
41
1
10
28.049481560692
20
-0.897129708064796
30
0
41
1
10
27.9760734848263
20
-0.868393490722468
30
0
41
1
10
27.8289336956049
20
-0.806515100949952
30
0
41
1
10
27.7551448067954
20
-0.773445740846114
30
0
41
1
10
27.6439424753704
20
-0.720785584345521
30
0
41
1
10
27.6068594123501
20
-0.702735930429384
30
0
41
1
10
27.5329695043939
20
-0.665907330069444
30
0
41
1
10
27.4961048203338
20
-0.64710819879636
30
0
41
1
10
27.4224438998112
20
-0.608876249133516
30
0
41
1
10
27.3856585720099
20
-0.589427311989027
30
0
41
1
10
27.3119417221294
20
-0.55021720085935
30
0
41
1
10
27.2749824790873
20
-0.530499092574644
30
0
41
1
10
27.1642489459999
20
-0.47038101208102
30
0
41
1
10
27.0906287250274
20
-0.428996795681655
30
0
41
1
10
26.9436962458768
20
-0.343696830244312
30
0
41
1
10
26.8703556761124
20
-0.299818070343122
30
0
41
1
10
26.7232747135327
20
-0.210573025502015
30
0
41
1
10
26.6495523225541
20
-0.165181601776879
30
0
41
1
10
26.5384410704457
20
-0.0963251908873133
30
0
41
1
10
26.5012937604139
20
-0.0732262689937215
30
0
41
1
10
26.4273162507988
20
-0.027127947144578
30
0
41
1
10
26.3904246118874
20
-0.0040880686680964
30
0
41
1
10
26.3167913758463
20
0.0419015040222064
30
0
41
1
10
26.2800524791546
20
0.0648557195828232
30
0
41
1
10
26.2250235337169
20
0.0991659184323623
30
0
41
1
10
26.2066791092908
20
0.110557909766982
30
0
41
1
10
26.1698700357949
20
0.133061864333087
30
0
41
1
10
26.1514292095766
20
0.144213492525324
30
0
41
1
10
26.0593075165237
20
0.199906721352448
30
0
41
1
10
25.9857191069671
20
0.243999080851836
30
0
41
1
10
25.8387419650881
20
0.331221094280551
30
0
41
1
10
25.7654573568133
20
0.374511785250007
30
0
41
1
10
25.6187097493165
20
0.459483786078124
30
0
41
1
10
25.5451865398538
20
0.501074993368519
30
0
41
1
10
25.4344834748035
20
0.561799772720633
30
0
41
1
10
25.3975160737969
20
0.581769132332823
30
0
41
1
10
25.3233921024818
20
0.621073598627504
30
0
41
1
10
25.2863767493213
20
0.64033451667737
30
0
41
1
10
25.2125531994299
20
0.677905924783857
30
0
41
1
10
25.1757051477277
20
0.696213846937638
30
0
41
1
10
25.1019517185093
20
0.731665225077904
30
0
41
1
10
25.0650394356837
20
0.748803331009555
30
0
41
1
10
24.9912354198986
20
0.782060067263785
30
0
41
1
10
24.9544308335516
20
0.798281310743931
30
0
41
1
10
24.8807856637363
20
0.829638624294375
30
0
41
1
10
24.8439955872485
20
0.844836102677249
30
0
41
1
10
24.7337728963204
20
0.889028079905074
30
0
41
1
10
24.6604669610363
20
0.916594314381655
30
0
41
1
10
24.5138315480881
20
0.967435142376644
30
0
41
1
10
24.4404568435885
20
0.99066602746106
30
0
41
1
10
24.3299648552831
20
1.02187603647613
30
0
41
1
10
24.2930689374011
20
1.03167932703823
30
0
41
1
10
24.2191174726079
20
1.05004966195256
30
0
41
1
10
24.1819979783794
20
1.0586288193509
30
0
41
1
10
24.1078837421995
20
1.07443378900521
30
0
41
1
10
24.0709304695029
20
1.08165763907687
30
0
41
1
10
23.9971480348999
20
1.09472499664159
30
0
41
1
10
23.9603414426761
20
1.10057219635974
30
0
41
1
10
23.9048797621218
20
1.10821189129931
30
0
41
1
10
23.8863603394496
20
1.11057674889079
30
0
41
1
10
23.8493925483627
20
1.11499545823745
30
0
41
1
10
23.7940139809227
20
1.12114233642498
30
0
41
1
10
23.738813280328
20
1.12582318838304
30
0
41
1
10
23.6285984122896
20
1.13319073880308
30
0
41
1
10
23.555405662215
20
1.13543902788982
30
0
41
1
10
23.4089648032181
20
1.13441889068227
30
0
41
1
10
23.3357025646701
20
1.13115706405532
30
0
41
1
10
23.1886620655689
20
1.1191310680517
30
0
41
1
10
23.114903040696
20
1.11037059504716
30
0
41
1
10
23.0037476739368
20
1.09306221346097
30
0
41
1
10
22.9665707254647
20
1.08659161137763
30
0
41
1
10
22.8924683536316
20
1.07239860627658
30
0
41
1
10
22.8554813995808
20
1.06466778186686
30
0
41
1
10
22.7815521974574
20
1.04801894084133
30
0
41
1
10
22.7445917257457
20
1.03911473165397
30
0
41
1
10
22.6707788451289
20
1.02010716323411
30
0
41
1
10
22.6339410884141
20
1.00999191588639
30
0
41
1
10
22.5236165071526
20
0.97781753277701
30
0
41
1
10
22.4503487365701
20
0.953900836008984
30
0
41
1
10
22.3064321258217
20
0.902307602891312
30
0
41
1
10
22.2357109816131
20
0.874854989148957
30
0
41
1
10
22.1648577524681
20
0.845408581987385
30
0
0
SPLINE
5
1B4
100
AcDbEntity
8
1
62
256
6
ByLayer
370
18
48
1
60
0
100
AcDbSpline
70
4
71
3
72
96
73
92
40
0
40
0
40
0
40
0
40
0.0349846049438162
40
0.0349846049438162
40
0.0524769074157243
40
0.0524769074157243
40
0.0699692098876324
40
0.0699692098876324
40
0.104953814831447
40
0.104953814831447
40
0.122446117303354
40
0.122446117303354
40
0.139938419775261
40
0.139938419775261
40
0.174923024719075
40
0.174923024719075
40
0.209907629662889
40
0.209907629662889
40
0.227399932134796
40
0.227399932134796
40
0.244892234606703
40
0.244892234606703
40
0.26238453707861
40
0.26238453707861
40
0.279876839550517
40
0.279876839550517
40
0.297369142022424
40
0.297369142022424
40
0.314861444494331
40
0.314861444494331
40
0.349846049438145
40
0.349846049438145
40
0.384830654381959
40
0.384830654381959
40
0.402322956853866
40
0.402322956853866
40
0.419815259325773
40
0.419815259325773
40
0.428561410561726
40
0.428561410561726
40
0.437307561797678
40
0.437307561797678
40
0.446053713033631
40
0.446053713033631
40
0.454799864269583
40
0.454799864269583
40
0.489784469213399
40
0.489784469213399
40
0.524769074157216
40
0.524769074157216
40
0.559753679101032
40
0.559753679101032
40
0.568499830336987
40
0.568499830336987
40
0.577245981572943
40
0.577245981572943
40
0.594738284044854
40
0.594738284044854
40
0.612230586516766
40
0.612230586516766
40
0.629722888988677
40
0.629722888988677
40
0.6647074939325
40
0.6647074939325
40
0.699692098876322
40
0.699692098876322
40
0.734676703820145
40
0.734676703820145
40
0.752169006292056
40
0.752169006292056
40
0.760915157528011
40
0.760915157528011
40
0.769661308763965
40
0.769661308763965
40
0.804645913707784
40
0.804645913707784
40
0.839630518651602
40
0.839630518651602
40
0.87461512359542
40
0.87461512359542
40
0.892107426067329
40
0.892107426067329
40
0.909599728539237
40
0.909599728539237
40
0.927092031011145
40
0.927092031011145
40
0.944584333483053
40
0.944584333483053
40
0.979568938426869
40
0.979568938426869
40
1
40
1
40
1
40
1
41
1
10
20.8838558296349
20
1.13427208796696
30
0
41
1
10
20.9665791508367
20
1.13243436571085
30
0
41
1
10
21.0493409695756
20
1.12714001414878
30
0
41
1
10
21.1737126919128
20
1.11419708980731
30
0
41
1
10
21.215207826656
20
1.10904781224758
30
0
41
1
10
21.2982987241584
20
1.09709194608897
30
0
41
1
10
21.3399458270349
20
1.0902756752356
30
0
41
1
10
21.4646764100353
20
1.06740255587357
30
0
41
1
10
21.5473378358557
20
1.0489832123005
30
0
41
1
10
21.6705620718026
20
1.01656847535807
30
0
41
1
10
21.711506359179
20
1.00496122834596
30
0
41
1
10
21.7931497672102
20
0.98012352457647
30
0
41
1
10
21.8338844158824
20
0.966916802576264
30
0
41
1
10
21.9563309384166
20
0.925389600255414
30
0
41
1
10
22.038103187348
20
0.895019979478946
30
0
41
1
10
22.202212032929
20
0.829352539140842
30
0
41
1
10
22.2845494404402
20
0.794058779372165
30
0
41
1
10
22.4086096916644
20
0.73757463320888
30
0
41
1
10
22.4500575048112
20
0.718157539165389
30
0
41
1
10
22.5331480469387
20
0.67813122164165
30
0
41
1
10
22.5747904257032
20
0.657512777936887
30
0
41
1
10
22.6576256014987
20
0.615394370755297
30
0
41
1
10
22.6989006139376
20
0.593857711857311
30
0
41
1
10
22.7811683829157
20
0.549830423599531
30
0
41
1
10
22.8221424906226
20
0.527312107442327
30
0
41
1
10
22.9038554754113
20
0.481380997511053
30
0
41
1
10
22.9446452560015
20
0.458043610588902
30
0
41
1
10
23.0262909479194
20
0.410935581284974
30
0
41
1
10
23.0671291505823
20
0.387138759255606
30
0
41
1
10
23.1897557100989
20
0.315137058754658
30
0
41
1
10
23.2716561712786
20
0.266322926909197
30
0
41
1
10
23.4359905262533
20
0.167482480706184
30
0
41
1
10
23.5184568606301
20
0.117511171450076
30
0
41
1
10
23.6426533363672
20
0.0417869532627719
30
0
41
1
10
23.6841232107129
20
0.0163971884490763
30
0
41
1
10
23.767168366612
20
-0.0347613202884247
30
0
41
1
10
23.8085565671678
20
-0.0603797270485131
30
0
41
1
10
23.8704815221354
20
-0.0985567316873528
30
0
41
1
10
23.891106710291
20
-0.111237000097873
30
0
41
1
10
23.9323213299625
20
-0.136513180082943
30
0
41
1
10
23.9528561273125
20
-0.149201346808297
30
0
41
1
10
23.9936807268027
20
-0.174837015613093
30
0
41
1
10
24.0140632465354
20
-0.187629423941928
30
0
41
1
10
24.0549322501074
20
-0.212896856619238
30
0
41
1
10
24.0753914202865
20
-0.22541748011767
30
0
41
1
10
24.1776809773008
20
-0.287675602975128
30
0
41
1
10
24.25947458768
20
-0.336405059455217
30
0
41
1
10
24.4233452783606
20
-0.431213550377123
30
0
41
1
10
24.5054208644576
20
-0.47729669174575
30
0
41
1
10
24.6700462500024
20
-0.566542857429795
30
0
41
1
10
24.7525876030579
20
-0.609720961680353
30
0
41
1
10
24.856064814473
20
-0.661812465620216
30
0
41
1
10
24.8767752755224
20
-0.672136412189246
30
0
41
1
10
24.918225800482
20
-0.692593483978271
30
0
41
1
10
24.9389792659514
20
-0.702732725011771
30
0
41
1
10
25.0010508673659
20
-0.732736114933687
30
0
41
1
10
25.0422436861274
20
-0.752227897436427
30
0
41
1
10
25.124349455137
20
-0.790052552567857
30
0
41
1
10
25.1653143137129
20
-0.808319658776014
30
0
41
1
10
25.2472471300152
20
-0.843386560547486
30
0
41
1
10
25.2881958339216
20
-0.860210601915384
30
0
41
1
10
25.4110521104694
20
-0.90853871212542
30
0
41
1
10
25.4929756717015
20
-0.937898231385418
30
0
41
1
10
25.657068266819
20
-0.99085959342068
30
0
41
1
10
25.7392410046063
20
-1.01446059128642
30
0
41
1
10
25.903961675671
20
-1.05576537600578
30
0
41
1
10
25.9864920558956
20
-1.07348896805527
30
0
41
1
10
26.1105049416196
20
-1.09542704727255
30
0
41
1
10
26.1519662787626
20
-1.10193643171897
30
0
41
1
10
26.2136497481485
20
-1.11044153422659
30
0
41
1
10
26.2342146464553
20
-1.11304342876863
30
0
41
1
10
26.275394385853
20
-1.11778408984998
30
0
41
1
10
26.2959690667789
20
-1.11993599130241
30
0
41
1
10
26.3987357344045
20
-1.12962239745326
30
0
41
1
10
26.4807010191199
20
-1.13390384776724
30
0
41
1
10
26.6447589771684
20
-1.13572549158141
30
0
41
1
10
26.7268108004797
20
-1.13328371241175
30
0
41
1
10
26.8910967571916
20
-1.12181428245356
30
0
41
1
10
26.9733275020164
20
-1.11279087086592
30
0
41
1
10
27.096819700171
20
-1.09417612360784
30
0
41
1
10
27.1380037900632
20
-1.08711989220754
30
0
41
1
10
27.2204286275531
20
-1.07125019522766
30
0
41
1
10
27.2616526716805
20
-1.06242566918772
30
0
41
1
10
27.344259602844
20
-1.04299917755205
30
0
41
1
10
27.38546566281
20
-1.03249639208795
30
0
41
1
10
27.4678419237154
20
-1.0100983416593
30
0
41
1
10
27.5089768965311
20
-0.998174691372071
30
0
41
1
10
27.6322911145739
20
-0.96034192894507
30
0
41
1
10
27.7143985624969
20
-0.932391972573441
30
0
41
1
10
27.8444725872134
20
-0.884119704753942
30
0
41
1
10
27.8924331568052
20
-0.865462626256345
30
0
41
1
10
27.9404076236027
20
-0.845957549139456
30
0
0
SPLINE
5
1B5
100
AcDbEntity
8
1
62
256
6
ByLayer
370
18
48
1
60
0
100
AcDbSpline
70
4
71
3
72
24
73
20
40
0
40
0
40
0
40
0
40
0.125
40
0.125
40
0.25
40
0.25
40
0.375000000000001
40
0.375000000000001
40
0.500000000000001
40
0.500000000000001
40
0.625000000000001
40
0.625000000000001
40
0.750000000000001
40
0.750000000000001
40
0.812500000000001
40
0.812500000000001
40
0.875000000000002
40
0.875000000000002
40
1
40
1
40
1
40
1
41
1
10
32.6296479716028
20
1.2402495828052
30
0
41
1
10
32.6331848554156
20
1.23414530019699
30
0
41
1
10
32.6373188027962
20
1.22876584027995
30
0
41
1
10
32.6465343775413
20
1.2191543314735
30
0
41
1
10
32.6516816305931
20
1.21489398510281
30
0
41
1
10
32.6625270659852
20
1.20772654438486
30
0
41
1
10
32.6682272200683
20
1.20479440115622
30
0
41
1
10
32.6801579295466
20
1.20020057178007
30
0
41
1
10
32.6862995294939
20
1.19858320267875
30
0
41
1
10
32.6986743836387
20
1.19676954004478
30
0
41
1
10
32.7049811893663
20
1.19655966330845
30
0
41
1
10
32.7176021622261
20
1.1977444952808
30
0
41
1
10
32.7237748667665
20
1.1991153829091
30
0
41
1
10
32.7327787717651
20
1.20252108746928
30
0
41
1
10
32.7357572194985
20
1.20389698361367
30
0
41
1
10
32.7414668481737
20
1.20709308176143
30
0
41
1
10
32.7442068140025
20
1.20891241762592
30
0
41
1
10
32.7520484645656
20
1.21509603251917
30
0
41
1
10
32.7567961988846
20
1.22023586718927
30
0
41
1
10
32.7606020460372
20
1.22628460485117
30
0
0
SPLINE
5
1B6
100
AcDbEntity
8
1
62
256
6
ByLayer
370
18
48
1
60
0
100
AcDbSpline
70
4
71
3
72
10
73
6
40
0
40
0
40
0
40
0
40
0.5
40
0.5
40
1
40
1
40
1
40
1
41
1
10
32.7606020460372
20
1.22628460485117
30
0
41
1
10
32.7896695041386
20
1.27248231629537
30
0
41
1
10
32.8186186272894
20
1.31782219813763
30
0
41
1
10
32.8761945138972
20
1.40643730143213
30
0
41
1
10
32.9048269367331
20
1.44972836243264
30
0
41
1
10
32.9332889843046
20
1.49191434206787
30
0
0
SPLINE
5
1B7
100
AcDbEntity
8
1
62
256
6
ByLayer
370
18
48
1
60
0
100
AcDbSpline
70
4
71
3
72
8
73
4
40
0
40
0
40
0
40
0
40
1
40
1
40
1
40
1
41
1
10
32.9733502085879
20
1.48319248964836
30
0
41
1
10
32.9599937191708
20
1.48621663261747
30
0
41
1
10
32.9466403882094
20
1.48912414345921
30
0
41
1
10
32.9332889843045
20
1.49191434206756
30
0
0
SPLINE
5
1B8
100
AcDbEntity
8
1
62
256
6
ByLayer
370
18
48
1
60
0
100
AcDbSpline
70
4
71
3
72
12
73
8
40
0
40
0
40
0
40
0
40
0.499999999999983
40
0.499999999999983
40
0.749999999999991
40
0.749999999999991
40
1
40
1
40
1
40
1
41
1
10
34.3620253384296
20
0.642319235259123
30
0
41
1
10
34.4243083655808
20
0.59502646184697
30
0
41
1
10
34.4869275226049
20
0.547242809831346
30
0
41
1
10
34.5818622799579
20
0.475407677929809
30
0
41
1
10
34.6136820487974
20
0.451444079165242
30
0
41
1
10
34.6777009576879
20
0.403520152279242
30
0
41
1
10
34.7098362608384
20
0.379602350697724
30
0
41
1
10
34.7419820464534
20
0.355824501769376
30
0
0
SPLINE
5
1B9
100
AcDbEntity
8
1
62
256
6
ByLayer
370
18
48
1
60
0
100
AcDbSpline
70
4
71
3
72
72
73
68
40
0
40
0
40
0
40
0
40
0.0156249999999994
40
0.0156249999999994
40
0.0312499999999987
40
0.0312499999999987
40
0.0624999999999974
40
0.0624999999999974
40
0.125000000000001
40
0.125000000000001
40
0.187500000000004
40
0.187500000000004
40
0.250000000000007
40
0.250000000000007
40
0.31250000000001
40
0.31250000000001
40
0.34375000000001
40
0.34375000000001
40
0.375000000000009
40
0.375000000000009
40
0.390625000000009
40
0.390625000000009
40
0.406250000000008
40
0.406250000000008
40
0.437500000000008
40
0.437500000000008
40
0.500000000000006
40
0.500000000000006
40
0.531250000000005
40
0.531250000000005
40
0.562500000000004
40
0.562500000000004
40
0.593750000000003
40
0.593750000000003
40
0.609375000000002
40
0.609375000000002
40
0.625000000000001
40
0.625000000000001
40
0.65625
40
0.65625
40
0.671875
40
0.671875
40
0.687499999999999
40
0.687499999999999
40
0.703124999999999
40
0.703124999999999
40
0.718749999999998
40
0.718749999999998
40
0.749999999999991
40
0.749999999999991
40
0.781249999999984
40
0.781249999999984
40
0.79687499999998
40
0.79687499999998
40
0.812499999999977
40
0.812499999999977
40
0.874999999999981
40
0.874999999999981
40
0.906249999999986
40
0.906249999999986
40
0.93749999999999
40
0.93749999999999
40
0.968749999999995
40
0.968749999999995
40
0.984374999999998
40
0.984374999999998
40
1
40
1
40
1
40
1
41
1
10
34.7264715904475
20
1.22700364712671
30
0
41
1
10
34.7350244820598
20
1.21898315701819
30
0
41
1
10
34.7436085252786
20
1.2108989825098
30
0
41
1
10
34.760815275017
20
1.19464359197076
30
0
41
1
10
34.7694151190358
20
1.186506226516
30
0
41
1
10
34.7951149727077
20
1.1621876486696
30
0
41
1
10
34.8121396486405
20
1.14606384431815
30
0
41
1
10
34.8628753544602
20
1.09789002272413
30
0
41
1
10
34.8962616269312
20
1.06602203491391
30
0
41
1
10
34.9620941989683
20
1.00234821123033
30
0
41
1
10
34.9945461483265
20
0.97054528463633
30
0
41
1
10
35.0581396833214
20
0.906748339381323
30
0
41
1
10
35.08925622213
20
0.874781400606906
30
0
41
1
10
35.1496715938669
20
0.810143015356715
30
0
41
1
10
35.1789940240375
20
0.77747487608346
30
0
41
1
10
35.2208149474578
20
0.727452612517823
30
0
41
1
10
35.2344034912677
20
0.710586329837099
30
0
41
1
10
35.2604941033327
20
0.676490573842415
30
0
41
1
10
35.2729457772097
20
0.659333353515848
30
0
41
1
10
35.2903862820692
20
0.633402237944438
30
0
41
1
10
35.2959933543458
20
0.624725407619309
30
0
41
1
10
35.3066931714265
20
0.607310385685082
30
0
41
1
10
35.3117522137051
20
0.598588147984685
30
0
41
1
10
35.3263249845268
20
0.572164366659507
30
0
41
1
10
35.335443374161
20
0.554095789454465
30
0
41
1
10
35.3601893472733
20
0.498636474218046
30
0
41
1
10
35.3730094345887
20
0.460520468613765
30
0
41
1
10
35.3830047341135
20
0.402105432697965
30
0
41
1
10
35.3847762400343
20
0.382432862552236
30
0
41
1
10
35.3843366159475
20
0.342889107554669
30
0
41
1
10
35.3821133568483
20
0.323580411893971
30
0
41
1
10
35.3735530195762
20
0.286328709869821
30
0
41
1
10
35.3672170630781
20
0.268375917868269
30
0
41
1
10
35.3547196225252
20
0.242707733889205
30
0
41
1
10
35.3500914902864
20
0.234438054531353
30
0
41
1
10
35.3400737904369
20
0.218586593743169
30
0
41
1
10
35.3346741911183
20
0.21098343373518
30
0
41
1
10
35.3174352858299
20
0.189112015285616
30
0
41
1
10
35.304540446575
20
0.175814027244229
30
0
41
1
10
35.2836533666486
20
0.157482009767819
30
0
41
1
10
35.2764859272039
20
0.151587135585629
30
0
41
1
10
35.2616150202983
20
0.141121984798303
30
0
41
1
10
35.2538960826375
20
0.136546078531836
30
0
41
1
10
35.2379729386052
20
0.128646447569764
30
0
41
1
10
35.2297744782272
20
0.125305333496357
30
0
41
1
10
35.2129842196837
20
0.119720173098841
30
0
41
1
10
35.2043554173556
20
0.117470322018391
30
0
41
1
10
35.1782131204762
20
0.112321369568349
30
0
41
1
10
35.1606213089858
20
0.111020913136315
30
0
41
1
10
35.125253173768
20
0.111849729149697
30
0
41
1
10
35.1074735180267
20
0.113993362812749
30
0
41
1
10
35.0806793658029
20
0.119536201856079
30
0
41
1
10
35.0717151673051
20
0.121778631803153
30
0
41
1
10
35.0539657094128
20
0.126938626427858
30
0
41
1
10
35.0451523247149
20
0.1298616491475
30
0
41
1
10
35.0013539706982
20
0.146052234539667
30
0
41
1
10
34.9671592919601
20
0.163941777378796
30
0
41
1
10
34.9165551517924
20
0.196710750611487
30
0
41
1
10
34.899754475337
20
0.208697824468544
30
0
41
1
10
34.8668715289048
20
0.234184766633064
30
0
41
1
10
34.8507252086649
20
0.247716204568263
30
0
41
1
10
34.8189217141718
20
0.276232906652069
30
0
41
1
10
34.8032669932661
20
0.291223737610835
30
0
41
1
10
34.7800912037453
20
0.314741788554585
30
0
41
1
10
34.7724164646519
20
0.322751870944614
30
0
41
1
10
34.7571521584953
20
0.339088953113475
30
0
41
1
10
34.7495650779883
20
0.347422608955696
30
0
41
1
10
34.7419820464489
20
0.355824501769547
30
0
0
SPLINE
5
1BA
100
AcDbEntity
8
1
62
256
6
ByLayer
370
18
48
1
60
0
100
AcDbSpline
70
4
71
3
72
24
73
20
40
0
40
0
40
0
40
0
40
0.250000000000071
40
0.250000000000071
40
0.375000000000059
40
0.375000000000059
40
0.500000000000048
40
0.500000000000048
40
0.625000000000037
40
0.625000000000037
40
0.750000000000025
40
0.750000000000025
40
0.812500000000019
40
0.812500000000019
40
0.875000000000012
40
0.875000000000012
40
0.937500000000006
40
0.937500000000006
40
1
40
1
40
1
40
1
41
1
10
34.7264715904475
20
1.22700364712668
30
0
41
1
10
34.7187955413337
20
1.21772619060169
30
0
41
1
10
34.7094068620755
20
1.21019999421154
30
0
41
1
10
34.6941167321897
20
1.20204975421697
30
0
41
1
10
34.6887385382703
20
1.19981671812698
30
0
41
1
10
34.6777308692783
20
1.19649016388283
30
0
41
1
10
34.6721372383612
20
1.19539556747168
30
0
41
1
10
34.6607763408161
20
1.1944112049288
30
0
41
1
10
34.6549513749633
20
1.19452729132431
30
0
41
1
10
34.6433845240019
20
1.19619961620467
30
0
41
1
10
34.6377138538942
20
1.19772922189142
30
0
41
1
10
34.629424039915
20
1.20127307750423
30
0
41
1
10
34.6266902518921
20
1.20267324205645
30
0
41
1
10
34.6214653305995
20
1.20586284853977
30
0
41
1
10
34.6189548127309
20
1.20765864841607
30
0
41
1
10
34.6141586558934
20
1.21169222318463
30
0
41
1
10
34.6118565177994
20
1.21395052925547
30
0
41
1
10
34.6076182580449
20
1.21885514526812
30
0
41
1
10
34.6056773915919
20
1.22149881002162
30
0
41
1
10
34.6039290709103
20
1.22435029993414
30
0
0
SPLINE
5
1BB
100
AcDbEntity
8
1
62
256
6
ByLayer
370
18
48
1
60
0
100
AcDbSpline
70
4
71
3
72
8
73
4
40
0
40
0
40
0
40
0
40
1
40
1
40
1
40
1
41
1
10
34.6039290709104
20
1.22435029993414
30
0
41
1
10
34.5956770731092
20
1.23780920866667
30
0
41
1
10
34.5874320816832
20
1.25120262861793
30
0
41
1
10
34.5791939174754
20
1.26452710730365
30
0
0
SPLINE
5
1BC
100
AcDbEntity
8
1
62
256
6
ByLayer
370
18
48
1
60
0
100
AcDbSpline
70
4
71
3
72
12
73
8
40
0
40
0
40
0
40
0
40
0.5
40
0.5
40
0.75
40
0.75
40
1
40
1
40
1
40
1
41
1
10
34.5791939174754
20
1.26452710730365
30
0
41
1
10
34.529595204133
20
1.27012509260044
30
0
41
1
10
34.4803639653751
20
1.27415570467798
30
0
41
1
10
34.4063570688459
20
1.27824295997681
30
0
41
1
10
34.3816884324766
20
1.2792652714281
30
0
41
1
10
34.332467977098
20
1.28051838574064
30
0
41
1
10
34.3079173060443
20
1.28074649266455
30
0
41
1
10
34.2834121112249
20
1.2805706710744
30
0
0
SPLINE
5
1BD
100
AcDbEntity
8
1
62
256
6
ByLayer
370
18
48
1
60
0
100
AcDbSpline
70
4
71
3
72
59
73
55
40
0
40
0
40
0
40
0
40
0.0168916415831218
40
0.0168916415831218
40
0.0466828039593917
40
0.0466828039593917
40
0.0764739663356616
40
0.0764739663356616
40
0.106265128711931
40
0.106265128711931
40
0.136056291088201
40
0.136056291088201
40
0.165847453464471
40
0.165847453464471
40
0.225429778217011
40
0.225429778217011
40
0.285012102969551
40
0.285012102969551
40
0.314803265345818
40
0.314803265345818
40
0.344594427722086
40
0.344594427722086
40
0.374385590098354
40
0.374385590098354
40
0.404176752474622
40
0.404176752474622
40
0.419072333662756
40
0.419072333662756
40
0.43396791485089
40
0.463759077227158
40
0.463759077227158
40
0.523341401979694
40
0.523341401979694
40
0.58292372673223
40
0.58292372673223
40
0.642506051484765
40
0.642506051484765
40
0.672297213861033
40
0.672297213861033
40
0.702088376237301
40
0.702088376237301
40
0.731879538613569
40
0.731879538613569
40
0.761670700989837
40
0.761670700989837
40
0.821253025742377
40
0.821253025742377
40
0.880835350494917
40
0.880835350494917
40
0.940417675247456
40
0.940417675247456
40
0.970208837623728
40
0.970208837623728
40
1
40
1
40
1
40
1
41
1
10
25.4234106388345
20
-1.13499993394791
30
0
41
1
10
25.4024521024264
20
-1.13499732517514
30
0
41
1
10
25.3814682993396
20
-1.13476815343938
30
0
41
1
10
25.3233921024814
20
-1.13350227696765
30
0
41
1
10
25.2863767493211
20
-1.13198428518785
30
0
41
1
10
25.2125531994297
20
-1.1275598181038
30
0
41
1
10
25.1757051477276
20
-1.12465273304011
30
0
41
1
10
25.1019517185092
20
-1.11753613366432
30
0
41
1
10
25.0650394356837
20
-1.11333285156769
30
0
41
1
10
24.9912354198986
20
-1.10365592253021
30
0
41
1
10
24.9544308335516
20
-1.09814605326699
30
0
41
1
10
24.8807856637363
20
-1.08588052351905
30
0
41
1
10
24.8439955872485
20
-1.07910621237363
30
0
41
1
10
24.7337728963205
20
-1.05681873484769
30
0
41
1
10
24.6604669610363
20
-1.039345771261
30
0
41
1
10
24.5138315480881
20
-0.999254455175759
30
0
41
1
10
24.4404568435885
20
-0.9766664414079
30
0
41
1
10
24.329964855283
20
-0.939178780047683
30
0
41
1
10
24.293068937401
20
-0.926077444368019
30
0
41
1
10
24.2191174726077
20
-0.898673720696763
30
0
41
1
10
24.1819979783792
20
-0.884346516228561
30
0
41
1
10
24.1078837421994
20
-0.854648862547236
30
0
41
1
10
24.0709304695028
20
-0.839287613153715
30
0
41
1
10
23.9971480348998
20
-0.807646907981393
30
0
41
1
10
23.9603414426761
20
-0.79133729233638
30
0
41
1
10
23.9048797621218
20
-0.766623891775936
30
0
41
1
10
23.8863603394496
20
-0.758334339898624
30
0
41
1
10
23.8493925483627
20
-0.741486985739442
30
0
41
1
10
23.7940139809228
20
-0.715853351089919
30
0
41
1
10
23.7388132803281
20
-0.68917892712517
30
0
41
1
10
23.6285984122897
20
-0.634493263977902
30
0
41
1
10
23.555405662215
20
-0.596201282555029
30
0
41
1
10
23.4089648032182
20
-0.516732856390263
30
0
41
1
10
23.3357025646702
20
-0.475580079697949
30
0
41
1
10
23.1886620655689
20
-0.3910538475333
30
0
41
1
10
23.1149030406959
20
-0.347654982620554
30
0
41
1
10
23.0037476739367
20
-0.281054074826358
30
0
41
1
10
22.9665707254646
20
-0.258596653607725
30
0
41
1
10
22.8924683536316
20
-0.213653916293396
30
0
41
1
10
22.8554813995807
20
-0.191131505446151
30
0
41
1
10
22.7815521974574
20
-0.146121382622766
30
0
41
1
10
22.7445917257458
20
-0.123663799971695
30
0
41
1
10
22.670778845129
20
-0.0786751905499443
30
0
41
1
10
22.6339410884142
20
-0.0561200132476074
30
0
41
1
10
22.5236165071527
20
0.0116987343727146
30
0
41
1
10
22.4503487365703
20
0.0571651664175192
30
0
41
1
10
22.3039432702253
20
0.14788426488289
30
0
41
1
10
22.2307327499034
20
0.193018240768822
30
0
41
1
10
22.0840192010083
20
0.28238006174962
30
0
41
1
10
22.0105832527875
20
0.326715741358527
30
0
41
1
10
21.8998564097042
20
0.391962338910275
30
0
41
1
10
21.8628591082851
20
0.413513121474722
30
0
41
1
10
21.7884852112298
20
0.455895402136036
30
0
41
1
10
21.7511743983924
20
0.476601536709438
30
0
41
1
10
21.7139821757077
20
0.49696979333217
30
0
0
SPLINE
5
1BE
100
AcDbEntity
8
1
62
256
6
ByLayer
370
18
48
1
60
0
100
AcDbSpline
70
4
71
3
72
26
73
22
40
0
40
0
40
0
40
0
40
0.178671952926723
40
0.178671952926723
40
0.269666298222772
40
0.269666298222772
40
0.315163470870795
40
0.315163470870795
40
0.360660643518817
40
0.360660643518817
40
0.542649334110906
40
0.542649334110906
40
0.633643679406948
40
0.633643679406948
40
0.72463802470299
40
0.72463802470299
40
0.906626715295079
40
0.906626715295079
40
0.997621060591122
40
0.997621060591122
40
1
40
1
40
1
40
1
41
1
10
20.8838545094818
20
-0.60233338492489
30
0
41
1
10
20.888036618177
20
-0.562465281865684
30
0
41
1
10
20.9072731434605
20
-0.504907576294983
30
0
41
1
10
20.9629008351347
20
-0.393435951161933
30
0
41
1
10
20.9856223326821
20
-0.35281471785504
30
0
41
1
10
21.0258366902342
20
-0.287758808732889
30
0
41
1
10
21.0402595262207
20
-0.265416140711665
30
0
41
1
10
21.0691238538344
20
-0.221059630930057
30
0
41
1
10
21.0838367752449
20
-0.198823088383534
30
0
41
1
10
21.1588379827516
20
-0.0873421252338744
30
0
41
1
10
21.2240778006
20
0.0036545963718879
30
0
41
1
10
21.3239351646056
20
0.134540146667234
30
0
41
1
10
21.3578299270398
20
0.177771503428374
30
0
41
1
10
21.4261888098793
20
0.26164615790745
30
0
41
1
10
21.4594089728209
20
0.299172274379487
30
0
41
1
10
21.556663030875
20
0.400684730452298
30
0
41
1
10
21.6140459347125
20
0.448717588150032
30
0
41
1
10
21.6793385281867
20
0.487272993507048
30
0
41
1
10
21.6979557538698
20
0.494777160139762
30
0
41
1
10
21.7132415555852
20
0.496856282689691
30
0
41
1
10
21.7136293629951
20
0.496906898235892
30
0
41
1
10
21.7140155778354
20
0.496955226317823
30
0
0
SPLINE
5
1BF
100
AcDbEntity
8
1
62
256
6
ByLayer
370
18
48
1
60
0
100
AcDbSpline
70
4
71
3
72
50
73
46
40
0
40
0
40
0
40
0
40
0.0773006679308917
40
0.0773006679308917
40
0.115951001896338
40
0.115951001896338
40
0.154601335861783
40
0.154601335861783
40
0.23190200379268
40
0.23190200379268
40
0.270552337758128
40
0.270552337758128
40
0.309202671723576
40
0.309202671723576
40
0.386503339654468
40
0.386503339654468
40
0.463804007585359
40
0.463804007585359
40
0.502454341550805
40
0.502454341550805
40
0.541104675516251
40
0.541104675516251
40
0.579755009481697
40
0.579755009481697
40
0.618405343447142
40
0.618405343447142
40
0.657055677412588
40
0.657055677412588
40
0.695706011378034
40
0.695706011378034
40
0.773006679308926
40
0.773006679308926
40
0.850307347239817
40
0.850307347239817
40
0.888957681205263
40
0.888957681205263
40
0.927608015170709
40
0.927608015170709
40
0.946933182153432
40
0.946933182153432
40
0.966258349136155
40
0.966258349136155
40
0.985583516118878
40
0.985583516118878
40
1
40
1
40
1
40
1
41
1
10
20.8838558296349
20
-0.602333669532896
30
0
41
1
10
20.9665791508367
20
-0.645831378301267
30
0
41
1
10
21.0493409695756
20
-0.687146827328263
30
0
41
1
10
21.1737126919128
20
-0.745715534011481
30
0
41
1
10
21.215207826656
20
-0.764670548694198
30
0
41
1
10
21.2982987241584
20
-0.801417175718939
30
0
41
1
10
21.3399458270349
20
-0.819230449390489
30
0
41
1
10
21.4646764100353
20
-0.870736544831431
30
0
41
1
10
21.5473378358557
20
-0.902424259785704
30
0
41
1
10
21.6705620718026
20
-0.945999693239486
30
0
41
1
10
21.711506359179
20
-0.959864580361284
30
0
41
1
10
21.7931497672102
20
-0.986225850885916
30
0
41
1
10
21.8338844158824
20
-0.998686522748073
30
0
41
1
10
21.9563309384166
20
-1.03353514005636
30
0
41
1
10
22.038103187348
20
-1.05355027483941
30
0
41
1
10
22.2022120329291
20
-1.08714275518838
30
0
41
1
10
22.2845494404402
20
-1.100723178674
30
0
41
1
10
22.4086096916645
20
-1.11620607286221
30
0
41
1
10
22.4500575048112
20
-1.12055055961181
30
0
41
1
10
22.5331480469387
20
-1.12758036019545
30
0
41
1
10
22.5747904257033
20
-1.13026224582416
30
0
41
1
10
22.6576256014987
20
-1.13390615093584
30
0
41
1
10
22.6989006139376
20
-1.13487611519889
30
0
41
1
10
22.7811683829157
20
-1.13510165945579
30
0
41
1
10
22.8221424906226
20
-1.13435582442304
30
0
41
1
10
22.9038554754114
20
-1.1311206678975
30
0
41
1
10
22.9446452560015
20
-1.12863468183201
30
0
41
1
10
23.0262909479195
20
-1.12198579404375
30
0
41
1
10
23.0671291505823
20
-1.11782190101056
30
0
41
1
10
23.1897557100989
20
-1.10287820114277
30
0
41
1
10
23.2716561712786
20
-1.08965193694294
30
0
41
1
10
23.4359905262534
20
-1.05689701715065
30
0
41
1
10
23.5184568606302
20
-1.03739247887708
30
0
41
1
10
23.6426533363672
20
-1.00340996845347
30
0
41
1
10
23.6841232107129
20
-0.991284478045031
30
0
41
1
10
23.7671683666121
20
-0.965346791272367
30
0
41
1
10
23.8085565671679
20
-0.951605985213405
30
0
41
1
10
23.8704815221355
20
-0.930010066398495
30
0
41
1
10
23.8911067102911
20
-0.92265024240794
30
0
41
1
10
23.9323213299626
20
-0.907608717702885
30
0
41
1
10
23.9528561273125
20
-0.899872904679057
30
0
41
1
10
23.9936807268027
20
-0.883853106767873
30
0
41
1
10
24.0140632465354
20
-0.875663861322067
30
0
41
1
10
24.04974179076
20
-0.861210309869506
30
0
41
1
10
24.0649995613813
20
-0.854969786327587
30
0
41
1
10
24.0802602964405
20
-0.848653771348694
30
0
0
SPLINE
5
1C0
100
AcDbEntity
8
1
62
256
6
ByLayer
370
18
48
1
60
0
100
AcDbSpline
70
4
71
3
72
12
73
8
40
0
40
0
40
0
40
0
40
0.0485264627622483
40
0.0485264627622483
40
0.524263231381124
40
0.524263231381124
40
1
40
1
40
1
40
1
41
1
10
28.524776889034
20
1.13499997807645
30
0
41
1
10
28.5290044023463
20
1.13500012271831
30
0
41
1
10
28.5332317125932
20
1.134991176304
30
0
41
1
10
28.578896944977
20
1.13479630966418
30
0
41
1
10
28.6203071330947
20
1.13374498017251
30
0
41
1
10
28.7032050584566
20
1.12991261821759
30
0
41
1
10
28.7446862189952
20
1.12713320274639
30
0
41
1
10
28.7862002397239
20
1.12349286872026
30
0
0
SPLINE
5
1C1
100
AcDbEntity
8
1
62
256
6
ByLayer
370
18
48
1
60
0
100
AcDbSpline
70
4
71
3
72
12
73
8
40
0
40
0
40
0
40
0
40
0.5
40
0.5
40
0.75
40
0.75
40
1
40
1
40
1
40
1
41
1
10
28.7862002397238
20
1.12349286872026
30
0
41
1
10
28.8127821833692
20
1.12116191758054
30
0
41
1
10
28.839051646899
20
1.12200272440492
30
0
41
1
10
28.8777878931016
20
1.12816867356975
30
0
41
1
10
28.8905908199382
20
1.13105085930258
30
0
41
1
10
28.9159631971435
20
1.13866367675058
30
0
41
1
10
28.9285218470708
20
1.14340210151005
30
0
41
1
10
28.9407116621979
20
1.14911205894373
30
0
0
SPLINE
5
1C2
100
AcDbEntity
8
1
62
256
6
ByLayer
370
18
48
1
60
0
100
AcDbSpline
70
4
71
3
72
8
73
4
40
0
40
0
40
0
40
0
40
1
40
1
40
1
40
1
41
1
10
28.9407116621968
20
1.1491120589464
30
0
41
1
10
28.9604467247629
20
1.15835636380498
30
0
41
1
10
28.9802377569404
20
1.16749302212824
30
0
41
1
10
29
20
1.17642546178357
30
0
0
SPLINE
5
1C3
100
AcDbEntity
8
1
62
256
6
ByLayer
370
18
48
1
60
0
100
AcDbSpline
70
4
71
3
72
8
73
4
40
0
40
0
40
0
40
0
40
1
40
1
40
1
40
1
41
1
10
31.5796622649587
20
-0.0570998016025612
30
0
41
1
10
31.5662418921063
20
-0.0458584053039601
30
0
41
1
10
31.552823809049
20
-0.0346147130265138
30
0
41
1
10
31.5394065243502
20
-0.023370505849357
30
0
0
SPLINE
5
1C4
100
AcDbEntity
8
1
62
256
6
ByLayer
370
18
48
1
60
0
100
AcDbSpline
70
4
71
3
72
8
73
4
40
0
40
0
40
0
40
0
40
1
40
1
40
1
40
1
41
1
10
32.1022965826228
20
-0.487352708064407
30
0
41
1
10
32.0889270594857
20
-0.476722078428196
30
0
41
1
10
32.0755570458934
20
-0.466058029040141
30
0
41
1
10
32.062186473798
20
-0.455360714695502
30
0
0
SPLINE
5
1C5
100
AcDbEntity
8
1
62
256
6
ByLayer
370
18
48
1
60
0
100
AcDbSpline
70
4
71
3
72
8
73
4
40
0
40
0
40
0
40
0
40
1
40
1
40
1
40
1
41
1
10
32.6250525890276
20
-0.878352569816116
30
0
41
1
10
32.6116003136793
20
-0.869091741182444
30
0
41
1
10
32.5981477413467
20
-0.859764772773161
30
0
41
1
10
32.5846944201543
20
-0.850372263372151
30
0
0
SPLINE
5
1C6
100
AcDbEntity
8
1
62
256
6
ByLayer
370
18
48
1
60
0
100
AcDbSpline
70
4
71
3
72
8
73
4
40
0
40
0
40
0
40
0
40
1
40
1
40
1
40
1
41
1
10
33.1477376106011
20
-1.19860451577716
30
0
41
1
10
33.1343478211861
20
-1.19156272694715
30
0
41
1
10
33.1209593964086
20
-1.1844278033482
30
0
41
1
10
33.1075721703459
20
-1.17719997500782
30
0
0
SPLINE
5
1C7
100
AcDbEntity
8
1
62
256
6
ByLayer
370
18
48
1
60
0
100
AcDbSpline
70
4
71
3
72
24
73
20
40
0
40
0
40
0
40
0
40
0.125000000000013
40
0.125000000000013
40
0.250000000000026
40
0.250000000000026
40
0.375000000000039
40
0.375000000000039
40
0.500000000000052
40
0.500000000000052
40
0.625000000000065
40
0.625000000000065
40
0.750000000000078
40
0.750000000000078
40
0.812500000000039
40
0.812500000000039
40
0.875
40
0.875
40
1
40
1
40
1
40
1
41
1
10
34.3717430880999
20
-1.2492087507355
30
0
41
1
10
34.3752860840191
20
-1.24339120702101
30
0
41
1
10
34.3794283061575
20
-1.23833244960426
30
0
41
1
10
34.3886622926353
20
-1.22941325668773
30
0
41
1
10
34.3938202030415
20
-1.22552897481216
30
0
41
1
10
34.404686716101
20
-1.219137159513
30
0
41
1
10
34.4103970149395
20
-1.21660491653657
30
0
41
1
10
34.4223452199407
20
-1.2128347312881
30
0
41
1
10
34.4284895372082
20
-1.21163586711506
30
0
41
1
10
34.4408691934353
20
-1.21065293245636
30
0
41
1
10
34.4471807823229
20
-1.21086174284605
30
0
41
1
10
34.4597853217455
20
-1.21286992999762
30
0
41
1
10
34.4659488739115
20
-1.214636825653
30
0
41
1
10
34.4749386088509
20
-1.21861137802381
30
0
41
1
10
34.4779118512092
20
-1.22017381827749
30
0
41
1
10
34.483609721067
20
-1.22372323233506
30
0
41
1
10
34.4863441510763
20
-1.22571050061481
30
0
41
1
10
34.494170360451
20
-1.23236923406745
30
0
41
1
10
34.4989098012655
20
-1.23778903490722
30
0
41
1
10
34.5027127052301
20
-1.24405363126769
30
0
0
SPLINE
5
1C8
100
AcDbEntity
8
1
62
256
6
ByLayer
370
18
48
1
60
0
100
AcDbSpline
70
4
71
3
72
8
73
4
40
0
40
0
40
0
40
0
40
1
40
1
40
1
40
1
41
1
10
34.5027127052315
20
-1.24405363126999
30
0
41
1
10
34.5072592291362
20
-1.25154320696649
30
0
41
1
10
34.5118020484607
20
-1.25901575699657
30
0
41
1
10
34.5163413252828
20
-1.26647116653535
30
0
0
SPLINE
5
1C9
100
AcDbEntity
8
1
62
256
6
ByLayer
370
18
48
1
60
0
100
AcDbSpline
70
4
71
3
72
10
73
6
40
0
40
0
40
0
40
0
40
0.5
40
0.5
40
1
40
1
40
1
40
1
41
1
10
34.5163413252832
20
-1.26647116653504
30
0
41
1
10
34.5535048291254
20
-1.2557200295951
30
0
41
1
10
34.590891687345
20
-1.2440570769381
30
0
41
1
10
34.6661963332251
20
-1.21893704518081
30
0
41
1
10
34.7040900698246
20
-1.20548461325123
30
0
41
1
10
34.7419820464404
20
-1.19125887421089
30
0
0
SPLINE
5
1CA
100
AcDbEntity
8
1
62
256
6
ByLayer
370
18
48
1
60
0
100
AcDbSpline
70
4
71
3
72
73
73
69
40
0
40
0
40
0
40
0
40
0.0156250000000016
40
0.0156250000000016
40
0.0312500000000033
40
0.0312500000000033
40
0.0625000000000007
40
0.0625000000000007
40
0.124999999999996
40
0.124999999999996
40
0.18749999999999
40
0.18749999999999
40
0.249999999999985
40
0.249999999999985
40
0.31249999999998
40
0.31249999999998
40
0.374999999999974
40
0.374999999999974
40
0.406249999999972
40
0.406249999999972
40
0.421874999999972
40
0.421874999999972
40
0.437499999999973
40
0.437499999999973
40
0.468749999999973
40
0.468749999999973
40
0.484374999999975
40
0.484374999999975
40
0.499999999999976
40
0.499999999999976
40
0.562499999999987
40
0.562499999999987
40
0.578124999999989
40
0.578124999999989
40
0.593749999999991
40
0.624999999999998
40
0.624999999999998
40
0.640625000000002
40
0.640625000000002
40
0.656250000000005
40
0.656250000000005
40
0.671875000000009
40
0.671875000000009
40
0.687500000000012
40
0.687500000000012
40
0.703125000000016
40
0.703125000000016
40
0.71875000000002
40
0.71875000000002
40
0.750000000000027
40
0.750000000000027
40
0.765625000000028
40
0.765625000000028
40
0.781250000000028
40
0.781250000000028
40
0.812500000000024
40
0.812500000000024
40
0.843750000000019
40
0.843750000000019
40
0.875000000000014
40
0.875000000000014
40
0.937500000000004
40
0.937500000000004
40
0.96875
40
0.96875
40
0.984375
40
0.984375
40
1
40
1
40
1
40
1
41
1
10
34.7047981319213
20
-0.467627627889612
30
0
41
1
10
34.7134022943027
20
-0.467686365356002
30
0
41
1
10
34.722022855795
20
-0.467629083868985
30
0
41
1
10
34.7393075591362
20
-0.467242778986162
30
0
41
1
10
34.7479795776637
20
-0.466878034574449
30
0
41
1
10
34.774007601142
20
-0.465637292353023
30
0
41
1
10
34.7912860895586
20
-0.465022621241587
30
0
41
1
10
34.8427918497889
20
-0.464142956009852
30
0
41
1
10
34.8767297900221
20
-0.464662638594603
30
0
41
1
10
34.9437422054012
20
-0.467139320192302
30
0
41
1
10
34.9768244917701
20
-0.469082802476521
30
0
41
1
10
35.0418129122597
20
-0.47429889945019
30
0
41
1
10
35.0736464072723
20
-0.477662522243776
30
0
41
1
10
35.1353042246536
20
-0.485595984620801
30
0
41
1
10
35.1651933495206
20
-0.490106459714525
30
0
41
1
10
35.2220751632019
20
-0.5003094918454
30
0
41
1
10
35.2491059935119
20
-0.50599288228733
30
0
41
1
10
35.2856624607442
20
-0.5162882943103
30
0
41
1
10
35.2971912567977
20
-0.520010738041833
30
0
41
1
10
35.3128654184653
20
-0.526455301163793
30
0
41
1
10
35.3177968700053
20
-0.528716457618913
30
0
41
1
10
35.327371199281
20
-0.533011903546964
30
0
41
1
10
35.3319856861958
20
-0.535085857952879
30
0
41
1
10
35.345208736364
20
-0.541142520555553
30
0
41
1
10
35.3531931239235
20
-0.544969122132414
30
0
41
1
10
35.3634860988886
20
-0.550562484394419
30
0
41
1
10
35.3666354408221
20
-0.552402698660956
30
0
41
1
10
35.3722794193035
20
-0.556071877244364
30
0
41
1
10
35.374765238594
20
-0.557896245537592
30
0
41
1
10
35.3852045785865
20
-0.567007464366412
30
0
41
1
10
35.3872739003154
20
-0.574241479059964
30
0
41
1
10
35.3789216178119
20
-0.585919743037152
30
0
41
1
10
35.3766873828462
20
-0.588409204119074
30
0
41
1
10
35.3711964187076
20
-0.593640808217685
30
0
41
1
10
35.3614360587002
20
-0.601876989057814
30
0
41
1
10
35.347414841919
20
-0.611525850904144
30
0
41
1
10
35.3309916690194
20
-0.622365798671893
30
0
41
1
10
35.3251168636313
20
-0.6261768992116
30
0
41
1
10
35.3126338966878
20
-0.634229217095282
30
0
41
1
10
35.3060428186662
20
-0.638461830534595
30
0
41
1
10
35.2924313791883
20
-0.647215126186381
30
0
41
1
10
35.2854087212545
20
-0.651718215688874
30
0
41
1
10
35.2708958819046
20
-0.661146978753379
30
0
41
1
10
35.2633429145081
20
-0.666171993894551
30
0
41
1
10
35.2475716728545
20
-0.677116998914954
30
0
41
1
10
35.2393733255041
20
-0.683006140064094
30
0
41
1
10
35.2224496730556
20
-0.695573019629279
30
0
41
1
10
35.2137251910513
20
-0.702253068004779
30
0
41
1
10
35.1874543460081
20
-0.722956593934896
30
0
41
1
10
35.1696132962839
20
-0.737790474337373
30
0
41
1
10
35.1425262493816
20
-0.761378739244719
30
0
41
1
10
35.1334411794506
20
-0.769465328107543
30
0
41
1
10
35.1151690144858
20
-0.786066454515066
30
0
41
1
10
35.1060237278321
20
-0.794543876844898
30
0
41
1
10
35.0787926532942
20
-0.820249975693798
30
0
41
1
10
35.0608129296436
20
-0.837839402060666
30
0
41
1
10
35.0251210652798
20
-0.873766887358983
30
0
41
1
10
35.0074081620576
20
-0.892103930874981
30
0
41
1
10
34.9721638218717
20
-0.929393437220483
30
0
41
1
10
34.9545806920278
20
-0.948404065078876
30
0
41
1
10
34.902957206322
20
-1.00512802056807
30
0
41
1
10
34.8697215836708
20
-1.0428641907242
30
0
41
1
10
34.8210222323701
20
-1.09899785745935
30
0
41
1
10
34.8049865342938
20
-1.1176309822946
30
0
41
1
10
34.7811713843382
20
-1.14541980088282
30
0
41
1
10
34.7732688838981
20
-1.15465988919195
30
0
41
1
10
34.7575419042534
20
-1.17306321698928
30
0
41
1
10
34.7497537673465
20
-1.18218629661374
30
0
41
1
10
34.7419820464405
20
-1.19125887421089
30
0
0
SPLINE
5
1CB
100
AcDbEntity
8
1
62
256
6
ByLayer
370
18
48
1
60
0
100
AcDbSpline
70
4
71
3
72
10
73
6
40
0
40
0
40
0
40
0
40
0.5
40
0.5
40
1
40
1
40
1
40
1
41
1
10
34.704798131928
20
-0.467627627899873
30
0
41
1
10
34.6592635915588
20
-0.44577282250583
30
0
41
1
10
34.6140565974005
20
-0.422776626628775
30
0
41
1
10
34.524176126778
20
-0.374583922809506
30
0
41
1
10
34.4795226512521
20
-0.349346008800978
30
0
41
1
10
34.4347790541262
20
-0.323578176696941
30
0
0
SPLINE
5
1CC
100
AcDbEntity
8
1
62
256
6
ByLayer
370
18
48
1
60
0
100
AcDbSpline
70
4
71
3
72
8
73
4
40
0
40
0
40
0
40
0
40
1
40
1
40
1
40
1
41
1
10
34.4347790541262
20
-0.323578176696941
30
0
41
1
10
34.4187124671909
20
-0.299314675147031
30
0
41
1
10
34.4025931113251
20
-0.275588186751662
30
0
41
1
10
34.3864078950907
20
-0.252410375500489
30
0
0
SPLINE
5
1CD
100
AcDbEntity
8
1
62
256
6
ByLayer
370
18
48
1
60
0
100
AcDbSpline
70
4
71
3
72
22
73
18
40
0
40
0
40
0
40
0
40
0.125
40
0.125
40
0.25
40
0.25
40
0.375
40
0.375
40
0.5
40
0.5
40
0.625
40
0.625
40
0.75
40
0.75
40
0.875
40
0.875
40
1
40
1
40
1
40
1
41
1
10
34.3864078950907
20
-0.252410375500489
30
0
41
1
10
34.3829643550056
20
-0.247479102358199
30
0
41
1
10
34.3789510890557
20
-0.242535378423582
30
0
41
1
10
34.3699927944186
20
-0.232632536681308
30
0
41
1
10
34.364989194772
20
-0.227625734454222
30
0
41
1
10
34.3544029275927
20
-0.217899217390453
30
0
41
1
10
34.3488170628348
20
-0.213166722963251
30
0
41
1
10
34.3370723252883
20
-0.203947393714884
30
0
41
1
10
34.3309424114941
20
-0.199490743681281
30
0
41
1
10
34.3185847278991
20
-0.191167935986613
30
0
41
1
10
34.3123022331801
20
-0.187256287527134
30
0
41
1
10
34.2995148182451
20
-0.179991810993215
30
0
41
1
10
34.293168700946
20
-0.176733425863233
30
0
41
1
10
34.2808887409455
20
-0.171208812676241
30
0
41
1
10
34.2749010281104
20
-0.16892783410006
30
0
41
1
10
34.2641735178056
20
-0.165847392944386
30
0
41
1
10
34.259327623513
20
-0.16501919635823
30
0
41
1
10
34.2554921142098
20
-0.165142476720831
30
0
0
SPLINE
5
1CE
100
AcDbEntity
8
1
62
256
6
ByLayer
370
18
48
1
60
0
100
AcDbSpline
70
4
71
3
72
8
73
4
40
0
40
0
40
0
40
0
40
1
40
1
40
1
40
1
41
1
10
33.566570233981
20
0.29128623854325
30
0
41
1
10
33.5538817276919
20
0.301599289545265
30
0
41
1
10
33.5412147389169
20
0.311947372191838
30
0
41
1
10
33.5285667869671
20
0.322327419525095
30
0
0
SPLINE
5
1CF
100
AcDbEntity
8
1
62
256
6
ByLayer
370
18
48
1
60
0
100
AcDbSpline
70
4
71
3
72
8
73
4
40
0
40
0
40
0
40
0
40
1
40
1
40
1
40
1
41
1
10
33.5210363019625
20
0.328527027792717
30
0
41
1
10
33.5235463628735
20
0.326461130296252
30
0
41
1
10
33.5260565186887
20
0.32439458717289
30
0
41
1
10
33.5285667869671
20
0.322327419525095
30
0
0
SPLINE
5
1D0
100
AcDbEntity
8
1
62
256
6
ByLayer
370
18
48
1
60
0
100
AcDbSpline
70
4
71
3
72
10
73
6
40
0
40
0
40
0
40
0
40
0.5
40
0.5
40
1
40
1
40
1
40
1
41
1
10
33.210061467393
20
0.53024913149369
30
0
41
1
10
33.1813126883271
20
0.556138905035397
30
0
41
1
10
33.1526094390517
20
0.584060722156579
30
0
41
1
10
33.0954073280671
20
0.643859058494002
30
0
41
1
10
33.066951146363
20
0.675651810120428
30
0
41
1
10
33.0386189558029
20
0.709240531166785
30
0
0
SPLINE
5
1D1
100
AcDbEntity
8
1
62
256
6
ByLayer
370
18
48
1
60
0
100
AcDbSpline
70
4
71
3
72
8
73
4
40
0
40
0
40
0
40
0
40
1
40
1
40
1
40
1
41
1
10
32.9985492515146
20
0.739035469438846
30
0
41
1
10
33.0119012576789
20
0.729153835782029
30
0
41
1
10
33.0252576901538
20
0.71922195800903
30
0
41
1
10
33.0386189558029
20
0.709240531166756
30
0
0
SPLINE
5
1D2
100
AcDbEntity
8
1
62
256
6
ByLayer
370
18
48
1
60
0
100
AcDbSpline
70
4
71
3
72
8
73
4
40
0
40
0
40
0
40
0
40
1
40
1
40
1
40
1
41
1
10
32.9985492515163
20
0.739035469430661
30
0
41
1
10
32.9391490859508
20
0.755894813244367
30
0
41
1
10
32.879162819776
20
0.762886962901973
30
0
41
1
10
32.8182992434636
20
0.758548770781886
30
0
0
SPLINE
5
1D3
100
AcDbEntity
8
1
62
256
6
ByLayer
370
18
48
1
60
0
100
AcDbSpline
70
4
71
3
72
22
73
18
40
0
40
0
40
0
40
0
40
0.124999999999999
40
0.124999999999999
40
0.249999999999999
40
0.249999999999999
40
0.374999999999999
40
0.374999999999999
40
0.499999999999999
40
0.499999999999999
40
0.624999999999999
40
0.624999999999999
40
0.75
40
0.75
40
0.875
40
0.875
40
1
40
1
40
1
40
1
41
1
10
32.8182992434636
20
0.758548770781886
30
0
41
1
10
32.8148544888992
20
0.758303237935934
30
0
41
1
10
32.810841138581
20
0.758593597374244
30
0
41
1
10
32.801883903343
20
0.760036764996386
30
0
41
1
10
32.796881915533
20
0.761211946147
30
0
41
1
10
32.7863005608774
20
0.764318228061057
30
0
41
1
10
32.7807175283676
20
0.766242696199555
30
0
41
1
10
32.7689785680826
20
0.77084650698356
30
0
41
1
10
32.7628517925929
20
0.773520364615848
30
0
41
1
10
32.7504966242803
20
0.77948366814735
30
0
41
1
10
32.7442137409123
20
0.782791776478462
30
0
41
1
10
32.7314225249331
20
0.790218586587201
30
0
41
1
10
32.7250705990882
20
0.794250847242893
30
0
41
1
10
32.7127825975223
20
0.802927106587134
30
0
41
1
10
32.706789992789
20
0.807624709119779
30
0
41
1
10
32.6960528244023
20
0.817254890790309
30
0
41
1
10
32.6912019185709
20
0.822287104479216
30
0
41
1
10
32.6873632717142
20
0.827182396468203
30
0
0
SPLINE
5
1D4
100
AcDbEntity
8
1
62
256
6
ByLayer
370
18
48
1
60
0
100
AcDbSpline
70
4
71
3
72
10
73
6
40
0
40
0
40
0
40
0
40
0.5
40
0.5
40
1
40
1
40
1
40
1
41
1
10
32.6873632717142
20
0.827182396468203
30
0
41
1
10
32.6586275728167
20
0.863828027562022
30
0
41
1
10
32.629937521431
20
0.902077661566409
30
0
41
1
10
32.57276090801
20
0.981566089371114
30
0
41
1
10
32.5443181986513
20
1.02273171608837
30
0
41
1
10
32.5159993159503
20
1.06521217096082
30
0
0
SPLINE
5
1D5
100
AcDbEntity
8
1
62
256
6
ByLayer
370
18
48
1
60
0
100
AcDbSpline
70
4
71
3
72
8
73
4
40
0
40
0
40
0
40
0
40
1
40
1
40
1
40
1
41
1
10
32.4757143844105
20
1.08942352984371
30
0
41
1
10
32.4891399875897
20
1.0814350620949
30
0
41
1
10
32.5025676309036
20
1.07336393130726
30
0
41
1
10
32.5159993159503
20
1.06521217096082
30
0
0
SPLINE
5
1D6
100
AcDbEntity
8
1
62
256
6
ByLayer
370
18
48
1
60
0
100
AcDbSpline
70
4
71
3
72
10
73
6
40
0
40
0
40
0
40
0
40
0.5
40
0.5
40
1
40
1
40
1
40
1
41
1
10
32.4757143844114
20
1.08942352983604
30
0
41
1
10
32.4460419015804
20
1.08066624054541
30
0
41
1
10
32.4162284621035
20
1.0694541625536
30
0
41
1
10
32.3561711801276
20
1.04199610412624
30
0
41
1
10
32.3260226051497
20
1.02581682982626
30
0
41
1
10
32.2956331759409
20
1.00696995991672
30
0
0
SPLINE
5
1D7
100
AcDbEntity
8
1
62
256
6
ByLayer
370
18
48
1
60
0
100
AcDbSpline
70
4
71
3
72
8
73
4
40
0
40
0
40
0
40
0
40
1
40
1
40
1
40
1
41
1
10
31.9531253574621
20
1.35163863711134
30
0
41
1
10
31.9665132882812
20
1.34623158933175
30
0
41
1
10
31.9799047487498
20
1.34072035022427
30
0
41
1
10
31.9933011122802
20
1.3351062105186
30
0
0
SPLINE
5
1D8
100
AcDbEntity
8
1
62
256
6
ByLayer
370
18
48
1
60
0
100
AcDbSpline
70
4
71
3
72
8
73
4
40
0
40
0
40
0
40
0
40
1
40
1
40
1
40
1
41
1
10
31.4304305174315
20
1.5049156192747
30
0
41
1
10
31.4438229489288
20
1.50252389143955
30
0
41
1
10
31.4572187879442
20
1.50001442358106
30
0
41
1
10
31.4706182487723
20
1.4973877677389
30
0
0
SPLINE
5
1D9
100
AcDbEntity
8
1
62
256
6
ByLayer
370
18
48
1
60
0
100
AcDbSpline
70
4
71
3
72
22
73
18
40
0
40
0
40
0
40
0
40
0.249999999999998
40
0.249999999999998
40
0.312499999999998
40
0.312499999999998
40
0.374999999999998
40
0.374999999999998
40
0.499999999999998
40
0.499999999999998
40
0.749999999999999
40
0.749999999999999
40
0.812499999999999
40
0.812499999999999
40
0.874999999999999
40
0.874999999999999
40
1
40
1
40
1
40
1
41
1
10
31.1376160816028
20
-0.822451386164659
30
0
41
1
10
31.1327226501624
20
-0.73673179438515
30
0
41
1
10
31.1279443411749
20
-0.646596910603961
30
0
41
1
10
31.1217631797306
20
-0.528470767235746
30
0
41
1
10
31.1205180319864
20
-0.504570125483667
30
0
41
1
10
31.1180140681175
20
-0.456209264637181
30
0
41
1
10
31.1167519199525
20
-0.431683569352828
30
0
41
1
10
31.1129742228891
20
-0.357748120866262
30
0
41
1
10
31.1104779377142
20
-0.308172634690465
30
0
41
1
10
31.1030528119592
20
-0.158617807091389
30
0
41
1
10
31.0982023619732
20
-0.0578178254146167
30
0
41
1
10
31.0920403348322
20
0.0695828165161458
30
0
41
1
10
31.090799819286
20
0.0951738469095744
30
0
41
1
10
31.0883179602949
20
0.146052530996087
30
0
41
1
10
31.0870735818867
20
0.171387627700511
30
0
41
1
10
31.0833211569847
20
0.247081846294151
30
0
41
1
10
31.0807999341134
20
0.29713113722832
30
0
41
1
10
31.0782732380037
20
0.346764397771295
30
0
0
SPLINE
5
1DA
100
AcDbEntity
8
1
62
256
6
ByLayer
370
18
48
1
60
0
100
AcDbSpline
70
4
71
3
72
8
73
4
40
0
40
0
40
0
40
0
40
1
40
1
40
1
40
1
41
1
10
30.9885052127004
20
0.412441019730039
30
0
41
1
10
31.0185703744232
20
0.390825218423942
30
0
41
1
10
31.0484925460316
20
0.368932702314453
30
0
41
1
10
31.0782732380075
20
0.346764397775701
30
0
0
SPLINE
5
1DB
100
AcDbEntity
8
SK1
62
256
6
ByLayer
370
18
48
1
60
0
100
AcDbSpline
70
4
71
3
72
22
73
18
40
0
40
0
40
0
40
0
40
0.124981893869456
40
0.124981893869456
40
0.249963787738912
40
0.249963787738912
40
0.499927575477823
40
0.499927575477823
40
0.624909469347279
40
0.624909469347279
40
0.687400416282007
40
0.687400416282007
40
0.749891363216735
40
0.749891363216735
40
0.999855150955647
40
0.999855150955647
40
1
40
1
40
1
40
1
41
1
10
-20
20
1.34999999999997
30
0
41
1
10
-20.0227233080499
20
1.34999999999997
30
0
41
1
10
-20.0448914469382
20
1.34999999999997
30
0
41
1
10
-20.0877266864706
20
1.34999999999997
30
0
41
1
10
-20.1083284459351
20
1.34999999999997
30
0
41
1
10
-20.167230967575
20
1.34999999999997
30
0
41
1
10
-20.202663797918
20
1.34999999999997
30
0
41
1
10
-20.2476748963658
20
1.34999999999997
30
0
41
1
10
-20.2613137295386
20
1.34999999999997
30
0
41
1
10
-20.279347296802
20
1.34999999999997
30
0
41
1
10
-20.284953806971
20
1.34999999999997
30
0
41
1
10
-20.2952881054335
20
1.34999999999997
30
0
41
1
10
-20.3000257521431
20
1.34999999999997
30
0
41
1
10
-20.3212026648993
20
1.34999999999997
30
0
41
1
10
-20.3299903883143
20
1.34999999999997
30
0
41
1
10
-20.3299989989803
20
1.34999999999997
30
0
41
1
10
-20.3300010003519
20
1.34999999999997
30
0
41
1
10
-20.3299990013234
20
1.34999999999997
30
0
0
SPLINE
5
1DC
100
AcDbEntity
8
SK1
62
256
6
ByLayer
370
18
48
1
60
0
100
AcDbSpline
70
4
71
3
72
22
73
18
40
0
40
0
40
0
40
0
40
0.0001444393187323
40
0.0001444393187323
40
0.25010832948905
40
0.25010832948905
40
0.312599302031629
40
0.312599302031629
40
0.375090274574208
40
0.375090274574208
40
0.500072219659366
40
0.500072219659366
40
0.750036109829684
40
0.750036109829684
40
0.875018054914842
40
0.875018054914842
40
1
40
1
40
1
40
1
41
1
10
-20.3299990013176
20
-1.35000000000002
30
0
41
1
10
-20.3300010003369
20
-1.35000000000002
30
0
41
1
10
-20.3299989989563
20
-1.35000000000002
30
0
41
1
10
-20.3299903883143
20
-1.35000000000002
30
0
41
1
10
-20.3212026648993
20
-1.35000000000002
30
0
41
1
10
-20.3000257521431
20
-1.35000000000002
30
0
41
1
10
-20.2952881054335
20
-1.35000000000002
30
0
41
1
10
-20.284953806971
20
-1.35000000000002
30
0
41
1
10
-20.279347296802
20
-1.35000000000002
30
0
41
1
10
-20.2613137295386
20
-1.35000000000002
30
0
41
1
10
-20.2476748963658
20
-1.35000000000002
30
0
41
1
10
-20.2026637979179
20
-1.35000000000002
30
0
41
1
10
-20.167230967575
20
-1.35000000000002
30
0
41
1
10
-20.1083284459351
20
-1.35000000000002
30
0
41
1
10
-20.0877266864706
20
-1.35000000000002
30
0
41
1
10
-20.0448914469382
20
-1.35000000000002
30
0
41
1
10
-20.0227233080499
20
-1.35000000000002
30
0
41
1
10
-20
20
-1.35000000000002
30
0
0
SPLINE
5
1DD
100
AcDbEntity
8
SK1
62
256
6
ByLayer
370
18
48
1
60
0
100
AcDbSpline
70
4
71
3
72
32
73
28
40
0
40
0
40
0
40
0
40
0.0625000000000001
40
0.0625000000000001
40
0.125
40
0.125
40
0.25
40
0.25
40
0.375
40
0.375
40
0.4375
40
0.4375
40
0.5
40
0.5
40
0.625000000000001
40
0.625000000000001
40
0.656250000000001
40
0.656250000000001
40
0.687500000000001
40
0.687500000000001
40
0.75
40
0.75
40
0.875
40
0.875
40
0.9375
40
0.9375
40
1
40
1
40
1
40
1
41
1
10
-20
20
-0.999949998749969
30
0
41
1
10
-20.0226089992037
20
-0.961964980789418
30
0
41
1
10
-20.0446414325945
20
-0.923556954209289
30
0
41
1
10
-20.0873065833473
20
-0.845713972410636
30
0
41
1
10
-20.1079538208723
20
-0.80625143015169
30
0
41
1
10
-20.167235889623
20
-0.686151565538751
30
0
41
1
10
-20.2027721025258
20
-0.604757310331763
30
0
41
1
10
-20.262764019981
20
-0.438277271124207
30
0
41
1
10
-20.2872132552966
20
-0.353189331863888
30
0
41
1
10
-20.312577717807
20
-0.221789640917564
30
0
41
1
10
-20.3191405381361
20
-0.177169266100549
30
0
41
1
10
-20.3278289032073
20
-0.0884146419300009
30
0
41
1
10
-20.3300047939188
20
-0.0441017000041199
30
0
41
1
10
-20.3299903883143
20
0.0886429108702202
30
0
41
1
10
-20.3212026648993
20
0.176878721756935
30
0
41
1
10
-20.3000257521431
20
0.286870907411526
30
0
41
1
10
-20.2952881054335
20
0.308824177666793
30
0
41
1
10
-20.284953806971
20
0.352277195461767
30
0
41
1
10
-20.279347296802
20
0.373830967874341
30
0
41
1
10
-20.2613137295386
20
0.4380149817747
30
0
41
1
10
-20.2476748963658
20
0.48016880871964
30
0
41
1
10
-20.2026637979179
20
0.605020481841706
30
0
41
1
10
-20.167230967575
20
0.686121900852925
30
0
41
1
10
-20.1083284459351
20
0.80551210617773
30
0
41
1
10
-20.0877266864706
20
0.844928431198611
30
0
41
1
10
-20.0448914469382
20
0.923119563851714
30
0
41
1
10
-20.0227233080499
20
0.96177293232509
30
0
41
1
10
-20
20
0.999949998749941
30
0
0
SPLINE
5
1DE
100
AcDbEntity
8
1
62
256
6
ByLayer
370
18
48
1
60
0
100
AcDbSpline
70
4
71
1
72
4
73
2
40
0
40
0
40
1
40
1
41
1
10
34.0791054159168
20
-1.3803643692813
30
0
41
1
10
34.3371267972852
20
-1.31385682886466
30
0
0
SPLINE
5
1DF
100
AcDbEntity
8
1
62
256
6
ByLayer
370
18
48
1
60
0
100
AcDbSpline
70
4
71
2
72
6
73
3
40
0
40
0
40
0
40
1
40
1
40
1
41
1
10
33.9907864063665
20
-1.24766646608515
30
0
41
1
10
34.0248159417339
20
-1.3063781922184
30
0
41
1
10
34.0588348282964
20
-1.36511033134005
30
0
0
SPLINE
5
1E0
100
AcDbEntity
8
1
62
256
6
ByLayer
370
18
48
1
60
0
100
AcDbSpline
70
4
71
2
72
6
73
3
40
0
40
0
40
0
40
1
40
1
40
1
41
1
10
33.4864134545949
20
-1.24187115483548
30
0
41
1
10
33.5538763485819
20
-1.35793253011056
30
0
41
1
10
33.6212015665309
20
-1.47408731901726
30
0
0
SPLINE
5
1E1
100
AcDbEntity
8
1
62
256
6
ByLayer
370
18
48
1
60
0
100
AcDbSpline
70
4
71
1
72
4
73
2
40
0
40
0
40
1
40
1
41
1
10
33.6453448906062
20
-1.49218007966786
30
0
41
1
10
33.7691186305653
20
-1.46027519882307
30
0
0
SPLINE
5
1E2
100
AcDbEntity
8
1
62
256
6
ByLayer
370
18
48
1
60
0
100
AcDbSpline
70
4
71
2
72
6
73
3
40
0
40
0
40
0
40
1
40
1
40
1
41
1
10
30.379404490133
20
-1.24046316972536
30
0
41
1
10
30.3987500702459
20
-1.20768082426449
30
0
41
1
10
30.4437999807326
20
-1.21536955234666
30
0
0
SPLINE
5
1E3
100
AcDbEntity
8
1
62
256
6
ByLayer
370
18
48
1
60
0
100
AcDbSpline
70
4
71
3
72
9
73
5
40
0
40
0
40
0
40
0
40
0.509080424194933
40
1
40
1
40
1
40
1
41
1
10
31.235826489447
20
1.24084852150074
30
0
41
1
10
31.2325225769824
20
1.23472514922477
30
0
41
1
10
31.2230305988627
20
1.22497912131604
30
0
41
1
10
31.2052033032115
20
1.21641376952388
30
0
41
1
10
31.196097942165
20
1.21473520773284
30
0
0
SPLINE
5
1E4
100
AcDbEntity
8
1
62
256
6
ByLayer
370
18
48
1
60
0
100
AcDbSpline
70
4
71
3
72
8
73
4
40
0
40
0
40
0
40
0
40
1
40
1
40
1
40
1
41
1
10
31.1832360842694
20
1.21402782327038
30
0
41
1
10
31.1796436673782
20
1.2142515480889
30
0
41
1
10
31.1759669249604
20
1.21479237401803
30
0
41
1
10
31.1721615021739
20
1.21559022845801
30
0
0
SPLINE
5
1E5
100
AcDbEntity
8
1
62
256
6
ByLayer
370
18
48
1
60
0
100
AcDbSpline
70
4
71
2
72
6
73
3
40
0
40
0
40
0
40
1
40
1
40
1
41
1
10
30.2888182133656
20
-1.39620871946673
30
0
41
1
10
30.3332649961036
20
-1.31969914429695
30
0
41
1
10
30.3777631259393
20
-1.2432448305228
30
0
0
SPLINE
5
1E6
100
AcDbEntity
8
1
62
256
6
ByLayer
370
18
48
1
60
0
100
AcDbSpline
70
4
71
2
72
6
73
3
40
0
40
0
40
0
40
1
40
1
40
1
41
1
10
31.4081577393765
20
1.53768769483895
30
0
41
1
10
31.3223888359425
20
1.38979280928231
30
0
41
1
10
31.2364896640326
20
1.24204027012377
30
0
0
SPLINE
5
1E7
100
AcDbEntity
8
1
62
256
6
ByLayer
370
18
48
1
60
0
100
AcDbSpline
70
4
71
3
72
11
73
7
40
0
40
0
40
0
40
0
40
0.235299444945922
40
0.482790519145842
40
0.741385925234879
40
1
40
1
40
1
40
1
41
1
10
33.8786468306027
20
-1.24200010192982
30
0
41
1
10
33.8810990069189
20
-1.23617660616603
30
0
41
1
10
33.8906362036733
20
-1.22634654591221
30
0
41
1
10
33.9215845155009
20
-1.21016346724943
30
0
41
1
10
33.9644145047134
20
-1.21706333813432
30
0
41
1
10
33.9809159024607
20
-1.23291735044896
30
0
41
1
10
33.9877172818024
20
-1.24406833854709
30
0
0
SPLINE
5
1E8
100
AcDbEntity
8
1
62
256
6
ByLayer
370
18
48
1
60
0
100
AcDbSpline
70
4
71
2
72
6
73
3
40
0
40
0
40
0
40
1
40
1
40
1
41
1
10
29.9873521858572
20
-1.24331274957015
30
0
41
1
10
30.0221770276797
20
-1.30327264362916
30
0
41
1
10
30.0569874884303
20
-1.36327701651931
30
0
0
SPLINE
5
1E9
100
AcDbEntity
8
1
62
256
6
ByLayer
370
18
48
1
60
0
100
AcDbSpline
70
4
71
2
72
6
73
3
40
0
40
0
40
0
40
1
40
1
40
1
41
1
10
31.6272740988981
20
1.24411519512992
30
0
41
1
10
31.542162148023
20
1.39047549151235
30
0
41
1
10
31.4571302068147
20
1.53708693384706
30
0
0
SPLINE
5
1EA
100
AcDbEntity
8
1
62
256
6
ByLayer
370
18
48
1
60
0
100
AcDbSpline
70
4
71
3
72
10
73
6
40
0
40
0
40
0
40
0
40
0.274472612317342
40
0.53730886242141
40
1
40
1
40
1
40
1
41
1
10
29.8786780247981
20
-1.24197035504258
30
0
41
1
10
29.8848168985909
20
-1.23167499560972
30
0
41
1
10
29.9000294556187
20
-1.21701491611873
30
0
41
1
10
29.9558499154143
20
-1.21028668305249
30
0
41
1
10
29.9759756695451
20
-1.22393634591049
30
0
41
1
10
29.9856426844822
20
-1.24035161431067
30
0
0
SPLINE
5
1EB
100
AcDbEntity
8
1
62
256
6
ByLayer
370
18
48
1
60
0
100
AcDbSpline
70
4
71
3
72
10
73
6
40
0
40
0
40
0
40
0
40
0.274057405676437
40
0.536712467930021
40
1
40
1
40
1
40
1
41
1
10
31.7364551912805
20
1.24177825532362
30
0
41
1
10
31.7303264424151
20
1.23146545521138
30
0
41
1
10
31.7151360495689
20
1.21677758877254
30
0
41
1
10
31.6593218567995
20
1.21014642271067
30
0
41
1
10
31.639242843547
20
1.22379529897768
30
0
41
1
10
31.6296183383162
20
1.24023066929598
30
0
0
SPLINE
5
1EC
100
AcDbEntity
8
1
62
256
6
ByLayer
370
18
48
1
60
0
100
AcDbSpline
70
4
71
2
72
6
73
3
40
0
40
0
40
0
40
1
40
1
40
1
41
1
10
33.7399910905386
20
-1.48051660580921
30
0
41
1
10
33.8089727697557
20
-1.36167748358963
30
0
41
1
10
33.8780219848464
20
-1.24303349820693
30
0
0
SPLINE
5
1ED
100
AcDbEntity
8
1
62
256
6
ByLayer
370
18
48
1
60
0
100
AcDbSpline
70
4
71
2
72
6
73
3
40
0
40
0
40
0
40
1
40
1
40
1
41
1
10
29.8298807429416
20
-1.32580553750401
30
0
41
1
10
29.8546144144446
20
-1.28325295841498
30
0
41
1
10
29.8793893136464
20
-1.24068826420083
30
0
0
SPLINE
5
1EE
100
AcDbEntity
8
1
62
256
6
ByLayer
370
18
48
1
60
0
100
AcDbSpline
70
4
71
3
72
11
73
7
40
0
40
0
40
0
40
0
40
0.254735016701101
40
0.512113689599215
40
0.760624658173539
40
1
40
1
40
1
40
1
41
1
10
33.3771026950216
20
-1.24422945622078
30
0
41
1
10
33.3840534315454
20
-1.23293144541142
30
0
41
1
10
33.4007735939114
20
-1.21673981131519
30
0
41
1
10
33.4437238283793
20
-1.21000846436235
30
0
41
1
10
33.4746491093529
20
-1.22641279563118
30
0
41
1
10
33.4841131968755
20
-1.23615735688537
30
0
41
1
10
33.4864649131592
20
-1.24195943130215
30
0
0
SPLINE
5
1EF
100
AcDbEntity
8
1
62
256
6
ByLayer
370
18
48
1
60
0
100
AcDbSpline
70
4
71
2
72
6
73
3
40
0
40
0
40
0
40
1
40
1
40
1
41
1
10
29.4860859326984
20
-1.24128531780585
30
0
41
1
10
29.497527889763
20
-1.26095404718811
30
0
41
1
10
29.5089629720565
20
-1.28062178808668
30
0
0
SPLINE
5
1F0
100
AcDbEntity
8
1
62
256
6
ByLayer
370
18
48
1
60
0
100
AcDbSpline
70
4
71
2
72
6
73
3
40
0
40
0
40
0
40
1
40
1
40
1
41
1
10
31.90613444869
20
1.53406840965118
30
0
41
1
10
31.8208931793227
20
1.38691614700906
30
0
41
1
10
31.7354825672517
20
1.24001533835545
30
0
0
SPLINE
5
1F1
100
AcDbEntity
8
1
62
256
6
ByLayer
370
18
48
1
60
0
100
AcDbSpline
70
4
71
3
72
11
73
7
40
0
40
0
40
0
40
0
40
0.243694566559099
40
0.500682116444865
40
0.757268205448515
40
1
40
1
40
1
40
1
41
1
10
29.3734493185419
20
-1.24813464381998
30
0
41
1
10
29.3785042850276
20
-1.23811241185547
30
0
41
1
10
29.392468120754
20
-1.22234989714772
30
0
41
1
10
29.4303686891549
20
-1.20858741642712
30
0
41
1
10
29.4683116980801
20
-1.22004743152465
30
0
41
1
10
29.4822885906498
20
-1.23419387653993
30
0
41
1
10
29.4873592246138
20
-1.24339586529408
30
0
0
SPLINE
5
1F2
100
AcDbEntity
8
1
62
256
6
ByLayer
370
18
48
1
60
0
100
AcDbSpline
70
4
71
3
72
11
73
7
40
0
40
0
40
0
40
0
40
0.2426394956154
40
0.499337109187516
40
0.756410069957984
40
1
40
1
40
1
40
1
41
1
10
32.2416469666824
20
1.24829293480528
30
0
41
1
10
32.2365638940586
20
1.23825393117559
30
0
41
1
10
32.2225650592651
20
1.22242730291134
30
0
41
1
10
32.1846172001863
20
1.20867265788115
30
0
41
1
10
32.1467052786776
20
1.22013474946323
30
0
41
1
10
32.1327206924939
20
1.23426186337997
30
0
41
1
10
32.1276536378826
20
1.24346513728656
30
0
0
SPLINE
5
1F3
100
AcDbEntity
8
1
62
256
6
ByLayer
370
18
48
1
60
0
100
AcDbSpline
70
4
71
2
72
6
73
3
40
0
40
0
40
0
40
1
40
1
40
1
41
1
10
32.1289423156978
20
1.24132395046669
30
0
41
1
10
32.0431173028265
20
1.3887710704773
30
0
41
1
10
31.9575997486249
20
1.53623715476908
30
0
0
SPLINE
5
1F4
100
AcDbEntity
8
1
62
256
6
ByLayer
370
18
48
1
60
0
100
AcDbSpline
70
4
71
1
72
4
73
2
40
0
40
0
40
1
40
1
41
1
10
32.9771222165947
20
-1.22903660678716
30
0
41
1
10
32.9821120180504
20
-1.23242617077065
30
0
0
SPLINE
5
1F5
100
AcDbEntity
8
1
62
256
6
ByLayer
370
18
48
1
60
0
100
AcDbSpline
70
4
71
2
72
6
73
3
40
0
40
0
40
0
40
1
40
1
40
1
41
1
10
33.2035515499088
20
-1.54117072752959
30
0
41
1
10
33.2884638914032
20
-1.39459706976558
30
0
41
1
10
33.3734270940045
20
-1.24810145962343
30
0
0
SPLINE
5
1F6
100
AcDbEntity
8
1
62
256
6
ByLayer
370
18
48
1
60
0
100
AcDbSpline
70
4
71
2
72
6
73
3
40
0
40
0
40
0
40
1
40
1
40
1
41
1
10
32.9868955510241
20
-1.24254275243251
30
0
41
1
10
33.0719979348188
20
-1.38899118009314
30
0
41
1
10
33.1570125330931
20
-1.53569175482798
30
0
0
SPLINE
5
1F7
100
AcDbEntity
8
1
62
256
6
ByLayer
370
18
48
1
60
0
100
AcDbSpline
70
4
71
2
72
6
73
3
40
0
40
0
40
0
40
1
40
1
40
1
41
1
10
32.6315327007488
20
1.23632942378799
30
0
41
1
10
32.5465823060086
20
1.38163875314879
30
0
41
1
10
32.4616860146372
20
1.52742060628367
30
0
0
SPLINE
5
1F8
100
AcDbEntity
8
1
62
256
6
ByLayer
370
18
48
1
60
0
100
AcDbSpline
70
4
71
3
72
8
73
4
40
0
40
0
40
0
40
0
40
1
40
1
40
1
40
1
41
1
10
31.2197843346955
20
0.128762696551092
30
0
41
1
10
31.2381013228294
20
0.119442324179858
30
0
41
1
10
31.2564373818804
20
0.109966923850749
30
0
41
1
10
31.274800358093
20
0.100352199361538
30
0
0
SPLINE
5
1F9
100
AcDbEntity
8
1
62
256
6
ByLayer
370
18
48
1
60
0
100
AcDbSpline
70
4
71
2
72
6
73
3
40
0
40
0
40
0
40
1
40
1
40
1
41
1
10
34.3269169974595
20
-1.33020598722325
30
0
41
1
10
34.3539102542487
20
-1.28389948523852
30
0
41
1
10
34.3809110004958
20
-1.23764498925587
30
0
0
LINE
5
7F
100
AcDbEntity
8
80
62
256
6
ByLayer
370
18
48
1
60
0
100
AcDbLine
10
0
20
0
30
0
11
-5
21
0
31
0
39
0
210
0
220
0
230
1
0
LINE
5
80
100
AcDbEntity
8
81
62
256
6
ByLayer
370
18
48
1
60
0
100
AcDbLine
10
35.965
20
0
30
0
11
40.965
21
0
31
0
39
0
210
0
220
0
230
1
0
LINE
5
81
100
AcDbEntity
8
4
62
256
6
ByLayer
370
18
48
0.05
60
0
100
AcDbLine
10
0
20
0
30
0
11
35.965
21
0
31
0
39
0
210
0
220
0
230
1
0
LINE
5
83
100
AcDbEntity
8
SK4
62
256
6
ByLayer
370
18
48
0.05
60
0
100
AcDbLine
10
-21
20
0
30
0
11
35.965
21
0
31
0
39
0
210
0
220
0
230
1
0
LINE
5
85
100
AcDbEntity
8
1
62
256
6
ByLayer
370
18
48
1
60
0
100
AcDbLine
10
0
20
1.75
30
0
11
0
21
-1.75
31
0
39
0
210
0
220
0
230
1
0
LINE
5
86
100
AcDbEntity
8
1
62
256
6
ByLayer
370
18
48
1
60
0
100
AcDbLine
10
34.335785
20
-1.314203
30
0
11
34.332953
21
-1.312414
31
0
39
0
210
0
220
0
230
1
0
LINE
5
87
100
AcDbEntity
8
1
62
256
6
ByLayer
370
18
48
1
60
0
100
AcDbLine
10
33.990716
20
-1.247605
30
0
11
33.988718
21
-1.245446
31
0
39
0
210
0
220
0
230
1
0
LINE
5
88
100
AcDbEntity
8
1
62
256
6
ByLayer
370
18
48
1
60
0
100
AcDbLine
10
29.831903
20
-1.322318
30
0
11
29.827037
21
-1.328425
31
0
39
0
210
0
220
0
230
1
0
LINE
5
89
100
AcDbEntity
8
1
62
256
6
ByLayer
370
18
48
1
60
0
100
AcDbLine
10
29.373015
20
-1.248418
30
0
11
29.377022
21
-1.244407
31
0
39
0
210
0
220
0
230
1
0
LINE
5
8A
100
AcDbEntity
8
1
62
256
6
ByLayer
370
18
48
1
60
0
100
AcDbLine
10
32.126853
20
1.244632
30
0
11
32.128871
21
1.241451
31
0
39
0
210
0
220
0
230
1
0
LINE
5
8B
100
AcDbEntity
8
1
62
256
6
ByLayer
370
18
48
1
60
0
100
AcDbLine
10
29
20
-0.845907
30
0
11
29
21
-1.204097
31
0
39
0
210
0
220
0
230
1
0
LINE
5
8C
100
AcDbEntity
8
1
62
256
6
ByLayer
370
18
48
1
60
0
100
AcDbLine
10
33.373476
20
-1.248067
30
0
11
33.376247
21
-1.245366
31
0
39
0
210
0
220
0
230
1
0
LINE
5
8D
100
AcDbEntity
8
1
62
256
6
ByLayer
370
18
48
1
60
0
100
AcDbLine
10
29
20
1.176425
30
0
11
29
21
0.73244
31
0
39
0
210
0
220
0
230
1
0
LINE
5
8E
100
AcDbEntity
8
1
62
256
6
ByLayer
370
18
48
1
60
0
100
AcDbLine
10
32.237975
20
1.244365
30
0
11
32.241722
21
1.248345
31
0
39
0
210
0
220
0
230
1
0
LINE
5
8F
100
AcDbEntity
8
1
62
256
6
ByLayer
370
18
48
1
60
0
100
AcDbLine
10
31.406922
20
1.535562
30
0
11
31.40911
21
1.538312
31
0
39
0
210
0
220
0
230
1
0
LINE
5
90
100
AcDbEntity
8
1
62
256
6
ByLayer
370
13
48
1
60
0
100
AcDbLine
10
28.940712
20
-0.798506
30
0
11
28.940712
21
-1.161771
31
0
39
0
210
0
220
0
230
1
0
LINE
5
91
100
AcDbEntity
8
1
62
256
6
ByLayer
370
13
48
1
60
0
100
AcDbLine
10
28.940712
20
1.149112
30
0
11
28.940712
21
0.748853
31
0
39
0
210
0
220
0
230
1
0
LINE
5
92
100
AcDbEntity
8
1
62
256
6
ByLayer
370
13
48
1
60
0
100
AcDbLine
10
28.7862
20
-1.097106
30
0
11
28.7862
21
-0.701359
31
0
39
0
210
0
220
0
230
1
0
LINE
5
93
100
AcDbEntity
8
1
62
256
6
ByLayer
370
13
48
1
60
0
100
AcDbLine
10
28.7862
20
0.800422
30
0
11
28.7862
21
1.123493
31
0
39
0
210
0
220
0
230
1
0
LINE
5
94
100
AcDbEntity
8
1
62
256
6
ByLayer
370
13
48
1
60
0
100
AcDbLine
10
17.043744
20
-1.135
30
0
11
17.043744
21
1.135
31
0
39
0
210
0
220
0
230
1
0
LINE
5
95
100
AcDbEntity
8
1
62
256
6
ByLayer
370
13
48
1
60
0
100
AcDbLine
10
16.95692
20
1.142596
30
0
11
16.95692
21
-1.142596
31
0
39
0
210
0
220
0
230
1
0
LINE
5
96
100
AcDbEntity
8
1
62
256
6
ByLayer
370
18
48
1
60
0
100
AcDbLine
10
13.512162
20
1.75
30
0
11
13.512162
21
-1.75
31
0
39
0
210
0
220
0
230
1
0
LINE
5
97
100
AcDbEntity
8
SK1
62
256
6
ByLayer
370
18
48
1
60
0
100
AcDbLine
10
-21
20
0.68
30
0
11
-21
21
-0.68
31
0
39
0
210
0
220
0
230
1
0
LINE
5
99
100
AcDbEntity
8
SK1
62
256
6
ByLayer
370
18
48
1
60
0
100
AcDbLine
10
-15
20
0.99995
30
0
11
-15
21
-0.99995
31
0
39
0
210
0
220
0
230
1
0
LINE
5
9A
100
AcDbEntity
8
SK1
62
256
6
ByLayer
370
18
48
1
60
0
100
AcDbLine
10
-14.67
20
1.68
30
0
11
-15
21
1.35
31
0
39
0
210
0
220
0
230
1
0
LINE
5
9B
100
AcDbEntity
8
SK1
62
256
6
ByLayer
370
18
48
1
60
0
100
AcDbLine
10
-20
20
1.35
30
0
11
-15
21
1.35
31
0
39
0
210
0
220
0
230
1
0
LINE
5
9C
100
AcDbEntity
8
SK1
62
256
6
ByLayer
370
18
48
1
60
0
100
AcDbLine
10
-20
20
0.99995
30
0
11
-20
21
1.35
31
0
39
0
210
0
220
0
230
1
0
LINE
5
9D
100
AcDbEntity
8
SK1
62
256
6
ByLayer
370
18
48
1
60
0
100
AcDbLine
10
-15
20
0.99995
30
0
11
-20
21
0.99995
31
0
39
0
210
0
220
0
230
1
0
LINE
5
9E
100
AcDbEntity
8
SK1
62
256
6
ByLayer
370
18
48
1
60
0
100
AcDbLine
10
-20
20
-0.99995
30
0
11
-15
21
-0.99995
31
0
39
0
210
0
220
0
230
1
0
LINE
5
9F
100
AcDbEntity
8
SK1
62
256
6
ByLayer
370
18
48
1
60
0
100
AcDbLine
10
-20
20
-1.35
30
0
11
-20
21
-0.99995
31
0
39
0
210
0
220
0
230
1
0
LINE
5
A0
100
AcDbEntity
8
SK1
62
256
6
ByLayer
370
18
48
1
60
0
100
AcDbLine
10
-15
20
-1.35
30
0
11
-20
21
-1.35
31
0
39
0
210
0
220
0
230
1
0
LINE
5
A1
100
AcDbEntity
8
SK1
62
256
6
ByLayer
370
18
48
1
60
0
100
AcDbLine
10
-15
20
-1.35
30
0
11
-14.67
21
-1.68
31
0
39
0
210
0
220
0
230
1
0
LINE
5
A2
100
AcDbEntity
8
SK1
62
256
6
ByLayer
370
18
48
1
60
0
100
AcDbLine
10
-14.4
20
1.68
30
0
11
-14.4
21
-1.68
31
0
39
0
210
0
220
0
230
1
0
LINE
5
A3
100
AcDbEntity
8
SK1
62
256
6
ByLayer
370
18
48
1
60
0
100
AcDbLine
10
0
20
1.75
30
0
11
0
21
-1.75
31
0
39
0
210
0
220
0
230
1
0
LINE
5
A4
100
AcDbEntity
8
SK1
62
256
6
ByLayer
370
18
48
1
60
0
100
AcDbLine
10
-14.33
20
-1.75
30
0
11
-14.33
21
1.75
31
0
39
0
210
0
220
0
230
1
0
LINE
5
A5
100
AcDbEntity
8
1
62
256
6
ByLayer
370
18
48
1
60
0
100
AcDbLine
10
30.059182
20
-1.362332
30
0
11
30.285837
21
-1.394186
31
0
39
0
210
0
220
0
230
1
0
LINE
5
A6
100
AcDbEntity
8
1
62
256
6
ByLayer
370
18
48
1
60
0
100
AcDbLine
10
31.451691
20
1.540348
30
0
11
31.413214
21
1.540348
31
0
39
0
210
0
220
0
230
1
0
LINE
5
A7
100
AcDbEntity
8
1
62
256
6
ByLayer
370
18
48
1
60
0
100
AcDbLine
10
29.515009
20
-1.285854
30
0
11
29.822632
21
-1.329087
31
0
39
0
210
0
220
0
230
1
0
LINE
5
A8
100
AcDbEntity
8
1
62
256
6
ByLayer
370
18
48
1
60
0
100
AcDbLine
10
29.211306
20
-1.243171
30
0
11
29.359858
21
-1.264049
31
0
39
0
210
0
220
0
230
1
0
LINE
5
A9
100
AcDbEntity
8
1
62
256
6
ByLayer
370
18
48
1
60
0
100
AcDbLine
10
13.512162
20
1.75
30
0
11
0
21
1.75
31
0
39
0
210
0
220
0
230
1
0
LINE
5
AA
100
AcDbEntity
8
1
62
256
6
ByLayer
370
18
48
1
60
0
100
AcDbLine
10
0
20
-1.75
30
0
11
13.512162
21
-1.75
31
0
39
0
210
0
220
0
230
1
0
LINE
5
AB
100
AcDbEntity
8
1
62
256
6
ByLayer
370
18
48
1
60
0
100
AcDbLine
10
32.96611
20
-1.222567
30
0
11
32.974704
21
-1.227394
31
0
39
0
210
0
220
0
230
1
0
LINE
5
AC
100
AcDbEntity
8
1
62
256
6
ByLayer
370
18
48
1
60
0
100
AcDbLine
10
31.951634
20
1.540348
30
0
11
31.913187
21
1.540348
31
0
39
0
210
0
220
0
230
1
0
LINE
5
AD
100
AcDbEntity
8
1
62
256
6
ByLayer
370
18
48
1
60
0
100
AcDbLine
10
33.163221
20
-1.540348
30
0
11
33.201673
21
-1.540348
31
0
39
0
210
0
220
0
230
1
0
LINE
5
AE
100
AcDbEntity
8
1
62
256
6
ByLayer
370
18
48
1
60
0
100
AcDbLine
10
32.451645
20
1.540348
30
0
11
32.413122
21
1.540348
31
0
39
0
210
0
220
0
230
1
0
LINE
5
AF
100
AcDbEntity
8
1
62
256
6
ByLayer
370
18
48
1
60
0
100
AcDbLine
10
17.043744
20
-1.135
30
0
11
19.708649
21
-1.135
31
0
39
0
210
0
220
0
230
1
0
LINE
5
B0
100
AcDbEntity
8
1
62
256
6
ByLayer
370
18
48
1
60
0
100
AcDbLine
10
21.581142
20
-1.135
30
0
11
22.745881
21
-1.135
31
0
39
0
210
0
220
0
230
1
0
LINE
5
B1
100
AcDbEntity
8
1
62
256
6
ByLayer
370
18
48
1
60
0
100
AcDbLine
10
25.423781
20
-1.135
30
0
11
26.597834
21
-1.135
31
0
39
0
210
0
220
0
230
1
0
LINE
5
B2
100
AcDbEntity
8
1
62
256
6
ByLayer
370
18
48
1
60
0
100
AcDbLine
10
28.524888
20
1.135
30
0
11
27.341462
21
1.135
31
0
39
0
210
0
220
0
230
1
0
LINE
5
B3
100
AcDbEntity
8
1
62
256
6
ByLayer
370
18
48
1
60
0
100
AcDbLine
10
24.672583
20
1.135
30
0
11
23.503133
21
1.135
31
0
39
0
210
0
220
0
230
1
0
LINE
5
B4
100
AcDbEntity
8
1
62
256
6
ByLayer
370
18
48
1
60
0
100
AcDbLine
10
20.832283
20
1.135
30
0
11
17.043744
21
1.135
31
0
39
0
210
0
220
0
230
1
0
LINE
5
B5
100
AcDbEntity
8
1
62
256
6
ByLayer
370
18
48
1
60
0
100
AcDbLine
10
35.965
20
0
30
0
11
35.017223
21
0.947777
31
0
39
0
210
0
220
0
230
1
0
LINE
5
B6
100
AcDbEntity
8
1
62
256
6
ByLayer
370
18
48
1
60
0
100
AcDbLine
10
35.374116
20
-0.590884
30
0
11
35.965
21
0
31
0
39
0
210
0
220
0
230
1
0
LINE
5
B7
100
AcDbEntity
8
1
62
256
6
ByLayer
370
18
48
1
60
0
100
AcDbLine
10
16.95692
20
1.142596
30
0
11
13.512162
21
1.75
31
0
39
0
210
0
220
0
230
1
0
LINE
5
B8
100
AcDbEntity
8
1
62
256
6
ByLayer
370
18
48
1
60
0
100
AcDbLine
10
13.512162
20
-1.75
30
0
11
16.95692
21
-1.142596
31
0
39
0
210
0
220
0
230
1
0
LINE
5
B9
100
AcDbEntity
8
SK1
62
256
6
ByLayer
370
18
48
1
60
0
100
AcDbLine
10
-21
20
-0.68
30
0
11
-20.33
21
-1.35
31
0
39
0
210
0
220
0
230
1
0
LINE
5
BA
100
AcDbEntity
8
SK1
62
256
6
ByLayer
370
18
48
1
60
0
100
AcDbLine
10
-20.33
20
1.35
30
0
11
-21
21
0.68
31
0
39
0
210
0
220
0
230
1
0
LINE
5
BB
100
AcDbEntity
8
SK1
62
256
6
ByLayer
370
18
48
1
60
0
100
AcDbLine
10
-14.4
20
1.68
30
0
11
-14.67
21
1.68
31
0
39
0
210
0
220
0
230
1
0
LINE
5
BC
100
AcDbEntity
8
SK1
62
256
6
ByLayer
370
18
48
1
60
0
100
AcDbLine
10
-14.67
20
-1.68
30
0
11
-14.4
21
-1.68
31
0
39
0
210
0
220
0
230
1
0
LINE
5
BD
100
AcDbEntity
8
SK1
62
256
6
ByLayer
370
18
48
1
60
0
100
AcDbLine
10
-14.4
20
-1.68
30
0
11
-14.33
21
-1.75
31
0
39
0
210
0
220
0
230
1
0
LINE
5
BE
100
AcDbEntity
8
SK1
62
256
6
ByLayer
370
18
48
1
60
0
100
AcDbLine
10
-14.33
20
1.75
30
0
11
-14.4
21
1.68
31
0
39
0
210
0
220
0
230
1
0
LINE
5
BF
100
AcDbEntity
8
SK1
62
256
6
ByLayer
370
18
48
1
60
0
100
AcDbLine
10
0
20
1.75
30
0
11
-14.33
21
1.75
31
0
39
0
210
0
220
0
230
1
0
LINE
5
C0
100
AcDbEntity
8
SK1
62
256
6
ByLayer
370
18
48
1
60
0
100
AcDbLine
10
-14.33
20
-1.75
30
0
11
0
21
-1.75
31
0
39
0
210
0
220
0
230
1
0
LINE
5
C1
100
AcDbEntity
8
SK2
62
256
6
ByLayer
370
18
48
1
60
0
100
AcDbLine
10
7.591081
20
18.049084
30
0
11
7.591081
21
-9.25
31
0
39
0
210
0
220
0
230
1
0
LINE
5
C3
100
AcDbEntity
8
1
62
256
6
ByLayer
370
18
48
1
60
1
100
AcDbLine
10
7.591081
20
1.75
30
0
11
7.130297
21
5.249998
31
0
39
0
210
0
220
0
230
1
0
LINE
5
C4
100
AcDbEntity
8
1
62
256
6
ByLayer
370
18
48
1
60
1
100
AcDbLine
10
7.130297
20
5.249998
30
0
11
8.051865
21
5.250002
31
0
39
0
210
0
220
0
230
1
0
LINE
5
C5
100
AcDbEntity
8
1
62
256
6
ByLayer
370
18
48
1
60
1
100
AcDbLine
10
8.051865
20
5.250002
30
0
11
7.591081
21
1.75
31
0
39
0
210
0
220
0
230
1
0
LINE
5
C6
100
AcDbEntity
8
1
62
256
6
ByLayer
370
18
48
1
60
1
100
AcDbLine
10
7.591081
20
-1.75
30
0
11
8.051865
21
-5.249998
31
0
39
0
210
0
220
0
230
1
0
LINE
5
C7
100
AcDbEntity
8
1
62
256
6
ByLayer
370
18
48
1
60
1
100
AcDbLine
10
8.051865
20
-5.249998
30
0
11
7.130297
21
-5.250002
31
0
39
0
210
0
220
0
230
1
0
LINE
5
C8
100
AcDbEntity
8
1
62
256
6
ByLayer
370
18
48
1
60
1
100
AcDbLine
10
7.130297
20
-5.250002
30
0
11
7.591081
21
-1.75
31
0
39
0
210
0
220
0
230
1
0
LINE
5
C9
100
AcDbEntity
8
2
62
256
6
ByLayer
370
18
48
1
60
0
100
AcDbLine
10
35
20
-39.040348
30
0
11
-21
21
-39.040348
31
0
39
0
210
0
220
0
230
1
0
LINE
5
CB
100
AcDbEntity
8
2
62
256
6
ByLayer
370
18
48
1
60
0
100
AcDbLine
10
-21
20
-2.2675
30
0
11
-21
21
-41.040348
31
0
39
0
210
0
220
0
230
1
0
LINE
5
CC
100
AcDbEntity
8
2
62
256
6
ByLayer
370
18
48
1
60
0
100
AcDbLine
10
35
20
-3.127848
30
0
11
35
21
-41.040348
31
0
39
0
210
0
220
0
230
1
0
LINE
5
CD
100
AcDbEntity
8
1
62
256
6
ByLayer
370
18
48
1
60
1
100
AcDbLine
10
-21
20
-39.040348
30
0
11
-17.500002
21
-38.579564
31
0
39
0
210
0
220
0
230
1
0
LINE
5
CE
100
AcDbEntity
8
1
62
256
6
ByLayer
370
18
48
1
60
1
100
AcDbLine
10
-17.500002
20
-38.579564
30
0
11
-17.499998
21
-39.501131
31
0
39
0
210
0
220
0
230
1
0
LINE
5
CF
100
AcDbEntity
8
1
62
256
6
ByLayer
370
18
48
1
60
1
100
AcDbLine
10
-17.499998
20
-39.501131
30
0
11
-21
21
-39.040348
31
0
39
0
210
0
220
0
230
1
0
LINE
5
D0
100
AcDbEntity
8
1
62
256
6
ByLayer
370
18
48
1
60
1
100
AcDbLine
10
35
20
-39.040348
30
0
11
31.500002
21
-39.501131
31
0
39
0
210
0
220
0
230
1
0
LINE
5
D1
100
AcDbEntity
8
1
62
256
6
ByLayer
370
18
48
1
60
1
100
AcDbLine
10
31.500002
20
-39.501131
30
0
11
31.499998
21
-38.579564
31
0
39
0
210
0
220
0
230
1
0
LINE
5
D2
100
AcDbEntity
8
1
62
256
6
ByLayer
370
18
48
1
60
1
100
AcDbLine
10
31.499998
20
-38.579564
30
0
11
35
21
-39.040348
31
0
39
0
210
0
220
0
230
1
0
LINE
5
1FE
100
AcDbEntity
8
1
62
256
6
ByLayer
370
18
48
1
60
1
100
AcDbLine
10
7.591081
20
1.75
30
0
11
7.130297
21
5.249998
31
0
39
0
210
0
220
0
230
1
0
LINE
5
1FF
100
AcDbEntity
8
1
62
256
6
ByLayer
370
18
48
1
60
1
100
AcDbLine
10
7.130297
20
5.249998
30
0
11
8.051865
21
5.250002
31
0
39
0
210
0
220
0
230
1
0
LINE
5
200
100
AcDbEntity
8
1
62
256
6
ByLayer
370
18
48
1
60
1
100
AcDbLine
10
8.051865
20
5.250002
30
0
11
7.591081
21
1.75
31
0
39
0
210
0
220
0
230
1
0
LINE
5
202
100
AcDbEntity
8
1
62
256
6
ByLayer
370
18
48
1
60
1
100
AcDbLine
10
7.591081
20
-1.75
30
0
11
8.051865
21
-5.249998
31
0
39
0
210
0
220
0
230
1
0
LINE
5
203
100
AcDbEntity
8
1
62
256
6
ByLayer
370
18
48
1
60
1
100
AcDbLine
10
8.051865
20
-5.249998
30
0
11
7.130297
21
-5.250002
31
0
39
0
210
0
220
0
230
1
0
LINE
5
204
100
AcDbEntity
8
1
62
256
6
ByLayer
370
18
48
1
60
1
100
AcDbLine
10
7.130297
20
-5.250002
30
0
11
7.591081
21
-1.75
31
0
39
0
210
0
220
0
230
1
0
LINE
5
207
100
AcDbEntity
8
1
62
256
6
ByLayer
370
18
48
1
60
1
100
AcDbLine
10
-21
20
-39.040348
30
0
11
-17.500002
21
-38.579564
31
0
39
0
210
0
220
0
230
1
0
LINE
5
208
100
AcDbEntity
8
1
62
256
6
ByLayer
370
18
48
1
60
1
100
AcDbLine
10
-17.500002
20
-38.579564
30
0
11
-17.499998
21
-39.501131
31
0
39
0
210
0
220
0
230
1
0
LINE
5
209
100
AcDbEntity
8
1
62
256
6
ByLayer
370
18
48
1
60
1
100
AcDbLine
10
-17.499998
20
-39.501131
30
0
11
-21
21
-39.040348
31
0
39
0
210
0
220
0
230
1
0
LINE
5
20B
100
AcDbEntity
8
1
62
256
6
ByLayer
370
18
48
1
60
1
100
AcDbLine
10
35
20
-39.040348
30
0
11
31.500002
21
-39.501131
31
0
39
0
210
0
220
0
230
1
0
LINE
5
20C
100
AcDbEntity
8
1
62
256
6
ByLayer
370
18
48
1
60
1
100
AcDbLine
10
31.500002
20
-39.501131
30
0
11
31.499998
21
-38.579564
31
0
39
0
210
0
220
0
230
1
0
LINE
5
20D
100
AcDbEntity
8
1
62
256
6
ByLayer
370
18
48
1
60
1
100
AcDbLine
10
31.499998
20
-38.579564
30
0
11
35
21
-39.040348
31
0
39
0
210
0
220
0
230
1
0
MTEXT
5
1FA
100
AcDbEntity
8
SK2
62
256
6
ByLayer
370
18
48
1
60
0
100
AcDbMText
10
6.249966
20
7.408437
30
0
210
0
220
0
230
1
1
%%c
40
3
41
0
44
1.084337
50
90
71
7
72
5
7
iso_b_vert
0
MTEXT
5
1FD
100
AcDbEntity
8
SK2
62
256
6
ByLayer
370
18
48
1
60
0
100
AcDbMText
10
6.249966
20
13.385
30
0
210
0
220
0
230
1
1
\W0.7121;3.5
40
3
41
0
44
1.084337
50
90
71
7
72
5
7
iso_b_vert
0
MTEXT
5
206
100
AcDbEntity
8
2
62
256
6
ByLayer
370
18
48
1
60
0
100
AcDbMText
10
5.367172
20
-38.155233
30
0
210
0
220
0
230
1
1
\W0.6740;56
40
3
41
0
44
1.084337
50
0
71
7
72
5
7
iso_b_vert
0
MTEXT
5
20F
100
AcDbEntity
8
SK6
62
256
6
ByLayer
370
18
48
1
60
0
100
AcDbMText
10
-12.688785
20
-82.114886
30
0
210
0
220
0
230
1
1
\W0.7426;T300-XM150DA-M3     B150
40
3
41
0
44
1.084337
50
0
71
7
72
5
7
iso_b_vert
0
HATCH
5
201
100
AcDbEntity
8
SK2
62
256
6
ByLayer
370
13
48
1
60
0
100
AcDbHatch
10
0
20
0
30
0
210
0
220
0
230
1
2
ANSI31
70
0
71
0
91
1
92
5
93
3
72
1
10
7.59108084046755
20
1.75
11
7.13029709891478
21
5.24999830744682
72
1
10
7.13029709891478
20
5.24999830744682
11
8.05186458202033
21
5.25000169255318
72
1
10
8.05186458202033
20
5.25000169255318
11
7.59108084046755
21
1.75
97
0
75
0
76
1
52
0
41
0.0062
77
0
78
1
53
45
43
0
44
0
45
-0.0139193969876572
46
0.0139193969876572
79
0
47
0
98
1
10
0
20
0
0
HATCH
5
205
100
AcDbEntity
8
SK2
62
256
6
ByLayer
370
13
48
1
60
0
100
AcDbHatch
10
0
20
0
30
0
210
0
220
0
230
1
2
ANSI31
70
0
71
0
91
1
92
5
93
3
72
1
10
7.59108084046755
20
-1.75
11
8.05186458202033
21
-5.24999830744682
72
1
10
8.05186458202033
20
-5.24999830744682
11
7.13029709891478
21
-5.25000169255318
72
1
10
7.13029709891478
20
-5.25000169255318
11
7.59108084046755
21
-1.75
97
0
75
0
76
1
52
0
41
0.0062
77
0
78
1
53
45
43
0
44
0
45
-0.0139193969876572
46
0.0139193969876572
79
0
47
0
98
1
10
0
20
0
0
HATCH
5
20A
100
AcDbEntity
8
2
62
256
6
ByLayer
370
13
48
1
60
0
100
AcDbHatch
10
0
20
0
30
0
210
0
220
0
230
1
2
ANSI31
70
0
71
0
91
1
92
5
93
3
72
1
10
-21
20
-39.0403476742858
11
-17.5000016925532
21
-38.579563932733
72
1
10
-17.5000016925532
20
-38.579563932733
11
-17.4999983074468
21
-39.5011314158386
72
1
10
-17.4999983074468
20
-39.5011314158386
11
-21
21
-39.0403476742858
97
0
75
0
76
1
52
0
41
0.0062
77
0
78
1
53
45
43
0
44
0
45
-0.0139193969876572
46
0.0139193969876572
79
0
47
0
98
1
10
0
20
0
0
HATCH
5
20E
100
AcDbEntity
8
2
62
256
6
ByLayer
370
13
48
1
60
0
100
AcDbHatch
10
0
20
0
30
0
210
0
220
0
230
1
2
ANSI31
70
0
71
0
91
1
92
5
93
3
72
1
10
35
20
-39.0403476742858
11
31.5000016925532
21
-39.5011314158386
72
1
10
31.5000016925532
20
-39.5011314158386
11
31.4999983074468
21
-38.579563932733
72
1
10
31.4999983074468
20
-38.579563932733
11
35
21
-39.0403476742858
97
0
75
0
76
1
52
0
41
0.0062
77
0
78
1
53
45
43
0
44
0
45
-0.0139193969876572
46
0.0139193969876572
79
0
47
0
98
1
10
0
20
0
0
DIMENSION
5
212
100
AcDbEntity
8
2
62
256
6
ByLayer
370
18
48
1
60
0
100
AcDbDimension
2
_U0
10
53.844652
20
-1.540348
30
0
11
53.844652
21
18.611776
31
0
70
32
71
1
72
1
41
1
210
0
220
0
230
1
3
Standard
100
AcDbAlignedDimension
13
35
23
1.540348
33
0
14
35
24
-1.540348
34
0
50
90
100
AcDbRotatedDimension
1001
ACAD
1000
DSTYLE
1002
{
1070
   371
1070
    13
1070
   372
1070
    13
1070
     3
1000

1070
   170
1070
     0
1070
   144
1040
1.0
1070
   277
1070
     2
1070
   284
1070
     8
1070
   278
1070
    46
1070
   146
1040
1.166667
1070
   345
1005
16
1070
   347
1005
16
1070
   346
1005
16
1070
   344
1005
0
1070
   343
1005
0
1070
   172
1070
     1
1070
    76
1070
     0
1070
    75
1070
     0
1070
   282
1070
     0
1070
   281
1070
     0
1070
    71
1070
     0
1070
    74
1070
     0
1070
   279
1070
     0
1070
   173
1070
     1
1070
   340
1005
1FB
1070
   271
1070
     3
1070
   272
1070
     3
1070
    77
1070
     1
1070
    73
1070
     0
1070
   171
1070
     3
1070
   274
1070
     4
1070
   177
1070
     2
1070
   176
1070
     2
1070
   178
1070
     2
1070
    78
1070
     8
1070
    48
1040
-0.1
1070
    41
1040
3.5
1070
   147
1040
1.5
1070
    42
1040
1.5875
1070
    44
1040
2.0
1070
   140
1040
3.0
1002
}
1001
ACAD_DSTYLE_DIM_LINETYPE
1070
   380
1005
16
1001
ACAD_DSTYLE_DIM_EXT1_LINETYPE
1070
   381
1005
16
1001
ACAD_DSTYLE_DIM_EXT2_LINETYPE
1070
   382
1005
16
0
DIMENSION
5
22D
100
AcDbEntity
8
SK2
62
256
6
ByLayer
370
18
48
1
60
0
100
AcDbDimension
2
_U1
10
33.62
20
10.6
30
0
11
34.31
21
10.6
31
0
70
32
71
1
72
1
41
1
210
0
220
0
230
1
3
Standard
100
AcDbAlignedDimension
13
35
23
1.540348
33
0
14
33.62
24
0
34
0
50
0
100
AcDbRotatedDimension
1001
ACAD
1000
DSTYLE
1002
{
1070
   371
1070
    13
1070
   372
1070
    13
1070
   170
1070
     0
1070
   144
1040
1.0
1070
   277
1070
     2
1070
   284
1070
     8
1070
   278
1070
    46
1070
   146
1040
1.166667
1070
   345
1005
16
1070
   347
1005
16
1070
   346
1005
16
1070
   344
1005
0
1070
   343
1005
0
1070
   172
1070
     1
1070
    76
1070
     0
1070
    75
1070
     0
1070
   282
1070
     0
1070
   281
1070
     0
1070
    71
1070
     0
1070
    74
1070
     0
1070
   279
1070
     0
1070
   173
1070
     1
1070
   340
1005
1FB
1070
   271
1070
     3
1070
   272
1070
     3
1070
    77
1070
     1
1070
    73
1070
     1
1070
   171
1070
     3
1070
   274
1070
     4
1070
   177
1070
     2
1070
   176
1070
     2
1070
   178
1070
     2
1070
    78
1070
     8
1070
    48
1040
-0.1
1070
    41
1040
3.5
1070
   147
1040
1.5
1070
    42
1040
1.5875
1070
    44
1040
2.0
1070
   140
1040
3.0
1002
}
1001
ACAD_DSTYLE_DIM_LINETYPE
1070
   380
1005
16
1001
ACAD_DSTYLE_DIM_EXT1_LINETYPE
1070
   381
1005
16
1001
ACAD_DSTYLE_DIM_EXT2_LINETYPE
1070
   382
1005
16
0
DIMENSION
5
247
100
AcDbEntity
8
SK2
62
256
6
ByLayer
370
18
48
1
60
0
100
AcDbDimension
2
_U2
10
29
20
-8.540348
30
0
11
47.428571
21
-8.540348
31
0
70
32
71
1
72
1
41
1
210
0
220
0
230
1
3
Standard
100
AcDbAlignedDimension
13
35
23
-1.540348
33
0
14
29
24
-1.540348
34
0
50
0
100
AcDbRotatedDimension
1001
ACAD
1000
DSTYLE
1002
{
1070
   371
1070
    13
1070
   372
1070
    13
1070
   170
1070
     0
1070
   144
1040
1.0
1070
   277
1070
     2
1070
   284
1070
     8
1070
   278
1070
    46
1070
   146
1040
0.833333
1070
   345
1005
16
1070
   347
1005
16
1070
   346
1005
16
1070
   344
1005
0
1070
   343
1005
0
1070
   172
1070
     1
1070
    76
1070
     0
1070
    75
1070
     0
1070
   282
1070
     0
1070
   281
1070
     0
1070
    47
1040
0.5
1070
    72
1070
     0
1070
    71
1070
     1
1070
    74
1070
     0
1070
   279
1070
     0
1070
   173
1070
     1
1070
   340
1005
1FB
1070
   271
1070
     1
1070
   272
1070
     3
1070
    77
1070
     1
1070
    73
1070
     1
1070
   171
1070
     3
1070
   274
1070
     4
1070
   177
1070
     2
1070
   176
1070
     2
1070
   178
1070
     2
1070
    78
1070
     8
1070
    48
1040
0.5
1070
    41
1040
3.5
1070
   147
1040
1.5
1070
    42
1040
1.5875
1070
    44
1040
2.0
1070
   140
1040
3.0
1002
}
1001
ACAD_DSTYLE_DIM_LINETYPE
1070
   380
1005
16
1001
ACAD_DSTYLE_DIM_EXT1_LINETYPE
1070
   381
1005
16
1001
ACAD_DSTYLE_DIM_EXT2_LINETYPE
1070
   382
1005
16
0
DIMENSION
5
262
100
AcDbEntity
8
SK2
62
256
6
ByLayer
370
18
48
1
60
0
100
AcDbDimension
2
_U3
10
17
20
-31.040348
30
0
11
26
21
-31.040348
31
0
70
32
71
1
72
1
41
1
210
0
220
0
230
1
3
Standard
100
AcDbAlignedDimension
13
35
23
-1.540348
33
0
14
17
24
-1.135
34
0
50
0
100
AcDbRotatedDimension
1001
ACAD
1000
DSTYLE
1002
{
1070
   371
1070
    13
1070
   372
1070
    13
1070
   170
1070
     0
1070
   144
1040
1.0
1070
   277
1070
     2
1070
   284
1070
     8
1070
   278
1070
    46
1070
   146
1040
1.166667
1070
   345
1005
16
1070
   347
1005
16
1070
   346
1005
16
1070
   344
1005
0
1070
   343
1005
0
1070
   172
1070
     1
1070
    76
1070
     0
1070
    75
1070
     0
1070
   282
1070
     0
1070
   281
1070
     0
1070
    71
1070
     0
1070
    74
1070
     0
1070
   279
1070
     0
1070
   173
1070
     1
1070
   340
1005
1FB
1070
   271
1070
     1
1070
   272
1070
     3
1070
    77
1070
     1
1070
    73
1070
     1
1070
   171
1070
     3
1070
   274
1070
     4
1070
   177
1070
     2
1070
   176
1070
     2
1070
   178
1070
     2
1070
    78
1070
     8
1070
    48
1040
-0.1
1070
    41
1040
3.5
1070
   147
1040
1.5
1070
    42
1040
1.5875
1070
    44
1040
2.0
1070
   140
1040
3.0
1002
}
1001
ACAD_DSTYLE_DIM_LINETYPE
1070
   380
1005
16
1001
ACAD_DSTYLE_DIM_EXT1_LINETYPE
1070
   381
1005
16
1001
ACAD_DSTYLE_DIM_EXT2_LINETYPE
1070
   382
1005
16
0
DIMENSION
5
27A
100
AcDbEntity
8
2
62
256
6
ByLayer
370
18
48
1
60
0
100
AcDbDimension
2
_U4
10
19.7
20
-20.040348
30
0
11
27.35
21
-20.040348
31
0
70
32
71
1
72
1
41
1
210
0
220
0
230
1
3
Standard
100
AcDbAlignedDimension
13
35
23
-1.540348
33
0
14
19.7
24
0
34
0
50
0
100
AcDbRotatedDimension
1001
ACAD
1000
DSTYLE
1002
{
1070
   371
1070
    13
1070
   372
1070
    13
1070
   170
1070
     0
1070
   144
1040
1.0
1070
   277
1070
     2
1070
   284
1070
     8
1070
   278
1070
    46
1070
   146
1040
1.166667
1070
   345
1005
16
1070
   347
1005
16
1070
   346
1005
16
1070
   344
1005
0
1070
   343
1005
0
1070
   172
1070
     1
1070
    76
1070
     0
1070
    75
1070
     0
1070
   282
1070
     0
1070
   281
1070
     0
1070
    71
1070
     0
1070
    74
1070
     0
1070
   279
1070
     0
1070
   173
1070
     1
1070
   340
1005
1FB
1070
   271
1070
     1
1070
   272
1070
     3
1070
    77
1070
     1
1070
    73
1070
     1
1070
   171
1070
     3
1070
   274
1070
     4
1070
   177
1070
     2
1070
   176
1070
     2
1070
   178
1070
     2
1070
    78
1070
     8
1070
    48
1040
-0.1
1070
    41
1040
3.5
1070
   147
1040
1.5
1070
    42
1040
1.5875
1070
    44
1040
2.0
1070
   140
1040
3.0
1002
}
1001
ACAD_DSTYLE_DIM_LINETYPE
1070
   380
1005
16
1001
ACAD_DSTYLE_DIM_EXT1_LINETYPE
1070
   381
1005
16
1001
ACAD_DSTYLE_DIM_EXT2_LINETYPE
1070
   382
1005
16
0
ENDSEC
0
SECTION
2
OBJECTS
0
DICTIONARY
5
303
330
0
100
AcDbDictionary
280
0
281
1
3
ACAD_GROUP
350
304
3
ACAD_MLINESTYLE
350
305
0
DICTIONARY
5
304
330
0
100
AcDbDictionary
280
0
281
1
0
DICTIONARY
5
305
330
0
100
AcDbDictionary
280
0
281
1
3
Standard
350
18
0
MLINESTYLE
5
18
330
305
100
AcDbMlineStyle
2
Standard
70
0
3

62
256
51
90
52
90
71
2
49
-0.5
62
256
6
ByLayer
49
0.5
62
256
6
ByLayer
0
RASTERVARIABLES
5
2f1
330

100
AcDbRasterVariables
90
0
70
1
71
1
72
1
0
ENDSEC
0
EOF
