0
SECTION
2
HEADER
9
$ACADVER
1
AC1015
9
$DWGCODEPAGE
3
ANSI_1252
9
$HANDSEED
5
30b
9
$ANGBASE
50
0
9
$ANGDIR
70
0
9
$ATTMODE
70
1
9
$AUNITS
70
0
9
$AUPREC
70
0
9
$CECOLOR
62
256
9
$CELTSCALE
40
1
9
$CELTYPE
6
ByLayer
9
$CELWEIGHT
370
18
9
$CLAYER
8
0
9
$CMLJUST
70
0
9
$CMLSCALE
40
1
9
$CMLSTYLE
2
Standard
9
$DIMSTYLE
2
Standard
9
$TEXTSIZE
40
0.2
9
$TEXTSTYLE
7
Standard
9
$LUNITS
70
2
9
$LUPREC
70
4
9
$EXTNAMES
290
1
9
$INSUNITS
70
4
9
$LTSCALE
40
1
9
$LWDISPLAY
290
1
9
$PDMODE
70
0
9
$PDSIZE
40
0
9
$PLINEGEN
70
0
0
ENDSEC
0
SECTION
2
CLASSES
0
CLASS
1
RASTERVARIABLES
2
AcDbRasterVariables
3
ISM
90
0
280
0
281
0
0
ENDSEC
0
SECTION
2
TABLES
0
TABLE
2
VPORT
5
301
100
AcDbSymbolTable
0
VPORT
5
1
100
AcDbSymbolTableRecord
100
AcDbViewportTableRecord
2
*Active
70
0
10
0
20
0
11
1
21
1
12
-1
22
1
13
0
23
0
14
0.5
24
0.5
15
10
25
10
16
0
26
0
36
1
17
0
27
0
37
0
0
ENDTAB
0
TABLE
2
LTYPE
5
302
100
AcDbSymbolTable
0
LTYPE
5
14
100
AcDbSymbolTableRecord
100
AcDbLinetypeTableRecord
70
0
2
ByBlock
3

72
65
73
0
40
0
0
LTYPE
5
15
100
AcDbSymbolTableRecord
100
AcDbLinetypeTableRecord
70
0
2
ByLayer
3

72
65
73
0
40
0
0
LTYPE
5
16
100
AcDbSymbolTableRecord
100
AcDbLinetypeTableRecord
70
0
2
Continuous
3
Solid line
72
65
73
0
40
0
0
LTYPE
5
6E
100
AcDbSymbolTableRecord
100
AcDbLinetypeTableRecord
70
0
2
CENTER
3
____ _ ____ _ ____ _ ____
72
65
73
4
40
47.5
49
22
74
0
49
-8.5
74
0
49
8.5
74
0
49
-8.5
74
0
0
LTYPE
5
6F
100
AcDbSymbolTableRecord
100
AcDbLinetypeTableRecord
70
0
2
DASHED
3
__ __ __ __ __ __ __ __ __
72
65
73
2
40
25.72
49
12.86
74
0
49
-12.86
74
0
0
ENDTAB
0
TABLE
2
LAYER
5
303
100
AcDbSymbolTable
0
LAYER
5
10
100
AcDbSymbolTableRecord
100
AcDbLayerTableRecord
2
0
70
0
62
7
6
Continuous
290
1
370
-3
390
0
0
LAYER
5
71
100
AcDbSymbolTableRecord
100
AcDbLayerTableRecord
2
81
70
0
62
-3
6
Continuous
290
1
370
-3
390
0
0
LAYER
5
73
100
AcDbSymbolTableRecord
100
AcDbLayerTableRecord
2
80
70
0
62
-6
6
Continuous
290
1
370
-3
390
0
0
LAYER
5
75
100
AcDbSymbolTableRecord
100
AcDbLayerTableRecord
2
1
70
0
62
4
6
Continuous
290
1
370
-3
390
0
0
LAYER
5
81
100
AcDbSymbolTableRecord
100
AcDbLayerTableRecord
2
4
70
0
62
-2
6
CENTER
290
1
370
-3
390
0
0
LAYER
5
C7
100
AcDbSymbolTableRecord
100
AcDbLayerTableRecord
2
2
70
0
62
7
6
Continuous
290
1
370
-3
390
0
0
LAYER
5
211
100
AcDbSymbolTableRecord
100
AcDbLayerTableRecord
2
Defpoints
70
0
62
7
6
Continuous
290
0
370
-3
390
0
0
LAYER
5
2ed
100
AcDbSymbolTableRecord
100
AcDbLayerTableRecord
2
SK4
70
0
62
2
6
CENTER
290
1
370
-3
390
0
0
LAYER
5
2ee
100
AcDbSymbolTableRecord
100
AcDbLayerTableRecord
2
SK1
70
0
62
4
6
Continuous
290
1
370
-3
390
0
0
LAYER
5
2ef
100
AcDbSymbolTableRecord
100
AcDbLayerTableRecord
2
SK2
70
0
62
7
6
Continuous
290
1
370
-3
390
0
0
LAYER
5
2f0
100
AcDbSymbolTableRecord
100
AcDbLayerTableRecord
2
SK6
70
0
62
5
6
Continuous
290
1
370
-3
390
0
0
ENDTAB
0
TABLE
2
STYLE
5
304
100
AcDbSymbolTable
0
STYLE
5
11
100
AcDbSymbolTableRecord
100
AcDbTextStyleTableRecord
2
Standard
3
txt
70
0
71
0
40
0
41
1
42
0
50
0
0
STYLE
5
1F7
100
AcDbSymbolTableRecord
100
AcDbTextStyleTableRecord
2
iso_b_vert
3
simplex.shx
70
0
71
0
40
0
41
1
42
0
50
0
0
STYLE
5
1F8
100
AcDbSymbolTableRecord
100
AcDbTextStyleTableRecord
2
DWGDirectTextStyle
3
simplex
70
0
71
0
40
0
41
1
42
0
50
0
0
ENDTAB
0
TABLE
2
DIMSTYLE
5
305
100
AcDbSymbolTable
100
AcDbDimStyleTable
0
DIMSTYLE
105
27
100
AcDbSymbolTableRecord
100
AcDbDimStyleTableRecord
2
Standard
70
0
3
<>
41
0.18
42
0.0625
44
0.18
140
0.18
147
0.09
73
0
74
0
77
1
271
2
275
0
278
52
280
0
340
11
0
ENDTAB
0
TABLE
2
VIEW
5
306
100
AcDbSymbolTable
0
ENDTAB
0
TABLE
2
UCS
5
307
100
AcDbSymbolTable
0
ENDTAB
0
TABLE
2
APPID
5
308
100
AcDbSymbolTable
0
APPID
5
12
100
AcDbSymbolTableRecord
100
AcDbRegAppTableRecord
2
ACAD
70
0
0
APPID
5
20D
100
AcDbSymbolTableRecord
100
AcDbRegAppTableRecord
2
ACAD_DSTYLE_DIMBREAK
70
0
0
APPID
5
2AC
100
AcDbSymbolTableRecord
100
AcDbRegAppTableRecord
2
ACAD_DSTYLE_DIM_LINETYPE
70
0
0
APPID
5
2AD
100
AcDbSymbolTableRecord
100
AcDbRegAppTableRecord
2
ACAD_DSTYLE_DIM_EXT1_LINETYPE
70
0
0
APPID
5
2AE
100
AcDbSymbolTableRecord
100
AcDbRegAppTableRecord
2
ACAD_DSTYLE_DIM_EXT2_LINETYPE
70
0
0
APPID
5
2E9
100
AcDbSymbolTableRecord
100
AcDbRegAppTableRecord
2
ACAD_MLEADERVER
70
0
0
ENDTAB
0
TABLE
2
BLOCK_RECORD
5
309
100
AcDbSymbolTable
0
BLOCK_RECORD
5
1F
100
AcDbSymbolTableRecord
100
AcDbBlockTableRecord
2
*Model_Space
340
0
70
0
0
BLOCK_RECORD
5
1B
100
AcDbSymbolTableRecord
100
AcDbBlockTableRecord
2
*Paper_Space
340
0
70
0
0
BLOCK_RECORD
5
23
100
AcDbSymbolTableRecord
100
AcDbBlockTableRecord
2
*Paper_Space0
340
0
70
0
0
BLOCK_RECORD
5
212
100
AcDbSymbolTableRecord
100
AcDbBlockTableRecord
2
*D1
340
0
70
0
0
BLOCK_RECORD
5
220
100
AcDbSymbolTableRecord
100
AcDbBlockTableRecord
2
_U0
340
0
70
0
0
BLOCK_RECORD
5
22C
100
AcDbSymbolTableRecord
100
AcDbBlockTableRecord
2
*D3
340
0
70
0
0
BLOCK_RECORD
5
239
100
AcDbSymbolTableRecord
100
AcDbBlockTableRecord
2
_U1
340
0
70
0
0
BLOCK_RECORD
5
246
100
AcDbSymbolTableRecord
100
AcDbBlockTableRecord
2
*D5
340
0
70
0
0
BLOCK_RECORD
5
254
100
AcDbSymbolTableRecord
100
AcDbBlockTableRecord
2
_U2
340
0
70
0
0
BLOCK_RECORD
5
261
100
AcDbSymbolTableRecord
100
AcDbBlockTableRecord
2
*D7
340
0
70
0
0
BLOCK_RECORD
5
26D
100
AcDbSymbolTableRecord
100
AcDbBlockTableRecord
2
_U3
340
0
70
0
0
BLOCK_RECORD
5
279
100
AcDbSymbolTableRecord
100
AcDbBlockTableRecord
2
*D9
340
0
70
0
0
BLOCK_RECORD
5
285
100
AcDbSymbolTableRecord
100
AcDbBlockTableRecord
2
_U4
340
0
70
0
0
ENDTAB
0
ENDSEC
0
SECTION
2
BLOCKS
0
BLOCK
5
20
100
AcDbEntity
8
0
100
AcDbBlockBegin
2
*Model_Space
70
0
10
0
20
0
30
0
3
*Model_Space
0
ENDBLK
5
21
100
AcDbEntity
8
0
100
AcDbBlockEnd
0
BLOCK
5
1C
100
AcDbEntity
8
0
100
AcDbBlockBegin
2
*Paper_Space
70
0
10
0
20
0
30
0
3
*Paper_Space
0
ENDBLK
5
1D
100
AcDbEntity
8
0
100
AcDbBlockEnd
0
BLOCK
5
24
100
AcDbEntity
8
0
100
AcDbBlockBegin
2
*Paper_Space0
70
0
10
0
20
0
30
0
3
*Paper_Space0
0
ENDBLK
5
25
100
AcDbEntity
8
0
100
AcDbBlockEnd
0
BLOCK
5
213
100
AcDbEntity
8
0
100
AcDbBlockBegin
2
*D1
70
1
10
0
20
0
30
0
3
*D1
0
LINE
5
215
100
AcDbEntity
8
0
62
256
6
ByLayer
370
-2
48
1
60
0
100
AcDbLine
10
37.5875
20
2.551245
30
0
11
56.653755
21
2.551245
31
0
39
0
210
0
220
0
230
1
0
LINE
5
216
100
AcDbEntity
8
0
62
256
6
ByLayer
370
-2
48
1
60
0
100
AcDbLine
10
37.5875
20
-2.551245
30
0
11
56.653755
21
-2.551245
31
0
39
0
210
0
220
0
230
1
0
LINE
5
217
100
AcDbEntity
8
0
62
256
6
ByLayer
370
-2
48
1
60
0
100
AcDbLine
10
54.653755
20
2.551245
30
0
11
54.653755
21
30.551245
31
0
39
0
210
0
220
0
230
1
0
LINE
5
218
100
AcDbEntity
8
0
62
256
6
ByLayer
370
-2
48
1
60
0
100
AcDbLine
10
54.653755
20
6.051245
30
0
11
54.653755
21
9.551245
31
0
39
0
210
0
220
0
230
1
0
LINE
5
219
100
AcDbEntity
8
0
62
256
6
ByLayer
370
-2
48
1
60
0
100
AcDbLine
10
54.653755
20
-6.051245
30
0
11
54.653755
21
-9.551245
31
0
39
0
210
0
220
0
230
1
0
SOLID
5
21A
100
AcDbEntity
8
0
62
256
6
ByLayer
370
-1
48
1
60
0
100
AcDbTrace
10
54.070422
20
6.051245
30
0
11
55.237088
21
6.051245
31
0
12
54.653755
22
2.551245
32
0
13
54.653755
23
2.551245
33
0
39
0
210
0
220
0
230
1
0
SOLID
5
21B
100
AcDbEntity
8
0
62
256
6
ByLayer
370
-1
48
1
60
0
100
AcDbTrace
10
55.237088
20
-6.051245
30
0
11
54.070422
21
-6.051245
31
0
12
54.653755
22
-2.551245
32
0
13
54.653755
23
-2.551245
33
0
39
0
210
0
220
0
230
1
0
MTEXT
5
21C
100
AcDbEntity
8
0
62
256
6
ByLayer
370
18
48
1
60
0
100
AcDbMText
10
48.653755
20
20.051245
30
0
210
0
220
0
230
1
1
\A1;5.102
40
3
41
0
44
1
50
90
71
5
72
5
7
iso_b_vert
0
POINT
5
21D
100
AcDbEntity
8
Defpoints
62
0
6
ByLayer
370
-1
48
1
60
0
100
AcDbPoint
10
36
20
2.551245
30
0
39
0
210
0
220
0
230
1
50
360
0
POINT
5
21E
100
AcDbEntity
8
Defpoints
62
0
6
ByLayer
370
-1
48
1
60
0
100
AcDbPoint
10
36
20
-2.551245
30
0
39
0
210
0
220
0
230
1
50
360
0
POINT
5
21F
100
AcDbEntity
8
Defpoints
62
0
6
ByLayer
370
-1
48
1
60
0
100
AcDbPoint
10
54.653755
20
-2.551245
30
0
39
0
210
0
220
0
230
1
50
360
0
ENDBLK
5
214
100
AcDbEntity
8
0
100
AcDbBlockEnd
0
BLOCK
5
227
100
AcDbEntity
8
0
100
AcDbBlockBegin
2
_U0
70
0
10
0
20
0
30
0
3
_U0
0
MTEXT
5
221
100
AcDbEntity
8
2
62
256
6
ByLayer
370
18
48
1
60
0
100
AcDbMText
10
54.062641
20
12.686245
30
0
210
0
220
0
230
1
1
\W0.7203;M5
40
3
41
0
44
1.084337
50
90
71
7
72
5
7
iso_b_vert
0
LINE
5
222
100
AcDbEntity
8
2
62
256
6
ByLayer
370
13
48
1
60
0
100
AcDbLine
10
37.5875
20
2.551245
30
0
11
56.653755
21
2.551245
31
0
39
0
210
0
220
0
230
1
0
LINE
5
223
100
AcDbEntity
8
2
62
256
6
ByLayer
370
13
48
1
60
0
100
AcDbLine
10
37.5875
20
-2.551245
30
0
11
56.653755
21
-2.551245
31
0
39
0
210
0
220
0
230
1
0
LINE
5
224
100
AcDbEntity
8
2
62
256
6
ByLayer
370
13
48
1
60
0
100
AcDbLine
10
54.653755
20
-10.051245
30
0
11
54.653755
21
16.806044
31
0
39
0
210
0
220
0
230
1
0
SOLID
5
225
100
AcDbEntity
8
2
62
256
6
ByLayer
370
18
48
1
60
0
100
AcDbTrace
10
54.653755
20
2.551245
30
0
11
54.192971
21
6.051243
31
0
12
55.114539
22
6.051247
32
0
13
55.114539
23
6.051247
33
0
39
0
210
0
220
0
230
1
0
SOLID
5
226
100
AcDbEntity
8
2
62
256
6
ByLayer
370
18
48
1
60
0
100
AcDbTrace
10
54.653755
20
-2.551245
30
0
11
55.114539
21
-6.051243
31
0
12
54.192971
22
-6.051247
32
0
13
54.192971
23
-6.051247
33
0
39
0
210
0
220
0
230
1
0
ENDBLK
5
228
100
AcDbEntity
8
0
100
AcDbBlockEnd
0
BLOCK
5
22D
100
AcDbEntity
8
0
100
AcDbBlockBegin
2
*D3
70
1
10
0
20
0
30
0
3
*D3
0
LINE
5
22F
100
AcDbEntity
8
0
62
256
6
ByLayer
370
-2
48
1
60
0
100
AcDbLine
10
36
20
4.138745
30
0
11
36
21
13.471509
31
0
39
0
210
0
220
0
230
1
0
LINE
5
230
100
AcDbEntity
8
0
62
256
6
ByLayer
370
-2
48
1
60
0
100
AcDbLine
10
33.8
20
1.5875
30
0
11
33.8
21
13.471509
31
0
39
0
210
0
220
0
230
1
0
LINE
5
231
100
AcDbEntity
8
0
62
256
6
ByLayer
370
-2
48
1
60
0
100
AcDbLine
10
39.5
20
11.471509
30
0
11
43
21
11.471509
31
0
39
0
210
0
220
0
230
1
0
LINE
5
232
100
AcDbEntity
8
0
62
256
6
ByLayer
370
-2
48
1
60
0
100
AcDbLine
10
30.3
20
11.471509
30
0
11
26.8
21
11.471509
31
0
39
0
210
0
220
0
230
1
0
SOLID
5
233
100
AcDbEntity
8
0
62
256
6
ByLayer
370
-1
48
1
60
0
100
AcDbTrace
10
39.5
20
12.054842
30
0
11
39.5
21
10.888175
31
0
12
36
22
11.471509
32
0
13
36
23
11.471509
33
0
39
0
210
0
220
0
230
1
0
SOLID
5
234
100
AcDbEntity
8
0
62
256
6
ByLayer
370
-1
48
1
60
0
100
AcDbTrace
10
30.3
20
10.888175
30
0
11
30.3
21
12.054842
31
0
12
33.8
22
11.471509
32
0
13
33.8
23
11.471509
33
0
39
0
210
0
220
0
230
1
0
MTEXT
5
235
100
AcDbEntity
8
0
62
256
6
ByLayer
370
18
48
1
60
0
100
AcDbMText
10
34.9
20
17.471509
30
0
210
0
220
0
230
1
1
\A1;2.2
40
3
41
0
44
1
50
0
71
5
72
5
7
iso_b_vert
0
POINT
5
236
100
AcDbEntity
8
Defpoints
62
0
6
ByLayer
370
-1
48
1
60
0
100
AcDbPoint
10
36
20
2.551245
30
0
39
0
210
0
220
0
230
1
50
360
0
POINT
5
237
100
AcDbEntity
8
Defpoints
62
0
6
ByLayer
370
-1
48
1
60
0
100
AcDbPoint
10
33.8
20
0
30
0
39
0
210
0
220
0
230
1
50
360
0
POINT
5
238
100
AcDbEntity
8
Defpoints
62
0
6
ByLayer
370
-1
48
1
60
0
100
AcDbPoint
10
33.8
20
11.471509
30
0
39
0
210
0
220
0
230
1
50
360
0
ENDBLK
5
22E
100
AcDbEntity
8
0
100
AcDbBlockEnd
0
BLOCK
5
241
100
AcDbEntity
8
0
100
AcDbBlockBegin
2
_U1
70
0
10
0
20
0
30
0
3
_U1
0
MTEXT
5
23A
100
AcDbEntity
8
SK2
62
256
6
ByLayer
370
18
48
1
60
0
100
AcDbMText
10
32.685958
20
12.254142
30
0
210
0
220
0
230
1
1
\W0.6474;'C'
40
3.5
41
0
44
1.084337
50
0
71
7
72
5
7
iso_b_vert
0
MTEXT
5
23B
100
AcDbEntity
8
SK2
62
256
6
ByLayer
370
18
48
1
60
0
100
AcDbMText
10
32.659458
20
19.356623
30
0
210
0
220
0
230
1
1
\W0.7121;2.2
40
3
41
0
44
1.084337
50
0
71
7
72
5
7
iso_b_vert
0
LINE
5
23C
100
AcDbEntity
8
SK2
62
256
6
ByLayer
370
13
48
1
60
0
100
AcDbLine
10
36
20
4.138745
30
0
11
36
21
13.471509
31
0
39
0
210
0
220
0
230
1
0
LINE
5
23D
100
AcDbEntity
8
SK2
62
256
6
ByLayer
370
13
48
1
60
0
100
AcDbLine
10
33.8
20
1.5875
30
0
11
33.8
21
13.471509
31
0
39
0
210
0
220
0
230
1
0
LINE
5
23E
100
AcDbEntity
8
SK2
62
256
6
ByLayer
370
13
48
1
60
0
100
AcDbLine
10
43.5
20
11.471509
30
0
11
26.3
21
11.471509
31
0
39
0
210
0
220
0
230
1
0
SOLID
5
23F
100
AcDbEntity
8
SK2
62
256
6
ByLayer
370
18
48
1
60
0
100
AcDbTrace
10
36
20
11.471509
30
0
11
39.499998
21
11.932292
31
0
12
39.500002
22
11.010725
32
0
13
39.500002
23
11.010725
33
0
39
0
210
0
220
0
230
1
0
SOLID
5
240
100
AcDbEntity
8
SK2
62
256
6
ByLayer
370
18
48
1
60
0
100
AcDbTrace
10
33.8
20
11.471509
30
0
11
30.300002
21
11.010725
31
0
12
30.299998
22
11.932292
32
0
13
30.299998
23
11.932292
33
0
39
0
210
0
220
0
230
1
0
ENDBLK
5
242
100
AcDbEntity
8
0
100
AcDbBlockEnd
0
BLOCK
5
247
100
AcDbEntity
8
0
100
AcDbBlockBegin
2
*D5
70
1
10
0
20
0
30
0
3
*D5
0
LINE
5
249
100
AcDbEntity
8
0
62
256
6
ByLayer
370
-2
48
1
60
0
100
AcDbLine
10
36
20
-4.138745
30
0
11
36
21
-11.551245
31
0
39
0
210
0
220
0
230
1
0
LINE
5
24A
100
AcDbEntity
8
0
62
256
6
ByLayer
370
-2
48
1
60
0
100
AcDbLine
10
28
20
-4.138745
30
0
11
28
21
-11.551245
31
0
39
0
210
0
220
0
230
1
0
LINE
5
24B
100
AcDbEntity
8
0
62
256
6
ByLayer
370
-2
48
1
60
0
100
AcDbLine
10
36
20
-9.551245
30
0
11
54
21
-9.551245
31
0
39
0
210
0
220
0
230
1
0
LINE
5
24C
100
AcDbEntity
8
0
62
256
6
ByLayer
370
-2
48
1
60
0
100
AcDbLine
10
39.5
20
-9.551245
30
0
11
43
21
-9.551245
31
0
39
0
210
0
220
0
230
1
0
LINE
5
24D
100
AcDbEntity
8
0
62
256
6
ByLayer
370
-2
48
1
60
0
100
AcDbLine
10
24.5
20
-9.551245
30
0
11
21
21
-9.551245
31
0
39
0
210
0
220
0
230
1
0
SOLID
5
24E
100
AcDbEntity
8
0
62
256
6
ByLayer
370
-1
48
1
60
0
100
AcDbTrace
10
39.5
20
-8.967912
30
0
11
39.5
21
-10.134578
31
0
12
36
22
-9.551245
32
0
13
36
23
-9.551245
33
0
39
0
210
0
220
0
230
1
0
SOLID
5
24F
100
AcDbEntity
8
0
62
256
6
ByLayer
370
-1
48
1
60
0
100
AcDbTrace
10
24.5
20
-10.134578
30
0
11
24.5
21
-8.967912
31
0
12
28
22
-9.551245
32
0
13
28
23
-9.551245
33
0
39
0
210
0
220
0
230
1
0
MTEXT
5
250
100
AcDbEntity
8
0
62
256
6
ByLayer
370
18
48
1
60
0
100
AcDbMText
10
48.5
20
-3.551245
30
0
210
0
220
0
230
1
1
\A1;8
40
3
41
0
44
1
50
0
71
5
72
5
7
iso_b_vert
0
POINT
5
251
100
AcDbEntity
8
Defpoints
62
0
6
ByLayer
370
-1
48
1
60
0
100
AcDbPoint
10
36
20
-2.551245
30
0
39
0
210
0
220
0
230
1
50
360
0
POINT
5
252
100
AcDbEntity
8
Defpoints
62
0
6
ByLayer
370
-1
48
1
60
0
100
AcDbPoint
10
28
20
-2.551245
30
0
39
0
210
0
220
0
230
1
50
360
0
POINT
5
253
100
AcDbEntity
8
Defpoints
62
0
6
ByLayer
370
-1
48
1
60
0
100
AcDbPoint
10
28
20
-9.551245
30
0
39
0
210
0
220
0
230
1
50
360
0
ENDBLK
5
248
100
AcDbEntity
8
0
100
AcDbBlockEnd
0
BLOCK
5
25C
100
AcDbEntity
8
0
100
AcDbBlockBegin
2
_U2
70
0
10
0
20
0
30
0
3
_U2
0
MTEXT
5
255
100
AcDbEntity
8
SK2
62
256
6
ByLayer
370
18
48
1
60
0
100
AcDbMText
10
42.159
20
-8.666131
30
0
210
0
220
0
230
1
1
\W0.5404;8
40
3
41
0
44
1.084337
50
0
71
7
72
5
7
iso_b_vert
0
MTEXT
5
256
100
AcDbEntity
8
SK2
62
256
6
ByLayer
370
18
48
1
60
0
100
AcDbMText
10
45.974328
20
-8.31365
30
0
210
0
220
0
230
1
1
\W0.8315;\W0.4158;%%p\W0.8315;0.5
40
2.5
41
0
44
1.084337
50
0
71
7
72
5
7
iso_b_vert
0
LINE
5
257
100
AcDbEntity
8
SK2
62
256
6
ByLayer
370
13
48
1
60
0
100
AcDbLine
10
36
20
-4.138745
30
0
11
36
21
-11.551245
31
0
39
0
210
0
220
0
230
1
0
LINE
5
258
100
AcDbEntity
8
SK2
62
256
6
ByLayer
370
13
48
1
60
0
100
AcDbLine
10
28
20
-4.138745
30
0
11
28
21
-11.551245
31
0
39
0
210
0
220
0
230
1
0
LINE
5
259
100
AcDbEntity
8
SK2
62
256
6
ByLayer
370
13
48
1
60
0
100
AcDbLine
10
28
20
-9.551245
30
0
11
53.091065
21
-9.551245
31
0
39
0
210
0
220
0
230
1
0
SOLID
5
25A
100
AcDbEntity
8
SK2
62
256
6
ByLayer
370
18
48
1
60
0
100
AcDbTrace
10
36
20
-9.551245
30
0
11
32.500002
21
-10.012029
31
0
12
32.499998
22
-9.090461
32
0
13
32.499998
23
-9.090461
33
0
39
0
210
0
220
0
230
1
0
SOLID
5
25B
100
AcDbEntity
8
SK2
62
256
6
ByLayer
370
18
48
1
60
0
100
AcDbTrace
10
28
20
-9.551245
30
0
11
31.499998
21
-9.090461
31
0
12
31.500002
22
-10.012029
32
0
13
31.500002
23
-10.012029
33
0
39
0
210
0
220
0
230
1
0
ENDBLK
5
25D
100
AcDbEntity
8
0
100
AcDbBlockEnd
0
BLOCK
5
262
100
AcDbEntity
8
0
100
AcDbBlockBegin
2
*D7
70
1
10
0
20
0
30
0
3
*D7
0
LINE
5
264
100
AcDbEntity
8
0
62
256
6
ByLayer
370
-2
48
1
60
0
100
AcDbLine
10
36
20
-4.138745
30
0
11
36
21
-34.051245
31
0
39
0
210
0
220
0
230
1
0
LINE
5
265
100
AcDbEntity
8
0
62
256
6
ByLayer
370
-2
48
1
60
0
100
AcDbLine
10
14
20
-3.4675
30
0
11
14
21
-34.051245
31
0
39
0
210
0
220
0
230
1
0
LINE
5
266
100
AcDbEntity
8
0
62
256
6
ByLayer
370
-2
48
1
60
0
100
AcDbLine
10
32.5
20
-32.051245
30
0
11
17.5
21
-32.051245
31
0
39
0
210
0
220
0
230
1
0
SOLID
5
267
100
AcDbEntity
8
0
62
256
6
ByLayer
370
-1
48
1
60
0
100
AcDbTrace
10
32.5
20
-32.634578
30
0
11
32.5
21
-31.467912
31
0
12
36
22
-32.051245
32
0
13
36
23
-32.051245
33
0
39
0
210
0
220
0
230
1
0
SOLID
5
268
100
AcDbEntity
8
0
62
256
6
ByLayer
370
-1
48
1
60
0
100
AcDbTrace
10
17.5
20
-31.467912
30
0
11
17.5
21
-32.634578
31
0
12
14
22
-32.051245
32
0
13
14
23
-32.051245
33
0
39
0
210
0
220
0
230
1
0
MTEXT
5
269
100
AcDbEntity
8
0
62
256
6
ByLayer
370
18
48
1
60
0
100
AcDbMText
10
25
20
-26.051245
30
0
210
0
220
0
230
1
1
\A1;22
40
3
41
0
44
1
50
0
71
5
72
5
7
iso_b_vert
0
POINT
5
26A
100
AcDbEntity
8
Defpoints
62
0
6
ByLayer
370
-1
48
1
60
0
100
AcDbPoint
10
36
20
-2.551245
30
0
39
0
210
0
220
0
230
1
50
360
0
POINT
5
26B
100
AcDbEntity
8
Defpoints
62
0
6
ByLayer
370
-1
48
1
60
0
100
AcDbPoint
10
14
20
-1.88
30
0
39
0
210
0
220
0
230
1
50
360
0
POINT
5
26C
100
AcDbEntity
8
Defpoints
62
0
6
ByLayer
370
-1
48
1
60
0
100
AcDbPoint
10
14
20
-32.051245
30
0
39
0
210
0
220
0
230
1
50
360
0
ENDBLK
5
263
100
AcDbEntity
8
0
100
AcDbBlockEnd
0
BLOCK
5
274
100
AcDbEntity
8
0
100
AcDbBlockBegin
2
_U3
70
0
10
0
20
0
30
0
3
_U3
0
MTEXT
5
26E
100
AcDbEntity
8
SK2
62
256
6
ByLayer
370
18
48
1
60
0
100
AcDbMText
10
23.367172
20
-31.166131
30
0
210
0
220
0
230
1
1
\W0.6740;22
40
3
41
0
44
1.084337
50
0
71
7
72
5
7
iso_b_vert
0
LINE
5
26F
100
AcDbEntity
8
SK2
62
256
6
ByLayer
370
13
48
1
60
0
100
AcDbLine
10
36
20
-4.138745
30
0
11
36
21
-34.051245
31
0
39
0
210
0
220
0
230
1
0
LINE
5
270
100
AcDbEntity
8
SK2
62
256
6
ByLayer
370
13
48
1
60
0
100
AcDbLine
10
14
20
-3.4675
30
0
11
14
21
-34.051245
31
0
39
0
210
0
220
0
230
1
0
LINE
5
271
100
AcDbEntity
8
SK2
62
256
6
ByLayer
370
13
48
1
60
0
100
AcDbLine
10
36
20
-32.051245
30
0
11
14
21
-32.051245
31
0
39
0
210
0
220
0
230
1
0
SOLID
5
272
100
AcDbEntity
8
SK2
62
256
6
ByLayer
370
18
48
1
60
0
100
AcDbTrace
10
36
20
-32.051245
30
0
11
32.500002
21
-32.512029
31
0
12
32.499998
22
-31.590461
32
0
13
32.499998
23
-31.590461
33
0
39
0
210
0
220
0
230
1
0
SOLID
5
273
100
AcDbEntity
8
SK2
62
256
6
ByLayer
370
18
48
1
60
0
100
AcDbTrace
10
14
20
-32.051245
30
0
11
17.499998
21
-31.590461
31
0
12
17.500002
22
-32.512029
32
0
13
17.500002
23
-32.512029
33
0
39
0
210
0
220
0
230
1
0
ENDBLK
5
275
100
AcDbEntity
8
0
100
AcDbBlockEnd
0
BLOCK
5
27A
100
AcDbEntity
8
0
100
AcDbBlockBegin
2
*D9
70
1
10
0
20
0
30
0
3
*D9
0
LINE
5
27C
100
AcDbEntity
8
0
62
256
6
ByLayer
370
-2
48
1
60
0
100
AcDbLine
10
36
20
-4.138745
30
0
11
36
21
-23.051245
31
0
39
0
210
0
220
0
230
1
0
LINE
5
27D
100
AcDbEntity
8
0
62
256
6
ByLayer
370
-2
48
1
60
0
100
AcDbLine
10
15.5
20
-1.5875
30
0
11
15.5
21
-23.051245
31
0
39
0
210
0
220
0
230
1
0
LINE
5
27E
100
AcDbEntity
8
0
62
256
6
ByLayer
370
-2
48
1
60
0
100
AcDbLine
10
32.5
20
-21.051245
30
0
11
19
21
-21.051245
31
0
39
0
210
0
220
0
230
1
0
SOLID
5
27F
100
AcDbEntity
8
0
62
256
6
ByLayer
370
-1
48
1
60
0
100
AcDbTrace
10
32.5
20
-21.634578
30
0
11
32.5
21
-20.467912
31
0
12
36
22
-21.051245
32
0
13
36
23
-21.051245
33
0
39
0
210
0
220
0
230
1
0
SOLID
5
280
100
AcDbEntity
8
0
62
256
6
ByLayer
370
-1
48
1
60
0
100
AcDbTrace
10
19
20
-20.467912
30
0
11
19
21
-21.634578
31
0
12
15.5
22
-21.051245
32
0
13
15.5
23
-21.051245
33
0
39
0
210
0
220
0
230
1
0
MTEXT
5
281
100
AcDbEntity
8
0
62
256
6
ByLayer
370
18
48
1
60
0
100
AcDbMText
10
25.75
20
-15.051245
30
0
210
0
220
0
230
1
1
\A1;20.5
40
3
41
0
44
1
50
0
71
5
72
5
7
iso_b_vert
0
POINT
5
282
100
AcDbEntity
8
Defpoints
62
0
6
ByLayer
370
-1
48
1
60
0
100
AcDbPoint
10
36
20
-2.551245
30
0
39
0
210
0
220
0
230
1
50
360
0
POINT
5
283
100
AcDbEntity
8
Defpoints
62
0
6
ByLayer
370
-1
48
1
60
0
100
AcDbPoint
10
15.5
20
0
30
0
39
0
210
0
220
0
230
1
50
360
0
POINT
5
284
100
AcDbEntity
8
Defpoints
62
0
6
ByLayer
370
-1
48
1
60
0
100
AcDbPoint
10
15.5
20
-21.051245
30
0
39
0
210
0
220
0
230
1
50
360
0
ENDBLK
5
27B
100
AcDbEntity
8
0
100
AcDbBlockEnd
0
BLOCK
5
28C
100
AcDbEntity
8
0
100
AcDbBlockBegin
2
_U4
70
0
10
0
20
0
30
0
3
_U4
0
MTEXT
5
286
100
AcDbEntity
8
2
62
256
6
ByLayer
370
18
48
1
60
0
100
AcDbMText
10
22.388544
20
-20.166131
30
0
210
0
220
0
230
1
1
\W0.7346;20.5
40
3
41
0
44
1.084337
50
0
71
7
72
5
7
iso_b_vert
0
LINE
5
287
100
AcDbEntity
8
2
62
256
6
ByLayer
370
13
48
1
60
0
100
AcDbLine
10
36
20
-4.138745
30
0
11
36
21
-23.051245
31
0
39
0
210
0
220
0
230
1
0
LINE
5
288
100
AcDbEntity
8
2
62
256
6
ByLayer
370
13
48
1
60
0
100
AcDbLine
10
15.5
20
-1.5875
30
0
11
15.5
21
-23.051245
31
0
39
0
210
0
220
0
230
1
0
LINE
5
289
100
AcDbEntity
8
2
62
256
6
ByLayer
370
13
48
1
60
0
100
AcDbLine
10
36
20
-21.051245
30
0
11
15.5
21
-21.051245
31
0
39
0
210
0
220
0
230
1
0
SOLID
5
28A
100
AcDbEntity
8
2
62
256
6
ByLayer
370
18
48
1
60
0
100
AcDbTrace
10
36
20
-21.051245
30
0
11
32.500002
21
-21.512029
31
0
12
32.499998
22
-20.590461
32
0
13
32.499998
23
-20.590461
33
0
39
0
210
0
220
0
230
1
0
SOLID
5
28B
100
AcDbEntity
8
2
62
256
6
ByLayer
370
18
48
1
60
0
100
AcDbTrace
10
15.5
20
-21.051245
30
0
11
18.999998
21
-20.590461
31
0
12
19.000002
22
-21.512029
32
0
13
19.000002
23
-21.512029
33
0
39
0
210
0
220
0
230
1
0
ENDBLK
5
28D
100
AcDbEntity
8
0
100
AcDbBlockEnd
0
ENDSEC
0
SECTION
2
ENTITIES
0
ARC
5
D0
100
AcDbEntity
8
SK1
62
256
6
ByLayer
370
18
48
1
60
0
100
AcDbCircle
39
0
10
-17
20
0
30
0
40
2.39999999999999
210
0
220
0
230
1
100
AcDbArc
50
326.44269
51
33.55731
0
ARC
5
D1
100
AcDbEntity
8
1
62
256
6
ByLayer
370
18
48
1
60
0
100
AcDbCircle
39
0
10
26.633235
20
2.18
30
0
40
0.3
210
0
220
0
230
1
100
AcDbArc
50
270
51
301
0
ARC
5
D2
100
AcDbEntity
8
1
62
256
6
ByLayer
370
18
48
1
60
0
100
AcDbCircle
39
0
10
14.043744
20
-2.38
30
0
40
0.5
210
0
220
0
230
1
100
AcDbArc
50
90
51
100
0
ARC
5
D3
100
AcDbEntity
8
1
62
256
6
ByLayer
370
18
48
1
60
0
100
AcDbCircle
39
0
10
14.043744
20
2.38
30
0
40
0.5
210
0
220
0
230
1
100
AcDbArc
50
260
51
270
0
POINT
5
70
100
AcDbEntity
8
81
62
256
6
ByLayer
370
18
48
1
60
0
100
AcDbPoint
10
37.805
20
0
30
0
39
0
210
0
220
0
230
1
50
360
0
POINT
5
72
100
AcDbEntity
8
80
62
256
6
ByLayer
370
18
48
1
60
0
100
AcDbPoint
10
0
20
0
30
0
39
0
210
0
220
0
230
1
50
360
0
POINT
5
74
100
AcDbEntity
8
1
62
256
6
ByLayer
370
18
48
1
60
1
100
AcDbPoint
10
36
20
2.551245
30
0
39
0
210
0
220
0
230
1
50
360
0
POINT
5
76
100
AcDbEntity
8
1
62
256
6
ByLayer
370
18
48
1
60
1
100
AcDbPoint
10
36
20
-2.551245
30
0
39
0
210
0
220
0
230
1
50
360
0
POINT
5
77
100
AcDbEntity
8
1
62
256
6
ByLayer
370
18
48
1
60
1
100
AcDbPoint
10
36
20
2.551245
30
0
39
0
210
0
220
0
230
1
50
360
0
POINT
5
78
100
AcDbEntity
8
1
62
256
6
ByLayer
370
18
48
1
60
1
100
AcDbPoint
10
33.8
20
0
30
0
39
0
210
0
220
0
230
1
50
360
0
POINT
5
79
100
AcDbEntity
8
1
62
256
6
ByLayer
370
18
48
1
60
1
100
AcDbPoint
10
36
20
-2.551245
30
0
39
0
210
0
220
0
230
1
50
360
0
POINT
5
7A
100
AcDbEntity
8
1
62
256
6
ByLayer
370
18
48
1
60
1
100
AcDbPoint
10
28
20
-2.551245
30
0
39
0
210
0
220
0
230
1
50
360
0
POINT
5
7B
100
AcDbEntity
8
1
62
256
6
ByLayer
370
18
48
1
60
1
100
AcDbPoint
10
36
20
-2.551245
30
0
39
0
210
0
220
0
230
1
50
360
0
POINT
5
7C
100
AcDbEntity
8
1
62
256
6
ByLayer
370
18
48
1
60
1
100
AcDbPoint
10
14
20
-1.88
30
0
39
0
210
0
220
0
230
1
50
360
0
POINT
5
7D
100
AcDbEntity
8
1
62
256
6
ByLayer
370
18
48
1
60
1
100
AcDbPoint
10
36
20
-2.551245
30
0
39
0
210
0
220
0
230
1
50
360
0
POINT
5
7E
100
AcDbEntity
8
1
62
256
6
ByLayer
370
18
48
1
60
1
100
AcDbPoint
10
15.5
20
0
30
0
39
0
210
0
220
0
230
1
50
360
0
SPLINE
5
D4
100
AcDbEntity
8
1
62
256
6
ByLayer
370
13
48
1
60
0
100
AcDbSpline
70
4
71
3
72
9
73
5
40
0
40
0
40
0
40
0
40
0.927845648069895
40
1
40
1
40
1
40
1
41
1
10
35.0284230220862
20
-2.07865668242161
30
0
41
1
10
35.0232384777692
20
-2.08853742015643
30
0
41
1
10
35.0176507525353
20
-2.0936223553781
30
0
41
1
10
35.0120630424042
20
-2.09259554343569
30
0
41
1
10
35.0116598648712
20
-2.09248969598619
30
0
0
SPLINE
5
D5
100
AcDbEntity
8
1
62
256
6
ByLayer
370
18
48
1
60
0
100
AcDbSpline
70
4
71
3
72
8
73
4
40
0
40
0
40
0
40
0
40
1
40
1
40
1
40
1
41
1
10
34.948015450387
20
-2.21228535159142
30
0
41
1
10
34.9456487029933
20
-2.21225546707228
30
0
41
1
10
34.9433221721117
20
-2.20951813432705
30
0
41
1
10
34.941019867568
20
-2.20411024462678
30
0
0
SPLINE
5
D6
100
AcDbEntity
8
1
62
256
6
ByLayer
370
18
48
1
60
0
100
AcDbSpline
70
4
71
3
72
10
73
6
40
0
40
0
40
0
40
0
40
0.688409098584216
40
0.688409098584216
40
1
40
1
40
1
40
1
41
1
10
34.5038955064233
20
-2.24017161066746
30
0
41
1
10
34.5093437946257
20
-2.2591128165424
30
0
41
1
10
34.5147216016984
20
-2.27427068130908
30
0
41
1
10
34.5224601389828
20
-2.29091599283967
30
0
41
1
10
34.5248609298591
20
-2.29534605495965
30
0
41
1
10
34.527253400247
20
-2.29901725781645
30
0
0
SPLINE
5
D7
100
AcDbEntity
8
1
62
256
6
ByLayer
370
13
48
1
60
0
100
AcDbSpline
70
4
71
3
72
9
73
5
40
0
40
0
40
0
40
0
40
0.408324863628569
40
1
40
1
40
1
40
1
41
1
10
29.4047242189798
20
-2.08747229654475
30
0
41
1
10
29.4077092534279
20
-2.09093023840407
30
0
41
1
10
29.4150197330348
20
-2.09519326822078
30
0
41
1
10
29.4223303151344
20
-2.08905554371239
30
0
41
1
10
29.4266558200748
20
-2.08183043190104
30
0
0
SPLINE
5
D8
100
AcDbEntity
8
1
62
256
6
ByLayer
370
13
48
1
60
0
100
AcDbSpline
70
4
71
3
72
9
73
5
40
0
40
0
40
0
40
0
40
0.395504069634235
40
1
40
1
40
1
40
1
41
1
10
30.8009677668257
20
2.08158214067586
30
0
41
1
10
30.8046715310441
20
2.08786268240962
30
0
41
1
10
30.8140362001803
20
2.0970833608153
30
0
41
1
10
30.8234008707183
20
2.08922304964014
30
0
41
1
10
30.8290617745225
20
2.07832348831869
30
0
0
SPLINE
5
D9
100
AcDbEntity
8
1
62
256
6
ByLayer
370
13
48
1
60
0
100
AcDbSpline
70
4
71
3
72
9
73
5
40
0
40
0
40
0
40
0
40
0.473402197111149
40
1
40
1
40
1
40
1
41
1
10
34.4013832185327
20
-2.08239933309207
30
0
41
1
10
34.3982373503154
20
-2.07725730257263
30
0
41
1
10
34.3915921159824
20
-2.06236396886879
30
0
41
1
10
34.3849468787977
20
-2.03899017495033
30
0
41
1
10
34.3814475115646
20
-2.02439305051192
30
0
0
SPLINE
5
DA
100
AcDbEntity
8
1
62
256
6
ByLayer
370
13
48
1
60
0
100
AcDbSpline
70
4
71
3
72
9
73
5
40
0
40
0
40
0
40
0
40
0.135232657980712
40
1
40
1
40
1
40
1
41
1
10
28.7742661525026
20
-1.99138315274547
30
0
41
1
10
28.7755039791918
20
-1.99764688724341
30
0
41
1
10
28.7846572900637
20
-2.04186516166476
30
0
41
1
10
28.793810593311
20
-2.07035198757819
30
0
41
1
10
28.8017260709428
20
-2.08293524913077
30
0
0
SPLINE
5
DB
100
AcDbEntity
8
1
62
256
6
ByLayer
370
13
48
1
60
0
100
AcDbSpline
70
4
71
3
72
9
73
5
40
0
40
0
40
0
40
0
40
0.631038764956561
40
1
40
1
40
1
40
1
41
1
10
31.4282058902033
20
2.07901995720377
30
0
41
1
10
31.4347304961737
20
2.06675707203539
30
0
41
1
10
31.445069947285
20
2.03439599258277
30
0
41
1
10
31.4554092909394
20
1.98199161558907
30
0
41
1
10
31.4592240975489
20
1.9600270546637
30
0
0
SPLINE
5
DC
100
AcDbEntity
8
1
62
256
6
ByLayer
370
13
48
1
60
0
100
AcDbSpline
70
4
71
3
72
10
73
6
40
0
40
0
40
0
40
0
40
0.193670408997641
40
0.61473925983746
40
1
40
1
40
1
40
1
41
1
10
34.2264443492089
20
-2.08213431344828
30
0
41
1
10
34.222849484589
20
-2.08805262365007
30
0
41
1
10
34.2114388400787
20
-2.09896132294912
30
0
41
1
10
34.19287709781
20
-2.07574277892488
30
0
41
1
10
34.1779101906712
20
-2.01382137358641
30
0
41
1
10
34.1707590702337
20
-1.97496350452604
30
0
0
SPLINE
5
DD
100
AcDbEntity
8
1
62
256
6
ByLayer
370
18
48
1
60
0
100
AcDbSpline
70
4
71
3
72
18
73
14
40
0
40
0
40
0
40
0
40
0.183218862957485
40
0.183218862957485
40
0.387414147218114
40
0.387414147218114
40
0.591609431478743
40
0.591609431478743
40
0.693707073609057
40
0.693707073609057
40
0.795804715739372
40
0.795804715739372
40
1
40
1
40
1
40
1
41
1
10
34.0148572957048
20
-2.44400854832739
30
0
41
1
10
34.0123796793604
20
-2.44515414819617
30
0
41
1
10
34.0099803283949
20
-2.44307209352195
30
0
41
1
10
34.0050160125391
20
-2.43206771338919
30
0
41
1
10
34.002464810527
20
-2.42238825403982
30
0
41
1
10
33.9974029589288
20
-2.39528081633969
30
0
41
1
10
33.9948866497495
20
-2.37784432852914
30
0
41
1
10
33.9911166833823
20
-2.34570793063489
30
0
41
1
10
33.9898587640352
20
-2.33399369747053
30
0
41
1
10
33.9873537696664
20
-2.30880183930159
30
0
41
1
10
33.9861037439214
20
-2.29530047638042
30
0
41
1
10
33.9823487786163
20
-2.25211541468954
30
0
41
1
10
33.9798382421052
20
-2.21976039414452
30
0
41
1
10
33.9773018903962
20
-2.18381495581724
30
0
0
SPLINE
5
DE
100
AcDbEntity
8
1
62
256
6
ByLayer
370
18
48
1
60
0
100
AcDbSpline
70
4
71
3
72
23
73
19
40
0
40
0
40
0
40
0
40
0.178822561847578
40
0.357645123695156
40
0.357645123695156
40
0.40235076415705
40
0.40235076415705
40
0.447056404618945
40
0.447056404618945
40
0.536467685542733
40
0.536467685542733
40
0.715290247390311
40
0.715290247390311
40
0.894112809237888
40
0.894112809237888
40
0.983524090161677
40
0.983524090161677
40
1
40
1
40
1
40
1
41
1
10
33.7550207624055
20
-2.12540201067168
30
0
41
1
10
33.7606205689759
20
-2.16890518790916
30
0
41
1
10
33.7717430587184
20
-2.24830688117331
30
0
41
1
10
33.7829268600515
20
-2.31279368677471
30
0
41
1
10
33.7899883088189
20
-2.34832199993724
30
0
41
1
10
33.7914038151439
20
-2.35518809809744
30
0
41
1
10
33.7942405916459
20
-2.36843520650911
30
0
41
1
10
33.795663738778
20
-2.37482388646003
30
0
41
1
10
33.799918958482
20
-2.39315973959978
30
0
41
1
10
33.8027410752021
20
-2.40430017045765
30
0
41
1
10
33.8111533295252
20
-2.43451176219656
30
0
41
1
10
33.8166808415803
20
-2.45036944558424
30
0
41
1
10
33.8276460897251
20
-2.4736747404998
30
0
41
1
10
33.8330898016097
20
-2.48112412091683
30
0
41
1
10
33.8412455730654
20
-2.48588589075058
30
0
41
1
10
33.8439599890819
20
-2.48640256055305
30
0
41
1
10
33.8471668355935
20
-2.48571869118464
30
0
41
1
10
33.8476656943847
20
-2.4855748086018
30
0
41
1
10
33.8481642193235
20
-2.48539355759201
30
0
0
SPLINE
5
DF
100
AcDbEntity
8
1
62
256
6
ByLayer
370
13
48
1
60
0
100
AcDbSpline
70
4
71
3
72
9
73
5
40
0
40
0
40
0
40
0
40
0.53396247678908
40
1
40
1
40
1
40
1
41
1
10
33.5402617177703
20
-1.75089477187774
30
0
41
1
10
33.5510553516515
20
-1.84808207598283
30
0
41
1
10
33.5712695481962
20
-1.99454447506588
30
0
41
1
10
33.5914837650211
20
-2.06547741269617
30
0
41
1
10
33.6009043543199
20
-2.08147813730767
30
0
0
SPLINE
5
E0
100
AcDbEntity
8
1
62
256
6
ByLayer
370
13
48
1
60
0
100
AcDbSpline
70
4
71
3
72
10
73
6
40
0
40
0
40
0
40
0
40
0.238156539590103
40
0.826413656519227
40
1
40
1
40
1
40
1
41
1
10
28.5635405828962
20
-1.93272451971538
30
0
41
1
10
28.5684424708207
20
-1.96363560596495
30
0
41
1
10
28.5854522813622
20
-2.05600618374118
30
0
41
1
10
28.6060350264013
20
-2.10201542017324
30
0
41
1
10
28.621715453908
20
-2.08922537425875
30
0
41
1
10
28.6252882326912
20
-2.08385784441401
30
0
0
SPLINE
5
E1
100
AcDbEntity
8
1
62
256
6
ByLayer
370
13
48
1
60
0
100
AcDbSpline
70
4
71
3
72
10
73
6
40
0
40
0
40
0
40
0
40
0.12519261250806
40
0.665693136842596
40
1
40
1
40
1
40
1
41
1
10
31.6027762861516
20
2.0846085349032
30
0
41
1
10
31.6055807209707
20
2.08870582804642
30
0
41
1
10
31.6204928833834
20
2.10241271682659
30
0
41
1
10
31.6428938076458
20
2.05772266080439
30
0
41
1
10
31.6624903327762
20
1.9464830909379
30
0
41
1
10
31.669979131186
20
1.89419042663223
30
0
0
SPLINE
5
E2
100
AcDbEntity
8
1
62
256
6
ByLayer
370
18
48
1
60
0
100
AcDbSpline
70
4
71
3
72
23
73
19
40
0
40
0
40
0
40
0
40
0.156423939264187
40
0.325139151411349
40
0.325139151411349
40
0.367317954448139
40
0.367317954448139
40
0.409496757484929
40
0.49385436355851
40
0.49385436355851
40
0.662569575705673
40
0.831284787852836
40
0.831284787852836
40
0.873463590889627
40
0.873463590889627
40
0.915642393926418
40
0.915642393926418
40
1
40
1
40
1
40
1
41
1
10
31.8787808314882
20
2.55124511196971
30
0
41
1
10
31.8827428257402
20
2.55123707314539
30
0
41
1
10
31.8909859145691
20
2.54353777226095
30
0
41
1
10
31.8992440556758
20
2.51982835572087
30
0
41
1
10
31.9046441059852
20
2.49887651589273
30
0
41
1
10
31.9057260073619
20
2.49440757391304
30
0
41
1
10
31.9078836475831
20
2.48496274966149
30
0
41
1
10
31.9111148218771
20
2.47001755348671
30
0
41
1
10
31.9143426847632
20
2.4527649301678
30
0
41
1
10
31.9207942122648
20
2.4152297656407
30
0
41
1
10
31.9293784172946
20
2.35711779790006
30
0
41
1
10
31.9379461655349
20
2.28299606492698
30
0
41
1
10
31.9433332757361
20
2.23155082963711
30
0
41
1
10
31.9444124400768
20
2.22100520444738
30
0
41
1
10
31.9465757219702
20
2.19939533350691
30
0
41
1
10
31.9476614409593
20
2.1883145042753
30
0
41
1
10
31.9509139964052
20
2.15443524992551
30
0
41
1
10
31.9530759094862
20
2.13100098491068
30
0
41
1
10
31.9552308464518
20
2.1067359070461
30
0
0
SPLINE
5
E3
100
AcDbEntity
8
1
62
256
6
ByLayer
370
13
48
1
60
0
100
AcDbSpline
70
4
71
3
72
10
73
6
40
0
40
0
40
0
40
0
40
0.261174906619227
40
0.761163067912177
40
1
40
1
40
1
40
1
41
1
10
32.2279154396143
20
2.07947587191228
30
0
41
1
10
32.23424001137
20
2.06787909781713
30
0
41
1
10
32.2526724110152
20
2.01175616121171
30
0
41
1
10
32.276889315161
20
1.85404756042735
30
0
41
1
10
32.2947810957677
20
1.68403570630878
30
0
41
1
10
32.300564844279
20
1.62405430579889
30
0
0
SPLINE
5
E4
100
AcDbEntity
8
1
62
256
6
ByLayer
370
13
48
1
60
0
100
AcDbSpline
70
4
71
3
72
10
73
6
40
0
40
0
40
0
40
0
40
0.220421813972056
40
0.616453961720277
40
1
40
1
40
1
40
1
41
1
10
27.7225955450493
20
-1.57990273117127
30
0
41
1
10
27.7293344455395
20
-1.65247272135369
30
0
41
1
10
27.7481812659263
20
-1.83690328131956
30
0
41
1
10
27.7787546254112
20
-2.04111883454908
30
0
41
1
10
27.8025880566223
20
-2.09379320641597
30
0
41
1
10
27.8143138848139
20
-2.09282873587074
30
0
0
SPLINE
5
E5
100
AcDbEntity
8
1
62
256
6
ByLayer
370
13
48
1
60
0
100
AcDbSpline
70
4
71
3
72
11
73
7
40
0
40
0
40
0
40
0
40
0.0789639149543882
40
0.491282670768918
40
0.903601426583448
40
1
40
1
40
1
40
1
41
1
10
33.329630303215
20
-1.65324877172591
30
0
41
1
10
33.3319490372574
20
-1.67664159615086
30
0
41
1
10
33.3463752527651
20
-1.81704666565676
30
0
41
1
10
33.3729085582475
20
-2.01361841581161
30
0
41
1
10
33.3999548294348
20
-2.09262867285682
30
0
41
1
10
33.4148937379337
20
-2.09300987914426
30
0
41
1
10
33.4177245687384
20
-2.09153709224461
30
0
0
SPLINE
5
E6
100
AcDbEntity
8
1
62
256
6
ByLayer
370
13
48
1
60
0
100
AcDbSpline
70
4
71
3
72
11
73
7
40
0
40
0
40
0
40
0
40
0.110044684215914
40
0.506020036686595
40
0.901995389157276
40
1
40
1
40
1
40
1
41
1
10
27.4421319291814
20
2.04041907552587
30
0
41
1
10
27.4454968050191
20
2.02816532280943
30
0
41
1
10
27.4609696390525
20
1.96204317736243
30
0
41
1
10
27.4885510415946
20
1.76520992685837
30
0
41
1
10
27.515762806865
20
1.4635246657196
30
0
41
1
10
27.5308668857891
20
1.26737118323314
30
0
41
1
10
27.5338635033429
20
1.22743367210646
30
0
0
SPLINE
5
E7
100
AcDbEntity
8
1
62
256
6
ByLayer
370
13
48
1
60
0
100
AcDbSpline
70
4
71
3
72
11
73
7
40
0
40
0
40
0
40
0
40
0.0173975561111259
40
0.41126240738635
40
0.805127258661573
40
1
40
1
40
1
40
1
41
1
10
32.699281228322
20
-1.29821263512647
30
0
41
1
10
32.6998160434075
20
-1.30510420497888
30
0
41
1
10
32.7124585863424
20
-1.46719892424761
30
0
41
1
10
32.7372088870384
20
-1.74613603805253
30
0
41
1
10
32.7674149565604
20
-1.96952394134581
30
0
41
1
10
32.7855132428334
20
-2.04263797796756
30
0
41
1
10
32.7915037916461
20
-2.06001107362277
30
0
0
SPLINE
5
E8
100
AcDbEntity
8
1
62
256
6
ByLayer
370
13
48
1
60
0
100
AcDbSpline
70
4
71
3
72
10
73
6
40
0
40
0
40
0
40
0
40
0.300964930325348
40
0.694473345288884
40
1
40
1
40
1
40
1
41
1
10
32.4188423584745
20
2.09119634268041
30
0
41
1
10
32.4281026551505
20
2.08548213990576
30
0
41
1
10
32.4494707057595
20
2.0341080637557
30
0
41
1
10
32.480239433993
20
1.83616873717932
30
0
41
1
10
32.5017478037525
20
1.62019460727487
30
0
41
1
10
32.5111484458068
20
1.51344667420344
30
0
0
SPLINE
5
E9
100
AcDbEntity
8
1
62
256
6
ByLayer
370
13
48
1
60
0
100
AcDbSpline
70
4
71
3
72
10
73
6
40
0
40
0
40
0
40
0
40
0.356889413624963
40
0.749940523957674
40
1
40
1
40
1
40
1
41
1
10
33.0493426557361
20
2.01118942270398
30
0
41
1
10
33.0603361803636
20
1.96111227119917
30
0
41
1
10
33.0834368211569
20
1.80828858466975
30
0
41
1
10
33.1142412782432
20
1.48599243003483
30
0
41
1
10
33.1340526929404
20
1.22707708531541
30
0
41
1
10
33.1417558886406
20
1.12023795381825
30
0
0
SPLINE
5
EA
100
AcDbEntity
8
1
62
256
6
ByLayer
370
13
48
1
60
0
100
AcDbSpline
70
4
71
3
72
11
73
7
40
0
40
0
40
0
40
0
40
0.137156553279224
40
0.530670163090674
40
0.924183772902125
40
1
40
1
40
1
40
1
41
1
10
32.4884920956577
20
-1.16033388860316
30
0
41
1
10
32.4927120277703
20
-1.21807034720564
30
0
41
1
10
32.5090393132385
20
-1.43405898446005
30
0
41
1
10
32.5374746873467
20
-1.75267154447397
30
0
41
1
10
32.5640239590186
20
-1.94673884673014
30
0
41
1
10
32.5784647318946
20
-2.0136299007016
30
0
41
1
10
32.5807975073829
20
-2.02341602586856
30
0
0
SPLINE
5
EB
100
AcDbEntity
8
1
62
256
6
ByLayer
370
13
48
1
60
0
100
AcDbSpline
70
4
71
3
72
11
73
7
40
0
40
0
40
0
40
0
40
0.0777393352548024
40
0.471519006483222
40
0.865298677711641
40
1
40
1
40
1
40
1
41
1
10
31.8582811312172
20
-0.711855978092785
30
0
41
1
10
31.8606714232644
20
-0.748806124998907
30
0
41
1
10
31.875169464911
20
-0.970653868103341
30
0
41
1
10
31.9017752467058
20
-1.34845978293836
30
0
41
1
10
31.9301323903453
20
-1.66567682574785
30
0
41
1
10
31.9463818378294
20
-1.80481913399072
30
0
41
1
10
31.9505235622455
20
-1.83737610461134
30
0
0
SPLINE
5
EC
100
AcDbEntity
8
1
62
256
6
ByLayer
370
13
48
1
60
0
100
AcDbSpline
70
4
71
3
72
10
73
6
40
0
40
0
40
0
40
0
40
0.103464304410661
40
0.609985775316011
40
1
40
1
40
1
40
1
41
1
10
35.0346027584469
20
-0.335865328212691
30
0
41
1
10
35.0314097864026
20
-0.284056521627775
30
0
41
1
10
35.0125852495662
20
0.0232489993733509
30
0
41
1
10
34.9817246431732
20
0.53674061212007
30
0
41
1
10
34.9540570029711
20
0.955308933774973
30
0
41
1
10
34.9420209247349
20
1.12234162432497
30
0
0
SPLINE
5
ED
100
AcDbEntity
8
1
62
256
6
ByLayer
370
18
48
1
60
0
100
AcDbSpline
70
4
71
3
72
25
73
21
40
0
40
0
40
0
40
0
40
0.125
40
0.125
40
0.250000000000001
40
0.250000000000001
40
0.375000000000001
40
0.375000000000001
40
0.437500000000001
40
0.437500000000001
40
0.500000000000001
40
0.500000000000001
40
0.625000000000001
40
0.750000000000001
40
0.750000000000001
40
0.812500000000001
40
0.812500000000001
40
0.875000000000001
40
0.875000000000001
40
1
40
1
40
1
40
1
41
1
10
35.0025807688756
20
1.14741975076581
30
0
41
1
10
35.0077359729986
20
1.0886615506632
30
0
41
1
10
35.0128025972472
20
1.02845667398731
30
0
41
1
10
35.022773396598
20
0.905220959969455
30
0
41
1
10
35.0276751977245
20
0.842188124014967
30
0
41
1
10
35.0373501484954
20
0.713274555664725
30
0
41
1
10
35.0421300746673
20
0.647397972524431
30
0
41
1
10
35.0492898159231
20
0.546405861993748
30
0
41
1
10
35.0516770791679
20
0.512317520102897
30
0
41
1
10
35.05639501946
20
0.444136508945292
30
0
41
1
10
35.0587314278481
20
0.409964435380402
30
0
41
1
10
35.0656773252705
20
0.307208273209511
30
0
41
1
10
35.0747687018648
20
0.169561382352072
30
0
41
1
10
35.0835867264973
20
0.0306577877481971
30
0
41
1
10
35.0901355195395
20
-0.0739973698188123
30
0
41
1
10
35.0923078435696
20
-0.108962137576896
30
0
41
1
10
35.0966398822041
20
-0.179053882440712
30
0
41
1
10
35.0988017263073
20
-0.214199488650024
30
0
41
1
10
35.1052164205488
20
-0.318951867727833
30
0
41
1
10
35.1094148012138
20
-0.388183324759865
30
0
41
1
10
35.1135272421731
20
-0.456812701919603
30
0
0
SPLINE
5
EE
100
AcDbEntity
8
1
62
256
6
ByLayer
370
13
48
1
60
0
100
AcDbSpline
70
4
71
3
72
10
73
6
40
0
40
0
40
0
40
0
40
0.3855580616617
40
0.781714298766946
40
1
40
1
40
1
40
1
41
1
10
27.6529319733318
20
1.99601437769343
30
0
41
1
10
27.6647157980155
20
1.93784075965374
30
0
41
1
10
27.6886073794218
20
1.76772615473496
30
0
41
1
10
27.7191704486848
20
1.43104966239451
30
0
41
1
10
27.7379496438013
20
1.17959212879762
30
0
41
1
10
27.7446211097877
20
1.08581023591611
30
0
0
SPLINE
5
EF
100
AcDbEntity
8
1
62
256
6
ByLayer
370
18
48
1
60
0
100
AcDbSpline
70
4
71
3
72
25
73
21
40
0
40
0
40
0
40
0
40
0.125
40
0.125
40
0.1875
40
0.1875
40
0.21875
40
0.21875
40
0.25
40
0.374999999999999
40
0.499999999999999
40
0.499999999999999
40
0.562499999999999
40
0.562499999999999
40
0.624999999999999
40
0.624999999999999
40
0.749999999999999
40
0.875
40
0.875
40
1
40
1
40
1
40
1
41
1
10
27.9269545046169
20
2.37164284797697
30
0
41
1
10
27.9312423150242
20
2.34016132308747
30
0
41
1
10
27.935523250287
20
2.30469390967502
30
0
41
1
10
27.9419566038169
20
2.24541306627273
30
0
41
1
10
27.9441035283726
20
2.22463760994521
30
0
41
1
10
27.9473350289998
20
2.19192103332529
30
0
41
1
10
27.9484151771475
20
2.18074437341414
30
0
41
1
10
27.9505690705749
20
2.15799336691856
30
0
41
1
10
27.9559445351631
20
2.10005935569069
30
0
41
1
10
27.9655677450107
20
1.98641445502437
30
0
41
1
10
27.9740615479392
20
1.87239835106047
30
0
41
1
10
27.9804466485538
20
1.78198247502692
30
0
41
1
10
27.9825778074526
20
1.75102504008376
30
0
41
1
10
27.986856156477
20
1.6874489069175
30
0
41
1
10
27.9890061428565
20
1.65479700855735
30
0
41
1
10
27.9954817927887
20
1.55450360096827
30
0
41
1
10
28.0040587669911
20
1.41632344678314
30
0
41
1
10
28.0125502957444
20
1.26953757002838
30
0
41
1
10
28.0210574167187
20
1.11846949633247
30
0
41
1
10
28.0253243525443
20
1.04079484523334
30
0
41
1
10
28.0296360158846
20
0.960924318958405
30
0
0
SPLINE
5
F0
100
AcDbEntity
8
1
62
256
6
ByLayer
370
18
48
1
60
0
100
AcDbSpline
70
4
71
3
72
28
73
24
40
0
40
0
40
0
40
0
40
0.0625
40
0.0625
40
0.125
40
0.125
40
0.25
40
0.375
40
0.375
40
0.40625
40
0.40625
40
0.4375
40
0.4375
40
0.5
40
0.5
40
0.624999999999999
40
0.75
40
0.75
40
0.8125
40
0.8125
40
0.875
40
0.875
40
1
40
1
40
1
40
1
41
1
10
28.102946922588
20
0.893649473418833
30
0
41
1
10
28.1007859942689
20
0.934185272489231
30
0
41
1
10
28.0986283303048
20
0.974272186887248
30
0
41
1
10
28.0943247937725
20
1.05322612401642
30
0
41
1
10
28.0921753843
20
1.09214805376624
30
0
41
1
10
28.08573809674
20
1.20727334964025
30
0
41
1
10
28.0771878250801
20
1.35640722321637
30
0
41
1
10
28.0686712343827
20
1.49686502579499
30
0
41
1
10
28.0633148469338
20
1.58187282623962
30
0
41
1
10
28.0622417540684
20
1.59873512688034
30
0
41
1
10
28.0600902599125
20
1.63217811534221
30
0
41
1
10
28.0590102780715
20
1.64878034712987
30
0
41
1
10
28.0557770838873
20
1.69791330295681
30
0
41
1
10
28.053628268729
20
1.72981947852259
30
0
41
1
10
28.0472023290048
20
1.82304170887184
30
0
41
1
10
28.0386920396894
20
1.94069385614969
30
0
41
1
10
28.0302295670046
20
2.04528140687705
30
0
41
1
10
28.0238381561081
20
2.11875621593586
30
0
41
1
10
28.0216985991146
20
2.14241859453776
30
0
41
1
10
28.0173972691126
20
2.18805453652757
30
0
41
1
10
28.0152320045242
20
2.21006602699802
30
0
41
1
10
28.0087752220724
20
2.27283493682464
30
0
41
1
10
28.0045041810034
20
2.31056167073899
30
0
41
1
10
28.0002458995301
20
2.34428216659688
30
0
0
SPLINE
5
F1
100
AcDbEntity
8
1
62
256
6
ByLayer
370
13
48
1
60
0
100
AcDbSpline
70
4
71
3
72
11
73
7
40
0
40
0
40
0
40
0
40
0.0478458872374916
40
0.442791427450018
40
0.837736967662544
40
1
40
1
40
1
40
1
41
1
10
28.2832600498163
20
1.78776528985941
30
0
41
1
10
28.2847268562971
20
1.77522966500086
30
0
41
1
10
28.298301478725
20
1.65592043531319
30
0
41
1
10
28.3239841049733
20
1.37348476957459
30
0
41
1
10
28.3531738500723
20
0.963477564258397
30
0
41
1
10
28.3702558618371
20
0.700288764411368
30
0
41
1
10
28.375230267723
20
0.622217991835896
30
0
0
SPLINE
5
F2
100
AcDbEntity
8
1
62
256
6
ByLayer
370
13
48
1
60
0
100
AcDbSpline
70
4
71
3
72
10
73
6
40
0
40
0
40
0
40
0
40
0.238589378083618
40
0.63125409834033
40
1
40
1
40
1
40
1
41
1
10
33.2599864250747
20
1.95819689564149
30
0
41
1
10
33.2673432690016
20
1.91548611472086
30
0
41
1
10
33.2868078268535
20
1.77660023576837
30
0
41
1
10
33.317642614351
20
1.45614055001838
30
0
41
1
10
33.3411205834016
20
1.13886944584118
30
0
41
1
10
33.3524907985595
20
0.973446395478675
30
0
0
SPLINE
5
F3
100
AcDbEntity
8
1
62
256
6
ByLayer
370
18
48
1
60
0
100
AcDbSpline
70
4
71
3
72
8
73
4
40
0
40
0
40
0
40
0
40
1
40
1
40
1
40
1
41
1
10
33.6311681439467
20
0.933766373252581
30
0
41
1
10
33.6332615047918
20
0.89472161521951
30
0
41
1
10
33.6353476096128
20
0.855414104803174
30
0
41
1
10
33.6374284765796
20
0.815847610775762
30
0
0
SPLINE
5
F4
100
AcDbEntity
8
1
62
256
6
ByLayer
370
13
48
1
60
0
100
AcDbSpline
70
4
71
3
72
12
73
8
40
0
40
0
40
0
40
0
40
0.0162814676732676
40
0.270078038664613
40
0.523874609655959
40
0.777671180647305
40
1
40
1
40
1
40
1
41
1
10
33.9826906419149
20
0.504126069140483
30
0
41
1
10
33.982189246958
20
0.512126647524724
30
0
41
1
10
33.9738720740438
20
0.644638251244686
30
0
41
1
10
33.9577390894702
20
0.894812833246078
30
0
41
1
10
33.9342918323204
20
1.228730913519
30
0
41
1
10
33.9118135127207
20
1.50867582535599
30
0
41
1
10
33.8971510807565
20
1.66117590773345
30
0
41
1
10
33.8903043737995
20
1.72491252618926
30
0
0
SPLINE
5
F5
100
AcDbEntity
8
1
62
256
6
ByLayer
370
18
48
1
60
0
100
AcDbSpline
70
4
71
3
72
22
73
18
40
0
40
0
40
0
40
0
40
0.250000000000001
40
0.250000000000001
40
0.312500000000001
40
0.312500000000001
40
0.343750000000002
40
0.343750000000002
40
0.375000000000002
40
0.500000000000002
40
0.500000000000002
40
0.625000000000002
40
0.625000000000002
40
0.750000000000001
40
0.750000000000001
40
0.875000000000001
40
1
40
1
40
1
40
1
41
1
10
33.7199034294891
20
0.738092320291372
30
0
41
1
10
33.7137031977208
20
0.894747685835824
30
0
41
1
10
33.7080287251389
20
1.04460000422824
30
0
41
1
10
33.7010998665473
20
1.22345671261201
30
0
41
1
10
33.6997251376244
20
1.25880289738313
30
0
41
1
10
33.6976785419115
20
1.31117407050507
30
0
41
1
10
33.6969979617581
20
1.32854747044166
30
0
41
1
10
33.6956473316975
20
1.36293297591757
30
0
41
1
10
33.6922968844178
20
1.4479830402384
30
0
41
1
10
33.6890773717093
20
1.5285393643328
30
0
41
1
10
33.6840382482562
20
1.65181310105544
30
0
41
1
10
33.6815854288932
20
1.71062824461526
30
0
41
1
10
33.6766269593849
20
1.82267673695577
30
0
41
1
10
33.6741009015024
20
1.87592672051861
30
0
41
1
10
33.6689479628845
20
1.97668866614404
30
0
41
1
10
33.6637709552022
20
2.07033258932503
30
0
41
1
10
33.6586070662981
20
2.14989417902183
30
0
41
1
10
33.6560400678731
20
2.18604108703832
30
0
0
SPLINE
5
F6
100
AcDbEntity
8
1
62
256
6
ByLayer
370
18
48
1
60
0
100
AcDbSpline
70
4
71
3
72
8
73
4
40
0
40
0
40
0
40
0
40
1
40
1
40
1
40
1
41
1
10
33.6490964242169
20
0.805060194575674
30
0
41
1
10
33.6432799099116
20
0.848534482467073
30
0
41
1
10
33.6373116033537
20
0.891433703640729
30
0
41
1
10
33.6311681439467
20
0.933766373252553
30
0
0
SPLINE
5
F7
100
AcDbEntity
8
1
62
256
6
ByLayer
370
13
48
1
60
0
100
AcDbSpline
70
4
71
3
72
10
73
6
40
0
40
0
40
0
40
0
40
0.49254514160721
40
0.998771342206746
40
1
40
1
40
1
40
1
41
1
10
34.8240235164607
20
-0.169871064333137
30
0
41
1
10
34.8088145516574
20
0.0793735116640732
30
0
41
1
10
34.7779747768526
20
0.592329444393641
30
0
41
1
10
34.7470961448998
20
1.05472731387002
30
0
41
1
10
34.7314265241087
20
1.26033672076161
30
0
41
1
10
34.7313885845724
20
1.26083437514805
30
0
0
SPLINE
5
F8
100
AcDbEntity
8
1
62
256
6
ByLayer
370
13
48
1
60
0
100
AcDbSpline
70
4
71
3
72
12
73
8
40
0
40
0
40
0
40
0
40
0.136246854625541
40
0.389947594344997
40
0.643648334064454
40
0.89734907378391
40
1
40
1
40
1
40
1
41
1
10
34.1935116508637
20
0.336574854158044
30
0
41
1
10
34.1893142763248
20
0.4046966858524
30
0
41
1
10
34.1773011092099
20
0.598116248600036
30
0
41
1
10
34.1574722398532
20
0.905089699667684
30
0
41
1
10
34.1340248216958
20
1.2378644126739
30
0
41
1
10
34.1152309539046
20
1.4708933125973
30
0
41
1
10
34.1042527809881
20
1.59000300836286
30
0
41
1
10
34.1010903994502
20
1.62281609968664
30
0
0
SPLINE
5
F9
100
AcDbEntity
8
1
62
256
6
ByLayer
370
18
48
1
60
0
100
AcDbSpline
70
4
71
3
72
23
73
19
40
0
40
0
40
0
40
0
40
0.249999999999999
40
0.249999999999999
40
0.312499999999998
40
0.343749999999998
40
0.343749999999998
40
0.374999999999998
40
0.374999999999998
40
0.499999999999999
40
0.499999999999999
40
0.75
40
0.75
40
0.8125
40
0.8125
40
0.875
40
0.875
40
1
40
1
40
1
40
1
41
1
10
34.2542847993566
20
1.75931554920052
30
0
41
1
10
34.2653199344428
20
1.65889241189404
30
0
41
1
10
34.2762957158297
20
1.54779259681305
30
0
41
1
10
34.2897941490454
20
1.3954923891242
30
0
41
1
10
34.2938337819946
20
1.34879110303135
30
0
41
1
10
34.2978657403367
20
1.30054916042425
30
0
41
1
10
34.3005526761204
20
1.26804131066109
30
0
41
1
10
34.3018973856621
20
1.25159231623664
30
0
41
1
10
34.3085858750986
20
1.16889853649536
30
0
41
1
10
34.313841992453
20
1.1011134913152
30
0
41
1
10
34.3294052788805
20
0.892994865153952
30
0
41
1
10
34.3394339195948
20
0.747909589585333
30
0
41
1
10
34.3517391928329
20
0.558484706851999
30
0
41
1
10
34.3541961403934
20
0.520113315429427
30
0
41
1
10
34.3590555502739
20
0.443245446000503
30
0
41
1
10
34.3614621784046
20
0.40468703133655
30
0
41
1
10
34.3686268880217
20
0.288643403778139
30
0
41
1
10
34.3733317381044
20
0.210790878847774
30
0
41
1
10
34.3779968330367
20
0.132449008522741
30
0
0
SPLINE
5
FA
100
AcDbEntity
8
1
62
256
6
ByLayer
370
18
48
1
60
0
100
AcDbSpline
70
4
71
3
72
24
73
20
40
0
40
0
40
0
40
0
40
0.125
40
0.249999999999999
40
0.249999999999999
40
0.374999999999999
40
0.374999999999999
40
0.406249999999999
40
0.406249999999999
40
0.437499999999999
40
0.499999999999999
40
0.499999999999999
40
0.75
40
0.75
40
0.8125
40
0.8125
40
0.875
40
0.875
40
1
40
1
40
1
40
1
41
1
10
34.6910755050552
20
-0.133084791837547
30
0
41
1
10
34.687450525477
20
-0.0601046943747576
30
0
41
1
10
34.6803936985121
20
0.0852318656670263
30
0
41
1
10
34.6737179371955
20
0.229353435955346
30
0
41
1
10
34.6672013091595
20
0.372863820434475
30
0
41
1
10
34.6640225912068
20
0.444313496735504
30
0
41
1
10
34.6601119780355
20
0.53322841838235
30
0
41
1
10
34.6593325993618
20
0.550999046400477
30
0
41
1
10
34.6577874277213
20
0.586301748888928
30
0
41
1
10
34.6554868793726
20
0.638971491750738
30
0
41
1
10
34.6532308343381
20
0.690796960497863
30
0
41
1
10
34.6458253071708
20
0.861693003246074
30
0
41
1
10
34.6403420900425
20
0.992489996298076
30
0
41
1
10
34.6337843305571
20
1.14856910869369
30
0
41
1
10
34.6324847349242
20
1.17941174471099
30
0
41
1
10
34.6298966380894
20
1.24033684041109
30
0
41
1
10
34.6286147486034
20
1.27026222001061
30
0
41
1
10
34.6247956855141
20
1.3581812816519
30
0
41
1
10
34.6222674856176
20
1.41444138921418
30
0
41
1
10
34.6197578342452
20
1.46835528314875
30
0
0
SPLINE
5
FB
100
AcDbEntity
8
1
62
256
6
ByLayer
370
13
48
1
60
0
100
AcDbSpline
70
4
71
3
72
10
73
6
40
0
40
0
40
0
40
0
40
0.324251734473052
40
0.719242375175965
40
1
40
1
40
1
40
1
41
1
10
28.4938991091149
20
1.69481030185378
30
0
41
1
10
28.5038384580938
20
1.598900931982
30
0
41
1
10
28.5258855195103
20
1.35176454260599
30
0
41
1
10
28.5565387361187
20
0.922658333579903
30
0
41
1
10
28.5772526238345
20
0.598202673468307
30
0
41
1
10
28.5858587594629
20
0.460219952666307
30
0
0
SPLINE
5
FC
100
AcDbEntity
8
1
62
256
6
ByLayer
370
18
48
1
60
0
100
AcDbSpline
70
4
71
3
72
27
73
23
40
0
40
0
40
0
40
0
40
0.125
40
0.125
40
0.25
40
0.25
40
0.375
40
0.375
40
0.40625
40
0.40625
40
0.437500000000001
40
0.500000000000001
40
0.500000000000001
40
0.625000000000001
40
0.625000000000001
40
0.750000000000001
40
0.750000000000001
40
0.8125
40
0.8125
40
0.875
40
0.875
40
1
40
1
40
1
40
1
41
1
10
28.7678175622768
20
1.9525963206859
30
0
41
1
10
28.7721319770992
20
1.89700339905735
30
0
41
1
10
28.7764050981045
20
1.83847374432344
30
0
41
1
10
28.784935236187
20
1.71571021545955
30
0
41
1
10
28.7892007280549
20
1.65147625609137
30
0
41
1
10
28.7977882668094
20
1.51729663616302
30
0
41
1
10
28.8020993811412
20
1.44735106880157
30
0
41
1
10
28.8075184735637
20
1.3562322891066
30
0
41
1
10
28.8086049368385
20
1.33780620688864
30
0
41
1
10
28.810769869644
20
1.30078694929838
30
0
41
1
10
28.8140092789627
20
1.24494165524959
30
0
41
1
10
28.8172287472779
20
1.18815830954725
30
0
41
1
10
28.8236556502081
20
1.07336128845142
30
0
41
1
10
28.8279321822978
20
0.995192917539157
30
0
41
1
10
28.8364933422349
20
0.835611886007598
30
0
41
1
10
28.8407719336104
20
0.754199047481166
30
0
41
1
10
28.8472087932531
20
0.629594026510034
30
0
41
1
10
28.8493604752022
20
0.587594500177261
30
0
41
1
10
28.8536688114085
20
0.502957346410057
30
0
41
1
10
28.8558121895694
20
0.460581964712134
30
0
41
1
10
28.8622273440761
20
0.333289832545944
30
0
41
1
10
28.8664908919371
20
0.248207844799651
30
0
41
1
10
28.8707463285318
20
0.162909752900646
30
0
0
SPLINE
5
FD
100
AcDbEntity
8
1
62
256
6
ByLayer
370
13
48
1
60
0
100
AcDbSpline
70
4
71
3
72
10
73
6
40
0
40
0
40
0
40
0
40
0.261373842879297
40
0.656212807131623
40
1
40
1
40
1
40
1
41
1
10
29.3351058078223
20
1.21653617443761
30
0
41
1
10
29.3431208447632
20
1.10933196646744
30
0
41
1
10
29.3632436275579
20
0.822004809269203
30
0
41
1
10
29.3939085908822
20
0.333586525193198
30
0
41
1
10
29.4165585269086
20
-0.0413726698023424
30
0
41
1
10
29.4271007538541
20
-0.213677225376955
30
0
0
SPLINE
5
FE
100
AcDbEntity
8
1
62
256
6
ByLayer
370
13
48
1
60
0
100
AcDbSpline
70
4
71
3
72
10
73
6
40
0
40
0
40
0
40
0
40
0.380950081356261
40
0.776143109402358
40
1
40
1
40
1
40
1
41
1
10
29.124402902588
20
1.3498274505767
30
0
41
1
10
29.1360744265047
20
1.203304085046
30
0
41
1
10
29.1598543198881
20
0.869941916511095
30
0
41
1
10
29.1904923775591
20
0.381416124632892
30
0
41
1
10
29.2094579479636
20
0.0691069794529824
30
0
41
1
10
29.2163161449233
20
-0.0436295921156216
30
0
0
SPLINE
5
FF
100
AcDbEntity
8
1
62
256
6
ByLayer
370
13
48
1
60
0
100
AcDbSpline
70
4
71
3
72
10
73
6
40
0
40
0
40
0
40
0
40
0.258419499995227
40
0.652083483198422
40
1
40
1
40
1
40
1
41
1
10
30.8064406261078
20
0.118580560745016
30
0
41
1
10
30.8143885849824
20
-0.0119383442875289
30
0
41
1
10
30.8344441243779
20
-0.343000176263701
30
0
41
1
10
30.8652008792093
20
-0.834325466055589
30
0
41
1
10
30.8880097711908
20
-1.1578880451319
30
0
41
1
10
30.8987105514965
20
-1.29599712952415
30
0
0
SPLINE
5
100
100
AcDbEntity
8
1
62
256
6
ByLayer
370
13
48
1
60
0
100
AcDbSpline
70
4
71
3
72
11
73
7
40
0
40
0
40
0
40
0
40
0.140277117726023
40
0.53400522714722
40
0.927733336568418
40
1
40
1
40
1
40
1
41
1
10
31.017077112312
20
-0.049344803705651
30
0
41
1
10
31.0213908423224
20
-0.120255923620363
30
0
41
1
10
31.0378122934845
20
-0.389849874484952
30
0
41
1
10
31.0663414524046
20
-0.846467197732295
30
0
41
1
10
31.0927792511909
20
-1.21986245637333
30
0
41
1
10
31.1071093131939
20
-1.39669801624225
30
0
41
1
10
31.10933162523
20
-1.42347293832953
30
0
0
SPLINE
5
101
100
AcDbEntity
8
1
62
256
6
ByLayer
370
13
48
1
60
0
100
AcDbSpline
70
4
71
3
72
10
73
6
40
0
40
0
40
0
40
0
40
0.321030603883186
40
0.715681097082815
40
1
40
1
40
1
40
1
41
1
10
29.9653033080238
20
0.775588883013228
30
0
41
1
10
29.9751522704409
20
0.625239021774405
30
0
41
1
10
29.9971091481165
20
0.27470177200729
30
0
41
1
10
30.0277901746204
20
-0.234197391523594
30
0
41
1
10
30.0486207787638
20
-0.568691798413823
30
0
41
1
10
30.0573434844418
20
-0.703812120216099
30
0
0
SPLINE
5
102
100
AcDbEntity
8
1
62
256
6
ByLayer
370
13
48
1
60
0
100
AcDbSpline
70
4
71
3
72
11
73
7
40
0
40
0
40
0
40
0
40
0.200911806602143
40
0.595871426747497
40
0.990831046892851
40
1
40
1
40
1
40
1
41
1
10
30.1761073243333
20
0.614877254728043
30
0
41
1
10
30.1822664004009
20
0.518145759958372
30
0
41
1
10
30.200533216012
20
0.224897129373602
30
0
41
1
10
30.2309078094208
20
-0.27932364223048
30
0
41
1
10
30.2554043747282
20
-0.671086783978808
30
0
41
1
10
30.2677931812691
20
-0.857003677103052
30
0
41
1
10
30.2680742610802
20
-0.861215426281461
30
0
0
SPLINE
5
103
100
AcDbEntity
8
1
62
256
6
ByLayer
370
18
48
1
60
0
100
AcDbSpline
70
4
71
3
72
26
73
22
40
0
40
0
40
0
40
0
40
0.125
40
0.125
40
0.25
40
0.25
40
0.3125
40
0.3125
40
0.375
40
0.375
40
0.5
40
0.5
40
0.625
40
0.750000000000001
40
0.750000000000001
40
0.781250000000001
40
0.781250000000001
40
0.812500000000001
40
0.875
40
0.875
40
1
40
1
40
1
40
1
41
1
10
30.4503135912135
20
0.567676272178801
30
0
41
1
10
30.4546046126722
20
0.483775949416867
30
0
41
1
10
30.4588764061471
20
0.399358535603511
30
0
41
1
10
30.4674480518612
20
0.229510032742525
30
0
41
1
10
30.4717354123016
20
0.144078319632172
30
0
41
1
10
30.4781732563907
20
0.0151592819144923
30
0
41
1
10
30.480320823611
20
-0.0279425259292054
30
0
41
1
10
30.4846260891702
20
-0.114408189542303
30
0
41
1
10
30.4867872060121
20
-0.157840450302757
30
0
41
1
10
30.4932298118449
20
-0.287078027122988
30
0
41
1
10
30.4975011064042
20
-0.372275069782404
30
0
41
1
10
30.5060476131345
20
-0.540795828142137
30
0
41
1
10
30.5145801235681
20
-0.707443748102435
30
0
41
1
10
30.523133136103
20
-0.870332099400571
30
0
41
1
10
30.5285306750099
20
-0.97091959661455
30
0
41
1
10
30.5296120142754
20
-0.990959021191287
30
0
41
1
10
30.5317694542221
20
-1.03068906638842
30
0
41
1
10
30.5350026702636
20
-1.0898426939855
30
0
41
1
10
30.5382262057705
20
-1.14768687077182
30
0
41
1
10
30.5446604116395
20
-1.26165547325687
30
0
41
1
10
30.5489313272662
20
-1.33534587733706
30
0
41
1
10
30.5532009292391
20
-1.40676296175863
30
0
0
SPLINE
5
104
100
AcDbEntity
8
1
62
256
6
ByLayer
370
13
48
1
60
0
100
AcDbSpline
70
4
71
3
72
11
73
7
40
0
40
0
40
0
40
0
40
0.197007001416019
40
0.591381307894278
40
0.985755614372537
40
1
40
1
40
1
40
1
41
1
10
31.6475733203822
20
-0.550751847481706
30
0
41
1
10
31.6536216039513
20
-0.646675425353294
30
0
41
1
10
31.6717776000259
20
-0.929055626849475
30
0
41
1
10
31.702041939295
20
-1.35716247183871
30
0
41
1
10
31.7266951666521
20
-1.63115890600267
30
0
41
1
10
31.7392401554578
20
-1.7451762215855
30
0
41
1
10
31.7396774715316
20
-1.74911980082453
30
0
0
SPLINE
5
105
100
AcDbEntity
8
1
62
256
6
ByLayer
370
18
48
1
60
0
100
AcDbSpline
70
4
71
3
72
29
73
25
40
0
40
0
40
0
40
0
40
0.0625000000000003
40
0.0625000000000003
40
0.125000000000001
40
0.125000000000001
40
0.250000000000001
40
0.250000000000001
40
0.375000000000001
40
0.375000000000001
40
0.500000000000001
40
0.500000000000001
40
0.531250000000001
40
0.531250000000001
40
0.562500000000001
40
0.625000000000001
40
0.625000000000001
40
0.75
40
0.75
40
0.875
40
0.875
40
0.9375
40
0.9375
40
1
40
1
40
1
40
1
41
1
10
31.4674753074485
20
-2.05174845792104
30
0
41
1
10
31.4653375964799
20
-2.02624828602745
30
0
41
1
10
31.4631951467427
20
-1.9998223173969
30
0
41
1
10
31.4588985539927
20
-1.94508693492094
30
0
41
1
10
31.4567383431447
20
-1.91669312582127
30
0
41
1
10
31.4502931917395
20
-1.82946035769228
30
0
41
1
10
31.4460376978389
20
-1.76850498863541
30
0
41
1
10
31.4375296678564
20
-1.64116206118851
30
0
41
1
10
31.4332670058343
20
-1.57477450485842
30
0
41
1
10
31.4247088996942
20
-1.43656465017381
30
0
41
1
10
31.4204183169185
20
-1.36474259171143
30
0
41
1
10
31.4150201114334
20
-1.27146153138264
30
0
41
1
10
31.4139370783303
20
-1.25260299005501
30
0
41
1
10
31.4117766133232
20
-1.21471351760994
30
0
41
1
10
31.4085427354465
20
-1.15759530902196
30
0
41
1
10
31.4053240754811
20
-1.0996354509868
30
0
41
1
10
31.3988897198137
20
-0.982612679453268
30
0
41
1
10
31.39459880014
20
-0.903129755117135
30
0
41
1
10
31.3860222173725
20
-0.741256822933508
30
0
41
1
10
31.3817377399328
20
-0.658866824930698
30
0
41
1
10
31.3752868573311
20
-0.533057552920468
30
0
41
1
10
31.3731318105033
20
-0.490743984772564
30
0
41
1
10
31.3688034536645
20
-0.405381185490569
30
0
41
1
10
31.3666482042386
20
-0.362690327199715
30
0
41
1
10
31.3644952237501
20
-0.319990539196311
30
0
0
SPLINE
5
106
100
AcDbEntity
8
1
62
256
6
ByLayer
370
18
48
1
60
0
100
AcDbSpline
70
4
71
3
72
30
73
26
40
0
40
0
40
0
40
0
40
0.0312499999999998
40
0.0312499999999998
40
0.0624999999999996
40
0.0624999999999996
40
0.124999999999999
40
0.124999999999999
40
0.249999999999999
40
0.249999999999999
40
0.374999999999999
40
0.374999999999999
40
0.4375
40
0.4375
40
0.5
40
0.5
40
0.625
40
0.625
40
0.75
40
0.875
40
0.875
40
0.90625
40
0.90625
40
0.9375
40
1
40
1
40
1
40
1
41
1
10
29.7853239639072
20
-0.725178829451323
30
0
41
1
10
29.7842479596615
20
-0.70452790836751
30
0
41
1
10
29.7831704782065
20
-0.683766495621597
30
0
41
1
10
29.7810117898061
20
-0.642020372803557
30
0
41
1
10
29.7799290351538
20
-0.621005469579472
30
0
41
1
10
29.776686762571
20
-0.557876642313857
30
0
41
1
10
29.7745346335449
20
-0.515705409417762
30
0
41
1
10
29.7680911880032
20
-0.388941655444683
30
0
41
1
10
29.7638044479933
20
-0.304100119328496
30
0
41
1
10
29.7552212202042
20
-0.13376566842021
30
0
41
1
10
29.7509320607351
20
-0.04827237671131
30
0
41
1
10
29.7444848843992
20
0.0804618210825936
30
0
41
1
10
29.742333195477
20
0.12345573160357
30
0
41
1
10
29.7380167673208
20
0.209611129940811
30
0
41
1
10
29.7358466706428
20
0.252878672537577
30
0
41
1
10
29.7293678431345
20
0.381588874531758
30
0
41
1
10
29.7250668216225
20
0.466252439624611
30
0
41
1
10
29.7164967966267
20
0.633357905482569
30
0
41
1
10
29.7079651452918
20
0.798241512615533
30
0
41
1
10
29.6994410620248
20
0.958670979405042
30
0
41
1
10
29.6940598118791
20
1.05749899193626
30
0
41
1
10
29.6929796135898
20
1.07720927386933
30
0
41
1
10
29.6908250810404
20
1.11626621628554
30
0
41
1
10
29.6875982323578
20
1.17438058677229
30
0
41
1
10
29.6843872413391
20
1.23109826515199
30
0
41
1
10
29.6822529392031
20
1.26829906724535
30
0
0
SPLINE
5
107
100
AcDbEntity
8
1
62
256
6
ByLayer
370
18
48
1
60
0
100
AcDbSpline
70
4
71
3
72
29
73
25
40
0
40
0
40
0
40
0
40
0.125
40
0.125
40
0.1875
40
0.1875
40
0.250000000000001
40
0.250000000000001
40
0.375000000000001
40
0.500000000000001
40
0.500000000000001
40
0.562500000000001
40
0.562500000000001
40
0.593750000000001
40
0.593750000000001
40
0.625000000000001
40
0.750000000000001
40
0.750000000000001
40
0.875
40
0.875
40
0.9375
40
0.96875
40
0.96875
40
1
40
1
40
1
40
1
41
1
10
29.6090701875936
20
1.32956920211456
30
0
41
1
10
29.6133175453734
20
1.25652619192434
30
0
41
1
10
29.6175632634932
20
1.18108737204247
30
0
41
1
10
29.6240029251229
20
1.06423536496163
30
0
41
1
10
29.6261677762253
20
1.0245824373186
30
0
41
1
10
29.6304774238272
20
0.94489332731726
30
0
41
1
10
29.6326266366832
20
0.904770996689336
30
0
41
1
10
29.6390575022591
20
0.783585464637355
30
0
41
1
10
29.6475838341094
20
0.619825862474585
30
0
41
1
10
29.6560952804497
20
0.451767213096474
30
0
41
1
10
29.6625433733492
20
0.324085736023164
30
0
41
1
10
29.6647030282535
20
0.281251796089435
30
0
41
1
10
29.6679574038039
20
0.216582166491861
30
0
41
1
10
29.6690449065273
20
0.194951623804314
30
0
41
1
10
29.6712125500155
20
0.151799353762101
30
0
41
1
10
29.6766214693042
20
0.0440357443623611
30
0
41
1
10
29.6819793346677
20
-0.0631512633777049
30
0
41
1
10
29.6905340408193
20
-0.233927098878922
30
0
41
1
10
29.6948052107861
20
-0.31895315858165
30
0
41
1
10
29.7012552096196
20
-0.445942887866579
30
0
41
1
10
29.7044881776655
20
-0.509300300053496
30
0
41
1
10
29.7077326824095
20
-0.572448410345828
30
0
41
1
10
29.7098985985392
20
-0.614500095150618
30
0
41
1
10
29.7109845054777
20
-0.635531546736729
30
0
41
1
10
29.7120680554635
20
-0.656461155863099
30
0
0
SPLINE
5
108
100
AcDbEntity
8
1
62
256
6
ByLayer
370
18
48
1
60
0
100
AcDbSpline
70
4
71
3
72
10
73
6
40
0
40
0
40
0
40
0
40
0.5
40
0.5
40
1
40
1
40
1
40
1
41
1
10
33.4221288551896
20
-2.088000222283
30
0
41
1
10
33.3762224102844
20
-2.16656251624934
30
0
41
1
10
33.330549332619
20
-2.24461410466239
30
0
41
1
10
33.2397580903373
20
-2.39919442761357
30
0
41
1
10
33.1946603531989
20
-2.47568605348846
30
0
41
1
10
33.1499147620555
20
-2.55107950211072
30
0
0
SPLINE
5
109
100
AcDbEntity
8
1
62
256
6
ByLayer
370
18
48
1
60
0
100
AcDbSpline
70
4
71
3
72
8
73
4
40
0
40
0
40
0
40
0
40
1
40
1
40
1
40
1
41
1
10
33.0766475482768
20
-2.550882432886
30
0
41
1
10
33.1010538949419
20
-2.55128760442645
30
0
41
1
10
33.125474861087
20
-2.55135301080816
30
0
41
1
10
33.1499147620555
20
-2.55107950211072
30
0
0
SPLINE
5
10A
100
AcDbEntity
8
1
62
256
6
ByLayer
370
18
48
1
60
0
100
AcDbSpline
70
4
71
3
72
8
73
4
40
0
40
0
40
0
40
0
40
1
40
1
40
1
40
1
41
1
10
32.9337018942879
20
-2.31041708825745
30
0
41
1
10
32.8866106002469
20
-2.22923108846959
30
0
41
1
10
32.8392441138997
20
-2.14572352304228
30
0
41
1
10
32.7915037916461
20
-2.06001107362277
30
0
0
SPLINE
5
10B
100
AcDbEntity
8
1
62
256
6
ByLayer
370
18
48
1
60
0
100
AcDbSpline
70
4
71
3
72
26
73
22
40
0
40
0
40
0
40
0
40
0.124999999999974
40
0.124999999999974
40
0.249999999999949
40
0.249999999999949
40
0.374999999999923
40
0.374999999999923
40
0.437499999999936
40
0.437499999999936
40
0.49999999999995
40
0.49999999999995
40
0.624999999999922
40
0.624999999999922
40
0.687499999999936
40
0.687499999999936
40
0.749999999999949
40
0.749999999999949
40
0.874999999999974
40
0.874999999999974
40
1
40
1
40
1
40
1
41
1
10
32.7915037916461
20
-2.06001107362277
30
0
41
1
10
32.7858720310334
20
-2.04989987256937
30
0
41
1
10
32.7793361285389
20
-2.04089532953066
30
0
41
1
10
32.7648379054193
20
-2.02460087076474
30
0
41
1
10
32.7567982064239
20
-2.01728197617757
30
0
41
1
10
32.7398864968547
20
-2.00466434810522
30
0
41
1
10
32.7309796571494
20
-1.99930855060535
30
0
41
1
10
32.7169691444088
20
-1.99268696369404
30
0
41
1
10
32.7121826464389
20
-1.99071804678349
30
0
41
1
10
32.7025600705429
20
-1.98733464932422
30
0
41
1
10
32.6977037979448
20
-1.98590949931875
30
0
41
1
10
32.683005488989
20
-1.98244843760449
30
0
41
1
10
32.6730357108522
20
-1.98121078454597
30
0
41
1
10
32.6578124894293
20
-1.98125554405792
30
0
41
1
10
32.6526859585598
20
-1.98159693938803
30
0
41
1
10
32.6425896027498
20
-1.98297876275154
30
0
41
1
10
32.6375900322052
20
-1.98401721926587
30
0
41
1
10
32.6227624472341
20
-1.98829456645197
30
0
41
1
10
32.6130040919785
20
-1.99276360780345
30
0
41
1
10
32.5953391107694
20
-2.00524414942703
30
0
41
1
10
32.587234824428
20
-2.01340907784046
30
0
41
1
10
32.5807975073829
20
-2.02341602586861
30
0
0
SPLINE
5
10C
100
AcDbEntity
8
1
62
256
6
ByLayer
370
18
48
1
60
0
100
AcDbSpline
70
4
71
3
72
12
73
8
40
0
40
0
40
0
40
0
40
0.249999999999995
40
0.249999999999995
40
0.499999999999991
40
0.499999999999991
40
1
40
1
40
1
40
1
41
1
10
32.5807975073829
20
-2.02341602586856
30
0
41
1
10
32.5578778206543
20
-2.05904517265603
30
0
41
1
10
32.5350240403559
20
-2.0942025886265
30
0
41
1
10
32.4894249644967
20
-2.1636090018367
30
0
41
1
10
32.4666686113195
20
-2.19787439097305
30
0
41
1
10
32.398633368452
20
-2.29913171315343
30
0
41
1
10
32.3535689946804
20
-2.36459908192282
30
0
41
1
10
32.3088549472739
20
-2.42780340852235
30
0
0
SPLINE
5
10D
100
AcDbEntity
8
1
62
256
6
ByLayer
370
18
48
1
60
0
100
AcDbSpline
70
4
71
3
72
10
73
6
40
0
40
0
40
0
40
0
40
0.5
40
0.5
40
1
40
1
40
1
40
1
41
1
10
32.2355464978467
20
-2.40490474670801
30
0
41
1
10
32.1886734607155
20
-2.31257411272983
30
0
41
1
10
32.1414848649991
20
-2.21891106667786
30
0
41
1
10
32.0464514109621
20
-2.02947999140747
30
0
41
1
10
31.9986306359437
20
-1.93376081705367
30
0
41
1
10
31.9505235622455
20
-1.83737610461134
30
0
0
SPLINE
5
10E
100
AcDbEntity
8
1
62
256
6
ByLayer
370
18
48
1
60
0
100
AcDbSpline
70
4
71
3
72
26
73
22
40
0
40
0
40
0
40
0
40
0.124999999999972
40
0.124999999999972
40
0.249999999999945
40
0.249999999999945
40
0.374999999999917
40
0.374999999999917
40
0.437499999999904
40
0.437499999999904
40
0.499999999999891
40
0.499999999999891
40
0.624999999999918
40
0.624999999999918
40
0.687499999999931
40
0.687499999999931
40
0.749999999999944
40
0.749999999999944
40
0.874999999999972
40
0.874999999999972
40
1
40
1
40
1
40
1
41
1
10
31.9505235622455
20
-1.83737610461134
30
0
41
1
10
31.9448596764992
20
-1.82602825164494
30
0
41
1
10
31.9382824353574
20
-1.81557222354655
30
0
41
1
10
31.9237000567333
20
-1.79604533961614
30
0
41
1
10
31.9156179243246
20
-1.78692908475699
30
0
41
1
10
31.8986443509706
20
-1.77051707460194
30
0
41
1
10
31.8897155720018
20
-1.76315408072733
30
0
41
1
10
31.8756894722331
20
-1.75334243038586
30
0
41
1
10
31.8709056185714
20
-1.7502814955908
30
0
41
1
10
31.8612915672873
20
-1.74468527060904
30
0
41
1
10
31.8564410635935
20
-1.74213494191559
30
0
41
1
10
31.8417632368602
20
-1.73523777380754
30
0
41
1
10
31.8318115654559
20
-1.73162998653783
30
0
41
1
10
31.8166200555003
20
-1.72796434312974
30
0
41
1
10
31.8115119199515
20
-1.72704208782949
30
0
41
1
10
31.8014470187407
20
-1.72589555618416
30
0
41
1
10
31.7964611056591
20
-1.72566261698907
30
0
41
1
10
31.7816669108623
20
-1.72610230287401
30
0
41
1
10
31.7719248770394
20
-1.72795098400417
30
0
41
1
10
31.754257270067
20
-1.73545026461804
30
0
41
1
10
31.7461357405764
20
-1.74119741513295
30
0
41
1
10
31.7396774715315
20
-1.74911980082453
30
0
0
SPLINE
5
10F
100
AcDbEntity
8
1
62
256
6
ByLayer
370
18
48
1
60
0
100
AcDbSpline
70
4
71
3
72
10
73
6
40
0
40
0
40
0
40
0
40
0.5
40
0.5
40
1
40
1
40
1
40
1
41
1
10
31.7396774715315
20
-1.74911980082453
30
0
41
1
10
31.6937750468482
20
-1.805428497473
30
0
41
1
10
31.648156055671
20
-1.85882074311613
30
0
41
1
10
31.5573122853413
20
-1.95989996190011
30
0
41
1
10
31.5122461872504
20
-2.00738531237164
30
0
41
1
10
31.4674753074485
20
-2.05174845792104
30
0
0
SPLINE
5
110
100
AcDbEntity
8
1
62
256
6
ByLayer
370
18
48
1
60
0
100
AcDbSpline
70
4
71
3
72
8
73
4
40
0
40
0
40
0
40
0
40
1
40
1
40
1
40
1
41
1
10
31.3942885584271
20
-2.00820780478477
30
0
41
1
10
31.4186892224347
20
-2.02298289415523
30
0
41
1
10
31.4430756413655
20
-2.0375022864221
30
0
41
1
10
31.4674753074485
20
-2.05174845792101
30
0
0
SPLINE
5
111
100
AcDbEntity
8
1
62
256
6
ByLayer
370
18
48
1
60
0
100
AcDbSpline
70
4
71
3
72
12
73
8
40
0
40
0
40
0
40
0
40
0.250000000000004
40
0.250000000000004
40
0.500000000000007
40
0.500000000000007
40
1
40
1
40
1
40
1
41
1
10
31.394288558427
20
-2.00820780478529
30
0
41
1
10
31.3709323595039
20
-1.95911779303395
30
0
41
1
10
31.3474897452226
20
-1.91007524778945
30
0
41
1
10
31.3003874742313
20
-1.81210646976211
30
0
41
1
10
31.2767177099948
20
-1.76315801984296
30
0
41
1
10
31.2054496536373
20
-1.61674887890945
30
0
41
1
10
31.1575609242236
20
-1.51965963777508
30
0
41
1
10
31.10933162523
20
-1.42347293832953
30
0
0
SPLINE
5
112
100
AcDbEntity
8
1
62
256
6
ByLayer
370
18
48
1
60
0
100
AcDbSpline
70
4
71
3
72
26
73
22
40
0
40
0
40
0
40
0
40
0.124999999999999
40
0.124999999999999
40
0.249999999999999
40
0.249999999999999
40
0.374999999999998
40
0.374999999999998
40
0.437499999999998
40
0.437499999999998
40
0.499999999999997
40
0.499999999999997
40
0.624999999999997
40
0.624999999999997
40
0.687499999999998
40
0.687499999999998
40
0.749999999999998
40
0.749999999999998
40
0.874999999999999
40
0.874999999999999
40
1
40
1
40
1
40
1
41
1
10
31.10933162523
20
-1.42347293832953
30
0
41
1
10
31.1036887422394
20
-1.4122189847879
30
0
41
1
10
31.0971317358225
20
-1.40153080939083
30
0
41
1
10
31.0825778982648
20
-1.38104683118431
30
0
41
1
10
31.0745009747173
20
-1.37118924190412
30
0
41
1
10
31.057521217946
20
-1.3528949061147
30
0
41
1
10
31.0485843497076
20
-1.34439323339461
30
0
41
1
10
31.0345381487572
20
-1.3325787990774
30
0
41
1
10
31.0297442435296
20
-1.32879830584722
30
0
41
1
10
31.020111229634
20
-1.32168858441798
30
0
41
1
10
31.0152514578461
20
-1.31834115595544
30
0
41
1
10
31.0005471628997
20
-1.30892614551564
30
0
41
1
10
30.9905795828996
20
-1.30347388435609
30
0
41
1
10
30.9753702783468
20
-1.29672987176963
30
0
41
1
10
30.9702633792327
20
-1.29473073204025
30
0
41
1
10
30.9602063911053
20
-1.29136094130408
30
0
41
1
10
30.9552270845326
20
-1.28997614205861
30
0
41
1
10
30.9404610123724
20
-1.28681950122475
30
0
41
1
10
30.9307550070854
20
-1.28605522560244
30
0
41
1
10
30.9131842106055
20
-1.28811043234819
30
0
41
1
10
30.9051229500423
20
-1.29096192085314
30
0
41
1
10
30.8987105514965
20
-1.29599712952393
30
0
0
SPLINE
5
113
100
AcDbEntity
8
1
62
256
6
ByLayer
370
18
48
1
60
0
100
AcDbSpline
70
4
71
3
72
10
73
6
40
0
40
0
40
0
40
0
40
0.5
40
0.5
40
1
40
1
40
1
40
1
41
1
10
30.8987105514965
20
-1.29599712952393
30
0
41
1
10
30.852789259436
20
-1.33205591256839
30
0
41
1
10
30.8071138352592
20
-1.36422202891464
30
0
41
1
10
30.7163009227425
20
-1.42097578786053
30
0
41
1
10
30.6711972331629
20
-1.44553624028089
30
0
41
1
10
30.6264468095693
20
-1.46633824515101
30
0
0
SPLINE
5
114
100
AcDbEntity
8
1
62
256
6
ByLayer
370
18
48
1
60
0
100
AcDbSpline
70
4
71
3
72
12
73
8
40
0
40
0
40
0
40
0
40
0.25
40
0.25
40
0.5
40
0.5
40
1
40
1
40
1
40
1
41
1
10
30.5532009292392
20
-1.40676296175874
30
0
41
1
10
30.5297649656812
20
-1.35957441453394
30
0
41
1
10
30.5062602180086
20
-1.31276957320739
30
0
41
1
10
30.4590783278286
20
-1.21995163147827
30
0
41
1
10
30.4353914331636
20
-1.17392067786847
30
0
41
1
10
30.3641111005991
20
-1.03728044090011
30
0
41
1
10
30.3162692790759
20
-0.948061607793534
30
0
41
1
10
30.2680742610802
20
-0.861215426281348
30
0
0
SPLINE
5
115
100
AcDbEntity
8
1
62
256
6
ByLayer
370
18
48
1
60
0
100
AcDbSpline
70
4
71
3
72
26
73
22
40
0
40
0
40
0
40
0
40
0.125000000000006
40
0.125000000000006
40
0.250000000000011
40
0.250000000000011
40
0.375000000000017
40
0.375000000000017
40
0.43750000000002
40
0.43750000000002
40
0.500000000000023
40
0.500000000000023
40
0.624999999999975
40
0.624999999999975
40
0.687499999999979
40
0.687499999999979
40
0.749999999999983
40
0.749999999999983
40
0.874999999999991
40
0.874999999999991
40
1
40
1
40
1
40
1
41
1
10
30.2680742610802
20
-0.861215426281461
30
0
41
1
10
30.2624313504459
20
-0.851047046611171
30
0
41
1
10
30.2558810879551
20
-0.841062796857386
30
0
41
1
10
30.2413549703198
20
-0.821398566780914
30
0
41
1
10
30.2333017367371
20
-0.811652144074657
30
0
41
1
10
30.2163746836384
20
-0.793024897524589
30
0
41
1
10
30.20746530523
20
-0.784083692031857
30
0
41
1
10
30.1934580486195
20
-0.771206419785273
30
0
41
1
10
30.1886755085852
20
-0.76700148554184
30
0
41
1
10
30.1790616207417
20
-0.758918137752374
30
0
41
1
10
30.1742099834425
20
-0.755020415793126
30
0
41
1
10
30.1595250288459
20
-0.743760210112072
30
0
41
1
10
30.1495636075335
20
-0.736822769691969
30
0
41
1
10
30.1343501491935
20
-0.72739365765753
30
0
41
1
10
30.1292285413666
20
-0.724415753373165
30
0
41
1
10
30.1191397697357
20
-0.718966733413453
30
0
41
1
10
30.1141428788624
20
-0.716476047207152
30
0
41
1
10
30.0993198774312
20
-0.709777279647085
30
0
41
1
10
30.0895625258908
20
-0.706319261358004
30
0
41
1
10
30.0718933336592
20
-0.702519334575015
30
0
41
1
10
30.063784629829
20
-0.702140911562253
30
0
41
1
10
30.0573434844417
20
-0.703812120216099
30
0
0
SPLINE
5
116
100
AcDbEntity
8
1
62
256
6
ByLayer
370
18
48
1
60
0
100
AcDbSpline
70
4
71
3
72
10
73
6
40
0
40
0
40
0
40
0
40
0.5
40
0.5
40
1
40
1
40
1
40
1
41
1
10
30.0573434844418
20
-0.703812120216099
30
0
41
1
10
30.0114571590687
20
-0.715717708344613
30
0
41
1
10
29.9658629926141
20
-0.723349317964107
30
0
41
1
10
29.8750832920473
20
-0.730312466784937
30
0
41
1
10
29.8300608205924
20
-0.729681767575926
30
0
41
1
10
29.7853239639072
20
-0.725178829451323
30
0
0
SPLINE
5
117
100
AcDbEntity
8
1
62
256
6
ByLayer
370
18
48
1
60
0
100
AcDbSpline
70
4
71
3
72
8
73
4
40
0
40
0
40
0
40
0
40
1
40
1
40
1
40
1
41
1
10
29.7120680554559
20
-0.656461155862871
30
0
41
1
10
29.7364876423078
20
-0.679449890061619
30
0
41
1
10
29.760906624271
20
-0.702355493826929
30
0
41
1
10
29.7853239639072
20
-0.725178829451323
30
0
0
SPLINE
5
118
100
AcDbEntity
8
1
62
256
6
ByLayer
370
18
48
1
60
0
100
AcDbSpline
70
4
71
3
72
12
73
8
40
0
40
0
40
0
40
0
40
0.250000000000004
40
0.250000000000004
40
0.500000000000007
40
0.500000000000007
40
1
40
1
40
1
40
1
41
1
10
29.7120680554571
20
-0.656461155858921
30
0
41
1
10
29.6886529815746
20
-0.616571836166884
30
0
41
1
10
29.6651610185087
20
-0.577399538642482
30
0
41
1
10
29.617993715359
20
-0.500501659079674
30
0
41
1
10
29.5943086569372
20
-0.462761343982606
30
0
41
1
10
29.523039231365
20
-0.351899363609846
30
0
41
1
10
29.4752171124972
20
-0.281083073483615
30
0
41
1
10
29.4271007538542
20
-0.213677225378205
30
0
0
SPLINE
5
119
100
AcDbEntity
8
1
62
256
6
ByLayer
370
18
48
1
60
0
100
AcDbSpline
70
4
71
3
72
26
73
22
40
0
40
0
40
0
40
0
40
0.124999999999942
40
0.124999999999942
40
0.249999999999884
40
0.249999999999884
40
0.374999999999825
40
0.374999999999825
40
0.437499999999821
40
0.437499999999821
40
0.499999999999817
40
0.499999999999817
40
0.624999999999863
40
0.624999999999863
40
0.687499999999886
40
0.687499999999886
40
0.749999999999908
40
0.749999999999908
40
0.874999999999954
40
0.874999999999954
40
1
40
1
40
1
40
1
41
1
10
29.427100753854
20
-0.213677225377779
30
0
41
1
10
29.4214397118647
20
-0.205746713859355
30
0
41
1
10
29.414864062216
20
-0.197599934540961
30
0
41
1
10
29.400280091004
20
-0.180988211373062
30
0
41
1
10
29.3921935041212
20
-0.172456351765618
30
0
41
1
10
29.3752061263911
20
-0.155612456735099
30
0
41
1
10
29.3662689562718
20
-0.147251757298221
30
0
41
1
10
29.352228294437
20
-0.134779842296155
30
0
41
1
10
29.3474392517455
20
-0.130633572035578
30
0
41
1
10
29.3378156909635
20
-0.122504137193545
30
0
41
1
10
29.3329607073973
20
-0.118502492370339
30
0
41
1
10
29.3182706952928
20
-0.106681554844641
30
0
41
1
10
29.3083125476819
20
-0.0990432844220095
30
0
41
1
10
29.2931158821492
20
-0.0879746369173802
30
0
41
1
10
29.2880106250653
20
-0.0843550277621716
30
0
41
1
10
29.2779535675795
20
-0.0774281726649519
30
0
41
1
10
29.272972727378
20
-0.0740993279177644
30
0
41
1
10
29.2581974106878
20
-0.0645540878156794
30
0
41
1
10
29.2484754504077
20
-0.0587267749325804
30
0
41
1
10
29.2308541672263
20
-0.0493147620919672
30
0
41
1
10
29.2227580614026
20
-0.0456259779872141
30
0
41
1
10
29.2163161449233
20
-0.0436295921157352
30
0
0
SPLINE
5
11A
100
AcDbEntity
8
1
62
256
6
ByLayer
370
18
48
1
60
0
100
AcDbSpline
70
4
71
3
72
10
73
6
40
0
40
0
40
0
40
0
40
0.5
40
0.5
40
1
40
1
40
1
40
1
41
1
10
29.2163161449232
20
-0.0436295921156216
30
0
41
1
10
29.1703662475863
20
-0.0293894624686004
30
0
41
1
10
29.1246592664106
20
-0.0108655100931969
30
0
41
1
10
29.0338246891047
20
0.0342645759631921
30
0
41
1
10
28.9887183803885
20
0.0609009072176434
30
0
41
1
10
28.9439362968198
20
0.0909846277588713
30
0
0
SPLINE
5
11B
100
AcDbEntity
8
1
62
256
6
ByLayer
370
18
48
1
60
0
100
AcDbSpline
70
4
71
3
72
8
73
4
40
0
40
0
40
0
40
0
40
1
40
1
40
1
40
1
41
1
10
28.8707463285322
20
0.162909752900703
30
0
41
1
10
28.8951846928242
20
0.139000491974173
30
0
41
1
10
28.9195801130196
20
0.115024281698396
30
0
41
1
10
28.9439362968198
20
0.0909846277588713
30
0
0
SPLINE
5
11C
100
AcDbEntity
8
1
62
256
6
ByLayer
370
18
48
1
60
0
100
AcDbSpline
70
4
71
3
72
14
73
10
40
0
40
0
40
0
40
0
40
0.25
40
0.25
40
0.5
40
0.5
40
0.75
40
0.75
40
1
40
1
40
1
40
1
41
1
10
28.8707463285321
20
0.162909752900703
30
0
41
1
10
28.8473850553471
20
0.191771914526328
30
0
41
1
10
28.8239309073426
20
0.219620792279557
30
0
41
1
10
28.7768338250332
20
0.273379513512282
30
0
41
1
10
28.7531855563338
20
0.299315663579392
30
0
41
1
10
28.7057264263235
20
0.34908724617776
30
0
41
1
10
28.6818883048818
20
0.372884427982115
30
0
41
1
10
28.6340078691975
20
0.418211763707291
30
0
41
1
10
28.6099785499154
20
0.439749697224983
30
0
41
1
10
28.5858587594629
20
0.460219952666307
30
0
0
SPLINE
5
11D
100
AcDbEntity
8
1
62
256
6
ByLayer
370
18
48
1
60
0
100
AcDbSpline
70
4
71
3
72
26
73
22
40
0
40
0
40
0
40
0
40
0.125000000000011
40
0.125000000000011
40
0.250000000000022
40
0.250000000000022
40
0.375000000000032
40
0.375000000000032
40
0.437500000000012
40
0.437500000000012
40
0.499999999999992
40
0.499999999999992
40
0.624999999999953
40
0.624999999999953
40
0.687499999999961
40
0.687499999999961
40
0.749999999999968
40
0.749999999999968
40
0.874999999999984
40
0.874999999999984
40
1
40
1
40
1
40
1
41
1
10
28.5858587594629
20
0.460219952666335
30
0
41
1
10
28.580211068685
20
0.465013098490005
30
0
41
1
10
28.5736474290925
20
0.470392951756679
30
0
41
1
10
28.5590789649646
20
0.482048912585355
30
0
41
1
10
28.5509936843901
20
0.488385861074107
30
0
41
1
10
28.5339992917134
20
0.501507167554109
30
0
41
1
10
28.5250560688952
20
0.508320421451401
30
0
41
1
10
28.5110023990979
20
0.51893547924962
30
0
41
1
10
28.5062072972165
20
0.522542651794907
30
0
41
1
10
28.496572682526
20
0.529770141312525
30
0
41
1
10
28.4917124462978
20
0.53340613902779
30
0
41
1
10
28.477007695984
20
0.544391102535712
30
0
41
1
10
28.4670410743357
20
0.551814838605651
30
0
41
1
10
28.4518345972915
20
0.563172100609876
30
0
41
1
10
28.4467319105264
20
0.566988468459698
30
0
41
1
10
28.4366822096565
20
0.574527367627724
30
0
41
1
10
28.4317064555944
20
0.578271311790672
30
0
41
1
10
28.4169507435255
20
0.589427689009227
30
0
41
1
10
28.4072532621622
20
0.59683510796043
30
0
41
1
10
28.3896964475891
20
0.610502562927763
30
0
41
1
10
28.3816407038466
20
0.616918917304417
30
0
41
1
10
28.375230267723
20
0.622217991835981
30
0
0
SPLINE
5
11E
100
AcDbEntity
8
1
62
256
6
ByLayer
370
18
48
1
60
0
100
AcDbSpline
70
4
71
3
72
10
73
6
40
0
40
0
40
0
40
0
40
0.5
40
0.5
40
1
40
1
40
1
40
1
41
1
10
28.375230267723
20
0.622217991835896
30
0
41
1
10
28.329297760115
20
0.660187293228717
30
0
41
1
10
28.2836148352581
20
0.702025652223028
30
0
41
1
10
28.1927972511494
20
0.79276353655672
30
0
41
1
10
28.1476944792737
20
0.841635471087614
30
0
41
1
10
28.102946922588
20
0.893649473418918
30
0
0
SPLINE
5
11F
100
AcDbEntity
8
1
62
256
6
ByLayer
370
18
48
1
60
0
100
AcDbSpline
70
4
71
3
72
8
73
4
40
0
40
0
40
0
40
0
40
1
40
1
40
1
40
1
41
1
10
28.0296360158846
20
0.960924318958405
30
0
41
1
10
28.0540670294188
20
0.938612363410414
30
0
41
1
10
28.0785005095442
20
0.916183968512371
30
0
41
1
10
28.102946922588
20
0.89364947341889
30
0
0
SPLINE
5
120
100
AcDbEntity
8
1
62
256
6
ByLayer
370
18
48
1
60
0
100
AcDbSpline
70
4
71
3
72
12
73
8
40
0
40
0
40
0
40
0
40
0.25
40
0.25
40
0.500000000000001
40
0.500000000000001
40
1
40
1
40
1
40
1
41
1
10
28.0296360158846
20
0.960924318958376
30
0
41
1
10
28.0062190575336
20
0.975813459544327
30
0
41
1
10
27.9827326937841
20
0.989624256492277
30
0
41
1
10
27.9355823084079
20
1.01503652143427
30
0
41
1
10
27.9119082849822
20
1.02664204060488
30
0
41
1
10
27.8406555938663
20
1.05800108894823
30
0
41
1
10
27.7928118630826
20
1.07429789045179
30
0
41
1
10
27.7446211097877
20
1.08581023591611
30
0
0
SPLINE
5
121
100
AcDbEntity
8
1
62
256
6
ByLayer
370
18
48
1
60
0
100
AcDbSpline
70
4
71
3
72
28
73
24
40
0
40
0
40
0
40
0
40
0.125000000000028
40
0.125000000000028
40
0.250000000000057
40
0.250000000000057
40
0.375000000000085
40
0.375000000000085
40
0.437500000000098
40
0.437500000000098
40
0.500000000000112
40
0.500000000000112
40
0.625000000000084
40
0.625000000000084
40
0.687500000000071
40
0.687500000000071
40
0.750000000000057
40
0.750000000000057
40
0.87500000000003
40
0.87500000000003
40
0.937500000000015
40
0.937500000000015
40
1
40
1
40
1
40
1
41
1
10
27.7446211097877
20
1.08581023591611
30
0
41
1
10
27.7389684810713
20
1.08716059900686
30
0
41
1
10
27.7324048581099
20
1.08942074376563
30
0
41
1
10
27.7178484148124
20
1.09533155624706
30
0
41
1
10
27.7097777166947
20
1.09902910896875
30
0
41
1
10
27.6928198570385
20
1.10748352975574
30
0
41
1
10
27.6838966601395
20
1.11225078737419
30
0
41
1
10
27.6698746891921
20
1.12021700304294
30
0
41
1
10
27.6650900582952
20
1.12301276250221
30
0
41
1
10
27.6554743684895
20
1.12879059218199
30
0
41
1
10
27.6506229168284
20
1.13178398474074
30
0
41
1
10
27.6359424172374
20
1.14109145482598
30
0
41
1
10
27.6259902289314
20
1.14772665258852
30
0
41
1
10
27.6107962789227
20
1.15847749872751
30
0
41
1
10
27.605686602032
20
1.16219738927433
30
0
41
1
10
27.5956181950238
20
1.16976222401257
30
0
41
1
10
27.5906300800125
20
1.17362736658751
30
0
41
1
10
27.5758269924872
20
1.18550870283076
30
0
41
1
10
27.5660779585637
20
1.19389820475101
30
0
41
1
10
27.5528302918439
20
1.20649631720093
30
0
41
1
10
27.5485930711429
20
1.21074414609285
30
0
41
1
10
27.5406916809758
20
1.21921123120748
30
0
41
1
10
27.5370846469735
20
1.2233667652871
30
0
41
1
10
27.5338635033429
20
1.22743367210646
30
0
0
SPLINE
5
122
100
AcDbEntity
8
1
62
256
6
ByLayer
370
18
48
1
60
0
100
AcDbSpline
70
4
71
3
72
8
73
4
40
0
40
0
40
0
40
0
40
1
40
1
40
1
40
1
41
1
10
27.5338635033429
20
1.22743367210643
30
0
41
1
10
27.4931620327031
20
1.27882197001816
30
0
41
1
10
27.4526417910114
20
1.33254920627516
30
0
41
1
10
27.4123301976866
20
1.38837124518088
30
0
0
SPLINE
5
123
100
AcDbEntity
8
1
62
256
6
ByLayer
370
18
48
1
60
0
100
AcDbSpline
70
4
71
3
72
27
73
23
40
0
40
0
40
0
40
0
40
0.125
40
0.125
40
0.25
40
0.25
40
0.375
40
0.375
40
0.5
40
0.5
40
0.625
40
0.625
40
0.6875
40
0.6875
40
0.75
40
0.8125
40
0.8125
40
0.875
40
0.875
40
0.9375
40
0.9375
40
1
40
1
40
1
40
1
41
1
10
28.5635405828962
20
-1.93272451971538
30
0
41
1
10
28.5693647924945
20
-1.9264900286388
30
0
41
1
10
28.576154514783
20
-1.92166537671031
30
0
41
1
10
28.5912025473958
20
-1.91414332512804
30
0
41
1
10
28.5995605641008
20
-1.91145872482414
30
0
41
1
10
28.6169679237731
20
-1.90820698541282
30
0
41
1
10
28.6260610198366
20
-1.90759804020823
30
0
41
1
10
28.6449631877638
20
-1.90830513819151
30
0
41
1
10
28.65482892385
20
-1.90965239500855
30
0
41
1
10
28.6745304351209
20
-1.91427343433244
30
0
41
1
10
28.6844484333031
20
-1.91753768585548
30
0
41
1
10
28.6994088835286
20
-1.9240523565276
30
0
41
1
10
28.7044388000511
20
-1.92651341011197
30
0
41
1
10
28.7143491196207
20
-1.93195789711757
30
0
41
1
10
28.724111914908
20
-1.9379170868751
30
0
41
1
10
28.733543722522
20
-1.94499543358285
30
0
41
1
10
28.7427821707726
20
-1.95271597335392
30
0
41
1
10
28.7473067630926
20
-1.95690785140943
30
0
41
1
10
28.7558546160485
20
-1.96577448275846
30
0
41
1
10
28.7599126708578
20
-1.97047492185354
30
0
41
1
10
28.7675308944767
20
-1.98049365339725
30
0
41
1
10
28.7710966686793
20
-1.98583179380165
30
0
41
1
10
28.7742661524988
20
-1.99138315273962
30
0
0
SPLINE
5
124
100
AcDbEntity
8
1
62
256
6
ByLayer
370
18
48
1
60
0
100
AcDbSpline
70
4
71
3
72
10
73
6
40
0
40
0
40
0
40
0
40
0.5
40
0.5
40
1
40
1
40
1
40
1
41
1
10
28.7742661525026
20
-1.99138315274564
30
0
41
1
10
28.8206543825944
20
-2.07263225525983
30
0
41
1
10
28.8666273449203
20
-2.15397380753194
30
0
41
1
10
28.958037569856
20
-2.31669690452574
30
0
41
1
10
29.0033275870506
20
-2.39781046042239
30
0
41
1
10
29.0483033195985
20
-2.47856948440492
30
0
0
SPLINE
5
125
100
AcDbEntity
8
1
62
256
6
ByLayer
370
18
48
1
60
0
100
AcDbSpline
70
4
71
3
72
12
73
8
40
0
40
0
40
0
40
0
40
0.250000000000004
40
0.250000000000004
40
0.500000000000007
40
0.500000000000007
40
1
40
1
40
1
40
1
41
1
10
29.1215791978445
20
-2.4946589683579
30
0
41
1
10
29.144745967749
20
-2.46379402620093
30
0
41
1
10
29.1680071691042
20
-2.43214020388587
30
0
41
1
10
29.214757578863
20
-2.36725972641588
30
0
41
1
10
29.2382578231889
20
-2.33401694701345
30
0
41
1
10
29.3090589174796
20
-2.2320750659772
30
0
41
1
10
29.3566743722903
20
-2.16114657008373
30
0
41
1
10
29.4047242189798
20
-2.08747229654475
30
0
0
SPLINE
5
126
100
AcDbEntity
8
1
62
256
6
ByLayer
370
18
48
1
60
0
100
AcDbSpline
70
4
71
3
72
28
73
24
40
0
40
0
40
0
40
0
40
0.124999999999979
40
0.124999999999979
40
0.249999999999959
40
0.249999999999959
40
0.374999999999938
40
0.374999999999938
40
0.499999999999918
40
0.499999999999918
40
0.624999999999897
40
0.624999999999897
40
0.687499999999914
40
0.687499999999914
40
0.749999999999931
40
0.749999999999931
40
0.812499999999949
40
0.812499999999949
40
0.874999999999966
40
0.874999999999966
40
0.937499999999983
40
0.937499999999983
40
1
40
1
40
1
40
1
41
1
10
29.4047242189798
20
-2.08747229654475
30
0
41
1
10
29.410540833346
20
-2.07855374909022
30
0
41
1
10
29.4173217318742
20
-2.07099789510286
30
0
41
1
10
29.4323536099702
20
-2.05794452172526
30
0
41
1
10
29.440705386896
20
-2.05243135176298
30
0
41
1
10
29.4581062858084
20
-2.04366571573377
30
0
41
1
10
29.4671971179356
20
-2.04035318866073
30
0
41
1
10
29.4860992754015
20
-2.03574790239884
30
0
41
1
10
29.4959676029142
20
-2.03447451133448
30
0
41
1
10
29.5156754536503
20
-2.03413588560221
30
0
41
1
10
29.5255976105275
20
-2.03503609295018
30
0
41
1
10
29.5405654872165
20
-2.03818857971942
30
0
41
1
10
29.5455981871886
20
-2.03955406146875
30
0
41
1
10
29.5555091367826
20
-2.04291056818167
30
0
41
1
10
29.5603905203389
20
-2.0448976258476
30
0
41
1
10
29.5699872450401
20
-2.04954039643002
30
0
41
1
10
29.5747025652199
20
-2.05219526066819
30
0
41
1
10
29.5839384780198
20
-2.05826983719911
30
0
41
1
10
29.5884585421678
20
-2.06169838035703
30
0
41
1
10
29.5969957209955
20
-2.06922182196001
30
0
41
1
10
29.6010477213478
20
-2.07333607522963
30
0
41
1
10
29.6086527844736
20
-2.08237996596915
30
0
41
1
10
29.6122104641756
20
-2.08732877666884
30
0
41
1
10
29.6153723663547
20
-2.092618801957
30
0
0
SPLINE
5
127
100
AcDbEntity
8
1
62
256
6
ByLayer
370
18
48
1
60
0
100
AcDbSpline
70
4
71
3
72
10
73
6
40
0
40
0
40
0
40
0
40
0.5
40
0.5
40
1
40
1
40
1
40
1
41
1
10
29.6153723663559
20
-2.09261880195936
30
0
41
1
10
29.6617435369498
20
-2.17020016001476
30
0
41
1
10
29.7077354083163
20
-2.24658829516429
30
0
41
1
10
29.7991745999143
20
-2.39686379106064
30
0
41
1
10
29.8444687558139
20
-2.47050059205873
30
0
41
1
10
29.8894259282721
20
-2.54255509895975
30
0
0
SPLINE
5
128
100
AcDbEntity
8
1
62
256
6
ByLayer
370
18
48
1
60
0
100
AcDbSpline
70
4
71
3
72
8
73
4
40
0
40
0
40
0
40
0
40
1
40
1
40
1
40
1
41
1
10
29.9626645222139
20
-2.53562265635998
30
0
41
1
10
29.9382565026004
20
-2.53827295289148
30
0
41
1
10
29.913844104075
20
-2.54058283236282
30
0
41
1
10
29.8894259282721
20
-2.54255509895975
30
0
0
SPLINE
5
129
100
AcDbEntity
8
1
62
256
6
ByLayer
370
18
48
1
60
0
100
AcDbSpline
70
4
71
3
72
10
73
6
40
0
40
0
40
0
40
0
40
0.5
40
0.5
40
1
40
1
40
1
40
1
41
1
10
29.9626645222139
20
-2.53562265636063
30
0
41
1
10
30.0090677982532
20
-2.45437792259349
30
0
41
1
10
30.0558315812456
20
-2.37117361468532
30
0
41
1
10
30.150158698939
20
-2.20127483797304
30
0
41
1
10
30.1977264304449
20
-2.11458214049304
30
0
41
1
10
30.2457691176787
20
-2.02641577844429
30
0
0
SPLINE
5
12A
100
AcDbEntity
8
1
62
256
6
ByLayer
370
18
48
1
60
0
100
AcDbSpline
70
4
71
3
72
27
73
23
40
0
40
0
40
0
40
0
40
0.125
40
0.125
40
0.250000000000001
40
0.250000000000001
40
0.375000000000001
40
0.375000000000001
40
0.500000000000001
40
0.500000000000001
40
0.625000000000001
40
0.625000000000001
40
0.687500000000001
40
0.687500000000001
40
0.750000000000001
40
0.812500000000001
40
0.812500000000001
40
0.875
40
0.875
40
0.9375
40
0.9375
40
1
40
1
40
1
40
1
41
1
10
30.2457691176787
20
-2.02641577844429
30
0
41
1
10
30.2515968738033
20
-2.01572087176862
30
0
41
1
10
30.2583890683268
20
-2.00621053657147
30
0
41
1
10
30.2734402664599
20
-1.98897604888833
30
0
41
1
10
30.2817989339963
20
-1.98121160023746
30
0
41
1
10
30.2992060418362
20
-1.96785596788726
30
0
41
1
10
30.3082981088354
20
-1.96219108220583
30
0
41
1
10
30.3271968308938
20
-1.95276424452456
30
0
41
1
10
30.3370611511167
20
-1.94900732211019
30
0
41
1
10
30.3567628986488
20
-1.9437478172016
30
0
41
1
10
30.3666822395925
20
-1.94218982870191
30
0
41
1
10
30.381645354464
20
-1.94164597238867
30
0
41
1
10
30.3866762926783
20
-1.94177049724323
30
0
41
1
10
30.3965898857249
20
-1.94268489102305
30
0
41
1
10
30.4063554390406
20
-1.94425485761798
30
0
41
1
10
30.4157889058548
20
-1.94723763175489
30
0
41
1
10
30.4250283557446
20
-1.95102661441385
30
0
41
1
10
30.4295540199819
20
-1.95333509806016
30
0
41
1
10
30.4381029417361
20
-1.95873728033609
30
0
41
1
10
30.4421609818067
20
-1.96184142280134
30
0
41
1
10
30.4497780453665
20
-1.96898307994439
30
0
41
1
10
30.4533437250029
20
-1.97304040655655
30
0
41
1
10
30.4565134193295
20
-1.97753725477182
30
0
0
SPLINE
5
12B
100
AcDbEntity
8
1
62
256
6
ByLayer
370
18
48
1
60
0
100
AcDbSpline
70
4
71
3
72
10
73
6
40
0
40
0
40
0
40
0
40
0.5
40
0.5
40
1
40
1
40
1
40
1
41
1
10
30.4565134193305
20
-1.9775372547742
30
0
41
1
10
30.5028773233149
20
-2.04331376740123
30
0
41
1
10
30.5488614830884
20
-2.10673886989494
30
0
41
1
10
30.6402979250409
20
-2.22888947739267
30
0
41
1
10
30.6856077478849
20
-2.28743355394545
30
0
41
1
10
30.7305995902632
20
-2.34343769431587
30
0
0
SPLINE
5
12C
100
AcDbEntity
8
1
62
256
6
ByLayer
370
18
48
1
60
0
100
AcDbSpline
70
4
71
3
72
8
73
4
40
0
40
0
40
0
40
0
40
1
40
1
40
1
40
1
41
1
10
30.8038701236976
20
-2.31435554374028
30
0
41
1
10
30.7794283209984
20
-2.32435690520623
30
0
41
1
10
30.7550051460305
20
-2.33405081431565
30
0
41
1
10
30.7305995902631
20
-2.3434376943159
30
0
0
SPLINE
5
12D
100
AcDbEntity
8
1
62
256
6
ByLayer
370
18
48
1
60
0
100
AcDbSpline
70
4
71
3
72
10
73
6
40
0
40
0
40
0
40
0
40
0.5
40
0.5
40
1
40
1
40
1
40
1
41
1
10
30.8038701236976
20
-2.31435554374102
30
0
41
1
10
30.8502257933572
20
-2.22241174205144
30
0
41
1
10
30.8969629722135
20
-2.12984581569998
30
0
41
1
10
30.9912701992013
20
-1.94400717234964
30
0
41
1
10
31.0387979118048
20
-1.85080051928224
30
0
41
1
10
31.0867220880047
20
-1.75766999575754
30
0
0
SPLINE
5
12E
100
AcDbEntity
8
1
62
256
6
ByLayer
370
18
48
1
60
0
100
AcDbSpline
70
4
71
3
72
18
73
14
40
0
40
0
40
0
40
0
40
0.19620861640133
40
0.19620861640133
40
0.392417232802661
40
0.392417232802661
40
0.588625849203991
40
0.588625849203991
40
0.784834465605321
40
0.784834465605321
40
0.981043082006652
40
0.981043082006652
40
1
40
1
40
1
40
1
41
1
10
31.0867220880047
20
-1.75766999575754
30
0
41
1
10
31.0925580341139
20
-1.74632906599086
30
0
41
1
10
31.0993630420056
20
-1.7358651998039
30
0
41
1
10
31.1144422599558
20
-1.71626456855844
30
0
41
1
10
31.1228174241097
20
-1.70706474207483
30
0
41
1
10
31.1402540600097
20
-1.69052972297254
30
0
41
1
10
31.1493604337959
20
-1.6831159163427
30
0
41
1
10
31.1682848536175
20
-1.6698836572173
30
0
41
1
10
31.1781571232223
20
-1.66405731732155
30
0
41
1
10
31.1978626553922
20
-1.65447170136358
30
0
41
1
10
31.207779126802
20
-1.65064122152558
30
0
41
1
10
31.2187104817227
20
-1.64760669199342
30
0
41
1
10
31.2196751350246
20
-1.64734924259363
30
0
41
1
10
31.2206404777304
20
-1.64710206656059
30
0
0
SPLINE
5
12F
100
AcDbEntity
8
1
62
256
6
ByLayer
370
18
48
1
60
0
100
AcDbSpline
70
4
71
3
72
10
73
6
40
0
40
0
40
0
40
0
40
0.5
40
0.5
40
1
40
1
40
1
40
1
41
1
10
33.2599864250747
20
1.95819689564149
30
0
41
1
10
33.3014769479266
20
2.01569127150054
30
0
41
1
10
33.3426575461908
20
2.07121484372905
30
0
41
1
10
33.4245530518983
20
2.17824983140167
30
0
41
1
10
33.4652079885455
20
2.22969212921242
30
0
41
1
10
33.5055506305494
20
2.27893743273825
30
0
0
SPLINE
5
130
100
AcDbEntity
8
1
62
256
6
ByLayer
370
18
48
1
60
0
100
AcDbSpline
70
4
71
3
72
8
73
4
40
0
40
0
40
0
40
0
40
1
40
1
40
1
40
1
41
1
10
33.5055506305494
20
2.27893743273825
30
0
41
1
10
33.5555189739357
20
2.24919001970022
30
0
41
1
10
33.6056755139794
20
2.21822646904826
30
0
41
1
10
33.6560400678737
20
2.18604108703801
30
0
0
SPLINE
5
131
100
AcDbEntity
8
1
62
256
6
ByLayer
370
18
48
1
60
0
100
AcDbSpline
70
4
71
3
72
10
73
6
40
0
40
0
40
0
40
0
40
0.5
40
0.5
40
1
40
1
40
1
40
1
41
1
10
33.6560400678732
20
2.18604108703832
30
0
41
1
10
33.6945545062394
20
2.10946876034612
30
0
41
1
10
33.7333510402495
20
2.03258156314939
30
0
41
1
10
33.8114481794478
20
1.8787107831115
30
0
41
1
10
33.8507126269935
20
1.80178236698859
30
0
41
1
10
33.8903043737995
20
1.72491252618937
30
0
0
SPLINE
5
132
100
AcDbEntity
8
1
62
256
6
ByLayer
370
18
48
1
60
0
100
AcDbSpline
70
4
71
3
72
28
73
24
40
0
40
0
40
0
40
0
40
0.12500000000002
40
0.12500000000002
40
0.25000000000004
40
0.25000000000004
40
0.375000000000061
40
0.375000000000061
40
0.500000000000081
40
0.500000000000081
40
0.625000000000101
40
0.625000000000101
40
0.687500000000084
40
0.687500000000084
40
0.750000000000067
40
0.750000000000067
40
0.81250000000005
40
0.81250000000005
40
0.875000000000034
40
0.875000000000034
40
0.937500000000017
40
0.937500000000017
40
1
40
1
40
1
40
1
41
1
10
33.8903043737995
20
1.72491252618937
30
0
41
1
10
33.8961585067932
20
1.71354636259355
30
0
41
1
10
33.9029829179197
20
1.70303045359944
30
0
41
1
10
33.9180951608055
20
1.68327820669666
30
0
41
1
10
33.9264836517028
20
1.6739781455075
30
0
41
1
10
33.9439350642357
20
1.65720792611211
30
0
41
1
10
33.9530445045301
20
1.64965691411072
30
0
41
1
10
33.9719712781405
20
1.63611243976038
30
0
41
1
10
33.9818414049042
20
1.63011059828253
30
0
41
1
10
34.0015422758934
20
1.62014423534481
30
0
41
1
10
34.0114562342188
20
1.61610766975704
30
0
41
1
10
34.0264028424558
20
1.6116189211867
30
0
41
1
10
34.0314262276383
20
1.61038231939588
30
0
41
1
10
34.0413157378626
20
1.60853426772172
30
0
41
1
10
34.046186308843
20
1.60791763020893
30
0
41
1
10
34.0557609376143
20
1.60734407173251
30
0
41
1
10
34.0604649809661
20
1.60738612777069
30
0
41
1
10
34.06967786402
20
1.60821953248961
30
0
41
1
10
34.0741907050194
20
1.60901918309943
30
0
41
1
10
34.0827166336362
20
1.61142899120938
30
0
41
1
10
34.086764002811
20
1.61303885250376
30
0
41
1
10
34.0943620882429
20
1.61719672007524
30
0
41
1
10
34.0979223592883
20
1.61976173355882
30
0
41
1
10
34.1010903994503
20
1.62281609968591
30
0
0
SPLINE
5
133
100
AcDbEntity
8
1
62
256
6
ByLayer
370
18
48
1
60
0
100
AcDbSpline
70
4
71
3
72
10
73
6
40
0
40
0
40
0
40
0
40
0.5
40
0.5
40
1
40
1
40
1
40
1
41
1
10
34.1010903994502
20
1.62281609968664
30
0
41
1
10
34.1268363574763
20
1.64763825410486
30
0
41
1
10
34.152463022523
20
1.67142633892956
30
0
41
1
10
34.2035150199753
20
1.71691715762796
30
0
41
1
10
34.2289551678962
20
1.73863986476599
30
0
41
1
10
34.2542847993568
20
1.75931554920135
30
0
0
SPLINE
5
134
100
AcDbEntity
8
1
62
256
6
ByLayer
370
18
48
1
60
0
100
AcDbSpline
70
4
71
3
72
8
73
4
40
0
40
0
40
0
40
0
40
1
40
1
40
1
40
1
41
1
10
34.2542847993575
20
1.75931554920044
30
0
41
1
10
34.3751564437947
20
1.66610847731067
30
0
41
1
10
34.4968491882465
20
1.5689807652285
30
0
41
1
10
34.6197578342451
20
1.4683552831487
30
0
0
SPLINE
5
135
100
AcDbEntity
8
1
62
256
6
ByLayer
370
18
48
1
60
0
100
AcDbSpline
70
4
71
3
72
8
73
4
40
0
40
0
40
0
40
0
40
1
40
1
40
1
40
1
41
1
10
34.6197578342452
20
1.4683552831487
30
0
41
1
10
34.6567339980112
20
1.39827829553028
30
0
41
1
10
34.6939153411841
20
1.32908126725977
30
0
41
1
10
34.7313885845724
20
1.26083437514802
30
0
0
SPLINE
5
136
100
AcDbEntity
8
1
62
256
6
ByLayer
370
18
48
1
60
0
100
AcDbSpline
70
4
71
3
72
27
73
23
40
0
40
0
40
0
40
0
40
0.125
40
0.125
40
0.250000000000001
40
0.250000000000001
40
0.375000000000001
40
0.375000000000001
40
0.500000000000001
40
0.500000000000001
40
0.625000000000002
40
0.625000000000002
40
0.687500000000001
40
0.687500000000001
40
0.750000000000001
40
0.812500000000001
40
0.812500000000001
40
0.875000000000001
40
0.875000000000001
40
0.9375
40
0.9375
40
1
40
1
40
1
40
1
41
1
10
34.7313885845724
20
1.26083437514805
30
0
41
1
10
34.7372352955686
20
1.25018624815164
30
0
41
1
10
34.7440557632758
20
1.23997159520178
30
0
41
1
10
34.7591682505998
20
1.22019932148231
30
0
41
1
10
34.7675631219987
20
1.21056084952161
30
0
41
1
10
34.7850362695155
20
1.19258492358162
30
0
41
1
10
34.7941601536107
20
1.18417500992325
30
0
41
1
10
34.8131133779294
20
1.16842071019383
30
0
41
1
10
34.8229930886957
20
1.16105706766967
30
0
41
1
10
34.842699445267
20
1.14794250087024
30
0
41
1
10
34.8526110774121
20
1.14211119206919
30
0
41
1
10
34.8675485382296
20
1.1345512174691
30
0
41
1
10
34.8725667834301
20
1.13222100280521
30
0
41
1
10
34.8824330529613
20
1.1280875003319
30
0
41
1
10
34.8921502850465
20
1.12446548171826
30
0
41
1
10
34.9015366957672
20
1.121937984851
30
0
41
1
10
34.9107274175268
20
1.1200281560584
30
0
41
1
10
34.9152235749695
20
1.11938815634753
30
0
41
1
10
34.923717686414
20
1.11885199002342
30
0
41
1
10
34.9277498622068
20
1.11894636567877
30
0
41
1
10
34.9353197533825
20
1.11997525374591
30
0
41
1
10
34.9388653094423
20
1.12091998174762
30
0
41
1
10
34.942020924735
20
1.12234162432378
30
0
0
SPLINE
5
137
100
AcDbEntity
8
1
62
256
6
ByLayer
370
18
48
1
60
0
100
AcDbSpline
70
4
71
3
72
8
73
4
40
0
40
0
40
0
40
0
40
1
40
1
40
1
40
1
41
1
10
34.942020924735
20
1.12234162432497
30
0
41
1
10
34.96228255204
20
1.13146973068999
30
0
41
1
10
34.982467000547
20
1.13983790720647
30
0
41
1
10
35.0025807688756
20
1.14741975076586
30
0
0
SPLINE
5
138
100
AcDbEntity
8
1
62
256
6
ByLayer
370
18
48
1
60
0
100
AcDbSpline
70
4
71
3
72
8
73
4
40
0
40
0
40
0
40
0
40
1
40
1
40
1
40
1
41
1
10
34.8688466629283
20
2.09401300393523
30
0
41
1
10
34.8309057128146
20
2.01894801615978
30
0
41
1
10
34.7927440953368
20
1.94320554203236
30
0
41
1
10
34.7543933315655
20
1.86697387017878
30
0
0
SPLINE
5
139
100
AcDbEntity
8
1
62
256
6
ByLayer
370
18
48
1
60
0
100
AcDbSpline
70
4
71
3
72
26
73
22
40
0
40
0
40
0
40
0
40
0.125000000000057
40
0.125000000000057
40
0.250000000000114
40
0.250000000000114
40
0.375000000000171
40
0.375000000000171
40
0.437500000000175
40
0.437500000000175
40
0.500000000000179
40
0.500000000000179
40
0.625000000000134
40
0.625000000000134
40
0.687500000000112
40
0.687500000000112
40
0.75000000000009
40
0.75000000000009
40
0.875000000000045
40
0.875000000000045
40
1
40
1
40
1
40
1
41
1
10
34.7543933315655
20
1.86697387017878
30
0
41
1
10
34.7487454188796
20
1.8557472404018
30
0
41
1
10
34.7421829938783
20
1.84543251330089
30
0
41
1
10
34.7276202186611
20
1.8262272272278
30
0
41
1
10
34.7195406355807
20
1.81729048165707
30
0
41
1
10
34.7025607603532
20
1.80127234469413
30
0
41
1
10
34.6936253040632
20
1.79412573369137
30
0
41
1
10
34.679583744917
20
1.78466989859925
30
0
41
1
10
34.6747925132904
20
1.78173213225622
30
0
41
1
10
34.6651646852389
20
1.77639064844672
30
0
41
1
10
34.6603074961851
20
1.77397215144543
30
0
41
1
10
34.6456106461882
20
1.76748377631975
30
0
41
1
10
34.6356476407349
20
1.76416603743766
30
0
41
1
10
34.6204432639118
20
1.76096459285796
30
0
41
1
10
34.6153366185132
20
1.76020293853472
30
0
41
1
10
34.6052783683607
20
1.75937865370633
30
0
41
1
10
34.6002975957417
20
1.75930841186397
30
0
41
1
10
34.5855245486556
20
1.76023935960433
30
0
41
1
10
34.5758095136238
20
1.76242320923774
30
0
41
1
10
34.5582124618436
20
1.77053989672962
30
0
41
1
10
34.5501346092293
20
1.77657587219892
30
0
41
1
10
34.543710113402
20
1.78472701166538
30
0
0
SPLINE
5
13A
100
AcDbEntity
8
1
62
256
6
ByLayer
370
18
48
1
60
0
100
AcDbSpline
70
4
71
3
72
10
73
6
40
0
40
0
40
0
40
0
40
0.5
40
0.5
40
1
40
1
40
1
40
1
41
1
10
34.5437101134019
20
1.78472701166538
30
0
41
1
10
34.5139918279305
20
1.82243236568721
30
0
41
1
10
34.4843892983521
20
1.85888830540043
30
0
41
1
10
34.4253667455863
20
1.9293671537784
30
0
41
1
10
34.3959559646423
20
1.96337802357559
30
0
41
1
10
34.3666826071163
20
1.99611187899782
30
0
0
SPLINE
5
13B
100
AcDbEntity
8
1
62
256
6
ByLayer
370
18
48
1
60
0
100
AcDbSpline
70
4
71
3
72
8
73
4
40
0
40
0
40
0
40
0
40
1
40
1
40
1
40
1
41
1
10
34.3666826071164
20
1.99611187899785
30
0
41
1
10
34.2877645869474
20
1.97319262725716
30
0
41
1
10
34.2096120695519
20
1.94684435513255
30
0
41
1
10
34.1318194183612
20
1.91732178579508
30
0
0
SPLINE
5
13C
100
AcDbEntity
8
1
62
256
6
ByLayer
370
18
48
1
60
0
100
AcDbSpline
70
4
71
3
72
10
73
6
40
0
40
0
40
0
40
0
40
0.777605779906771
40
0.777605779906771
40
1
40
1
40
1
40
1
41
1
10
34.1318194183614
20
1.917321785795
30
0
41
1
10
34.0957899104919
20
1.842027567364
30
0
41
1
10
34.0595317109561
20
1.76672295867874
30
0
41
1
10
34.0126409047078
20
1.67022759801645
30
0
41
1
10
34.0021957540132
20
1.64878816846291
30
0
41
1
10
33.9917328541765
20
1.62737441222973
30
0
0
SPLINE
5
13D
100
AcDbEntity
8
1
62
256
6
ByLayer
370
18
48
1
60
0
100
AcDbSpline
70
4
71
3
72
16
73
12
40
0
40
0
40
0
40
0
40
0.0346310471945366
40
0.0346310471945366
40
0.195525872662114
40
0.195525872662114
40
0.356420698129691
40
0.356420698129691
40
0.678210349064845
40
0.678210349064845
40
1
40
1
40
1
40
1
41
1
10
27.899548473875
20
-2.03560100374051
30
0
41
1
10
27.8984621725728
20
-2.03579093317737
30
0
41
1
10
27.897373842866
20
-2.03599494798368
30
0
41
1
10
27.89121764937
20
-2.03722773341721
30
0
41
1
10
27.8861086503757
20
-2.03856011943782
30
0
41
1
10
27.8760429883267
20
-2.04185951073822
30
0
41
1
10
27.8710571029407
20
-2.04383077313236
30
0
41
1
10
27.8562647011228
20
-2.05082508380198
30
0
41
1
10
27.8465271387111
20
-2.05701026425558
30
0
41
1
10
27.828875755655
20
-2.07245517609428
30
0
41
1
10
27.8207650516169
20
-2.08190162433451
30
0
41
1
10
27.8143138848139
20
-2.09282873587074
30
0
0
SPLINE
5
13E
100
AcDbEntity
8
1
62
256
6
ByLayer
370
18
48
1
60
0
100
AcDbSpline
70
4
71
3
72
10
73
6
40
0
40
0
40
0
40
0
40
0.5
40
0.5
40
1
40
1
40
1
40
1
41
1
10
27.8143138848139
20
-2.09282873587074
30
0
41
1
10
27.7814746086972
20
-2.14845253910661
30
0
41
1
10
27.7487863527772
20
-2.20362614233397
30
0
41
1
10
27.6836499691172
20
-2.31305499279912
30
0
41
1
10
27.6511850142107
20
-2.36733610809614
30
0
41
1
10
27.618928538308
20
-2.42093797139756
30
0
0
SPLINE
5
13F
100
AcDbEntity
8
1
62
256
6
ByLayer
370
18
48
1
60
0
100
AcDbSpline
70
4
71
3
72
12
73
8
40
0
40
0
40
0
40
0
40
0.407997113249315
40
0.407997113249315
40
0.816683884549571
40
0.816683884549571
40
1
40
1
40
1
40
1
41
1
10
18.1573326586721
20
1.20156940836765
30
0
41
1
10
18.1944759221862
20
1.25321926111087
30
0
41
1
10
18.2284891974362
20
1.30882925733528
30
0
41
1
10
18.2907429845899
20
1.4275198455538
30
0
41
1
10
18.3187112266874
20
1.49033644864954
30
0
41
1
10
18.3536079915084
20
1.58277016971689
30
0
41
1
10
18.3635389482047
20
1.61178785732628
30
0
41
1
10
18.3728447902386
20
1.64108789791376
30
0
0
SPLINE
5
140
100
AcDbEntity
8
1
62
256
6
ByLayer
370
18
48
1
60
0
100
AcDbSpline
70
4
71
3
72
19
73
15
40
0
40
0
40
0
40
0
40
0.160924193973847
40
0.160924193973847
40
0.300770161644873
40
0.300770161644873
40
0.440616129315898
40
0.580462096986924
40
0.580462096986924
40
0.720308064657949
40
0.720308064657949
40
0.860154032328975
40
0.860154032328975
40
1
40
1
40
1
40
1
41
1
10
32.3221018650432
20
2.03508949772612
30
0
41
1
10
32.3278011582507
20
2.03542226039232
30
0
41
1
10
32.3335192093846
20
2.03612872688706
30
0
41
1
10
32.3442371693421
20
2.03819313432234
30
0
41
1
10
32.3492612766084
20
2.0394673290547
30
0
41
1
10
32.3591446194855
20
2.04264056660662
30
0
41
1
10
32.368879336489
20
2.0464334959465
30
0
41
1
10
32.3782824367616
20
2.05156728616879
30
0
41
1
10
32.3874901221169
20
2.05746622526618
30
0
41
1
10
32.3919955607246
20
2.0608072341326
30
0
41
1
10
32.4005068270663
20
2.06816358694175
30
0
41
1
10
32.4045470974814
20
2.07219745786094
30
0
41
1
10
32.4121318526046
20
2.08108789393202
30
0
41
1
10
32.4156831738963
20
2.0859660440039
30
0
41
1
10
32.4188423584735
20
2.09119634267847
30
0
0
SPLINE
5
141
100
AcDbEntity
8
1
62
256
6
ByLayer
370
18
48
1
60
0
100
AcDbSpline
70
4
71
3
72
10
73
6
40
0
40
0
40
0
40
0
40
0.5
40
0.5
40
1
40
1
40
1
40
1
41
1
10
32.4188423584745
20
2.09119634268041
30
0
41
1
10
32.4653309442716
20
2.16816214912296
30
0
41
1
10
32.5114148934485
20
2.24374957751496
30
0
41
1
10
32.6030020794909
20
2.39204646230266
30
0
41
1
10
32.6483065722987
20
2.46438310079557
30
0
41
1
10
32.6932925530498
20
2.53505477830501
30
0
0
SPLINE
5
142
100
AcDbEntity
8
1
62
256
6
ByLayer
370
18
48
1
60
0
100
AcDbSpline
70
4
71
3
72
8
73
4
40
0
40
0
40
0
40
0
40
1
40
1
40
1
40
1
41
1
10
32.7665966051789
20
2.52588435600632
30
0
41
1
10
32.7421420896651
20
2.5292777756103
30
0
41
1
10
32.7176680654692
20
2.53233860275151
30
0
41
1
10
32.6932925530498
20
2.53505477830501
30
0
0
SPLINE
5
143
100
AcDbEntity
8
1
62
256
6
ByLayer
370
18
48
1
60
0
100
AcDbSpline
70
4
71
3
72
12
73
8
40
0
40
0
40
0
40
0
40
0.25
40
0.25
40
0.499999999999999
40
0.499999999999999
40
1
40
1
40
1
40
1
41
1
10
32.7665966051767
20
2.52588435599483
30
0
41
1
10
32.7897313722198
20
2.48469694990072
30
0
41
1
10
32.8129592703517
20
2.44305409642843
30
0
41
1
10
32.8596425223035
20
2.35886330900146
30
0
41
1
10
32.8831091584944
20
2.31629478533912
30
0
41
1
10
32.9538112062665
20
2.18742533446331
30
0
41
1
10
33.0013599222587
20
2.09993146691153
30
0
41
1
10
33.0493426557361
20
2.01118942270398
30
0
0
SPLINE
5
144
100
AcDbEntity
8
1
62
256
6
ByLayer
370
18
48
1
60
0
100
AcDbSpline
70
4
71
3
72
28
73
24
40
0
40
0
40
0
40
0
40
0.125
40
0.125
40
0.25
40
0.25
40
0.375
40
0.375
40
0.5
40
0.5
40
0.625
40
0.625
40
0.6875
40
0.6875
40
0.75
40
0.75
40
0.8125
40
0.8125
40
0.875
40
0.875
40
0.9375
40
0.9375
40
1
40
1
40
1
40
1
41
1
10
33.0493426557361
20
2.01118942270398
30
0
41
1
10
33.0551765490375
20
2.00039988280625
30
0
41
1
10
33.0619796646503
20
1.99077656541408
30
0
41
1
10
33.0770570814212
20
1.97328948686584
30
0
41
1
10
33.0854335987199
20
1.96538146903967
30
0
41
1
10
33.1028752214899
20
1.95172919466441
30
0
41
1
10
33.1119834445325
20
1.94591101770541
30
0
41
1
10
33.1309130813649
20
1.93616616558631
30
0
41
1
10
33.140787703685
20
1.93224541775803
30
0
41
1
10
33.1604961302256
20
1.92665259059243
30
0
41
1
10
33.1704139461928
20
1.92492314003189
30
0
41
1
10
33.1853677466855
20
1.92410939822418
30
0
41
1
10
33.1903935900598
20
1.92414162495052
30
0
41
1
10
33.200280866787
20
1.92486709220441
30
0
41
1
10
33.2051501158154
20
1.92555577422948
30
0
41
1
10
33.2147223817276
20
1.92763618296095
30
0
41
1
10
33.219425406174
20
1.92902699898559
30
0
41
1
10
33.228635761842
20
1.93260862192136
30
0
41
1
10
33.2331421136151
20
1.93480798853923
30
0
41
1
10
33.2416541663877
20
1.93998779121819
30
0
41
1
10
33.2456943832183
20
1.94297816214831
30
0
41
1
10
33.2532780916468
20
1.94988479558316
30
0
41
1
10
33.2568283797827
20
1.9538207193354
30
0
41
1
10
33.2599864250737
20
1.95819689563919
30
0
0
SPLINE
5
145
100
AcDbEntity
8
1
62
256
6
ByLayer
370
18
48
1
60
0
100
AcDbSpline
70
4
71
3
72
8
73
4
40
0
40
0
40
0
40
0
40
1
40
1
40
1
40
1
41
1
10
35.1135272421731
20
-0.456812701919489
30
0
41
1
10
35.0873281042492
20
-0.415481754701091
30
0
41
1
10
35.0610332692937
20
-0.375145734571049
30
0
41
1
10
35.0346027584441
20
-0.335865328212151
30
0
0
SPLINE
5
146
100
AcDbEntity
8
1
62
256
6
ByLayer
370
18
48
1
60
0
100
AcDbSpline
70
4
71
3
72
26
73
22
40
0
40
0
40
0
40
0
40
0.124999999999942
40
0.124999999999942
40
0.249999999999883
40
0.249999999999883
40
0.374999999999825
40
0.374999999999825
40
0.437499999999821
40
0.437499999999821
40
0.499999999999817
40
0.499999999999817
40
0.624999999999865
40
0.624999999999865
40
0.687499999999888
40
0.687499999999888
40
0.749999999999911
40
0.749999999999911
40
0.874999999999955
40
0.874999999999955
40
1
40
1
40
1
40
1
41
1
10
35.0346027584468
20
-0.335865328212748
30
0
41
1
10
35.028975561608
20
-0.327502320030646
30
0
41
1
10
35.0224395844936
20
-0.319009088290841
30
0
41
1
10
35.0079308744724
20
-0.301841321088574
30
0
41
1
10
34.9998787759333
20
-0.293098613343886
30
0
41
1
10
34.9829424787701
20
-0.275971647492298
30
0
41
1
10
34.9740246742729
20
-0.26753860054626
30
0
41
1
10
34.9599999073122
20
-0.255061893302297
30
0
41
1
10
34.9552093916221
20
-0.250927756856697
30
0
41
1
10
34.9455805405498
20
-0.242860345251586
30
0
41
1
10
34.940721760687
20
-0.238908419925224
30
0
41
1
10
34.9260170266394
20
-0.227293574416706
30
0
41
1
10
34.9160445853955
20
-0.219867612314289
30
0
41
1
10
34.9008208480642
20
-0.209247644958765
30
0
41
1
10
34.8957013704461
20
-0.205796890257204
30
0
41
1
10
34.8856213083714
20
-0.199252086823492
30
0
41
1
10
34.8806306668315
20
-0.196136449665516
30
0
41
1
10
34.8658320933369
20
-0.187302753181456
30
0
41
1
10
34.8561030976946
20
-0.182053108042538
30
0
41
1
10
34.8385024202014
20
-0.173970976126668
30
0
41
1
10
34.8304340603629
20
-0.171050045319845
30
0
41
1
10
34.8240235164607
20
-0.169871064333449
30
0
0
SPLINE
5
147
100
AcDbEntity
8
1
62
256
6
ByLayer
370
18
48
1
60
0
100
AcDbSpline
70
4
71
3
72
8
73
4
40
0
40
0
40
0
40
0
40
1
40
1
40
1
40
1
41
1
10
34.8240235164607
20
-0.169871064333165
30
0
41
1
10
34.7794751459451
20
-0.161678049416707
30
0
41
1
10
34.7351621565508
20
-0.149348537904075
30
0
41
1
10
34.6910755050552
20
-0.133084791837547
30
0
0
SPLINE
5
148
100
AcDbEntity
8
1
62
256
6
ByLayer
370
18
48
1
60
0
100
AcDbSpline
70
4
71
3
72
8
73
4
40
0
40
0
40
0
40
0
40
1
40
1
40
1
40
1
41
1
10
34.6910755050553
20
-0.133084791837547
30
0
41
1
10
34.5850790703791
20
-0.0468424227036905
30
0
41
1
10
34.4809104580036
20
0.0418766785684852
30
0
41
1
10
34.3779968330367
20
0.132449008522741
30
0
0
SPLINE
5
149
100
AcDbEntity
8
1
62
256
6
ByLayer
370
18
48
1
60
0
100
AcDbSpline
70
4
71
3
72
8
73
4
40
0
40
0
40
0
40
0
40
1
40
1
40
1
40
1
41
1
10
34.3779968330367
20
0.132449008522741
30
0
41
1
10
34.3170063529116
20
0.206944725259689
30
0
41
1
10
34.2555123197464
20
0.275270954462059
30
0
41
1
10
34.1935116508637
20
0.336574854158044
30
0
0
SPLINE
5
14A
100
AcDbEntity
8
1
62
256
6
ByLayer
370
18
48
1
60
0
100
AcDbSpline
70
4
71
3
72
26
73
22
40
0
40
0
40
0
40
0
40
0.125000000000019
40
0.125000000000019
40
0.250000000000038
40
0.250000000000038
40
0.375000000000057
40
0.375000000000057
40
0.437500000000041
40
0.437500000000041
40
0.500000000000024
40
0.500000000000024
40
0.625000000000045
40
0.625000000000045
40
0.687500000000055
40
0.687500000000055
40
0.750000000000065
40
0.750000000000065
40
0.875000000000032
40
0.875000000000032
40
1
40
1
40
1
40
1
41
1
10
34.1935116508637
20
0.336574854158073
30
0
41
1
10
34.187863307207
20
0.34215972121217
30
0
41
1
10
34.1813070878789
20
0.348268483719465
30
0
41
1
10
34.16677070951
20
0.361276483625744
30
0
41
1
10
34.1587143269951
20
0.368236442584816
30
0
41
1
10
34.1417859758011
20
0.382466991956477
30
0
41
1
10
34.1328771191743
20
0.389773388685939
30
0
41
1
10
34.1188732764913
20
0.401033463288485
30
0
41
1
10
34.1140930399863
20
0.404840735440587
30
0
41
1
10
34.1044836604938
20
0.412430461441801
30
0
41
1
10
34.0996342872236
20
0.416229284711477
30
0
41
1
10
34.0849560095023
20
0.427646190281905
30
0
41
1
10
34.0749989061187
20
0.435283478539446
30
0
41
1
10
34.0597908593636
20
0.446828583853062
30
0
41
1
10
34.0546696084471
20
0.450696393093381
30
0
41
1
10
34.0445793154937
20
0.458285817855909
30
0
41
1
10
34.0395808401869
20
0.462029866802851
30
0
41
1
10
34.0247503191746
20
0.473103523318826
30
0
41
1
10
34.0149824679973
20
0.480349855541249
30
0
41
1
10
33.9972800871248
20
0.493431692469699
30
0
41
1
10
33.9891492339672
20
0.499415201930645
30
0
41
1
10
33.9826906419149
20
0.504126069141051
30
0
0
SPLINE
5
14B
100
AcDbEntity
8
1
62
256
6
ByLayer
370
18
48
1
60
0
100
AcDbSpline
70
4
71
3
72
10
73
6
40
0
40
0
40
0
40
0
40
0.5
40
0.5
40
1
40
1
40
1
40
1
41
1
10
33.9826906419149
20
0.50412606914125
30
0
41
1
10
33.9384058066175
20
0.536427223453586
30
0
41
1
10
33.8943766808481
20
0.572205653778838
30
0
41
1
10
33.8066670986583
20
0.650220946956637
30
0
41
1
10
33.7631486973776
20
0.692579361210761
30
0
41
1
10
33.7199034294891
20
0.738092320291372
30
0
0
SPLINE
5
14C
100
AcDbEntity
8
1
62
256
6
ByLayer
370
18
48
1
60
0
100
AcDbSpline
70
4
71
3
72
12
73
8
40
0
40
0
40
0
40
0
40
0.25
40
0.25
40
0.499999999999999
40
0.499999999999999
40
1
40
1
40
1
40
1
41
1
10
33.6374284765796
20
0.815847610775734
30
0
41
1
10
33.6140287891269
20
0.833411034491064
30
0
41
1
10
33.5905511859191
20
0.849887073686887
30
0
41
1
10
33.5434053828013
20
0.880642969689603
30
0
41
1
10
33.5197274399244
20
0.894928713650444
30
0
41
1
10
33.4484671442492
20
0.934403818997907
30
0
41
1
10
33.4006286296306
20
0.95622790934496
30
0
41
1
10
33.3524907985596
20
0.973446395478248
30
0
0
SPLINE
5
14D
100
AcDbEntity
8
1
62
256
6
ByLayer
370
18
48
1
60
0
100
AcDbSpline
70
4
71
3
72
26
73
22
40
0
40
0
40
0
40
0
40
0.125000000000032
40
0.125000000000032
40
0.250000000000064
40
0.250000000000064
40
0.375000000000097
40
0.375000000000097
40
0.437500000000087
40
0.437500000000087
40
0.500000000000078
40
0.500000000000078
40
0.625000000000059
40
0.625000000000059
40
0.687500000000049
40
0.687500000000049
40
0.750000000000039
40
0.750000000000039
40
0.87500000000002
40
0.87500000000002
40
1
40
1
40
1
40
1
41
1
10
33.3524907985596
20
0.973446395477851
30
0
41
1
10
33.346838546195
20
0.975468157297968
30
0
41
1
10
33.3402723930667
20
0.978342074121031
30
0
41
1
10
33.3257057281913
20
0.985396390673799
30
0
41
1
10
33.3176266289862
20
0.989626583839112
30
0
41
1
10
33.3006502773772
20
0.999039227056585
30
0
41
1
10
33.2917174148777
20
1.00423578898824
30
0
41
1
10
33.2776809877501
20
1.01277352420343
30
0
41
1
10
33.2728918379256
20
1.01574731778086
30
0
41
1
10
33.263267768689
20
1.02184982102645
30
0
41
1
10
33.2584123504056
20
1.02499078976962
30
0
41
1
10
33.2437204454044
20
1.03469590705433
30
0
41
1
10
33.2337602461983
20
1.04153600220363
30
0
41
1
10
33.2185592045161
20
1.05249378033361
30
0
41
1
10
33.2134512611615
20
1.05626344551243
30
0
41
1
10
33.2033898170368
20
1.06388934144067
30
0
41
1
10
33.1984070485149
20
1.06776621113988
30
0
41
1
10
33.1836268095956
20
1.07962037583425
30
0
41
1
10
33.1739028708583
20
1.08790938902666
30
0
41
1
10
33.1562835175192
20
1.10428855414622
30
0
41
1
10
33.1481917996152
20
1.11256827831906
30
0
41
1
10
33.1417558886406
20
1.12023795381825
30
0
0
SPLINE
5
14E
100
AcDbEntity
8
1
62
256
6
ByLayer
370
18
48
1
60
0
100
AcDbSpline
70
4
71
3
72
10
73
6
40
0
40
0
40
0
40
0
40
0.5
40
0.5
40
1
40
1
40
1
40
1
41
1
10
33.1417558886406
20
1.1202379538183
30
0
41
1
10
33.0958292265096
20
1.17496875986839
30
0
41
1
10
33.0501392458732
20
1.23286890323857
30
0
41
1
10
32.9593258621359
20
1.35431734798152
30
0
41
1
10
32.914219867212
20
1.41784398904989
30
0
41
1
10
32.8694726976743
20
1.48379623631905
30
0
0
SPLINE
5
14F
100
AcDbEntity
8
1
62
256
6
ByLayer
370
18
48
1
60
0
100
AcDbSpline
70
4
71
3
72
12
73
8
40
0
40
0
40
0
40
0
40
0.250000000000004
40
0.250000000000004
40
0.500000000000007
40
0.500000000000007
40
1
40
1
40
1
40
1
41
1
10
32.7961494040072
20
1.54231589327031
30
0
41
1
10
32.7727972119536
20
1.54473143775928
30
0
41
1
10
32.7493578585663
20
1.54595960476334
30
0
41
1
10
32.7022482411974
20
1.54595761984587
30
0
41
1
10
32.6785746336867
20
1.54475429614968
30
0
41
1
10
32.6073030385618
20
1.53755831579065
30
0
41
1
10
32.5594193365419
20
1.52795413493078
30
0
41
1
10
32.5111484458068
20
1.51344667420344
30
0
0
SPLINE
5
150
100
AcDbEntity
8
1
62
256
6
ByLayer
370
18
48
1
60
0
100
AcDbSpline
70
4
71
3
72
26
73
22
40
0
40
0
40
0
40
0
40
0.12499999999998
40
0.12499999999998
40
0.249999999999959
40
0.249999999999959
40
0.374999999999939
40
0.374999999999939
40
0.437499999999928
40
0.437499999999928
40
0.499999999999918
40
0.499999999999918
40
0.624999999999898
40
0.624999999999898
40
0.687499999999915
40
0.687499999999915
40
0.749999999999933
40
0.749999999999933
40
0.874999999999966
40
0.874999999999966
40
1
40
1
40
1
40
1
41
1
10
32.5111484458067
20
1.51344667420344
30
0
41
1
10
32.5055161327044
20
1.51175392397877
30
0
41
1
10
32.4989726126603
20
1.5111393824414
30
0
41
1
10
32.4844456660316
20
1.51157388453851
30
0
41
1
10
32.4763823273354
20
1.51265470627879
30
0
41
1
10
32.459423664451
20
1.51629395423683
30
0
41
1
10
32.4504947791208
20
1.51884405311199
30
0
41
1
10
32.4364556209563
20
1.52376795233025
30
0
41
1
10
32.4316614504672
20
1.52559834885025
30
0
41
1
10
32.4220268348132
20
1.52957549804361
30
0
41
1
10
32.4171658060546
20
1.5317289145203
30
0
41
1
10
32.4024567144794
20
1.53870015899523
30
0
41
1
10
32.3924847372752
20
1.54401848260724
30
0
41
1
10
32.377267848739
20
1.5532226043068
30
0
41
1
10
32.37215491064
20
1.55649880316503
30
0
41
1
10
32.3620878329676
20
1.56335609342489
30
0
41
1
10
32.3571039568633
20
1.56695423751367
30
0
41
1
10
32.3423258376818
20
1.57832335120929
30
0
41
1
10
32.3326120510458
20
1.58676416163746
30
0
41
1
10
32.3150343782442
20
1.60464722445062
30
0
41
1
10
32.3069736822491
20
1.61429984936822
30
0
41
1
10
32.300564844279
20
1.62405430579889
30
0
0
SPLINE
5
151
100
AcDbEntity
8
1
62
256
6
ByLayer
370
18
48
1
60
0
100
AcDbSpline
70
4
71
3
72
10
73
6
40
0
40
0
40
0
40
0
40
0.5
40
0.5
40
1
40
1
40
1
40
1
41
1
10
32.300564844279
20
1.62405430579889
30
0
41
1
10
32.2546810431339
20
1.69389091911793
30
0
41
1
10
32.2090480984251
20
1.76580420897849
30
0
41
1
10
32.1182961143528
20
1.91318481813588
30
0
41
1
10
32.0732255097419
20
1.98857447335209
30
0
41
1
10
32.0285080115483
20
2.06527238950784
30
0
0
SPLINE
5
152
100
AcDbEntity
8
1
62
256
6
ByLayer
370
18
48
1
60
0
100
AcDbSpline
70
4
71
3
72
8
73
4
40
0
40
0
40
0
40
0
40
1
40
1
40
1
40
1
41
1
10
31.9552308464518
20
2.1067359070461
30
0
41
1
10
31.9796450938515
20
2.09317887304422
30
0
41
1
10
32.0040698337732
20
2.07935658925729
30
0
41
1
10
32.0285080115483
20
2.06527238950775
30
0
0
SPLINE
5
153
100
AcDbEntity
8
1
62
256
6
ByLayer
370
18
48
1
60
0
100
AcDbSpline
70
4
71
3
72
12
73
8
40
0
40
0
40
0
40
0
40
0.25
40
0.25
40
0.5
40
0.5
40
1
40
1
40
1
40
1
41
1
10
31.9552308464518
20
2.1067359070461
30
0
41
1
10
31.9317711660995
20
2.09324660160044
30
0
41
1
10
31.9082468837375
20
2.07872113425381
30
0
41
1
10
31.8610349963393
20
2.04756726532528
30
0
41
1
10
31.8373376168167
20
2.03092894467807
30
0
41
1
10
31.7660352904806
20
1.97784031255029
30
0
41
1
10
31.7181913477343
20
1.93819896898225
30
0
41
1
10
31.669979131186
20
1.89419042663218
30
0
0
SPLINE
5
154
100
AcDbEntity
8
1
62
256
6
ByLayer
370
18
48
1
60
0
100
AcDbSpline
70
4
71
3
72
26
73
22
40
0
40
0
40
0
40
0
40
0.125000000000005
40
0.125000000000005
40
0.250000000000011
40
0.250000000000011
40
0.375000000000016
40
0.375000000000016
40
0.437500000000019
40
0.437500000000019
40
0.500000000000022
40
0.500000000000022
40
0.624999999999975
40
0.624999999999975
40
0.687499999999979
40
0.687499999999979
40
0.749999999999983
40
0.749999999999983
40
0.874999999999991
40
0.874999999999991
40
1
40
1
40
1
40
1
41
1
10
31.669979131186
20
1.89419042663212
30
0
41
1
10
31.6643368137366
20
1.88904006881413
30
0
41
1
10
31.6577865987367
20
1.88510708301493
30
0
41
1
10
31.6432582965999
20
1.87911502056622
30
0
41
1
10
31.635202879137
20
1.87706785281153
30
0
41
1
10
31.6182698659307
20
1.87482348406152
30
0
41
1
10
31.6093565347877
20
1.8745983519733
30
0
41
1
10
31.5953429813281
20
1.87559690282248
30
0
41
1
10
31.5905581441467
20
1.87615803770063
30
0
41
1
10
31.5809399591748
20
1.87772188313494
30
0
41
1
10
31.5760863128947
20
1.87872525370724
30
0
41
1
10
31.5613961361574
20
1.88241725078274
30
0
41
1
10
31.5514323070431
20
1.88577379790541
30
0
41
1
10
31.5362185307024
20
1.89242637650179
30
0
41
1
10
31.5310974985887
20
1.89492335866365
30
0
41
1
10
31.5210105358875
20
1.90040887815908
30
0
41
1
10
31.5160149331453
20
1.90340883680003
30
0
41
1
10
31.5011967042168
20
1.91327600185082
30
0
41
1
10
31.4914429040477
20
1.92110862185419
30
0
41
1
10
31.4737768235109
20
1.93889470165465
30
0
41
1
10
31.4656674346736
20
1.94905994241685
30
0
41
1
10
31.459224097549
20
1.96002705466304
30
0
0
SPLINE
5
155
100
AcDbEntity
8
1
62
256
6
ByLayer
370
18
48
1
60
0
100
AcDbSpline
70
4
71
3
72
12
73
8
40
0
40
0
40
0
40
0
40
0.250000000000005
40
0.250000000000005
40
0.500000000000009
40
0.500000000000009
40
1
40
1
40
1
40
1
41
1
10
31.459224097549
20
1.96002705466299
30
0
41
1
10
31.4362843117891
20
1.99907253691327
30
0
41
1
10
31.4134120280407
20
2.0382887668973
30
0
41
1
10
31.3677777463394
20
2.11703437145025
30
0
41
1
10
31.345005109132
20
2.15658058242565
30
0
41
1
10
31.2769272534482
20
2.27547444186192
30
0
41
1
10
31.2318282886804
20
2.35513842810187
30
0
41
1
10
31.1870724243117
20
2.43485886837161
30
0
0
SPLINE
5
156
100
AcDbEntity
8
1
62
256
6
ByLayer
370
18
48
1
60
0
100
AcDbSpline
70
4
71
3
72
12
73
8
40
0
40
0
40
0
40
0
40
0.25
40
0.25
40
0.499999999999999
40
0.499999999999999
40
1
40
1
40
1
40
1
41
1
10
31.1139084857981
20
2.4551624757317
30
0
41
1
10
31.0905095056705
20
2.42722809809217
30
0
41
1
10
31.067032709052
20
2.39840155519616
30
0
41
1
10
31.019893424881
20
2.33897696382468
30
0
41
1
10
30.9962210442182
20
2.30836576424596
30
0
41
1
10
30.9249856062983
20
2.21402747781428
30
0
41
1
10
30.8771765217903
20
2.14776201274353
30
0
41
1
10
30.8290617745225
20
2.07832348831869
30
0
0
SPLINE
5
157
100
AcDbEntity
8
1
62
256
6
ByLayer
370
18
48
1
60
0
100
AcDbSpline
70
4
71
3
72
26
73
22
40
0
40
0
40
0
40
0
40
0.124999999999949
40
0.124999999999949
40
0.249999999999897
40
0.249999999999897
40
0.374999999999846
40
0.374999999999846
40
0.437499999999845
40
0.437499999999845
40
0.499999999999844
40
0.499999999999844
40
0.624999999999842
40
0.624999999999842
40
0.687499999999869
40
0.687499999999869
40
0.749999999999896
40
0.749999999999896
40
0.874999999999948
40
0.874999999999948
40
1
40
1
40
1
40
1
41
1
10
30.8290617745222
20
2.07832348831869
30
0
41
1
10
30.8234044397555
20
2.07015890260058
30
0
41
1
10
30.8168320020268
20
2.06322419693441
30
0
41
1
10
30.8022521608644
20
2.05125773580221
30
0
41
1
10
30.7941659103163
20
2.04621608096036
30
0
41
1
10
30.7771769942205
20
2.0381925813623
30
0
41
1
10
30.7682384744466
20
2.03516432766111
30
0
41
1
10
30.7541950136989
20
2.03207574188019
30
0
41
1
10
30.7494047862396
20
2.03129390552934
30
0
41
1
10
30.7397791593081
20
2.03025579341886
30
0
41
1
10
30.7349232282226
20
2.02999418575803
30
0
41
1
10
30.7202306568895
20
2.02999739826257
30
0
41
1
10
30.7102711732505
20
2.0310344812961
30
0
41
1
10
30.6950732663539
20
2.03443763693034
30
0
41
1
10
30.6899694126267
20
2.03588725998441
30
0
41
1
10
30.6799155291699
20
2.03941035934011
30
0
41
1
10
30.6749365595579
20
2.04148888300449
30
0
41
1
10
30.6601676783727
20
2.04878874841387
30
0
41
1
10
30.6504527214492
20
2.05515607259829
30
0
41
1
10
30.6328482365157
20
2.07087639367336
30
0
41
1
10
30.6247620958115
20
2.0804189790224
30
0
41
1
10
30.6183275910781
20
2.09137945788512
30
0
0
SPLINE
5
158
100
AcDbEntity
8
1
62
256
6
ByLayer
370
18
48
1
60
0
100
AcDbSpline
70
4
71
3
72
10
73
6
40
0
40
0
40
0
40
0
40
0.5
40
0.5
40
1
40
1
40
1
40
1
41
1
10
30.6183275910769
20
2.09137945788723
30
0
41
1
10
30.5724003703446
20
2.16961148240844
30
0
41
1
10
30.5267136255976
20
2.24718450216156
30
0
41
1
10
30.4359092111701
20
2.40051089256465
30
0
41
1
10
30.3908077208637
20
2.47623366497405
30
0
41
1
10
30.3460517868349
20
2.55074610315052
30
0
0
SPLINE
5
159
100
AcDbEntity
8
1
62
256
6
ByLayer
370
18
48
1
60
0
100
AcDbSpline
70
4
71
3
72
8
73
4
40
0
40
0
40
0
40
0
40
1
40
1
40
1
40
1
41
1
10
30.2727004737348
20
2.54828087112679
30
0
41
1
10
30.2971652280248
20
2.54944604368939
30
0
41
1
10
30.3216111268403
20
2.55026795598212
30
0
41
1
10
30.3460517868349
20
2.55074610315037
30
0
0
SPLINE
5
15A
100
AcDbEntity
8
1
62
256
6
ByLayer
370
18
48
1
60
0
100
AcDbSpline
70
4
71
3
72
14
73
10
40
0
40
0
40
0
40
0
40
0.25
40
0.25
40
0.5
40
0.5
40
0.75
40
0.75
40
1
40
1
40
1
40
1
41
1
10
30.2727004737348
20
2.54828087112676
30
0
41
1
10
30.2493359692284
20
2.50905261701098
30
0
41
1
10
30.2258940019974
20
2.46919336014903
30
0
41
1
10
30.1788051760307
20
2.38819787582986
30
0
41
1
10
30.155147637654
20
2.34704260035244
30
0
41
1
10
30.1076504051335
20
2.2635702741581
30
0
41
1
10
30.0837958915883
20
2.2212277191488
30
0
41
1
10
30.0358814875086
20
2.13542729390997
30
0
41
1
10
30.0118354315166
20
2.09199387535625
30
0
41
1
10
29.9876972316767
20
2.04805283629705
30
0
0
SPLINE
5
15B
100
AcDbEntity
8
1
62
256
6
ByLayer
370
18
48
1
60
0
100
AcDbSpline
70
4
71
3
72
26
73
22
40
0
40
0
40
0
40
0
40
0.124999999999992
40
0.124999999999992
40
0.249999999999984
40
0.249999999999984
40
0.374999999999976
40
0.374999999999976
40
0.437499999999945
40
0.437499999999945
40
0.499999999999915
40
0.499999999999915
40
0.624999999999909
40
0.624999999999909
40
0.687499999999906
40
0.687499999999906
40
0.749999999999903
40
0.749999999999903
40
0.874999999999951
40
0.874999999999951
40
1
40
1
40
1
40
1
41
1
10
29.9876972316768
20
2.04805283629722
30
0
41
1
10
29.9820535974575
20
2.03777919728228
30
0
41
1
10
29.9754971210391
20
2.02860066354211
30
0
41
1
10
29.9609473165964
20
2.01194797134644
30
0
41
1
10
29.9528743790317
20
2.00444173874672
30
0
41
1
10
29.9359044403148
20
1.99145819932724
30
0
41
1
10
29.9269731109078
20
1.98592234992392
30
0
41
1
10
29.9129352506393
20
1.97902754775771
30
0
41
1
10
29.9081439900603
20
1.97696819076444
30
0
41
1
10
29.8985156668954
20
1.97340426690784
30
0
41
1
10
29.8936580025163
20
1.97188860380916
30
0
41
1
10
29.8789590265788
20
1.96815412436391
30
0
41
1
10
29.8689936722513
20
1.96673174589148
30
0
41
1
10
29.8537842770547
20
1.96649088122152
30
0
41
1
10
29.848674915426
20
1.96673516851456
30
0
41
1
10
29.8386124183815
20
1.96792019477903
30
0
41
1
10
29.8336298565423
20
1.96885890926791
30
0
41
1
10
29.81885277122
20
1.97283301056959
30
0
41
1
10
29.8091368976737
20
1.97708900052976
30
0
41
1
10
29.7915479741852
20
1.98914727143608
30
0
41
1
10
29.7834785787613
20
1.99709772329589
30
0
41
1
10
29.7770620346824
20
2.00691167365855
30
0
0
SPLINE
5
15C
100
AcDbEntity
8
1
62
256
6
ByLayer
370
18
48
1
60
0
100
AcDbSpline
70
4
71
3
72
10
73
6
40
0
40
0
40
0
40
0
40
0.5
40
0.5
40
1
40
1
40
1
40
1
41
1
10
29.7770620346824
20
2.00691167365855
30
0
41
1
10
29.7311908020039
20
2.077070624497
30
0
41
1
10
29.6855545146734
20
2.14528002217963
30
0
41
1
10
29.5948116267749
20
2.27750107791528
30
0
41
1
10
29.549736829921
20
2.34146036577246
30
0
41
1
10
29.5050156018204
20
2.40305736372127
30
0
0
SPLINE
5
15D
100
AcDbEntity
8
1
62
256
6
ByLayer
370
18
48
1
60
0
100
AcDbSpline
70
4
71
3
72
8
73
4
40
0
40
0
40
0
40
0
40
1
40
1
40
1
40
1
41
1
10
29.4317572167011
20
2.3780343440454
30
0
41
1
10
29.4561696744093
20
2.38669671259015
30
0
41
1
10
29.4805875648297
20
2.39503776633947
30
0
41
1
10
29.5050156018204
20
2.40305736372113
30
0
0
SPLINE
5
15E
100
AcDbEntity
8
1
62
256
6
ByLayer
370
18
48
1
60
0
100
AcDbSpline
70
4
71
3
72
10
73
6
40
0
40
0
40
0
40
0
40
0.5
40
0.5
40
1
40
1
40
1
40
1
41
1
10
29.4317572167011
20
2.3780343440454
30
0
41
1
10
29.3848673892643
20
2.28465730803168
30
0
41
1
10
29.3376673253698
20
2.1900837541053
30
0
41
1
10
29.2426048788524
20
1.99908443525297
30
0
41
1
10
29.1947662139166
20
1.90270716002055
30
0
41
1
10
29.1466284514395
20
1.80579237614066
30
0
0
SPLINE
5
15F
100
AcDbEntity
8
1
62
256
6
ByLayer
370
18
48
1
60
0
100
AcDbSpline
70
4
71
3
72
26
73
22
40
0
40
0
40
0
40
0
40
0.124999999999948
40
0.124999999999948
40
0.249999999999896
40
0.249999999999896
40
0.374999999999844
40
0.374999999999844
40
0.437499999999843
40
0.437499999999843
40
0.499999999999841
40
0.499999999999841
40
0.624999999999894
40
0.624999999999894
40
0.687499999999894
40
0.687499999999894
40
0.749999999999894
40
0.749999999999894
40
0.874999999999947
40
0.874999999999947
40
1
40
1
40
1
40
1
41
1
10
29.1466284514393
20
1.80579237614035
30
0
41
1
10
29.1409638725705
20
1.79438799403789
30
0
41
1
10
29.1343868670949
20
1.78384841013971
30
0
41
1
10
29.1198068164175
20
1.76411182893989
30
0
41
1
10
29.1117269963442
20
1.75486824001121
30
0
41
1
10
29.0947584232851
20
1.73816857096727
30
0
41
1
10
29.0858322526965
20
1.73064486886807
30
0
41
1
10
29.0718108123421
20
1.72056638122473
30
0
41
1
10
29.0670285334147
20
1.71741199235007
30
0
41
1
10
29.0574177293343
20
1.71162272806359
30
0
41
1
10
29.0525689784845
20
1.70897244311078
30
0
41
1
10
29.0378963122252
20
1.70176492170762
30
0
41
1
10
29.0279479822044
20
1.69793635361575
30
0
41
1
10
29.0127586527768
20
1.69391671627815
30
0
41
1
10
29.0076493599722
20
1.69287228470276
30
0
41
1
10
28.9975808247592
20
1.69147977002817
30
0
41
1
10
28.992592424294
20
1.69112230716786
30
0
41
1
10
28.9777886556508
20
1.69118409705757
30
0
41
1
10
28.9680371556567
20
1.69277269295239
30
0
41
1
10
28.9503511288758
20
1.69976870667284
30
0
41
1
10
28.9422213187923
20
1.70526721882538
30
0
41
1
10
28.9357592062303
20
1.71295673502377
30
0
0
SPLINE
5
160
100
AcDbEntity
8
1
62
256
6
ByLayer
370
18
48
1
60
0
100
AcDbSpline
70
4
71
3
72
8
73
4
40
0
40
0
40
0
40
0
40
1
40
1
40
1
40
1
41
1
10
28.739375214108
20
1.93011614034154
30
0
41
1
10
28.7139914631677
20
1.95589357730634
30
0
41
1
10
28.6887125876094
20
1.98066696263678
30
0
41
1
10
28.6635145385045
20
2.00453653685364
30
0
0
SPLINE
5
161
100
AcDbEntity
8
1
62
256
6
ByLayer
370
18
48
1
60
0
100
AcDbSpline
70
4
71
3
72
8
73
4
40
0
40
0
40
0
40
0
40
1
40
1
40
1
40
1
41
1
10
28.5903736521652
20
1.95982613949755
30
0
41
1
10
28.6147670860844
20
1.97498431976481
30
0
41
1
10
28.639159913188
20
1.98987988442178
30
0
41
1
10
28.6635145385045
20
2.00453653685361
30
0
0
SPLINE
5
162
100
AcDbEntity
8
1
62
256
6
ByLayer
370
18
48
1
60
0
100
AcDbSpline
70
4
71
3
72
8
73
4
40
0
40
0
40
0
40
0
40
1
40
1
40
1
40
1
41
1
10
28.5903736521652
20
1.95982613949755
30
0
41
1
10
28.5452810214287
20
1.86543735634467
30
0
41
1
10
28.4998751835935
20
1.77128515506198
30
0
41
1
10
28.4541473919294
20
1.67764487966909
30
0
0
SPLINE
5
163
100
AcDbEntity
8
1
62
256
6
ByLayer
370
18
48
1
60
0
100
AcDbSpline
70
4
71
3
72
8
73
4
40
0
40
0
40
0
40
0
40
1
40
1
40
1
40
1
41
1
10
27.3412586648352
20
2.22234391638568
30
0
41
1
10
27.3746941653931
20
2.16252318980591
30
0
41
1
10
27.4082958747333
20
2.10188260244956
30
0
41
1
10
27.4421319291814
20
2.04041907552587
30
0
0
SPLINE
5
164
100
AcDbEntity
8
1
62
256
6
ByLayer
370
18
48
1
60
0
100
AcDbSpline
70
4
71
3
72
27
73
23
40
0
40
0
40
0
40
0
40
0.12500000000002
40
0.12500000000002
40
0.250000000000041
40
0.250000000000041
40
0.375000000000061
40
0.375000000000061
40
0.500000000000081
40
0.500000000000081
40
0.625000000000102
40
0.625000000000102
40
0.687500000000085
40
0.687500000000085
40
0.750000000000068
40
0.812500000000051
40
0.812500000000051
40
0.875000000000034
40
0.875000000000034
40
0.937500000000017
40
0.937500000000017
40
1
40
1
40
1
40
1
41
1
10
27.4421319291814
20
2.04041907552587
30
0
41
1
10
27.4479579280531
20
2.02983609106539
30
0
41
1
10
27.4547480174989
20
2.02045543500927
30
0
41
1
10
27.4697944629425
20
2.00351149587615
30
0
41
1
10
27.4781492213765
20
1.99591077853609
30
0
41
1
10
27.4955476029542
20
1.98289758583155
30
0
41
1
10
27.5046359004759
20
1.97741175042799
30
0
41
1
10
27.5235253633207
20
1.96835846778248
30
0
41
1
10
27.5333847548036
20
1.96479662095083
30
0
41
1
10
27.553076755897
20
1.95992689633687
30
0
41
1
10
27.5629906997873
20
1.95856536024672
30
0
41
1
10
27.5779479296776
20
1.95832090853656
30
0
41
1
10
27.5829771331609
20
1.95854649038807
30
0
41
1
10
27.5928957863634
20
1.95966345772092
30
0
41
1
10
27.6026678761303
20
1.96143666069599
30
0
41
1
10
27.6121130219158
20
1.96462447992101
30
0
41
1
10
27.6213666345892
20
1.96862324029229
30
0
41
1
10
27.6259016663937
20
1.97103921473905
30
0
41
1
10
27.6344708195954
20
1.97665723565567
30
0
41
1
10
27.6385398264921
20
1.97987049130339
30
0
41
1
10
27.6461791846109
20
1.98723546923742
30
0
41
1
10
27.6497548252552
20
1.99140609509263
30
0
41
1
10
27.6529319733305
20
1.99601437769041
30
0
0
SPLINE
5
165
100
AcDbEntity
8
1
62
256
6
ByLayer
370
18
48
1
60
0
100
AcDbSpline
70
4
71
3
72
10
73
6
40
0
40
0
40
0
40
0
40
0.5
40
0.5
40
1
40
1
40
1
40
1
41
1
10
27.6529319733318
20
1.99601437769343
30
0
41
1
10
27.6992737468955
20
2.06323063063908
30
0
41
1
10
27.7452399670175
20
2.12818272186107
30
0
41
1
10
27.8366545527805
20
2.25357770652411
30
0
41
1
10
27.8819590139126
20
2.31382916507056
30
0
41
1
10
27.9269545046169
20
2.37164284797683
30
0
0
SPLINE
5
166
100
AcDbEntity
8
1
62
256
6
ByLayer
370
18
48
1
60
0
100
AcDbSpline
70
4
71
3
72
8
73
4
40
0
40
0
40
0
40
0
40
1
40
1
40
1
40
1
41
1
10
28.0002458995374
20
2.3442821665972
30
0
41
1
10
27.9758023304018
20
2.3537073141006
30
0
41
1
10
27.9513730222947
20
2.3628283426421
30
0
41
1
10
27.9269545046168
20
2.37164284797697
30
0
0
SPLINE
5
167
100
AcDbEntity
8
1
62
256
6
ByLayer
370
18
48
1
60
0
100
AcDbSpline
70
4
71
3
72
10
73
6
40
0
40
0
40
0
40
0
40
0.5
40
0.5
40
1
40
1
40
1
40
1
41
1
10
28.0002458995366
20
2.34428216658651
30
0
41
1
10
28.04658561143
20
2.25268451211943
30
0
41
1
10
28.0933242168179
20
2.16029421230729
30
0
41
1
10
28.1876818092204
20
1.97449878916595
30
0
41
1
10
28.2352606721933
20
1.88116260327087
30
0
41
1
10
28.2832600498166
20
1.78776528985682
30
0
0
SPLINE
5
168
100
AcDbEntity
8
1
62
256
6
ByLayer
370
18
48
1
60
0
100
AcDbSpline
70
4
71
3
72
28
73
24
40
0
40
0
40
0
40
0
40
0.124999999999979
40
0.124999999999979
40
0.249999999999959
40
0.249999999999959
40
0.374999999999938
40
0.374999999999938
40
0.499999999999917
40
0.499999999999917
40
0.624999999999896
40
0.624999999999896
40
0.687499999999914
40
0.687499999999914
40
0.749999999999931
40
0.749999999999931
40
0.812499999999948
40
0.812499999999948
40
0.874999999999965
40
0.874999999999965
40
0.937499999999983
40
0.937499999999983
40
1
40
1
40
1
40
1
41
1
10
28.2832600498166
20
1.78776528985682
30
0
41
1
10
28.2890705875875
20
1.77645913039868
30
0
41
1
10
28.2958441380609
20
1.76605241641462
30
0
41
1
10
28.3108607550925
20
1.74660672269715
30
0
41
1
10
28.3192040367627
20
1.73750583015101
30
0
41
1
10
28.336590246204
20
1.72119654866475
30
0
41
1
10
28.3456749601657
20
1.71391122388647
30
0
41
1
10
28.3645675731711
20
1.70097172420606
30
0
41
1
10
28.3744334212857
20
1.69530912283378
30
0
41
1
10
28.3941396643779
20
1.68608784616035
30
0
41
1
10
28.4040622482657
20
1.68245896900766
30
0
41
1
10
28.419032983956
20
1.67864813552794
30
0
41
1
10
28.4240672003123
20
1.67764995001195
30
0
41
1
10
28.4339848873019
20
1.67629710531904
30
0
41
1
10
28.4388697744322
20
1.67593773029975
30
0
41
1
10
28.4484737744449
20
1.6759008830239
30
0
41
1
10
28.453192862073
20
1.67622233989525
30
0
41
1
10
28.462436623143
20
1.67764146518806
30
0
41
1
10
28.4669610649281
20
1.67874737183459
30
0
41
1
10
28.4755064462224
20
1.68178027295926
30
0
41
1
10
28.4795623822476
20
1.68370929693859
30
0
41
1
10
28.4871748468484
20
1.68852413335321
30
0
41
1
10
28.4907353503194
20
1.69142495104228
30
0
41
1
10
28.4938991091139
20
1.69481030184653
30
0
0
SPLINE
5
169
100
AcDbEntity
8
1
62
256
6
ByLayer
370
18
48
1
60
0
100
AcDbSpline
70
4
71
3
72
10
73
6
40
0
40
0
40
0
40
0
40
0.5
40
0.5
40
1
40
1
40
1
40
1
41
1
10
28.4938991091153
20
1.69481030184991
30
0
41
1
10
28.5402625149235
20
1.74442103495144
30
0
41
1
10
28.5862410794471
20
1.79077525964101
30
0
41
1
10
28.6776399496443
20
1.87685575332813
30
0
41
1
10
28.7229037956365
20
1.91645805595306
30
0
41
1
10
28.7678175622768
20
1.95259632068587
30
0
0
SPLINE
5
16A
100
AcDbEntity
8
1
62
256
6
ByLayer
370
18
48
1
60
0
100
AcDbSpline
70
4
71
3
72
8
73
4
40
0
40
0
40
0
40
0
40
1
40
1
40
1
40
1
41
1
10
28.8411094405319
20
1.90514558919264
30
0
41
1
10
28.8166932888118
20
1.9212397717337
30
0
41
1
10
28.7922731623902
20
1.93706297881599
30
0
41
1
10
28.7678175622768
20
1.9525963206859
30
0
0
SPLINE
5
16B
100
AcDbEntity
8
1
62
256
6
ByLayer
370
18
48
1
60
0
100
AcDbSpline
70
4
71
3
72
12
73
8
40
0
40
0
40
0
40
0
40
0.250000000000004
40
0.250000000000004
40
0.500000000000007
40
0.500000000000007
40
1
40
1
40
1
40
1
41
1
10
28.8411094405313
20
1.90514558918267
30
0
41
1
10
28.8642840183137
20
1.85800095806633
30
0
41
1
10
28.8875477937632
20
1.81102415292276
30
0
41
1
10
28.9343100985188
20
1.71744401175866
30
0
41
1
10
28.9578192612668
20
1.67081772959929
30
0
41
1
10
29.0286545668292
20
1.53174427004325
30
0
41
1
10
29.0763068969133
20
1.44005654908153
30
0
41
1
10
29.124402902588
20
1.3498274505767
30
0
0
SPLINE
5
16C
100
AcDbEntity
8
1
62
256
6
ByLayer
370
18
48
1
60
0
100
AcDbSpline
70
4
71
3
72
27
73
23
40
0
40
0
40
0
40
0
40
0.125000000000021
40
0.125000000000021
40
0.250000000000041
40
0.250000000000041
40
0.375000000000062
40
0.375000000000062
40
0.500000000000082
40
0.500000000000082
40
0.625000000000102
40
0.625000000000102
40
0.687500000000085
40
0.687500000000085
40
0.750000000000068
40
0.812500000000051
40
0.812500000000051
40
0.875000000000034
40
0.875000000000034
40
0.937500000000017
40
0.937500000000017
40
1
40
1
40
1
40
1
41
1
10
29.124402902588
20
1.3498274505767
30
0
41
1
10
29.1302221152953
20
1.3389104875323
30
0
41
1
10
29.1370036621312
20
1.32850374174998
30
0
41
1
10
29.1520334717546
20
1.30847201109884
30
0
41
1
10
29.1603813906621
20
1.29876988692413
30
0
41
1
10
29.1777720105
20
1.28076949419963
30
0
41
1
10
29.1868573287557
20
1.27239539982972
30
0
41
1
10
29.2057462354068
20
1.25681248514078
30
0
41
1
10
29.2156088548433
20
1.24958140667954
30
0
41
1
10
29.2353109104107
20
1.23684238885915
30
0
41
1
10
29.2452319137644
20
1.23125585308932
30
0
41
1
10
29.2602001977436
20
1.22416367653452
30
0
41
1
10
29.2652334897417
20
1.22200622428954
30
0
41
1
10
29.2751538198733
20
1.21824281015734
30
0
41
1
10
29.2849259157433
20
1.21502500842914
30
0
41
1
10
29.2943663818749
20
1.21297139838205
30
0
41
1
10
29.3036126012846
20
1.2115803630945
30
0
41
1
10
29.3081408301316
20
1.21122232391886
30
0
41
1
10
29.3166937030622
20
1.21128731778307
30
0
41
1
10
29.3207533083575
20
1.21170236503016
30
0
41
1
10
29.3283725980089
20
1.21341980152044
30
0
41
1
10
29.3319377209865
20
1.21473298859283
30
0
41
1
10
29.3351058078211
20
1.21653617443476
30
0
0
SPLINE
5
16D
100
AcDbEntity
8
1
62
256
6
ByLayer
370
18
48
1
60
0
100
AcDbSpline
70
4
71
3
72
10
73
6
40
0
40
0
40
0
40
0
40
0.5
40
0.5
40
1
40
1
40
1
40
1
41
1
10
29.3351058078223
20
1.21653617443761
30
0
41
1
10
29.3814436086588
20
1.24291034622888
30
0
41
1
10
29.4274084149498
20
1.26550407403121
30
0
41
1
10
29.5188090534018
20
1.30319221574206
30
0
41
1
10
29.5641006550682
20
1.31824444643019
30
0
41
1
10
29.6090701875935
20
1.32956920211456
30
0
0
SPLINE
5
16E
100
AcDbEntity
8
1
62
256
6
ByLayer
370
18
48
1
60
0
100
AcDbSpline
70
4
71
3
72
10
73
6
40
0
40
0
40
0
40
0
40
0.5
40
0.5
40
1
40
1
40
1
40
1
41
1
10
29.6822529392028
20
1.26829906724572
30
0
41
1
10
29.7286601793569
20
1.18188581149246
30
0
41
1
10
29.7754374732594
20
1.0974087808975
30
0
41
1
10
29.8698019432558
20
0.932886954762722
30
0
41
1
10
29.9173488369201
20
0.85289043839947
30
0
41
1
10
29.9653033080245
20
0.775588883003479
30
0
0
SPLINE
5
16F
100
AcDbEntity
8
1
62
256
6
ByLayer
370
18
48
1
60
0
100
AcDbSpline
70
4
71
3
72
27
73
23
40
0
40
0
40
0
40
0
40
0.12499999999998
40
0.12499999999998
40
0.249999999999959
40
0.249999999999959
40
0.374999999999939
40
0.374999999999939
40
0.499999999999919
40
0.499999999999919
40
0.624999999999898
40
0.624999999999898
40
0.687499999999915
40
0.687499999999915
40
0.749999999999932
40
0.812499999999949
40
0.812499999999949
40
0.874999999999966
40
0.874999999999966
40
0.937499999999983
40
0.937499999999983
40
1
40
1
40
1
40
1
41
1
10
29.9653033080244
20
0.775588883003479
30
0
41
1
10
29.9711412086038
20
0.766178315341193
30
0
41
1
10
29.977947283603
20
0.756833385731596
30
0
41
1
10
29.9930277974347
20
0.738251438432798
30
0
41
1
10
30.0014018811716
20
0.728929712092338
30
0
41
1
10
30.0188346336886
20
0.711057756736778
30
0
41
1
10
30.0279385816122
20
0.702439752336375
30
0
41
1
10
30.0468571756606
20
0.685781763036715
30
0
41
1
10
30.0567267882224
20
0.677709574439291
30
0
41
1
10
30.0764289192905
20
0.662717076727319
30
0
41
1
10
30.0863438976367
20
0.655716941369747
30
0
41
1
10
30.1012923265606
20
0.646011552187701
30
0
41
1
10
30.106316716055
20
0.642894176618
30
0
41
1
10
30.1162145808579
20
0.637060963998607
30
0
41
1
10
30.1259652666266
20
0.631622610706614
30
0
41
1
10
30.1353870416532
20
0.627025440484204
30
0
41
1
10
30.1446172483559
20
0.622905933620473
30
0
41
1
10
30.1491395952972
20
0.621087848977396
30
0
41
1
10
30.1576858872676
20
0.618112024849154
30
0
41
1
10
30.1617443901823
20
0.616937053752167
30
0
41
1
10
30.1693651875499
20
0.615315096048505
30
0
41
1
10
30.17293406405
20
0.614872507215637
30
0
41
1
10
30.1761073243301
20
0.614877254725684
30
0
0
SPLINE
5
170
100
AcDbEntity
8
1
62
256
6
ByLayer
370
18
48
1
60
0
100
AcDbSpline
70
4
71
3
72
10
73
6
40
0
40
0
40
0
40
0
40
0.5
40
0.5
40
1
40
1
40
1
40
1
41
1
10
30.1761073243332
20
0.614877254728043
30
0
41
1
10
30.2224996756543
20
0.614946662261161
30
0
41
1
10
30.2685070380016
20
0.610981104897661
30
0
41
1
10
30.3599803302116
20
0.595106032515361
30
0
41
1
10
30.4053041812481
20
0.583257686800778
30
0
41
1
10
30.4503135912135
20
0.567676272178801
30
0
0
SPLINE
5
171
100
AcDbEntity
8
1
62
256
6
ByLayer
370
18
48
1
60
0
100
AcDbSpline
70
4
71
3
72
10
73
6
40
0
40
0
40
0
40
0
40
0.5
40
0.5
40
1
40
1
40
1
40
1
41
1
10
30.5236405827588
20
0.497521935341609
30
0
41
1
10
30.5699544694696
20
0.427692539955416
30
0
41
1
10
30.6166634410429
20
0.361014965625571
30
0
41
1
10
30.710947120482
20
0.234471235932261
30
0
41
1
10
30.7584826154812
20
0.174634981098023
30
0
41
1
10
30.8064406261078
20
0.118580560745045
30
0
0
SPLINE
5
172
100
AcDbEntity
8
1
62
256
6
ByLayer
370
18
48
1
60
0
100
AcDbSpline
70
4
71
3
72
27
73
23
40
0
40
0
40
0
40
0
40
0.12500000000002
40
0.12500000000002
40
0.250000000000041
40
0.250000000000041
40
0.375000000000061
40
0.375000000000061
40
0.500000000000081
40
0.500000000000081
40
0.625000000000102
40
0.625000000000102
40
0.687500000000085
40
0.687500000000085
40
0.750000000000068
40
0.812500000000051
40
0.812500000000051
40
0.875000000000034
40
0.875000000000034
40
0.937500000000017
40
0.937500000000017
40
1
40
1
40
1
40
1
41
1
10
30.8064406261078
20
0.118580560745016
30
0
41
1
10
30.8122637902465
20
0.11177431323523
30
0
41
1
10
30.8190541428716
20
0.104581191141875
30
0
41
1
10
30.8341060311719
20
0.089619988731954
30
0
41
1
10
30.8424691520672
20
0.0817667949294218
30
0
41
1
10
30.8598894381939
20
0.0661096109033963
30
0
41
1
10
30.8689896680139
20
0.0582596108455391
30
0
41
1
10
30.8879082847256
20
0.0424985855012494
30
0
41
1
10
30.8977813011106
20
0.0345477179963041
30
0
41
1
10
30.917490948367
20
0.0191266300632549
30
0
41
1
10
30.9274111676525
20
0.0115837638792584
30
0
41
1
10
30.9423719825539
20
0.0005130150663604
30
0
41
1
10
30.9474011812385
20
-0.0031564810435043
30
0
41
1
10
30.9572988885459
20
-0.0102744712505114
30
0
41
1
10
30.967048226933
20
-0.017181233185994
30
0
41
1
10
30.9764659944079
20
-0.0236482179885513
30
0
41
1
10
30.9856885553653
20
-0.0298713607546404
30
0
41
1
10
30.9902009094592
20
-0.0328588027992112
30
0
41
1
10
30.9987242291719
20
-0.0383734757924117
30
0
41
1
10
31.0027698715153
20
-0.0409246687574978
30
0
41
1
10
31.010363775279
20
-0.0455470790083723
30
0
41
1
10
31.013917404145
20
-0.0476193242411682
30
0
41
1
10
31.0170771123109
20
-0.04934480370747
30
0
0
SPLINE
5
173
100
AcDbEntity
8
1
62
256
6
ByLayer
370
18
48
1
60
0
100
AcDbSpline
70
4
71
3
72
10
73
6
40
0
40
0
40
0
40
0
40
0.5
40
0.5
40
1
40
1
40
1
40
1
41
1
10
31.017077112312
20
-0.049344803705651
30
0
41
1
10
31.0634861666491
20
-0.0746882424358262
30
0
41
1
10
31.1095005976099
20
-0.103952129430297
30
0
41
1
10
31.2009607815469
20
-0.170305900666079
30
0
41
1
10
31.2462500231822
20
-0.207250731046287
30
0
41
1
10
31.2911829489198
20
-0.247903272074552
30
0
0
SPLINE
5
174
100
AcDbEntity
8
1
62
256
6
ByLayer
370
18
48
1
60
0
100
AcDbSpline
70
4
71
3
72
12
73
8
40
0
40
0
40
0
40
0
40
0.25
40
0.25
40
0.500000000000001
40
0.500000000000001
40
1
40
1
40
1
40
1
41
1
10
31.364495223758
20
-0.3199905391958
30
0
41
1
10
31.3876472624701
20
-0.343430574201392
30
0
41
1
10
31.4108839729645
20
-0.365886807387028
30
0
41
1
10
31.4576057740711
20
-0.408662813570459
30
0
41
1
10
31.4810987746871
20
-0.429006817187798
30
0
41
1
10
31.551890739304
20
-0.486780837768833
30
0
41
1
10
31.5995128305934
20
-0.52101132275277
30
0
41
1
10
31.6475733203822
20
-0.550751847481706
30
0
0
SPLINE
5
175
100
AcDbEntity
8
1
62
256
6
ByLayer
370
18
48
1
60
0
100
AcDbSpline
70
4
71
3
72
28
73
24
40
0
40
0
40
0
40
0
40
0.125
40
0.125
40
0.250000000000001
40
0.250000000000001
40
0.375000000000001
40
0.375000000000001
40
0.500000000000001
40
0.500000000000001
40
0.625000000000001
40
0.625000000000001
40
0.687500000000001
40
0.687500000000001
40
0.750000000000001
40
0.750000000000001
40
0.812500000000001
40
0.812500000000001
40
0.875
40
0.875
40
0.9375
40
0.9375
40
1
40
1
40
1
40
1
41
1
10
31.6475733203822
20
-0.550751847481706
30
0
41
1
10
31.6534069758284
20
-0.554361797667752
30
0
41
1
10
31.6602073379911
20
-0.558781937351966
30
0
41
1
10
31.6752765605023
20
-0.568825913484119
30
0
41
1
10
31.6836463347968
20
-0.574525851082001
30
0
41
1
10
31.7010736280078
20
-0.586599557637214
30
0
41
1
10
31.7101742595142
20
-0.593000408369392
30
0
41
1
10
31.7290875048228
20
-0.606505136967598
30
0
41
1
10
31.7389557916361
20
-0.613652385747685
30
0
41
1
10
31.758658987972
20
-0.628190802822104
30
0
41
1
10
31.7685767504083
20
-0.635639499682583
30
0
41
1
10
31.7835340920217
20
-0.647152268929887
30
0
41
1
10
31.788562259372
20
-0.651069979393299
30
0
41
1
10
31.7984625242719
20
-0.658897785244704
30
0
41
1
10
31.8033385147025
20
-0.662810044753087
30
0
41
1
10
31.8129241276378
20
-0.670639025824983
30
0
41
1
10
31.817633863243
20
-0.674555852268725
30
0
41
1
10
31.8268586770863
20
-0.68240055163858
30
0
41
1
10
31.8313751375396
20
-0.686331550455805
30
0
41
1
10
31.8399066430149
20
-0.693968694949064
30
0
41
1
10
31.8439563464902
20
-0.6977036856957
30
0
41
1
10
31.8515579324327
20
-0.704977711712104
30
0
41
1
10
31.8551166628375
20
-0.708526011766821
30
0
41
1
10
31.8582811312162
20
-0.711855978093695
30
0
0
SPLINE
5
176
100
AcDbEntity
8
1
62
256
6
ByLayer
370
18
48
1
60
0
100
AcDbSpline
70
4
71
3
72
10
73
6
40
0
40
0
40
0
40
0
40
0.5
40
0.5
40
1
40
1
40
1
40
1
41
1
10
31.8582811312172
20
-0.711855978092785
30
0
41
1
10
31.9046678731473
20
-0.760668691685225
30
0
41
1
10
31.9506745696437
20
-0.812696459572692
30
0
41
1
10
32.0421510624989
20
-0.923038595031841
30
0
41
1
10
32.0874768201046
20
-0.981156866909942
30
0
41
1
10
32.13247901901
20
-1.04206800881673
30
0
0
SPLINE
5
177
100
AcDbEntity
8
1
62
256
6
ByLayer
370
18
48
1
60
0
100
AcDbSpline
70
4
71
3
72
10
73
6
40
0
40
0
40
0
40
0
40
0.5
40
0.5
40
1
40
1
40
1
40
1
41
1
10
32.205678689499
20
-1.10665150669482
30
0
41
1
10
32.2520445796477
20
-1.12419775394693
30
0
41
1
10
32.2987790325816
20
-1.13750367752598
30
0
41
1
10
32.3930669414208
20
-1.15546901629276
30
0
41
1
10
32.4405730814147
20
-1.16017621313989
30
0
41
1
10
32.4884920956577
20
-1.16033388860316
30
0
0
SPLINE
5
178
100
AcDbEntity
8
1
62
256
6
ByLayer
370
18
48
1
60
0
100
AcDbSpline
70
4
71
3
72
28
73
24
40
0
40
0
40
0
40
0
40
0.125000000000021
40
0.125000000000021
40
0.250000000000042
40
0.250000000000042
40
0.375000000000062
40
0.375000000000062
40
0.500000000000083
40
0.500000000000083
40
0.625000000000104
40
0.625000000000104
40
0.687500000000086
40
0.687500000000086
40
0.750000000000069
40
0.750000000000069
40
0.812500000000052
40
0.812500000000052
40
0.875000000000035
40
0.875000000000035
40
0.937500000000017
40
0.937500000000017
40
1
40
1
40
1
40
1
41
1
10
32.4884920956577
20
-1.16033388860316
30
0
41
1
10
32.4943420533136
20
-1.16035313763817
30
0
41
1
10
32.5011640956962
20
-1.16152334498892
30
0
41
1
10
32.5162795094385
20
-1.16558620018836
30
0
41
1
10
32.5246740428281
20
-1.16853711188236
30
0
41
1
10
32.5421465876187
20
-1.17577170574856
30
0
41
1
10
32.5512708002096
20
-1.18005716246452
30
0
41
1
10
32.5702236435235
20
-1.18991103548075
30
0
41
1
10
32.5801035144951
20
-1.19552180657033
30
0
41
1
10
32.5998076052003
20
-1.20770861629447
30
0
41
1
10
32.6097160134711
20
-1.21432170999287
30
0
41
1
10
32.6246497942392
20
-1.22513574690396
30
0
41
1
10
32.6296675718758
20
-1.22891352778055
30
0
41
1
10
32.6395418820706
20
-1.23666808561274
30
0
41
1
10
32.644405535714
20
-1.240647943884
30
0
41
1
10
32.6539686735638
20
-1.24883542255006
30
0
41
1
10
32.6586681141083
20
-1.25304303490753
30
0
41
1
10
32.6678747800438
20
-1.26172378387952
30
0
41
1
10
32.6723835552866
20
-1.26620302870433
30
0
41
1
10
32.6809049565287
20
-1.27519664881896
30
0
41
1
10
32.6849518737131
20
-1.27974158563362
30
0
41
1
10
32.6925520556374
20
-1.28894047130535
30
0
41
1
10
32.6961129402213
20
-1.29361047200112
30
0
41
1
10
32.699281228321
20
-1.29821263512659
30
0
0
SPLINE
5
179
100
AcDbEntity
8
1
62
256
6
ByLayer
370
18
48
1
60
0
100
AcDbSpline
70
4
71
3
72
10
73
6
40
0
40
0
40
0
40
0
40
0.5
40
0.5
40
1
40
1
40
1
40
1
41
1
10
32.699281228322
20
-1.29821263512647
30
0
41
1
10
32.7457146019447
20
-1.36566040286519
30
0
41
1
10
32.7917638992568
20
-1.43536378918915
30
0
41
1
10
32.8833026254567
20
-1.57924598610089
30
0
41
1
10
32.9286549981599
20
-1.65313832415038
30
0
41
1
10
32.9736903704245
20
-1.72878783320627
30
0
0
SPLINE
5
17A
100
AcDbEntity
8
1
62
256
6
ByLayer
370
18
48
1
60
0
100
AcDbSpline
70
4
71
3
72
10
73
6
40
0
40
0
40
0
40
0
40
0.5
40
0.5
40
1
40
1
40
1
40
1
41
1
10
33.0469946037521
20
-1.78083565992691
30
0
41
1
10
33.0932730845553
20
-1.76815399499415
30
0
41
1
10
33.1399497782615
20
-1.75116888129091
30
0
41
1
10
33.2341834869789
20
-1.70860583915064
30
0
41
1
10
33.2816984145001
20
-1.68306503500517
30
0
41
1
10
33.329630303215
20
-1.65324877172591
30
0
0
SPLINE
5
17B
100
AcDbEntity
8
1
62
256
6
ByLayer
370
18
48
1
60
0
100
AcDbSpline
70
4
71
3
72
27
73
23
40
0
40
0
40
0
40
0
40
0.12499999999998
40
0.12499999999998
40
0.24999999999996
40
0.24999999999996
40
0.374999999999939
40
0.374999999999939
40
0.499999999999919
40
0.499999999999919
40
0.624999999999899
40
0.624999999999899
40
0.687499999999916
40
0.687499999999916
40
0.749999999999933
40
0.81249999999995
40
0.81249999999995
40
0.874999999999966
40
0.874999999999966
40
0.937499999999983
40
0.937499999999983
40
1
40
1
40
1
40
1
41
1
10
33.329630303215
20
-1.65324877172591
30
0
41
1
10
33.3354680247407
20
-1.64961738880677
30
0
41
1
10
33.3422770890651
20
-1.64734561636723
30
0
41
1
10
33.3573670327777
20
-1.64484757145891
30
0
41
1
10
33.3657507156292
20
-1.64465565356764
30
0
41
1
10
33.3832050329425
20
-1.64612873160098
30
0
41
1
10
33.3923200895048
20
-1.64776734030318
30
0
41
1
10
33.411260339419
20
-1.65275706813313
30
0
41
1
10
33.4211376200135
20
-1.65614619763974
30
0
41
1
10
33.4408456264206
20
-1.66448299332018
30
0
41
1
10
33.4507607901666
20
-1.66944305780049
30
0
41
1
10
33.4657076236875
20
-1.67823335433985
30
0
41
1
10
33.4707302295776
20
-1.68141093453855
30
0
41
1
10
33.4806082402655
20
-1.68815183582348
30
0
41
1
10
33.4903375793116
20
-1.69528332303602
30
0
41
1
10
33.4997355825244
20
-1.70326794971126
30
0
41
1
10
33.5089380801653
20
-1.71174461364112
30
0
41
1
10
33.5134398492311
20
-1.71623428493586
30
0
41
1
10
33.5219438138007
20
-1.72550537468644
30
0
41
1
10
33.5259804033716
20
-1.73031593060796
30
0
41
1
10
33.5335578277967
20
-1.7403397163894
30
0
41
1
10
33.5371054814717
20
-1.74557182955195
30
0
41
1
10
33.5402617177693
20
-1.75089477187709
30
0
0
SPLINE
5
17C
100
AcDbEntity
8
1
62
256
6
ByLayer
370
18
48
1
60
0
100
AcDbSpline
70
4
71
3
72
10
73
6
40
0
40
0
40
0
40
0
40
0.5
40
0.5
40
1
40
1
40
1
40
1
41
1
10
33.5402617177703
20
-1.75089477187774
30
0
41
1
10
33.5764949603946
20
-1.81200155938154
30
0
41
1
10
33.6124873958332
20
-1.87380123899609
30
0
41
1
10
33.6840881715603
20
-1.99874876706403
30
0
41
1
10
33.7196960579057
20
-2.06188913870966
30
0
41
1
10
33.7550207624055
20
-2.12540201067165
30
0
0
SPLINE
5
17D
100
AcDbEntity
8
1
62
256
6
ByLayer
370
18
48
1
60
0
100
AcDbSpline
70
4
71
3
72
12
73
8
40
0
40
0
40
0
40
0
40
0.250000000000011
40
0.250000000000011
40
0.500000000000023
40
0.500000000000023
40
1
40
1
40
1
40
1
41
1
10
33.7550207624055
20
-2.12540201067165
30
0
41
1
10
33.7734994291758
20
-2.13106072622745
30
0
41
1
10
33.7920060758886
20
-2.13652888320229
30
0
41
1
10
33.8290750004812
20
-2.14708416884349
30
0
41
1
10
33.8476461167065
20
-2.15217426582981
30
0
41
1
10
33.9032601958217
20
-2.16681841953218
30
0
41
1
10
33.9402499603133
20
-2.17577020690067
30
0
41
1
10
33.9773018903961
20
-2.18381495581727
30
0
0
SPLINE
5
17E
100
AcDbEntity
8
1
62
256
6
ByLayer
370
18
48
1
60
0
100
AcDbSpline
70
4
71
3
72
10
73
6
40
0
40
0
40
0
40
0
40
0.5
40
0.5
40
1
40
1
40
1
40
1
41
1
10
33.9773018903962
20
-2.18381495581727
30
0
41
1
10
34.0091296550862
20
-2.15251584659282
30
0
41
1
10
34.0412038995793
20
-2.11938103229127
30
0
41
1
10
34.1056799992636
20
-2.04973527620692
30
0
41
1
10
34.1380977825807
20
-2.01321767127197
30
0
41
1
10
34.1707590702337
20
-1.97496350452576
30
0
0
SPLINE
5
17F
100
AcDbEntity
8
1
62
256
6
ByLayer
370
18
48
1
60
0
100
AcDbSpline
70
4
71
3
72
27
73
23
40
0
40
0
40
0
40
0
40
0.125000000000021
40
0.125000000000021
40
0.250000000000042
40
0.250000000000042
40
0.375000000000063
40
0.375000000000063
40
0.500000000000085
40
0.500000000000085
40
0.625000000000106
40
0.625000000000106
40
0.687500000000088
40
0.687500000000088
40
0.750000000000071
40
0.812500000000053
40
0.812500000000053
40
0.875000000000035
40
0.875000000000035
40
0.937500000000018
40
0.937500000000018
40
1
40
1
40
1
40
1
41
1
10
34.1707590702337
20
-1.97496350452576
30
0
41
1
10
34.1766034984551
20
-1.96811828353879
30
0
41
1
10
34.1834187741814
20
-1.96271491540892
30
0
41
1
10
34.1985201964503
20
-1.9540700349128
30
0
41
1
10
34.206908469606
20
-1.95083688214453
30
0
41
1
10
34.2243676532319
20
-1.9465546728934
30
0
41
1
10
34.2334828759677
20
-1.94545880227793
30
0
41
1
10
34.2524223599144
20
-1.94523744051881
30
0
41
1
10
34.2622982009482
20
-1.94614168841116
30
0
41
1
10
34.2820057149085
20
-1.94994768887545
30
0
41
1
10
34.2919217894951
20
-1.95283612404646
30
0
41
1
10
34.3068705090097
20
-1.9588347176765
30
0
41
1
10
34.3118938474721
20
-1.96113068441829
30
0
41
1
10
34.321774098361
20
-1.96625857608149
30
0
41
1
10
34.3315056126705
20
-1.97192261604207
30
0
41
1
10
34.3409045071117
20
-1.97874795609715
30
0
41
1
10
34.3501078273796
20
-1.9862395664247
30
0
41
1
10
34.3546113553902
20
-1.99032657574929
30
0
41
1
10
34.3631188860655
20
-1.99901615904343
30
0
41
1
10
34.367157264118
20
-2.00364346447637
30
0
41
1
10
34.3747381404321
20
-2.01354997661048
30
0
41
1
10
34.3782884669202
20
-2.01885179425079
30
0
41
1
10
34.3814475115647
20
-2.02439305051226
30
0
0
SPLINE
5
180
100
AcDbEntity
8
1
62
256
6
ByLayer
370
18
48
1
60
0
100
AcDbSpline
70
4
71
3
72
8
73
4
40
0
40
0
40
0
40
0
40
1
40
1
40
1
40
1
41
1
10
34.3814475115647
20
-2.02439305051192
30
0
41
1
10
34.4225375632975
20
-2.09646879874157
30
0
41
1
10
34.4633274043841
20
-2.16840911702673
30
0
41
1
10
34.5038955064233
20
-2.24017161066746
30
0
0
SPLINE
5
181
100
AcDbEntity
8
1
62
256
6
ByLayer
370
18
48
1
60
0
100
AcDbSpline
70
4
71
3
72
8
73
4
40
0
40
0
40
0
40
0
40
1
40
1
40
1
40
1
41
1
10
34.5038955064233
20
-2.24017161066746
30
0
41
1
10
34.6479249608975
20
-2.2402804592183
30
0
41
1
10
34.7934861323268
20
-2.22822650319799
30
0
41
1
10
34.9410198675685
20
-2.20411024462663
30
0
0
SPLINE
5
182
100
AcDbEntity
8
1
62
256
6
ByLayer
370
18
48
1
60
0
100
AcDbSpline
70
4
71
3
72
8
73
4
40
0
40
0
40
0
40
0
40
1
40
1
40
1
40
1
41
1
10
34.9410198675684
20
-2.20411024462601
30
0
41
1
10
34.9644673723485
20
-2.16751128176375
30
0
41
1
10
34.9880045684895
20
-2.1303111956415
30
0
41
1
10
35.0116598648713
20
-2.09248969598622
30
0
0
SPLINE
5
183
100
AcDbEntity
8
1
62
256
6
ByLayer
370
18
48
1
60
0
100
AcDbSpline
70
4
71
3
72
10
73
6
40
0
40
0
40
0
40
0
40
0.5
40
0.5
40
1
40
1
40
1
40
1
41
1
10
28.2805366123658
20
-2.19531281877801
30
0
41
1
10
28.3269157604927
20
-2.15927418378459
30
0
41
1
10
28.3736713616989
20
-2.11931067222596
30
0
41
1
10
28.4680228125369
20
-2.03168227043116
30
0
41
1
10
28.515579655958
20
-1.98406401325133
30
0
41
1
10
28.5635405828962
20
-1.93272451971538
30
0
0
SPLINE
5
184
100
AcDbEntity
8
1
62
256
6
ByLayer
370
18
48
1
60
0
100
AcDbSpline
70
4
71
3
72
12
73
8
40
0
40
0
40
0
40
0
40
0.0415601404045468
40
0.0415601404045468
40
0.520780070202274
40
0.520780070202274
40
1
40
1
40
1
40
1
41
1
10
29.1485257836733
20
-2.55124518048703
30
0
41
1
10
29.1481541137918
20
-2.55124566206146
30
0
41
1
10
29.1477822408293
20
-2.55121381496338
30
0
41
1
10
29.1431195049803
20
-2.55040945567649
30
0
41
1
10
29.1388056602014
20
-2.54536869519779
30
0
41
1
10
29.1301314508679
20
-2.52637678051281
30
0
41
1
10
29.1258447412385
20
-2.51258836696206
30
0
41
1
10
29.1215791978376
20
-2.49465896836949
30
0
0
SPLINE
5
185
100
AcDbEntity
8
1
62
256
6
ByLayer
370
18
48
1
60
0
100
AcDbSpline
70
4
71
3
72
16
73
12
40
0
40
0
40
0
40
0
40
0.422542422974067
40
0.422542422974067
40
0.528178028717584
40
0.528178028717584
40
0.633813634461102
40
0.633813634461102
40
0.845084845948137
40
0.845084845948137
40
1
40
1
40
1
40
1
41
1
10
29.0483033195985
20
-2.47856948440492
30
0
41
1
10
29.0525738120794
20
-2.49882726549927
30
0
41
1
10
29.0568545282466
20
-2.51495324225212
30
0
41
1
10
29.062229449664
20
-2.52981734790075
30
0
41
1
10
29.0633057862227
20
-2.53252485153968
30
0
41
1
10
29.0654620674205
20
-2.53740332726287
30
0
41
1
10
29.0665430227698
20
-2.53957540422522
30
0
41
1
10
29.0697751107508
20
-2.54524877890563
30
0
41
1
10
29.0719205856028
20
-2.54792166834773
30
0
41
1
10
29.0756334192662
20
-2.55066939899751
30
0
41
1
10
29.0772036504257
20
-2.55124816896267
30
0
41
1
10
29.0787738632227
20
-2.55124677404368
30
0
0
SPLINE
5
186
100
AcDbEntity
8
1
62
256
6
ByLayer
370
18
48
1
60
0
100
AcDbSpline
70
4
71
3
72
15
73
11
40
0
40
0
40
0
40
0
40
0.0802814953407731
40
0.172253345806696
40
0.172253345806696
40
0.26422519627262
40
0.26422519627262
40
0.63211259813631
40
0.63211259813631
40
1
40
1
40
1
40
1
41
1
10
31.0789327956045
20
2.55124510359818
30
0
41
1
10
31.0798708776764
20
2.5512440262747
30
0
41
1
10
31.0818864715983
20
2.55079607272094
30
0
41
1
10
31.0839082225036
20
2.54938567302449
30
0
41
1
10
31.0860707735687
20
2.54732459873674
30
0
41
1
10
31.0871552936719
20
2.54601444948511
30
0
41
1
10
31.0925696781332
20
2.5380872914179
30
0
41
1
10
31.0968562060833
20
2.52739104256256
30
0
41
1
10
31.1053896180696
20
2.49758263560452
30
0
41
1
10
31.1096370607336
20
2.47846963380999
30
0
41
1
10
31.1139084857981
20
2.45516247573173
30
0
0
SPLINE
5
187
100
AcDbEntity
8
1
62
256
6
ByLayer
370
18
48
1
60
0
100
AcDbSpline
70
4
71
3
72
16
73
12
40
0
40
0
40
0
40
0
40
0.333873639092201
40
0.333873639092201
40
0.667747278184402
40
0.667747278184402
40
0.751215687957452
40
0.751215687957452
40
0.834684097730502
40
0.834684097730502
40
1
40
1
40
1
40
1
41
1
10
31.1870724243118
20
2.43485886837149
30
0
41
1
10
31.1827988115947
20
2.46050959553801
30
0
41
1
10
31.1785301535636
20
2.48193214805332
30
0
41
1
10
31.1699872767565
20
2.51638480399413
30
0
41
1
10
31.1657172729699
20
2.52941526194411
30
0
41
1
10
31.1603570223158
20
2.54033621333829
30
0
41
1
10
31.1592837020773
20
2.54225139039869
30
0
41
1
10
31.1571333596391
20
2.54553795055853
30
0
41
1
10
31.1560547766671
20
2.5469106624553
30
0
41
1
10
31.1528461717861
20
2.55016891502794
30
0
41
1
10
31.1507225059672
20
2.5512419178342
30
0
41
1
10
31.1486008976046
20
2.5512449790495
30
0
0
SPLINE
5
188
100
AcDbEntity
8
1
62
256
6
ByLayer
370
18
48
1
60
0
100
AcDbSpline
70
4
71
3
72
19
73
15
40
0
40
0
40
0
40
0
40
0.0558956486137726
40
0.0558956486137726
40
0.244716518891018
40
0.433537389168263
40
0.433537389168263
40
0.480742606737575
40
0.480742606737575
40
0.527947824306886
40
0.62235825944551
40
0.62235825944551
40
0.811179129722755
40
1
40
1
40
1
40
1
41
1
10
28.3484903690965
20
-2.55124648499853
30
0
41
1
10
28.3472265674563
20
-2.55124505709483
30
0
41
1
10
28.3459635220411
20
-2.55086443614087
30
0
41
1
10
28.3404336390119
20
-2.54755232979784
30
0
41
1
10
28.3319190628703
20
-2.53386015150727
30
0
41
1
10
28.3233967720381
20
-2.50298482984058
30
0
41
1
10
28.3180210235775
20
-2.47814331249839
30
0
41
1
10
28.3169421089495
20
-2.47289057136598
30
0
41
1
10
28.3147890686271
20
-2.46188425675095
30
0
41
1
10
28.3115624590585
20
-2.4446086957366
30
0
41
1
10
28.3083427690186
20
-2.42506176611829
30
0
41
1
10
28.3019141626752
20
-2.38298771931991
30
0
41
1
10
28.293374269908
20
-2.31895635985865
30
0
41
1
10
28.2848405540184
20
-2.23920372972705
30
0
41
1
10
28.2805366123663
20
-2.19531281877727
30
0
0
SPLINE
5
189
100
AcDbEntity
8
1
62
256
6
ByLayer
370
18
48
1
60
0
100
AcDbSpline
70
4
71
3
72
19
73
15
40
0
40
0
40
0
40
0
40
0.179420956287386
40
0.358841912574772
40
0.358841912574772
40
0.538262868862158
40
0.538262868862158
40
0.627973347005851
40
0.627973347005851
40
0.717683825149544
40
0.717683825149544
40
0.89710478143693
40
0.89710478143693
40
1
40
1
40
1
40
1
41
1
10
28.2071972335148
20
-2.15810756735115
30
0
41
1
10
28.2115295319035
20
-2.2042637898295
30
0
41
1
10
28.2201639320561
20
-2.28840321119185
30
0
41
1
10
28.2287092568261
20
-2.35671776722313
30
0
41
1
10
28.2372520360471
20
-2.41713334847216
30
0
41
1
10
28.2415242492605
20
-2.44339212235556
30
0
41
1
10
28.2479983019693
20
-2.47668352249514
30
0
41
1
10
28.2501696631508
20
-2.48677433227846
30
0
41
1
10
28.2544836175316
20
-2.5046872671893
30
0
41
1
10
28.2566314286349
20
-2.51254026728608
30
0
41
1
10
28.263052484071
20
-2.53284700518824
30
0
41
1
10
28.2673020415574
20
-2.54205654836395
30
0
41
1
10
28.2739859354942
20
-2.54982043315587
30
0
41
1
10
28.2764232354569
20
-2.55124405824265
30
0
41
1
10
28.2788675798061
20
-2.55124697268607
30
0
0
SPLINE
5
18A
100
AcDbEntity
8
1
62
256
6
ByLayer
370
13
48
1
60
0
100
AcDbSpline
70
4
71
3
72
10
73
6
40
0
40
0
40
0
40
0
40
0.134200529976625
40
0.663406195926847
40
1
40
1
40
1
40
1
41
1
10
27.9333347264088
20
-1.68583785470213
30
0
41
1
10
27.9364051081036
20
-1.71572766675729
30
0
41
1
10
27.9515832195096
20
-1.8562249937435
30
0
41
1
10
27.9744623074725
20
-2.01083690710766
30
0
41
1
10
27.9942710238557
20
-2.07124765740792
30
0
41
1
10
28.001971985865
20
-2.08332107470369
30
0
0
SPLINE
5
18B
100
AcDbEntity
8
1
62
256
6
ByLayer
370
18
48
1
60
0
100
AcDbSpline
70
4
71
3
72
24
73
20
40
0
40
0
40
0
40
0
40
0.0805977968689224
40
0.120896695303384
40
0.120896695303384
40
0.161195593737845
40
0.161195593737845
40
0.322391187475689
40
0.483586781213533
40
0.483586781213533
40
0.644782374951377
40
0.644782374951377
40
0.725380171820299
40
0.725380171820299
40
0.80597796868922
40
0.80597796868922
40
0.967173562427064
40
0.967173562427064
40
1
40
1
40
1
40
1
41
1
10
32.0285080115484
20
2.06527238950775
30
0
41
1
10
32.0263728219963
20
2.09045823103887
30
0
41
1
10
32.0231636373064
20
2.12699331598049
30
0
41
1
10
32.0199321108465
20
2.16163444698498
30
0
41
1
10
32.0177709965318
20
2.18430288934817
30
0
41
1
10
32.0166857560472
20
2.19543791006993
30
0
41
1
10
32.0112603935613
20
2.24986890817971
30
0
41
1
10
32.0026328048813
20
2.3286027139867
30
0
41
1
10
31.9940901581607
20
2.39118544485217
30
0
41
1
10
31.9855315151219
20
2.44571988223964
30
0
41
1
10
31.981236679852
20
2.46896332355001
30
0
41
1
10
31.9747336606281
20
2.49762725376217
30
0
41
1
10
31.9725520736884
20
2.50616297327832
30
0
41
1
10
31.9682155040073
20
2.52097448307501
30
0
41
1
10
31.966057559318
20
2.52726949253369
30
0
41
1
10
31.9596083685296
20
2.54288359278465
30
0
41
1
10
31.9553432615762
20
2.54893988634251
30
0
41
1
10
31.9502084466099
20
2.55106233708321
30
0
41
1
10
31.9493392123873
20
2.55124340535377
30
0
41
1
10
31.9484694104804
20
2.55124584433682
30
0
0
SPLINE
5
18C
100
AcDbEntity
8
1
62
256
6
ByLayer
370
18
48
1
60
0
100
AcDbSpline
70
4
71
3
72
21
73
17
40
0
40
0
40
0
40
0
40
0.0624999999999999
40
0.0624999999999999
40
0.125
40
0.125
40
0.25
40
0.25
40
0.499999999999999
40
0.499999999999999
40
0.562499999999999
40
0.562499999999999
40
0.624999999999999
40
0.749999999999999
40
0.749999999999999
40
1
40
1
40
1
40
1
41
1
10
27.008601465841
20
-1.95872331090237
30
0
41
1
10
27.0076290432713
20
-1.94924596759299
30
0
41
1
10
27.0066655717105
20
-1.93914220510584
30
0
41
1
10
27.0047646295089
20
-1.91771893794439
30
0
41
1
10
27.003832280268
20
-1.90645839921177
30
0
41
1
10
27.0010897605255
20
-1.87106081354176
30
0
41
1
10
26.999335066098
20
-1.84531119300576
30
0
41
1
10
26.9942627162209
20
-1.76172692660691
30
0
41
1
10
26.9910776712435
20
-1.69757333158705
30
0
41
1
10
26.9874094734167
20
-1.60662497250351
30
0
41
1
10
26.9866933704373
20
-1.58787949565644
30
0
41
1
10
26.9853042080105
20
-1.54935387605994
30
0
41
1
10
26.9832958965113
20
-1.49033552928194
30
0
41
1
10
26.9815217221879
20
-1.42770642861365
30
0
41
1
10
26.9782532566335
20
-1.29772100527427
30
0
41
1
10
26.9763935841578
20
-1.20477473063968
30
0
41
1
10
26.975281314021
20
-1.10554811723682
30
0
0
SPLINE
5
18D
100
AcDbEntity
8
1
62
256
6
ByLayer
370
13
48
1
60
0
100
AcDbSpline
70
4
71
3
72
11
73
7
40
0
40
0
40
0
40
0
40
0.162482655645774
40
0.558157349927426
40
0.953832044209078
40
1
40
1
40
1
40
1
41
1
10
27.092196178439
20
-1.20476389759139
30
0
41
1
10
27.097168190187
20
-1.27159660027343
30
0
41
1
10
27.1142479505534
20
-1.49176876619637
30
0
41
1
10
27.1434354351607
20
-1.80332054572509
30
0
41
1
10
27.1690636122515
20
-1.97364611065015
30
0
41
1
10
27.182584084575
20
-2.02917139155849
30
0
41
1
10
27.1839968332512
20
-2.03459681222833
30
0
0
SPLINE
5
18E
100
AcDbEntity
8
1
62
256
6
ByLayer
370
18
48
1
60
0
100
AcDbSpline
70
4
71
3
72
24
73
20
40
0
40
0
40
0
40
0
40
0.125000000000002
40
0.125000000000002
40
0.187500000000003
40
0.187500000000003
40
0.250000000000003
40
0.250000000000003
40
0.500000000000003
40
0.500000000000003
40
0.625000000000003
40
0.625000000000003
40
0.687500000000002
40
0.687500000000002
40
0.750000000000002
40
0.750000000000002
40
0.875000000000001
40
0.875000000000001
40
1
40
1
40
1
40
1
41
1
10
27.1042992151212
20
-1.22133527147713
30
0
41
1
10
27.1105373784534
20
-1.27882626184334
30
0
41
1
10
27.1167496467247
20
-1.33458961744412
30
0
41
1
10
27.1261072013375
20
-1.41562207111491
30
0
41
1
10
27.1292347953905
20
-1.44219720524549
30
0
41
1
10
27.1355107773047
20
-1.49446111802828
30
0
41
1
10
27.1386607919752
20
-1.52016651442438
30
0
41
1
10
27.1542930494005
20
-1.64510051485519
30
0
41
1
10
27.166524731055
20
-1.73475365702109
30
0
41
1
10
27.1849275381255
20
-1.85433652075403
30
0
41
1
10
27.1910861996134
20
-1.89170445929528
30
0
41
1
10
27.2003639233937
20
-1.9439093980848
30
0
41
1
10
27.203464531418
20
-1.96067203640081
30
0
41
1
10
27.2096177653215
20
-1.99256206870302
30
0
41
1
10
27.2126785417547
20
-2.0077367069874
30
0
41
1
10
27.221824429155
20
-2.0509913037094
30
0
41
1
10
27.2278718435117
20
-2.07680602731392
30
0
41
1
10
27.2399574096391
20
-2.12251047178839
30
0
41
1
10
27.2460043794816
20
-2.14240503351749
30
0
41
1
10
27.2520595076977
20
-2.15930219240829
30
0
0
SPLINE
5
18F
100
AcDbEntity
8
1
62
256
6
ByLayer
370
18
48
1
60
0
100
AcDbSpline
70
4
71
3
72
25
73
21
40
0
40
0
40
0
40
0
40
0.125
40
0.125
40
0.15625
40
0.15625
40
0.1875
40
0.25
40
0.25
40
0.500000000000001
40
0.500000000000001
40
0.562500000000001
40
0.562500000000001
40
0.59375
40
0.59375
40
0.625
40
0.75
40
0.75
40
0.875
40
1
40
1
40
1
40
1
41
1
10
27.6189285383082
20
-2.42093797139742
30
0
41
1
10
27.6159135686829
20
-2.4165690785243
30
0
41
1
10
27.6128840729529
20
-2.40852297077367
30
0
41
1
10
27.6090704572977
20
-2.39371454680588
30
0
41
1
10
27.6083055685287
20
-2.39051087103195
30
0
41
1
10
27.6067804242036
20
-2.38365909218595
30
0
41
1
10
27.6044971130326
20
-2.37270615650499
30
0
41
1
10
27.6022242120652
20
-2.35974863762544
30
0
41
1
10
27.5946545975808
20
-2.31216341605813
30
0
41
1
10
27.5885913920747
20
-2.26014081412438
30
0
41
1
10
27.5809581111834
20
-2.17753587947362
30
0
41
1
10
27.5794283980927
20
-2.16012827500683
30
0
41
1
10
27.5771257791596
20
-2.132659336145
30
0
41
1
10
27.5763558354695
20
-2.12326334441585
30
0
41
1
10
27.5748195385773
20
-2.1041020297337
30
0
41
1
10
27.5709873794446
20
-2.05525840139114
30
0
41
1
10
27.5671738457381
20
-2.00177169095011
30
0
41
1
10
27.561078745651
20
-1.91039288203987
30
0
41
1
10
27.5549975554266
20
-1.81321617964966
30
0
41
1
10
27.5489043825763
20
-1.70439783699655
30
0
41
1
10
27.5458285437474
20
-1.64697478087888
30
0
0
SPLINE
5
190
100
AcDbEntity
8
1
62
256
6
ByLayer
370
18
48
1
60
0
100
AcDbSpline
70
4
71
3
72
23
73
19
40
0
40
0
40
0
40
0
40
0.250000000000001
40
0.250000000000001
40
0.375000000000001
40
0.375000000000001
40
0.437500000000001
40
0.437500000000001
40
0.500000000000001
40
0.500000000000001
40
0.750000000000002
40
0.750000000000002
40
0.812500000000002
40
0.843750000000002
40
0.843750000000002
40
0.875000000000002
40
0.875000000000002
40
1
40
1
40
1
40
1
41
1
10
27.412330197687
20
1.38837124518039
30
0
41
1
10
27.4064754645111
20
1.50019686757264
30
0
41
1
10
27.400631832729
20
1.60235389739623
30
0
41
1
10
27.3918254253286
20
1.7413856314524
30
0
41
1
10
27.388883712603
20
1.78534723398184
30
0
41
1
10
27.384432788587
20
1.8476016519366
30
0
41
1
10
27.3829392565801
20
1.86777690664482
30
0
41
1
10
27.3799611278994
20
1.90648319635574
30
0
41
1
10
27.3784733446851
20
1.92505623864435
30
0
41
1
10
27.3710428369311
20
2.01409009958408
30
0
41
1
10
27.3651406587611
20
2.07316559211859
30
0
41
1
10
27.3577136160152
20
2.13181751836572
30
0
41
1
10
27.3554804085772
20
2.14826351079373
30
0
41
1
10
27.3532322178938
20
2.16295356537555
30
0
41
1
10
27.3517296106533
20
2.17235208971925
30
0
41
1
10
27.3509757147606
20
2.17685813221311
30
0
41
1
10
27.3472164129623
20
2.19828449313826
30
0
41
1
10
27.344230481029
20
2.2119837001886
30
0
41
1
10
27.3412586648276
20
2.22234391639876
30
0
0
SPLINE
5
191
100
AcDbEntity
8
1
62
256
6
ByLayer
370
18
48
1
60
0
100
AcDbSpline
70
4
71
3
72
29
73
25
40
0
40
0
40
0
40
0
40
0.124999999999999
40
0.124999999999999
40
0.187499999999999
40
0.187499999999999
40
0.249999999999999
40
0.249999999999999
40
0.374999999999999
40
0.374999999999999
40
0.499999999999999
40
0.499999999999999
40
0.562499999999999
40
0.562499999999999
40
0.624999999999999
40
0.624999999999999
40
0.749999999999999
40
0.749999999999999
40
0.874999999999999
40
0.874999999999999
40
0.937499999999999
40
0.96875
40
0.96875
40
1
40
1
40
1
40
1
41
1
10
33.1499147620555
20
-2.55107950211072
30
0
41
1
10
33.1456308162087
20
-2.55205569913159
30
0
41
1
10
33.1413282119287
20
-2.54872688886078
30
0
41
1
10
33.1348283316013
20
-2.53708231261112
30
0
41
1
10
33.1326526499137
20
-2.53207613022994
30
0
41
1
10
33.1283354626957
20
-2.51994796345252
30
0
41
1
10
33.1261879907267
20
-2.51281849614577
30
0
41
1
10
33.1197702233742
20
-2.48828875146285
30
0
41
1
10
33.1155260793862
20
-2.46775490549203
30
0
41
1
10
33.1070235556436
20
-2.41842170651657
30
0
41
1
10
33.1027560099508
20
-2.3896227068837
30
0
41
1
10
33.0963237944212
20
-2.34010646974355
30
0
41
1
10
33.0941748015607
20
-2.3225461064865
30
0
41
1
10
33.0898627545909
20
-2.28527018063255
30
0
41
1
10
33.087712113876
20
-2.26565922003371
30
0
41
1
10
33.0812922372196
20
-2.20420737175041
30
0
41
1
10
33.0770447335844
20
-2.15965377460702
30
0
41
1
10
33.0685179979555
20
-2.06353281990903
30
0
41
1
10
33.0642367630207
20
-2.01196535311013
30
0
41
1
10
33.0577939593287
20
-1.92930779382715
30
0
41
1
10
33.0545667471433
20
-1.88664995043115
30
0
41
1
10
33.0513262697432
20
-1.8419666172727
30
0
41
1
10
33.0491620756454
20
-1.81172235936381
30
0
41
1
10
33.0480767251001
20
-1.7963531279662
30
0
41
1
10
33.0469946037453
20
-1.78083565993396
30
0
0
SPLINE
5
192
100
AcDbEntity
8
1
62
256
6
ByLayer
370
18
48
1
60
0
100
AcDbSpline
70
4
71
3
72
29
73
25
40
0
40
0
40
0
40
0
40
0.0625000000000002
40
0.0625000000000002
40
0.125000000000001
40
0.125000000000001
40
0.250000000000001
40
0.250000000000001
40
0.375000000000002
40
0.375000000000002
40
0.437500000000003
40
0.468750000000003
40
0.468750000000003
40
0.500000000000003
40
0.500000000000003
40
0.625000000000002
40
0.625000000000002
40
0.750000000000002
40
0.875000000000001
40
0.875000000000001
40
0.906250000000001
40
0.906250000000001
40
0.9375
40
1
40
1
40
1
40
1
41
1
10
32.9736903704245
20
-1.72878783320624
30
0
41
1
10
32.9758509977098
20
-1.76048259199996
30
0
41
1
10
32.9780188799541
20
-1.79155966776244
30
0
41
1
10
32.9823607933077
20
-1.85229677232095
30
0
41
1
10
32.9845196912301
20
-1.88174614441584
30
0
41
1
10
32.9909693508371
20
-1.96739523541714
30
0
41
1
10
32.995231708804
20
-2.02090271617274
30
0
41
1
10
33.0037642274324
20
-2.12087124254921
30
0
41
1
10
33.0080419114323
20
-2.16733196888686
30
0
41
1
10
33.014471330856
20
-2.23168056175305
30
0
41
1
10
33.0176894047101
20
-2.2625167235305
30
0
41
1
10
33.0209169869136
20
-2.29131109341506
30
0
41
1
10
33.0230718026079
20
-2.31004799465862
30
0
41
1
10
33.0241500056364
20
-2.3191796586037
30
0
41
1
10
33.0295207191157
20
-2.36343203019885
30
0
41
1
10
33.0337742797362
20
-2.39455537009957
30
0
41
1
10
33.042301987469
20
-2.44849824878301
30
0
41
1
10
33.0508468258093
20
-2.49413565307768
30
0
41
1
10
33.0594150738894
20
-2.52315886090955
30
0
41
1
10
33.0648069266858
20
-2.53594216898836
30
0
41
1
10
33.0658888111977
20
-2.53823288787498
30
0
41
1
10
33.0680477377372
20
-2.54225300811282
30
0
41
1
10
33.071279560162
20
-2.54744625047604
30
0
41
1
10
33.0745008145443
20
-2.55015863423733
30
0
41
1
10
33.0766475482766
20
-2.550882432886
30
0
0
SPLINE
5
193
100
AcDbEntity
8
1
62
256
6
ByLayer
370
18
48
1
60
0
100
AcDbSpline
70
4
71
3
72
14
73
10
40
0
40
0
40
0
40
0
40
0.235488208583062
40
0.235488208583062
40
0.470976417166124
40
0.470976417166124
40
0.941952834332247
40
0.941952834332247
40
1
40
1
40
1
40
1
41
1
10
18.3728562596412
20
1.64112401120332
30
0
41
1
10
18.3263418337329
20
1.62355829192023
30
0
41
1
10
18.2794998268787
20
1.60544482434571
30
0
41
1
10
18.184598505938
20
1.56889020971991
30
0
41
1
10
18.1366308409794
20
1.55036761725887
30
0
41
1
10
17.9910004708567
20
1.49462473732336
30
0
41
1
10
17.8915697939989
20
1.45725666543089
30
0
41
1
10
17.7763952542653
20
1.41720042987598
30
0
41
1
10
17.7637105651491
20
1.41283123838298
30
0
41
1
10
17.7509772351127
20
1.40849193062422
30
0
0
SPLINE
5
194
100
AcDbEntity
8
1
62
256
6
ByLayer
370
18
48
1
60
0
100
AcDbSpline
70
4
71
3
72
14
73
10
40
0
40
0
40
0
40
0
40
0.0563812932937313
40
0.0563812932937313
40
0.370920862195821
40
0.370920862195821
40
0.685460431097911
40
0.685460431097911
40
1
40
1
40
1
40
1
41
1
10
16.1224764827195
20
1.88000025128215
30
0
41
1
10
16.1375141662029
20
1.87998814088516
30
0
41
1
10
16.1525897631216
20
1.87980010720037
30
0
41
1
10
16.2519802502009
20
1.87744289245225
30
0
41
1
10
16.3372388620506
20
1.87017312010283
30
0
41
1
10
16.5086293356004
20
1.84593991845503
30
0
41
1
10
16.5947716893003
20
1.82895805944855
30
0
41
1
10
16.7675880713965
20
1.78533740384549
30
0
41
1
10
16.8542624472326
20
1.75868740140751
30
0
41
1
10
16.9413093374823
20
1.72705739825449
30
0
0
SPLINE
5
195
100
AcDbEntity
8
1
62
256
6
ByLayer
370
18
48
1
60
0
100
AcDbSpline
70
4
71
3
72
27
73
23
40
0
40
0
40
0
40
0
40
0.125000000000001
40
0.125000000000001
40
0.250000000000001
40
0.250000000000001
40
0.312500000000001
40
0.312500000000001
40
0.375000000000002
40
0.375000000000002
40
0.500000000000002
40
0.500000000000002
40
0.625000000000003
40
0.625000000000003
40
0.687500000000003
40
0.687500000000003
40
0.718750000000003
40
0.718750000000003
40
0.750000000000003
40
0.875000000000002
40
0.875000000000002
40
1
40
1
40
1
40
1
41
1
10
32.6932925530499
20
2.53505477830501
30
0
41
1
10
32.6975780274717
20
2.52540787317082
30
0
41
1
10
32.7018371354626
20
2.51150113369332
30
0
41
1
10
32.7103730576255
20
2.47518079548124
30
0
41
1
10
32.7146600792182
20
2.45276795253565
30
0
41
1
10
32.7211365816156
20
2.41258078535355
30
0
41
1
10
32.7233051925409
20
2.39805918233264
30
0
41
1
10
32.7276096411773
20
2.36713838233473
30
0
41
1
10
32.7297511890126
20
2.3507072345592
30
0
41
1
10
32.7361538456076
20
2.29855216119057
30
0
41
1
10
32.7403913400984
20
2.25997366521727
30
0
41
1
10
32.7488975293312
20
2.17529111006036
30
0
41
1
10
32.7531765350472
20
2.12918750882048
30
0
41
1
10
32.7596321985691
20
2.05428210834506
30
0
41
1
10
32.7617900689829
20
2.02835348934863
30
0
41
1
10
32.76503807738
20
1.98798968193353
30
0
41
1
10
32.7661214491724
20
1.97430398613946
30
0
41
1
10
32.7682805064548
20
1.94659664464191
30
0
41
1
10
32.7736664053051
20
1.87640005476376
30
0
41
1
10
32.7790001113432
20
1.80163010441063
30
0
41
1
10
32.7875565188538
20
1.67627645552986
30
0
41
1
10
32.7918468283714
20
1.61073864577634
30
0
41
1
10
32.7961494040072
20
1.54231589327031
30
0
0
SPLINE
5
196
100
AcDbEntity
8
1
62
256
6
ByLayer
370
18
48
1
60
0
100
AcDbSpline
70
4
71
3
72
25
73
21
40
0
40
0
40
0
40
0
40
0.124999999999999
40
0.124999999999999
40
0.249999999999999
40
0.249999999999999
40
0.312499999999999
40
0.312499999999999
40
0.374999999999999
40
0.374999999999999
40
0.499999999999998
40
0.624999999999997
40
0.749999999999997
40
0.749999999999997
40
0.781249999999997
40
0.781249999999997
40
0.812499999999997
40
0.874999999999998
40
0.874999999999998
40
1
40
1
40
1
40
1
41
1
10
32.8694726976745
20
1.48379623631894
30
0
41
1
10
32.8651569476458
20
1.5539149590947
30
0
41
1
10
32.8608767736597
20
1.62109193081133
30
0
41
1
10
32.8523111481853
20
1.74967306768238
30
0
41
1
10
32.8480176626914
20
1.81107684846401
30
0
41
1
10
32.8415631923534
20
1.89880455957302
30
0
41
1
10
32.8394093829088
20
1.92731610105645
30
0
41
1
10
32.8350937670978
20
1.98285179987619
30
0
41
1
10
32.8329258538595
20
2.00994789049017
30
0
41
1
10
32.8264610351749
20
2.08821608229604
30
0
41
1
10
32.8179329757859
20
2.18476186423916
30
0
41
1
10
32.8051380152819
20
2.30682654508683
30
0
41
1
10
32.7966051896045
20
2.37302485786589
30
0
41
1
10
32.7912352842241
20
2.40950362026092
30
0
41
1
10
32.7901578361677
20
2.41656290825273
30
0
41
1
10
32.7880080840018
20
2.43011881308277
30
0
41
1
10
32.7847896049756
20
2.44962386586468
30
0
41
1
10
32.7815794547767
20
2.46667188638023
30
0
41
1
10
32.7751556496911
20
2.4975451996082
30
0
41
1
10
32.7708757732024
20
2.51383858645696
30
0
41
1
10
32.76659660517
20
2.52588435600629
30
0
0
SPLINE
5
197
100
AcDbEntity
8
1
62
256
6
ByLayer
370
18
48
1
60
0
100
AcDbSpline
70
4
71
3
72
12
73
8
40
0
40
0
40
0
40
0
40
0.25
40
0.25
40
0.5
40
0.5
40
1
40
1
40
1
40
1
41
1
10
35.7188763423065
20
0.531216140201479
30
0
41
1
10
35.7225315976477
20
0.495730897718829
30
0
41
1
10
35.7260781082025
20
0.459888671173928
30
0
41
1
10
35.7329761773096
20
0.387888875644393
30
0
41
1
10
35.7363199669821
20
0.351816181671097
30
0
41
1
10
35.7461180366953
20
0.243389517101065
30
0
41
1
10
35.7523685617442
20
0.170829559154981
30
0
41
1
10
35.7583691173407
20
0.097999966643016
30
0
0
SPLINE
5
198
100
AcDbEntity
8
1
62
256
6
ByLayer
370
18
48
1
60
0
100
AcDbSpline
70
4
71
3
72
12
73
8
40
0
40
0
40
0
40
0
40
0.500000000000001
40
0.500000000000001
40
0.75
40
0.75
40
1
40
1
40
1
40
1
41
1
10
35.7758754765807
20
0.483309060418719
30
0
41
1
10
35.7726520685967
20
0.420919348379897
30
0
41
1
10
35.7695894819335
20
0.357598464619116
30
0
41
1
10
35.7652130360744
20
0.261208019805991
30
0
41
1
10
35.7637907721571
20
0.228842498839299
30
0
41
1
10
35.7610189437413
20
0.163632180930705
30
0
41
1
10
35.7596682198795
20
0.130750826644459
30
0
41
1
10
35.7583691173408
20
0.0979999666429876
30
0
0
SPLINE
5
199
100
AcDbEntity
8
1
62
256
6
ByLayer
370
18
48
1
60
0
100
AcDbSpline
70
4
71
3
72
16
73
12
40
0
40
0
40
0
40
0
40
0.25
40
0.25
40
0.375
40
0.375
40
0.5
40
0.5
40
0.75
40
0.75
40
1
40
1
40
1
40
1
41
1
10
35.7700503338529
20
-0.861623121534507
30
0
41
1
10
35.7700273649625
20
-0.786971495068116
30
0
41
1
10
35.7696367184099
20
-0.710260458529064
30
0
41
1
10
35.7686887866727
20
-0.591926059147141
30
0
41
1
10
35.7683141860323
20
-0.552200343388279
30
0
41
1
10
35.7674850182296
20
-0.472506150899051
30
0
41
1
10
35.7670310206163
20
-0.432487221845463
30
0
41
1
10
35.7655362212762
20
-0.311926003813454
30
0
41
1
10
35.7643600941323
20
-0.230881402391816
30
0
41
1
10
35.7616330131292
20
-0.0674572760579792
30
0
41
1
10
35.7600819183137
20
0.0149220182861995
30
0
41
1
10
35.7583691173408
20
0.0979999666429876
30
0
0
SPLINE
5
19A
100
AcDbEntity
8
1
62
256
6
ByLayer
370
18
48
1
60
0
100
AcDbSpline
70
4
71
3
72
23
73
19
40
0
40
0
40
0
40
0
40
0.124999999999998
40
0.249999999999996
40
0.249999999999996
40
0.312499999999995
40
0.312499999999995
40
0.343749999999995
40
0.343749999999995
40
0.374999999999995
40
0.499999999999996
40
0.624999999999997
40
0.624999999999997
40
0.749999999999998
40
0.749999999999998
40
0.874999999999999
40
0.874999999999999
40
1
40
1
40
1
40
1
41
1
10
32.3088549472739
20
-2.42780340852238
30
0
41
1
10
32.3045439329488
20
-2.40132421153916
30
0
41
1
10
32.2959345936781
20
-2.34035275162461
30
0
41
1
10
32.2873553057402
20
-2.26360384438249
30
0
41
1
10
32.2808958106123
20
-2.20003739397967
30
0
41
1
10
32.2787380748001
20
-2.17784590977257
30
0
41
1
10
32.2754862788106
20
-2.1430258498556
30
0
41
1
10
32.2743982464337
20
-2.13114627399628
30
0
41
1
10
32.2722237498652
20
-2.10696373710874
30
0
41
1
10
32.2667932804925
20
-2.04548016891275
30
0
41
1
10
32.2570893588026
20
-1.92570887118146
30
0
41
1
10
32.2485492964864
20
-1.80663547260261
30
0
41
1
10
32.2399923763089
20
-1.68122853803848
30
0
41
1
10
32.2356981550955
20
-1.61535942454051
30
0
41
1
10
32.2270196548343
20
-1.47706259887596
30
0
41
1
10
32.222716899825
20
-1.40576094425447
30
0
41
1
10
32.2141738580585
20
-1.25921197890076
30
0
41
1
10
32.2099313468685
20
-1.18392938903085
30
0
41
1
10
32.2056786894993
20
-1.10665150669448
30
0
0
SPLINE
5
19B
100
AcDbEntity
8
1
62
256
6
ByLayer
370
18
48
1
60
0
100
AcDbSpline
70
4
71
3
72
26
73
22
40
0
40
0
40
0
40
0
40
0.124999999999999
40
0.249999999999997
40
0.249999999999997
40
0.281249999999997
40
0.281249999999997
40
0.312499999999997
40
0.312499999999997
40
0.374999999999996
40
0.374999999999996
40
0.499999999999997
40
0.624999999999998
40
0.624999999999998
40
0.687499999999998
40
0.687499999999998
40
0.718749999999998
40
0.718749999999998
40
0.749999999999998
40
0.874999999999999
40
1
40
1
40
1
40
1
41
1
10
32.1324790190099
20
-1.04206800881673
30
0
41
1
10
32.1367586606486
20
-1.12049485408892
30
0
41
1
10
32.1452936743233
20
-1.27327213942681
30
0
41
1
10
32.1538119057884
20
-1.41793988642976
30
0
41
1
10
32.1591743736936
20
-1.50575631778787
30
0
41
1
10
32.1602489342454
20
-1.52318923312052
30
0
41
1
10
32.1624038557232
20
-1.55779130828731
30
0
41
1
10
32.1634846162764
20
-1.57496610446344
30
0
41
1
10
32.1667197123707
20
-1.62579869179751
30
0
41
1
10
32.1688742463849
20
-1.6588645459083
30
0
41
1
10
32.1753286281556
20
-1.75564236979454
30
0
41
1
10
32.1839033707049
20
-1.87823921245055
30
0
41
1
10
32.1924397849345
20
-1.98815468361067
30
0
41
1
10
32.1988811363188
20
-2.06576249844943
30
0
41
1
10
32.2010354220923
20
-2.09082544757379
30
0
41
1
10
32.2042879244183
20
-2.12718676600196
30
0
41
1
10
32.2053769190669
20
-2.13911795605412
30
0
41
1
10
32.2075528646603
20
-2.162474390189
30
0
41
1
10
32.212985359571
20
-2.21957341534201
30
0
41
1
10
32.2226871871529
20
-2.31090586731167
30
0
41
1
10
32.2312479403925
20
-2.37622831503509
30
0
41
1
10
32.2355464978465
20
-2.40490474670773
30
0
0
SPLINE
5
19C
100
AcDbEntity
8
1
62
256
6
ByLayer
370
18
48
1
60
0
100
AcDbSpline
70
4
71
3
72
24
73
20
40
0
40
0
40
0
40
0
40
0.0625
40
0.0625
40
0.125
40
0.125
40
0.250000000000001
40
0.250000000000001
40
0.500000000000002
40
0.500000000000002
40
0.562500000000001
40
0.562500000000001
40
0.625000000000001
40
0.625000000000001
40
0.750000000000001
40
0.750000000000001
40
0.875
40
0.875
40
1
40
1
40
1
40
1
41
1
10
35.6693474694627
20
-0.822504589570286
30
0
41
1
10
35.6672053106451
20
-0.793755202223224
30
0
41
1
10
35.6651022646201
20
-0.764708362962693
30
0
41
1
10
35.6609636592094
20
-0.706019229975624
30
0
41
1
10
35.658924725062
20
-0.676325263052831
30
0
41
1
10
35.652929173551
20
-0.586920235938123
30
0
41
1
10
35.6490818523896
20
-0.526789195793242
30
0
41
1
10
35.637853452566
20
-0.344872607655162
30
0
41
1
10
35.6308251784704
20
-0.221574753389859
30
0
41
1
10
35.6225717508122
20
-0.0648846206535438
30
0
41
1
10
35.6209432571836
20
-0.0333293243421053
30
0
41
1
10
35.6177649730296
20
0.0295089842322227
30
0
41
1
10
35.616214678218
20
0.0607971194788774
30
0
41
1
10
35.6116726892028
20
0.154276349162188
30
0
41
1
10
35.6087876210474
20
0.216083193969865
30
0
41
1
10
35.6032713516948
20
0.338690328380238
30
0
41
1
10
35.6006478733139
20
0.399490635725698
30
0
41
1
10
35.5958129335661
20
0.520073088074128
30
0
41
1
10
35.5935976150191
20
0.579855429795202
30
0
41
1
10
35.5917135012001
20
0.639106357071256
30
0
0
SPLINE
5
19D
100
AcDbEntity
8
1
62
256
6
ByLayer
370
18
48
1
60
0
100
AcDbSpline
70
4
71
3
72
27
73
23
40
0
40
0
40
0
40
0
40
0.250000000000004
40
0.250000000000004
40
0.281250000000004
40
0.281250000000004
40
0.312500000000005
40
0.312500000000005
40
0.375000000000005
40
0.375000000000005
40
0.500000000000005
40
0.500000000000005
40
0.625000000000005
40
0.625000000000005
40
0.687500000000005
40
0.718750000000005
40
0.718750000000005
40
0.750000000000005
40
0.750000000000005
40
0.875000000000002
40
0.875000000000002
40
1
40
1
40
1
40
1
41
1
10
33.5055506305493
20
2.27893743273819
30
0
41
1
10
33.5162316476526
20
2.21592257134384
30
0
41
1
10
33.5267225472992
20
2.13884248352585
30
0
41
1
10
33.538723154014
20
2.03640831443511
30
0
41
1
10
33.5400588429839
20
2.02480655117242
30
0
41
1
10
33.542735612062
20
2.00115891235862
30
0
41
1
10
33.544078479916
20
1.9890965916548
30
0
41
1
10
33.5481017035861
20
1.95237067767593
30
0
41
1
10
33.5507743042551
20
1.92719328281024
30
0
41
1
10
33.5587716792645
20
1.84962014869836
30
0
41
1
10
33.5640766063057
20
1.79519023432402
30
0
41
1
10
33.5746625179719
20
1.68094146490691
30
0
41
1
10
33.5799350478819
20
1.62111103872954
30
0
41
1
10
33.5877994418659
20
1.52726395171951
30
0
41
1
10
33.5917224738106
20
1.47931505367069
30
0
41
1
10
33.5956359345409
20
1.42980574069929
30
0
41
1
10
33.5982434062306
20
1.39644879162645
30
0
41
1
10
33.5995480539803
20
1.37957303315142
30
0
41
1
10
33.6060448779452
20
1.29462593625564
30
0
41
1
10
33.6111550846018
20
1.22489520417486
30
0
41
1
10
33.6212593511998
20
1.08195375930944
30
0
41
1
10
33.626251859667
20
1.00874163687783
30
0
41
1
10
33.6311681439467
20
0.933766373252581
30
0
0
SPLINE
5
19E
100
AcDbEntity
8
1
62
256
6
ByLayer
370
18
48
1
60
0
100
AcDbSpline
70
4
71
3
72
27
73
23
40
0
40
0
40
0
40
0
40
0.125
40
0.125
40
0.1875
40
0.21875
40
0.21875
40
0.25
40
0.25
40
0.375
40
0.375
40
0.5
40
0.5
40
0.625000000000001
40
0.625000000000001
40
0.687500000000001
40
0.687500000000001
40
0.750000000000001
40
0.750000000000001
40
0.875
40
0.875
40
1
40
1
40
1
40
1
41
1
10
28.9439362968198
20
0.0909846277588713
30
0
41
1
10
28.9396918418941
20
0.176428998966855
30
0
41
1
10
28.9354638858954
20
0.26162251580638
30
0
41
1
10
28.9290722278487
20
0.389029689785758
30
0
41
1
10
28.9258637054293
20
0.452637312396661
30
0
41
1
10
28.9226371412622
20
0.516098784064127
30
0
41
1
10
28.9204818396282
20
0.558373567291056
30
0
41
1
10
28.9194005637598
20
0.579523929790952
30
0
41
1
10
28.9140086112359
20
0.684687114156759
30
0
41
1
10
28.909734754425
20
0.767101084814186
30
0
41
1
10
28.901213982488
20
0.928604684421572
30
0
41
1
10
28.8969650011815
20
1.00769390462637
30
0
41
1
10
28.8884082390972
20
1.16255099509652
30
0
41
1
10
28.8841093262231
20
1.23831951383707
30
0
41
1
10
28.877624696251
20
1.3494105786078
30
0
41
1
10
28.8754521382833
20
1.38608647895751
30
0
41
1
10
28.8711353550885
20
1.45778539993495
30
0
41
1
10
28.8689862796327
20
1.49289369408819
30
0
41
1
10
28.8625536895329
20
1.59603404829335
30
0
41
1
10
28.8582800279012
20
1.66188680788176
30
0
41
1
10
28.8497038764323
20
1.78784882558915
30
0
41
1
10
28.8454119649012
20
1.84795857315535
30
0
41
1
10
28.8411094405243
20
1.90514558919071
30
0
0
SPLINE
5
19F
100
AcDbEntity
8
1
62
256
6
ByLayer
370
18
48
1
60
0
100
AcDbSpline
70
4
71
3
72
26
73
22
40
0
40
0
40
0
40
0
40
0.125000000000001
40
0.250000000000001
40
0.250000000000001
40
0.312500000000001
40
0.312500000000001
40
0.375000000000001
40
0.375000000000001
40
0.500000000000001
40
0.500000000000001
40
0.625000000000001
40
0.625000000000001
40
0.687500000000001
40
0.687500000000001
40
0.718750000000001
40
0.718750000000001
40
0.750000000000001
40
0.875000000000001
40
0.875000000000001
40
1
40
1
40
1
40
1
41
1
10
30.6264468095693
20
-1.46633824515101
30
0
41
1
10
30.6221442116711
20
-1.39614758470583
30
0
41
1
10
30.6135853437982
20
-1.25125359473441
30
0
41
1
10
30.605034939007
20
-1.09737451545968
30
0
41
1
10
30.5985595310749
20
-0.97850794230132
30
0
41
1
10
30.5963857154591
20
-0.938194072142778
30
0
41
1
10
30.592062145156
20
-0.857176057085695
30
0
41
1
10
30.589910157384
20
-0.81643357773379
30
0
41
1
10
30.5834794427101
20
-0.693518929561151
30
0
41
1
10
30.5792275049636
20
-0.610661183365067
30
0
41
1
10
30.570734400425
20
-0.443145212966442
30
0
41
1
10
30.5664889862981
20
-0.358487201144044
30
0
41
1
10
30.5600621115993
20
-0.230131206228435
30
0
41
1
10
30.5579122335352
20
-0.187117174500656
30
0
41
1
10
30.5546754094283
20
-0.122246260983587
30
0
41
1
10
30.5535930293599
20
-0.100535926601793
30
0
41
1
10
30.5514348267536
20
-0.0572187666694788
30
0
41
1
10
30.5460511429169
20
0.0508976545927737
30
0
41
1
10
30.5407235455584
20
0.158145052105027
30
0
41
1
10
30.5322032806103
20
0.328652569393711
30
0
41
1
10
30.5279364669009
20
0.413361687336987
30
0
41
1
10
30.5236405827522
20
0.497521935342746
30
0
0
SPLINE
5
1A0
100
AcDbEntity
8
1
62
256
6
ByLayer
370
18
48
1
60
0
100
AcDbSpline
70
4
71
3
72
31
73
27
40
0
40
0
40
0
40
0
40
0.0625000000000006
40
0.0625000000000006
40
0.0937500000000008
40
0.0937500000000008
40
0.125000000000001
40
0.125000000000001
40
0.250000000000001
40
0.375000000000001
40
0.375000000000001
40
0.500000000000001
40
0.500000000000001
40
0.562500000000001
40
0.562500000000001
40
0.625000000000002
40
0.625000000000002
40
0.750000000000001
40
0.750000000000001
40
0.875000000000001
40
0.875000000000001
40
0.9375
40
0.9375
40
0.96875
40
0.96875
40
1
40
1
40
1
40
1
41
1
10
31.2911829489199
20
-0.247903272074524
30
0
41
1
10
31.2933192198577
20
-0.290597980578042
30
0
41
1
10
31.2954642167938
20
-0.333274460785503
30
0
41
1
10
31.2986978306226
20
-0.397261253889525
30
0
41
1
10
31.2997781496021
20
-0.418585540073622
30
0
41
1
10
31.3019435115819
20
-0.461224730959344
30
0
41
1
10
31.3030295838167
20
-0.482559686967477
30
0
41
1
10
31.3084419098118
20
-0.588623363616762
30
0
41
1
10
31.3170234362474
20
-0.755245004094149
30
0
41
1
10
31.3255294562842
20
-0.915894295382202
30
0
41
1
10
31.3340925312947
20
-1.07355643396957
30
0
41
1
10
31.3384066964078
20
-1.15089398549449
30
0
41
1
10
31.344914718339
20
-1.26459383833091
30
0
41
1
10
31.347093458239
20
-1.30215485963794
30
0
41
1
10
31.351417925879
20
-1.37565862087155
30
0
41
1
10
31.3535695179774
20
-1.41170525815585
30
0
41
1
10
31.3600026005136
20
-1.51776543263927
30
0
41
1
10
31.3642616634666
20
-1.5857044088028
30
0
41
1
10
31.372807875823
20
-1.71610729831841
30
0
41
1
10
31.3770890839123
20
-1.77857158099164
30
0
41
1
10
31.3835302027068
20
-1.86808405874166
30
0
41
1
10
31.3856808167597
20
-1.8972228999697
30
0
41
1
10
31.3889164479417
20
-1.93986067601944
30
0
41
1
10
31.3899953660472
20
-1.95387741316975
30
0
41
1
10
31.392145430617
20
-1.98139844554751
30
0
41
1
10
31.393217950745
20
-1.99492092171366
30
0
41
1
10
31.3942885584267
20
-2.0082078047848
30
0
0
SPLINE
5
1A1
100
AcDbEntity
8
1
62
256
6
ByLayer
370
18
48
1
60
0
100
AcDbSpline
70
4
71
3
72
8
73
4
40
0
40
0
40
0
40
0
40
1
40
1
40
1
40
1
41
1
10
32.2355464978467
20
-2.4049047467077
30
0
41
1
10
32.2599698793272
20
-2.41285549237813
30
0
41
1
10
32.2844052132027
20
-2.42048846976186
30
0
41
1
10
32.3088549472739
20
-2.42780340852238
30
0
0
SPLINE
5
1A2
100
AcDbEntity
8
1
62
256
6
ByLayer
370
18
48
1
60
0
100
AcDbSpline
70
4
71
3
72
8
73
4
40
0
40
0
40
0
40
0
40
1
40
1
40
1
40
1
41
1
10
30.5532009292392
20
-1.40676296175857
30
0
41
1
10
30.5776001502392
20
-1.42682049910749
30
0
41
1
10
30.6020139426067
20
-1.44668003414978
30
0
41
1
10
30.6264468095693
20
-1.46633824515101
30
0
0
SPLINE
5
1A3
100
AcDbEntity
8
1
62
256
6
ByLayer
370
18
48
1
60
0
100
AcDbSpline
70
4
71
3
72
14
73
10
40
0
40
0
40
0
40
0
40
0.5
40
0.5
40
0.75
40
0.75
40
0.875
40
0.875
40
1
40
1
40
1
40
1
41
1
10
27.4123301976873
20
1.38837124518028
30
0
41
1
10
27.3107965707142
20
1.43443767489668
30
0
41
1
10
27.2083114582617
20
1.47062168043951
30
0
41
1
10
27.0527354631697
20
1.51073206068139
30
0
41
1
10
27.0005613494165
20
1.52171875985297
30
0
41
1
10
26.9216702121288
20
1.534500235156
30
0
41
1
10
26.8953262032106
20
1.53821356230162
30
0
41
1
10
26.8420661501235
20
1.54398029919446
30
0
41
1
10
26.8150955582301
20
1.54597098554493
30
0
41
1
10
26.7877468540829
20
1.54705829563324
30
0
0
SPLINE
5
1A4
100
AcDbEntity
8
1
62
256
6
ByLayer
370
18
48
1
60
0
100
AcDbSpline
70
4
71
3
72
10
73
6
40
0
40
0
40
0
40
0
40
0.5
40
0.5
40
1
40
1
40
1
40
1
41
1
10
26.7877468540829
20
1.54705829563324
30
0
41
1
10
26.7644238854494
20
1.54798555342757
30
0
41
1
10
26.7396662150822
20
1.55117796547836
30
0
41
1
10
26.6878944658984
20
1.56250981076198
30
0
41
1
10
26.6607321371817
20
1.57072030733011
30
0
41
1
10
26.6332354316113
20
1.5816184579829
30
0
0
SPLINE
5
1A5
100
AcDbEntity
8
1
62
256
6
ByLayer
370
18
48
1
60
0
100
AcDbSpline
70
4
71
3
72
44
73
40
40
0
40
0
40
0
40
0
40
0.0763650306994624
40
0.0763650306994624
40
0.114547546049194
40
0.114547546049194
40
0.152730061398925
40
0.152730061398925
40
0.305460122797858
40
0.305460122797858
40
0.381825153497324
40
0.381825153497324
40
0.420007668847057
40
0.420007668847057
40
0.439098926521922
40
0.439098926521922
40
0.458190184196786
40
0.458190184196786
40
0.49637269954652
40
0.49637269954652
40
0.515463957221388
40
0.534555214896257
40
0.534555214896257
40
0.572737730245994
40
0.572737730245994
40
0.610920245595732
40
0.687285276295202
40
0.687285276295202
40
0.763650306994673
40
0.763650306994673
40
0.840015337694143
40
0.840015337694143
40
0.878197853043879
40
0.878197853043879
40
0.916380368393614
40
0.916380368393614
40
0.992745399093084
40
0.992745399093084
40
1
40
1
40
1
40
1
41
1
10
26.6332354316099
20
1.58161845799475
30
0
41
1
10
26.5467853695483
20
1.61588241001218
30
0
41
1
10
26.4608624389851
20
1.64732998426518
30
0
41
1
10
26.3318060812919
20
1.68979731484035
30
0
41
1
10
26.2886992550312
20
1.70313865266834
30
0
41
1
10
26.2024898199034
20
1.72835686413313
30
0
41
1
10
26.1594156282413
20
1.74024828510213
30
0
41
1
10
25.944256634543
20
1.79617434356138
30
0
41
1
10
25.7726499766182
20
1.82960384937641
30
0
41
1
10
25.515458960811
20
1.86207548620416
30
0
41
1
10
25.4297392272086
20
1.86992829141894
30
0
41
1
10
25.3009477238907
20
1.87703474214064
30
0
41
1
10
25.2579979258017
20
1.87862497647677
30
0
41
1
10
25.1934349753995
20
1.87981032794994
30
0
41
1
10
25.1718795612632
20
1.88000481751172
30
0
41
1
10
25.1286114598262
20
1.87999500080232
30
0
41
1
10
25.106899182743
20
1.87979127606593
30
0
41
1
10
25.0417750812295
20
1.87860279268213
30
0
41
1
10
24.9983913935984
20
1.87703901088278
30
0
41
1
10
24.9334926047473
20
1.87354520882076
30
0
41
1
10
24.8902653415644
20
1.87083275580625
30
0
41
1
10
24.8469684895145
20
1.86738685823408
30
0
41
1
10
24.7820402980127
20
1.86166666210056
30
0
41
1
10
24.7388097897964
20
1.85711315764937
30
0
41
1
10
24.6525940456825
20
1.84649295247914
30
0
41
1
10
24.5235706565796
20
1.82830334145299
30
0
41
1
10
24.3953002013928
20
1.80330664458441
30
0
41
1
10
24.2246650913162
20
1.76385681072654
30
0
41
1
10
24.1395820437236
20
1.74102732631957
30
0
41
1
10
23.9683965601503
20
1.68989168492766
30
0
41
1
10
23.8823141291155
20
1.66161020032604
30
0
41
1
10
23.7525500675221
20
1.61509861973764
30
0
41
1
10
23.7091242497001
20
1.59895836165577
30
0
41
1
10
23.6220208382726
20
1.56534167358228
30
0
41
1
10
23.5784007655752
20
1.54788765951676
30
0
41
1
10
23.447974915861
20
1.49385673872135
30
0
41
1
10
23.3613798069924
20
1.45550759546634
30
0
41
1
10
23.2670767403912
20
1.4108568722138
30
0
41
1
10
23.2588991005562
20
1.40696152696631
30
0
41
1
10
23.2507251264328
20
1.40304473790476
30
0
0
SPLINE
5
1A6
100
AcDbEntity
8
1
62
256
6
ByLayer
370
18
48
1
60
0
100
AcDbSpline
70
4
71
3
72
62
73
58
40
0
40
0
40
0
40
0
40
0.011007926474137
40
0.011007926474137
40
0.0253411449310314
40
0.0253411449310314
40
0.0826740187586112
40
0.0826740187586112
40
0.140006892586191
40
0.140006892586191
40
0.197339766413771
40
0.197339766413771
40
0.211672984870667
40
0.211672984870667
40
0.226006203327563
40
0.226006203327563
40
0.240339421784459
40
0.240339421784459
40
0.254672640241355
40
0.254672640241355
40
0.283339077155148
40
0.283339077155148
40
0.312005514068941
40
0.312005514068941
40
0.369338387896526
40
0.369338387896526
40
0.426671261724111
40
0.426671261724111
40
0.455337698637905
40
0.455337698637905
40
0.484004135551698
40
0.484004135551698
40
0.541337009379289
40
0.541337009379289
40
0.570003446293085
40
0.570003446293085
40
0.598669883206881
40
0.598669883206881
40
0.656002757034472
40
0.656002757034472
40
0.684669193948266
40
0.684669193948266
40
0.713335630862059
40
0.713335630862059
40
0.770668504689647
40
0.770668504689647
40
0.828001378517234
40
0.828001378517234
40
0.856667815431028
40
0.856667815431028
40
0.885334252344822
40
0.885334252344822
40
0.914000689258616
40
0.914000689258616
40
0.942667126172409
40
0.942667126172409
40
1
40
1
40
1
40
1
41
1
10
21.3475583021249
20
1.87999995129795
30
0
41
1
10
21.3670385609737
20
1.87999956910062
30
0
41
1
10
21.3865316810748
20
1.87983867699637
30
0
41
1
10
21.4313658292373
20
1.87910392209281
30
0
41
1
10
21.4567128943224
20
1.87842024482148
30
0
41
1
10
21.583350565863
20
1.87367931808163
30
0
41
1
10
21.6843829680834
20
1.86566143198616
30
0
41
1
10
21.8861924592749
20
1.84154124525713
30
0
41
1
10
21.9869620754868
20
1.8254433636582
30
0
41
1
10
22.1882454088203
20
1.78522728006072
30
0
41
1
10
22.2887116950114
20
1.76107932798939
30
0
41
1
10
22.4143600065343
20
1.72585179186766
30
0
41
1
10
22.4395010120514
20
1.71855892114914
30
0
41
1
10
22.489746127574
20
1.70343814559058
30
0
41
1
10
22.5148284602618
20
1.69559624847997
30
0
41
1
10
22.5650288403429
20
1.67941042651233
30
0
41
1
10
22.5901545260899
20
1.67107140366008
30
0
41
1
10
22.6405563636489
20
1.65396959786236
30
0
41
1
10
22.6658159959809
20
1.64519674370223
30
0
41
1
10
22.7417014133739
20
1.61816690355846
30
0
41
1
10
22.7924599802668
20
1.59921620146295
30
0
41
1
10
22.8943521788622
20
1.55947494554275
30
0
41
1
10
22.9452702070608
20
1.53876319316859
30
0
41
1
10
23.0976401029395
20
1.47433249110168
30
0
41
1
10
23.1988739035447
20
1.42828102841176
30
0
41
1
10
23.4007291321594
20
1.33018499901965
30
0
41
1
10
23.5013097750714
20
1.27809809442272
30
0
41
1
10
23.6518237692607
20
1.19552407180694
30
0
41
1
10
23.7019355672345
20
1.16725807344727
30
0
41
1
10
23.8020374288088
20
1.10921556630123
30
0
41
1
10
23.8520820911409
20
1.0794974259114
30
0
41
1
10
24.0026898853881
20
0.988825369343743
30
0
41
1
10
24.1034845081382
20
0.926077721805768
30
0
41
1
10
24.2556623411803
20
0.82900928997779
30
0
41
1
10
24.3065481444458
20
0.796157011097279
30
0
41
1
10
24.408636007355
20
0.729444722591978
30
0
41
1
10
24.4596147190441
20
0.695734617584719
30
0
41
1
10
24.6120883513348
20
0.59376261056633
30
0
41
1
10
24.7132497284956
20
0.524587877536788
30
0
41
1
10
24.8641785334832
20
0.418925130170806
30
0
41
1
10
24.9143967539033
20
0.383447860626575
30
0
41
1
10
25.0146731547096
20
0.312010985786742
30
0
41
1
10
25.0645726791159
20
0.275829776617257
30
0
41
1
10
25.2147199326343
20
0.167519449482143
30
0
41
1
10
25.3150825191245
20
0.095162455677837
30
0
41
1
10
25.5165512917525
20
-0.0495299093648782
30
0
41
1
10
25.6176782603293
20
-0.121835367119246
30
0
41
1
10
25.7700335002885
20
-0.230131547169236
30
0
41
1
10
25.8209253321843
20
-0.266209377077161
30
0
41
1
10
25.9229458169139
20
-0.338294541585412
30
0
41
1
10
25.9739383124608
20
-0.374203798874987
30
0
41
1
10
26.0756608038448
20
-0.445569177345931
30
0
41
1
10
26.1264277011235
20
-0.481052964761801
30
0
41
1
10
26.2277617679759
20
-0.551630205824523
30
0
41
1
10
26.2782965665543
20
-0.586765629910389
30
0
41
1
10
26.429941356651
20
-0.691121431117978
30
0
41
1
10
26.531325889348
20
-0.758988809536532
30
0
41
1
10
26.6332354316099
20
-0.824870058032644
30
0
0
SPLINE
5
1A7
100
AcDbEntity
8
1
62
256
6
ByLayer
370
18
48
1
60
0
100
AcDbSpline
70
4
71
3
72
12
73
8
40
0
40
0
40
0
40
0
40
0.499999999999957
40
0.499999999999957
40
0.749999999999979
40
0.749999999999979
40
1
40
1
40
1
40
1
41
1
10
26.6332354316099
20
-0.824870058032673
30
0
41
1
10
26.6598045755065
20
-0.842046156880087
30
0
41
1
10
26.6860699873084
20
-0.860212204192123
30
0
41
1
10
26.7248393692729
20
-0.889196864866648
30
0
41
1
10
26.7376585053824
20
-0.899148356547101
30
0
41
1
10
26.763065264245
20
-0.919695291018826
30
0
41
1
10
26.7755705680765
20
-0.93022672016869
30
0
41
1
10
26.7877468540868
20
-0.940934316779732
30
0
0
SPLINE
5
1A8
100
AcDbEntity
8
1
62
256
6
ByLayer
370
18
48
1
60
0
100
AcDbSpline
70
4
71
3
72
10
73
6
40
0
40
0
40
0
40
0
40
0.5
40
0.5
40
1
40
1
40
1
40
1
41
1
10
26.7877468540829
20
-0.940934316783938
30
0
41
1
10
26.8189641076742
20
-0.968386181702272
30
0
41
1
10
26.8502078092085
20
-0.995822244883215
30
0
41
1
10
26.9127329520684
20
-1.05067861011111
30
0
41
1
10
26.9440480776584
20
-1.07806139568484
30
0
41
1
10
26.975281314021
20
-1.10554811723685
30
0
0
SPLINE
5
1A9
100
AcDbEntity
8
1
62
256
6
ByLayer
370
18
48
1
60
0
100
AcDbSpline
70
4
71
3
72
14
73
10
40
0
40
0
40
0
40
0
40
0.25
40
0.25
40
0.5
40
0.5
40
0.75
40
0.75
40
1
40
1
40
1
40
1
41
1
10
26.975281314021
20
-1.10554811723679
30
0
41
1
10
26.9856375582561
20
-1.11191138629331
30
0
41
1
10
26.996157157866
20
-1.11881222990098
30
0
41
1
10
27.0175183717824
20
-1.13389631341352
30
0
41
1
10
27.0280724264863
20
-1.14187714603048
30
0
41
1
10
27.0486357598168
20
-1.1587764467898
30
0
41
1
10
27.0587488027291
20
-1.16780623174944
30
0
41
1
10
27.0770655763722
20
-1.18611554655791
30
0
41
1
10
27.085484325239
20
-1.19561176106725
30
0
41
1
10
27.092196178439
20
-1.20476389759136
30
0
0
SPLINE
5
1AA
100
AcDbEntity
8
1
62
256
6
ByLayer
370
18
48
1
60
0
100
AcDbSpline
70
4
71
3
72
8
73
4
40
0
40
0
40
0
40
0
40
1
40
1
40
1
40
1
41
1
10
27.092196178439
20
-1.20476389759139
30
0
41
1
10
27.09623290086
20
-1.21026828417524
30
0
41
1
10
27.1002672392214
20
-1.21579198002115
30
0
41
1
10
27.1042992151212
20
-1.22133527147713
30
0
0
SPLINE
5
1AB
100
AcDbEntity
8
1
62
256
6
ByLayer
370
18
48
1
60
0
100
AcDbSpline
70
4
71
3
72
10
73
6
40
0
40
0
40
0
40
0
40
0.5
40
0.5
40
1
40
1
40
1
40
1
41
1
10
27.1042992151214
20
-1.22133527147724
30
0
41
1
10
27.1796152963925
20
-1.29016067581313
30
0
41
1
10
27.2539372111179
20
-1.36017820111061
30
0
41
1
10
27.4009881366993
20
-1.50218718210664
30
0
41
1
10
27.4737307668951
20
-1.57416315315328
30
0
41
1
10
27.5458285437473
20
-1.64697478087913
30
0
0
SPLINE
5
1AC
100
AcDbEntity
8
1
62
256
6
ByLayer
370
18
48
1
60
0
100
AcDbSpline
70
4
71
3
72
10
73
6
40
0
40
0
40
0
40
0
40
0.5
40
0.5
40
1
40
1
40
1
40
1
41
1
10
27.5458285437471
20
-1.64697478087933
30
0
41
1
10
27.5749667159233
20
-1.63925499511708
30
0
41
1
10
27.6042571791589
20
-1.62986810601947
30
0
41
1
10
27.6631780224422
20
-1.60753712777989
30
0
41
1
10
27.6927869908946
20
-1.59461813907322
30
0
41
1
10
27.7225955450493
20
-1.57990273117125
30
0
0
SPLINE
5
1AD
100
AcDbEntity
8
1
62
256
6
ByLayer
370
18
48
1
60
0
100
AcDbSpline
70
4
71
3
72
27
73
23
40
0
40
0
40
0
40
0
40
0.125
40
0.125
40
0.25
40
0.25
40
0.375
40
0.375
40
0.5
40
0.5
40
0.625
40
0.625
40
0.6875
40
0.6875
40
0.75
40
0.8125
40
0.8125
40
0.875
40
0.875
40
0.9375
40
0.9375
40
1
40
1
40
1
40
1
41
1
10
27.7225955450493
20
-1.57990273117127
30
0
41
1
10
27.7284098240453
20
-1.57703243136947
30
0
41
1
10
27.7351842494307
20
-1.57546587371863
30
0
41
1
10
27.7501984304404
20
-1.57428649731409
30
0
41
1
10
27.7585368015425
20
-1.57471289758252
30
0
41
1
10
27.775910346028
20
-1.57730455118221
30
0
41
1
10
27.7849888911034
20
-1.57945227988097
30
0
41
1
10
27.80386635365
20
-1.58537173749505
30
0
41
1
10
27.8137257212074
20
-1.58918287448341
30
0
41
1
10
27.8334269656437
20
-1.59824789418599
30
0
41
1
10
27.8433497359667
20
-1.60351753808933
30
0
41
1
10
27.858323553008
20
-1.61269110657489
30
0
41
1
10
27.8633591270767
20
-1.61598379136598
30
0
41
1
10
27.8732904375905
20
-1.62294081974488
30
0
41
1
10
27.8830737829981
20
-1.63025758944298
30
0
41
1
10
27.8925261547589
20
-1.63836234744372
30
0
41
1
10
27.9017850824703
20
-1.64692162311221
30
0
41
1
10
27.9063212414159
20
-1.65143877152386
30
0
41
1
10
27.9148895172789
20
-1.66071976610968
30
0
41
1
10
27.9189567070021
20
-1.66551321540487
30
0
41
1
10
27.9265902587318
20
-1.67545284366403
30
0
41
1
10
27.9301617871769
20
-1.68061578171938
30
0
41
1
10
27.9333347264077
20
-1.68583785470147
30
0
0
SPLINE
5
1AE
100
AcDbEntity
8
1
62
256
6
ByLayer
370
18
48
1
60
0
100
AcDbSpline
70
4
71
3
72
10
73
6
40
0
40
0
40
0
40
0
40
0.5
40
0.5
40
1
40
1
40
1
40
1
41
1
10
27.9333347264089
20
-1.68583785470213
30
0
41
1
10
27.9796458775765
20
-1.76205747118465
30
0
41
1
10
28.0255846133984
20
-1.8396508279516
30
0
41
1
10
28.1169460552223
20
-1.99740756222545
30
0
41
1
10
28.1622260554775
20
-2.07731584206212
30
0
41
1
10
28.2071972335147
20
-2.15810756735112
30
0
0
SPLINE
5
1AF
100
AcDbEntity
8
1
62
256
6
ByLayer
370
18
48
1
60
0
100
AcDbSpline
70
4
71
3
72
8
73
4
40
0
40
0
40
0
40
0
40
1
40
1
40
1
40
1
41
1
10
28.2805366123658
20
-2.19531281877738
30
0
41
1
10
28.2560777744749
20
-2.18319263937477
30
0
41
1
10
28.2316318161029
20
-2.17079051338692
30
0
41
1
10
28.2071972335147
20
-2.15810756735115
30
0
0
SPLINE
5
1B0
100
AcDbEntity
8
1
62
256
6
ByLayer
370
18
48
1
60
0
100
AcDbSpline
70
4
71
3
72
8
73
4
40
0
40
0
40
0
40
0
40
1
40
1
40
1
40
1
41
1
10
29.1215791978447
20
-2.49465896836927
30
0
41
1
10
29.097121141166
20
-2.48962735532771
30
0
41
1
10
29.0726971012715
20
-2.48426398397444
30
0
41
1
10
29.0483033195985
20
-2.47856948440492
30
0
0
SPLINE
5
1B1
100
AcDbEntity
8
1
62
256
6
ByLayer
370
18
48
1
60
0
100
AcDbSpline
70
4
71
3
72
14
73
10
40
0
40
0
40
0
40
0
40
0.12500000000001
40
0.12500000000001
40
0.25000000000002
40
0.25000000000002
40
0.50000000000002
40
0.50000000000002
40
1
40
1
40
1
40
1
41
1
10
35.0025807688756
20
1.14741975076581
30
0
41
1
10
35.0270145119497
20
1.12650409666054
30
0
41
1
10
35.0515238728284
20
1.1054602438399
30
0
41
1
10
35.1004294986413
20
1.06327604353137
30
0
41
1
10
35.1248402124898
20
1.04210464467448
30
0
41
1
10
35.1980705049921
20
0.978488423526983
30
0
41
1
10
35.2469664002952
20
0.936026808848794
30
0
41
1
10
35.394037935569
20
0.808677513972441
30
0
41
1
10
35.4924995078658
20
0.7237169287813
30
0
41
1
10
35.5917135012001
20
0.639106357071284
30
0
0
SPLINE
5
1B2
100
AcDbEntity
8
1
62
256
6
ByLayer
370
18
48
1
60
0
100
AcDbSpline
70
4
71
3
72
17
73
13
40
0
40
0
40
0
40
0
40
0.249999999999999
40
0.249999999999999
40
0.499999999999999
40
0.499999999999999
40
0.624999999999999
40
0.624999999999999
40
0.749999999999999
40
0.875
40
0.875
40
1
40
1
40
1
40
1
41
1
10
35.5917135012001
20
0.639106357071256
30
0
41
1
10
35.6002372967934
20
0.62894830283031
30
0
41
1
10
35.6098472800838
20
0.618663926025107
30
0
41
1
10
35.629904040193
20
0.598936859484581
30
0
41
1
10
35.6404242068365
20
0.589401200962385
30
0
41
1
10
35.6568879209545
20
0.57554072867967
30
0
41
1
10
35.6624919543585
20
0.570996592709946
30
0
41
1
10
35.6736810818541
20
0.56224859783589
30
0
41
1
10
35.6849118091323
20
0.553788774127639
30
0
41
1
10
35.6962128840284
20
0.545898959145461
30
0
41
1
10
35.7075452452031
20
0.538309011580367
30
0
41
1
10
35.7132634708331
20
0.534642463741932
30
0
41
1
10
35.7188763423062
20
0.531216140201451
30
0
0
SPLINE
5
1B3
100
AcDbEntity
8
1
62
256
6
ByLayer
370
18
48
1
60
0
100
AcDbSpline
70
4
71
3
72
8
73
4
40
0
40
0
40
0
40
0
40
1
40
1
40
1
40
1
41
1
10
35.7188763423062
20
0.531216140201451
30
0
41
1
10
35.7378380784407
20
0.515221831437657
30
0
41
1
10
35.756834814608
20
0.499249398149743
30
0
41
1
10
35.7758754765806
20
0.483309060418634
30
0
0
SPLINE
5
1B4
100
AcDbEntity
8
1
62
256
6
ByLayer
370
18
48
1
60
0
100
AcDbSpline
70
4
71
3
72
86
73
82
40
0
40
0
40
0
40
0
40
0.0156249999999952
40
0.0156249999999952
40
0.0312499999999904
40
0.0312499999999904
40
0.0624999999999845
40
0.0624999999999845
40
0.124999999999972
40
0.124999999999972
40
0.187499999999961
40
0.187499999999961
40
0.218749999999955
40
0.218749999999955
40
0.249999999999949
40
0.249999999999949
40
0.281249999999942
40
0.281249999999942
40
0.312499999999936
40
0.312499999999936
40
0.34374999999993
40
0.34374999999993
40
0.359374999999929
40
0.359374999999929
40
0.374999999999927
40
0.374999999999927
40
0.390624999999925
40
0.390624999999925
40
0.406249999999924
40
0.406249999999924
40
0.43749999999992
40
0.43749999999992
40
0.468749999999917
40
0.468749999999917
40
0.499999999999913
40
0.499999999999913
40
0.53124999999991
40
0.53124999999991
40
0.546874999999908
40
0.546874999999908
40
0.562499999999906
40
0.578124999999904
40
0.585937499999903
40
0.585937499999903
40
0.593749999999902
40
0.593749999999902
40
0.6249999999999
40
0.6249999999999
40
0.640624999999899
40
0.640624999999899
40
0.656249999999898
40
0.656249999999898
40
0.687499999999899
40
0.687499999999899
40
0.703124999999899
40
0.703124999999899
40
0.710937499999901
40
0.710937499999901
40
0.718749999999903
40
0.718749999999903
40
0.734374999999907
40
0.734374999999907
40
0.74999999999991
40
0.74999999999991
40
0.781249999999922
40
0.781249999999922
40
0.796874999999928
40
0.796874999999928
40
0.812499999999933
40
0.812499999999933
40
0.843749999999944
40
0.843749999999944
40
0.874999999999955
40
0.874999999999955
40
0.890624999999961
40
0.890624999999961
40
0.906249999999967
40
0.906249999999967
40
0.937499999999978
40
0.937499999999978
40
1
40
1
40
1
40
1
41
1
10
35.7348268017354
20
2.06081481644483
30
0
41
1
10
35.7487333075763
20
2.04765630965264
30
0
41
1
10
35.7626927854883
20
2.03438558749877
30
0
41
1
10
35.7906802894842
20
2.00767677147101
30
0
41
1
10
35.8046553450404
20
1.99430593306062
30
0
41
1
10
35.8463929454267
20
1.95429283431986
30
0
41
1
10
35.8740280522781
20
1.92767371382712
30
0
41
1
10
35.9564121830201
20
1.84778944616482
30
0
41
1
10
36.010628620591
20
1.79451485302511
30
0
41
1
10
36.1175819458661
20
1.68723900418863
30
0
41
1
10
36.1703257910383
20
1.63323800912261
30
0
41
1
10
36.2480954499997
20
1.55125498985265
30
0
41
1
10
36.2737866536765
20
1.52377005296805
30
0
41
1
10
36.3245254745366
20
1.46847614675801
30
0
41
1
10
36.3495620755308
20
1.44067431297921
30
0
41
1
10
36.3988625533734
20
1.38464172985974
30
0
41
1
10
36.4231394922838
20
1.3564032063716
30
0
41
1
10
36.4707865701945
20
1.2993561252338
30
0
41
1
10
36.4941558889529
20
1.27055035829289
30
0
41
1
10
36.5396633032172
20
1.21225589663922
30
0
41
1
10
36.5618061027645
20
1.1827666022902
30
0
41
1
10
36.5937740264195
20
1.1378752774809
30
0
41
1
10
36.6042073151202
20
1.1228221673943
30
0
41
1
10
36.6244958791197
20
1.09258943595461
30
0
41
1
10
36.6343411640185
20
1.07740785039471
30
0
41
1
10
36.6534503702078
20
1.04684947337753
30
0
41
1
10
36.6627417715163
20
1.03145970193606
30
0
41
1
10
36.6809877049174
20
1.00033826444914
30
0
41
1
10
36.689912609542
20
0.984620059367074
30
0
41
1
10
36.7159858695177
20
0.936974991611635
30
0
41
1
10
36.7324491717075
20
0.904556081272204
30
0
41
1
10
36.7628864399238
20
0.8382408814727
30
0
41
1
10
36.7767809412297
20
0.804503456882856
30
0
41
1
10
36.8008931986895
20
0.736189483925529
30
0
41
1
10
36.8111366585693
20
0.70156481067562
30
0
41
1
10
36.8267649471291
20
0.63146507603679
30
0
41
1
10
36.8321543722541
20
0.59598675947629
30
0
41
1
10
36.8353184615838
20
0.542291809964723
30
0
41
1
10
36.8355364884203
20
0.52429724376131
30
0
41
1
10
36.8341306166963
20
0.488946767326127
30
0
41
1
10
36.8308993418524
20
0.454061046352479
30
0
41
1
10
36.8220806285695
20
0.411882418896227
30
0
41
1
10
36.8145661135571
20
0.387343434256025
30
0
41
1
10
36.8090568132839
20
0.371169264132789
30
0
41
1
10
36.8060423446417
20
0.363151848612631
30
0
41
1
10
36.7898413834113
20
0.323875042773864
30
0
41
1
10
36.7733616599225
20
0.295172072167901
30
0
41
1
10
36.744338233306
20
0.256118151785415
30
0
41
1
10
36.7339449118092
20
0.24376628525377
30
0
41
1
10
36.711856449428
20
0.220382342109161
30
0
41
1
10
36.7001455734856
20
0.209349916981097
30
0
41
1
10
36.6639565834134
20
0.178759158407388
30
0
41
1
10
36.6382274763281
20
0.161446987158484
30
0
41
1
10
36.5978887429111
20
0.139579692064672
30
0
41
1
10
36.5841472299865
20
0.132978141544015
30
0
41
1
10
36.563142512046
20
0.124071920881363
30
0
41
1
10
36.5560749983845
20
0.121270435987213
30
0
41
1
10
36.5418206429944
20
0.115979783015462
30
0
41
1
10
36.534622865921
20
0.113476956370874
30
0
41
1
10
36.5129919984522
20
0.106597079831118
30
0
41
1
10
36.4984862787734
20
0.102903437989113
30
0
41
1
10
36.4693147604855
20
0.0976661771161389
30
0
41
1
10
36.4546555163113
20
0.0960297044030369
30
0
41
1
10
36.41051074497
20
0.0936611484154639
30
0
41
1
10
36.3808668895644
20
0.0953795751686641
30
0
41
1
10
36.3361371391619
20
0.102129409626684
30
0
41
1
10
36.3211758014381
20
0.105110708609516
30
0
41
1
10
36.2915933530065
20
0.112317927812256
30
0
41
1
10
36.2769134331714
20
0.11654640106849
30
0
41
1
10
36.2331564614086
20
0.13090788657891
30
0
41
1
10
36.2043586619035
20
0.142695284517174
30
0
41
1
10
36.1473201071798
20
0.170162398888692
30
0
41
1
10
36.1190843174812
20
0.185871077889544
30
0
41
1
10
36.0770418011228
20
0.212208916442251
30
0
41
1
10
36.06306081611
20
0.221465647220072
30
0
41
1
10
36.0354429990821
20
0.240696314081703
30
0
41
1
10
36.0217751835579
20
0.250688323295122
30
0
41
1
10
35.9811524562112
20
0.281736311898783
30
0
41
1
10
35.9545766435786
20
0.303860625985806
30
0
41
1
10
35.8761022210852
20
0.374208409009384
30
0
41
1
10
35.8254876076261
20
0.426489791940384
30
0
41
1
10
35.7758754765807
20
0.483309060418691
30
0
0
SPLINE
5
1B5
100
AcDbEntity
8
1
62
256
6
ByLayer
370
18
48
1
60
0
100
AcDbSpline
70
4
71
3
72
8
73
4
40
0
40
0
40
0
40
0
40
1
40
1
40
1
40
1
41
1
10
35.7348268017352
20
2.06081481644409
30
0
41
1
10
35.6901934409271
20
2.06858243399284
30
0
41
1
10
35.6458241709375
20
2.07542494587099
30
0
41
1
10
35.6016444491881
20
2.08134164859067
30
0
0
SPLINE
5
1B6
100
AcDbEntity
8
1
62
256
6
ByLayer
370
18
48
1
60
0
100
AcDbSpline
70
4
71
3
72
8
73
4
40
0
40
0
40
0
40
0
40
1
40
1
40
1
40
1
41
1
10
35.6016444491881
20
2.08134164859067
30
0
41
1
10
35.5995880649845
20
2.07771924765285
30
0
41
1
10
35.5975310528748
20
2.07409258749266
30
0
41
1
10
35.5954733953202
20
2.07046165735883
30
0
0
SPLINE
5
1B7
100
AcDbEntity
8
1
62
256
6
ByLayer
370
18
48
1
60
0
100
AcDbSpline
70
4
71
3
72
26
73
22
40
0
40
0
40
0
40
0
40
0.124999999999942
40
0.124999999999942
40
0.249999999999884
40
0.249999999999884
40
0.374999999999826
40
0.374999999999826
40
0.437499999999822
40
0.437499999999822
40
0.499999999999818
40
0.499999999999818
40
0.624999999999864
40
0.624999999999864
40
0.687499999999887
40
0.687499999999887
40
0.749999999999909
40
0.749999999999909
40
0.874999999999955
40
0.874999999999955
40
1
40
1
40
1
40
1
41
1
10
35.5954733953202
20
2.07046165735883
30
0
41
1
10
35.5898224970487
20
2.06049011628699
30
0
41
1
10
35.5832626219825
20
2.05164982715456
30
0
41
1
10
35.5687176504074
20
2.03572055647655
30
0
41
1
10
35.5606562038958
20
2.02860599736212
30
0
41
1
10
35.5437187076315
20
2.01641448341789
30
0
41
1
10
35.5348056406102
20
2.01127968511602
30
0
41
1
10
35.5207966525958
20
2.00499455775221
30
0
41
1
10
35.5160152066411
20
2.00313987486137
30
0
41
1
10
35.5064038812934
20
1.99998061006764
30
0
41
1
10
35.501553748966
20
1.99866598164351
30
0
41
1
10
35.486873908003
20
1.99553226218737
30
0
41
1
10
35.4769166900219
20
1.99450722254949
30
0
41
1
10
35.4617108666377
20
1.99486424112828
30
0
41
1
10
35.4565916322379
20
1.9953085439902
30
0
41
1
10
35.4465056410477
20
1.99688955622395
30
0
41
1
10
35.4415094629247
20
1.99802500152523
30
0
41
1
10
35.4266860830861
20
2.00258772128635
30
0
41
1
10
35.4169237518376
20
2.00723983554019
30
0
41
1
10
35.399229208713
20
2.02007025058492
30
0
41
1
10
35.3911006978948
20
2.0284062426768
30
0
41
1
10
35.3846429002591
20
2.03857412694356
30
0
0
SPLINE
5
1B8
100
AcDbEntity
8
1
62
256
6
ByLayer
370
18
48
1
60
0
100
AcDbSpline
70
4
71
3
72
8
73
4
40
0
40
0
40
0
40
0
40
1
40
1
40
1
40
1
41
1
10
35.3846429002591
20
2.03857412694356
30
0
41
1
10
35.37034194139
20
2.06109116802898
30
0
41
1
10
35.3560681984186
20
2.0834366712098
30
0
41
1
10
35.341819412745
20
2.10561058486186
30
0
0
SPLINE
5
1B9
100
AcDbEntity
8
1
62
256
6
ByLayer
370
18
48
1
60
0
100
AcDbSpline
70
4
71
3
72
12
73
8
40
0
40
0
40
0
40
0
40
0.250000000000007
40
0.250000000000007
40
0.500000000000013
40
0.500000000000013
40
1
40
1
40
1
40
1
41
1
10
35.3418194127449
20
2.10561058486186
30
0
41
1
10
35.3022098020554
20
2.10768240373452
30
0
41
1
10
35.2626859689544
20
2.108991238957
30
0
41
1
10
35.1837359420021
20
2.11009793516794
30
0
41
1
10
35.1442738993622
20
2.10992229220008
30
0
41
1
10
35.0262256707774
20
2.10694546340889
30
0
41
1
10
34.9474861761805
20
2.10205224457104
30
0
41
1
10
34.8688466629285
20
2.09401300393503
30
0
0
SPLINE
5
1BA
100
AcDbEntity
8
1
62
256
6
ByLayer
370
18
48
1
60
0
100
AcDbSpline
70
4
71
3
72
12
73
8
40
0
40
0
40
0
40
0
40
0.25
40
0.25
40
0.5
40
0.5
40
1
40
1
40
1
40
1
41
1
10
27.6189285383082
20
-2.42093797139754
30
0
41
1
10
27.5888939519569
20
-2.40182577346039
30
0
41
1
10
27.5587403986838
20
-2.38201349511877
30
0
41
1
10
27.4981000646641
20
-2.34100142080447
30
0
41
1
10
27.4676689422089
20
-2.3198298226238
30
0
41
1
10
27.3759982945057
20
-2.25435991125835
30
0
41
1
10
27.3143466709025
20
-2.20809448557733
30
0
41
1
10
27.2520595076977
20
-2.15930219240832
30
0
0
SPLINE
5
1BB
100
AcDbEntity
8
1
62
256
6
ByLayer
370
18
48
1
60
0
100
AcDbSpline
70
4
71
3
72
8
73
4
40
0
40
0
40
0
40
0
40
1
40
1
40
1
40
1
41
1
10
27.2520595076977
20
-2.15930219240829
30
0
41
1
10
27.2294433492989
20
-2.11815431554666
30
0
41
1
10
27.2067595003495
20
-2.07658363502531
30
0
41
1
10
27.1839968332513
20
-2.0345968122285
30
0
0
SPLINE
5
1BC
100
AcDbEntity
8
1
62
256
6
ByLayer
370
18
48
1
60
0
100
AcDbSpline
70
4
71
3
72
23
73
19
40
0
40
0
40
0
40
0
40
0.125000000000016
40
0.125000000000016
40
0.250000000000032
40
0.250000000000032
40
0.375000000000048
40
0.375000000000048
40
0.500000000000064
40
0.500000000000064
40
0.750000000000032
40
0.750000000000032
40
0.812500000000024
40
0.812500000000024
40
0.875000000000016
40
0.937500000000008
40
0.937500000000008
40
1
40
1
40
1
40
1
41
1
10
27.1839968332512
20
-2.03459681222856
30
0
41
1
10
27.1793584656355
20
-2.02604112240951
30
0
41
1
10
27.1740996796286
20
-2.01821997365107
30
0
41
1
10
27.1625807968513
20
-2.00375232534844
30
0
41
1
10
27.1562902219674
20
-1.99708644118743
30
0
41
1
10
27.1428930969791
20
-1.98495664193234
30
0
41
1
10
27.1358774348673
20
-1.97956735386231
30
0
41
1
10
27.1212702122765
20
-1.97003478273879
30
0
41
1
10
27.1136413310007
20
-1.96587634649236
30
0
41
1
10
27.0901318514811
20
-1.95544668703764
30
0
41
1
10
27.0739994365477
20
-1.95125886414846
30
0
41
1
10
27.0532777094827
20
-1.95006024492793
30
0
41
1
10
27.0490871966692
20
-1.95003215765155
30
0
41
1
10
27.0407938344504
20
-1.9504356319641
30
0
41
1
10
27.032563406905
20
-1.95129358179159
30
0
41
1
10
27.0244734923478
20
-1.95312552892133
30
0
41
1
10
27.0164643453017
20
-1.9554995242633
30
0
41
1
10
27.0124763594777
20
-1.95696882875367
30
0
41
1
10
27.008601465841
20
-1.95872331090234
30
0
0
SPLINE
5
1BD
100
AcDbEntity
8
1
62
256
6
ByLayer
370
18
48
1
60
0
100
AcDbSpline
70
4
71
3
72
12
73
8
40
0
40
0
40
0
40
0
40
0.500000000000021
40
0.500000000000021
40
0.750000000000011
40
0.750000000000011
40
1
40
1
40
1
40
1
41
1
10
27.008601465841
20
-1.95872331090237
30
0
41
1
10
26.9721597399517
20
-1.92730382254999
30
0
41
1
10
26.935640975696
20
-1.89522630184371
30
0
41
1
10
26.8806773549185
20
-1.84614933058114
30
0
41
1
10
26.8622888808627
20
-1.82962783931165
30
0
41
1
10
26.8252192508633
20
-1.79627045927413
30
0
41
1
10
26.8065530874368
20
-1.7794355324931
30
0
41
1
10
26.7877468540829
20
-1.76245357146561
30
0
0
SPLINE
5
1BE
100
AcDbEntity
8
1
62
256
6
ByLayer
370
18
48
1
60
0
100
AcDbSpline
70
4
71
3
72
10
73
6
40
0
40
0
40
0
40
0
40
0.5
40
0.5
40
1
40
1
40
1
40
1
41
1
10
26.7877468540829
20
-1.76245357146561
30
0
41
1
10
26.7644238854494
20
-1.74139301473818
30
0
41
1
10
26.7396662150822
20
-1.72329944388613
30
0
41
1
10
26.6878944658984
20
-1.69271652754179
30
0
41
1
10
26.6607321371817
20
-1.68019706540886
30
0
41
1
10
26.6332354316113
20
-1.67095824477548
30
0
0
SPLINE
5
1BF
100
AcDbEntity
8
1
62
256
6
ByLayer
370
18
48
1
60
0
100
AcDbSpline
70
4
71
3
72
104
73
100
40
0
40
0
40
0
40
0
40
0.0312499999999969
40
0.0312499999999969
40
0.0468749999999961
40
0.0468749999999961
40
0.0624999999999954
40
0.0624999999999954
40
0.124999999999994
40
0.124999999999994
40
0.156249999999993
40
0.156249999999993
40
0.171874999999992
40
0.171874999999992
40
0.179687499999992
40
0.179687499999992
40
0.187499999999993
40
0.187499999999993
40
0.203124999999995
40
0.203124999999995
40
0.210937499999997
40
0.218749999999999
40
0.218749999999999
40
0.234375000000004
40
0.234375000000004
40
0.250000000000008
40
0.281250000000014
40
0.281250000000014
40
0.312500000000021
40
0.312500000000021
40
0.343750000000028
40
0.343750000000028
40
0.359375000000031
40
0.359375000000031
40
0.375000000000034
40
0.375000000000034
40
0.406250000000043
40
0.406250000000043
40
0.437500000000051
40
0.437500000000051
40
0.46875000000006
40
0.46875000000006
40
0.484375000000064
40
0.484375000000064
40
0.500000000000068
40
0.500000000000068
40
0.507812500000069
40
0.507812500000069
40
0.515625000000071
40
0.515625000000071
40
0.531250000000072
40
0.531250000000072
40
0.546875000000072
40
0.546875000000072
40
0.562500000000073
40
0.562500000000073
40
0.593750000000075
40
0.593750000000075
40
0.625000000000077
40
0.625000000000077
40
0.640625000000077
40
0.640625000000077
40
0.656250000000077
40
0.656250000000077
40
0.687500000000075
40
0.687500000000075
40
0.718750000000074
40
0.718750000000074
40
0.734375000000073
40
0.734375000000073
40
0.750000000000072
40
0.750000000000072
40
0.781250000000069
40
0.781250000000069
40
0.796875000000067
40
0.796875000000067
40
0.812500000000064
40
0.812500000000064
40
0.820312500000062
40
0.820312500000062
40
0.82812500000006
40
0.82812500000006
40
0.843750000000054
40
0.843750000000054
40
0.859375000000049
40
0.859375000000049
40
0.875000000000043
40
0.906250000000033
40
0.906250000000033
40
0.921875000000028
40
0.921875000000028
40
0.937500000000023
40
0.937500000000023
40
0.953125000000018
40
0.953125000000018
40
0.960937500000016
40
0.968750000000013
40
0.968750000000013
40
1
40
1
40
1
40
1
41
1
10
26.6332354316099
20
-1.67095824478829
30
0
41
1
10
26.5467853695483
20
-1.64191125168298
30
0
41
1
10
26.4608624389851
20
-1.61008221769123
30
0
41
1
10
26.3318060812919
20
-1.55902035830957
30
0
41
1
10
26.2886992550311
20
-1.54149876561647
30
0
41
1
10
26.2024898199034
20
-1.505349623326
30
0
41
1
10
26.1594156282414
20
-1.48669713781916
30
0
41
1
10
25.944256634543
20
-1.39051336641734
30
0
41
1
10
25.7726499766182
20
-1.30440815259416
30
0
41
1
10
25.515458960811
20
-1.16169189334335
30
0
41
1
10
25.4297392272086
20
-1.11187347902512
30
0
41
1
10
25.3009477238908
20
-1.03390146813589
30
0
41
1
10
25.2579979258017
20
-1.00735000313489
30
0
41
1
10
25.1934349753996
20
-0.966795440626299
30
0
41
1
10
25.1718795612632
20
-0.953169928827606
30
0
41
1
10
25.1286114598262
20
-0.925817701249031
30
0
41
1
10
25.106899182743
20
-0.912119429880192
30
0
41
1
10
25.0417750812295
20
-0.870960660517198
30
0
41
1
10
24.9983913935984
20
-0.843296495132904
30
0
41
1
10
24.9334926047473
20
-0.801302073031621
30
0
41
1
10
24.8902653415644
20
-0.773165420474953
30
0
41
1
10
24.8469684895146
20
-0.74494240171947
30
0
41
1
10
24.7820402980127
20
-0.702454773149128
30
0
41
1
10
24.7388097897964
20
-0.673883508401531
30
0
41
1
10
24.6525940456826
20
-0.61606873393356
30
0
41
1
10
24.5235706565796
20
-0.528426700006122
30
0
41
1
10
24.3953002013928
20
-0.438205822349232
30
0
41
1
10
24.2246650913162
20
-0.315954387014955
30
0
41
1
10
24.1395820437236
20
-0.253790867322579
30
0
41
1
10
23.9683965601504
20
-0.129453920735813
30
0
41
1
10
23.8823141291157
20
-0.0672609554148949
30
0
41
1
10
23.7525500675222
20
0.0261893107303877
30
0
41
1
10
23.7091242497001
20
0.057273621097977
30
0
41
1
10
23.6220208382726
20
0.119440757774328
30
0
41
1
10
23.5784007655753
20
0.150476559961277
30
0
41
1
10
23.447974915861
20
0.24300843685603
30
0
41
1
10
23.3613798069924
20
0.304136953731103
30
0
41
1
10
23.1891366043448
20
0.425616406444135
30
0
41
1
10
23.1034388837419
20
0.485893164708415
30
0
41
1
10
22.9325185881695
20
0.604979279937993
30
0
41
1
10
22.8473288080699
20
0.66383105747434
30
0
41
1
10
22.7194967526122
20
0.75044851175096
30
0
41
1
10
22.6768658877013
20
0.779028472992223
30
0
41
1
10
22.5914210348364
20
0.835421933075622
30
0
41
1
10
22.5485660902655
20
0.863183317608105
30
0
41
1
10
22.4840009078233
20
0.904076501886379
30
0
41
1
10
22.4624426711061
20
0.917596049777188
30
0
41
1
10
22.4192204038069
20
0.944373006986808
30
0
41
1
10
22.3975663090675
20
0.957642991907193
30
0
41
1
10
22.33262192673
20
0.997277778348604
30
0
41
1
10
22.2893155718319
20
1.02342460240192
30
0
41
1
10
22.2025648544386
20
1.07501063172234
30
0
41
1
10
22.1590843192045
20
1.1004649228025
30
0
41
1
10
22.0720336425659
20
1.15046541406997
30
0
41
1
10
22.0286140956416
20
1.17494206249322
30
0
41
1
10
21.8987016816642
20
1.2468513554833
30
0
41
1
10
21.8126002517298
20
1.29281161201465
30
0
41
1
10
21.6411065108949
20
1.38043600975774
30
0
41
1
10
21.5556958779488
20
1.42207990069863
30
0
41
1
10
21.4277747555929
20
1.4809809037753
30
0
41
1
10
21.3852014811581
20
1.50004783565223
30
0
41
1
10
21.2997529347946
20
1.53669039728527
30
0
41
1
10
21.256804504858
20
1.55421176751776
30
0
41
1
10
21.1276752360749
20
1.60475766919657
30
0
41
1
10
21.0413408126826
20
1.63586578683578
30
0
41
1
10
20.8684998142624
20
1.6930914792421
30
0
41
1
10
20.7819890735617
20
1.71919642404265
30
0
41
1
10
20.651905315356
20
1.75432471610344
30
0
41
1
10
20.6084194700857
20
1.76537862818142
30
0
41
1
10
20.5217549306044
20
1.78599190426979
30
0
41
1
10
20.4785739489542
20
1.79555626007277
30
0
41
1
10
20.3494302673924
20
1.82199599821806
30
0
41
1
10
20.2638542493895
20
1.8366061128271
30
0
41
1
10
20.1358132642883
20
1.85385988468741
30
0
41
1
10
20.0931863727182
20
1.85883534096979
30
0
41
1
10
20.0079601119525
20
1.86722615838713
30
0
41
1
10
19.9654136428318
20
1.87064379660165
30
0
41
1
10
19.9011373046389
20
1.87456409903069
30
0
41
1
10
19.8796848263566
20
1.87567813276911
30
0
41
1
10
19.8368020234658
20
1.87753043895981
30
0
41
1
10
19.8153453681053
20
1.87826593358966
30
0
41
1
10
19.7508963749367
20
1.87990412246714
30
0
41
1
10
19.7078639925697
20
1.88024223784331
30
0
41
1
10
19.6217483693434
20
1.87941975133469
30
0
41
1
10
19.5786620478471
20
1.87825918988651
30
0
41
1
10
19.4925105836796
20
1.8744170966946
30
0
41
1
10
19.3633258705478
20
1.8663676265038
30
0
41
1
10
19.2340493890105
20
1.85132777352737
30
0
41
1
10
19.1044003694207
20
1.83147113741558
30
0
41
1
10
19.0610995292671
20
1.82404133865003
30
0
41
1
10
18.9748874094414
20
1.80767721752298
30
0
41
1
10
18.9319012420572
20
1.79873448309382
30
0
41
1
10
18.8460312704691
20
1.77940124865614
30
0
41
1
10
18.8031916237792
20
1.76898776794937
30
0
41
1
10
18.7387127227404
20
1.75245392336805
30
0
41
1
10
18.6956075382743
20
1.74115436373731
30
0
41
1
10
18.6525364541689
20
1.72917301827135
30
0
41
1
10
18.5449163907977
20
1.69836121700925
30
0
41
1
10
18.4589734336473
20
1.67098343143832
30
0
41
1
10
18.3730705427835
20
1.64095927966588
30
0
0
SPLINE
5
1C0
100
AcDbEntity
8
1
62
256
6
ByLayer
370
18
48
1
60
0
100
AcDbSpline
70
4
71
3
72
96
73
92
40
0
40
0
40
0
40
0
40
0.0334952259845064
40
0.0334952259845064
40
0.0502428389767589
40
0.0502428389767589
40
0.0669904519690113
40
0.0669904519690113
40
0.100485677953516
40
0.100485677953516
40
0.133980903938021
40
0.133980903938021
40
0.150728516930274
40
0.150728516930274
40
0.167476129922526
40
0.167476129922526
40
0.184223742914779
40
0.184223742914779
40
0.200971355907031
40
0.200971355907031
40
0.234466581891534
40
0.234466581891534
40
0.267961807876038
40
0.267961807876038
40
0.301457033860541
40
0.301457033860541
40
0.318204646852794
40
0.318204646852794
40
0.334952259845046
40
0.334952259845046
40
0.351699872837299
40
0.351699872837299
40
0.368447485829551
40
0.368447485829551
40
0.401942711814055
40
0.401942711814055
40
0.435437937798558
40
0.435437937798558
40
0.468933163783061
40
0.468933163783061
40
0.485680776775313
40
0.485680776775313
40
0.49405458327144
40
0.49405458327144
40
0.502428389767566
40
0.502428389767566
40
0.535923615752073
40
0.535923615752073
40
0.569418841736579
40
0.569418841736579
40
0.602914067721085
40
0.602914067721085
40
0.611287874217212
40
0.611287874217212
40
0.619661680713338
40
0.619661680713338
40
0.628035487209464
40
0.628035487209464
40
0.636409293705591
40
0.636409293705591
40
0.653156906697841
40
0.653156906697841
40
0.669904519690092
40
0.669904519690092
40
0.703399745674594
40
0.703399745674594
40
0.736894971659095
40
0.736894971659095
40
0.753642584651346
40
0.753642584651346
40
0.770390197643596
40
0.770390197643596
40
0.803885423628094
40
0.803885423628094
40
0.820633036620344
40
0.820633036620344
40
0.837380649612593
40
0.837380649612593
40
0.870875875597093
40
0.870875875597093
40
0.887623488589344
40
0.887623488589344
40
0.904371101581594
40
0.904371101581594
40
0.937866327566096
40
0.937866327566096
40
0.971361553550597
40
0.971361553550597
40
0.988109166542848
40
0.988109166542848
40
1
40
1
40
1
40
1
41
1
10
16.9413097697577
20
1.72705695853981
30
0
41
1
10
17.0429856087215
20
1.69834938421397
30
0
41
1
10
17.1441843954792
20
1.66591634864193
30
0
41
1
10
17.2951901488908
20
1.61164832173975
30
0
41
1
10
17.3453961616313
20
1.59262157212123
30
0
41
1
10
17.4455746287456
20
1.55269063482228
30
0
41
1
10
17.4955198873264
20
1.5317597597261
30
0
41
1
10
17.6457354275001
20
1.46673647800969
30
0
41
1
10
17.7461055865696
20
1.42020383483592
30
0
41
1
10
17.947598163242
20
1.32115777449641
30
0
41
1
10
18.0487366711776
20
1.26866527953754
30
0
41
1
10
18.2010843801994
20
1.18547462292031
30
0
41
1
10
18.2519719380348
20
1.15699857249879
30
0
41
1
10
18.35398068631
20
1.09854917325325
30
0
41
1
10
18.4049206423719
20
1.06867926069867
30
0
41
1
10
18.5063683840439
20
1.00784919025367
30
0
41
1
10
18.5569254613682
20
0.97686031087818
30
0
41
1
10
18.6576997517603
20
0.913724963916252
30
0
41
1
10
18.7078946866362
20
0.881549548472805
30
0
41
1
10
18.8583288654217
20
0.783730984785194
30
0
41
1
10
18.9586031667232
20
0.717035440794575
30
0
41
1
10
19.159583683008
20
0.581372368513229
30
0
41
1
10
19.2602291621879
20
0.51232668485585
30
0
41
1
10
19.462039141696
20
0.372105346065865
30
0
41
1
10
19.5631920399842
20
0.300915935524529
30
0
41
1
10
19.7152990382976
20
0.192457881739983
30
0
41
1
10
19.766067193125
20
0.156029229016809
30
0
41
1
10
19.867773506053
20
0.0826546818229303
30
0
41
1
10
19.9185623770238
20
0.0459393575747526
30
0
41
1
10
20.0196227644002
20
-0.0275528360608632
30
0
41
1
10
20.0699800566503
20
-0.0642933238620742
30
0
41
1
10
20.1707158724672
20
-0.137244699433325
30
0
41
1
10
20.2210575056011
20
-0.173509289155504
30
0
41
1
10
20.3720680176325
20
-0.281595053710674
30
0
41
1
10
20.472729565953
20
-0.352700877653092
30
0
41
1
10
20.6740830048039
20
-0.492975913846721
30
0
41
1
10
20.7747919276855
20
-0.562121453740332
30
0
41
1
10
20.9763744288924
20
-0.698271343556854
30
0
41
1
10
21.0772082200321
20
-0.76532828425357
30
0
41
1
10
21.2286969797343
20
-0.864087834357349
30
0
41
1
10
21.2792064907754
20
-0.896736054209299
30
0
41
1
10
21.3552599258105
20
-0.94494670876179
30
0
41
1
10
21.3806484964811
20
-0.960859601856555
30
0
41
1
10
21.431365829237
20
-0.992275570216407
30
0
41
1
10
21.4567128943221
20
-1.00779538307984
30
0
41
1
10
21.5833505658627
20
-1.084517556175
30
0
41
1
10
21.6843829680832
20
-1.14305034432633
30
0
41
1
10
21.8861924592747
20
-1.25432138000977
30
0
41
1
10
21.9869620754867
20
-1.30707247198285
30
0
41
1
10
22.1882454088202
20
-1.40682937299943
30
0
41
1
10
22.2887116950111
20
-1.45387296024785
30
0
41
1
10
22.4143600065341
20
-1.50877748871082
30
0
41
1
10
22.4395010120512
20
-1.5195567446726
30
0
41
1
10
22.4897461275738
20
-1.54075719155361
30
0
41
1
10
22.5148284602616
20
-1.55119547589203
30
0
41
1
10
22.5650288403427
20
-1.57164665708683
30
0
41
1
10
22.5901545260897
20
-1.5816535541054
30
0
41
1
10
22.6405563636487
20
-1.60115532510235
30
0
41
1
10
22.6658159959806
20
-1.61066357638126
30
0
41
1
10
22.7417014133736
20
-1.63851455018445
30
0
41
1
10
22.7924599802666
20
-1.6561634004679
30
0
41
1
10
22.894352178862
20
-1.68959171738481
30
0
41
1
10
22.9452702070606
20
-1.70530260461203
30
0
41
1
10
23.0976401029393
20
-1.74935536141984
30
0
41
1
10
23.1988739035445
20
-1.77466736708047
30
0
41
1
10
23.4007291321593
20
-1.81733515149165
30
0
41
1
10
23.5013097750713
20
-1.83470347916338
30
0
41
1
10
23.6518237692606
20
-1.85467364338248
30
0
41
1
10
23.7019355672344
20
-1.86031563172872
30
0
41
1
10
23.8020374288087
20
-1.86953281523148
30
0
41
1
10
23.8520820911408
20
-1.87309378190003
30
0
41
1
10
24.0026898853879
20
-1.88057597262795
30
0
41
1
10
24.103484508138
20
-1.88133371604809
30
0
41
1
10
24.2556623411802
20
-1.87613096929698
30
0
41
1
10
24.3065481444457
20
-1.87334100319182
30
0
41
1
10
24.4086360073548
20
-1.86563265981618
30
0
41
1
10
24.459614719044
20
-1.8607301823213
30
0
41
1
10
24.6120883513347
20
-1.84295398871259
30
0
41
1
10
24.7132497284956
20
-1.82701686471853
30
0
41
1
10
24.8641785334831
20
-1.79696511404961
30
0
41
1
10
24.9143967539032
20
-1.78593738947225
30
0
41
1
10
25.0146731547095
20
-1.76186277431324
30
0
41
1
10
25.0645726791159
20
-1.74873213520388
30
0
41
1
10
25.2147199326343
20
-1.70663616308167
30
0
41
1
10
25.3150825191244
20
-1.67482863869424
30
0
41
1
10
25.5165512917525
20
-1.60400333667212
30
0
41
1
10
25.6176782603293
20
-1.56500314871732
30
0
41
1
10
25.7700335002885
20
-1.50112340611676
30
0
41
1
10
25.8209253321843
20
-1.47892805869347
30
0
41
1
10
25.9081529326197
20
-1.43941719434551
30
0
41
1
10
25.9443613444769
20
-1.42258412798014
30
0
41
1
10
25.9805201858459
20
-1.40534414510083
30
0
0
SPLINE
5
1C1
100
AcDbEntity
8
1
62
256
6
ByLayer
370
18
48
1
60
0
100
AcDbSpline
70
4
71
3
72
18
73
14
40
0
40
0
40
0
40
0
40
0.249999999999999
40
0.249999999999999
40
0.499999999999997
40
0.499999999999997
40
0.624999999999998
40
0.624999999999998
40
0.749999999999999
40
0.749999999999999
40
0.874999999999999
40
0.874999999999999
40
1
40
1
40
1
40
1
41
1
10
35.7700503338529
20
-0.861623121534535
30
0
41
1
10
35.7612439386986
20
-0.855322010059695
30
0
41
1
10
35.7523656132078
20
-0.849563820136694
30
0
41
1
10
35.7344744387161
20
-0.839259378672637
30
0
41
1
10
35.7253562190815
20
-0.834672019261831
30
0
41
1
10
35.7121627630844
20
-0.829208329492502
30
0
41
1
10
35.7078340775863
20
-0.827614616697929
30
0
41
1
10
35.6993352904762
20
-0.82493661435322
30
0
41
1
10
35.6951364930956
20
-0.823846841994794
30
0
41
1
10
35.6870785167509
20
-0.822298398266469
30
0
41
1
10
35.68323494134
20
-0.821838533119234
30
0
41
1
10
35.6759601843654
20
-0.82161701223734
30
0
41
1
10
35.6725106737162
20
-0.821858445164509
30
0
41
1
10
35.6693474694627
20
-0.822504589570286
30
0
0
SPLINE
5
1C2
100
AcDbEntity
8
1
62
256
6
ByLayer
370
18
48
1
60
0
100
AcDbSpline
70
4
71
3
72
12
73
8
40
0
40
0
40
0
40
0
40
0.5
40
0.5
40
0.75
40
0.75
40
1
40
1
40
1
40
1
41
1
10
35.6693474694627
20
-0.822504589570286
30
0
41
1
10
35.5754175124933
20
-0.767580415349954
30
0
41
1
10
35.482468249906
20
-0.709268314012263
30
0
41
1
10
35.3436857889617
20
-0.617659049400771
30
0
41
1
10
35.297545561717
20
-0.586415415641511
30
0
41
1
10
35.2054435552564
20
-0.522575254136996
30
0
41
1
10
35.1594146810249
20
-0.490078174892318
30
0
41
1
10
35.1135272421734
20
-0.456812701919546
30
0
0
SPLINE
5
1C3
100
AcDbEntity
8
1
62
256
6
ByLayer
370
18
48
1
60
0
100
AcDbSpline
70
4
71
3
72
8
73
4
40
0
40
0
40
0
40
0
40
1
40
1
40
1
40
1
41
1
10
33.7199034294892
20
0.7380923202914
30
0
41
1
10
33.6962896976277
20
0.76037575645276
30
0
41
1
10
33.6726893193316
20
0.78270047203759
30
0
41
1
10
33.6490964242168
20
0.805060194575674
30
0
0
SPLINE
5
1C4
100
AcDbEntity
8
1
62
256
6
ByLayer
370
18
48
1
60
0
100
AcDbSpline
70
4
71
3
72
8
73
4
40
0
40
0
40
0
40
0
40
1
40
1
40
1
40
1
41
1
10
33.6374284765796
20
0.815847610775734
30
0
41
1
10
33.6413180360354
20
0.812254360811863
30
0
41
1
10
33.6452073444913
20
0.808658548018741
30
0
41
1
10
33.6490964242169
20
0.805060194575674
30
0
0
SPLINE
5
1C5
100
AcDbEntity
8
1
62
256
6
ByLayer
370
18
48
1
60
0
100
AcDbSpline
70
4
71
3
72
8
73
4
40
0
40
0
40
0
40
0
40
1
40
1
40
1
40
1
41
1
10
32.7961494040072
20
1.54231589327031
30
0
41
1
10
32.8206119956623
20
1.52302199656972
30
0
41
1
10
32.845037599451
20
1.50350281781283
30
0
41
1
10
32.8694726976744
20
1.48379623631897
30
0
0
SPLINE
5
1C6
100
AcDbEntity
8
1
62
256
6
ByLayer
370
18
48
1
60
0
100
AcDbSpline
70
4
71
3
72
8
73
4
40
0
40
0
40
0
40
0
40
1
40
1
40
1
40
1
41
1
10
31.113908485798
20
2.45516247573173
30
0
41
1
10
31.1383078907152
20
2.44871197400755
30
0
41
1
10
31.1626963470322
20
2.44194426220162
30
0
41
1
10
31.1870724243117
20
2.43485886837149
30
0
0
SPLINE
5
1C7
100
AcDbEntity
8
1
62
256
6
ByLayer
370
18
48
1
60
0
100
AcDbSpline
70
4
71
3
72
58
73
54
40
0
40
0
40
0
40
0
40
0.0117316123084302
40
0.0117316123084302
40
0.0436112377178379
40
0.0436112377178379
40
0.0754908631272456
40
0.0754908631272456
40
0.107370488536653
40
0.107370488536653
40
0.171129739355472
40
0.171129739355472
40
0.234888990174291
40
0.234888990174291
40
0.2667686155837
40
0.2667686155837
40
0.298648240993109
40
0.298648240993109
40
0.362407491811925
40
0.362407491811925
40
0.42616674263074
40
0.42616674263074
40
0.458046368040146
40
0.458046368040146
40
0.489925993449552
40
0.489925993449552
40
0.553685244268364
40
0.553685244268364
40
0.585564869677768
40
0.585564869677768
40
0.617444495087173
40
0.617444495087173
40
0.633384307791875
40
0.633384307791875
40
0.649324120496577
40
0.649324120496577
40
0.681203745905978
40
0.681203745905978
40
0.713083371315379
40
0.713083371315379
40
0.74496299672478
40
0.808722247543585
40
0.808722247543585
40
0.840601872952989
40
0.840601872952989
40
0.872481498362393
40
0.872481498362393
40
0.904361123771797
40
0.904361123771797
40
0.920300936476498
40
0.936240749181198
40
0.936240749181198
40
1
40
1
40
1
40
1
41
1
10
22.4237070714783
20
-1.87999919956883
30
0
41
1
10
22.4077872135989
20
-1.87998838444042
30
0
41
1
10
22.3918510814055
20
-1.87987500974074
30
0
41
1
10
22.33262192673
20
-1.87907064836648
30
0
41
1
10
22.2893155718319
20
-1.87771970809567
30
0
41
1
10
22.2025648544386
20
-1.87346518784662
30
0
41
1
10
22.1590843192045
20
-1.87055943098235
30
0
41
1
10
22.0720336425659
20
-1.8631972211478
30
0
41
1
10
22.0286140956416
20
-1.85875370714035
30
0
41
1
10
21.8987016816641
20
-1.84314957754646
30
0
41
1
10
21.8126002517298
20
-1.82970194925517
30
0
41
1
10
21.6411065108949
20
-1.79679311663958
30
0
41
1
10
21.5556958779487
20
-1.77733655995098
30
0
41
1
10
21.4277747555929
20
-1.74376117564381
30
0
41
1
10
21.3852014811581
20
-1.73181635587079
30
0
41
1
10
21.2997529347946
20
-1.7066740272011
30
0
41
1
10
21.2568045048579
20
-1.69352562052589
30
0
41
1
10
21.1276752360749
20
-1.65219517239285
30
0
41
1
10
21.0413408126826
20
-1.6220462240353
30
0
41
1
10
20.8684998142624
20
-1.55627937632562
30
0
41
1
10
20.7819890735617
20
-1.5206533167397
30
0
41
1
10
20.651905315356
20
-1.46307094332991
30
0
41
1
10
20.6084194700857
20
-1.44315084948013
30
0
41
1
10
20.5217549306043
20
-1.402125696594
30
0
41
1
10
20.4785739489542
20
-1.38101947009082
30
0
41
1
10
20.3494302673924
20
-1.31597152548818
30
0
41
1
10
20.2638542493895
20
-1.270309228912
30
0
41
1
10
20.1358132642883
20
-1.1988492500312
30
0
41
1
10
20.0931863727182
20
-1.17453593170379
30
0
41
1
10
20.0079601119525
20
-1.12501432184331
30
0
41
1
10
19.9654136428318
20
-1.09974304351084
30
0
41
1
10
19.9011373046389
20
-1.06172459568742
30
0
41
1
10
19.8796848263565
20
-1.04897817341762
30
0
41
1
10
19.8368020234658
20
-1.02325091358142
30
0
41
1
10
19.8153453681053
20
-1.01030051926946
30
0
41
1
10
19.7508963749367
20
-0.971231474582311
30
0
41
1
10
19.7078639925697
20
-0.944849672476238
30
0
41
1
10
19.6217483693434
20
-0.891320179801482
30
0
41
1
10
19.5786620478471
20
-0.864176252831413
30
0
41
1
10
19.4925105836795
20
-0.809022735938981
30
0
41
1
10
19.3633258705477
20
-0.724978261369927
30
0
41
1
10
19.2340493890105
20
-0.637184857459516
30
0
41
1
10
19.1044003694207
20
-0.547183855048416
30
0
41
1
10
19.0610995292671
20
-0.516794782304743
30
0
41
1
10
18.9748874094414
20
-0.45575835530741
30
0
41
1
10
18.9319012420572
20
-0.425069739982007
30
0
41
1
10
18.8460312704691
20
-0.36354397208035
30
0
41
1
10
18.8031916237792
20
-0.332645041435825
30
0
41
1
10
18.7387127227404
20
-0.286599711467204
30
0
41
1
10
18.6956075382743
20
-0.256068365536294
30
0
41
1
10
18.6525364541689
20
-0.225486775138307
30
0
41
1
10
18.5449163907977
20
-0.148948984141327
30
0
41
1
10
18.4589734336473
20
-0.0874944491733629
30
0
41
1
10
18.3730705427835
20
-0.0259738299996002
30
0
0
SPLINE
5
1C8
100
AcDbEntity
8
1
62
256
6
ByLayer
370
18
48
1
60
0
100
AcDbSpline
70
4
71
3
72
40
73
36
40
0
40
0
40
0
40
0
40
0.0845308571009387
40
0.0845308571009387
40
0.12679628565141
40
0.12679628565141
40
0.169061714201881
40
0.169061714201881
40
0.253592571302828
40
0.253592571302828
40
0.338123428403774
40
0.338123428403774
40
0.380388856954246
40
0.380388856954246
40
0.422654285504717
40
0.422654285504717
40
0.464919714055188
40
0.464919714055188
40
0.50718514260566
40
0.50718514260566
40
0.591715999706598
40
0.591715999706598
40
0.676246856807537
40
0.676246856807537
40
0.760777713908476
40
0.760777713908476
40
0.803043142458943
40
0.803043142458943
40
0.84530857100941
40
0.84530857100941
40
0.887573999559878
40
0.887573999559878
40
0.929839428110346
40
0.929839428110346
40
1
40
1
40
1
40
1
41
1
10
16.9413097697577
20
-1.50676692375953
30
0
41
1
10
17.0429856087214
20
-1.55022173357992
30
0
41
1
10
17.1441843954792
20
-1.59011877703472
30
0
41
1
10
17.2951901488908
20
-1.64471020794457
30
0
41
1
10
17.3453961616313
20
-1.66202619182394
30
0
41
1
10
17.4455746287456
20
-1.69485476873254
30
0
41
1
10
17.4955198873264
20
-1.71037818771569
30
0
41
1
10
17.6457354275001
20
-1.75380205692315
30
0
41
1
10
17.7461055865696
20
-1.77874240617243
30
0
41
1
10
17.9475981632419
20
-1.82059323833749
30
0
41
1
10
18.0487366711776
20
-1.83750322139991
30
0
41
1
10
18.2010843801994
20
-1.85676884759425
30
0
41
1
10
18.2519719380348
20
-1.86217228992743
30
0
41
1
10
18.35398068631
20
-1.87089969928277
30
0
41
1
10
18.4049206423719
20
-1.87420595213317
30
0
41
1
10
18.5063683840439
20
-1.87868940745471
30
0
41
1
10
18.5569254613682
20
-1.87987121889006
30
0
41
1
10
18.6576997517603
20
-1.88010887700764
30
0
41
1
10
18.7078946866363
20
-1.87916081707488
30
0
41
1
10
18.8583288654217
20
-1.87312534798221
30
0
41
1
10
18.9586031667232
20
-1.86487530926684
30
0
41
1
10
19.159583683008
20
-1.84027409073642
30
0
41
1
10
19.2602291621879
20
-1.8239144642844
30
0
41
1
10
19.462039141696
20
-1.78319254250763
30
0
41
1
10
19.5631920399843
20
-1.75883202250648
30
0
41
1
10
19.7152990382977
20
-1.71611009325676
30
0
41
1
10
19.766067193125
20
-1.70083768283411
30
0
41
1
10
19.867773506053
20
-1.66819233346624
30
0
41
1
10
19.9185623770239
20
-1.65092235393163
30
0
41
1
10
20.0196227644002
20
-1.6144874923535
30
0
41
1
10
20.0699800566503
20
-1.59533621304746
30
0
41
1
10
20.1707158724672
20
-1.55546928911605
30
0
41
1
10
20.2210575056011
20
-1.53472822159716
30
0
41
1
10
20.3549534458874
20
-1.47750174279798
30
0
41
1
10
20.4385041949851
20
-1.43966959616318
30
0
41
1
10
20.5220621985511
20
-1.39977006534991
30
0
0
SPLINE
5
1C9
100
AcDbEntity
8
1
62
256
6
ByLayer
370
18
48
1
60
0
100
AcDbSpline
70
4
71
3
72
14
73
10
40
0
40
0
40
0
40
0
40
0.250000000000015
40
0.250000000000015
40
0.375000000000013
40
0.375000000000013
40
0.50000000000001
40
0.50000000000001
40
1
40
1
40
1
40
1
41
1
10
26.7877468540829
20
1.92270525935169
30
0
41
1
10
26.8343793679615
20
1.95110658030978
30
0
41
1
10
26.8810948954527
20
1.97879974322595
30
0
41
1
10
26.9512458442971
20
2.01930270914181
30
0
41
1
10
26.9746622202676
20
2.03264590434688
30
0
41
1
10
27.0212584730576
20
2.0588018041345
30
0
41
1
10
27.0444504181205
20
2.07162046315619
30
0
41
1
10
27.1600238429719
20
2.13446563794474
30
0
41
1
10
27.2511423905626
20
2.18068319006707
30
0
41
1
10
27.3412586648301
20
2.22234391640134
30
0
0
SPLINE
5
1CA
100
AcDbEntity
8
1
62
256
6
ByLayer
370
18
48
1
60
0
100
AcDbSpline
70
4
71
3
72
8
73
4
40
0
40
0
40
0
40
0
40
1
40
1
40
1
40
1
41
1
10
29.6822529392028
20
1.26829906724532
30
0
41
1
10
29.6578578385558
20
1.28890000401103
30
0
41
1
10
29.6334636340838
20
1.30932326771992
30
0
41
1
10
29.6090701875936
20
1.32956920211453
30
0
0
SPLINE
5
1CB
100
AcDbEntity
8
1
62
256
6
ByLayer
370
18
48
1
60
0
100
AcDbSpline
70
4
71
3
72
8
73
4
40
0
40
0
40
0
40
0
40
1
40
1
40
1
40
1
41
1
10
30.5236405827594
20
0.497521935344963
30
0
41
1
10
30.4991784687704
20
0.520968464060246
30
0
41
1
10
30.4747370073173
20
0.5443541661312
30
0
41
1
10
30.4503135912135
20
0.567676272178801
30
0
0
SPLINE
5
1CC
100
AcDbEntity
8
1
62
256
6
ByLayer
370
18
48
1
60
0
100
AcDbSpline
70
4
71
3
72
8
73
4
40
0
40
0
40
0
40
0
40
1
40
1
40
1
40
1
41
1
10
31.3644952237587
20
-0.319990539196198
30
0
41
1
10
31.3400831104455
20
-0.295962578910604
30
0
41
1
10
31.3156494335471
20
-0.271929609485113
30
0
41
1
10
31.2911829489198
20
-0.247903272074524
30
0
0
SPLINE
5
1CD
100
AcDbEntity
8
1
62
256
6
ByLayer
370
18
48
1
60
0
100
AcDbSpline
70
4
71
3
72
8
73
4
40
0
40
0
40
0
40
0
40
1
40
1
40
1
40
1
41
1
10
32.2056786894989
20
-1.10665150669456
30
0
41
1
10
32.1812767896422
20
-1.08525495594515
30
0
41
1
10
32.1568769247491
20
-1.06372700006708
30
0
41
1
10
32.13247901901
20
-1.04206800881673
30
0
0
SPLINE
5
1CE
100
AcDbEntity
8
1
62
256
6
ByLayer
370
18
48
1
60
0
100
AcDbSpline
70
4
71
3
72
8
73
4
40
0
40
0
40
0
40
0
40
1
40
1
40
1
40
1
41
1
10
33.0469946037526
20
-1.78083565993424
30
0
41
1
10
33.0225391519475
20
-1.76372434595766
30
0
41
1
10
32.9981052700019
20
-1.74637460141241
30
0
41
1
10
32.9736903704244
20
-1.72878783320624
30
0
0
SPLINE
5
1CF
100
AcDbEntity
8
1
62
256
6
ByLayer
370
18
48
1
60
0
100
AcDbSpline
70
4
71
3
72
28
73
24
40
0
40
0
40
0
40
0
40
0.12500000000002
40
0.12500000000002
40
0.250000000000041
40
0.250000000000041
40
0.375000000000061
40
0.375000000000061
40
0.500000000000081
40
0.500000000000081
40
0.625000000000102
40
0.625000000000102
40
0.687500000000085
40
0.687500000000085
40
0.750000000000068
40
0.750000000000068
40
0.812500000000051
40
0.812500000000051
40
0.875000000000034
40
0.875000000000034
40
0.937500000000017
40
0.937500000000017
40
1
40
1
40
1
40
1
41
1
10
35.0116598648713
20
-2.09248969598622
30
0
41
1
10
35.0175266645808
20
-2.08310950646765
30
0
41
1
10
35.0243709504711
20
-2.07510949144572
30
0
41
1
10
35.0395317571841
20
-2.06118093436075
30
0
41
1
10
35.0479505101583
20
-2.05523360227016
30
0
41
1
10
35.0654569533512
20
-2.04563740792403
30
0
41
1
10
35.0745929454666
20
-2.04192204987663
30
0
41
1
10
35.0935546364673
20
-2.03652170346609
30
0
41
1
10
35.1034280611813
20
-2.03485534735535
30
0
41
1
10
35.123117233157
20
-2.03374266050807
30
0
41
1
10
35.1330176878681
20
-2.03425897680154
30
0
41
1
10
35.147938230375
20
-2.03682987456958
30
0
41
1
10
35.1529505509372
20
-2.03799918582925
30
0
41
1
10
35.1628091682285
20
-2.04096308104707
30
0
41
1
10
35.1676653802929
20
-2.0427555091124
30
0
41
1
10
35.1772144986906
20
-2.0470132688275
30
0
41
1
10
35.1819073713474
20
-2.0494777668801
30
0
41
1
10
35.1911007210031
20
-2.05517610672425
30
0
41
1
10
35.1956018583832
20
-2.0584193800058
30
0
41
1
10
35.2041095405149
20
-2.06559387669122
30
0
41
1
10
35.2081501990419
20
-2.06954265744014
30
0
41
1
10
35.2157389759163
20
-2.07827762850246
30
0
41
1
10
35.2192956015205
20
-2.08308716413495
30
0
41
1
10
35.2224615905477
20
-2.08826255155589
30
0
0
SPLINE
5
1D0
100
AcDbEntity
8
1
62
256
6
ByLayer
370
18
48
1
60
0
100
AcDbSpline
70
4
71
3
72
8
73
4
40
0
40
0
40
0
40
0
40
1
40
1
40
1
40
1
41
1
10
35.2224615905476
20
-2.08826255155597
30
0
41
1
10
35.232240650336
20
-2.10424821119779
30
0
41
1
10
35.2420028880191
20
-2.12017099162739
30
0
41
1
10
35.251748218518
20
-2.136026920848
30
0
0
SPLINE
5
1D1
100
AcDbEntity
8
1
62
256
6
ByLayer
370
18
48
1
60
0
100
AcDbSpline
70
4
71
3
72
12
73
8
40
0
40
0
40
0
40
0
40
0.499999999999988
40
0.499999999999988
40
0.749999999999994
40
0.749999999999994
40
1
40
1
40
1
40
1
41
1
10
35.2517482185185
20
-2.13602692084797
30
0
41
1
10
35.3382271613555
20
-2.1123323219494
30
0
41
1
10
35.424991620105
20
-2.08470354085358
30
0
41
1
10
35.555910826767
20
-2.03767329900055
30
0
41
1
10
35.5996829918793
20
-2.0210674420351
30
0
41
1
10
35.6875270262693
20
-1.9860517620109
30
0
41
1
10
35.7315843799092
20
-1.9676402675284
30
0
41
1
10
35.7758754765805
20
-1.94835280838978
30
0
0
SPLINE
5
1D2
100
AcDbEntity
8
1
62
256
6
ByLayer
370
18
48
1
60
0
100
AcDbSpline
70
4
71
3
72
37
73
33
40
0
40
0
40
0
40
0
40
0.0316786576092723
40
0.0316786576092723
40
0.0633573152185446
40
0.126714630437096
40
0.126714630437096
40
0.253429260874194
40
0.253429260874194
40
0.380143891311291
40
0.380143891311291
40
0.443501206529839
40
0.443501206529839
40
0.506858521748388
40
0.506858521748388
40
0.633573152185484
40
0.633573152185484
40
0.69693046740403
40
0.69693046740403
40
0.7286091250133
40
0.7286091250133
40
0.76028778262257
40
0.76028778262257
40
0.823645097841115
40
0.823645097841115
40
0.855323755450388
40
0.855323755450388
40
0.88700241305966
40
0.88700241305966
40
0.950359728278205
40
0.950359728278205
40
1
40
1
40
1
40
1
41
1
10
35.7700503338528
20
-0.861623121534507
30
0
41
1
10
35.7838531027335
20
-0.862015674581102
30
0
41
1
10
35.7976692128596
20
-0.862299353974464
30
0
41
1
10
35.8251618603854
20
-0.86318037600131
30
0
41
1
10
35.8662540263736
20
-0.86476409142017
30
0
41
1
10
35.9069569189517
20
-0.866887449948308
30
0
41
1
10
35.9878388387974
20
-0.871647844769086
30
0
41
1
10
36.0410753376801
20
-0.875470363356044
30
0
41
1
10
36.1460732676916
20
-0.883473748371046
30
0
41
1
10
36.1978555554363
20
-0.887613506865335
30
0
41
1
10
36.2741008823562
20
-0.893842273563536
30
0
41
1
10
36.2992615595311
20
-0.895961206684262
30
0
41
1
10
36.348892904974
20
-0.900457693147843
30
0
41
1
10
36.3733596252763
20
-0.902841907209222
30
0
41
1
10
36.4456138278652
20
-0.910140682732731
30
0
41
1
10
36.4923323060203
20
-0.915129263745087
30
0
41
1
10
36.5585910552278
20
-0.92354205662744
30
0
41
1
10
36.5800636779152
20
-0.926515551423506
30
0
41
1
10
36.6108183561726
20
-0.931348557485563
30
0
41
1
10
36.6208152370201
20
-0.933024132097728
30
0
41
1
10
36.6402050144607
20
-0.936556942456889
30
0
41
1
10
36.6495911076521
20
-0.938421698891716
30
0
41
1
10
36.6771341157483
20
-0.943716834870543
30
0
41
1
10
36.694780569678
20
-0.946710780970704
30
0
41
1
10
36.7197975963404
20
-0.950528749170218
30
0
41
1
10
36.7278939837691
20
-0.951688426268333
30
0
41
1
10
36.7435238730772
20
-0.953803112502385
30
0
41
1
10
36.7510668968775
20
-0.954759190513158
30
0
41
1
10
36.7726304939279
20
-0.957356976565677
30
0
41
1
10
36.7855811495111
20
-0.958721536915533
30
0
41
1
10
36.8053134470297
20
-0.960853542198493
30
0
41
1
10
36.8128264471418
20
-0.96168275346659
30
0
41
1
10
36.8188776715854
20
-0.962561000086168
30
0
0
SPLINE
5
1D3
100
AcDbEntity
8
1
62
256
6
ByLayer
370
18
48
1
60
0
100
AcDbSpline
70
4
71
3
72
42
73
38
40
0
40
0
40
0
40
0
40
0.0184227541765705
40
0.0184227541765705
40
0.0939286961629879
40
0.0939286961629879
40
0.131681667156197
40
0.131681667156197
40
0.169434638149405
40
0.169434638149405
40
0.244940580135823
40
0.244940580135823
40
0.282693551129032
40
0.282693551129032
40
0.320446522122241
40
0.320446522122241
40
0.35819949311545
40
0.35819949311545
40
0.395952464108659
40
0.395952464108659
40
0.471458406095076
40
0.471458406095076
40
0.509211377088289
40
0.509211377088289
40
0.546964348081502
40
0.546964348081502
40
0.622470290067929
40
0.622470290067929
40
0.697976232054355
40
0.697976232054355
40
0.735729203047563
40
0.735729203047563
40
0.773482174040772
40
0.773482174040772
40
0.848988116027181
40
0.848988116027181
40
1
40
1
40
1
40
1
41
1
10
36.8054595522713
20
-0.987847048261585
30
0
41
1
10
36.8024649840352
20
-0.98937938206268
30
0
41
1
10
36.7992532327648
20
-0.991012557016234
30
0
41
1
10
36.7818861849563
20
-0.999844218970082
30
0
41
1
10
36.7646139642877
20
-1.00864314239422
30
0
41
1
10
36.7346481751653
20
-1.02481277867901
30
0
41
1
10
36.7239815536038
20
-1.03069636068042
30
0
41
1
10
36.7014162160733
20
-1.04350930547235
30
0
41
1
10
36.6896397088812
20
-1.0503701159021
30
0
41
1
10
36.6532475182281
20
-1.07219599744511
30
0
41
1
10
36.627502500199
20
-1.08844999892602
30
0
41
1
10
36.5872408167241
20
-1.11540165437947
30
0
41
1
10
36.5735417230797
20
-1.12481574565044
30
0
41
1
10
36.5456497274766
20
-1.14450352335658
30
0
41
1
10
36.5314246056363
20
-1.15476320360847
30
0
41
1
10
36.5028856068129
20
-1.1760534699421
30
0
41
1
10
36.4885298733234
20
-1.18716641520373
30
0
41
1
10
36.4596785596426
20
-1.2103428114973
30
0
41
1
10
36.4451861574157
20
-1.22238184861337
30
0
41
1
10
36.4015533682
20
-1.25968921624892
30
0
41
1
10
36.372266282327
20
-1.28610101236598
30
0
41
1
10
36.3280738598121
20
-1.32773924128196
30
0
41
1
10
36.3133654580977
20
-1.34190292668566
30
0
41
1
10
36.2842464264495
20
-1.37047432737069
30
0
41
1
10
36.2697922137204
20
-1.38492229045599
30
0
41
1
10
36.2266981299389
20
-1.42869005654384
30
0
41
1
10
36.1983233517861
20
-1.45842820405059
30
0
41
1
10
36.1421079242869
20
-1.51881344999842
30
0
41
1
10
36.1142715712441
20
-1.54946728908936
30
0
41
1
10
36.0728141105207
20
-1.59602047207238
30
0
41
1
10
36.059042529932
20
-1.6116366270233
30
0
41
1
10
36.0318391205658
20
-1.64274464043518
30
0
41
1
10
36.018373450124
20
-1.65827429723322
30
0
41
1
10
35.9783442654995
20
-1.70477327865092
30
0
41
1
10
35.9521470619869
20
-1.735652587419
30
0
41
1
10
35.8747701967222
20
-1.82779901475817
30
0
41
1
10
35.8248349797389
20
-1.88856923112297
30
0
41
1
10
35.7758754765807
20
-1.94835280838976
30
0
0
SPLINE
5
1D4
100
AcDbEntity
8
1
62
256
6
ByLayer
370
18
48
1
60
0
100
AcDbSpline
70
4
71
3
72
86
73
82
40
0
40
0
40
0
40
0
40
0.0312500000000104
40
0.0312500000000104
40
0.0625000000000208
40
0.0625000000000208
40
0.125000000000042
40
0.125000000000042
40
0.187500000000062
40
0.187500000000062
40
0.203125000000067
40
0.203125000000067
40
0.218750000000071
40
0.218750000000071
40
0.250000000000076
40
0.250000000000076
40
0.281250000000081
40
0.281250000000081
40
0.296875000000084
40
0.296875000000084
40
0.312500000000086
40
0.328125000000089
40
0.328125000000089
40
0.343750000000091
40
0.343750000000091
40
0.375000000000097
40
0.375000000000097
40
0.406250000000102
40
0.406250000000102
40
0.437500000000107
40
0.437500000000107
40
0.445312500000108
40
0.445312500000108
40
0.45312500000011
40
0.468750000000109
40
0.468750000000109
40
0.484375000000108
40
0.484375000000108
40
0.500000000000107
40
0.500000000000107
40
0.531250000000105
40
0.531250000000105
40
0.539062500000104
40
0.539062500000104
40
0.546875000000103
40
0.546875000000103
40
0.562500000000101
40
0.562500000000101
40
0.5703125000001
40
0.5703125000001
40
0.578125000000098
40
0.578125000000098
40
0.593750000000094
40
0.593750000000094
40
0.601562500000093
40
0.601562500000093
40
0.609375000000091
40
0.609375000000091
40
0.625000000000088
40
0.625000000000088
40
0.640625000000084
40
0.640625000000084
40
0.656250000000081
40
0.656250000000081
40
0.671875000000078
40
0.671875000000078
40
0.687500000000074
40
0.687500000000074
40
0.718750000000068
40
0.718750000000068
40
0.750000000000061
40
0.750000000000061
40
0.781250000000054
40
0.781250000000054
40
0.812500000000048
40
0.812500000000048
40
0.875000000000032
40
0.875000000000032
40
0.937500000000016
40
0.937500000000016
40
1
40
1
40
1
40
1
41
1
10
18.3728562596413
20
-0.0263114249351872
30
0
41
1
10
18.326341833733
20
0.0096928724911436
30
0
41
1
10
18.2794998268787
20
0.0449699668059793
30
0
41
1
10
18.1845985059381
20
0.113112589539838
30
0
41
1
10
18.1366308409794
20
0.146141614217868
30
0
41
1
10
17.9910004708567
20
0.241855997193568
30
0
41
1
10
17.8915697939988
20
0.301094751755272
30
0
41
1
10
17.6864957903717
20
0.408130568615462
30
0
41
1
10
17.5808547364621
20
0.455932624820178
30
0
41
1
10
17.4439287041312
20
0.507058914970401
30
0
41
1
10
17.4163006077704
20
0.516854363429161
30
0
41
1
10
17.3605263146415
20
0.535535909735501
30
0
41
1
10
17.3325366312517
20
0.544369143692506
30
0
41
1
10
17.2483279506797
20
0.569254645866721
30
0
41
1
10
17.1918351551089
20
0.583717440851132
30
0
41
1
10
17.078067208144
20
0.608055996621744
30
0
41
1
10
17.0207881692366
20
0.617909658230872
30
0
41
1
10
16.9342052976738
20
0.628863358734549
30
0
41
1
10
16.9052272746736
20
0.631840249404007
30
0
41
1
10
16.8470273092617
20
0.636396115399492
30
0
41
1
10
16.7885938840266
20
0.639613947520871
30
0
41
1
10
16.7297613256255
20
0.640550067620779
30
0
41
1
10
16.670770348698
20
0.640581223433969
30
0
41
1
10
16.6411724927453
20
0.640188821268197
30
0
41
1
10
16.5527095888019
20
0.63774732269448
30
0
41
1
10
16.49403215847
20
0.634222723516586
30
0
41
1
10
16.3773450975525
20
0.622894723567214
30
0
41
1
10
16.3193339329128
20
0.615101951874323
30
0
41
1
10
16.2041245639911
20
0.594246141520813
30
0
41
1
10
16.146921930152
20
0.581213978865833
30
0
41
1
10
16.0761130738738
20
0.560346254468385
30
0
41
1
10
16.0619659696256
20
0.555927710907156
30
0
41
1
10
16.033897572274
20
0.546656932241461
30
0
41
1
10
15.9921083563176
20
0.532090552118689
30
0
41
1
10
15.9512906339757
20
0.515466653109655
30
0
41
1
10
15.8978192813163
20
0.491260340124427
30
0
41
1
10
15.8715590459134
20
0.478138240645222
30
0
41
1
10
15.8201267035009
20
0.449532552133689
30
0
41
1
10
15.7948629166136
20
0.433975125924775
30
0
41
1
10
15.722432650442
20
0.384074925925489
30
0
41
1
10
15.6781621567513
20
0.346407883461097
30
0
41
1
10
15.6295829096071
20
0.291759873904795
30
0
41
1
10
15.6202086298335
20
0.280447616794817
30
0
41
1
10
15.6022077728057
20
0.256980840262656
30
0
41
1
10
15.5935530853699
20
0.244775539742392
30
0
41
1
10
15.5692720756356
20
0.207471347946978
30
0
41
1
10
15.5552059644644
20
0.181518572691658
30
0
41
1
10
15.5373716904328
20
0.140905579538412
30
0
41
1
10
15.5318781108545
20
0.127132919887515
30
0
41
1
10
15.5219912888534
20
0.0990172782858849
30
0
41
1
10
15.5175954482007
20
0.084635524910027
30
0
41
1
10
15.5065648721511
20
0.0413653590375702
30
0
41
1
10
15.5020024129749
20
0.012106996988706
30
0
41
1
10
15.4997830066074
20
-0.0324622542744919
30
0
41
1
10
15.4998022036546
20
-0.0475210477026167
30
0
41
1
10
15.5014455731809
20
-0.0773730330832052
30
0
41
1
10
15.5030615754432
20
-0.0921447508492008
30
0
41
1
10
15.5098848943207
20
-0.136072159492357
30
0
41
1
10
15.5170504208221
20
-0.164854427032424
30
0
41
1
10
15.5352737342632
20
-0.221593910666286
30
0
41
1
10
15.5461474843108
20
-0.248980867575057
30
0
41
1
10
15.5704349172214
20
-0.302310811350452
30
0
41
1
10
15.5838689322779
20
-0.328243509732488
30
0
41
1
10
15.6126668503935
20
-0.378987618043652
30
0
41
1
10
15.6280357547567
20
-0.403796396014798
30
0
41
1
10
15.6603291244859
20
-0.452491671275425
30
0
41
1
10
15.6771422036245
20
-0.476207039199068
30
0
41
1
10
15.7289812904576
20
-0.545594661267756
30
0
41
1
10
15.7654619890598
20
-0.589646303173566
30
0
41
1
10
15.8409397245757
20
-0.674627506172442
30
0
41
1
10
15.8799517121629
20
-0.715542384066254
30
0
41
1
10
15.9597899470453
20
-0.794926038000028
30
0
41
1
10
16.0006330145689
20
-0.833397728069087
30
0
41
1
10
16.0836645431028
20
-0.908260168381133
30
0
41
1
10
16.1255560820893
20
-0.944381508746261
30
0
41
1
10
16.2519802502009
20
-1.04941631531472
30
0
41
1
10
16.3372388620506
20
-1.11504166534186
30
0
41
1
10
16.5086293356005
20
-1.23907726280834
30
0
41
1
10
16.5947716893003
20
-1.29746542499762
30
0
41
1
10
16.7675880713966
20
-1.40737447438264
30
0
41
1
10
16.8542624472326
20
-1.45888764819497
30
0
41
1
10
16.9413093374823
20
-1.50676625816033
30
0
0
SPLINE
5
1D5
100
AcDbEntity
8
1
62
256
6
ByLayer
370
18
48
1
60
0
100
AcDbSpline
70
4
71
3
72
28
73
24
40
0
40
0
40
0
40
0
40
0.0705549861352927
40
0.0705549861352927
40
0.150949292656003
40
0.150949292656003
40
0.231343599176713
40
0.231343599176713
40
0.311737905697423
40
0.311737905697423
40
0.392132212218133
40
0.392132212218133
40
0.552920825259556
40
0.552920825259556
40
0.713709438300979
40
0.713709438300979
40
0.794103744821692
40
0.794103744821692
40
0.874498051342404
40
0.874498051342404
40
0.954892357863117
40
0.954892357863117
40
1
40
1
40
1
40
1
41
1
10
16.9413093383403
20
-1.50676617069931
30
0
41
1
10
16.9417466583969
20
-1.46218730467777
30
0
41
1
10
16.9452141993983
20
-1.41490459953718
30
0
41
1
10
16.9596702052711
20
-1.31033888725071
30
0
41
1
10
16.9716039623599
20
-1.25283186765668
30
0
41
1
10
17.0050955147098
20
-1.13369010650422
30
0
41
1
10
17.0270632603104
20
-1.07134162342274
30
0
41
1
10
17.0800313098467
20
-0.948842663660969
30
0
41
1
10
17.1107639523259
20
-0.887972190068325
30
0
41
1
10
17.1757204615309
20
-0.766542684399553
30
0
41
1
10
17.210549706053
20
-0.706389404087162
30
0
41
1
10
17.3205160037047
20
-0.531228547394051
30
0
41
1
10
17.403140755686
20
-0.418377220881609
30
0
41
1
10
17.5778222211445
20
-0.219601294824656
30
0
41
1
10
17.6718395433178
20
-0.132366827554051
30
0
41
1
10
17.811532335766
20
-0.0260567490499568
30
0
41
1
10
17.8584846503487
20
0.0068775457624781
30
0
41
1
10
17.9510165020521
20
0.0567688196168206
30
0
41
1
10
17.9950235869898
20
0.0737939892640327
30
0
41
1
10
18.079270183976
20
0.094633598395319
30
0
41
1
10
18.119927627756
20
0.0983222657277452
30
0
41
1
10
18.1780257958589
20
0.0942068228686423
30
0
41
1
10
18.1979185110122
20
0.0907968047490044
30
0
41
1
10
18.216861003225
20
0.0855312705411109
30
0
0
SPLINE
5
1D6
100
AcDbEntity
8
1
62
256
6
ByLayer
370
18
48
1
60
0
100
AcDbSpline
70
4
71
3
72
8
73
4
40
0
40
0
40
0
40
0
40
1
40
1
40
1
40
1
41
1
10
18.343558034244
20
0.0094900681507681
30
0
41
1
10
18.3540716975278
20
-0.0014369863243076
30
0
41
1
10
18.3637563668529
20
-0.0134688133377665
30
0
41
1
10
18.3728447902386
20
-0.0262952373843461
30
0
0
SPLINE
5
1D7
100
AcDbEntity
8
SK1
62
256
6
ByLayer
370
18
48
1
60
0
100
AcDbSpline
70
4
71
3
72
20
73
16
40
0
40
0
40
0
40
0
40
0.124858852767698
40
0.124858852767698
40
0.249717705535395
40
0.249717705535395
40
0.49943541107079
40
0.49943541107079
40
0.749153116606185
40
0.749153116606185
40
0.874011969373883
40
0.874011969373883
40
0.99887082214158
40
0.99887082214158
40
1
40
1
40
1
40
1
41
1
10
-21
20
1.99999999999997
30
0
41
1
10
-21.028278871815
20
1.99999999999997
30
0
41
1
10
-21.0558015288967
20
1.99999999999997
30
0
41
1
10
-21.1085995975634
20
1.99999999999997
30
0
41
1
10
-21.1338884418158
20
1.99999999999997
30
0
41
1
10
-21.2058892050155
20
1.99999999999997
30
0
41
1
10
-21.2487650330856
20
1.99999999999997
30
0
41
1
10
-21.3207313377176
20
1.99999999999997
30
0
41
1
10
-21.3498151989987
20
1.99999999999997
30
0
41
1
10
-21.3797884407669
20
1.99999999999997
30
0
41
1
10
-21.3873590420524
20
1.99999999999997
30
0
41
1
10
-21.3974614753262
20
1.99999999999997
30
0
41
1
10
-21.3999952490589
20
1.99999999999997
30
0
41
1
10
-21.4000015467719
20
1.99999999999997
30
0
41
1
10
-21.4000002806162
20
1.99999999999997
30
0
41
1
10
-21.3999992805162
20
1.99999999999997
30
0
0
SPLINE
5
1D8
100
AcDbEntity
8
SK1
62
256
6
ByLayer
370
18
48
1
60
0
100
AcDbSpline
70
4
71
3
72
20
73
16
40
0
40
0
40
0
40
0
40
0.0011291751904067
40
0.0011291751904067
40
0.125988028291606
40
0.125988028291606
40
0.250846881392805
40
0.250846881392805
40
0.500564587595204
40
0.500564587595204
40
0.750282293797602
40
0.750282293797602
40
0.875141146898801
40
0.875141146898801
40
1
40
1
40
1
40
1
41
1
10
-21.3999992805175
20
-2.00000000000003
30
0
41
1
10
-21.4000002806175
20
-2.00000000000003
30
0
41
1
10
-21.4000015467718
20
-2.00000000000003
30
0
41
1
10
-21.3999952490589
20
-2.00000000000003
30
0
41
1
10
-21.3974614753262
20
-2.00000000000003
30
0
41
1
10
-21.3873590420524
20
-2.00000000000003
30
0
41
1
10
-21.3797884407669
20
-2.00000000000003
30
0
41
1
10
-21.3498151989987
20
-2.00000000000003
30
0
41
1
10
-21.3207313377176
20
-2.00000000000003
30
0
41
1
10
-21.2487650330855
20
-2.00000000000003
30
0
41
1
10
-21.2058892050155
20
-2.00000000000003
30
0
41
1
10
-21.1338884418158
20
-2.00000000000003
30
0
41
1
10
-21.1085995975634
20
-2.00000000000003
30
0
41
1
10
-21.0558015288967
20
-2.00000000000003
30
0
41
1
10
-21.028278871815
20
-2.00000000000003
30
0
41
1
10
-21
20
-2.00000000000003
30
0
0
SPLINE
5
1D9
100
AcDbEntity
8
SK1
62
256
6
ByLayer
370
18
48
1
60
0
100
AcDbSpline
70
4
71
3
72
31
73
27
40
0
40
0
40
0
40
0
40
0.0624999999999998
40
0.0624999999999998
40
0.125
40
0.125
40
0.25
40
0.25
40
0.3125
40
0.34375
40
0.34375
40
0.375
40
0.375
40
0.5
40
0.5
40
0.5625
40
0.5625
40
0.625
40
0.625
40
0.75
40
0.75
40
0.875
40
0.875
40
0.9375
40
0.9375
40
1
40
1
40
1
40
1
41
1
10
-21
20
-1.3266499161422
30
0
41
1
10
-21.0282965402215
20
-1.27545954880776
30
0
41
1
10
-21.0558256468144
20
-1.22359390897699
30
0
41
1
10
-21.1085860513076
20
-1.1191990619252
30
0
41
1
10
-21.1338627011275
20
-1.06659278349929
30
0
41
1
10
-21.205845517537
20
-0.907348624729565
30
0
41
1
10
-21.2487353433303
20
-0.799296829109153
30
0
41
1
10
-21.3027503133996
20
-0.633395766833331
30
0
41
1
10
-21.3271662658233
20
-0.549485099338654
30
0
41
1
10
-21.3470932783159
20
-0.463911325459321
30
0
41
1
10
-21.3593073506528
20
-0.406465495525794
30
0
41
1
10
-21.3648901037458
20
-0.377478222224283
30
0
41
1
10
-21.3897979262774
20
-0.232363232772286
30
0
41
1
10
-21.400000998457
20
-0.116206825650664
30
0
41
1
10
-21.3999995006608
20
0.0581291871245355
30
0
41
1
10
-21.3974614753262
20
0.116258002350577
30
0
41
1
10
-21.3873590420524
20
0.232548932305065
30
0
41
1
10
-21.3797884407669
20
0.290749102787601
30
0
41
1
10
-21.3498151989987
20
0.4651654599258
30
0
41
1
10
-21.3207313377176
20
0.578167759603929
30
0
41
1
10
-21.2487650330856
20
0.799206901353557
30
0
41
1
10
-21.2058892050155
20
0.907246123952007
30
0
41
1
10
-21.1338884418158
20
1.06653876222367
30
0
41
1
10
-21.1085995975634
20
1.11917260572125
30
0
41
1
10
-21.0558015288967
20
1.22364128282482
30
0
41
1
10
-21.028278871815
20
1.27549151215763
30
0
41
1
10
-21
20
1.32664991614215
30
0
0
SPLINE
5
1DA
100
AcDbEntity
8
1
62
256
6
ByLayer
370
18
48
1
60
0
100
AcDbSpline
70
4
71
1
72
4
73
2
40
0
40
0
40
1
40
1
41
1
10
30.2695692551946
20
2.54471623437172
30
0
41
1
10
30.1921036978938
20
2.41107748374904
30
0
0
SPLINE
5
1DB
100
AcDbEntity
8
1
62
256
6
ByLayer
370
18
48
1
60
0
100
AcDbSpline
70
4
71
1
72
4
73
2
40
0
40
0
40
1
40
1
41
1
10
34.5479965204057
20
-2.31159390307258
30
0
41
1
10
34.9489263582651
20
-2.21205742772091
30
0
0
SPLINE
5
1DC
100
AcDbEntity
8
1
62
256
6
ByLayer
370
18
48
1
60
0
100
AcDbSpline
70
4
71
2
72
6
73
3
40
0
40
0
40
0
40
1
40
1
40
1
41
1
10
34.403205331728
20
-2.08516415961157
30
0
41
1
10
34.4597808427554
20
-2.1826284333867
30
0
41
1
10
34.5163326564419
20
-2.2801602624219
30
0
0
SPLINE
5
1DD
100
AcDbEntity
8
1
62
256
6
ByLayer
370
18
48
1
60
0
100
AcDbSpline
70
4
71
1
72
4
73
2
40
0
40
0
40
1
40
1
41
1
10
31.1683251533807
20
-0.162700724170975
30
0
41
1
10
31.3208473909162
20
-0.290096897744377
30
0
0
SPLINE
5
1DE
100
AcDbEntity
8
1
62
256
6
ByLayer
370
18
48
1
60
0
100
AcDbSpline
70
4
71
1
72
4
73
2
40
0
40
0
40
1
40
1
41
1
10
31.3675782948893
20
-0.329129490302591
30
0
41
1
10
31.4088170816694
20
-0.363574720870133
30
0
0
SPLINE
5
1DF
100
AcDbEntity
8
1
62
256
6
ByLayer
370
18
48
1
60
0
100
AcDbSpline
70
4
71
2
72
6
73
3
40
0
40
0
40
0
40
1
40
1
40
1
41
1
10
35.0872255647892
20
-2.03903934350382
30
0
41
1
10
35.0972035716161
20
-2.03901017531689
30
0
41
1
10
35.1086869771354
20
-2.04104206538636
30
0
0
SPLINE
5
1E0
100
AcDbEntity
8
1
62
256
6
ByLayer
370
18
48
1
60
0
100
AcDbSpline
70
4
71
2
72
6
73
3
40
0
40
0
40
0
40
1
40
1
40
1
41
1
10
34.9575866591331
20
-2.20035420678136
30
0
41
1
10
34.9930141141645
20
-2.13945065705593
30
0
41
1
10
35.0284525529709
20
-2.0786003464406
30
0
0
SPLINE
5
1E1
100
AcDbEntity
8
1
62
256
6
ByLayer
370
18
48
1
60
0
100
AcDbSpline
70
4
71
2
72
6
73
3
40
0
40
0
40
0
40
1
40
1
40
1
41
1
10
29.4281702840246
20
-2.07915398034345
30
0
41
1
10
29.4595603666917
20
-2.0257458884301
30
0
41
1
10
29.5308305625634
20
-2.03856886230847
30
0
0
SPLINE
5
1E2
100
AcDbEntity
8
1
62
256
6
ByLayer
370
18
48
1
60
0
100
AcDbSpline
70
4
71
2
72
6
73
3
40
0
40
0
40
0
40
1
40
1
40
1
41
1
10
29.1563026921962
20
-2.54712614378047
30
0
41
1
10
29.2912372140425
20
-2.31463063362955
30
0
41
1
10
29.4267962705085
20
-2.08159456751244
30
0
0
SPLINE
5
1E3
100
AcDbEntity
8
1
62
256
6
ByLayer
370
18
48
1
60
0
100
AcDbSpline
70
4
71
2
72
6
73
3
40
0
40
0
40
0
40
1
40
1
40
1
41
1
10
28.8011865425897
20
-2.08205889934467
30
0
41
1
10
28.9351943286149
20
-2.31283314438963
30
0
41
1
10
29.0690744717841
20
-2.54396092801241
30
0
0
SPLINE
5
1E4
100
AcDbEntity
8
1
62
256
6
ByLayer
370
18
48
1
60
0
100
AcDbSpline
70
4
71
2
72
6
73
3
40
0
40
0
40
0
40
1
40
1
40
1
41
1
10
31.0695680116638
20
2.54454828523012
30
0
41
1
10
30.9352974900801
20
2.3128157127899
30
0
41
1
10
30.8007766642488
20
2.08125574748291
30
0
0
SPLINE
5
1E5
100
AcDbEntity
8
1
62
256
6
ByLayer
370
18
48
1
60
0
100
AcDbSpline
70
4
71
3
72
10
73
6
40
0
40
0
40
0
40
0
40
0.275383955609878
40
0.538591788148254
40
1
40
1
40
1
40
1
41
1
10
34.2270147943574
20
-2.08117434974872
30
0
41
1
10
34.236921252147
20
-2.06446327226945
30
0
41
1
10
34.2614511593061
20
-2.04073321874947
30
0
41
1
10
34.3510532379123
20
-2.02991057635339
30
0
41
1
10
34.3836829361158
20
-2.05231740814045
30
0
41
1
10
34.3994944655626
20
-2.0790828449577
30
0
0
SPLINE
5
1E6
100
AcDbEntity
8
1
62
256
6
ByLayer
370
18
48
1
60
0
100
AcDbSpline
70
4
71
2
72
6
73
3
40
0
40
0
40
0
40
1
40
1
40
1
41
1
10
31.4282625498555
20
2.0789132612866
30
0
41
1
10
31.2937479751197
20
2.31004472613734
30
0
41
1
10
31.1594779881351
20
2.54159995539871
30
0
0
SPLINE
5
1E7
100
AcDbEntity
8
1
62
256
6
ByLayer
370
18
48
1
60
0
100
AcDbSpline
70
4
71
3
72
10
73
6
40
0
40
0
40
0
40
0
40
0.278396650619544
40
0.542760773465971
40
1
40
1
40
1
40
1
41
1
10
28.6270128283475
20
-2.08107649639376
30
0
41
1
10
28.6368298745643
20
-2.06436237843073
30
0
41
1
10
28.6612733670595
20
-2.04078851440434
30
0
41
1
10
28.7505585579857
20
-2.02970802361224
30
0
41
1
10
28.7836360191713
20
-2.05280335938133
30
0
41
1
10
28.7999529650469
20
-2.07991508669374
30
0
0
SPLINE
5
1E8
100
AcDbEntity
8
1
62
256
6
ByLayer
370
18
48
1
60
0
100
AcDbSpline
70
4
71
3
72
10
73
6
40
0
40
0
40
0
40
0
40
0.464269538773857
40
0.726703734428746
40
1
40
1
40
1
40
1
41
1
10
31.5991508186537
20
2.07846661053207
30
0
41
1
10
31.5836729441384
20
2.05198335970536
30
0
41
1
10
31.5513315864781
20
2.03008676554094
30
0
41
1
10
31.4615275535353
20
2.04074573331394
30
0
41
1
10
31.4369411726866
20
2.06455041732244
30
0
41
1
10
31.4269769770525
20
2.08123316108302
30
0
0
SPLINE
5
1E9
100
AcDbEntity
8
1
62
256
6
ByLayer
370
18
48
1
60
0
100
AcDbSpline
70
4
71
2
72
6
73
3
40
0
40
0
40
0
40
1
40
1
40
1
41
1
10
34.0092800893796
20
-2.45596495266184
30
0
41
1
10
34.0128604106764
20
-2.44979180570897
30
0
41
1
10
34.0164411877339
20
-2.44361840661296
30
0
0
SPLINE
5
1EA
100
AcDbEntity
8
1
62
256
6
ByLayer
370
18
48
1
60
0
100
AcDbSpline
70
4
71
2
72
6
73
3
40
0
40
0
40
0
40
1
40
1
40
1
41
1
10
34.019600057342
20
-2.43817249620167
30
0
41
1
10
34.123837773069
20
-2.25846946591125
30
0
41
1
10
34.228461662987
20
-2.07855279019358
30
0
0
SPLINE
5
1EB
100
AcDbEntity
8
1
62
256
6
ByLayer
370
18
48
1
60
0
100
AcDbSpline
70
4
71
2
72
6
73
3
40
0
40
0
40
0
40
1
40
1
40
1
41
1
10
33.6007409580943
20
-2.08119890106704
30
0
41
1
10
33.72002915191
20
-2.28658802798995
30
0
41
1
10
33.8390965755801
20
-2.49211327675798
30
0
0
SPLINE
5
1EC
100
AcDbEntity
8
1
62
256
6
ByLayer
370
18
48
1
60
0
100
AcDbSpline
70
4
71
1
72
4
73
2
40
0
40
0
40
1
40
1
41
1
10
33.8486741586119
20
-2.48526875719566
30
0
41
1
10
34.0446075218877
20
-2.43662417586111
30
0
0
SPLINE
5
1ED
100
AcDbEntity
8
1
62
256
6
ByLayer
370
18
48
1
60
0
100
AcDbSpline
70
4
71
3
72
11
73
7
40
0
40
0
40
0
40
0
40
0.242795598115195
40
0.500602896311566
40
0.758059739521848
40
1
40
1
40
1
40
1
41
1
10
33.4178404629296
20
-2.09147593318772
30
0
41
1
10
33.426179977218
20
-2.07508605474857
30
0
41
1
10
33.4489824724056
20
-2.04918673416839
30
0
41
1
10
33.5099751559511
20
-2.02705475051866
30
0
41
1
10
33.5710244976551
20
-2.04537760765055
30
0
41
1
10
33.5938471916896
20
-2.06856756569425
30
0
41
1
10
33.6022093499745
20
-2.08358548520232
30
0
0
SPLINE
5
1EE
100
AcDbEntity
8
1
62
256
6
ByLayer
370
18
48
1
60
0
100
AcDbSpline
70
4
71
2
72
6
73
3
40
0
40
0
40
0
40
1
40
1
40
1
41
1
10
28.3589504155527
20
-2.54248960865277
30
0
41
1
10
28.4930578955627
20
-2.31127692525243
30
0
41
1
10
28.6273404389212
20
-2.0805051312486
30
0
0
SPLINE
5
1EF
100
AcDbEntity
8
1
62
256
6
ByLayer
370
18
48
1
60
0
100
AcDbSpline
70
4
71
2
72
6
73
3
40
0
40
0
40
0
40
1
40
1
40
1
41
1
10
28.0007686749572
20
-2.08134171271345
30
0
41
1
10
28.1353117432424
20
-2.31289489312843
30
0
41
1
10
28.2695941819505
20
-2.54462156432402
30
0
0
SPLINE
5
1F0
100
AcDbEntity
8
1
62
256
6
ByLayer
370
18
48
1
60
0
100
AcDbSpline
70
4
71
2
72
6
73
3
40
0
40
0
40
0
40
1
40
1
40
1
41
1
10
27.9000953836711
20
-2.0448867359348
30
0
41
1
10
27.9618931727832
20
-2.01656080053056
30
0
41
1
10
28.0004221710825
20
-2.08073732868414
30
0
0
SPLINE
5
1F1
100
AcDbEntity
8
1
62
256
6
ByLayer
370
18
48
1
60
0
100
AcDbSpline
70
4
71
2
72
6
73
3
40
0
40
0
40
0
40
1
40
1
40
1
41
1
10
31.8703543318517
20
2.54610268377391
30
0
41
1
10
31.7365582683965
20
2.31511856900445
30
0
41
1
10
31.602655889197
20
2.08443170088051
30
0
0
SPLINE
5
1F2
100
AcDbEntity
8
1
62
256
6
ByLayer
370
18
48
1
60
0
100
AcDbSpline
70
4
71
2
72
6
73
3
40
0
40
0
40
0
40
1
40
1
40
1
41
1
10
32.321722743864
20
2.04346160877012
30
0
41
1
10
32.2598022268746
20
2.02014931701089
30
0
41
1
10
32.2296416178571
20
2.07612063140255
30
0
0
SPLINE
5
1F3
100
AcDbEntity
8
1
62
256
6
ByLayer
370
18
48
1
60
0
100
AcDbSpline
70
4
71
2
72
6
73
3
40
0
40
0
40
0
40
1
40
1
40
1
41
1
10
32.2253777210533
20
2.08371762016051
30
0
41
1
10
32.0906382514229
20
2.31538286264046
30
0
41
1
10
31.9562076924755
20
2.54712235876974
30
0
0
SPLINE
5
1F4
100
AcDbEntity
8
1
62
256
6
ByLayer
370
18
48
1
60
0
100
AcDbSpline
70
4
71
2
72
6
73
3
40
0
40
0
40
0
40
1
40
1
40
1
41
1
10
32.9334155652923
20
-2.30992571612626
30
0
41
1
10
33.0015588179041
20
-2.42731510434854
30
0
41
1
10
33.0695642587814
20
-2.54478238985678
30
0
0
SPLINE
5
1F5
100
AcDbEntity
8
1
62
256
6
ByLayer
370
18
48
1
60
0
100
AcDbSpline
70
4
71
1
72
4
73
2
40
0
40
0
40
1
40
1
41
1
10
30.8043363594977
20
0.104077114074073
30
0
41
1
10
30.8294985506365
20
0.089075853539299
30
0
0
LINE
5
7F
100
AcDbEntity
8
80
62
256
6
ByLayer
370
18
48
1
60
0
100
AcDbLine
10
0
20
0
30
0
11
-5
21
0
31
0
39
0
210
0
220
0
230
1
0
LINE
5
80
100
AcDbEntity
8
4
62
256
6
ByLayer
370
18
48
0.05
60
0
100
AcDbLine
10
0
20
0
30
0
11
37.805
21
0
31
0
39
0
210
0
220
0
230
1
0
LINE
5
82
100
AcDbEntity
8
81
62
256
6
ByLayer
370
18
48
1
60
0
100
AcDbLine
10
37.805
20
0
30
0
11
42.805
21
0
31
0
39
0
210
0
220
0
230
1
0
LINE
5
83
100
AcDbEntity
8
SK4
62
256
6
ByLayer
370
18
48
0.05
60
0
100
AcDbLine
10
-22
20
0
30
0
11
37.805
21
0
31
0
39
0
210
0
220
0
230
1
0
LINE
5
85
100
AcDbEntity
8
1
62
256
6
ByLayer
370
18
48
1
60
0
100
AcDbLine
10
0
20
2.5
30
0
11
0
21
-2.5
31
0
39
0
210
0
220
0
230
1
0
LINE
5
86
100
AcDbEntity
8
1
62
256
6
ByLayer
370
18
48
1
60
0
100
AcDbLine
10
30.267848
20
2.541744
30
0
11
30.2727
21
2.548281
31
0
39
0
210
0
220
0
230
1
0
LINE
5
87
100
AcDbEntity
8
1
62
256
6
ByLayer
370
18
48
1
60
0
100
AcDbLine
10
34.954941
20
-2.204895
30
0
11
34.951303
21
-2.210607
31
0
39
0
210
0
220
0
230
1
0
LINE
5
88
100
AcDbEntity
8
1
62
256
6
ByLayer
370
18
48
1
60
0
100
AcDbLine
10
31.425401
20
2.083788
30
0
11
31.428206
21
2.07902
31
0
39
0
210
0
220
0
230
1
0
LINE
5
89
100
AcDbEntity
8
1
62
256
6
ByLayer
370
18
48
1
60
0
100
AcDbLine
10
34.228431
20
-2.078612
30
0
11
34.226444
21
-2.082134
31
0
39
0
210
0
220
0
230
1
0
LINE
5
8A
100
AcDbEntity
8
1
62
256
6
ByLayer
370
18
48
1
60
0
100
AcDbLine
10
34.01891
20
-2.439365
30
0
11
34.017298
21
-2.441863
31
0
39
0
210
0
220
0
230
1
0
LINE
5
8B
100
AcDbEntity
8
1
62
256
6
ByLayer
370
18
48
1
60
0
100
AcDbLine
10
33.600904
20
-2.081478
30
0
11
33.602811
21
-2.084484
31
0
39
0
210
0
220
0
230
1
0
LINE
5
8C
100
AcDbEntity
8
1
62
256
6
ByLayer
370
18
48
1
60
0
100
AcDbLine
10
28.625288
20
-2.083858
30
0
11
28.627211
21
-2.080732
31
0
39
0
210
0
220
0
230
1
0
LINE
5
8D
100
AcDbEntity
8
1
62
256
6
ByLayer
370
18
48
1
60
0
100
AcDbLine
10
31.600587
20
2.081102
30
0
11
31.602777
21
2.084609
31
0
39
0
210
0
220
0
230
1
0
LINE
5
8E
100
AcDbEntity
8
1
62
256
6
ByLayer
370
18
48
1
60
0
100
AcDbLine
10
32.225314
20
2.083813
30
0
11
32.227916
21
2.079475
31
0
39
0
210
0
220
0
230
1
0
LINE
5
8F
100
AcDbEntity
8
1
62
256
6
ByLayer
370
18
48
1
60
0
100
AcDbLine
10
33.417725
20
-2.091537
30
0
11
33.422129
21
-2.088
31
0
39
0
210
0
220
0
230
1
0
LINE
5
90
100
AcDbEntity
8
1
62
256
6
ByLayer
370
18
48
1
60
0
100
AcDbLine
10
29.158029
20
-2.544156
30
0
11
29.156409
21
-2.546367
31
0
39
0
210
0
220
0
230
1
0
LINE
5
91
100
AcDbEntity
8
1
62
256
6
ByLayer
370
13
48
1
60
0
100
AcDbLine
10
26.787747
20
-0.940934
30
0
11
26.787747
21
-1.762454
31
0
39
0
210
0
220
0
230
1
0
LINE
5
92
100
AcDbEntity
8
1
62
256
6
ByLayer
370
13
48
1
60
0
100
AcDbLine
10
26.787747
20
1.92285
30
0
11
26.787747
21
1.547058
31
0
39
0
210
0
220
0
230
1
0
LINE
5
93
100
AcDbEntity
8
1
62
256
6
ByLayer
370
13
48
1
60
0
100
AcDbLine
10
26.633235
20
-1.670958
30
0
11
26.633235
21
-0.82487
31
0
39
0
210
0
220
0
230
1
0
LINE
5
94
100
AcDbEntity
8
1
62
256
6
ByLayer
370
13
48
1
60
0
100
AcDbLine
10
26.633235
20
1.581618
30
0
11
26.633235
21
1.88
31
0
39
0
210
0
220
0
230
1
0
LINE
5
95
100
AcDbEntity
8
1
62
256
6
ByLayer
370
13
48
1
60
0
100
AcDbLine
10
14.043744
20
-1.88
30
0
11
14.043744
21
1.88
31
0
39
0
210
0
220
0
230
1
0
LINE
5
96
100
AcDbEntity
8
1
62
256
6
ByLayer
370
13
48
1
60
0
100
AcDbLine
10
13.95692
20
1.887596
30
0
11
13.95692
21
-1.887596
31
0
39
0
210
0
220
0
230
1
0
LINE
5
97
100
AcDbEntity
8
1
62
256
6
ByLayer
370
18
48
1
60
0
100
AcDbLine
10
10.483805
20
2.5
30
0
11
10.483805
21
-2.5
31
0
39
0
210
0
220
0
230
1
0
LINE
5
98
100
AcDbEntity
8
1
62
256
6
ByLayer
370
18
48
1
60
0
100
AcDbLine
10
36.835077
20
-0.967693
30
0
11
36.833529
21
-0.971467
31
0
39
0
210
0
220
0
230
1
0
LINE
5
99
100
AcDbEntity
8
SK1
62
256
6
ByLayer
370
18
48
1
60
0
100
AcDbLine
10
-22
20
1.4
30
0
11
-22
21
-1.4
31
0
39
0
210
0
220
0
230
1
0
LINE
5
9B
100
AcDbEntity
8
SK1
62
256
6
ByLayer
370
18
48
1
60
0
100
AcDbLine
10
-15
20
1.32665
30
0
11
-15
21
-1.32665
31
0
39
0
210
0
220
0
230
1
0
LINE
5
9C
100
AcDbEntity
8
SK1
62
256
6
ByLayer
370
18
48
1
60
0
100
AcDbLine
10
-14.6
20
2.4
30
0
11
-15
21
2
31
0
39
0
210
0
220
0
230
1
0
LINE
5
9D
100
AcDbEntity
8
SK1
62
256
6
ByLayer
370
18
48
1
60
0
100
AcDbLine
10
-21
20
2
30
0
11
-15
21
2
31
0
39
0
210
0
220
0
230
1
0
LINE
5
9E
100
AcDbEntity
8
SK1
62
256
6
ByLayer
370
18
48
1
60
0
100
AcDbLine
10
-21
20
1.32665
30
0
11
-21
21
2
31
0
39
0
210
0
220
0
230
1
0
LINE
5
9F
100
AcDbEntity
8
SK1
62
256
6
ByLayer
370
18
48
1
60
0
100
AcDbLine
10
-15
20
1.32665
30
0
11
-21
21
1.32665
31
0
39
0
210
0
220
0
230
1
0
LINE
5
A0
100
AcDbEntity
8
SK1
62
256
6
ByLayer
370
18
48
1
60
0
100
AcDbLine
10
-21
20
-1.32665
30
0
11
-15
21
-1.32665
31
0
39
0
210
0
220
0
230
1
0
LINE
5
A1
100
AcDbEntity
8
SK1
62
256
6
ByLayer
370
18
48
1
60
0
100
AcDbLine
10
-21
20
-2
30
0
11
-21
21
-1.32665
31
0
39
0
210
0
220
0
230
1
0
LINE
5
A2
100
AcDbEntity
8
SK1
62
256
6
ByLayer
370
18
48
1
60
0
100
AcDbLine
10
-15
20
-2
30
0
11
-21
21
-2
31
0
39
0
210
0
220
0
230
1
0
LINE
5
A3
100
AcDbEntity
8
SK1
62
256
6
ByLayer
370
18
48
1
60
0
100
AcDbLine
10
-15
20
-2
30
0
11
-14.6
21
-2.4
31
0
39
0
210
0
220
0
230
1
0
LINE
5
A4
100
AcDbEntity
8
SK1
62
256
6
ByLayer
370
18
48
1
60
0
100
AcDbLine
10
0
20
2.5
30
0
11
0
21
-2.5
31
0
39
0
210
0
220
0
230
1
0
LINE
5
A5
100
AcDbEntity
8
SK1
62
256
6
ByLayer
370
18
48
1
60
0
100
AcDbLine
10
-14.3
20
2.4
30
0
11
-14.3
21
-2.4
31
0
39
0
210
0
220
0
230
1
0
LINE
5
A6
100
AcDbEntity
8
SK1
62
256
6
ByLayer
370
18
48
1
60
0
100
AcDbLine
10
-14.2
20
-2.5
30
0
11
-14.2
21
2.5
31
0
39
0
210
0
220
0
230
1
0
LINE
5
A7
100
AcDbEntity
8
1
62
256
6
ByLayer
370
18
48
1
60
0
100
AcDbLine
10
10.483805
20
2.5
30
0
11
0
21
2.5
31
0
39
0
210
0
220
0
230
1
0
LINE
5
A8
100
AcDbEntity
8
1
62
256
6
ByLayer
370
18
48
1
60
0
100
AcDbLine
10
0
20
-2.5
30
0
11
10.483805
21
-2.5
31
0
39
0
210
0
220
0
230
1
0
LINE
5
A9
100
AcDbEntity
8
1
62
256
6
ByLayer
370
18
48
1
60
0
100
AcDbLine
10
29.078792
20
-2.551245
30
0
11
29.148507
21
-2.551245
31
0
39
0
210
0
220
0
230
1
0
LINE
5
AA
100
AcDbEntity
8
1
62
256
6
ByLayer
370
18
48
1
60
0
100
AcDbLine
10
31.148574
20
2.551245
30
0
11
31.078934
21
2.551245
31
0
39
0
210
0
220
0
230
1
0
LINE
5
AB
100
AcDbEntity
8
1
62
256
6
ByLayer
370
18
48
1
60
0
100
AcDbLine
10
28.278885
20
-2.551245
30
0
11
28.348483
21
-2.551245
31
0
39
0
210
0
220
0
230
1
0
LINE
5
AC
100
AcDbEntity
8
1
62
256
6
ByLayer
370
18
48
1
60
0
100
AcDbLine
10
31.948456
20
2.551245
30
0
11
31.878787
21
2.551245
31
0
39
0
210
0
220
0
230
1
0
LINE
5
AD
100
AcDbEntity
8
1
62
256
6
ByLayer
370
18
48
1
60
0
100
AcDbLine
10
14.043744
20
-1.88
30
0
11
18.614223
21
-1.88
31
0
39
0
210
0
220
0
230
1
0
LINE
5
AE
100
AcDbEntity
8
1
62
256
6
ByLayer
370
18
48
1
60
0
100
AcDbLine
10
22.42277
20
-1.88
30
0
11
24.082682
21
-1.88
31
0
39
0
210
0
220
0
230
1
0
LINE
5
AF
100
AcDbEntity
8
1
62
256
6
ByLayer
370
18
48
1
60
0
100
AcDbLine
10
26.633235
20
1.88
30
0
11
25.15098
21
1.88
31
0
39
0
210
0
220
0
230
1
0
LINE
5
B0
100
AcDbEntity
8
1
62
256
6
ByLayer
370
18
48
1
60
0
100
AcDbLine
10
21.347516
20
1.88
30
0
11
19.701704
21
1.88
31
0
39
0
210
0
220
0
230
1
0
LINE
5
B1
100
AcDbEntity
8
1
62
256
6
ByLayer
370
18
48
1
60
0
100
AcDbLine
10
16.124514
20
1.88
30
0
11
14.043744
21
1.88
31
0
39
0
210
0
220
0
230
1
0
LINE
5
B2
100
AcDbEntity
8
1
62
256
6
ByLayer
370
18
48
1
60
0
100
AcDbLine
10
37.805
20
0
30
0
11
36.046144
21
1.758856
31
0
39
0
210
0
220
0
230
1
0
LINE
5
B3
100
AcDbEntity
8
1
62
256
6
ByLayer
370
18
48
1
60
0
100
AcDbLine
10
36.828707
20
-0.976293
30
0
11
37.805
21
0
31
0
39
0
210
0
220
0
230
1
0
LINE
5
B4
100
AcDbEntity
8
1
62
256
6
ByLayer
370
18
48
1
60
0
100
AcDbLine
10
13.95692
20
1.887596
30
0
11
10.483805
21
2.5
31
0
39
0
210
0
220
0
230
1
0
LINE
5
B5
100
AcDbEntity
8
1
62
256
6
ByLayer
370
18
48
1
60
0
100
AcDbLine
10
10.483805
20
-2.5
30
0
11
13.95692
21
-1.887596
31
0
39
0
210
0
220
0
230
1
0
LINE
5
B6
100
AcDbEntity
8
SK1
62
256
6
ByLayer
370
18
48
1
60
0
100
AcDbLine
10
-22
20
-1.4
30
0
11
-21.4
21
-2
31
0
39
0
210
0
220
0
230
1
0
LINE
5
B7
100
AcDbEntity
8
SK1
62
256
6
ByLayer
370
18
48
1
60
0
100
AcDbLine
10
-21.4
20
2
30
0
11
-22
21
1.4
31
0
39
0
210
0
220
0
230
1
0
LINE
5
B8
100
AcDbEntity
8
SK1
62
256
6
ByLayer
370
18
48
1
60
0
100
AcDbLine
10
-14.3
20
2.4
30
0
11
-14.6
21
2.4
31
0
39
0
210
0
220
0
230
1
0
LINE
5
B9
100
AcDbEntity
8
SK1
62
256
6
ByLayer
370
18
48
1
60
0
100
AcDbLine
10
-14.6
20
-2.4
30
0
11
-14.3
21
-2.4
31
0
39
0
210
0
220
0
230
1
0
LINE
5
BA
100
AcDbEntity
8
SK1
62
256
6
ByLayer
370
18
48
1
60
0
100
AcDbLine
10
0
20
2.5
30
0
11
-14.2
21
2.5
31
0
39
0
210
0
220
0
230
1
0
LINE
5
BB
100
AcDbEntity
8
SK1
62
256
6
ByLayer
370
18
48
1
60
0
100
AcDbLine
10
-14.2
20
-2.5
30
0
11
0
21
-2.5
31
0
39
0
210
0
220
0
230
1
0
LINE
5
BC
100
AcDbEntity
8
SK1
62
256
6
ByLayer
370
18
48
1
60
0
100
AcDbLine
10
-14.3
20
-2.4
30
0
11
-14.2
21
-2.5
31
0
39
0
210
0
220
0
230
1
0
LINE
5
BD
100
AcDbEntity
8
SK1
62
256
6
ByLayer
370
18
48
1
60
0
100
AcDbLine
10
-14.2
20
2.5
30
0
11
-14.3
21
2.4
31
0
39
0
210
0
220
0
230
1
0
LINE
5
BE
100
AcDbEntity
8
SK2
62
256
6
ByLayer
370
18
48
1
60
0
100
AcDbLine
10
6.141903
20
15.341828
30
0
11
6.141903
21
-10
31
0
39
0
210
0
220
0
230
1
0
LINE
5
C0
100
AcDbEntity
8
1
62
256
6
ByLayer
370
18
48
1
60
1
100
AcDbLine
10
6.141903
20
2.5
30
0
11
5.681119
21
5.999998
31
0
39
0
210
0
220
0
230
1
0
LINE
5
C1
100
AcDbEntity
8
1
62
256
6
ByLayer
370
18
48
1
60
1
100
AcDbLine
10
5.681119
20
5.999998
30
0
11
6.602686
21
6.000002
31
0
39
0
210
0
220
0
230
1
0
LINE
5
C2
100
AcDbEntity
8
1
62
256
6
ByLayer
370
18
48
1
60
1
100
AcDbLine
10
6.602686
20
6.000002
30
0
11
6.141903
21
2.5
31
0
39
0
210
0
220
0
230
1
0
LINE
5
C3
100
AcDbEntity
8
1
62
256
6
ByLayer
370
18
48
1
60
1
100
AcDbLine
10
6.141903
20
-2.5
30
0
11
6.602686
21
-5.999998
31
0
39
0
210
0
220
0
230
1
0
LINE
5
C4
100
AcDbEntity
8
1
62
256
6
ByLayer
370
18
48
1
60
1
100
AcDbLine
10
6.602686
20
-5.999998
30
0
11
5.681119
21
-6.000002
31
0
39
0
210
0
220
0
230
1
0
LINE
5
C5
100
AcDbEntity
8
1
62
256
6
ByLayer
370
18
48
1
60
1
100
AcDbLine
10
5.681119
20
-6.000002
30
0
11
6.141903
21
-2.5
31
0
39
0
210
0
220
0
230
1
0
LINE
5
C6
100
AcDbEntity
8
2
62
256
6
ByLayer
370
18
48
1
60
0
100
AcDbLine
10
36
20
-40.051245
30
0
11
-22
21
-40.051245
31
0
39
0
210
0
220
0
230
1
0
LINE
5
C8
100
AcDbEntity
8
2
62
256
6
ByLayer
370
18
48
1
60
0
100
AcDbLine
10
-22
20
-2.9875
30
0
11
-22
21
-42.051245
31
0
39
0
210
0
220
0
230
1
0
LINE
5
C9
100
AcDbEntity
8
2
62
256
6
ByLayer
370
18
48
1
60
0
100
AcDbLine
10
36
20
-4.138745
30
0
11
36
21
-42.051245
31
0
39
0
210
0
220
0
230
1
0
LINE
5
CA
100
AcDbEntity
8
1
62
256
6
ByLayer
370
18
48
1
60
1
100
AcDbLine
10
-22
20
-40.051245
30
0
11
-18.500002
21
-39.590461
31
0
39
0
210
0
220
0
230
1
0
LINE
5
CB
100
AcDbEntity
8
1
62
256
6
ByLayer
370
18
48
1
60
1
100
AcDbLine
10
-18.500002
20
-39.590461
30
0
11
-18.499998
21
-40.512029
31
0
39
0
210
0
220
0
230
1
0
LINE
5
CC
100
AcDbEntity
8
1
62
256
6
ByLayer
370
18
48
1
60
1
100
AcDbLine
10
-18.499998
20
-40.512029
30
0
11
-22
21
-40.051245
31
0
39
0
210
0
220
0
230
1
0
LINE
5
CD
100
AcDbEntity
8
1
62
256
6
ByLayer
370
18
48
1
60
1
100
AcDbLine
10
36
20
-40.051245
30
0
11
32.500002
21
-40.512029
31
0
39
0
210
0
220
0
230
1
0
LINE
5
CE
100
AcDbEntity
8
1
62
256
6
ByLayer
370
18
48
1
60
1
100
AcDbLine
10
32.500002
20
-40.512029
30
0
11
32.499998
21
-39.590461
31
0
39
0
210
0
220
0
230
1
0
LINE
5
CF
100
AcDbEntity
8
1
62
256
6
ByLayer
370
18
48
1
60
1
100
AcDbLine
10
32.499998
20
-39.590461
30
0
11
36
21
-40.051245
31
0
39
0
210
0
220
0
230
1
0
LINE
5
1FA
100
AcDbEntity
8
1
62
256
6
ByLayer
370
18
48
1
60
1
100
AcDbLine
10
6.141903
20
2.5
30
0
11
5.681119
21
5.999998
31
0
39
0
210
0
220
0
230
1
0
LINE
5
1FB
100
AcDbEntity
8
1
62
256
6
ByLayer
370
18
48
1
60
1
100
AcDbLine
10
5.681119
20
5.999998
30
0
11
6.602686
21
6.000002
31
0
39
0
210
0
220
0
230
1
0
LINE
5
1FC
100
AcDbEntity
8
1
62
256
6
ByLayer
370
18
48
1
60
1
100
AcDbLine
10
6.602686
20
6.000002
30
0
11
6.141903
21
2.5
31
0
39
0
210
0
220
0
230
1
0
LINE
5
1FE
100
AcDbEntity
8
1
62
256
6
ByLayer
370
18
48
1
60
1
100
AcDbLine
10
6.141903
20
-2.5
30
0
11
6.602686
21
-5.999998
31
0
39
0
210
0
220
0
230
1
0
LINE
5
1FF
100
AcDbEntity
8
1
62
256
6
ByLayer
370
18
48
1
60
1
100
AcDbLine
10
6.602686
20
-5.999998
30
0
11
5.681119
21
-6.000002
31
0
39
0
210
0
220
0
230
1
0
LINE
5
200
100
AcDbEntity
8
1
62
256
6
ByLayer
370
18
48
1
60
1
100
AcDbLine
10
5.681119
20
-6.000002
30
0
11
6.141903
21
-2.5
31
0
39
0
210
0
220
0
230
1
0
LINE
5
203
100
AcDbEntity
8
1
62
256
6
ByLayer
370
18
48
1
60
1
100
AcDbLine
10
-22
20
-40.051245
30
0
11
-18.500002
21
-39.590461
31
0
39
0
210
0
220
0
230
1
0
LINE
5
204
100
AcDbEntity
8
1
62
256
6
ByLayer
370
18
48
1
60
1
100
AcDbLine
10
-18.500002
20
-39.590461
30
0
11
-18.499998
21
-40.512029
31
0
39
0
210
0
220
0
230
1
0
LINE
5
205
100
AcDbEntity
8
1
62
256
6
ByLayer
370
18
48
1
60
1
100
AcDbLine
10
-18.499998
20
-40.512029
30
0
11
-22
21
-40.051245
31
0
39
0
210
0
220
0
230
1
0
LINE
5
207
100
AcDbEntity
8
1
62
256
6
ByLayer
370
18
48
1
60
1
100
AcDbLine
10
36
20
-40.051245
30
0
11
32.500002
21
-40.512029
31
0
39
0
210
0
220
0
230
1
0
LINE
5
208
100
AcDbEntity
8
1
62
256
6
ByLayer
370
18
48
1
60
1
100
AcDbLine
10
32.500002
20
-40.512029
30
0
11
32.499998
21
-39.590461
31
0
39
0
210
0
220
0
230
1
0
LINE
5
209
100
AcDbEntity
8
1
62
256
6
ByLayer
370
18
48
1
60
1
100
AcDbLine
10
32.499998
20
-39.590461
30
0
11
36
21
-40.051245
31
0
39
0
210
0
220
0
230
1
0
MTEXT
5
1F6
100
AcDbEntity
8
SK2
62
256
6
ByLayer
370
18
48
1
60
0
100
AcDbMText
10
4.800788
20
8.158437
30
0
210
0
220
0
230
1
1
%%c
40
3
41
0
44
1.084337
50
90
71
7
72
5
7
iso_b_vert
0
MTEXT
5
1F9
100
AcDbEntity
8
SK2
62
256
6
ByLayer
370
18
48
1
60
0
100
AcDbMText
10
4.800788
20
14.135
30
0
210
0
220
0
230
1
1
\W0.5404;5
40
3
41
0
44
1.084337
50
90
71
7
72
5
7
iso_b_vert
0
MTEXT
5
202
100
AcDbEntity
8
2
62
256
6
ByLayer
370
18
48
1
60
0
100
AcDbMText
10
5.367172
20
-39.166131
30
0
210
0
220
0
230
1
1
\W0.6740;58
40
3
41
0
44
1.084337
50
0
71
7
72
5
7
iso_b_vert
0
MTEXT
5
20B
100
AcDbEntity
8
SK6
62
256
6
ByLayer
370
18
48
1
60
0
100
AcDbMText
10
-11.406403
20
-82.114886
30
0
210
0
220
0
230
1
1
\W0.7395;T300-XM100IA-M5     C145
40
3
41
0
44
1.084337
50
0
71
7
72
5
7
iso_b_vert
0
HATCH
5
1FD
100
AcDbEntity
8
SK2
62
256
6
ByLayer
370
13
48
1
60
0
100
AcDbHatch
10
0
20
0
30
0
210
0
220
0
230
1
2
ANSI31
70
0
71
0
91
1
92
5
93
3
72
1
10
6.14190263591851
20
2.5
11
5.68111889436574
21
5.99999830744682
72
1
10
5.68111889436574
20
5.99999830744682
11
6.60268637747129
21
6.00000169255318
72
1
10
6.60268637747129
20
6.00000169255318
11
6.14190263591851
21
2.5
97
0
75
0
76
1
52
0
41
0.0062
77
0
78
1
53
45
43
0
44
0
45
-0.0139193969876572
46
0.0139193969876572
79
0
47
0
98
1
10
0
20
0
0
HATCH
5
201
100
AcDbEntity
8
SK2
62
256
6
ByLayer
370
13
48
1
60
0
100
AcDbHatch
10
0
20
0
30
0
210
0
220
0
230
1
2
ANSI31
70
0
71
0
91
1
92
5
93
3
72
1
10
6.14190263591851
20
-2.5
11
6.60268637747129
21
-5.99999830744682
72
1
10
6.60268637747129
20
-5.99999830744682
11
5.68111889436574
21
-6.00000169255318
72
1
10
5.68111889436574
20
-6.00000169255318
11
6.14190263591851
21
-2.5
97
0
75
0
76
1
52
0
41
0.0062
77
0
78
1
53
45
43
0
44
0
45
-0.0139193969876572
46
0.0139193969876572
79
0
47
0
98
1
10
0
20
0
0
HATCH
5
206
100
AcDbEntity
8
2
62
256
6
ByLayer
370
13
48
1
60
0
100
AcDbHatch
10
0
20
0
30
0
210
0
220
0
230
1
2
ANSI31
70
0
71
0
91
1
92
5
93
3
72
1
10
-22
20
-40.0512449854632
11
-18.5000016925532
21
-39.5904612439104
72
1
10
-18.5000016925532
20
-39.5904612439104
11
-18.4999983074468
21
-40.512028727016
72
1
10
-18.4999983074468
20
-40.512028727016
11
-22
21
-40.0512449854632
97
0
75
0
76
1
52
0
41
0.0062
77
0
78
1
53
45
43
0
44
0
45
-0.0139193969876572
46
0.0139193969876572
79
0
47
0
98
1
10
0
20
0
0
HATCH
5
20A
100
AcDbEntity
8
2
62
256
6
ByLayer
370
13
48
1
60
0
100
AcDbHatch
10
0
20
0
30
0
210
0
220
0
230
1
2
ANSI31
70
0
71
0
91
1
92
5
93
3
72
1
10
36
20
-40.0512449854632
11
32.5000016925532
21
-40.512028727016
72
1
10
32.5000016925532
20
-40.512028727016
11
32.4999983074468
21
-39.5904612439104
72
1
10
32.4999983074468
20
-39.5904612439104
11
36
21
-40.0512449854632
97
0
75
0
76
1
52
0
41
0.0062
77
0
78
1
53
45
43
0
44
0
45
-0.0139193969876572
46
0.0139193969876572
79
0
47
0
98
1
10
0
20
0
0
DIMENSION
5
20E
100
AcDbEntity
8
2
62
256
6
ByLayer
370
18
48
1
60
0
100
AcDbDimension
2
_U0
10
54.653755
20
-2.551245
30
0
11
54.653755
21
20.051245
31
0
70
32
71
1
72
1
41
1
210
0
220
0
230
1
3
Standard
100
AcDbAlignedDimension
13
36
23
2.551245
33
0
14
36
24
-2.551245
34
0
50
90
100
AcDbRotatedDimension
1001
ACAD
1000
DSTYLE
1002
{
1070
   371
1070
    13
1070
   372
1070
    13
1070
     3
1000

1070
   170
1070
     0
1070
   144
1040
1.0
1070
   277
1070
     2
1070
   284
1070
     8
1070
   278
1070
    46
1070
   146
1040
1.166667
1070
   345
1005
16
1070
   347
1005
16
1070
   346
1005
16
1070
   344
1005
0
1070
   343
1005
0
1070
   172
1070
     1
1070
    76
1070
     0
1070
    75
1070
     0
1070
   282
1070
     0
1070
   281
1070
     0
1070
    71
1070
     0
1070
    74
1070
     0
1070
   279
1070
     0
1070
   173
1070
     1
1070
   340
1005
1F7
1070
   271
1070
     3
1070
   272
1070
     3
1070
    77
1070
     1
1070
    73
1070
     0
1070
   171
1070
     3
1070
   274
1070
     4
1070
   177
1070
     2
1070
   176
1070
     2
1070
   178
1070
     2
1070
    78
1070
     8
1070
    48
1040
-0.1
1070
    41
1040
3.5
1070
   147
1040
1.5
1070
    42
1040
1.5875
1070
    44
1040
2.0
1070
   140
1040
3.0
1002
}
1001
ACAD_DSTYLE_DIM_LINETYPE
1070
   380
1005
16
1001
ACAD_DSTYLE_DIM_EXT1_LINETYPE
1070
   381
1005
16
1001
ACAD_DSTYLE_DIM_EXT2_LINETYPE
1070
   382
1005
16
0
DIMENSION
5
229
100
AcDbEntity
8
SK2
62
256
6
ByLayer
370
18
48
1
60
0
100
AcDbDimension
2
_U1
10
33.8
20
11.471509
30
0
11
34.9
21
11.471509
31
0
70
32
71
1
72
1
41
1
210
0
220
0
230
1
3
Standard
100
AcDbAlignedDimension
13
36
23
2.551245
33
0
14
33.8
24
0
34
0
50
0
100
AcDbRotatedDimension
1001
ACAD
1000
DSTYLE
1002
{
1070
   371
1070
    13
1070
   372
1070
    13
1070
   170
1070
     0
1070
   144
1040
1.0
1070
   277
1070
     2
1070
   284
1070
     8
1070
   278
1070
    46
1070
   146
1040
1.166667
1070
   345
1005
16
1070
   347
1005
16
1070
   346
1005
16
1070
   344
1005
0
1070
   343
1005
0
1070
   172
1070
     1
1070
    76
1070
     0
1070
    75
1070
     0
1070
   282
1070
     0
1070
   281
1070
     0
1070
    71
1070
     0
1070
    74
1070
     0
1070
   279
1070
     0
1070
   173
1070
     1
1070
   340
1005
1F7
1070
   271
1070
     3
1070
   272
1070
     3
1070
    77
1070
     1
1070
    73
1070
     1
1070
   171
1070
     3
1070
   274
1070
     4
1070
   177
1070
     2
1070
   176
1070
     2
1070
   178
1070
     2
1070
    78
1070
     8
1070
    48
1040
-0.1
1070
    41
1040
3.5
1070
   147
1040
1.5
1070
    42
1040
1.5875
1070
    44
1040
2.0
1070
   140
1040
3.0
1002
}
1001
ACAD_DSTYLE_DIM_LINETYPE
1070
   380
1005
16
1001
ACAD_DSTYLE_DIM_EXT1_LINETYPE
1070
   381
1005
16
1001
ACAD_DSTYLE_DIM_EXT2_LINETYPE
1070
   382
1005
16
0
DIMENSION
5
243
100
AcDbEntity
8
SK2
62
256
6
ByLayer
370
18
48
1
60
0
100
AcDbDimension
2
_U2
10
28
20
-9.551245
30
0
11
48.5
21
-9.551245
31
0
70
32
71
1
72
1
41
1
210
0
220
0
230
1
3
Standard
100
AcDbAlignedDimension
13
36
23
-2.551245
33
0
14
28
24
-2.551245
34
0
50
0
100
AcDbRotatedDimension
1001
ACAD
1000
DSTYLE
1002
{
1070
   371
1070
    13
1070
   372
1070
    13
1070
   170
1070
     0
1070
   144
1040
1.0
1070
   277
1070
     2
1070
   284
1070
     8
1070
   278
1070
    46
1070
   146
1040
0.833333
1070
   345
1005
16
1070
   347
1005
16
1070
   346
1005
16
1070
   344
1005
0
1070
   343
1005
0
1070
   172
1070
     1
1070
    76
1070
     0
1070
    75
1070
     0
1070
   282
1070
     0
1070
   281
1070
     0
1070
    47
1040
0.5
1070
    72
1070
     0
1070
    71
1070
     1
1070
    74
1070
     0
1070
   279
1070
     0
1070
   173
1070
     1
1070
   340
1005
1F7
1070
   271
1070
     1
1070
   272
1070
     3
1070
    77
1070
     1
1070
    73
1070
     1
1070
   171
1070
     3
1070
   274
1070
     4
1070
   177
1070
     2
1070
   176
1070
     2
1070
   178
1070
     2
1070
    78
1070
     8
1070
    48
1040
0.5
1070
    41
1040
3.5
1070
   147
1040
1.5
1070
    42
1040
1.5875
1070
    44
1040
2.0
1070
   140
1040
3.0
1002
}
1001
ACAD_DSTYLE_DIM_LINETYPE
1070
   380
1005
16
1001
ACAD_DSTYLE_DIM_EXT1_LINETYPE
1070
   381
1005
16
1001
ACAD_DSTYLE_DIM_EXT2_LINETYPE
1070
   382
1005
16
0
DIMENSION
5
25E
100
AcDbEntity
8
SK2
62
256
6
ByLayer
370
18
48
1
60
0
100
AcDbDimension
2
_U3
10
14
20
-32.051245
30
0
11
25
21
-32.051245
31
0
70
32
71
1
72
1
41
1
210
0
220
0
230
1
3
Standard
100
AcDbAlignedDimension
13
36
23
-2.551245
33
0
14
14
24
-1.88
34
0
50
0
100
AcDbRotatedDimension
1001
ACAD
1000
DSTYLE
1002
{
1070
   371
1070
    13
1070
   372
1070
    13
1070
   170
1070
     0
1070
   144
1040
1.0
1070
   277
1070
     2
1070
   284
1070
     8
1070
   278
1070
    46
1070
   146
1040
1.166667
1070
   345
1005
16
1070
   347
1005
16
1070
   346
1005
16
1070
   344
1005
0
1070
   343
1005
0
1070
   172
1070
     1
1070
    76
1070
     0
1070
    75
1070
     0
1070
   282
1070
     0
1070
   281
1070
     0
1070
    71
1070
     0
1070
    74
1070
     0
1070
   279
1070
     0
1070
   173
1070
     1
1070
   340
1005
1F7
1070
   271
1070
     1
1070
   272
1070
     3
1070
    77
1070
     1
1070
    73
1070
     1
1070
   171
1070
     3
1070
   274
1070
     4
1070
   177
1070
     2
1070
   176
1070
     2
1070
   178
1070
     2
1070
    78
1070
     8
1070
    48
1040
-0.1
1070
    41
1040
3.5
1070
   147
1040
1.5
1070
    42
1040
1.5875
1070
    44
1040
2.0
1070
   140
1040
3.0
1002
}
1001
ACAD_DSTYLE_DIM_LINETYPE
1070
   380
1005
16
1001
ACAD_DSTYLE_DIM_EXT1_LINETYPE
1070
   381
1005
16
1001
ACAD_DSTYLE_DIM_EXT2_LINETYPE
1070
   382
1005
16
0
DIMENSION
5
276
100
AcDbEntity
8
2
62
256
6
ByLayer
370
18
48
1
60
0
100
AcDbDimension
2
_U4
10
15.5
20
-21.051245
30
0
11
25.75
21
-21.051245
31
0
70
32
71
1
72
1
41
1
210
0
220
0
230
1
3
Standard
100
AcDbAlignedDimension
13
36
23
-2.551245
33
0
14
15.5
24
0
34
0
50
0
100
AcDbRotatedDimension
1001
ACAD
1000
DSTYLE
1002
{
1070
   371
1070
    13
1070
   372
1070
    13
1070
   170
1070
     0
1070
   144
1040
1.0
1070
   277
1070
     2
1070
   284
1070
     8
1070
   278
1070
    46
1070
   146
1040
1.166667
1070
   345
1005
16
1070
   347
1005
16
1070
   346
1005
16
1070
   344
1005
0
1070
   343
1005
0
1070
   172
1070
     1
1070
    76
1070
     0
1070
    75
1070
     0
1070
   282
1070
     0
1070
   281
1070
     0
1070
    71
1070
     0
1070
    74
1070
     0
1070
   279
1070
     0
1070
   173
1070
     1
1070
   340
1005
1F7
1070
   271
1070
     1
1070
   272
1070
     3
1070
    77
1070
     1
1070
    73
1070
     1
1070
   171
1070
     3
1070
   274
1070
     4
1070
   177
1070
     2
1070
   176
1070
     2
1070
   178
1070
     2
1070
    78
1070
     8
1070
    48
1040
-0.1
1070
    41
1040
3.5
1070
   147
1040
1.5
1070
    42
1040
1.5875
1070
    44
1040
2.0
1070
   140
1040
3.0
1002
}
1001
ACAD_DSTYLE_DIM_LINETYPE
1070
   380
1005
16
1001
ACAD_DSTYLE_DIM_EXT1_LINETYPE
1070
   381
1005
16
1001
ACAD_DSTYLE_DIM_EXT2_LINETYPE
1070
   382
1005
16
0
ENDSEC
0
SECTION
2
OBJECTS
0
DICTIONARY
5
2fe
330
0
100
AcDbDictionary
280
0
281
1
3
ACAD_GROUP
350
2ff
3
ACAD_MLINESTYLE
350
300
0
DICTIONARY
5
2ff
330
0
100
AcDbDictionary
280
0
281
1
0
DICTIONARY
5
300
330
0
100
AcDbDictionary
280
0
281
1
3
Standard
350
18
0
MLINESTYLE
5
18
330
300
100
AcDbMlineStyle
2
Standard
70
0
3

62
256
51
90
52
90
71
2
49
-0.5
62
256
6
ByLayer
49
0.5
62
256
6
ByLayer
0
RASTERVARIABLES
5
2ec
330

100
AcDbRasterVariables
90
0
70
1
71
1
72
1
0
ENDSEC
0
EOF
